  0
SECTION
  2
HEADER
  9
$ACADVER
  1
AC1015
  9
$ACADMAINTVER
 70
    20
  9
$DWGCODEPAGE
  3
ANSI_1252
  9
$INSBASE
 10
0.0
 20
0.0
 30
0.0
  9
$EXTMIN
 10
-0.075
 20
-0.075
 30
0.0
  9
$EXTMAX
 10
22.075
 20
17.075
 30
0.0
  9
$LIMMIN
 10
0.0
 20
0.0
  9
$LIMMAX
 10
12.0
 20
9.0
  9
$ORTHOMODE
 70
     0
  9
$REGENMODE
 70
     1
  9
$FILLMODE
 70
     1
  9
$QTEXTMODE
 70
     0
  9
$MIRRTEXT
 70
     1
  9
$LTSCALE
 40
1.0
  9
$ATTMODE
 70
     1
  9
$TEXTSIZE
 40
0.09
  9
$TRACEWID
 40
0.05
  9
$TEXTSTYLE
  7
STANDARD
  9
$CLAYER
  8
0
  9
$CELTYPE
  6
BYLAYER
  9
$CECOLOR
 62
   256
  9
$CELTSCALE
 40
1.0
  9
$DISPSILH
 70
     0
  9
$DIMSCALE
 40
1.0
  9
$DIMASZ
 40
0.125
  9
$DIMEXO
 40
0.0625
  9
$DIMDLI
 40
0.38
  9
$DIMRND
 40
0.0
  9
$DIMDLE
 40
0.0
  9
$DIMEXE
 40
0.125
  9
$DIMTP
 40
0.0
  9
$DIMTM
 40
0.0
  9
$DIMTXT
 40
0.09
  9
$DIMCEN
 40
0.09
  9
$DIMTSZ
 40
0.0
  9
$DIMTOL
 70
     0
  9
$DIMLIM
 70
     0
  9
$DIMTIH
 70
     1
  9
$DIMTOH
 70
     1
  9
$DIMSE1
 70
     0
  9
$DIMSE2
 70
     0
  9
$DIMTAD
 70
     0
  9
$DIMZIN
 70
     0
  9
$DIMBLK
  1

  9
$DIMASO
 70
     1
  9
$DIMSHO
 70
     1
  9
$DIMPOST
  1

  9
$DIMAPOST
  1
mm
  9
$DIMALT
 70
     1
  9
$DIMALTD
 70
     1
  9
$DIMALTF
 40
25.4
  9
$DIMLFAC
 40
1.0
  9
$DIMTOFL
 70
     0
  9
$DIMTVP
 40
0.0
  9
$DIMTIX
 70
     0
  9
$DIMSOXD
 70
     0
  9
$DIMSAH
 70
     0
  9
$DIMBLK1
  1

  9
$DIMBLK2
  1

  9
$DIMSTYLE
  2
STANDARD
  9
$DIMCLRD
 70
     0
  9
$DIMCLRE
 70
     0
  9
$DIMCLRT
 70
     0
  9
$DIMTFAC
 40
1.0
  9
$DIMGAP
 40
0.09
  9
$DIMJUST
 70
     0
  9
$DIMSD1
 70
     0
  9
$DIMSD2
 70
     0
  9
$DIMTOLJ
 70
     1
  9
$DIMTZIN
 70
     0
  9
$DIMALTZ
 70
     0
  9
$DIMALTTZ
 70
     0
  9
$DIMUPT
 70
     0
  9
$DIMDEC
 70
     2
  9
$DIMTDEC
 70
     2
  9
$DIMALTU
 70
     2
  9
$DIMALTTD
 70
     1
  9
$DIMTXSTY
  7
STANDARD
  9
$DIMAUNIT
 70
     0
  9
$DIMADEC
 70
     0
  9
$DIMALTRND
 40
0.0
  9
$DIMAZIN
 70
     0
  9
$DIMDSEP
 70
    46
  9
$DIMATFIT
 70
     3
  9
$DIMFRAC
 70
     0
  9
$DIMLDRBLK
  1

  9
$DIMLUNIT
 70
     2
  9
$DIMLWD
 70
    -2
  9
$DIMLWE
 70
    -2
  9
$DIMTMOVE
 70
     0
  9
$LUNITS
 70
     2
  9
$LUPREC
 70
     2
  9
$SKETCHINC
 40
0.1
  9
$FILLETRAD
 40
0.5
  9
$AUNITS
 70
     0
  9
$AUPREC
 70
     0
  9
$MENU
  1
.
  9
$ELEVATION
 40
0.0
  9
$PELEVATION
 40
0.0
  9
$THICKNESS
 40
0.0
  9
$LIMCHECK
 70
     0
  9
$CHAMFERA
 40
0.5
  9
$CHAMFERB
 40
0.5
  9
$CHAMFERC
 40
1.0
  9
$CHAMFERD
 40
0.0
  9
$SKPOLY
 70
     0
  9
$TDCREATE
 40
2451681.555436007
  9
$TDUCREATE
 40
2451681.763769340
  9
$TDUPDATE
 40
2454294.653681574
  9
$TDUUPDATE
 40
2454294.862014908
  9
$TDINDWG
 40
0.2257254051
  9
$TDUSRTIMER
 40
0.2257254051
  9
$USRTIMER
 70
     1
  9
$ANGBASE
 50
0.0
  9
$ANGDIR
 70
     0
  9
$PDMODE
 70
     2
  9
$PDSIZE
 40
0.075
  9
$PLINEWID
 40
0.0
  9
$SPLFRAME
 70
     0
  9
$SPLINETYPE
 70
     6
  9
$SPLINESEGS
 70
     8
  9
$HANDSEED
  5
1586
  9
$SURFTAB1
 70
     6
  9
$SURFTAB2
 70
     6
  9
$SURFTYPE
 70
     6
  9
$SURFU
 70
     6
  9
$SURFV
 70
     6
  9
$UCSBASE
  2

  9
$UCSNAME
  2

  9
$UCSORG
 10
0.0
 20
0.0
 30
0.0
  9
$UCSXDIR
 10
1.0
 20
0.0
 30
0.0
  9
$UCSYDIR
 10
0.0
 20
1.0
 30
0.0
  9
$UCSORTHOREF
  2

  9
$UCSORTHOVIEW
 70
     0
  9
$UCSORGTOP
 10
0.0
 20
0.0
 30
0.0
  9
$UCSORGBOTTOM
 10
0.0
 20
0.0
 30
0.0
  9
$UCSORGLEFT
 10
0.0
 20
0.0
 30
0.0
  9
$UCSORGRIGHT
 10
0.0
 20
0.0
 30
0.0
  9
$UCSORGFRONT
 10
0.0
 20
0.0
 30
0.0
  9
$UCSORGBACK
 10
0.0
 20
0.0
 30
0.0
  9
$PUCSBASE
  2

  9
$PUCSNAME
  2

  9
$PUCSORG
 10
0.0
 20
0.0
 30
0.0
  9
$PUCSXDIR
 10
1.0
 20
0.0
 30
0.0
  9
$PUCSYDIR
 10
0.0
 20
1.0
 30
0.0
  9
$PUCSORTHOREF
  2

  9
$PUCSORTHOVIEW
 70
     0
  9
$PUCSORGTOP
 10
0.0
 20
0.0
 30
0.0
  9
$PUCSORGBOTTOM
 10
0.0
 20
0.0
 30
0.0
  9
$PUCSORGLEFT
 10
0.0
 20
0.0
 30
0.0
  9
$PUCSORGRIGHT
 10
0.0
 20
0.0
 30
0.0
  9
$PUCSORGFRONT
 10
0.0
 20
0.0
 30
0.0
  9
$PUCSORGBACK
 10
0.0
 20
0.0
 30
0.0
  9
$USERI1
 70
     0
  9
$USERI2
 70
     0
  9
$USERI3
 70
     0
  9
$USERI4
 70
     0
  9
$USERI5
 70
     0
  9
$USERR1
 40
0.0
  9
$USERR2
 40
0.0
  9
$USERR3
 40
0.0
  9
$USERR4
 40
0.0
  9
$USERR5
 40
0.0
  9
$WORLDVIEW
 70
     1
  9
$SHADEDGE
 70
     3
  9
$SHADEDIF
 70
    70
  9
$TILEMODE
 70
     1
  9
$MAXACTVP
 70
    48
  9
$PINSBASE
 10
0.0
 20
0.0
 30
0.0
  9
$PLIMCHECK
 70
     0
  9
$PEXTMIN
 10
1.000000000000000E+20
 20
1.000000000000000E+20
 30
1.000000000000000E+20
  9
$PEXTMAX
 10
-1.000000000000000E+20
 20
-1.000000000000000E+20
 30
-1.000000000000000E+20
  9
$PLIMMIN
 10
0.0
 20
0.0
  9
$PLIMMAX
 10
12.0
 20
9.0
  9
$UNITMODE
 70
     0
  9
$VISRETAIN
 70
     1
  9
$PLINEGEN
 70
     0
  9
$PSLTSCALE
 70
     1
  9
$TREEDEPTH
 70
  3020
  9
$CMLSTYLE
  2
STANDARD
  9
$CMLJUST
 70
     0
  9
$CMLSCALE
 40
1.0
  9
$PROXYGRAPHICS
 70
     1
  9
$MEASUREMENT
 70
     0
  9
$CELWEIGHT
370
    -1
  9
$ENDCAPS
280
     0
  9
$JOINSTYLE
280
     0
  9
$LWDISPLAY
290
     0
  9
$INSUNITS
 70
     0
  9
$HYPERLINKBASE
  1

  9
$STYLESHEET
  1

  9
$XEDIT
290
     1
  9
$CEPSNTYPE
380
     0
  9
$PSTYLEMODE
290
     1
  9
$FINGERPRINTGUID
  2
{71EC7F31-AA06-4ECF-8D30-7E7FC2EDBC33}
  9
$VERSIONGUID
  2
{2A2EFC73-AB78-4BF6-B447-9BFCFA44E039}
  9
$EXTNAMES
290
     1
  9
$PSVPSCALE
 40
0.0
  9
$OLESTARTUP
290
     0
  0
ENDSEC
  0
SECTION
  2
CLASSES
  0
CLASS
  1
ACDBDICTIONARYWDFLT
  2
AcDbDictionaryWithDefault
  3
ObjectDBX Classes
 90
        0
280
     0
281
     0
  0
CLASS
  1
TABLESTYLE
  2
AcDbTableStyle
  3
ObjectDBX Classes
 90
     2047
280
     0
281
     0
  0
CLASS
  1
DICTIONARYVAR
  2
AcDbDictionaryVar
  3
ObjectDBX Classes
 90
        0
280
     0
281
     0
  0
CLASS
  1
ACDBPLACEHOLDER
  2
AcDbPlaceHolder
  3
ObjectDBX Classes
 90
        0
280
     0
281
     0
  0
CLASS
  1
LAYOUT
  2
AcDbLayout
  3
ObjectDBX Classes
 90
        0
280
     0
281
     0
  0
ENDSEC
  0
SECTION
  2
TABLES
  0
TABLE
  2
VPORT
  5
8
330
0
100
AcDbSymbolTable
 70
     2
  0
VPORT
  5
1580
330
8
100
AcDbSymbolTableRecord
100
AcDbViewportTableRecord
  2
*Active
 70
     0
 10
0.0
 20
0.0
 11
1.0
 21
1.0
 12
11.00000015472541
 22
9.103873819164817
 13
0.0
 23
0.0
 14
0.5
 24
0.5
 15
0.5
 25
0.5
 16
0.0
 26
0.0
 36
1.0
 17
0.0
 27
0.0
 37
0.0
 40
18.46820989900854
 41
1.499364675984752
 42
50.0
 43
0.0
 44
0.0
 50
0.0
 51
0.0
 71
     0
 72
   100
 73
     1
 74
     1
 75
     0
 76
     0
 77
     0
 78
     0
281
     0
 65
     1
110
0.0
120
0.0
130
0.0
111
1.0
121
0.0
131
0.0
112
0.0
122
1.0
132
0.0
 79
     0
146
0.0
  0
ENDTAB
  0
TABLE
  2
LTYPE
  5
5
330
0
100
AcDbSymbolTable
 70
     1
  0
LTYPE
  5
12
330
5
100
AcDbSymbolTableRecord
100
AcDbLinetypeTableRecord
  2
BYBLOCK
 70
     0
  3

 72
    65
 73
     0
 40
0.0
  0
LTYPE
  5
13
330
5
100
AcDbSymbolTableRecord
100
AcDbLinetypeTableRecord
  2
BYLAYER
 70
     0
  3

 72
    65
 73
     0
 40
0.0
  0
LTYPE
  5
14
330
5
100
AcDbSymbolTableRecord
100
AcDbLinetypeTableRecord
  2
CONTINUOUS
 70
     0
  3
Solid line
 72
    65
 73
     0
 40
0.0
  0
ENDTAB
  0
TABLE
  2
LAYER
  5
2
102
{ACAD_XDICTIONARY
360
154
102
}
330
0
100
AcDbSymbolTable
 70
     6
  0
LAYER
  5
E
330
2
100
AcDbSymbolTableRecord
100
AcDbLayerTableRecord
  2
0
 70
     0
 62
     7
  6
CONTINUOUS
370
    -3
390
10B
  0
LAYER
  5
20
330
2
100
AcDbSymbolTableRecord
100
AcDbLayerTableRecord
  2
Title Block
 70
     0
 62
     3
  6
CONTINUOUS
370
    -3
390
10B
  0
LAYER
  5
21
330
2
100
AcDbSymbolTableRecord
100
AcDbLayerTableRecord
  2
Dimension
 70
     0
 62
     6
  6
CONTINUOUS
370
    -3
390
10B
  0
LAYER
  5
22
330
2
100
AcDbSymbolTableRecord
100
AcDbLayerTableRecord
  2
Text
 70
     0
 62
     1
  6
CONTINUOUS
370
    -3
390
10B
  0
LAYER
  5
23
330
2
100
AcDbSymbolTableRecord
100
AcDbLayerTableRecord
  2
Object
 70
     0
 62
     5
  6
CONTINUOUS
370
    -3
390
10B
  0
LAYER
  5
179
330
2
100
AcDbSymbolTableRecord
100
AcDbLayerTableRecord
  2
Defpoints
 70
     0
 62
     7
  6
CONTINUOUS
290
     0
370
    -3
390
10B
  0
ENDTAB
  0
TABLE
  2
STYLE
  5
3
330
0
100
AcDbSymbolTable
 70
     1
  0
STYLE
  5
F
330
3
100
AcDbSymbolTableRecord
100
AcDbTextStyleTableRecord
  2
STANDARD
 70
     0
 40
0.0
 41
1.0
 50
0.0
 71
     0
 42
0.09
  3
technic_.ttf
  4

1001
ACAD
1000
Technic
1071
      514
  0
ENDTAB
  0
TABLE
  2
VIEW
  5
6
330
0
100
AcDbSymbolTable
 70
     0
  0
ENDTAB
  0
TABLE
  2
UCS
  5
7
330
0
100
AcDbSymbolTable
 70
     0
  0
ENDTAB
  0
TABLE
  2
APPID
  5
9
330
0
100
AcDbSymbolTable
 70
     4
  0
APPID
  5
10
330
9
100
AcDbSymbolTableRecord
100
AcDbRegAppTableRecord
  2
ACAD
 70
     0
  0
APPID
  5
149
330
9
100
AcDbSymbolTableRecord
100
AcDbRegAppTableRecord
  2
DCO15
 70
     0
  0
APPID
  5
153
330
9
100
AcDbSymbolTableRecord
100
AcDbRegAppTableRecord
  2
AcAecLayerStandard
 70
     0
  0
APPID
  5
1A9
330
9
100
AcDbSymbolTableRecord
100
AcDbRegAppTableRecord
  2
ACAD_DSTYLE_DIMTEXT_FILL
 70
     0
  0
ENDTAB
  0
TABLE
  2
DIMSTYLE
  5
A
330
0
100
AcDbSymbolTable
 70
     1
100
AcDbDimStyleTable
 71
     1
340
1D
  0
DIMSTYLE
105
1D
102
{ACAD_REACTORS
330
14D8
330
14E6
330
14F4
330
153C
102
}
330
A
100
AcDbSymbolTableRecord
100
AcDbDimStyleTableRecord
  2
STANDARD
 70
     0
  4
mm
 41
0.125
 44
0.125
140
0.09
170
     1
171
     1
271
     2
272
     2
274
     1
340
F
  0
ENDTAB
  0
TABLE
  2
BLOCK_RECORD
  5
1
330
0
100
AcDbSymbolTable
 70
     4
  0
BLOCK_RECORD
  5
18
330
1
100
AcDbSymbolTableRecord
100
AcDbBlockTableRecord
  2
*MODEL_SPACE
340
112
  0
BLOCK_RECORD
  5
15
330
1
100
AcDbSymbolTableRecord
100
AcDbBlockTableRecord
  2
*PAPER_SPACE
340
113
  0
BLOCK_RECORD
  5
14D9
330
1
100
AcDbSymbolTableRecord
100
AcDbBlockTableRecord
  2
*D0
340
0
  0
BLOCK_RECORD
  5
14E7
330
1
100
AcDbSymbolTableRecord
100
AcDbBlockTableRecord
  2
*D1
340
0
  0
BLOCK_RECORD
  5
14F5
330
1
100
AcDbSymbolTableRecord
100
AcDbBlockTableRecord
  2
*D2
340
0
  0
BLOCK_RECORD
  5
153D
330
1
100
AcDbSymbolTableRecord
100
AcDbBlockTableRecord
  2
*D3
340
0
  0
ENDTAB
  0
ENDSEC
  0
SECTION
  2
BLOCKS
  0
BLOCK
  5
19
330
18
100
AcDbEntity
  8
0
100
AcDbBlockBegin
  2
*MODEL_SPACE
 70
     0
 10
0.0
 20
0.0
 30
0.0
  3
*MODEL_SPACE
  1

  0
ENDBLK
  5
1A
330
18
100
AcDbEntity
  8
0
100
AcDbBlockEnd
  0
BLOCK
  5
16
330
15
100
AcDbEntity
 67
     1
  8
0
100
AcDbBlockBegin
  2
*PAPER_SPACE
 70
     0
 10
0.0
 20
0.0
 30
0.0
  3
*PAPER_SPACE
  1

  0
ENDBLK
  5
17
330
15
100
AcDbEntity
 67
     1
  8
0
100
AcDbBlockEnd
  0
BLOCK
  5
14E4
330
14D9
100
AcDbEntity
  8
0
100
AcDbBlockBegin
  2
*D0
 70
     1
 10
0.0
 20
0.0
 30
0.0
  3
*D0
  1

  0
LINE
  5
14DA
330
14D9
100
AcDbEntity
  8
Dimension
 62
     0
370
    -2
100
AcDbLine
 10
11.9015
 20
12.963
 30
0.0
 11
13.63064669848824
 21
12.963
 31
0.0
  0
LINE
  5
14DB
330
14D9
100
AcDbEntity
  8
Dimension
 62
     0
370
    -2
100
AcDbLine
 10
11.9015
 20
10.963
 30
0.0
 11
13.63064669848823
 21
10.963
 31
0.0
  0
LINE
  5
14DC
330
14D9
100
AcDbEntity
  8
Dimension
 62
     0
370
    -2
100
AcDbLine
 10
13.50564669848824
 20
12.838
 30
0.0
 11
13.50564669848824
 21
12.11602631578947
 31
0.0
  0
LINE
  5
14DD
330
14D9
100
AcDbEntity
  8
Dimension
 62
     0
370
    -2
100
AcDbLine
 10
13.50564669848823
 20
11.088
 30
0.0
 11
13.50564669848823
 21
11.80997368421052
 31
0.0
  0
SOLID
  5
14DE
330
14D9
100
AcDbEntity
  8
Dimension
 62
     0
100
AcDbTrace
 10
13.4848133651549
 20
12.838
 30
0.0
 11
13.52648003182157
 21
12.838
 31
0.0
 12
13.50564669848824
 22
12.963
 32
0.0
 13
13.50564669848824
 23
12.963
 33
0.0
  0
SOLID
  5
14DF
330
14D9
100
AcDbEntity
  8
Dimension
 62
     0
100
AcDbTrace
 10
13.4848133651549
 20
11.088
 30
0.0
 11
13.52648003182157
 21
11.088
 31
0.0
 12
13.50564669848823
 22
10.963
 32
0.0
 13
13.50564669848823
 23
10.963
 33
0.0
  0
MTEXT
  5
14E0
330
14D9
100
AcDbEntity
  8
Dimension
 62
     0
100
AcDbMText
 10
13.50564669848823
 20
11.963
 30
0.0
 40
0.09
 41
0.0
 71
     5
 72
     1
  1
\A1;2.00 [50.8mm]
 73
     1
 44
1.0
1001
ACAD
1000
MTEXTBEGIN
1070
    73
1070
     1
1070
    44
1040
1.0
1070
    74
1070
     0
1000
MTEXTEND
  0
POINT
  5
14E1
330
14D9
100
AcDbEntity
  8
Defpoints
 62
     0
100
AcDbPoint
 10
11.839
 20
12.963
 30
0.0
  0
POINT
  5
14E2
330
14D9
100
AcDbEntity
  8
Defpoints
 62
     0
100
AcDbPoint
 10
11.839
 20
10.963
 30
0.0
  0
POINT
  5
14E3
330
14D9
100
AcDbEntity
  8
Defpoints
 62
     0
100
AcDbPoint
 10
13.50564669848823
 20
10.963
 30
0.0
  0
ENDBLK
  5
14E5
330
14D9
100
AcDbEntity
  8
0
100
AcDbBlockEnd
  0
BLOCK
  5
14F2
330
14E7
100
AcDbEntity
  8
0
100
AcDbBlockBegin
  2
*D1
 70
     1
 10
0.0
 20
0.0
 30
0.0
  3
*D1
  1

  0
LINE
  5
14E8
330
14E7
100
AcDbEntity
  8
Dimension
 62
     0
370
    -2
100
AcDbLine
 10
2.213999999999999
 20
5.0365
 30
0.0
 11
2.213999999999999
 21
6.204914365387764
 31
0.0
  0
LINE
  5
14E9
330
14E7
100
AcDbEntity
  8
Dimension
 62
     0
370
    -2
100
AcDbLine
 10
12.214
 20
5.0365
 30
0.0
 11
12.214
 21
6.204914365387764
 31
0.0
  0
LINE
  5
14EA
330
14E7
100
AcDbEntity
  8
Dimension
 62
     0
370
    -2
100
AcDbLine
 10
2.338999999999999
 20
6.079914365387764
 30
0.0
 11
6.663605263157895
 21
6.079914365387764
 31
0.0
  0
LINE
  5
14EB
330
14E7
100
AcDbEntity
  8
Dimension
 62
     0
370
    -2
100
AcDbLine
 10
12.089
 20
6.079914365387764
 30
0.0
 11
7.764394736842105
 21
6.079914365387764
 31
0.0
  0
SOLID
  5
14EC
330
14E7
100
AcDbEntity
  8
Dimension
 62
     0
100
AcDbTrace
 10
2.338999999999999
 20
6.100747698721098
 30
0.0
 11
2.338999999999999
 21
6.059081032054431
 31
0.0
 12
2.213999999999999
 22
6.079914365387764
 32
0.0
 13
2.213999999999999
 23
6.079914365387764
 33
0.0
  0
SOLID
  5
14ED
330
14E7
100
AcDbEntity
  8
Dimension
 62
     0
100
AcDbTrace
 10
12.089
 20
6.100747698721098
 30
0.0
 11
12.089
 21
6.059081032054431
 31
0.0
 12
12.214
 22
6.079914365387764
 32
0.0
 13
12.214
 23
6.079914365387764
 33
0.0
  0
MTEXT
  5
14EE
330
14E7
100
AcDbEntity
  8
Dimension
 62
     0
100
AcDbMText
 10
7.214
 20
6.079914365387764
 30
0.0
 40
0.09
 41
0.0
 71
     5
 72
     1
  1
\A1;10.00 [254.0mm]
 73
     1
 44
1.0
1001
ACAD
1000
MTEXTBEGIN
1070
    73
1070
     1
1070
    44
1040
1.0
1070
    74
1070
     0
1000
MTEXTEND
  0
POINT
  5
14EF
330
14E7
100
AcDbEntity
  8
Defpoints
 62
     0
100
AcDbPoint
 10
2.213999999999999
 20
4.974
 30
0.0
  0
POINT
  5
14F0
330
14E7
100
AcDbEntity
  8
Defpoints
 62
     0
100
AcDbPoint
 10
12.214
 20
4.974
 30
0.0
  0
POINT
  5
14F1
330
14E7
100
AcDbEntity
  8
Defpoints
 62
     0
100
AcDbPoint
 10
12.214
 20
6.079914365387764
 30
0.0
  0
ENDBLK
  5
14F3
330
14E7
100
AcDbEntity
  8
0
100
AcDbBlockEnd
  0
BLOCK
  5
1500
330
14F5
100
AcDbEntity
  8
0
100
AcDbBlockBegin
  2
*D2
 70
     1
 10
0.0
 20
0.0
 30
0.0
  3
*D2
  1

  0
LINE
  5
14F6
330
14F5
100
AcDbEntity
  8
Dimension
 62
     0
370
    -2
100
AcDbLine
 10
16.9015
 20
4.974
 30
0.0
 11
15.90666118734448
 21
4.974
 31
0.0
  0
LINE
  5
14F7
330
14F5
100
AcDbEntity
  8
Dimension
 62
     0
370
    -2
100
AcDbLine
 10
17.6895
 20
4.57
 30
0.0
 11
15.90666118734448
 21
4.57
 31
0.0
  0
LINE
  5
14F8
330
14F5
100
AcDbEntity
  8
Dimension
 62
     0
370
    -2
100
AcDbLine
 10
16.03166118734448
 20
5.099
 30
0.0
 11
16.03166118734448
 21
5.224
 31
0.0
  0
LINE
  5
14F9
330
14F5
100
AcDbEntity
  8
Dimension
 62
     0
370
    -2
100
AcDbLine
 10
16.03166118734448
 20
4.445
 30
0.0
 11
16.03166118734448
 21
4.32
 31
0.0
  0
SOLID
  5
14FA
330
14F5
100
AcDbEntity
  8
Dimension
 62
     0
100
AcDbTrace
 10
16.01082785401115
 20
5.099
 30
0.0
 11
16.05249452067781
 21
5.099
 31
0.0
 12
16.03166118734448
 22
4.974
 32
0.0
 13
16.03166118734448
 23
4.974
 33
0.0
  0
SOLID
  5
14FB
330
14F5
100
AcDbEntity
  8
Dimension
 62
     0
100
AcDbTrace
 10
16.01082785401115
 20
4.445
 30
0.0
 11
16.05249452067781
 21
4.445
 31
0.0
 12
16.03166118734448
 22
4.57
 32
0.0
 13
16.03166118734448
 23
4.57
 33
0.0
  0
MTEXT
  5
14FC
330
14F5
100
AcDbEntity
  8
Dimension
 62
     0
100
AcDbMText
 10
16.03166118734448
 20
4.772000000000002
 30
0.0
 40
0.09
 41
0.0
 71
     5
 72
     1
  1
\A1;0.40 [10.3mm]
 73
     1
 44
1.0
1001
ACAD
1000
MTEXTBEGIN
1070
    73
1070
     1
1070
    44
1040
1.0
1070
    74
1070
     0
1000
MTEXTEND
  0
POINT
  5
14FD
330
14F5
100
AcDbEntity
  8
Defpoints
 62
     0
100
AcDbPoint
 10
16.964
 20
4.974
 30
0.0
  0
POINT
  5
14FE
330
14F5
100
AcDbEntity
  8
Defpoints
 62
     0
100
AcDbPoint
 10
17.752
 20
4.57
 30
0.0
  0
POINT
  5
14FF
330
14F5
100
AcDbEntity
  8
Defpoints
 62
     0
100
AcDbPoint
 10
16.03166118734448
 20
4.57
 30
0.0
  0
ENDBLK
  5
1501
330
14F5
100
AcDbEntity
  8
0
100
AcDbBlockEnd
  0
BLOCK
  5
1546
330
153D
100
AcDbEntity
  8
0
100
AcDbBlockBegin
  2
*D3
 70
     1
 10
0.0
 20
0.0
 30
0.0
  3
*D3
  1

  0
LINE
  5
155A
330
153D
100
AcDbEntity
  8
Dimension
 62
     0
370
    -2
100
AcDbLine
 10
4.422507080730119
 20
13.64241498054043
 30
0.0
 11
4.297507080730119
 21
13.64241498054044
 31
0.0
  0
LINE
  5
155B
330
153D
100
AcDbEntity
  8
Dimension
 62
     0
370
    -2
100
AcDbLine
 10
4.297507080730119
 20
13.64241498054044
 30
0.0
 11
3.423943301864183
 21
12.28884428411314
 31
0.0
  0
MTEXT
  5
155C
330
153D
100
AcDbEntity
  8
Dimension
 62
     0
100
AcDbMText
 10
5.031783396519592
 20
13.64241498054043
 30
0.0
 40
0.09
 41
0.0
 71
     5
 72
     1
  1
\A1;0.53 DIA [13.5mm]
 73
     1
 44
1.0
1001
ACAD
1000
MTEXTBEGIN
1070
    73
1070
     1
1070
    44
1040
1.0
1070
    74
1070
     0
1000
MTEXTEND
  0
SOLID
  5
155D
330
153D
100
AcDbEntity
  8
Dimension
 62
     0
100
AcDbTrace
 10
3.406438844248467
 20
12.30014126341548
 30
0.0
 11
3.4414477594799
 21
12.27754730481081
 31
0.0
 12
3.356161426050182
 22
12.18381753841884
 32
0.0
 13
3.356161426050182
 23
12.18381753841884
 33
0.0
  0
POINT
  5
155E
330
153D
100
AcDbEntity
  8
Defpoints
 62
     0
100
AcDbPoint
 10
3.356161426050182
 20
12.18381753841884
 30
0.0
  0
POINT
  5
155F
330
153D
100
AcDbEntity
  8
Defpoints
 62
     0
100
AcDbPoint
 10
3.069845149430331
 20
11.74017583609698
 30
0.0
  0
ENDBLK
  5
1547
330
153D
100
AcDbEntity
  8
0
100
AcDbBlockEnd
  0
ENDSEC
  0
SECTION
  2
ENTITIES
  0
TEXT
  5
51
330
18
100
AcDbEntity
  8
Title Block
100
AcDbText
 10
17.77669501265554
 20
2.672489851525508
 30
0.0
 40
0.05
  1
FILENAME:
100
AcDbText
  0
TEXT
  5
52
330
18
100
AcDbEntity
  8
Title Block
100
AcDbText
 10
17.76928502872825
 20
2.076224967549325
 30
0.0
 40
0.35
  1
PANDUIT
100
AcDbText
  0
TEXT
  5
53
330
18
100
AcDbEntity
  8
Title Block
100
AcDbText
 10
19.72182039882138
 20
2.061410940562986
 30
0.0
 40
0.125
  1
CORP. TINLEY PARK, IL
100
AcDbText
  0
TEXT
  5
54
330
18
100
AcDbEntity
  8
Title Block
100
AcDbText
 10
17.78039997670861
 20
1.91697409709392
 30
0.0
 40
0.05
  1
TITLE:
100
AcDbText
  0
MTEXT
  5
57
330
18
100
AcDbEntity
  8
Title Block
100
AcDbMText
 10
19.0
 20
1.372215793536348
 30
0.0
 40
0.075
 41
2.5
 71
     5
 72
     5
  1
UNLESS OTHERWISE SPECIFIED,\PDIMENSIONAL TOLERANCES ARE:       
 73
     1
 44
1.0
1001
ACAD
1000
MTEXTBEGIN
1070
    73
1070
     1
1070
    44
1040
1.0
1070
    74
1070
     0
1000
MTEXTEND
  0
MTEXT
  5
58
330
18
100
AcDbEntity
  8
Title Block
100
AcDbMText
 10
18.39237986661001
 20
1.131487708483632
 30
0.0
 40
0.075
 41
2.5
 71
     5
 72
     5
  1
(.X)\P(.XX)
 73
     1
 44
1.0
1001
ACAD
1000
MTEXTBEGIN
1070
    73
1070
     1
1070
    44
1040
1.0
1070
    74
1070
     0
1000
MTEXTEND
  0
MTEXT
  5
59
330
18
100
AcDbEntity
  8
Title Block
100
AcDbMText
 10
19.40014005312411
 20
1.131487708483632
 30
0.0
 40
0.075
 41
2.5
 71
     5
 72
     5
  1
(.XXX)\PANGLES:
 73
     1
 44
1.0
1001
ACAD
1000
MTEXTBEGIN
1070
    73
1070
     1
1070
    44
1040
1.0
1070
    74
1070
     0
1000
MTEXTEND
  0
MTEXT
  5
5A
330
18
100
AcDbEntity
  8
Title Block
100
AcDbMText
 10
21.0
 20
1.25
 30
0.0
 40
0.06
 41
1.5
 71
     5
 72
     5
  1
UNLESS OTHERWISE SPECIFIED,\PALL DIMENSIONS ARE GIVEN IN INCHES, THIRD ANGLE PROJECTION
 73
     1
 44
1.0
1001
ACAD
1000
MTEXTBEGIN
1070
    73
1070
     1
1070
    44
1040
1.0
1070
    74
1070
     0
1000
MTEXTEND
  0
TEXT
  5
5E
330
18
100
AcDbEntity
  8
Title Block
100
AcDbText
 10
17.76076445430618
 20
0.9281373372752312
 30
0.0
 40
0.05
  1
DRAWN BY:
100
AcDbText
  0
TEXT
  5
5F
330
18
100
AcDbEntity
  8
Title Block
100
AcDbText
 10
17.76446947418043
 20
0.6811431865635028
 30
0.0
 40
0.05
  1
DATE:
100
AcDbText
  0
TEXT
  5
60
330
18
100
AcDbEntity
  8
Title Block
100
AcDbText
 10
17.76817443823349
 20
0.4304455338317968
 30
0.0
 40
0.05
  1
CHECKED BY:
100
AcDbText
  0
TEXT
  5
62
330
18
100
AcDbEntity
  8
Title Block
100
AcDbText
 10
18.52028959313306
 20
0.9281373372752312
 30
0.0
 40
0.05
  1
MATERIAL:
100
AcDbText
  0
TEXT
  5
63
330
18
100
AcDbEntity
  8
Title Block
100
AcDbText
 10
20.26534493878154
 20
0.9281373372752312
 30
0.0
 40
0.05
  1
SCALE:
100
AcDbText
  0
TEXT
  5
64
330
18
100
AcDbEntity
  8
Title Block
100
AcDbText
 10
20.26534493878154
 20
0.6725952630490007
 30
0.0
 40
0.05
  1
DRAWING NUMBER:
100
AcDbText
  0
TEXT
  5
65
330
18
100
AcDbEntity
  8
Title Block
100
AcDbText
 10
21.34942622928997
 20
0.6762987650689816
 30
0.0
 40
0.05
  1
DRAWING
100
AcDbText
  0
TEXT
  5
66
330
18
100
AcDbEntity
  8
Title Block
100
AcDbText
 10
21.42723125590085
 20
0.2811642688682026
 30
0.0
 40
0.05
  1
SIZE
100
AcDbText
  0
TEXT
  5
67
330
18
100
AcDbEntity
  8
Title Block
100
AcDbText
 10
21.39373130657865
 20
0.3826699445861052
 30
0.0
 40
0.25
  1
C
100
AcDbText
  0
MTEXT
  5
68
330
18
100
AcDbEntity
  8
Title Block
100
AcDbMText
 10
11.37499999999999
 20
0.375
 30
0.0
 40
0.05
 41
0.25
 71
     5
 72
     5
  1
REV
 73
     1
 44
1.0
1001
ACAD
1000
MTEXTBEGIN
1070
    73
1070
     1
1070
    44
1040
1.0
1070
    74
1070
     0
1000
MTEXTEND
  0
MTEXT
  5
69
330
18
100
AcDbEntity
  8
Title Block
100
AcDbMText
 10
11.74999999999999
 20
0.375
 30
0.0
 40
0.05
 41
0.5
 71
     5
 72
     5
  1
DATE
 73
     1
 44
1.0
1001
ACAD
1000
MTEXTBEGIN
1070
    73
1070
     1
1070
    44
1040
1.0
1070
    74
1070
     0
1000
MTEXTEND
  0
MTEXT
  5
6A
330
18
100
AcDbEntity
  8
Title Block
100
AcDbMText
 10
12.18999999999999
 20
0.375
 30
0.0
 40
0.05
 41
0.38
 71
     5
 72
     5
  1
BY
 73
     1
 44
1.0
1001
ACAD
1000
MTEXTBEGIN
1070
    73
1070
     1
1070
    44
1040
1.0
1070
    74
1070
     0
1000
MTEXTEND
  0
MTEXT
  5
6B
330
18
100
AcDbEntity
  8
Title Block
100
AcDbMText
 10
12.56499999999999
 20
0.375
 30
0.0
 40
0.05
 41
0.38
 71
     5
 72
     5
  1
CHK
 73
     1
 44
1.0
1001
ACAD
1000
MTEXTBEGIN
1070
    73
1070
     1
1070
    44
1040
1.0
1070
    74
1070
     0
1000
MTEXTEND
  0
MTEXT
  5
6C
330
18
100
AcDbEntity
  8
Title Block
100
AcDbMText
 10
14.12499999999999
 20
0.375
 30
0.0
 40
0.05
 41
2.75
 71
     5
 72
     5
  1
DESCRIPTION
 73
     1
 44
1.0
1001
ACAD
1000
MTEXTBEGIN
1070
    73
1070
     1
1070
    44
1040
1.0
1070
    74
1070
     0
1000
MTEXTEND
  0
MTEXT
  5
6D
330
18
100
AcDbEntity
  8
Title Block
100
AcDbMText
 10
16.065
 20
0.375
 30
0.0
 40
0.05
 41
1.129999999999999
 71
     5
 72
     5
  1
ECN   -   R
 73
     1
 44
1.0
1001
ACAD
1000
MTEXTBEGIN
1070
    73
1070
     1
1070
    44
1040
1.0
1070
    74
1070
     0
1000
MTEXTEND
  0
MTEXT
  5
6E
330
18
100
AcDbEntity
  8
Title Block
100
AcDbMText
 10
16.81499999999999
 20
0.375
 30
0.0
 40
0.05
 41
0.38
 71
     5
 72
     5
  1
CUST
 73
     1
 44
1.0
1001
ACAD
1000
MTEXTBEGIN
1070
    73
1070
     1
1070
    44
1040
1.0
1070
    74
1070
     0
1000
MTEXTEND
  0
MTEXT
  5
6F
330
18
100
AcDbEntity
  8
Title Block
100
AcDbMText
 10
17.19
 20
0.375
 30
0.0
 40
0.05
 41
0.38
 71
     5
 72
     5
  1
SUP
 73
     1
 44
1.0
1001
ACAD
1000
MTEXTBEGIN
1070
    73
1070
     1
1070
    44
1040
1.0
1070
    74
1070
     0
1000
MTEXTEND
  0
LINE
  5
A5
330
18
100
AcDbEntity
  8
Title Block
100
AcDbLine
 10
21.75
 20
2.749999999999999
 30
0.0
 11
11.25
 21
2.75
 31
0.0
  0
LINE
  5
A6
330
18
100
AcDbEntity
  8
Title Block
100
AcDbLine
 10
17.74999999999999
 20
2.75
 30
0.0
 11
17.74999999999999
 21
0.25
 31
0.0
  0
LINE
  5
A7
330
18
100
AcDbEntity
  8
Title Block
100
AcDbLine
 10
21.75
 20
2.499999999999999
 30
0.0
 11
11.25
 21
2.5
 31
0.0
  0
LINE
  5
A8
330
18
100
AcDbEntity
  8
Title Block
100
AcDbLine
 10
17.74999999999999
 20
2.25
 30
0.0
 11
11.25
 21
2.25
 31
0.0
  0
LINE
  5
A9
330
18
100
AcDbEntity
  8
Title Block
100
AcDbLine
 10
21.75
 20
1.999999999999999
 30
0.0
 11
11.25
 21
2.0
 31
0.0
  0
LINE
  5
AA
330
18
100
AcDbEntity
  8
Title Block
100
AcDbLine
 10
17.74999999999999
 20
1.75
 30
0.0
 11
11.25
 21
1.75
 31
0.0
  0
LINE
  5
AB
330
18
100
AcDbEntity
  8
Title Block
100
AcDbLine
 10
21.75
 20
1.499999999999999
 30
0.0
 11
11.25
 21
1.5
 31
0.0
  0
LINE
  5
AC
330
18
100
AcDbEntity
  8
Title Block
100
AcDbLine
 10
17.74999999999999
 20
1.25
 30
0.0
 11
11.25
 21
1.25
 31
0.0
  0
LINE
  5
AD
330
18
100
AcDbEntity
  8
Title Block
100
AcDbLine
 10
21.75
 20
0.9999999999999996
 30
0.0
 11
11.25
 21
1.0
 31
0.0
  0
LINE
  5
AE
330
18
100
AcDbEntity
  8
Title Block
100
AcDbLine
 10
18.49999999999999
 20
0.75
 30
0.0
 11
11.25
 21
0.7500000000000009
 31
0.0
  0
LINE
  5
AF
330
18
100
AcDbEntity
  8
Title Block
100
AcDbLine
 10
18.49999999999999
 20
0.5
 30
0.0
 11
11.25
 21
0.5000000000000009
 31
0.0
  0
LINE
  5
B6
330
18
100
AcDbEntity
  8
Title Block
100
AcDbLine
 10
11.25
 20
0.25
 30
0.0
 11
11.25
 21
2.75
 31
0.0
  0
LINE
  5
BC
330
18
100
AcDbEntity
  8
Title Block
100
AcDbLine
 10
11.49999999999999
 20
0.25
 30
0.0
 11
11.49999999999999
 21
2.750000000000001
 31
0.0
  0
LINE
  5
BD
330
18
100
AcDbEntity
  8
Title Block
100
AcDbLine
 10
11.99999999999999
 20
0.25
 30
0.0
 11
11.99999999999999
 21
2.750000000000001
 31
0.0
  0
LINE
  5
C0
330
18
100
AcDbEntity
  8
Title Block
100
AcDbLine
 10
12.375
 20
0.25
 30
0.0
 11
12.375
 21
2.750000000000001
 31
0.0
  0
LINE
  5
C1
330
18
100
AcDbEntity
  8
Title Block
100
AcDbLine
 10
12.74999999999999
 20
0.25
 30
0.0
 11
12.74999999999999
 21
2.750000000000001
 31
0.0
  0
LINE
  5
C2
330
18
100
AcDbEntity
  8
Title Block
100
AcDbLine
 10
17.375
 20
2.75
 30
0.0
 11
17.375
 21
0.25
 31
0.0
  0
LINE
  5
C3
330
18
100
AcDbEntity
  8
Title Block
100
AcDbLine
 10
17.0
 20
2.75
 30
0.0
 11
17.0
 21
0.25
 31
0.0
  0
LINE
  5
C4
330
18
100
AcDbEntity
  8
Title Block
100
AcDbLine
 10
16.62499999999999
 20
2.75
 30
0.0
 11
16.62499999999999
 21
0.25
 31
0.0
  0
LINE
  5
C5
330
18
100
AcDbEntity
  8
Title Block
100
AcDbLine
 10
16.25
 20
2.75
 30
0.0
 11
16.25
 21
0.5000000000000002
 31
0.0
  0
LINE
  5
C6
330
18
100
AcDbEntity
  8
Title Block
100
AcDbLine
 10
15.5
 20
2.75
 30
0.0
 11
15.5
 21
0.25
 31
0.0
  0
LINE
  5
C7
330
18
100
AcDbEntity
  8
Title Block
100
AcDbLine
 10
20.25
 20
0.75
 30
0.0
 11
20.25
 21
1.499999999999999
 31
0.0
  0
LINE
  5
C8
330
18
100
AcDbEntity
  8
Title Block
100
AcDbLine
 10
20.25
 20
0.75
 30
0.0
 11
20.25
 21
0.25
 31
0.0
  0
LINE
  5
C9
330
18
100
AcDbEntity
  8
Title Block
100
AcDbLine
 10
20.25
 20
0.75
 30
0.0
 11
21.75
 21
0.75
 31
0.0
  0
LINE
  5
CA
330
18
100
AcDbEntity
  8
Title Block
100
AcDbLine
 10
18.49999999999999
 20
0.5
 30
0.0
 11
18.49999999999999
 21
0.25
 31
0.0
  0
LINE
  5
CB
330
18
100
AcDbEntity
  8
Title Block
100
AcDbLine
 10
18.49999999999999
 20
0.5
 30
0.0
 11
18.49999999999999
 21
1.0
 31
0.0
  0
LINE
  5
CD
330
18
100
AcDbEntity
  8
Title Block
100
AcDbLine
 10
21.25
 20
0.75
 30
0.0
 11
21.25
 21
0.25
 31
0.0
  0
LWPOLYLINE
  5
F8
330
18
100
AcDbEntity
  8
Title Block
100
AcDbPolyline
 90
        4
 70
     1
 43
0.01
 10
21.75
 20
16.75
 10
21.75
 20
0.25
 10
0.25
 20
0.25
 10
0.250000000000001
 20
16.75
  0
POINT
  5
FC
330
18
100
AcDbEntity
  8
Title Block
100
AcDbPoint
 10
22.0
 20
0.0
 30
0.0
  0
POINT
  5
FF
330
18
100
AcDbEntity
  8
Title Block
100
AcDbPoint
 10
22.0
 20
17.0
 30
0.0
  0
POINT
  5
102
330
18
100
AcDbEntity
  8
Title Block
100
AcDbPoint
 10
0.000000000000001
 20
17.0
 30
0.0
  0
POINT
  5
105
330
18
100
AcDbEntity
  8
Title Block
100
AcDbPoint
 10
0.0
 20
0.0
 30
0.0
  0
MTEXT
  5
12C
330
18
100
AcDbEntity
  8
Text
100
AcDbMText
 10
11.37324893148254
 20
0.6275685908585027
 30
0.0
 40
0.09
 41
0.25
 71
     5
 72
     5
  1
R
 73
     1
 44
1.0
1001
ACAD
1000
MTEXTBEGIN
1070
    73
1070
     1
1070
    44
1040
1.0
1070
    74
1070
     0
1000
MTEXTEND
  0
MTEXT
  5
12D
330
18
100
AcDbEntity
  8
Text
100
AcDbMText
 10
11.74824893148254
 20
0.6275685908585027
 30
0.0
 40
0.07
 41
0.5
 71
     5
 72
     5
  1
10-30-07
 73
     1
 44
1.0
1001
ACAD
1000
MTEXTBEGIN
1070
    73
1070
     1
1070
    44
1040
1.0
1070
    74
1070
     0
1000
MTEXTEND
  0
MTEXT
  5
12E
330
18
100
AcDbEntity
  8
Text
100
AcDbMText
 10
12.18574893148254
 20
0.6275685908585027
 30
0.0
 40
0.09
 41
0.375
 71
     5
 72
     5
  1
MSO
 73
     1
 44
1.0
1001
ACAD
1000
MTEXTBEGIN
1070
    73
1070
     1
1070
    44
1040
1.0
1070
    74
1070
     0
1000
MTEXTEND
  0
MTEXT
  5
130
330
18
100
AcDbEntity
  8
Text
100
AcDbMText
 10
14.12324893148254
 20
0.6275685908585023
 30
0.0
 40
0.09
 41
2.75
 71
     5
 72
     5
  1
DRAWING RELEASED
 73
     1
 44
1.0
1001
ACAD
1000
MTEXTBEGIN
1070
    73
1070
     1
1070
    44
1040
1.0
1070
    74
1070
     0
1000
MTEXTEND
  0
MTEXT
  5
133
330
18
100
AcDbEntity
  8
Text
100
AcDbMText
 10
18.47324893148254
 20
0.8525685908585018
 30
0.0
 40
0.09
 41
0.75
 71
     6
 72
     5
  1
MSO
 73
     1
 44
1.0
1001
ACAD
1000
MTEXTBEGIN
1070
    73
1070
     1
1070
    44
1040
1.0
1070
    74
1070
     0
1000
MTEXTEND
  0
MTEXT
  5
134
330
18
100
AcDbEntity
  8
Text
100
AcDbMText
 10
18.47324893148254
 20
0.6025685908585017
 30
0.0
 40
0.09
 41
0.75
 71
     6
 72
     5
  1
10-30-07
 73
     1
 44
1.0
1001
ACAD
1000
MTEXTBEGIN
1070
    73
1070
     1
1070
    44
1040
1.0
1070
    74
1070
     0
1000
MTEXTEND
  0
MTEXT
  5
135
330
18
100
AcDbEntity
  8
Text
100
AcDbMText
 10
18.47324893148254
 20
0.3525685908585019
 30
0.0
 40
0.09
 41
0.75
 71
     6
 72
     5
  1
HIW
 73
     1
 44
1.0
1001
ACAD
1000
MTEXTBEGIN
1070
    73
1070
     1
1070
    44
1040
1.0
1070
    74
1070
     0
1000
MTEXTEND
  0
MTEXT
  5
136
330
18
100
AcDbEntity
  8
Text
100
AcDbMText
 10
19.74824893148254
 20
2.627568590858501
 30
0.0
 40
0.09
 41
4.0
 71
     5
 72
     5
  1
FR6TRBE12.dwg
 73
     1
 44
1.0
1001
ACAD
1000
MTEXTBEGIN
1070
    73
1070
     1
1070
    44
1040
1.0
1070
    74
1070
     0
1000
MTEXTEND
  0
MTEXT
  5
137
330
18
100
AcDbEntity
  8
Text
100
AcDbMText
 10
19.87496787783718
 20
1.74638966910777
 30
0.0
 40
0.09
 41
4.0
 71
     5
 72
     5
  1
FIBERRUNNER 4x4 AND 6x4 QUIKLOCK EXISTING THREADED\PROD BRACKET - {\H0.7x;\S1#2;}" (M12) THREADED ROD\P(FR6TRBE12, FR6TRBE12M) MARKETING DRAWING
 73
     1
 44
1.0
1001
ACAD
1000
MTEXTBEGIN
1070
    73
1070
     1
1070
    44
1040
1.0
1070
    74
1070
     1
1000
MTEXTEND
  0
MTEXT
  5
138
330
18
100
AcDbEntity
  8
Text
100
AcDbMText
 10
20.99824893148254
 20
0.8775685908585016
 30
0.0
 40
0.12
 41
1.5
 71
     5
 72
     5
  1
FULL
 73
     1
 44
1.0
1001
ACAD
1000
MTEXTBEGIN
1070
    73
1070
     1
1070
    44
1040
1.0
1070
    74
1070
     0
1000
MTEXTEND
  0
MTEXT
  5
139
330
18
100
AcDbEntity
  8
Text
100
AcDbMText
 10
20.74824893148254
 20
0.5025685908585018
 30
0.0
 40
0.12
 41
1.0
 71
     5
 72
     5
  1
36897-308
 73
     1
 44
1.0
1001
ACAD
1000
MTEXTBEGIN
1070
    73
1070
     1
1070
    44
1040
1.0
1070
    74
1070
     0
1000
MTEXTEND
  0
MTEXT
  5
2AA
330
18
100
AcDbEntity
  8
Text
100
AcDbMText
 10
16.93783697751467
 20
16.11199590410645
 30
0.0
 40
0.09
 41
4.519126323281337
 71
     1
 72
     5
  1
{\LNOTES:}\P\P1. THE FIBERRUNNER 4x4 AND 6x4 QUIKLOCK EXISTING THREADED ROD \P   BRACKET INCLUDES:\P   ONE (1) BRACKET ASSEMBLY,\P   TWO (2) {\H0.7x;\S1#2;}-13 SPLIT LOCK NUTS (FR6TRBE12 ONLY),\P   TWO (2) M12x1.75 SPLIT LOCK NUTS (FR6TRBE12M ONLY).
 73
     1
 44
1.0
1001
ACAD
1000
MTEXTBEGIN
1070
    73
1070
     1
1070
    44
1040
1.0
1070
    74
1070
     1
1000
MTEXTEND
  0
TEXT
  5
2AB
330
18
100
AcDbEntity
  8
Text
100
AcDbText
 10
6.955118593709045
 20
10.35495756696106
 30
0.0
 40
0.125
  1
TOP VIEW
100
AcDbText
  0
TEXT
  5
2AC
330
18
100
AcDbEntity
  8
Text
100
AcDbText
 10
6.821770872116658
 20
4.245815950598895
 30
0.0
 40
0.125
  1
FRONT VIEW
100
AcDbText
  0
TEXT
  5
2AD
330
18
100
AcDbEntity
  8
Text
100
AcDbText
 10
17.29174677299183
 20
4.180917108565897
 30
0.0
 40
0.125
  1
RIGHT SIDE VIEW
100
AcDbText
  0
MTEXT
  5
2BE
330
18
100
AcDbEntity
  8
Text
100
AcDbMText
 10
12.5604002814227
 20
0.626249074032665
 30
0.0
 40
0.09
 41
0.375
 71
     5
 72
     5
  1
HIW
 73
     1
 44
1.0
1001
ACAD
1000
MTEXTBEGIN
1070
    73
1070
     1
1070
    44
1040
1.0
1070
    74
1070
     0
1000
MTEXTEND
  0
LINE
  5
C95
330
18
100
AcDbEntity
  8
Object
100
AcDbLine
 10
18.964
 20
4.974
 30
0.0
 11
18.589
 21
4.974
 31
0.0
  0
LINE
  5
C96
330
18
100
AcDbEntity
  8
Object
100
AcDbLine
 10
18.589
 20
4.974
 30
0.0
 11
17.339
 21
4.974
 31
0.0
  0
LINE
  5
C97
330
18
100
AcDbEntity
  8
Object
100
AcDbLine
 10
17.339
 20
4.974
 30
0.0
 11
16.964
 21
4.974
 31
0.0
  0
LINE
  5
C98
330
18
100
AcDbEntity
  8
Object
100
AcDbLine
 10
18.589
 20
4.794999999999999
 30
0.0
 11
18.964
 21
4.794999999999999
 31
0.0
  0
LINE
  5
C99
330
18
100
AcDbEntity
  8
Object
100
AcDbLine
 10
18.589
 20
4.974
 30
0.0
 11
18.964
 21
4.974
 31
0.0
  0
LINE
  5
C9A
330
18
100
AcDbEntity
  8
Object
100
AcDbLine
 10
18.964
 20
4.974
 30
0.0
 11
18.964
 21
4.794999999999999
 31
0.0
  0
LINE
  5
C9B
330
18
100
AcDbEntity
  8
Object
100
AcDbLine
 10
18.964
 20
4.794999999999999
 30
0.0
 11
18.964
 21
4.974
 31
0.0
  0
LINE
  5
C9C
330
18
100
AcDbEntity
  8
Object
100
AcDbLine
 10
17.339
 20
4.794999999999999
 30
0.0
 11
16.964
 21
4.794999999999999
 31
0.0
  0
LINE
  5
C9D
330
18
100
AcDbEntity
  8
Object
100
AcDbLine
 10
16.964
 20
4.794999999999999
 30
0.0
 11
16.964
 21
4.974
 31
0.0
  0
LINE
  5
C9E
330
18
100
AcDbEntity
  8
Object
100
AcDbLine
 10
16.964
 20
4.974
 30
0.0
 11
17.339
 21
4.974
 31
0.0
  0
LINE
  5
C9F
330
18
100
AcDbEntity
  8
Object
100
AcDbLine
 10
17.339
 20
4.974
 30
0.0
 11
17.339
 21
4.794999999999999
 31
0.0
  0
LINE
  5
CA0
330
18
100
AcDbEntity
  8
Object
100
AcDbLine
 10
17.339
 20
4.974
 30
0.0
 11
18.589
 21
4.974
 31
0.0
  0
LINE
  5
CA1
330
18
100
AcDbEntity
  8
Object
100
AcDbLine
 10
18.589
 20
4.974
 30
0.0
 11
18.589
 21
4.794999999999999
 31
0.0
  0
LINE
  5
CA2
330
18
100
AcDbEntity
  8
Object
100
AcDbLine
 10
18.589
 20
4.794999999999999
 30
0.0
 11
17.339
 21
4.794999999999999
 31
0.0
  0
LINE
  5
CA3
330
18
100
AcDbEntity
  8
Object
100
AcDbLine
 10
16.964
 20
4.974
 30
0.0
 11
16.964
 21
4.794999999999999
 31
0.0
  0
LINE
  5
CA4
330
18
100
AcDbEntity
  8
Object
100
AcDbLine
 10
18.964
 20
4.794999999999999
 30
0.0
 11
18.589
 21
4.794999999999999
 31
0.0
  0
LINE
  5
CA5
330
18
100
AcDbEntity
  8
Object
100
AcDbLine
 10
18.589
 20
4.794999999999999
 30
0.0
 11
17.339
 21
4.794999999999999
 31
0.0
  0
LINE
  5
CA6
330
18
100
AcDbEntity
  8
Object
100
AcDbLine
 10
17.339
 20
4.794999999999999
 30
0.0
 11
16.964
 21
4.794999999999999
 31
0.0
  0
LINE
  5
CA7
330
18
100
AcDbEntity
  8
Object
100
AcDbLine
 10
17.959
 20
4.733
 30
0.0
 11
17.959
 21
4.794999999999999
 31
0.0
  0
LINE
  5
CA8
330
18
100
AcDbEntity
  8
Object
100
AcDbLine
 10
18.207
 20
4.733
 30
0.0
 11
18.193
 21
4.733
 31
0.0
  0
LINE
  5
CA9
330
18
100
AcDbEntity
  8
Object
100
AcDbLine
 10
18.193
 20
4.733
 30
0.0
 11
18.167
 21
4.733
 31
0.0
  0
LINE
  5
CAA
330
18
100
AcDbEntity
  8
Object
100
AcDbLine
 10
18.167
 20
4.733
 30
0.0
 11
18.129
 21
4.733
 31
0.0
  0
LINE
  5
CAB
330
18
100
AcDbEntity
  8
Object
100
AcDbLine
 10
18.129
 20
4.733
 30
0.0
 11
18.081
 21
4.733
 31
0.0
  0
LINE
  5
CAC
330
18
100
AcDbEntity
  8
Object
100
AcDbLine
 10
18.081
 20
4.733
 30
0.0
 11
18.027
 21
4.733
 31
0.0
  0
LINE
  5
CAD
330
18
100
AcDbEntity
  8
Object
100
AcDbLine
 10
18.027
 20
4.733
 30
0.0
 11
17.969
 21
4.733
 31
0.0
  0
LINE
  5
CAE
330
18
100
AcDbEntity
  8
Object
100
AcDbLine
 10
17.959
 20
4.733
 30
0.0
 11
17.901
 21
4.733
 31
0.0
  0
LINE
  5
CAF
330
18
100
AcDbEntity
  8
Object
100
AcDbLine
 10
17.901
 20
4.733
 30
0.0
 11
17.846
 21
4.733
 31
0.0
  0
LINE
  5
CB0
330
18
100
AcDbEntity
  8
Object
100
AcDbLine
 10
17.846
 20
4.733
 30
0.0
 11
17.799
 21
4.733
 31
0.0
  0
LINE
  5
CB1
330
18
100
AcDbEntity
  8
Object
100
AcDbLine
 10
17.799
 20
4.733
 30
0.0
 11
17.76
 21
4.733
 31
0.0
  0
LINE
  5
CB2
330
18
100
AcDbEntity
  8
Object
100
AcDbLine
 10
17.76
 20
4.733
 30
0.0
 11
17.734
 21
4.733
 31
0.0
  0
LINE
  5
CB3
330
18
100
AcDbEntity
  8
Object
100
AcDbLine
 10
17.734
 20
4.733
 30
0.0
 11
17.721
 21
4.733
 31
0.0
  0
LINE
  5
CB4
330
18
100
AcDbEntity
  8
Object
100
AcDbLine
 10
17.901
 20
4.733
 30
0.0
 11
17.959
 21
4.733
 31
0.0
  0
LINE
  5
CB5
330
18
100
AcDbEntity
  8
Object
100
AcDbLine
 10
17.959
 20
4.733
 30
0.0
 11
17.959
 21
4.794999999999999
 31
0.0
  0
LINE
  5
CB6
330
18
100
AcDbEntity
  8
Object
100
AcDbLine
 10
17.901
 20
4.733
 30
0.0
 11
17.846
 21
4.733
 31
0.0
  0
LINE
  5
CB7
330
18
100
AcDbEntity
  8
Object
100
AcDbLine
 10
17.846
 20
4.733
 30
0.0
 11
17.799
 21
4.733
 31
0.0
  0
LINE
  5
CB8
330
18
100
AcDbEntity
  8
Object
100
AcDbLine
 10
17.799
 20
4.733
 30
0.0
 11
17.76
 21
4.733
 31
0.0
  0
LINE
  5
CB9
330
18
100
AcDbEntity
  8
Object
100
AcDbLine
 10
17.76
 20
4.733
 30
0.0
 11
17.734
 21
4.733
 31
0.0
  0
LINE
  5
CBA
330
18
100
AcDbEntity
  8
Object
100
AcDbLine
 10
17.734
 20
4.733
 30
0.0
 11
17.721
 21
4.733
 31
0.0
  0
LINE
  5
CBB
330
18
100
AcDbEntity
  8
Object
100
AcDbLine
 10
17.721
 20
4.733
 30
0.0
 11
17.721
 21
4.794999999999999
 31
0.0
  0
LINE
  5
CBC
330
18
100
AcDbEntity
  8
Object
100
AcDbLine
 10
18.207
 20
4.794999999999999
 30
0.0
 11
18.207
 21
4.733
 31
0.0
  0
LINE
  5
CBD
330
18
100
AcDbEntity
  8
Object
100
AcDbLine
 10
18.207
 20
4.733
 30
0.0
 11
18.193
 21
4.733
 31
0.0
  0
LINE
  5
CBE
330
18
100
AcDbEntity
  8
Object
100
AcDbLine
 10
18.193
 20
4.733
 30
0.0
 11
18.167
 21
4.733
 31
0.0
  0
LINE
  5
CBF
330
18
100
AcDbEntity
  8
Object
100
AcDbLine
 10
18.167
 20
4.733
 30
0.0
 11
18.129
 21
4.733
 31
0.0
  0
LINE
  5
CC0
330
18
100
AcDbEntity
  8
Object
100
AcDbLine
 10
18.129
 20
4.733
 30
0.0
 11
18.081
 21
4.733
 31
0.0
  0
LINE
  5
CC1
330
18
100
AcDbEntity
  8
Object
100
AcDbLine
 10
18.081
 20
4.733
 30
0.0
 11
18.027
 21
4.733
 31
0.0
  0
LINE
  5
CC2
330
18
100
AcDbEntity
  8
Object
100
AcDbLine
 10
18.027
 20
4.733
 30
0.0
 11
17.969
 21
4.733
 31
0.0
  0
LINE
  5
CC3
330
18
100
AcDbEntity
  8
Object
100
AcDbLine
 10
17.969
 20
4.733
 30
0.0
 11
17.969
 21
4.794999999999999
 31
0.0
  0
LINE
  5
CC4
330
18
100
AcDbEntity
  8
Object
100
AcDbLine
 10
17.969
 20
4.794999999999999
 30
0.0
 11
17.969
 21
4.733
 31
0.0
  0
LINE
  5
CC5
330
18
100
AcDbEntity
  8
Object
100
AcDbLine
 10
18.186
 20
5.139
 30
0.0
 11
18.186
 21
5.121
 31
0.0
  0
LINE
  5
CC6
330
18
100
AcDbEntity
  8
Object
100
AcDbLine
 10
18.186
 20
5.094
 30
0.0
 11
18.186
 21
5.062999999999999
 31
0.0
  0
LINE
  5
CC7
330
18
100
AcDbEntity
  8
Object
100
AcDbLine
 10
18.186
 20
5.056
 30
0.0
 11
18.186
 21
5.051
 31
0.0
  0
LINE
  5
CC8
330
18
100
AcDbEntity
  8
Object
100
AcDbLine
 10
18.186
 20
5.051
 30
0.0
 11
18.186
 21
5.049
 31
0.0
  0
LINE
  5
CC9
330
18
100
AcDbEntity
  8
Object
100
AcDbLine
 10
18.186
 20
5.062999999999999
 30
0.0
 11
18.186
 21
5.056
 31
0.0
  0
LINE
  5
CCA
330
18
100
AcDbEntity
  8
Object
100
AcDbLine
 10
18.186
 20
5.121
 30
0.0
 11
18.186
 21
5.094
 31
0.0
  0
LINE
  5
CCB
330
18
100
AcDbEntity
  8
Object
100
AcDbLine
 10
18.186
 20
5.139
 30
0.0
 11
18.186
 21
5.147999999999999
 31
0.0
  0
LINE
  5
CCC
330
18
100
AcDbEntity
  8
Object
100
AcDbLine
 10
18.186
 20
5.147999999999999
 30
0.0
 11
18.186
 21
5.166
 31
0.0
  0
LINE
  5
CCD
330
18
100
AcDbEntity
  8
Object
100
AcDbLine
 10
18.589
 20
5.121
 30
0.0
 11
18.589
 21
5.139
 31
0.0
  0
LINE
  5
CCE
330
18
100
AcDbEntity
  8
Object
100
AcDbLine
 10
18.589
 20
5.062999999999999
 30
0.0
 11
18.589
 21
5.094
 31
0.0
  0
LINE
  5
CCF
330
18
100
AcDbEntity
  8
Object
100
AcDbLine
 10
18.589
 20
5.051
 30
0.0
 11
18.589
 21
5.056
 31
0.0
  0
LINE
  5
CD0
330
18
100
AcDbEntity
  8
Object
100
AcDbLine
 10
18.589
 20
4.974
 30
0.0
 11
18.589
 21
5.049
 31
0.0
  0
LINE
  5
CD1
330
18
100
AcDbEntity
  8
Object
100
AcDbLine
 10
18.589
 20
5.049
 30
0.0
 11
18.589
 21
5.051
 31
0.0
  0
LINE
  5
CD2
330
18
100
AcDbEntity
  8
Object
100
AcDbLine
 10
18.589
 20
5.056
 30
0.0
 11
18.589
 21
5.062999999999999
 31
0.0
  0
LINE
  5
CD3
330
18
100
AcDbEntity
  8
Object
100
AcDbLine
 10
18.589
 20
5.094
 30
0.0
 11
18.589
 21
5.121
 31
0.0
  0
LINE
  5
CD4
330
18
100
AcDbEntity
  8
Object
100
AcDbLine
 10
18.589
 20
5.139
 30
0.0
 11
18.589
 21
5.147999999999999
 31
0.0
  0
LINE
  5
CD5
330
18
100
AcDbEntity
  8
Object
100
AcDbLine
 10
18.589
 20
5.147999999999999
 30
0.0
 11
18.589
 21
5.166
 31
0.0
  0
LINE
  5
CD6
330
18
100
AcDbEntity
  8
Object
100
AcDbLine
 10
18.589
 20
5.049
 30
0.0
 11
18.583
 21
5.049
 31
0.0
  0
LINE
  5
CD7
330
18
100
AcDbEntity
  8
Object
100
AcDbLine
 10
18.583
 20
5.049
 30
0.0
 11
18.565
 21
5.049
 31
0.0
  0
LINE
  5
CD8
330
18
100
AcDbEntity
  8
Object
100
AcDbLine
 10
18.565
 20
5.049
 30
0.0
 11
18.537
 21
5.049
 31
0.0
  0
LINE
  5
CD9
330
18
100
AcDbEntity
  8
Object
100
AcDbLine
 10
18.537
 20
5.049
 30
0.0
 11
18.502
 21
5.049
 31
0.0
  0
LINE
  5
CDA
330
18
100
AcDbEntity
  8
Object
100
AcDbLine
 10
18.502
 20
5.049
 30
0.0
 11
18.464
 21
5.049
 31
0.0
  0
LINE
  5
CDB
330
18
100
AcDbEntity
  8
Object
100
AcDbLine
 10
18.464
 20
5.049
 30
0.0
 11
17.464
 21
5.049
 31
0.0
  0
LINE
  5
CDC
330
18
100
AcDbEntity
  8
Object
100
AcDbLine
 10
17.464
 20
5.049
 30
0.0
 11
17.425
 21
5.049
 31
0.0
  0
LINE
  5
CDD
330
18
100
AcDbEntity
  8
Object
100
AcDbLine
 10
17.425
 20
5.049
 30
0.0
 11
17.39
 21
5.049
 31
0.0
  0
LINE
  5
CDE
330
18
100
AcDbEntity
  8
Object
100
AcDbLine
 10
17.39
 20
5.049
 30
0.0
 11
17.362
 21
5.049
 31
0.0
  0
LINE
  5
CDF
330
18
100
AcDbEntity
  8
Object
100
AcDbLine
 10
17.362
 20
5.049
 30
0.0
 11
17.345
 21
5.049
 31
0.0
  0
LINE
  5
CE0
330
18
100
AcDbEntity
  8
Object
100
AcDbLine
 10
17.345
 20
5.049
 30
0.0
 11
17.339
 21
5.049
 31
0.0
  0
LINE
  5
CE1
330
18
100
AcDbEntity
  8
Object
100
AcDbLine
 10
18.186
 20
5.062999999999999
 30
0.0
 11
18.186
 21
5.094
 31
0.0
  0
LINE
  5
CE2
330
18
100
AcDbEntity
  8
Object
100
AcDbLine
 10
18.186
 20
5.094
 30
0.0
 11
18.186
 21
5.121
 31
0.0
  0
LINE
  5
CE3
330
18
100
AcDbEntity
  8
Object
100
AcDbLine
 10
18.589
 20
5.121
 30
0.0
 11
18.589
 21
5.139
 31
0.0
  0
LINE
  5
CE4
330
18
100
AcDbEntity
  8
Object
100
AcDbLine
 10
18.186
 20
5.139
 30
0.0
 11
18.186
 21
5.147999999999999
 31
0.0
  0
LINE
  5
CE5
330
18
100
AcDbEntity
  8
Object
100
AcDbLine
 10
18.186
 20
5.147999999999999
 30
0.0
 11
18.589
 21
5.147999999999999
 31
0.0
  0
LINE
  5
CE6
330
18
100
AcDbEntity
  8
Object
100
AcDbLine
 10
18.589
 20
5.147999999999999
 30
0.0
 11
18.589
 21
5.139
 31
0.0
  0
LINE
  5
CE7
330
18
100
AcDbEntity
  8
Object
100
AcDbLine
 10
18.186
 20
5.139
 30
0.0
 11
18.186
 21
5.121
 31
0.0
  0
LINE
  5
CE8
330
18
100
AcDbEntity
  8
Object
100
AcDbLine
 10
18.589
 20
5.121
 30
0.0
 11
18.589
 21
5.094
 31
0.0
  0
LINE
  5
CE9
330
18
100
AcDbEntity
  8
Object
100
AcDbLine
 10
18.589
 20
5.094
 30
0.0
 11
18.589
 21
5.062999999999999
 31
0.0
  0
LINE
  5
CEA
330
18
100
AcDbEntity
  8
Object
100
AcDbLine
 10
18.589
 20
5.062999999999999
 30
0.0
 11
18.186
 21
5.062999999999999
 31
0.0
  0
LINE
  5
CEB
330
18
100
AcDbEntity
  8
Object
100
AcDbLine
 10
18.206
 20
5.169
 30
0.0
 11
18.191
 21
5.168
 31
0.0
  0
LINE
  5
CEC
330
18
100
AcDbEntity
  8
Object
100
AcDbLine
 10
18.191
 20
5.168
 30
0.0
 11
18.186
 21
5.166
 31
0.0
  0
LINE
  5
CED
330
18
100
AcDbEntity
  8
Object
100
AcDbLine
 10
18.186
 20
5.056
 30
0.0
 11
18.186
 21
5.051
 31
0.0
  0
LINE
  5
CEE
330
18
100
AcDbEntity
  8
Object
100
AcDbLine
 10
18.589
 20
5.049
 30
0.0
 11
18.589
 21
5.051
 31
0.0
  0
LINE
  5
CEF
330
18
100
AcDbEntity
  8
Object
100
AcDbLine
 10
18.186
 20
5.051
 30
0.0
 11
18.186
 21
5.049
 31
0.0
  0
LINE
  5
CF0
330
18
100
AcDbEntity
  8
Object
100
AcDbLine
 10
18.589
 20
5.051
 30
0.0
 11
18.589
 21
5.056
 31
0.0
  0
LINE
  5
CF1
330
18
100
AcDbEntity
  8
Object
100
AcDbLine
 10
18.186
 20
5.062999999999999
 30
0.0
 11
18.186
 21
5.056
 31
0.0
  0
LINE
  5
CF2
330
18
100
AcDbEntity
  8
Object
100
AcDbLine
 10
18.589
 20
5.056
 30
0.0
 11
18.589
 21
5.062999999999999
 31
0.0
  0
LINE
  5
CF3
330
18
100
AcDbEntity
  8
Object
100
AcDbLine
 10
18.549
 20
5.169999999999999
 30
0.0
 11
18.569
 21
5.169
 31
0.0
  0
LINE
  5
CF4
330
18
100
AcDbEntity
  8
Object
100
AcDbLine
 10
18.569
 20
5.169
 30
0.0
 11
18.583
 21
5.168
 31
0.0
  0
LINE
  5
CF5
330
18
100
AcDbEntity
  8
Object
100
AcDbLine
 10
18.583
 20
5.168
 30
0.0
 11
18.589
 21
5.166
 31
0.0
  0
LINE
  5
CF6
330
18
100
AcDbEntity
  8
Object
100
AcDbLine
 10
18.589
 20
5.166
 30
0.0
 11
18.589
 21
5.147999999999999
 31
0.0
  0
LINE
  5
CF7
330
18
100
AcDbEntity
  8
Object
100
AcDbLine
 10
18.549
 20
5.169999999999999
 30
0.0
 11
18.226
 21
5.169999999999999
 31
0.0
  0
LINE
  5
CF8
330
18
100
AcDbEntity
  8
Object
100
AcDbLine
 10
18.226
 20
5.169999999999999
 30
0.0
 11
18.206
 21
5.169
 31
0.0
  0
LINE
  5
CF9
330
18
100
AcDbEntity
  8
Object
100
AcDbLine
 10
18.186
 20
5.166
 30
0.0
 11
18.186
 21
5.147999999999999
 31
0.0
  0
LINE
  5
CFA
330
18
100
AcDbEntity
  8
Object
100
AcDbLine
 10
18.583
 20
5.049
 30
0.0
 11
18.589
 21
5.049
 31
0.0
  0
LINE
  5
CFB
330
18
100
AcDbEntity
  8
Object
100
AcDbLine
 10
18.589
 20
5.049
 30
0.0
 11
18.589
 21
4.974
 31
0.0
  0
LINE
  5
CFC
330
18
100
AcDbEntity
  8
Object
100
AcDbLine
 10
18.583
 20
5.049
 30
0.0
 11
18.565
 21
5.049
 31
0.0
  0
LINE
  5
CFD
330
18
100
AcDbEntity
  8
Object
100
AcDbLine
 10
18.565
 20
5.049
 30
0.0
 11
18.537
 21
5.049
 31
0.0
  0
LINE
  5
CFE
330
18
100
AcDbEntity
  8
Object
100
AcDbLine
 10
18.537
 20
5.049
 30
0.0
 11
18.502
 21
5.049
 31
0.0
  0
LINE
  5
CFF
330
18
100
AcDbEntity
  8
Object
100
AcDbLine
 10
18.502
 20
5.049
 30
0.0
 11
18.464
 21
5.049
 31
0.0
  0
LINE
  5
D00
330
18
100
AcDbEntity
  8
Object
100
AcDbLine
 10
18.464
 20
5.049
 30
0.0
 11
18.464
 21
4.974
 31
0.0
  0
LINE
  5
D01
330
18
100
AcDbEntity
  8
Object
100
AcDbLine
 10
18.464
 20
5.049
 30
0.0
 11
17.464
 21
5.049
 31
0.0
  0
LINE
  5
D02
330
18
100
AcDbEntity
  8
Object
100
AcDbLine
 10
17.464
 20
5.049
 30
0.0
 11
17.425
 21
5.049
 31
0.0
  0
LINE
  5
D03
330
18
100
AcDbEntity
  8
Object
100
AcDbLine
 10
17.464
 20
4.974
 30
0.0
 11
17.464
 21
5.049
 31
0.0
  0
LINE
  5
D04
330
18
100
AcDbEntity
  8
Object
100
AcDbLine
 10
17.425
 20
5.049
 30
0.0
 11
17.39
 21
5.049
 31
0.0
  0
LINE
  5
D05
330
18
100
AcDbEntity
  8
Object
100
AcDbLine
 10
17.39
 20
5.049
 30
0.0
 11
17.362
 21
5.049
 31
0.0
  0
LINE
  5
D06
330
18
100
AcDbEntity
  8
Object
100
AcDbLine
 10
17.362
 20
5.049
 30
0.0
 11
17.345
 21
5.049
 31
0.0
  0
LINE
  5
D07
330
18
100
AcDbEntity
  8
Object
100
AcDbLine
 10
17.339
 20
4.974
 30
0.0
 11
17.339
 21
5.049
 31
0.0
  0
LINE
  5
D08
330
18
100
AcDbEntity
  8
Object
100
AcDbLine
 10
17.339
 20
5.049
 30
0.0
 11
17.345
 21
5.049
 31
0.0
  0
LINE
  5
D09
330
18
100
AcDbEntity
  8
Object
100
AcDbLine
 10
17.742
 20
5.051
 30
0.0
 11
17.742
 21
5.056
 31
0.0
  0
LINE
  5
D0A
330
18
100
AcDbEntity
  8
Object
100
AcDbLine
 10
17.339
 20
5.056
 30
0.0
 11
17.339
 21
5.062999999999999
 31
0.0
  0
LINE
  5
D0B
330
18
100
AcDbEntity
  8
Object
100
AcDbLine
 10
17.339
 20
5.062999999999999
 30
0.0
 11
17.742
 21
5.062999999999999
 31
0.0
  0
LINE
  5
D0C
330
18
100
AcDbEntity
  8
Object
100
AcDbLine
 10
17.742
 20
5.062999999999999
 30
0.0
 11
17.742
 21
5.056
 31
0.0
  0
LINE
  5
D0D
330
18
100
AcDbEntity
  8
Object
100
AcDbLine
 10
17.339
 20
5.056
 30
0.0
 11
17.339
 21
5.051
 31
0.0
  0
LINE
  5
D0E
330
18
100
AcDbEntity
  8
Object
100
AcDbLine
 10
17.742
 20
5.049
 30
0.0
 11
17.742
 21
5.051
 31
0.0
  0
LINE
  5
D0F
330
18
100
AcDbEntity
  8
Object
100
AcDbLine
 10
17.339
 20
5.051
 30
0.0
 11
17.339
 21
5.049
 31
0.0
  0
LINE
  5
D10
330
18
100
AcDbEntity
  8
Object
100
AcDbLine
 10
17.339
 20
5.139
 30
0.0
 11
17.339
 21
5.121
 31
0.0
  0
LINE
  5
D11
330
18
100
AcDbEntity
  8
Object
100
AcDbLine
 10
17.339
 20
5.094
 30
0.0
 11
17.339
 21
5.062999999999999
 31
0.0
  0
LINE
  5
D12
330
18
100
AcDbEntity
  8
Object
100
AcDbLine
 10
17.339
 20
5.056
 30
0.0
 11
17.339
 21
5.051
 31
0.0
  0
LINE
  5
D13
330
18
100
AcDbEntity
  8
Object
100
AcDbLine
 10
17.339
 20
4.974
 30
0.0
 11
17.339
 21
5.049
 31
0.0
  0
LINE
  5
D14
330
18
100
AcDbEntity
  8
Object
100
AcDbLine
 10
17.339
 20
5.049
 30
0.0
 11
17.339
 21
5.051
 31
0.0
  0
LINE
  5
D15
330
18
100
AcDbEntity
  8
Object
100
AcDbLine
 10
17.339
 20
5.062999999999999
 30
0.0
 11
17.339
 21
5.056
 31
0.0
  0
LINE
  5
D16
330
18
100
AcDbEntity
  8
Object
100
AcDbLine
 10
17.339
 20
5.121
 30
0.0
 11
17.339
 21
5.094
 31
0.0
  0
LINE
  5
D17
330
18
100
AcDbEntity
  8
Object
100
AcDbLine
 10
17.339
 20
5.139
 30
0.0
 11
17.339
 21
5.147999999999999
 31
0.0
  0
LINE
  5
D18
330
18
100
AcDbEntity
  8
Object
100
AcDbLine
 10
17.339
 20
5.147999999999999
 30
0.0
 11
17.339
 21
5.166
 31
0.0
  0
LINE
  5
D19
330
18
100
AcDbEntity
  8
Object
100
AcDbLine
 10
17.742
 20
5.121
 30
0.0
 11
17.742
 21
5.139
 31
0.0
  0
LINE
  5
D1A
330
18
100
AcDbEntity
  8
Object
100
AcDbLine
 10
17.742
 20
5.062999999999999
 30
0.0
 11
17.742
 21
5.094
 31
0.0
  0
LINE
  5
D1B
330
18
100
AcDbEntity
  8
Object
100
AcDbLine
 10
17.742
 20
5.056
 30
0.0
 11
17.742
 21
5.051
 31
0.0
  0
LINE
  5
D1C
330
18
100
AcDbEntity
  8
Object
100
AcDbLine
 10
17.742
 20
5.051
 30
0.0
 11
17.742
 21
5.049
 31
0.0
  0
LINE
  5
D1D
330
18
100
AcDbEntity
  8
Object
100
AcDbLine
 10
17.742
 20
5.056
 30
0.0
 11
17.742
 21
5.062999999999999
 31
0.0
  0
LINE
  5
D1E
330
18
100
AcDbEntity
  8
Object
100
AcDbLine
 10
17.742
 20
5.094
 30
0.0
 11
17.742
 21
5.121
 31
0.0
  0
LINE
  5
D1F
330
18
100
AcDbEntity
  8
Object
100
AcDbLine
 10
17.742
 20
5.139
 30
0.0
 11
17.742
 21
5.147999999999999
 31
0.0
  0
LINE
  5
D20
330
18
100
AcDbEntity
  8
Object
100
AcDbLine
 10
17.742
 20
5.147999999999999
 30
0.0
 11
17.742
 21
5.166
 31
0.0
  0
LINE
  5
D21
330
18
100
AcDbEntity
  8
Object
100
AcDbLine
 10
17.742
 20
5.094
 30
0.0
 11
17.742
 21
5.121
 31
0.0
  0
LINE
  5
D22
330
18
100
AcDbEntity
  8
Object
100
AcDbLine
 10
17.339
 20
5.121
 30
0.0
 11
17.339
 21
5.139
 31
0.0
  0
LINE
  5
D23
330
18
100
AcDbEntity
  8
Object
100
AcDbLine
 10
17.339
 20
5.139
 30
0.0
 11
17.339
 21
5.147999999999999
 31
0.0
  0
LINE
  5
D24
330
18
100
AcDbEntity
  8
Object
100
AcDbLine
 10
17.339
 20
5.147999999999999
 30
0.0
 11
17.742
 21
5.147999999999999
 31
0.0
  0
LINE
  5
D25
330
18
100
AcDbEntity
  8
Object
100
AcDbLine
 10
17.742
 20
5.147999999999999
 30
0.0
 11
17.742
 21
5.139
 31
0.0
  0
LINE
  5
D26
330
18
100
AcDbEntity
  8
Object
100
AcDbLine
 10
17.742
 20
5.139
 30
0.0
 11
17.742
 21
5.121
 31
0.0
  0
LINE
  5
D27
330
18
100
AcDbEntity
  8
Object
100
AcDbLine
 10
17.339
 20
5.121
 30
0.0
 11
17.339
 21
5.094
 31
0.0
  0
LINE
  5
D28
330
18
100
AcDbEntity
  8
Object
100
AcDbLine
 10
17.742
 20
5.062999999999999
 30
0.0
 11
17.742
 21
5.094
 31
0.0
  0
LINE
  5
D29
330
18
100
AcDbEntity
  8
Object
100
AcDbLine
 10
17.339
 20
5.094
 30
0.0
 11
17.339
 21
5.062999999999999
 31
0.0
  0
LINE
  5
D2A
330
18
100
AcDbEntity
  8
Object
100
AcDbLine
 10
17.702
 20
5.169999999999999
 30
0.0
 11
17.722
 21
5.169
 31
0.0
  0
LINE
  5
D2B
330
18
100
AcDbEntity
  8
Object
100
AcDbLine
 10
17.722
 20
5.169
 30
0.0
 11
17.736
 21
5.168
 31
0.0
  0
LINE
  5
D2C
330
18
100
AcDbEntity
  8
Object
100
AcDbLine
 10
17.736
 20
5.168
 30
0.0
 11
17.742
 21
5.166
 31
0.0
  0
LINE
  5
D2D
330
18
100
AcDbEntity
  8
Object
100
AcDbLine
 10
17.742
 20
5.166
 30
0.0
 11
17.742
 21
5.147999999999999
 31
0.0
  0
LINE
  5
D2E
330
18
100
AcDbEntity
  8
Object
100
AcDbLine
 10
17.702
 20
5.169999999999999
 30
0.0
 11
17.379
 21
5.169999999999999
 31
0.0
  0
LINE
  5
D2F
330
18
100
AcDbEntity
  8
Object
100
AcDbLine
 10
17.344
 20
5.168
 30
0.0
 11
17.359
 21
5.169
 31
0.0
  0
LINE
  5
D30
330
18
100
AcDbEntity
  8
Object
100
AcDbLine
 10
17.359
 20
5.169
 30
0.0
 11
17.379
 21
5.169999999999999
 31
0.0
  0
LINE
  5
D31
330
18
100
AcDbEntity
  8
Object
100
AcDbLine
 10
17.339
 20
5.147999999999999
 30
0.0
 11
17.339
 21
5.166
 31
0.0
  0
LINE
  5
D32
330
18
100
AcDbEntity
  8
Object
100
AcDbLine
 10
17.339
 20
5.166
 30
0.0
 11
17.344
 21
5.168
 31
0.0
  0
LINE
  5
D33
330
18
100
AcDbEntity
  8
Object
100
AcDbLine
 10
18.174
 20
5.219
 30
0.0
 11
18.166
 21
5.219
 31
0.0
  0
LINE
  5
D34
330
18
100
AcDbEntity
  8
Object
100
AcDbLine
 10
18.166
 20
5.219
 30
0.0
 11
18.145
 21
5.219
 31
0.0
  0
LINE
  5
D35
330
18
100
AcDbEntity
  8
Object
100
AcDbLine
 10
18.145
 20
5.219
 30
0.0
 11
18.112
 21
5.219
 31
0.0
  0
LINE
  5
D36
330
18
100
AcDbEntity
  8
Object
100
AcDbLine
 10
18.112
 20
5.219
 30
0.0
 11
18.069
 21
5.219
 31
0.0
  0
LINE
  5
D37
330
18
100
AcDbEntity
  8
Object
100
AcDbLine
 10
18.069
 20
5.219
 30
0.0
 11
18.018
 21
5.219
 31
0.0
  0
LINE
  5
D38
330
18
100
AcDbEntity
  8
Object
100
AcDbLine
 10
18.018
 20
5.219
 30
0.0
 11
17.964
 21
5.219
 31
0.0
  0
LINE
  5
D39
330
18
100
AcDbEntity
  8
Object
100
AcDbLine
 10
17.964
 20
5.219
 30
0.0
 11
17.909
 21
5.219
 31
0.0
  0
LINE
  5
D3A
330
18
100
AcDbEntity
  8
Object
100
AcDbLine
 10
17.909
 20
5.219
 30
0.0
 11
17.859
 21
5.219
 31
0.0
  0
LINE
  5
D3B
330
18
100
AcDbEntity
  8
Object
100
AcDbLine
 10
17.859
 20
5.219
 30
0.0
 11
17.815
 21
5.219
 31
0.0
  0
LINE
  5
D3C
330
18
100
AcDbEntity
  8
Object
100
AcDbLine
 10
17.815
 20
5.219
 30
0.0
 11
17.782
 21
5.219
 31
0.0
  0
LINE
  5
D3D
330
18
100
AcDbEntity
  8
Object
100
AcDbLine
 10
17.782
 20
5.219
 30
0.0
 11
17.761
 21
5.219
 31
0.0
  0
LINE
  5
D3E
330
18
100
AcDbEntity
  8
Object
100
AcDbLine
 10
17.761
 20
5.219
 30
0.0
 11
17.754
 21
5.219
 31
0.0
  0
LINE
  5
D3F
330
18
100
AcDbEntity
  8
Object
100
AcDbLine
 10
17.909
 20
5.219
 30
0.0
 11
17.964
 21
5.219
 31
0.0
  0
LINE
  5
D40
330
18
100
AcDbEntity
  8
Object
100
AcDbLine
 10
17.964
 20
5.219
 30
0.0
 11
17.964
 21
5.209
 31
0.0
  0
LINE
  5
D41
330
18
100
AcDbEntity
  8
Object
100
AcDbLine
 10
17.909
 20
5.219
 30
0.0
 11
17.859
 21
5.219
 31
0.0
  0
LINE
  5
D42
330
18
100
AcDbEntity
  8
Object
100
AcDbLine
 10
17.859
 20
5.219
 30
0.0
 11
17.815
 21
5.219
 31
0.0
  0
LINE
  5
D43
330
18
100
AcDbEntity
  8
Object
100
AcDbLine
 10
17.815
 20
5.219
 30
0.0
 11
17.782
 21
5.219
 31
0.0
  0
LINE
  5
D44
330
18
100
AcDbEntity
  8
Object
100
AcDbLine
 10
17.782
 20
5.219
 30
0.0
 11
17.761
 21
5.219
 31
0.0
  0
LINE
  5
D45
330
18
100
AcDbEntity
  8
Object
100
AcDbLine
 10
17.761
 20
5.219
 30
0.0
 11
17.754
 21
5.219
 31
0.0
  0
LINE
  5
D46
330
18
100
AcDbEntity
  8
Object
100
AcDbLine
 10
17.754
 20
5.219
 30
0.0
 11
17.744
 21
5.209
 31
0.0
  0
LINE
  5
D47
330
18
100
AcDbEntity
  8
Object
100
AcDbLine
 10
18.174
 20
5.219
 30
0.0
 11
18.184
 21
5.209
 31
0.0
  0
LINE
  5
D48
330
18
100
AcDbEntity
  8
Object
100
AcDbLine
 10
18.184
 20
5.209
 30
0.0
 11
18.176
 21
5.209
 31
0.0
  0
LINE
  5
D49
330
18
100
AcDbEntity
  8
Object
100
AcDbLine
 10
18.174
 20
5.219
 30
0.0
 11
18.166
 21
5.219
 31
0.0
  0
LINE
  5
D4A
330
18
100
AcDbEntity
  8
Object
100
AcDbLine
 10
18.166
 20
5.219
 30
0.0
 11
18.145
 21
5.219
 31
0.0
  0
LINE
  5
D4B
330
18
100
AcDbEntity
  8
Object
100
AcDbLine
 10
18.145
 20
5.219
 30
0.0
 11
18.112
 21
5.219
 31
0.0
  0
LINE
  5
D4C
330
18
100
AcDbEntity
  8
Object
100
AcDbLine
 10
18.112
 20
5.219
 30
0.0
 11
18.069
 21
5.219
 31
0.0
  0
LINE
  5
D4D
330
18
100
AcDbEntity
  8
Object
100
AcDbLine
 10
18.069
 20
5.219
 30
0.0
 11
18.018
 21
5.219
 31
0.0
  0
LINE
  5
D4E
330
18
100
AcDbEntity
  8
Object
100
AcDbLine
 10
18.018
 20
5.219
 30
0.0
 11
17.964
 21
5.219
 31
0.0
  0
LINE
  5
D4F
330
18
100
AcDbEntity
  8
Object
100
AcDbLine
 10
17.907
 20
5.209
 30
0.0
 11
17.964
 21
5.209
 31
0.0
  0
LINE
  5
D50
330
18
100
AcDbEntity
  8
Object
100
AcDbLine
 10
17.964
 20
5.209
 30
0.0
 11
17.964
 21
5.049
 31
0.0
  0
LINE
  5
D51
330
18
100
AcDbEntity
  8
Object
100
AcDbLine
 10
17.907
 20
5.209
 30
0.0
 11
17.854
 21
5.209
 31
0.0
  0
LINE
  5
D52
330
18
100
AcDbEntity
  8
Object
100
AcDbLine
 10
17.854
 20
5.209
 30
0.0
 11
17.808
 21
5.209
 31
0.0
  0
LINE
  5
D53
330
18
100
AcDbEntity
  8
Object
100
AcDbLine
 10
17.808
 20
5.209
 30
0.0
 11
17.773
 21
5.209
 31
0.0
  0
LINE
  5
D54
330
18
100
AcDbEntity
  8
Object
100
AcDbLine
 10
17.773
 20
5.209
 30
0.0
 11
17.751
 21
5.209
 31
0.0
  0
LINE
  5
D55
330
18
100
AcDbEntity
  8
Object
100
AcDbLine
 10
17.751
 20
5.209
 30
0.0
 11
17.744
 21
5.209
 31
0.0
  0
LINE
  5
D56
330
18
100
AcDbEntity
  8
Object
100
AcDbLine
 10
17.744
 20
5.209
 30
0.0
 11
17.744
 21
5.049
 31
0.0
  0
LINE
  5
D57
330
18
100
AcDbEntity
  8
Object
100
AcDbLine
 10
18.184
 20
5.049
 30
0.0
 11
18.184
 21
5.209
 31
0.0
  0
LINE
  5
D58
330
18
100
AcDbEntity
  8
Object
100
AcDbLine
 10
18.176
 20
5.209
 30
0.0
 11
18.154
 21
5.209
 31
0.0
  0
LINE
  5
D59
330
18
100
AcDbEntity
  8
Object
100
AcDbLine
 10
18.154
 20
5.209
 30
0.0
 11
18.119
 21
5.209
 31
0.0
  0
LINE
  5
D5A
330
18
100
AcDbEntity
  8
Object
100
AcDbLine
 10
18.119
 20
5.209
 30
0.0
 11
18.074
 21
5.209
 31
0.0
  0
LINE
  5
D5B
330
18
100
AcDbEntity
  8
Object
100
AcDbLine
 10
18.074
 20
5.209
 30
0.0
 11
18.021
 21
5.209
 31
0.0
  0
LINE
  5
D5C
330
18
100
AcDbEntity
  8
Object
100
AcDbLine
 10
18.021
 20
5.209
 30
0.0
 11
17.964
 21
5.209
 31
0.0
  0
LINE
  5
D5D
330
18
100
AcDbEntity
  8
Object
100
AcDbLine
 10
18.018
 20
4.575
 30
0.0
 11
18.073
 21
4.57
 31
0.0
  0
LINE
  5
D5E
330
18
100
AcDbEntity
  8
Object
100
AcDbLine
 10
18.073
 20
4.57
 30
0.0
 11
18.02
 21
4.57
 31
0.0
  0
LINE
  5
D5F
330
18
100
AcDbEntity
  8
Object
100
AcDbLine
 10
18.018
 20
4.575
 30
0.0
 11
17.964
 21
4.589
 31
0.0
  0
LINE
  5
D60
330
18
100
AcDbEntity
  8
Object
100
AcDbLine
 10
17.964
 20
4.57
 30
0.0
 11
18.02
 21
4.57
 31
0.0
  0
LINE
  5
D61
330
18
100
AcDbEntity
  8
Object
100
AcDbLine
 10
17.964
 20
4.589
 30
0.0
 11
17.909
 21
4.575
 31
0.0
  0
LINE
  5
D62
330
18
100
AcDbEntity
  8
Object
100
AcDbLine
 10
17.964
 20
4.57
 30
0.0
 11
17.907
 21
4.57
 31
0.0
  0
LINE
  5
D63
330
18
100
AcDbEntity
  8
Object
100
AcDbLine
 10
17.907
 20
4.57
 30
0.0
 11
17.854
 21
4.57
 31
0.0
  0
LINE
  5
D64
330
18
100
AcDbEntity
  8
Object
100
AcDbLine
 10
17.854
 20
4.57
 30
0.0
 11
17.909
 21
4.575
 31
0.0
  0
LINE
  5
D65
330
18
100
AcDbEntity
  8
Object
100
AcDbLine
 10
17.909
 20
4.727
 30
0.0
 11
17.964
 21
4.713
 31
0.0
  0
LINE
  5
D66
330
18
100
AcDbEntity
  8
Object
100
AcDbLine
 10
17.964
 20
4.713
 30
0.0
 11
17.964
 21
4.589
 31
0.0
  0
LINE
  5
D67
330
18
100
AcDbEntity
  8
Object
100
AcDbLine
 10
17.909
 20
4.727
 30
0.0
 11
17.854
 21
4.733
 31
0.0
  0
LINE
  5
D68
330
18
100
AcDbEntity
  8
Object
100
AcDbLine
 10
17.854
 20
4.733
 30
0.0
 11
17.799
 21
4.727
 31
0.0
  0
LINE
  5
D69
330
18
100
AcDbEntity
  8
Object
100
AcDbLine
 10
17.799
 20
4.575
 30
0.0
 11
17.854
 21
4.57
 31
0.0
  0
LINE
  5
D6A
330
18
100
AcDbEntity
  8
Object
100
AcDbLine
 10
17.745
 20
4.713
 30
0.0
 11
17.745
 21
4.589
 31
0.0
  0
LINE
  5
D6B
330
18
100
AcDbEntity
  8
Object
100
AcDbLine
 10
17.745
 20
4.589
 30
0.0
 11
17.799
 21
4.575
 31
0.0
  0
LINE
  5
D6C
330
18
100
AcDbEntity
  8
Object
100
AcDbLine
 10
17.799
 20
4.727
 30
0.0
 11
17.745
 21
4.713
 31
0.0
  0
LINE
  5
D6D
330
18
100
AcDbEntity
  8
Object
100
AcDbLine
 10
18.128
 20
4.727
 30
0.0
 11
18.183
 21
4.713
 31
0.0
  0
LINE
  5
D6E
330
18
100
AcDbEntity
  8
Object
100
AcDbLine
 10
18.183
 20
4.713
 30
0.0
 11
18.183
 21
4.589
 31
0.0
  0
LINE
  5
D6F
330
18
100
AcDbEntity
  8
Object
100
AcDbLine
 10
18.183
 20
4.589
 30
0.0
 11
18.128
 21
4.575
 31
0.0
  0
LINE
  5
D70
330
18
100
AcDbEntity
  8
Object
100
AcDbLine
 10
18.128
 20
4.727
 30
0.0
 11
18.073
 21
4.733
 31
0.0
  0
LINE
  5
D71
330
18
100
AcDbEntity
  8
Object
100
AcDbLine
 10
18.073
 20
4.57
 30
0.0
 11
18.128
 21
4.575
 31
0.0
  0
LINE
  5
D72
330
18
100
AcDbEntity
  8
Object
100
AcDbLine
 10
18.073
 20
4.733
 30
0.0
 11
18.018
 21
4.727
 31
0.0
  0
LINE
  5
D73
330
18
100
AcDbEntity
  8
Object
100
AcDbLine
 10
18.018
 20
4.727
 30
0.0
 11
17.964
 21
4.713
 31
0.0
  0
LINE
  5
D74
330
18
100
AcDbEntity
  8
Object
100
AcDbLine
 10
18.183
 20
4.57
 30
0.0
 11
18.175
 21
4.57
 31
0.0
  0
LINE
  5
D75
330
18
100
AcDbEntity
  8
Object
100
AcDbLine
 10
18.175
 20
4.57
 30
0.0
 11
18.153
 21
4.57
 31
0.0
  0
LINE
  5
D76
330
18
100
AcDbEntity
  8
Object
100
AcDbLine
 10
18.153
 20
4.57
 30
0.0
 11
18.118
 21
4.57
 31
0.0
  0
LINE
  5
D77
330
18
100
AcDbEntity
  8
Object
100
AcDbLine
 10
18.118
 20
4.57
 30
0.0
 11
18.073
 21
4.57
 31
0.0
  0
LINE
  5
D78
330
18
100
AcDbEntity
  8
Object
100
AcDbLine
 10
18.073
 20
4.57
 30
0.0
 11
18.02
 21
4.57
 31
0.0
  0
LINE
  5
D79
330
18
100
AcDbEntity
  8
Object
100
AcDbLine
 10
18.02
 20
4.57
 30
0.0
 11
17.964
 21
4.57
 31
0.0
  0
LINE
  5
D7A
330
18
100
AcDbEntity
  8
Object
100
AcDbLine
 10
17.964
 20
4.57
 30
0.0
 11
17.907
 21
4.57
 31
0.0
  0
LINE
  5
D7B
330
18
100
AcDbEntity
  8
Object
100
AcDbLine
 10
17.907
 20
4.57
 30
0.0
 11
17.854
 21
4.57
 31
0.0
  0
LINE
  5
D7C
330
18
100
AcDbEntity
  8
Object
100
AcDbLine
 10
17.854
 20
4.57
 30
0.0
 11
17.809
 21
4.57
 31
0.0
  0
LINE
  5
D7D
330
18
100
AcDbEntity
  8
Object
100
AcDbLine
 10
17.809
 20
4.57
 30
0.0
 11
17.774
 21
4.57
 31
0.0
  0
LINE
  5
D7E
330
18
100
AcDbEntity
  8
Object
100
AcDbLine
 10
17.774
 20
4.57
 30
0.0
 11
17.752
 21
4.57
 31
0.0
  0
LINE
  5
D7F
330
18
100
AcDbEntity
  8
Object
100
AcDbLine
 10
17.752
 20
4.57
 30
0.0
 11
17.745
 21
4.57
 31
0.0
  0
LINE
  5
D80
330
18
100
AcDbEntity
  8
Object
100
AcDbLine
 10
17.745
 20
4.713
 30
0.0
 11
17.745
 21
4.727
 31
0.0
  0
LINE
  5
D81
330
18
100
AcDbEntity
  8
Object
100
AcDbLine
 10
17.745
 20
4.727
 30
0.0
 11
17.745
 21
4.733
 31
0.0
  0
LINE
  5
D82
330
18
100
AcDbEntity
  8
Object
100
AcDbLine
 10
17.745
 20
4.575
 30
0.0
 11
17.745
 21
4.57
 31
0.0
  0
LINE
  5
D83
330
18
100
AcDbEntity
  8
Object
100
AcDbLine
 10
17.745
 20
4.733
 30
0.0
 11
17.745
 21
4.727
 31
0.0
  0
LINE
  5
D84
330
18
100
AcDbEntity
  8
Object
100
AcDbLine
 10
17.745
 20
4.727
 30
0.0
 11
17.745
 21
4.713
 31
0.0
  0
LINE
  5
D85
330
18
100
AcDbEntity
  8
Object
100
AcDbLine
 10
17.745
 20
4.713
 30
0.0
 11
17.745
 21
4.589
 31
0.0
  0
LINE
  5
D86
330
18
100
AcDbEntity
  8
Object
100
AcDbLine
 10
17.745
 20
4.589
 30
0.0
 11
17.745
 21
4.575
 31
0.0
  0
LINE
  5
D87
330
18
100
AcDbEntity
  8
Object
100
AcDbLine
 10
17.969
 20
4.733
 30
0.0
 11
17.964
 21
4.733
 31
0.0
  0
LINE
  5
D88
330
18
100
AcDbEntity
  8
Object
100
AcDbLine
 10
17.964
 20
4.733
 30
0.0
 11
17.959
 21
4.733
 31
0.0
  0
LINE
  5
D89
330
18
100
AcDbEntity
  8
Object
100
AcDbLine
 10
17.854
 20
4.57
 30
0.0
 11
17.809
 21
4.57
 31
0.0
  0
LINE
  5
D8A
330
18
100
AcDbEntity
  8
Object
100
AcDbLine
 10
17.809
 20
4.57
 30
0.0
 11
17.774
 21
4.57
 31
0.0
  0
LINE
  5
D8B
330
18
100
AcDbEntity
  8
Object
100
AcDbLine
 10
17.745
 20
4.589
 30
0.0
 11
17.745
 21
4.575
 31
0.0
  0
LINE
  5
D8C
330
18
100
AcDbEntity
  8
Object
100
AcDbLine
 10
17.774
 20
4.57
 30
0.0
 11
17.752
 21
4.57
 31
0.0
  0
LINE
  5
D8D
330
18
100
AcDbEntity
  8
Object
100
AcDbLine
 10
17.752
 20
4.57
 30
0.0
 11
17.745
 21
4.57
 31
0.0
  0
LINE
  5
D8E
330
18
100
AcDbEntity
  8
Object
100
AcDbLine
 10
17.745
 20
4.57
 30
0.0
 11
17.745
 21
4.575
 31
0.0
  0
LINE
  5
D8F
330
18
100
AcDbEntity
  8
Object
100
AcDbLine
 10
18.183
 20
4.57
 30
0.0
 11
18.183
 21
4.575
 31
0.0
  0
LINE
  5
D90
330
18
100
AcDbEntity
  8
Object
100
AcDbLine
 10
18.183
 20
4.575
 30
0.0
 11
18.183
 21
4.589
 31
0.0
  0
LINE
  5
D91
330
18
100
AcDbEntity
  8
Object
100
AcDbLine
 10
18.183
 20
4.589
 30
0.0
 11
18.183
 21
4.713
 31
0.0
  0
LINE
  5
D92
330
18
100
AcDbEntity
  8
Object
100
AcDbLine
 10
18.183
 20
4.713
 30
0.0
 11
18.183
 21
4.727
 31
0.0
  0
LINE
  5
D93
330
18
100
AcDbEntity
  8
Object
100
AcDbLine
 10
18.183
 20
4.727
 30
0.0
 11
18.183
 21
4.733
 31
0.0
  0
LINE
  5
D94
330
18
100
AcDbEntity
  8
Object
100
AcDbLine
 10
18.183
 20
4.733
 30
0.0
 11
18.183
 21
4.727
 31
0.0
  0
LINE
  5
D95
330
18
100
AcDbEntity
  8
Object
100
AcDbLine
 10
18.183
 20
4.727
 30
0.0
 11
18.183
 21
4.713
 31
0.0
  0
LINE
  5
D96
330
18
100
AcDbEntity
  8
Object
100
AcDbLine
 10
18.175
 20
4.57
 30
0.0
 11
18.183
 21
4.57
 31
0.0
  0
LINE
  5
D97
330
18
100
AcDbEntity
  8
Object
100
AcDbLine
 10
18.183
 20
4.57
 30
0.0
 11
18.183
 21
4.575
 31
0.0
  0
LINE
  5
D98
330
18
100
AcDbEntity
  8
Object
100
AcDbLine
 10
18.153
 20
4.57
 30
0.0
 11
18.175
 21
4.57
 31
0.0
  0
LINE
  5
D99
330
18
100
AcDbEntity
  8
Object
100
AcDbLine
 10
18.183
 20
4.575
 30
0.0
 11
18.183
 21
4.589
 31
0.0
  0
LINE
  5
D9A
330
18
100
AcDbEntity
  8
Object
100
AcDbLine
 10
18.153
 20
4.57
 30
0.0
 11
18.118
 21
4.57
 31
0.0
  0
LINE
  5
D9B
330
18
100
AcDbEntity
  8
Object
100
AcDbLine
 10
18.118
 20
4.57
 30
0.0
 11
18.073
 21
4.57
 31
0.0
  0
LINE
  5
D9C
330
18
100
AcDbEntity
  8
Object
100
AcDbLine
 10
17.969
 20
4.733
 30
0.0
 11
17.964
 21
4.733
 31
0.0
  0
LINE
  5
D9D
330
18
100
AcDbEntity
  8
Object
100
AcDbLine
 10
17.964
 20
4.733
 30
0.0
 11
17.959
 21
4.733
 31
0.0
  0
LINE
  5
D9E
330
18
100
AcDbEntity
  8
Object
100
AcDbLine
 10
17.959
 20
4.761
 30
0.0
 11
17.964
 21
4.762
 31
0.0
  0
LINE
  5
D9F
330
18
100
AcDbEntity
  8
Object
100
AcDbLine
 10
17.964
 20
4.762
 30
0.0
 11
17.964
 21
4.733
 31
0.0
  0
LINE
  5
DA0
330
18
100
AcDbEntity
  8
Object
100
AcDbLine
 10
17.969
 20
4.762
 30
0.0
 11
17.964
 21
4.762
 31
0.0
  0
LINE
  5
DA1
330
18
100
AcDbEntity
  8
Object
100
AcDbLine
 10
18.085
 20
5.222
 30
0.0
 11
18.088
 21
5.225
 31
0.0
  0
LINE
  5
DA2
330
18
100
AcDbEntity
  8
Object
100
AcDbLine
 10
18.074
 20
5.233
 30
0.0
 11
18.075
 21
5.233
 31
0.0
  0
LINE
  5
DA3
330
18
100
AcDbEntity
  8
Object
100
AcDbLine
 10
18.075
 20
5.233
 30
0.0
 11
18.088
 21
5.225
 31
0.0
  0
LINE
  5
DA4
330
18
100
AcDbEntity
  8
Object
100
AcDbLine
 10
18.074
 20
5.233
 30
0.0
 11
18.067
 21
5.233
 31
0.0
  0
LINE
  5
DA5
330
18
100
AcDbEntity
  8
Object
100
AcDbLine
 10
18.068
 20
5.219999999999999
 30
0.0
 11
18.085
 21
5.222
 31
0.0
  0
LINE
  5
DA6
330
18
100
AcDbEntity
  8
Object
100
AcDbLine
 10
18.067
 20
5.233
 30
0.0
 11
18.054
 21
5.233
 31
0.0
  0
LINE
  5
DA7
330
18
100
AcDbEntity
  8
Object
100
AcDbLine
 10
18.054
 20
5.233
 30
0.0
 11
18.036
 21
5.233
 31
0.0
  0
LINE
  5
DA8
330
18
100
AcDbEntity
  8
Object
100
AcDbLine
 10
18.057
 20
5.219
 30
0.0
 11
18.068
 21
5.219999999999999
 31
0.0
  0
LINE
  5
DA9
330
18
100
AcDbEntity
  8
Object
100
AcDbLine
 10
18.021
 20
5.230999999999999
 30
0.0
 11
18.003
 21
5.229
 31
0.0
  0
LINE
  5
DAA
330
18
100
AcDbEntity
  8
Object
100
AcDbLine
 10
18.003
 20
5.229
 30
0.0
 11
17.984
 21
5.227999999999999
 31
0.0
  0
LINE
  5
DAB
330
18
100
AcDbEntity
  8
Object
100
AcDbLine
 10
17.984
 20
5.227999999999999
 30
0.0
 11
17.964
 21
5.225999999999999
 31
0.0
  0
LINE
  5
DAC
330
18
100
AcDbEntity
  8
Object
100
AcDbLine
 10
17.969
 20
4.777
 30
0.0
 11
17.964
 21
4.775999999999999
 31
0.0
  0
LINE
  5
DAD
330
18
100
AcDbEntity
  8
Object
100
AcDbLine
 10
17.964
 20
5.225999999999999
 30
0.0
 11
17.925
 21
5.222999999999999
 31
0.0
  0
LINE
  5
DAE
330
18
100
AcDbEntity
  8
Object
100
AcDbLine
 10
17.964
 20
4.775999999999999
 30
0.0
 11
17.959
 21
4.775999999999999
 31
0.0
  0
LINE
  5
DAF
330
18
100
AcDbEntity
  8
Object
100
AcDbLine
 10
17.925
 20
5.222999999999999
 30
0.0
 11
17.893
 21
5.219999999999999
 31
0.0
  0
LINE
  5
DB0
330
18
100
AcDbEntity
  8
Object
100
AcDbLine
 10
17.893
 20
5.219999999999999
 30
0.0
 11
17.884
 21
5.219
 31
0.0
  0
LINE
  5
DB1
330
18
100
AcDbEntity
  8
Object
100
AcDbLine
 10
17.969
 20
4.788999999999999
 30
0.0
 11
17.964
 21
4.788999999999999
 31
0.0
  0
LINE
  5
DB2
330
18
100
AcDbEntity
  8
Object
100
AcDbLine
 10
17.964
 20
4.788999999999999
 30
0.0
 11
17.959
 21
4.788
 31
0.0
  0
LINE
  5
DB3
330
18
100
AcDbEntity
  8
Object
100
AcDbLine
 10
17.873
 20
5.233
 30
0.0
 11
17.891
 21
5.233
 31
0.0
  0
LINE
  5
DB4
330
18
100
AcDbEntity
  8
Object
100
AcDbLine
 10
17.891
 20
5.233
 30
0.0
 11
17.874
 21
5.23
 31
0.0
  0
LINE
  5
DB5
330
18
100
AcDbEntity
  8
Object
100
AcDbLine
 10
17.874
 20
5.23
 30
0.0
 11
17.865
 21
5.227999999999999
 31
0.0
  0
LINE
  5
DB6
330
18
100
AcDbEntity
  8
Object
100
AcDbLine
 10
17.873
 20
5.233
 30
0.0
 11
17.861
 21
5.233
 31
0.0
  0
LINE
  5
DB7
330
18
100
AcDbEntity
  8
Object
100
AcDbLine
 10
17.861
 20
5.233
 30
0.0
 11
17.854
 21
5.233
 31
0.0
  0
LINE
  5
DB8
330
18
100
AcDbEntity
  8
Object
100
AcDbLine
 10
17.865
 20
5.227999999999999
 30
0.0
 11
17.864
 21
5.225999999999999
 31
0.0
  0
LINE
  5
DB9
330
18
100
AcDbEntity
  8
Object
100
AcDbLine
 10
17.864
 20
5.225999999999999
 30
0.0
 11
17.853
 21
5.233
 31
0.0
  0
LINE
  5
DBA
330
18
100
AcDbEntity
  8
Object
100
AcDbLine
 10
17.853
 20
5.233
 30
0.0
 11
17.854
 21
5.233
 31
0.0
  0
LINE
  5
DBB
330
18
100
AcDbEntity
  8
Object
100
AcDbLine
 10
17.937
 20
5.233
 30
0.0
 11
17.964
 21
5.233
 31
0.0
  0
LINE
  5
DBC
330
18
100
AcDbEntity
  8
Object
100
AcDbLine
 10
17.964
 20
5.233
 30
0.0
 11
17.964
 21
5.225999999999999
 31
0.0
  0
LINE
  5
DBD
330
18
100
AcDbEntity
  8
Object
100
AcDbLine
 10
17.937
 20
5.233
 30
0.0
 11
17.912
 21
5.233
 31
0.0
  0
LINE
  5
DBE
330
18
100
AcDbEntity
  8
Object
100
AcDbLine
 10
17.912
 20
5.233
 30
0.0
 11
17.891
 21
5.233
 31
0.0
  0
LINE
  5
DBF
330
18
100
AcDbEntity
  8
Object
100
AcDbLine
 10
17.864
 20
5.225999999999999
 30
0.0
 11
17.864
 21
5.219
 31
0.0
  0
LINE
  5
DC0
330
18
100
AcDbEntity
  8
Object
100
AcDbLine
 10
18.088
 20
5.219
 30
0.0
 11
18.088
 21
5.225
 31
0.0
  0
LINE
  5
DC1
330
18
100
AcDbEntity
  8
Object
100
AcDbLine
 10
18.015
 20
5.233
 30
0.0
 11
18.036
 21
5.233
 31
0.0
  0
LINE
  5
DC2
330
18
100
AcDbEntity
  8
Object
100
AcDbLine
 10
18.036
 20
5.233
 30
0.0
 11
18.021
 21
5.230999999999999
 31
0.0
  0
LINE
  5
DC3
330
18
100
AcDbEntity
  8
Object
100
AcDbLine
 10
18.015
 20
5.233
 30
0.0
 11
17.99
 21
5.233
 31
0.0
  0
LINE
  5
DC4
330
18
100
AcDbEntity
  8
Object
100
AcDbLine
 10
17.99
 20
5.233
 30
0.0
 11
17.964
 21
5.233
 31
0.0
  0
LINE
  5
DC5
330
18
100
AcDbEntity
  8
Object
100
AcDbLine
 10
17.964
 20
4.775999999999999
 30
0.0
 11
17.964
 21
4.788999999999999
 31
0.0
  0
LINE
  5
DC6
330
18
100
AcDbEntity
  8
Object
100
AcDbLine
 10
18.075
 20
5.233
 30
0.0
 11
18.074
 21
5.233
 31
0.0
  0
LINE
  5
DC7
330
18
100
AcDbEntity
  8
Object
100
AcDbLine
 10
18.074
 20
5.233
 30
0.0
 11
18.067
 21
5.233
 31
0.0
  0
LINE
  5
DC8
330
18
100
AcDbEntity
  8
Object
100
AcDbLine
 10
18.067
 20
5.233
 30
0.0
 11
18.054
 21
5.233
 31
0.0
  0
LINE
  5
DC9
330
18
100
AcDbEntity
  8
Object
100
AcDbLine
 10
18.054
 20
5.233
 30
0.0
 11
18.036
 21
5.233
 31
0.0
  0
LINE
  5
DCA
330
18
100
AcDbEntity
  8
Object
100
AcDbLine
 10
18.036
 20
5.233
 30
0.0
 11
18.015
 21
5.233
 31
0.0
  0
LINE
  5
DCB
330
18
100
AcDbEntity
  8
Object
100
AcDbLine
 10
18.015
 20
5.233
 30
0.0
 11
17.99
 21
5.233
 31
0.0
  0
LINE
  5
DCC
330
18
100
AcDbEntity
  8
Object
100
AcDbLine
 10
17.99
 20
5.233
 30
0.0
 11
17.964
 21
5.233
 31
0.0
  0
LINE
  5
DCD
330
18
100
AcDbEntity
  8
Object
100
AcDbLine
 10
17.964
 20
5.233
 30
0.0
 11
17.937
 21
5.233
 31
0.0
  0
LINE
  5
DCE
330
18
100
AcDbEntity
  8
Object
100
AcDbLine
 10
17.937
 20
5.233
 30
0.0
 11
17.912
 21
5.233
 31
0.0
  0
LINE
  5
DCF
330
18
100
AcDbEntity
  8
Object
100
AcDbLine
 10
17.912
 20
5.233
 30
0.0
 11
17.891
 21
5.233
 31
0.0
  0
LINE
  5
DD0
330
18
100
AcDbEntity
  8
Object
100
AcDbLine
 10
17.891
 20
5.233
 30
0.0
 11
17.873
 21
5.233
 31
0.0
  0
LINE
  5
DD1
330
18
100
AcDbEntity
  8
Object
100
AcDbLine
 10
17.873
 20
5.233
 30
0.0
 11
17.861
 21
5.233
 31
0.0
  0
LINE
  5
DD2
330
18
100
AcDbEntity
  8
Object
100
AcDbLine
 10
17.861
 20
5.233
 30
0.0
 11
17.854
 21
5.233
 31
0.0
  0
LINE
  5
DD3
330
18
100
AcDbEntity
  8
Object
100
AcDbLine
 10
17.854
 20
5.233
 30
0.0
 11
17.853
 21
5.233
 31
0.0
  0
LINE
  5
DD4
330
18
100
AcDbEntity
  8
Object
100
AcDbLine
 10
12.214
 20
4.974
 30
0.0
 11
11.839
 21
4.974
 31
0.0
  0
LINE
  5
DD5
330
18
100
AcDbEntity
  8
Object
100
AcDbLine
 10
11.839
 20
4.974
 30
0.0
 11
3.479
 21
4.974
 31
0.0
  0
LINE
  5
DD6
330
18
100
AcDbEntity
  8
Object
100
AcDbLine
 10
3.479
 20
4.974
 30
0.0
 11
3.471
 21
4.974
 31
0.0
  0
LINE
  5
DD7
330
18
100
AcDbEntity
  8
Object
100
AcDbLine
 10
3.471
 20
4.974
 30
0.0
 11
3.449
 21
4.974
 31
0.0
  0
LINE
  5
DD8
330
18
100
AcDbEntity
  8
Object
100
AcDbLine
 10
3.449
 20
4.974
 30
0.0
 11
3.413
 21
4.974
 31
0.0
  0
LINE
  5
DD9
330
18
100
AcDbEntity
  8
Object
100
AcDbLine
 10
3.413
 20
4.974
 30
0.0
 11
3.365
 21
4.974
 31
0.0
  0
LINE
  5
DDA
330
18
100
AcDbEntity
  8
Object
100
AcDbLine
 10
3.365
 20
4.974
 30
0.0
 11
3.308
 21
4.974
 31
0.0
  0
LINE
  5
DDB
330
18
100
AcDbEntity
  8
Object
100
AcDbLine
 10
3.308
 20
4.974
 30
0.0
 11
3.245999999999999
 21
4.974
 31
0.0
  0
LINE
  5
DDC
330
18
100
AcDbEntity
  8
Object
100
AcDbLine
 10
3.245999999999999
 20
4.974
 30
0.0
 11
3.181999999999999
 21
4.974
 31
0.0
  0
LINE
  5
DDD
330
18
100
AcDbEntity
  8
Object
100
AcDbLine
 10
3.181999999999999
 20
4.974
 30
0.0
 11
3.12
 21
4.974
 31
0.0
  0
LINE
  5
DDE
330
18
100
AcDbEntity
  8
Object
100
AcDbLine
 10
3.12
 20
4.974
 30
0.0
 11
3.064
 21
4.974
 31
0.0
  0
LINE
  5
DDF
330
18
100
AcDbEntity
  8
Object
100
AcDbLine
 10
3.064
 20
4.974
 30
0.0
 11
3.016
 21
4.974
 31
0.0
  0
LINE
  5
DE0
330
18
100
AcDbEntity
  8
Object
100
AcDbLine
 10
3.016
 20
4.974
 30
0.0
 11
2.98
 21
4.974
 31
0.0
  0
LINE
  5
DE1
330
18
100
AcDbEntity
  8
Object
100
AcDbLine
 10
2.98
 20
4.974
 30
0.0
 11
2.956999999999999
 21
4.974
 31
0.0
  0
LINE
  5
DE2
330
18
100
AcDbEntity
  8
Object
100
AcDbLine
 10
2.956999999999999
 20
4.974
 30
0.0
 11
2.948999999999999
 21
4.974
 31
0.0
  0
LINE
  5
DE3
330
18
100
AcDbEntity
  8
Object
100
AcDbLine
 10
2.948999999999999
 20
4.974
 30
0.0
 11
2.588999999999999
 21
4.974
 31
0.0
  0
LINE
  5
DE4
330
18
100
AcDbEntity
  8
Object
100
AcDbLine
 10
2.588999999999999
 20
4.974
 30
0.0
 11
2.213999999999999
 21
4.974
 31
0.0
  0
LINE
  5
DE5
330
18
100
AcDbEntity
  8
Object
100
AcDbLine
 10
3.479
 20
4.974
 30
0.0
 11
3.479
 21
4.794999999999999
 31
0.0
  0
LINE
  5
DE6
330
18
100
AcDbEntity
  8
Object
100
AcDbLine
 10
2.948999999999999
 20
4.794999999999999
 30
0.0
 11
2.948999999999999
 21
4.974
 31
0.0
  0
LINE
  5
DE7
330
18
100
AcDbEntity
  8
Object
100
AcDbLine
 10
11.839
 20
4.794999999999999
 30
0.0
 11
12.214
 21
4.794999999999999
 31
0.0
  0
LINE
  5
DE8
330
18
100
AcDbEntity
  8
Object
100
AcDbLine
 10
11.839
 20
4.974
 30
0.0
 11
12.214
 21
4.974
 31
0.0
  0
LINE
  5
DE9
330
18
100
AcDbEntity
  8
Object
100
AcDbLine
 10
12.214
 20
4.974
 30
0.0
 11
12.214
 21
4.794999999999999
 31
0.0
  0
LINE
  5
DEA
330
18
100
AcDbEntity
  8
Object
100
AcDbLine
 10
3.471
 20
4.794999999999999
 30
0.0
 11
3.479
 21
4.794999999999999
 31
0.0
  0
LINE
  5
DEB
330
18
100
AcDbEntity
  8
Object
100
AcDbLine
 10
3.479
 20
4.974
 30
0.0
 11
3.471
 21
4.974
 31
0.0
  0
LINE
  5
DEC
330
18
100
AcDbEntity
  8
Object
100
AcDbLine
 10
3.471
 20
4.974
 30
0.0
 11
3.449
 21
4.974
 31
0.0
  0
LINE
  5
DED
330
18
100
AcDbEntity
  8
Object
100
AcDbLine
 10
3.471
 20
4.794999999999999
 30
0.0
 11
3.449
 21
4.794999999999999
 31
0.0
  0
LINE
  5
DEE
330
18
100
AcDbEntity
  8
Object
100
AcDbLine
 10
3.449
 20
4.794999999999999
 30
0.0
 11
3.413
 21
4.794999999999999
 31
0.0
  0
LINE
  5
DEF
330
18
100
AcDbEntity
  8
Object
100
AcDbLine
 10
3.449
 20
4.974
 30
0.0
 11
3.413
 21
4.974
 31
0.0
  0
LINE
  5
DF0
330
18
100
AcDbEntity
  8
Object
100
AcDbLine
 10
3.413
 20
4.974
 30
0.0
 11
3.365
 21
4.974
 31
0.0
  0
LINE
  5
DF1
330
18
100
AcDbEntity
  8
Object
100
AcDbLine
 10
3.413
 20
4.794999999999999
 30
0.0
 11
3.365
 21
4.794999999999999
 31
0.0
  0
LINE
  5
DF2
330
18
100
AcDbEntity
  8
Object
100
AcDbLine
 10
3.365
 20
4.794999999999999
 30
0.0
 11
3.308
 21
4.794999999999999
 31
0.0
  0
LINE
  5
DF3
330
18
100
AcDbEntity
  8
Object
100
AcDbLine
 10
3.365
 20
4.974
 30
0.0
 11
3.308
 21
4.974
 31
0.0
  0
LINE
  5
DF4
330
18
100
AcDbEntity
  8
Object
100
AcDbLine
 10
3.308
 20
4.974
 30
0.0
 11
3.245999999999999
 21
4.974
 31
0.0
  0
LINE
  5
DF5
330
18
100
AcDbEntity
  8
Object
100
AcDbLine
 10
3.308
 20
4.794999999999999
 30
0.0
 11
3.245999999999999
 21
4.794999999999999
 31
0.0
  0
LINE
  5
DF6
330
18
100
AcDbEntity
  8
Object
100
AcDbLine
 10
3.245999999999999
 20
4.794999999999999
 30
0.0
 11
3.181999999999999
 21
4.794999999999999
 31
0.0
  0
LINE
  5
DF7
330
18
100
AcDbEntity
  8
Object
100
AcDbLine
 10
3.245999999999999
 20
4.974
 30
0.0
 11
3.181999999999999
 21
4.974
 31
0.0
  0
LINE
  5
DF8
330
18
100
AcDbEntity
  8
Object
100
AcDbLine
 10
3.181999999999999
 20
4.974
 30
0.0
 11
3.12
 21
4.974
 31
0.0
  0
LINE
  5
DF9
330
18
100
AcDbEntity
  8
Object
100
AcDbLine
 10
3.181999999999999
 20
4.794999999999999
 30
0.0
 11
3.12
 21
4.794999999999999
 31
0.0
  0
LINE
  5
DFA
330
18
100
AcDbEntity
  8
Object
100
AcDbLine
 10
3.12
 20
4.794999999999999
 30
0.0
 11
3.064
 21
4.794999999999999
 31
0.0
  0
LINE
  5
DFB
330
18
100
AcDbEntity
  8
Object
100
AcDbLine
 10
3.12
 20
4.974
 30
0.0
 11
3.064
 21
4.974
 31
0.0
  0
LINE
  5
DFC
330
18
100
AcDbEntity
  8
Object
100
AcDbLine
 10
3.016
 20
4.794999999999999
 30
0.0
 11
3.064
 21
4.794999999999999
 31
0.0
  0
LINE
  5
DFD
330
18
100
AcDbEntity
  8
Object
100
AcDbLine
 10
3.064
 20
4.974
 30
0.0
 11
3.016
 21
4.974
 31
0.0
  0
LINE
  5
DFE
330
18
100
AcDbEntity
  8
Object
100
AcDbLine
 10
3.016
 20
4.974
 30
0.0
 11
2.98
 21
4.974
 31
0.0
  0
LINE
  5
DFF
330
18
100
AcDbEntity
  8
Object
100
AcDbLine
 10
3.016
 20
4.794999999999999
 30
0.0
 11
2.98
 21
4.794999999999999
 31
0.0
  0
LINE
  5
E00
330
18
100
AcDbEntity
  8
Object
100
AcDbLine
 10
2.98
 20
4.794999999999999
 30
0.0
 11
2.956999999999999
 21
4.794999999999999
 31
0.0
  0
LINE
  5
E01
330
18
100
AcDbEntity
  8
Object
100
AcDbLine
 10
2.98
 20
4.974
 30
0.0
 11
2.956999999999999
 21
4.974
 31
0.0
  0
LINE
  5
E02
330
18
100
AcDbEntity
  8
Object
100
AcDbLine
 10
2.956999999999999
 20
4.974
 30
0.0
 11
2.948999999999999
 21
4.974
 31
0.0
  0
LINE
  5
E03
330
18
100
AcDbEntity
  8
Object
100
AcDbLine
 10
2.948999999999999
 20
4.794999999999999
 30
0.0
 11
2.956999999999999
 21
4.794999999999999
 31
0.0
  0
LINE
  5
E04
330
18
100
AcDbEntity
  8
Object
100
AcDbLine
 10
2.588999999999999
 20
4.974
 30
0.0
 11
2.588999999999999
 21
4.794999999999999
 31
0.0
  0
LINE
  5
E05
330
18
100
AcDbEntity
  8
Object
100
AcDbLine
 10
2.588999999999999
 20
4.794999999999999
 30
0.0
 11
2.213999999999999
 21
4.794999999999999
 31
0.0
  0
LINE
  5
E06
330
18
100
AcDbEntity
  8
Object
100
AcDbLine
 10
2.213999999999999
 20
4.794999999999999
 30
0.0
 11
2.213999999999999
 21
4.974
 31
0.0
  0
LINE
  5
E07
330
18
100
AcDbEntity
  8
Object
100
AcDbLine
 10
2.213999999999999
 20
4.974
 30
0.0
 11
2.588999999999999
 21
4.974
 31
0.0
  0
LINE
  5
E08
330
18
100
AcDbEntity
  8
Object
100
AcDbLine
 10
2.213999999999999
 20
4.974
 30
0.0
 11
2.213999999999999
 21
4.794999999999999
 31
0.0
  0
LINE
  5
E09
330
18
100
AcDbEntity
  8
Object
100
AcDbLine
 10
12.214
 20
4.794999999999999
 30
0.0
 11
12.214
 21
4.974
 31
0.0
  0
LINE
  5
E0A
330
18
100
AcDbEntity
  8
Object
100
AcDbLine
 10
2.948999999999999
 20
4.974
 30
0.0
 11
2.948999999999999
 21
4.794999999999999
 31
0.0
  0
LINE
  5
E0B
330
18
100
AcDbEntity
  8
Object
100
AcDbLine
 10
2.948999999999999
 20
4.794999999999999
 30
0.0
 11
2.588999999999999
 21
4.794999999999999
 31
0.0
  0
LINE
  5
E0C
330
18
100
AcDbEntity
  8
Object
100
AcDbLine
 10
2.948999999999999
 20
4.974
 30
0.0
 11
2.588999999999999
 21
4.974
 31
0.0
  0
LINE
  5
E0D
330
18
100
AcDbEntity
  8
Object
100
AcDbLine
 10
3.479
 20
4.794999999999999
 30
0.0
 11
3.479
 21
4.974
 31
0.0
  0
LINE
  5
E0E
330
18
100
AcDbEntity
  8
Object
100
AcDbLine
 10
3.479
 20
4.974
 30
0.0
 11
11.839
 21
4.974
 31
0.0
  0
LINE
  5
E0F
330
18
100
AcDbEntity
  8
Object
100
AcDbLine
 10
11.839
 20
4.974
 30
0.0
 11
11.839
 21
4.794999999999999
 31
0.0
  0
LINE
  5
E10
330
18
100
AcDbEntity
  8
Object
100
AcDbLine
 10
11.839
 20
4.794999999999999
 30
0.0
 11
3.479
 21
4.794999999999999
 31
0.0
  0
LINE
  5
E11
330
18
100
AcDbEntity
  8
Object
100
AcDbLine
 10
12.214
 20
4.794999999999999
 30
0.0
 11
11.839
 21
4.794999999999999
 31
0.0
  0
LINE
  5
E12
330
18
100
AcDbEntity
  8
Object
100
AcDbLine
 10
11.839
 20
4.794999999999999
 30
0.0
 11
3.479
 21
4.794999999999999
 31
0.0
  0
LINE
  5
E13
330
18
100
AcDbEntity
  8
Object
100
AcDbLine
 10
3.479
 20
4.794999999999999
 30
0.0
 11
3.471
 21
4.794999999999999
 31
0.0
  0
LINE
  5
E14
330
18
100
AcDbEntity
  8
Object
100
AcDbLine
 10
3.471
 20
4.794999999999999
 30
0.0
 11
3.449
 21
4.794999999999999
 31
0.0
  0
LINE
  5
E15
330
18
100
AcDbEntity
  8
Object
100
AcDbLine
 10
3.449
 20
4.794999999999999
 30
0.0
 11
3.413
 21
4.794999999999999
 31
0.0
  0
LINE
  5
E16
330
18
100
AcDbEntity
  8
Object
100
AcDbLine
 10
3.413
 20
4.794999999999999
 30
0.0
 11
3.365
 21
4.794999999999999
 31
0.0
  0
LINE
  5
E17
330
18
100
AcDbEntity
  8
Object
100
AcDbLine
 10
3.365
 20
4.794999999999999
 30
0.0
 11
3.308
 21
4.794999999999999
 31
0.0
  0
LINE
  5
E18
330
18
100
AcDbEntity
  8
Object
100
AcDbLine
 10
3.308
 20
4.794999999999999
 30
0.0
 11
3.245999999999999
 21
4.794999999999999
 31
0.0
  0
LINE
  5
E19
330
18
100
AcDbEntity
  8
Object
100
AcDbLine
 10
3.245999999999999
 20
4.794999999999999
 30
0.0
 11
3.181999999999999
 21
4.794999999999999
 31
0.0
  0
LINE
  5
E1A
330
18
100
AcDbEntity
  8
Object
100
AcDbLine
 10
3.181999999999999
 20
4.794999999999999
 30
0.0
 11
3.12
 21
4.794999999999999
 31
0.0
  0
LINE
  5
E1B
330
18
100
AcDbEntity
  8
Object
100
AcDbLine
 10
3.12
 20
4.794999999999999
 30
0.0
 11
3.064
 21
4.794999999999999
 31
0.0
  0
LINE
  5
E1C
330
18
100
AcDbEntity
  8
Object
100
AcDbLine
 10
3.064
 20
4.794999999999999
 30
0.0
 11
3.016
 21
4.794999999999999
 31
0.0
  0
LINE
  5
E1D
330
18
100
AcDbEntity
  8
Object
100
AcDbLine
 10
3.016
 20
4.794999999999999
 30
0.0
 11
2.98
 21
4.794999999999999
 31
0.0
  0
LINE
  5
E1E
330
18
100
AcDbEntity
  8
Object
100
AcDbLine
 10
2.98
 20
4.794999999999999
 30
0.0
 11
2.956999999999999
 21
4.794999999999999
 31
0.0
  0
LINE
  5
E1F
330
18
100
AcDbEntity
  8
Object
100
AcDbLine
 10
2.956999999999999
 20
4.794999999999999
 30
0.0
 11
2.948999999999999
 21
4.794999999999999
 31
0.0
  0
LINE
  5
E20
330
18
100
AcDbEntity
  8
Object
100
AcDbLine
 10
2.948999999999999
 20
4.794999999999999
 30
0.0
 11
2.588999999999999
 21
4.794999999999999
 31
0.0
  0
LINE
  5
E21
330
18
100
AcDbEntity
  8
Object
100
AcDbLine
 10
2.588999999999999
 20
4.794999999999999
 30
0.0
 11
2.213999999999999
 21
4.794999999999999
 31
0.0
  0
LINE
  5
E22
330
18
100
AcDbEntity
  8
Object
100
AcDbLine
 10
4.724
 20
4.794999999999999
 30
0.0
 11
4.724
 21
4.733
 31
0.0
  0
LINE
  5
E23
330
18
100
AcDbEntity
  8
Object
100
AcDbLine
 10
4.724
 20
4.733
 30
0.0
 11
4.714999999999999
 21
4.733
 31
0.0
  0
LINE
  5
E24
330
18
100
AcDbEntity
  8
Object
100
AcDbLine
 10
4.714999999999999
 20
4.733
 30
0.0
 11
4.693999999999999
 21
4.733
 31
0.0
  0
LINE
  5
E25
330
18
100
AcDbEntity
  8
Object
100
AcDbLine
 10
4.693999999999999
 20
4.733
 30
0.0
 11
4.66
 21
4.733
 31
0.0
  0
LINE
  5
E26
330
18
100
AcDbEntity
  8
Object
100
AcDbLine
 10
4.66
 20
4.733
 30
0.0
 11
4.615
 21
4.733
 31
0.0
  0
LINE
  5
E27
330
18
100
AcDbEntity
  8
Object
100
AcDbLine
 10
4.615
 20
4.733
 30
0.0
 11
4.562999999999999
 21
4.733
 31
0.0
  0
LINE
  5
E28
330
18
100
AcDbEntity
  8
Object
100
AcDbLine
 10
4.562999999999999
 20
4.733
 30
0.0
 11
4.506
 21
4.733
 31
0.0
  0
LINE
  5
E29
330
18
100
AcDbEntity
  8
Object
100
AcDbLine
 10
4.506
 20
4.733
 30
0.0
 11
4.447
 21
4.733
 31
0.0
  0
LINE
  5
E2A
330
18
100
AcDbEntity
  8
Object
100
AcDbLine
 10
4.447
 20
4.733
 30
0.0
 11
4.391
 21
4.733
 31
0.0
  0
LINE
  5
E2B
330
18
100
AcDbEntity
  8
Object
100
AcDbLine
 10
4.391
 20
4.733
 30
0.0
 11
4.339
 21
4.733
 31
0.0
  0
LINE
  5
E2C
330
18
100
AcDbEntity
  8
Object
100
AcDbLine
 10
4.339
 20
4.733
 30
0.0
 11
4.294999999999999
 21
4.733
 31
0.0
  0
LINE
  5
E2D
330
18
100
AcDbEntity
  8
Object
100
AcDbLine
 10
4.294999999999999
 20
4.733
 30
0.0
 11
4.262
 21
4.733
 31
0.0
  0
LINE
  5
E2E
330
18
100
AcDbEntity
  8
Object
100
AcDbLine
 10
4.262
 20
4.733
 30
0.0
 11
4.241999999999999
 21
4.733
 31
0.0
  0
LINE
  5
E2F
330
18
100
AcDbEntity
  8
Object
100
AcDbLine
 10
4.241999999999999
 20
4.733
 30
0.0
 11
4.235
 21
4.733
 31
0.0
  0
LINE
  5
E30
330
18
100
AcDbEntity
  8
Object
100
AcDbLine
 10
4.724
 20
4.733
 30
0.0
 11
4.714999999999999
 21
4.733
 31
0.0
  0
LINE
  5
E31
330
18
100
AcDbEntity
  8
Object
100
AcDbLine
 10
4.714999999999999
 20
4.733
 30
0.0
 11
4.693999999999999
 21
4.733
 31
0.0
  0
LINE
  5
E32
330
18
100
AcDbEntity
  8
Object
100
AcDbLine
 10
4.693999999999999
 20
4.733
 30
0.0
 11
4.66
 21
4.733
 31
0.0
  0
LINE
  5
E33
330
18
100
AcDbEntity
  8
Object
100
AcDbLine
 10
4.66
 20
4.733
 30
0.0
 11
4.615
 21
4.733
 31
0.0
  0
LINE
  5
E34
330
18
100
AcDbEntity
  8
Object
100
AcDbLine
 10
4.615
 20
4.733
 30
0.0
 11
4.562999999999999
 21
4.733
 31
0.0
  0
LINE
  5
E35
330
18
100
AcDbEntity
  8
Object
100
AcDbLine
 10
4.562999999999999
 20
4.733
 30
0.0
 11
4.506
 21
4.733
 31
0.0
  0
LINE
  5
E36
330
18
100
AcDbEntity
  8
Object
100
AcDbLine
 10
4.506
 20
4.733
 30
0.0
 11
4.447
 21
4.733
 31
0.0
  0
LINE
  5
E37
330
18
100
AcDbEntity
  8
Object
100
AcDbLine
 10
4.447
 20
4.733
 30
0.0
 11
4.391
 21
4.733
 31
0.0
  0
LINE
  5
E38
330
18
100
AcDbEntity
  8
Object
100
AcDbLine
 10
4.391
 20
4.733
 30
0.0
 11
4.339
 21
4.733
 31
0.0
  0
LINE
  5
E39
330
18
100
AcDbEntity
  8
Object
100
AcDbLine
 10
4.339
 20
4.733
 30
0.0
 11
4.294999999999999
 21
4.733
 31
0.0
  0
LINE
  5
E3A
330
18
100
AcDbEntity
  8
Object
100
AcDbLine
 10
4.294999999999999
 20
4.733
 30
0.0
 11
4.262
 21
4.733
 31
0.0
  0
LINE
  5
E3B
330
18
100
AcDbEntity
  8
Object
100
AcDbLine
 10
4.262
 20
4.733
 30
0.0
 11
4.241999999999999
 21
4.733
 31
0.0
  0
LINE
  5
E3C
330
18
100
AcDbEntity
  8
Object
100
AcDbLine
 10
4.241999999999999
 20
4.733
 30
0.0
 11
4.235
 21
4.733
 31
0.0
  0
LINE
  5
E3D
330
18
100
AcDbEntity
  8
Object
100
AcDbLine
 10
4.235
 20
4.733
 30
0.0
 11
4.235
 21
4.794999999999999
 31
0.0
  0
LINE
  5
E3E
330
18
100
AcDbEntity
  8
Object
100
AcDbLine
 10
11.819
 20
4.794999999999999
 30
0.0
 11
11.819
 21
4.733
 31
0.0
  0
LINE
  5
E3F
330
18
100
AcDbEntity
  8
Object
100
AcDbLine
 10
11.819
 20
4.733
 30
0.0
 11
11.811
 21
4.733
 31
0.0
  0
LINE
  5
E40
330
18
100
AcDbEntity
  8
Object
100
AcDbLine
 10
11.811
 20
4.733
 30
0.0
 11
11.789
 21
4.733
 31
0.0
  0
LINE
  5
E41
330
18
100
AcDbEntity
  8
Object
100
AcDbLine
 10
11.789
 20
4.733
 30
0.0
 11
11.755
 21
4.733
 31
0.0
  0
LINE
  5
E42
330
18
100
AcDbEntity
  8
Object
100
AcDbLine
 10
11.755
 20
4.733
 30
0.0
 11
11.71
 21
4.733
 31
0.0
  0
LINE
  5
E43
330
18
100
AcDbEntity
  8
Object
100
AcDbLine
 10
11.71
 20
4.733
 30
0.0
 11
11.658
 21
4.733
 31
0.0
  0
LINE
  5
E44
330
18
100
AcDbEntity
  8
Object
100
AcDbLine
 10
11.658
 20
4.733
 30
0.0
 11
11.601
 21
4.733
 31
0.0
  0
LINE
  5
E45
330
18
100
AcDbEntity
  8
Object
100
AcDbLine
 10
11.601
 20
4.733
 30
0.0
 11
11.543
 21
4.733
 31
0.0
  0
LINE
  5
E46
330
18
100
AcDbEntity
  8
Object
100
AcDbLine
 10
11.543
 20
4.733
 30
0.0
 11
11.486
 21
4.733
 31
0.0
  0
LINE
  5
E47
330
18
100
AcDbEntity
  8
Object
100
AcDbLine
 10
11.486
 20
4.733
 30
0.0
 11
11.434
 21
4.733
 31
0.0
  0
LINE
  5
E48
330
18
100
AcDbEntity
  8
Object
100
AcDbLine
 10
11.434
 20
4.733
 30
0.0
 11
11.391
 21
4.733
 31
0.0
  0
LINE
  5
E49
330
18
100
AcDbEntity
  8
Object
100
AcDbLine
 10
11.391
 20
4.733
 30
0.0
 11
11.358
 21
4.733
 31
0.0
  0
LINE
  5
E4A
330
18
100
AcDbEntity
  8
Object
100
AcDbLine
 10
11.358
 20
4.733
 30
0.0
 11
11.337
 21
4.733
 31
0.0
  0
LINE
  5
E4B
330
18
100
AcDbEntity
  8
Object
100
AcDbLine
 10
11.337
 20
4.733
 30
0.0
 11
11.33
 21
4.733
 31
0.0
  0
LINE
  5
E4C
330
18
100
AcDbEntity
  8
Object
100
AcDbLine
 10
11.819
 20
4.733
 30
0.0
 11
11.811
 21
4.733
 31
0.0
  0
LINE
  5
E4D
330
18
100
AcDbEntity
  8
Object
100
AcDbLine
 10
11.811
 20
4.733
 30
0.0
 11
11.789
 21
4.733
 31
0.0
  0
LINE
  5
E4E
330
18
100
AcDbEntity
  8
Object
100
AcDbLine
 10
11.789
 20
4.733
 30
0.0
 11
11.755
 21
4.733
 31
0.0
  0
LINE
  5
E4F
330
18
100
AcDbEntity
  8
Object
100
AcDbLine
 10
11.755
 20
4.733
 30
0.0
 11
11.71
 21
4.733
 31
0.0
  0
LINE
  5
E50
330
18
100
AcDbEntity
  8
Object
100
AcDbLine
 10
11.71
 20
4.733
 30
0.0
 11
11.658
 21
4.733
 31
0.0
  0
LINE
  5
E51
330
18
100
AcDbEntity
  8
Object
100
AcDbLine
 10
11.658
 20
4.733
 30
0.0
 11
11.601
 21
4.733
 31
0.0
  0
LINE
  5
E52
330
18
100
AcDbEntity
  8
Object
100
AcDbLine
 10
11.601
 20
4.733
 30
0.0
 11
11.543
 21
4.733
 31
0.0
  0
LINE
  5
E53
330
18
100
AcDbEntity
  8
Object
100
AcDbLine
 10
11.543
 20
4.733
 30
0.0
 11
11.486
 21
4.733
 31
0.0
  0
LINE
  5
E54
330
18
100
AcDbEntity
  8
Object
100
AcDbLine
 10
11.486
 20
4.733
 30
0.0
 11
11.434
 21
4.733
 31
0.0
  0
LINE
  5
E55
330
18
100
AcDbEntity
  8
Object
100
AcDbLine
 10
11.434
 20
4.733
 30
0.0
 11
11.391
 21
4.733
 31
0.0
  0
LINE
  5
E56
330
18
100
AcDbEntity
  8
Object
100
AcDbLine
 10
11.391
 20
4.733
 30
0.0
 11
11.358
 21
4.733
 31
0.0
  0
LINE
  5
E57
330
18
100
AcDbEntity
  8
Object
100
AcDbLine
 10
11.358
 20
4.733
 30
0.0
 11
11.337
 21
4.733
 31
0.0
  0
LINE
  5
E58
330
18
100
AcDbEntity
  8
Object
100
AcDbLine
 10
11.337
 20
4.733
 30
0.0
 11
11.33
 21
4.733
 31
0.0
  0
LINE
  5
E59
330
18
100
AcDbEntity
  8
Object
100
AcDbLine
 10
11.33
 20
4.733
 30
0.0
 11
11.33
 21
4.794999999999999
 31
0.0
  0
LINE
  5
E5A
330
18
100
AcDbEntity
  8
Object
100
AcDbLine
 10
4.913999999999999
 20
5.073999999999999
 30
0.0
 11
4.907
 21
5.070999999999999
 31
0.0
  0
LINE
  5
E5B
330
18
100
AcDbEntity
  8
Object
100
AcDbLine
 10
4.907
 20
5.070999999999999
 30
0.0
 11
4.902
 21
5.065999999999999
 31
0.0
  0
LINE
  5
E5C
330
18
100
AcDbEntity
  8
Object
100
AcDbLine
 10
4.902
 20
5.065999999999999
 30
0.0
 11
4.9
 21
5.059
 31
0.0
  0
LINE
  5
E5D
330
18
100
AcDbEntity
  8
Object
100
AcDbLine
 10
4.905999999999999
 20
5.147999999999999
 30
0.0
 11
5.07
 21
5.166
 31
0.0
  0
LINE
  5
E5E
330
18
100
AcDbEntity
  8
Object
100
AcDbLine
 10
5.07
 20
5.166
 30
0.0
 11
5.078
 21
5.091
 31
0.0
  0
LINE
  5
E5F
330
18
100
AcDbEntity
  8
Object
100
AcDbLine
 10
5.078
 20
5.091
 30
0.0
 11
4.913999999999999
 21
5.073999999999999
 31
0.0
  0
LINE
  5
E60
330
18
100
AcDbEntity
  8
Object
100
AcDbLine
 10
4.913999999999999
 20
5.073999999999999
 30
0.0
 11
4.907
 21
5.070999999999999
 31
0.0
  0
LINE
  5
E61
330
18
100
AcDbEntity
  8
Object
100
AcDbLine
 10
4.905999999999999
 20
5.147999999999999
 30
0.0
 11
4.875
 21
5.139
 31
0.0
  0
LINE
  5
E62
330
18
100
AcDbEntity
  8
Object
100
AcDbLine
 10
4.875
 20
5.139
 30
0.0
 11
4.85
 21
5.121
 31
0.0
  0
LINE
  5
E63
330
18
100
AcDbEntity
  8
Object
100
AcDbLine
 10
4.907
 20
5.070999999999999
 30
0.0
 11
4.902
 21
5.065999999999999
 31
0.0
  0
LINE
  5
E64
330
18
100
AcDbEntity
  8
Object
100
AcDbLine
 10
4.902
 20
5.065999999999999
 30
0.0
 11
4.9
 21
5.059
 31
0.0
  0
LINE
  5
E65
330
18
100
AcDbEntity
  8
Object
100
AcDbLine
 10
4.85
 20
5.121
 30
0.0
 11
4.831999999999999
 21
5.094
 31
0.0
  0
LINE
  5
E66
330
18
100
AcDbEntity
  8
Object
100
AcDbLine
 10
4.831999999999999
 20
5.094
 30
0.0
 11
4.825
 21
5.062999999999999
 31
0.0
  0
LINE
  5
E67
330
18
100
AcDbEntity
  8
Object
100
AcDbLine
 10
4.892
 20
5.025999999999999
 30
0.0
 11
4.9
 21
5.059
 31
0.0
  0
LINE
  5
E68
330
18
100
AcDbEntity
  8
Object
100
AcDbLine
 10
4.825
 20
5.062999999999999
 30
0.0
 11
4.823
 21
5.056
 31
0.0
  0
LINE
  5
E69
330
18
100
AcDbEntity
  8
Object
100
AcDbLine
 10
4.871999999999999
 20
4.998999999999999
 30
0.0
 11
4.892
 21
5.025999999999999
 31
0.0
  0
LINE
  5
E6A
330
18
100
AcDbEntity
  8
Object
100
AcDbLine
 10
4.823
 20
5.056
 30
0.0
 11
4.818
 21
5.051
 31
0.0
  0
LINE
  5
E6B
330
18
100
AcDbEntity
  8
Object
100
AcDbLine
 10
4.871999999999999
 20
4.998999999999999
 30
0.0
 11
4.844
 21
4.98
 31
0.0
  0
LINE
  5
E6C
330
18
100
AcDbEntity
  8
Object
100
AcDbLine
 10
4.844
 20
4.98
 30
0.0
 11
4.81
 21
4.974
 31
0.0
  0
LINE
  5
E6D
330
18
100
AcDbEntity
  8
Object
100
AcDbLine
 10
4.818
 20
5.051
 30
0.0
 11
4.81
 21
5.049
 31
0.0
  0
LINE
  5
E6E
330
18
100
AcDbEntity
  8
Object
100
AcDbLine
 10
4.81
 20
5.049
 30
0.0
 11
4.302999999999999
 21
5.049
 31
0.0
  0
LINE
  5
E6F
330
18
100
AcDbEntity
  8
Object
100
AcDbLine
 10
4.9
 20
5.059
 30
0.0
 11
4.892
 21
5.025999999999999
 31
0.0
  0
LINE
  5
E70
330
18
100
AcDbEntity
  8
Object
100
AcDbLine
 10
4.892
 20
5.025999999999999
 30
0.0
 11
4.871999999999999
 21
4.998999999999999
 31
0.0
  0
LINE
  5
E71
330
18
100
AcDbEntity
  8
Object
100
AcDbLine
 10
4.871999999999999
 20
4.998999999999999
 30
0.0
 11
4.844
 21
4.98
 31
0.0
  0
LINE
  5
E72
330
18
100
AcDbEntity
  8
Object
100
AcDbLine
 10
4.844
 20
4.98
 30
0.0
 11
4.81
 21
4.974
 31
0.0
  0
LINE
  5
E73
330
18
100
AcDbEntity
  8
Object
100
AcDbLine
 10
5.118
 20
5.094999999999999
 30
0.0
 11
5.112
 21
5.094999999999999
 31
0.0
  0
LINE
  5
E74
330
18
100
AcDbEntity
  8
Object
100
AcDbLine
 10
5.112
 20
5.094999999999999
 30
0.0
 11
5.097999999999999
 21
5.092999999999999
 31
0.0
  0
LINE
  5
E75
330
18
100
AcDbEntity
  8
Object
100
AcDbLine
 10
5.097999999999999
 20
5.092999999999999
 30
0.0
 11
5.078
 21
5.091
 31
0.0
  0
LINE
  5
E76
330
18
100
AcDbEntity
  8
Object
100
AcDbLine
 10
5.078
 20
5.091
 30
0.0
 11
4.913999999999999
 21
5.073999999999999
 31
0.0
  0
LINE
  5
E77
330
18
100
AcDbEntity
  8
Object
100
AcDbLine
 10
4.81
 20
5.049
 30
0.0
 11
4.302999999999999
 21
5.049
 31
0.0
  0
LINE
  5
E78
330
18
100
AcDbEntity
  8
Object
100
AcDbLine
 10
4.302999999999999
 20
5.049
 30
0.0
 11
4.264999999999999
 21
5.049
 31
0.0
  0
LINE
  5
E79
330
18
100
AcDbEntity
  8
Object
100
AcDbLine
 10
4.264999999999999
 20
5.049
 30
0.0
 11
4.23
 21
5.049
 31
0.0
  0
LINE
  5
E7A
330
18
100
AcDbEntity
  8
Object
100
AcDbLine
 10
4.23
 20
5.049
 30
0.0
 11
4.201999999999999
 21
5.049
 31
0.0
  0
LINE
  5
E7B
330
18
100
AcDbEntity
  8
Object
100
AcDbLine
 10
4.201999999999999
 20
5.049
 30
0.0
 11
4.184
 21
5.049
 31
0.0
  0
LINE
  5
E7C
330
18
100
AcDbEntity
  8
Object
100
AcDbLine
 10
4.184
 20
5.049
 30
0.0
 11
4.177999999999999
 21
5.049
 31
0.0
  0
LINE
  5
E7D
330
18
100
AcDbEntity
  8
Object
100
AcDbLine
 10
4.905999999999999
 20
5.147999999999999
 30
0.0
 11
4.875
 21
5.139
 31
0.0
  0
LINE
  5
E7E
330
18
100
AcDbEntity
  8
Object
100
AcDbLine
 10
4.875
 20
5.139
 30
0.0
 11
4.85
 21
5.121
 31
0.0
  0
LINE
  5
E7F
330
18
100
AcDbEntity
  8
Object
100
AcDbLine
 10
4.85
 20
5.121
 30
0.0
 11
4.831999999999999
 21
5.094
 31
0.0
  0
LINE
  5
E80
330
18
100
AcDbEntity
  8
Object
100
AcDbLine
 10
4.831999999999999
 20
5.094
 30
0.0
 11
4.825
 21
5.062999999999999
 31
0.0
  0
LINE
  5
E81
330
18
100
AcDbEntity
  8
Object
100
AcDbLine
 10
4.825
 20
5.062999999999999
 30
0.0
 11
4.823
 21
5.056
 31
0.0
  0
LINE
  5
E82
330
18
100
AcDbEntity
  8
Object
100
AcDbLine
 10
4.823
 20
5.056
 30
0.0
 11
4.818
 21
5.051
 31
0.0
  0
LINE
  5
E83
330
18
100
AcDbEntity
  8
Object
100
AcDbLine
 10
4.818
 20
5.051
 30
0.0
 11
4.81
 21
5.049
 31
0.0
  0
LINE
  5
E84
330
18
100
AcDbEntity
  8
Object
100
AcDbLine
 10
5.11
 20
5.169999999999999
 30
0.0
 11
5.104
 21
5.169
 31
0.0
  0
LINE
  5
E85
330
18
100
AcDbEntity
  8
Object
100
AcDbLine
 10
5.104
 20
5.169
 30
0.0
 11
5.089999999999999
 21
5.168
 31
0.0
  0
LINE
  5
E86
330
18
100
AcDbEntity
  8
Object
100
AcDbLine
 10
5.089999999999999
 20
5.168
 30
0.0
 11
5.07
 21
5.166
 31
0.0
  0
LINE
  5
E87
330
18
100
AcDbEntity
  8
Object
100
AcDbLine
 10
5.07
 20
5.166
 30
0.0
 11
4.905999999999999
 21
5.147999999999999
 31
0.0
  0
LINE
  5
E88
330
18
100
AcDbEntity
  8
Object
100
AcDbLine
 10
4.264999999999999
 20
5.049
 30
0.0
 11
4.302999999999999
 21
5.049
 31
0.0
  0
LINE
  5
E89
330
18
100
AcDbEntity
  8
Object
100
AcDbLine
 10
4.302999999999999
 20
5.049
 30
0.0
 11
4.302999999999999
 21
4.974
 31
0.0
  0
LINE
  5
E8A
330
18
100
AcDbEntity
  8
Object
100
AcDbLine
 10
4.264999999999999
 20
5.049
 30
0.0
 11
4.23
 21
5.049
 31
0.0
  0
LINE
  5
E8B
330
18
100
AcDbEntity
  8
Object
100
AcDbLine
 10
4.23
 20
5.049
 30
0.0
 11
4.201999999999999
 21
5.049
 31
0.0
  0
LINE
  5
E8C
330
18
100
AcDbEntity
  8
Object
100
AcDbLine
 10
4.201999999999999
 20
5.049
 30
0.0
 11
4.184
 21
5.049
 31
0.0
  0
LINE
  5
E8D
330
18
100
AcDbEntity
  8
Object
100
AcDbLine
 10
4.184
 20
5.049
 30
0.0
 11
4.177999999999999
 21
5.049
 31
0.0
  0
LINE
  5
E8E
330
18
100
AcDbEntity
  8
Object
100
AcDbLine
 10
4.177999999999999
 20
5.049
 30
0.0
 11
4.177999999999999
 21
4.974
 31
0.0
  0
LINE
  5
E8F
330
18
100
AcDbEntity
  8
Object
100
AcDbLine
 10
5.112
 20
5.094999999999999
 30
0.0
 11
5.118
 21
5.094999999999999
 31
0.0
  0
LINE
  5
E90
330
18
100
AcDbEntity
  8
Object
100
AcDbLine
 10
5.104
 20
5.169
 30
0.0
 11
5.11
 21
5.169999999999999
 31
0.0
  0
LINE
  5
E91
330
18
100
AcDbEntity
  8
Object
100
AcDbLine
 10
5.11
 20
5.169999999999999
 30
0.0
 11
5.118
 21
5.094999999999999
 31
0.0
  0
LINE
  5
E92
330
18
100
AcDbEntity
  8
Object
100
AcDbLine
 10
5.104
 20
5.169
 30
0.0
 11
5.089999999999999
 21
5.168
 31
0.0
  0
LINE
  5
E93
330
18
100
AcDbEntity
  8
Object
100
AcDbLine
 10
5.112
 20
5.094999999999999
 30
0.0
 11
5.097999999999999
 21
5.092999999999999
 31
0.0
  0
LINE
  5
E94
330
18
100
AcDbEntity
  8
Object
100
AcDbLine
 10
5.097999999999999
 20
5.092999999999999
 30
0.0
 11
5.078
 21
5.091
 31
0.0
  0
LINE
  5
E95
330
18
100
AcDbEntity
  8
Object
100
AcDbLine
 10
5.089999999999999
 20
5.168
 30
0.0
 11
5.07
 21
5.166
 31
0.0
  0
LINE
  5
E96
330
18
100
AcDbEntity
  8
Object
100
AcDbLine
 10
5.118
 20
5.094999999999999
 30
0.0
 11
5.11
 21
5.169999999999999
 31
0.0
  0
LINE
  5
E97
330
18
100
AcDbEntity
  8
Object
100
AcDbLine
 10
4.177999999999999
 20
5.049
 30
0.0
 11
4.177999999999999
 21
4.974
 31
0.0
  0
LINE
  5
E98
330
18
100
AcDbEntity
  8
Object
100
AcDbLine
 10
5.131
 20
4.735
 30
0.0
 11
5.128
 21
4.738
 31
0.0
  0
LINE
  5
E99
330
18
100
AcDbEntity
  8
Object
100
AcDbLine
 10
5.128
 20
4.738
 30
0.0
 11
5.12
 21
4.746
 31
0.0
  0
LINE
  5
E9A
330
18
100
AcDbEntity
  8
Object
100
AcDbLine
 10
5.12
 20
4.746
 30
0.0
 11
5.11
 21
4.756
 31
0.0
  0
LINE
  5
E9B
330
18
100
AcDbEntity
  8
Object
100
AcDbLine
 10
4.892
 20
4.974
 30
0.0
 11
4.868999999999999
 21
4.996999999999999
 31
0.0
  0
LINE
  5
E9C
330
18
100
AcDbEntity
  8
Object
100
AcDbLine
 10
5.11
 20
4.756
 30
0.0
 11
5.070999999999999
 21
4.794999999999999
 31
0.0
  0
LINE
  5
E9D
330
18
100
AcDbEntity
  8
Object
100
AcDbLine
 10
5.078
 20
4.682
 30
0.0
 11
5.075
 21
4.685
 31
0.0
  0
LINE
  5
E9E
330
18
100
AcDbEntity
  8
Object
100
AcDbLine
 10
5.075
 20
4.685
 30
0.0
 11
5.067
 21
4.693
 31
0.0
  0
LINE
  5
E9F
330
18
100
AcDbEntity
  8
Object
100
AcDbLine
 10
5.067
 20
4.693
 30
0.0
 11
5.057
 21
4.703
 31
0.0
  0
LINE
  5
EA0
330
18
100
AcDbEntity
  8
Object
100
AcDbLine
 10
5.057
 20
4.703
 30
0.0
 11
4.964999999999999
 21
4.794999999999999
 31
0.0
  0
LINE
  5
EA1
330
18
100
AcDbEntity
  8
Object
100
AcDbLine
 10
4.892
 20
4.974
 30
0.0
 11
4.868999999999999
 21
4.996999999999999
 31
0.0
  0
LINE
  5
EA2
330
18
100
AcDbEntity
  8
Object
100
AcDbLine
 10
5.070999999999999
 20
4.794999999999999
 30
0.0
 11
5.11
 21
4.756
 31
0.0
  0
LINE
  5
EA3
330
18
100
AcDbEntity
  8
Object
100
AcDbLine
 10
5.11
 20
4.756
 30
0.0
 11
5.057
 21
4.703
 31
0.0
  0
LINE
  5
EA4
330
18
100
AcDbEntity
  8
Object
100
AcDbLine
 10
5.057
 20
4.703
 30
0.0
 11
4.964999999999999
 21
4.794999999999999
 31
0.0
  0
LINE
  5
EA5
330
18
100
AcDbEntity
  8
Object
100
AcDbLine
 10
5.128
 20
4.738
 30
0.0
 11
5.131
 21
4.735
 31
0.0
  0
LINE
  5
EA6
330
18
100
AcDbEntity
  8
Object
100
AcDbLine
 10
5.131
 20
4.735
 30
0.0
 11
5.078
 21
4.682
 31
0.0
  0
LINE
  5
EA7
330
18
100
AcDbEntity
  8
Object
100
AcDbLine
 10
5.078
 20
4.682
 30
0.0
 11
5.075
 21
4.685
 31
0.0
  0
LINE
  5
EA8
330
18
100
AcDbEntity
  8
Object
100
AcDbLine
 10
5.128
 20
4.738
 30
0.0
 11
5.12
 21
4.746
 31
0.0
  0
LINE
  5
EA9
330
18
100
AcDbEntity
  8
Object
100
AcDbLine
 10
5.075
 20
4.685
 30
0.0
 11
5.067
 21
4.693
 31
0.0
  0
LINE
  5
EAA
330
18
100
AcDbEntity
  8
Object
100
AcDbLine
 10
5.067
 20
4.693
 30
0.0
 11
5.057
 21
4.703
 31
0.0
  0
LINE
  5
EAB
330
18
100
AcDbEntity
  8
Object
100
AcDbLine
 10
5.12
 20
4.746
 30
0.0
 11
5.11
 21
4.756
 31
0.0
  0
LINE
  5
EAC
330
18
100
AcDbEntity
  8
Object
100
AcDbLine
 10
5.078
 20
4.682
 30
0.0
 11
5.131
 21
4.735
 31
0.0
  0
LINE
  5
EAD
330
18
100
AcDbEntity
  8
Object
100
AcDbLine
 10
11.875
 20
5.049
 30
0.0
 11
11.869
 21
5.049
 31
0.0
  0
LINE
  5
EAE
330
18
100
AcDbEntity
  8
Object
100
AcDbLine
 10
11.869
 20
5.049
 30
0.0
 11
11.852
 21
5.049
 31
0.0
  0
LINE
  5
EAF
330
18
100
AcDbEntity
  8
Object
100
AcDbLine
 10
11.852
 20
5.049
 30
0.0
 11
11.824
 21
5.049
 31
0.0
  0
LINE
  5
EB0
330
18
100
AcDbEntity
  8
Object
100
AcDbLine
 10
11.824
 20
5.049
 30
0.0
 11
11.789
 21
5.049
 31
0.0
  0
LINE
  5
EB1
330
18
100
AcDbEntity
  8
Object
100
AcDbLine
 10
11.789
 20
5.049
 30
0.0
 11
11.75
 21
5.049
 31
0.0
  0
LINE
  5
EB2
330
18
100
AcDbEntity
  8
Object
100
AcDbLine
 10
11.75
 20
5.049
 30
0.0
 11
11.243
 21
5.049
 31
0.0
  0
LINE
  5
EB3
330
18
100
AcDbEntity
  8
Object
100
AcDbLine
 10
11.875
 20
4.974
 30
0.0
 11
11.875
 21
5.049
 31
0.0
  0
LINE
  5
EB4
330
18
100
AcDbEntity
  8
Object
100
AcDbLine
 10
11.875
 20
5.049
 30
0.0
 11
11.869
 21
5.049
 31
0.0
  0
LINE
  5
EB5
330
18
100
AcDbEntity
  8
Object
100
AcDbLine
 10
11.875
 20
4.974
 30
0.0
 11
11.875
 21
5.049
 31
0.0
  0
LINE
  5
EB6
330
18
100
AcDbEntity
  8
Object
100
AcDbLine
 10
11.869
 20
5.049
 30
0.0
 11
11.852
 21
5.049
 31
0.0
  0
LINE
  5
EB7
330
18
100
AcDbEntity
  8
Object
100
AcDbLine
 10
11.852
 20
5.049
 30
0.0
 11
11.824
 21
5.049
 31
0.0
  0
LINE
  5
EB8
330
18
100
AcDbEntity
  8
Object
100
AcDbLine
 10
11.824
 20
5.049
 30
0.0
 11
11.789
 21
5.049
 31
0.0
  0
LINE
  5
EB9
330
18
100
AcDbEntity
  8
Object
100
AcDbLine
 10
11.789
 20
5.049
 30
0.0
 11
11.75
 21
5.049
 31
0.0
  0
LINE
  5
EBA
330
18
100
AcDbEntity
  8
Object
100
AcDbLine
 10
11.243
 20
5.049
 30
0.0
 11
11.236
 21
5.051
 31
0.0
  0
LINE
  5
EBB
330
18
100
AcDbEntity
  8
Object
100
AcDbLine
 10
11.236
 20
5.051
 30
0.0
 11
11.231
 21
5.056
 31
0.0
  0
LINE
  5
EBC
330
18
100
AcDbEntity
  8
Object
100
AcDbLine
 10
11.231
 20
5.056
 30
0.0
 11
11.228
 21
5.062999999999999
 31
0.0
  0
LINE
  5
EBD
330
18
100
AcDbEntity
  8
Object
100
AcDbLine
 10
11.243
 20
5.049
 30
0.0
 11
11.75
 21
5.049
 31
0.0
  0
LINE
  5
EBE
330
18
100
AcDbEntity
  8
Object
100
AcDbLine
 10
11.75
 20
5.049
 30
0.0
 11
11.75
 21
4.974
 31
0.0
  0
LINE
  5
EBF
330
18
100
AcDbEntity
  8
Object
100
AcDbLine
 10
11.21
 20
4.98
 30
0.0
 11
11.243
 21
4.974
 31
0.0
  0
LINE
  5
EC0
330
18
100
AcDbEntity
  8
Object
100
AcDbLine
 10
11.243
 20
5.049
 30
0.0
 11
11.236
 21
5.051
 31
0.0
  0
LINE
  5
EC1
330
18
100
AcDbEntity
  8
Object
100
AcDbLine
 10
11.236
 20
5.051
 30
0.0
 11
11.231
 21
5.056
 31
0.0
  0
LINE
  5
EC2
330
18
100
AcDbEntity
  8
Object
100
AcDbLine
 10
11.181
 20
4.998999999999999
 30
0.0
 11
11.21
 21
4.98
 31
0.0
  0
LINE
  5
EC3
330
18
100
AcDbEntity
  8
Object
100
AcDbLine
 10
11.231
 20
5.056
 30
0.0
 11
11.228
 21
5.062999999999999
 31
0.0
  0
LINE
  5
EC4
330
18
100
AcDbEntity
  8
Object
100
AcDbLine
 10
11.162
 20
5.025999999999999
 30
0.0
 11
11.181
 21
4.998999999999999
 31
0.0
  0
LINE
  5
EC5
330
18
100
AcDbEntity
  8
Object
100
AcDbLine
 10
11.228
 20
5.062999999999999
 30
0.0
 11
11.221
 21
5.094
 31
0.0
  0
LINE
  5
EC6
330
18
100
AcDbEntity
  8
Object
100
AcDbLine
 10
11.162
 20
5.025999999999999
 30
0.0
 11
11.154
 21
5.059
 31
0.0
  0
LINE
  5
EC7
330
18
100
AcDbEntity
  8
Object
100
AcDbLine
 10
11.154
 20
5.059
 30
0.0
 11
11.152
 21
5.065999999999999
 31
0.0
  0
LINE
  5
EC8
330
18
100
AcDbEntity
  8
Object
100
AcDbLine
 10
11.221
 20
5.094
 30
0.0
 11
11.204
 21
5.121
 31
0.0
  0
LINE
  5
EC9
330
18
100
AcDbEntity
  8
Object
100
AcDbLine
 10
11.204
 20
5.121
 30
0.0
 11
11.178
 21
5.139
 31
0.0
  0
LINE
  5
ECA
330
18
100
AcDbEntity
  8
Object
100
AcDbLine
 10
11.152
 20
5.065999999999999
 30
0.0
 11
11.147
 21
5.070999999999999
 31
0.0
  0
LINE
  5
ECB
330
18
100
AcDbEntity
  8
Object
100
AcDbLine
 10
11.147
 20
5.070999999999999
 30
0.0
 11
11.14
 21
5.073999999999999
 31
0.0
  0
LINE
  5
ECC
330
18
100
AcDbEntity
  8
Object
100
AcDbLine
 10
11.178
 20
5.139
 30
0.0
 11
11.148
 21
5.147999999999999
 31
0.0
  0
LINE
  5
ECD
330
18
100
AcDbEntity
  8
Object
100
AcDbLine
 10
10.976
 20
5.091
 30
0.0
 11
11.14
 21
5.073999999999999
 31
0.0
  0
LINE
  5
ECE
330
18
100
AcDbEntity
  8
Object
100
AcDbLine
 10
11.148
 20
5.147999999999999
 30
0.0
 11
10.984
 21
5.166
 31
0.0
  0
LINE
  5
ECF
330
18
100
AcDbEntity
  8
Object
100
AcDbLine
 10
11.243
 20
4.974
 30
0.0
 11
11.21
 21
4.98
 31
0.0
  0
LINE
  5
ED0
330
18
100
AcDbEntity
  8
Object
100
AcDbLine
 10
11.21
 20
4.98
 30
0.0
 11
11.181
 21
4.998999999999999
 31
0.0
  0
LINE
  5
ED1
330
18
100
AcDbEntity
  8
Object
100
AcDbLine
 10
11.181
 20
4.998999999999999
 30
0.0
 11
11.162
 21
5.025999999999999
 31
0.0
  0
LINE
  5
ED2
330
18
100
AcDbEntity
  8
Object
100
AcDbLine
 10
11.162
 20
5.025999999999999
 30
0.0
 11
11.154
 21
5.059
 31
0.0
  0
LINE
  5
ED3
330
18
100
AcDbEntity
  8
Object
100
AcDbLine
 10
11.228
 20
5.062999999999999
 30
0.0
 11
11.221
 21
5.094
 31
0.0
  0
LINE
  5
ED4
330
18
100
AcDbEntity
  8
Object
100
AcDbLine
 10
11.221
 20
5.094
 30
0.0
 11
11.204
 21
5.121
 31
0.0
  0
LINE
  5
ED5
330
18
100
AcDbEntity
  8
Object
100
AcDbLine
 10
11.204
 20
5.121
 30
0.0
 11
11.178
 21
5.139
 31
0.0
  0
LINE
  5
ED6
330
18
100
AcDbEntity
  8
Object
100
AcDbLine
 10
11.178
 20
5.139
 30
0.0
 11
11.148
 21
5.147999999999999
 31
0.0
  0
LINE
  5
ED7
330
18
100
AcDbEntity
  8
Object
100
AcDbLine
 10
11.154
 20
5.059
 30
0.0
 11
11.152
 21
5.065999999999999
 31
0.0
  0
LINE
  5
ED8
330
18
100
AcDbEntity
  8
Object
100
AcDbLine
 10
11.152
 20
5.065999999999999
 30
0.0
 11
11.147
 21
5.070999999999999
 31
0.0
  0
LINE
  5
ED9
330
18
100
AcDbEntity
  8
Object
100
AcDbLine
 10
11.147
 20
5.070999999999999
 30
0.0
 11
11.14
 21
5.073999999999999
 31
0.0
  0
LINE
  5
EDA
330
18
100
AcDbEntity
  8
Object
100
AcDbLine
 10
11.148
 20
5.147999999999999
 30
0.0
 11
10.984
 21
5.166
 31
0.0
  0
LINE
  5
EDB
330
18
100
AcDbEntity
  8
Object
100
AcDbLine
 10
10.984
 20
5.166
 30
0.0
 11
10.964
 21
5.168
 31
0.0
  0
LINE
  5
EDC
330
18
100
AcDbEntity
  8
Object
100
AcDbLine
 10
10.964
 20
5.168
 30
0.0
 11
10.949
 21
5.169
 31
0.0
  0
LINE
  5
EDD
330
18
100
AcDbEntity
  8
Object
100
AcDbLine
 10
10.949
 20
5.169
 30
0.0
 11
10.944
 21
5.169999999999999
 31
0.0
  0
LINE
  5
EDE
330
18
100
AcDbEntity
  8
Object
100
AcDbLine
 10
10.964
 20
5.168
 30
0.0
 11
10.984
 21
5.166
 31
0.0
  0
LINE
  5
EDF
330
18
100
AcDbEntity
  8
Object
100
AcDbLine
 10
10.984
 20
5.166
 30
0.0
 11
10.976
 21
5.091
 31
0.0
  0
LINE
  5
EE0
330
18
100
AcDbEntity
  8
Object
100
AcDbLine
 10
10.976
 20
5.091
 30
0.0
 11
10.956
 21
5.092999999999999
 31
0.0
  0
LINE
  5
EE1
330
18
100
AcDbEntity
  8
Object
100
AcDbLine
 10
10.964
 20
5.168
 30
0.0
 11
10.949
 21
5.169
 31
0.0
  0
LINE
  5
EE2
330
18
100
AcDbEntity
  8
Object
100
AcDbLine
 10
10.941
 20
5.094999999999999
 30
0.0
 11
10.956
 21
5.092999999999999
 31
0.0
  0
LINE
  5
EE3
330
18
100
AcDbEntity
  8
Object
100
AcDbLine
 10
10.949
 20
5.169
 30
0.0
 11
10.944
 21
5.169999999999999
 31
0.0
  0
LINE
  5
EE4
330
18
100
AcDbEntity
  8
Object
100
AcDbLine
 10
10.941
 20
5.094999999999999
 30
0.0
 11
10.936
 21
5.094999999999999
 31
0.0
  0
LINE
  5
EE5
330
18
100
AcDbEntity
  8
Object
100
AcDbLine
 10
10.936
 20
5.094999999999999
 30
0.0
 11
10.944
 21
5.169999999999999
 31
0.0
  0
LINE
  5
EE6
330
18
100
AcDbEntity
  8
Object
100
AcDbLine
 10
11.14
 20
5.073999999999999
 30
0.0
 11
10.976
 21
5.091
 31
0.0
  0
LINE
  5
EE7
330
18
100
AcDbEntity
  8
Object
100
AcDbLine
 10
10.976
 20
5.091
 30
0.0
 11
10.956
 21
5.092999999999999
 31
0.0
  0
LINE
  5
EE8
330
18
100
AcDbEntity
  8
Object
100
AcDbLine
 10
10.956
 20
5.092999999999999
 30
0.0
 11
10.941
 21
5.094999999999999
 31
0.0
  0
LINE
  5
EE9
330
18
100
AcDbEntity
  8
Object
100
AcDbLine
 10
10.941
 20
5.094999999999999
 30
0.0
 11
10.936
 21
5.094999999999999
 31
0.0
  0
LINE
  5
EEA
330
18
100
AcDbEntity
  8
Object
100
AcDbLine
 10
10.982
 20
4.794999999999999
 30
0.0
 11
10.944
 21
4.756
 31
0.0
  0
LINE
  5
EEB
330
18
100
AcDbEntity
  8
Object
100
AcDbLine
 10
11.184
 20
4.996
 30
0.0
 11
11.161
 21
4.974
 31
0.0
  0
LINE
  5
EEC
330
18
100
AcDbEntity
  8
Object
100
AcDbLine
 10
10.944
 20
4.756
 30
0.0
 11
10.933
 21
4.746
 31
0.0
  0
LINE
  5
EED
330
18
100
AcDbEntity
  8
Object
100
AcDbLine
 10
10.933
 20
4.746
 30
0.0
 11
10.926
 21
4.738
 31
0.0
  0
LINE
  5
EEE
330
18
100
AcDbEntity
  8
Object
100
AcDbLine
 10
10.926
 20
4.738
 30
0.0
 11
10.923
 21
4.735
 31
0.0
  0
LINE
  5
EEF
330
18
100
AcDbEntity
  8
Object
100
AcDbLine
 10
11.088
 20
4.794999999999999
 30
0.0
 11
10.997
 21
4.703
 31
0.0
  0
LINE
  5
EF0
330
18
100
AcDbEntity
  8
Object
100
AcDbLine
 10
10.997
 20
4.703
 30
0.0
 11
10.986
 21
4.693
 31
0.0
  0
LINE
  5
EF1
330
18
100
AcDbEntity
  8
Object
100
AcDbLine
 10
10.986
 20
4.693
 30
0.0
 11
10.979
 21
4.685
 31
0.0
  0
LINE
  5
EF2
330
18
100
AcDbEntity
  8
Object
100
AcDbLine
 10
10.979
 20
4.685
 30
0.0
 11
10.976
 21
4.682
 31
0.0
  0
LINE
  5
EF3
330
18
100
AcDbEntity
  8
Object
100
AcDbLine
 10
10.997
 20
4.703
 30
0.0
 11
11.088
 21
4.794999999999999
 31
0.0
  0
LINE
  5
EF4
330
18
100
AcDbEntity
  8
Object
100
AcDbLine
 10
10.982
 20
4.794999999999999
 30
0.0
 11
10.944
 21
4.756
 31
0.0
  0
LINE
  5
EF5
330
18
100
AcDbEntity
  8
Object
100
AcDbLine
 10
11.184
 20
4.996
 30
0.0
 11
11.161
 21
4.974
 31
0.0
  0
LINE
  5
EF6
330
18
100
AcDbEntity
  8
Object
100
AcDbLine
 10
10.944
 20
5.169999999999999
 30
0.0
 11
10.936
 21
5.094999999999999
 31
0.0
  0
LINE
  5
EF7
330
18
100
AcDbEntity
  8
Object
100
AcDbLine
 10
10.923
 20
4.735
 30
0.0
 11
10.976
 21
4.682
 31
0.0
  0
LINE
  5
EF8
330
18
100
AcDbEntity
  8
Object
100
AcDbLine
 10
10.986
 20
4.693
 30
0.0
 11
10.997
 21
4.703
 31
0.0
  0
LINE
  5
EF9
330
18
100
AcDbEntity
  8
Object
100
AcDbLine
 10
10.933
 20
4.746
 30
0.0
 11
10.944
 21
4.756
 31
0.0
  0
LINE
  5
EFA
330
18
100
AcDbEntity
  8
Object
100
AcDbLine
 10
10.944
 20
4.756
 30
0.0
 11
10.997
 21
4.703
 31
0.0
  0
LINE
  5
EFB
330
18
100
AcDbEntity
  8
Object
100
AcDbLine
 10
10.933
 20
4.746
 30
0.0
 11
10.926
 21
4.738
 31
0.0
  0
LINE
  5
EFC
330
18
100
AcDbEntity
  8
Object
100
AcDbLine
 10
10.986
 20
4.693
 30
0.0
 11
10.979
 21
4.685
 31
0.0
  0
LINE
  5
EFD
330
18
100
AcDbEntity
  8
Object
100
AcDbLine
 10
10.979
 20
4.685
 30
0.0
 11
10.976
 21
4.682
 31
0.0
  0
LINE
  5
EFE
330
18
100
AcDbEntity
  8
Object
100
AcDbLine
 10
10.976
 20
4.682
 30
0.0
 11
10.923
 21
4.735
 31
0.0
  0
LINE
  5
EFF
330
18
100
AcDbEntity
  8
Object
100
AcDbLine
 10
10.923
 20
4.735
 30
0.0
 11
10.926
 21
4.738
 31
0.0
  0
LINE
  5
F00
330
18
100
AcDbEntity
  8
Object
100
AcDbLine
 10
11.784
 20
5.219
 30
0.0
 11
11.777
 21
5.219
 31
0.0
  0
LINE
  5
F01
330
18
100
AcDbEntity
  8
Object
100
AcDbLine
 10
11.777
 20
5.219
 30
0.0
 11
11.756
 21
5.219
 31
0.0
  0
LINE
  5
F02
330
18
100
AcDbEntity
  8
Object
100
AcDbLine
 10
11.756
 20
5.219
 30
0.0
 11
11.723
 21
5.219
 31
0.0
  0
LINE
  5
F03
330
18
100
AcDbEntity
  8
Object
100
AcDbLine
 10
11.723
 20
5.219
 30
0.0
 11
11.679
 21
5.219
 31
0.0
  0
LINE
  5
F04
330
18
100
AcDbEntity
  8
Object
100
AcDbLine
 10
11.679
 20
5.219
 30
0.0
 11
11.629
 21
5.219
 31
0.0
  0
LINE
  5
F05
330
18
100
AcDbEntity
  8
Object
100
AcDbLine
 10
11.629
 20
5.219
 30
0.0
 11
11.574
 21
5.219
 31
0.0
  0
LINE
  5
F06
330
18
100
AcDbEntity
  8
Object
100
AcDbLine
 10
11.574
 20
5.219
 30
0.0
 11
11.52
 21
5.219
 31
0.0
  0
LINE
  5
F07
330
18
100
AcDbEntity
  8
Object
100
AcDbLine
 10
11.52
 20
5.219
 30
0.0
 11
11.469
 21
5.219
 31
0.0
  0
LINE
  5
F08
330
18
100
AcDbEntity
  8
Object
100
AcDbLine
 10
11.469
 20
5.219
 30
0.0
 11
11.426
 21
5.219
 31
0.0
  0
LINE
  5
F09
330
18
100
AcDbEntity
  8
Object
100
AcDbLine
 10
11.426
 20
5.219
 30
0.0
 11
11.393
 21
5.219
 31
0.0
  0
LINE
  5
F0A
330
18
100
AcDbEntity
  8
Object
100
AcDbLine
 10
11.393
 20
5.219
 30
0.0
 11
11.372
 21
5.219
 31
0.0
  0
LINE
  5
F0B
330
18
100
AcDbEntity
  8
Object
100
AcDbLine
 10
11.372
 20
5.219
 30
0.0
 11
11.364
 21
5.219
 31
0.0
  0
LINE
  5
F0C
330
18
100
AcDbEntity
  8
Object
100
AcDbLine
 10
11.784
 20
5.219
 30
0.0
 11
11.794
 21
5.209
 31
0.0
  0
LINE
  5
F0D
330
18
100
AcDbEntity
  8
Object
100
AcDbLine
 10
11.794
 20
5.209
 30
0.0
 11
11.787
 21
5.209
 31
0.0
  0
LINE
  5
F0E
330
18
100
AcDbEntity
  8
Object
100
AcDbLine
 10
11.784
 20
5.219
 30
0.0
 11
11.777
 21
5.219
 31
0.0
  0
LINE
  5
F0F
330
18
100
AcDbEntity
  8
Object
100
AcDbLine
 10
11.765
 20
5.209
 30
0.0
 11
11.787
 21
5.209
 31
0.0
  0
LINE
  5
F10
330
18
100
AcDbEntity
  8
Object
100
AcDbLine
 10
11.777
 20
5.219
 30
0.0
 11
11.756
 21
5.219
 31
0.0
  0
LINE
  5
F11
330
18
100
AcDbEntity
  8
Object
100
AcDbLine
 10
11.756
 20
5.219
 30
0.0
 11
11.723
 21
5.219
 31
0.0
  0
LINE
  5
F12
330
18
100
AcDbEntity
  8
Object
100
AcDbLine
 10
11.765
 20
5.209
 30
0.0
 11
11.73
 21
5.209
 31
0.0
  0
LINE
  5
F13
330
18
100
AcDbEntity
  8
Object
100
AcDbLine
 10
11.73
 20
5.209
 30
0.0
 11
11.684
 21
5.209
 31
0.0
  0
LINE
  5
F14
330
18
100
AcDbEntity
  8
Object
100
AcDbLine
 10
11.723
 20
5.219
 30
0.0
 11
11.679
 21
5.219
 31
0.0
  0
LINE
  5
F15
330
18
100
AcDbEntity
  8
Object
100
AcDbLine
 10
11.679
 20
5.219
 30
0.0
 11
11.629
 21
5.219
 31
0.0
  0
LINE
  5
F16
330
18
100
AcDbEntity
  8
Object
100
AcDbLine
 10
11.631
 20
5.209
 30
0.0
 11
11.684
 21
5.209
 31
0.0
  0
LINE
  5
F17
330
18
100
AcDbEntity
  8
Object
100
AcDbLine
 10
11.629
 20
5.219
 30
0.0
 11
11.574
 21
5.219
 31
0.0
  0
LINE
  5
F18
330
18
100
AcDbEntity
  8
Object
100
AcDbLine
 10
11.574
 20
5.219
 30
0.0
 11
11.52
 21
5.219
 31
0.0
  0
LINE
  5
F19
330
18
100
AcDbEntity
  8
Object
100
AcDbLine
 10
11.52
 20
5.219
 30
0.0
 11
11.469
 21
5.219
 31
0.0
  0
LINE
  5
F1A
330
18
100
AcDbEntity
  8
Object
100
AcDbLine
 10
11.469
 20
5.219
 30
0.0
 11
11.426
 21
5.219
 31
0.0
  0
LINE
  5
F1B
330
18
100
AcDbEntity
  8
Object
100
AcDbLine
 10
11.426
 20
5.219
 30
0.0
 11
11.393
 21
5.219
 31
0.0
  0
LINE
  5
F1C
330
18
100
AcDbEntity
  8
Object
100
AcDbLine
 10
11.364
 20
5.219
 30
0.0
 11
11.372
 21
5.219
 31
0.0
  0
LINE
  5
F1D
330
18
100
AcDbEntity
  8
Object
100
AcDbLine
 10
11.372
 20
5.219
 30
0.0
 11
11.393
 21
5.219
 31
0.0
  0
LINE
  5
F1E
330
18
100
AcDbEntity
  8
Object
100
AcDbLine
 10
11.364
 20
5.219
 30
0.0
 11
11.354
 21
5.209
 31
0.0
  0
LINE
  5
F1F
330
18
100
AcDbEntity
  8
Object
100
AcDbLine
 10
11.794
 20
5.049
 30
0.0
 11
11.794
 21
5.209
 31
0.0
  0
LINE
  5
F20
330
18
100
AcDbEntity
  8
Object
100
AcDbLine
 10
11.631
 20
5.209
 30
0.0
 11
11.574
 21
5.209
 31
0.0
  0
LINE
  5
F21
330
18
100
AcDbEntity
  8
Object
100
AcDbLine
 10
11.574
 20
5.209
 30
0.0
 11
11.518
 21
5.209
 31
0.0
  0
LINE
  5
F22
330
18
100
AcDbEntity
  8
Object
100
AcDbLine
 10
11.518
 20
5.209
 30
0.0
 11
11.464
 21
5.209
 31
0.0
  0
LINE
  5
F23
330
18
100
AcDbEntity
  8
Object
100
AcDbLine
 10
11.464
 20
5.209
 30
0.0
 11
11.419
 21
5.209
 31
0.0
  0
LINE
  5
F24
330
18
100
AcDbEntity
  8
Object
100
AcDbLine
 10
11.419
 20
5.209
 30
0.0
 11
11.384
 21
5.209
 31
0.0
  0
LINE
  5
F25
330
18
100
AcDbEntity
  8
Object
100
AcDbLine
 10
11.384
 20
5.209
 30
0.0
 11
11.362
 21
5.209
 31
0.0
  0
LINE
  5
F26
330
18
100
AcDbEntity
  8
Object
100
AcDbLine
 10
11.354
 20
5.049
 30
0.0
 11
11.354
 21
5.209
 31
0.0
  0
LINE
  5
F27
330
18
100
AcDbEntity
  8
Object
100
AcDbLine
 10
11.354
 20
5.209
 30
0.0
 11
11.362
 21
5.209
 31
0.0
  0
LINE
  5
F28
330
18
100
AcDbEntity
  8
Object
100
AcDbLine
 10
11.796
 20
4.575
 30
0.0
 11
11.827
 21
4.589
 31
0.0
  0
LINE
  5
F29
330
18
100
AcDbEntity
  8
Object
100
AcDbLine
 10
11.827
 20
4.589
 30
0.0
 11
11.793
 21
4.57
 31
0.0
  0
LINE
  5
F2A
330
18
100
AcDbEntity
  8
Object
100
AcDbLine
 10
11.793
 20
4.57
 30
0.0
 11
11.786
 21
4.57
 31
0.0
  0
LINE
  5
F2B
330
18
100
AcDbEntity
  8
Object
100
AcDbLine
 10
11.786
 20
4.57
 30
0.0
 11
11.764
 21
4.57
 31
0.0
  0
LINE
  5
F2C
330
18
100
AcDbEntity
  8
Object
100
AcDbLine
 10
11.764
 20
4.57
 30
0.0
 11
11.796
 21
4.575
 31
0.0
  0
LINE
  5
F2D
330
18
100
AcDbEntity
  8
Object
100
AcDbLine
 10
11.827
 20
4.589
 30
0.0
 11
11.827
 21
4.713
 31
0.0
  0
LINE
  5
F2E
330
18
100
AcDbEntity
  8
Object
100
AcDbLine
 10
11.796
 20
4.727
 30
0.0
 11
11.764
 21
4.733
 31
0.0
  0
LINE
  5
F2F
330
18
100
AcDbEntity
  8
Object
100
AcDbLine
 10
11.793
 20
4.57
 30
0.0
 11
11.786
 21
4.57
 31
0.0
  0
LINE
  5
F30
330
18
100
AcDbEntity
  8
Object
100
AcDbLine
 10
11.786
 20
4.57
 30
0.0
 11
11.764
 21
4.57
 31
0.0
  0
LINE
  5
F31
330
18
100
AcDbEntity
  8
Object
100
AcDbLine
 10
11.764
 20
4.57
 30
0.0
 11
11.729
 21
4.57
 31
0.0
  0
LINE
  5
F32
330
18
100
AcDbEntity
  8
Object
100
AcDbLine
 10
11.729
 20
4.57
 30
0.0
 11
11.684
 21
4.57
 31
0.0
  0
LINE
  5
F33
330
18
100
AcDbEntity
  8
Object
100
AcDbLine
 10
11.684
 20
4.57
 30
0.0
 11
11.631
 21
4.57
 31
0.0
  0
LINE
  5
F34
330
18
100
AcDbEntity
  8
Object
100
AcDbLine
 10
11.631
 20
4.57
 30
0.0
 11
11.574
 21
4.57
 31
0.0
  0
LINE
  5
F35
330
18
100
AcDbEntity
  8
Object
100
AcDbLine
 10
11.574
 20
4.57
 30
0.0
 11
11.518
 21
4.57
 31
0.0
  0
LINE
  5
F36
330
18
100
AcDbEntity
  8
Object
100
AcDbLine
 10
11.518
 20
4.57
 30
0.0
 11
11.465
 21
4.57
 31
0.0
  0
LINE
  5
F37
330
18
100
AcDbEntity
  8
Object
100
AcDbLine
 10
11.465
 20
4.57
 30
0.0
 11
11.42
 21
4.57
 31
0.0
  0
LINE
  5
F38
330
18
100
AcDbEntity
  8
Object
100
AcDbLine
 10
11.42
 20
4.57
 30
0.0
 11
11.385
 21
4.57
 31
0.0
  0
LINE
  5
F39
330
18
100
AcDbEntity
  8
Object
100
AcDbLine
 10
11.385
 20
4.57
 30
0.0
 11
11.363
 21
4.57
 31
0.0
  0
LINE
  5
F3A
330
18
100
AcDbEntity
  8
Object
100
AcDbLine
 10
11.363
 20
4.57
 30
0.0
 11
11.355
 21
4.57
 31
0.0
  0
LINE
  5
F3B
330
18
100
AcDbEntity
  8
Object
100
AcDbLine
 10
11.764
 20
4.733
 30
0.0
 11
11.732
 21
4.727
 31
0.0
  0
LINE
  5
F3C
330
18
100
AcDbEntity
  8
Object
100
AcDbLine
 10
11.732
 20
4.727
 30
0.0
 11
11.701
 21
4.713
 31
0.0
  0
LINE
  5
F3D
330
18
100
AcDbEntity
  8
Object
100
AcDbLine
 10
11.701
 20
4.713
 30
0.0
 11
11.638
 21
4.727
 31
0.0
  0
LINE
  5
F3E
330
18
100
AcDbEntity
  8
Object
100
AcDbLine
 10
11.701
 20
4.713
 30
0.0
 11
11.701
 21
4.589
 31
0.0
  0
LINE
  5
F3F
330
18
100
AcDbEntity
  8
Object
100
AcDbLine
 10
11.701
 20
4.589
 30
0.0
 11
11.638
 21
4.575
 31
0.0
  0
LINE
  5
F40
330
18
100
AcDbEntity
  8
Object
100
AcDbLine
 10
11.638
 20
4.575
 30
0.0
 11
11.574
 21
4.57
 31
0.0
  0
LINE
  5
F41
330
18
100
AcDbEntity
  8
Object
100
AcDbLine
 10
11.638
 20
4.727
 30
0.0
 11
11.574
 21
4.733
 31
0.0
  0
LINE
  5
F42
330
18
100
AcDbEntity
  8
Object
100
AcDbLine
 10
11.574
 20
4.733
 30
0.0
 11
11.511
 21
4.727
 31
0.0
  0
LINE
  5
F43
330
18
100
AcDbEntity
  8
Object
100
AcDbLine
 10
11.511
 20
4.575
 30
0.0
 11
11.574
 21
4.57
 31
0.0
  0
LINE
  5
F44
330
18
100
AcDbEntity
  8
Object
100
AcDbLine
 10
11.511
 20
4.727
 30
0.0
 11
11.448
 21
4.713
 31
0.0
  0
LINE
  5
F45
330
18
100
AcDbEntity
  8
Object
100
AcDbLine
 10
11.448
 20
4.589
 30
0.0
 11
11.511
 21
4.575
 31
0.0
  0
LINE
  5
F46
330
18
100
AcDbEntity
  8
Object
100
AcDbLine
 10
11.793
 20
4.733
 30
0.0
 11
11.827
 21
4.713
 31
0.0
  0
LINE
  5
F47
330
18
100
AcDbEntity
  8
Object
100
AcDbLine
 10
11.827
 20
4.713
 30
0.0
 11
11.796
 21
4.727
 31
0.0
  0
LINE
  5
F48
330
18
100
AcDbEntity
  8
Object
100
AcDbLine
 10
11.732
 20
4.575
 30
0.0
 11
11.764
 21
4.57
 31
0.0
  0
LINE
  5
F49
330
18
100
AcDbEntity
  8
Object
100
AcDbLine
 10
11.764
 20
4.57
 30
0.0
 11
11.729
 21
4.57
 31
0.0
  0
LINE
  5
F4A
330
18
100
AcDbEntity
  8
Object
100
AcDbLine
 10
11.732
 20
4.575
 30
0.0
 11
11.701
 21
4.589
 31
0.0
  0
LINE
  5
F4B
330
18
100
AcDbEntity
  8
Object
100
AcDbLine
 10
11.729
 20
4.57
 30
0.0
 11
11.684
 21
4.57
 31
0.0
  0
LINE
  5
F4C
330
18
100
AcDbEntity
  8
Object
100
AcDbLine
 10
11.684
 20
4.57
 30
0.0
 11
11.631
 21
4.57
 31
0.0
  0
LINE
  5
F4D
330
18
100
AcDbEntity
  8
Object
100
AcDbLine
 10
11.631
 20
4.57
 30
0.0
 11
11.574
 21
4.57
 31
0.0
  0
LINE
  5
F4E
330
18
100
AcDbEntity
  8
Object
100
AcDbLine
 10
11.363
 20
4.57
 30
0.0
 11
11.385
 21
4.57
 31
0.0
  0
LINE
  5
F4F
330
18
100
AcDbEntity
  8
Object
100
AcDbLine
 10
11.385
 20
4.57
 30
0.0
 11
11.353
 21
4.575
 31
0.0
  0
LINE
  5
F50
330
18
100
AcDbEntity
  8
Object
100
AcDbLine
 10
11.363
 20
4.57
 30
0.0
 11
11.355
 21
4.57
 31
0.0
  0
LINE
  5
F51
330
18
100
AcDbEntity
  8
Object
100
AcDbLine
 10
11.355
 20
4.57
 30
0.0
 11
11.322
 21
4.589
 31
0.0
  0
LINE
  5
F52
330
18
100
AcDbEntity
  8
Object
100
AcDbLine
 10
11.322
 20
4.589
 30
0.0
 11
11.353
 21
4.575
 31
0.0
  0
LINE
  5
F53
330
18
100
AcDbEntity
  8
Object
100
AcDbLine
 10
11.574
 20
4.57
 30
0.0
 11
11.518
 21
4.57
 31
0.0
  0
LINE
  5
F54
330
18
100
AcDbEntity
  8
Object
100
AcDbLine
 10
11.518
 20
4.57
 30
0.0
 11
11.465
 21
4.57
 31
0.0
  0
LINE
  5
F55
330
18
100
AcDbEntity
  8
Object
100
AcDbLine
 10
11.448
 20
4.589
 30
0.0
 11
11.417
 21
4.575
 31
0.0
  0
LINE
  5
F56
330
18
100
AcDbEntity
  8
Object
100
AcDbLine
 10
11.465
 20
4.57
 30
0.0
 11
11.42
 21
4.57
 31
0.0
  0
LINE
  5
F57
330
18
100
AcDbEntity
  8
Object
100
AcDbLine
 10
11.42
 20
4.57
 30
0.0
 11
11.385
 21
4.57
 31
0.0
  0
LINE
  5
F58
330
18
100
AcDbEntity
  8
Object
100
AcDbLine
 10
11.385
 20
4.57
 30
0.0
 11
11.417
 21
4.575
 31
0.0
  0
LINE
  5
F59
330
18
100
AcDbEntity
  8
Object
100
AcDbLine
 10
11.417
 20
4.727
 30
0.0
 11
11.448
 21
4.713
 31
0.0
  0
LINE
  5
F5A
330
18
100
AcDbEntity
  8
Object
100
AcDbLine
 10
11.448
 20
4.713
 30
0.0
 11
11.448
 21
4.589
 31
0.0
  0
LINE
  5
F5B
330
18
100
AcDbEntity
  8
Object
100
AcDbLine
 10
11.417
 20
4.727
 30
0.0
 11
11.385
 21
4.733
 31
0.0
  0
LINE
  5
F5C
330
18
100
AcDbEntity
  8
Object
100
AcDbLine
 10
11.385
 20
4.733
 30
0.0
 11
11.353
 21
4.727
 31
0.0
  0
LINE
  5
F5D
330
18
100
AcDbEntity
  8
Object
100
AcDbLine
 10
11.322
 20
4.589
 30
0.0
 11
11.322
 21
4.713
 31
0.0
  0
LINE
  5
F5E
330
18
100
AcDbEntity
  8
Object
100
AcDbLine
 10
11.322
 20
4.713
 30
0.0
 11
11.353
 21
4.727
 31
0.0
  0
LINE
  5
F5F
330
18
100
AcDbEntity
  8
Object
100
AcDbLine
 10
11.355
 20
4.733
 30
0.0
 11
11.322
 21
4.713
 31
0.0
  0
LINE
  5
F60
330
18
100
AcDbEntity
  8
Object
100
AcDbLine
 10
11.687
 20
5.219
 30
0.0
 11
11.674
 21
5.225999999999999
 31
0.0
  0
LINE
  5
F61
330
18
100
AcDbEntity
  8
Object
100
AcDbLine
 10
11.674
 20
5.225999999999999
 30
0.0
 11
11.667
 21
5.222999999999999
 31
0.0
  0
LINE
  5
F62
330
18
100
AcDbEntity
  8
Object
100
AcDbLine
 10
11.667
 20
5.222999999999999
 30
0.0
 11
11.645
 21
5.219999999999999
 31
0.0
  0
LINE
  5
F63
330
18
100
AcDbEntity
  8
Object
100
AcDbLine
 10
11.645
 20
5.219999999999999
 30
0.0
 11
11.632
 21
5.219
 31
0.0
  0
LINE
  5
F64
330
18
100
AcDbEntity
  8
Object
100
AcDbLine
 10
11.625
 20
5.233
 30
0.0
 11
11.643
 21
5.233
 31
0.0
  0
LINE
  5
F65
330
18
100
AcDbEntity
  8
Object
100
AcDbLine
 10
11.643
 20
5.233
 30
0.0
 11
11.62
 21
5.23
 31
0.0
  0
LINE
  5
F66
330
18
100
AcDbEntity
  8
Object
100
AcDbLine
 10
11.625
 20
5.233
 30
0.0
 11
11.602
 21
5.233
 31
0.0
  0
LINE
  5
F67
330
18
100
AcDbEntity
  8
Object
100
AcDbLine
 10
11.592
 20
5.227999999999999
 30
0.0
 11
11.62
 21
5.23
 31
0.0
  0
LINE
  5
F68
330
18
100
AcDbEntity
  8
Object
100
AcDbLine
 10
11.602
 20
5.233
 30
0.0
 11
11.578
 21
5.233
 31
0.0
  0
LINE
  5
F69
330
18
100
AcDbEntity
  8
Object
100
AcDbLine
 10
11.563
 20
5.225999999999999
 30
0.0
 11
11.592
 21
5.227999999999999
 31
0.0
  0
LINE
  5
F6A
330
18
100
AcDbEntity
  8
Object
100
AcDbLine
 10
11.578
 20
5.233
 30
0.0
 11
11.552
 21
5.233
 31
0.0
  0
LINE
  5
F6B
330
18
100
AcDbEntity
  8
Object
100
AcDbLine
 10
11.535
 20
5.222999999999999
 30
0.0
 11
11.563
 21
5.225999999999999
 31
0.0
  0
LINE
  5
F6C
330
18
100
AcDbEntity
  8
Object
100
AcDbLine
 10
11.552
 20
5.233
 30
0.0
 11
11.527
 21
5.233
 31
0.0
  0
LINE
  5
F6D
330
18
100
AcDbEntity
  8
Object
100
AcDbLine
 10
11.51
 20
5.221
 30
0.0
 11
11.535
 21
5.222999999999999
 31
0.0
  0
LINE
  5
F6E
330
18
100
AcDbEntity
  8
Object
100
AcDbLine
 10
11.527
 20
5.233
 30
0.0
 11
11.503
 21
5.233
 31
0.0
  0
LINE
  5
F6F
330
18
100
AcDbEntity
  8
Object
100
AcDbLine
 10
11.503
 20
5.233
 30
0.0
 11
11.482
 21
5.233
 31
0.0
  0
LINE
  5
F70
330
18
100
AcDbEntity
  8
Object
100
AcDbLine
 10
11.491
 20
5.219
 30
0.0
 11
11.51
 21
5.221
 31
0.0
  0
LINE
  5
F71
330
18
100
AcDbEntity
  8
Object
100
AcDbLine
 10
11.482
 20
5.233
 30
0.0
 11
11.465
 21
5.233
 31
0.0
  0
LINE
  5
F72
330
18
100
AcDbEntity
  8
Object
100
AcDbLine
 10
11.465
 20
5.233
 30
0.0
 11
11.453
 21
5.230999999999999
 31
0.0
  0
LINE
  5
F73
330
18
100
AcDbEntity
  8
Object
100
AcDbLine
 10
11.466
 20
5.219
 30
0.0
 11
11.449
 21
5.229
 31
0.0
  0
LINE
  5
F74
330
18
100
AcDbEntity
  8
Object
100
AcDbLine
 10
11.449
 20
5.229
 30
0.0
 11
11.453
 21
5.230999999999999
 31
0.0
  0
LINE
  5
F75
330
18
100
AcDbEntity
  8
Object
100
AcDbLine
 10
11.671
 20
5.233
 30
0.0
 11
11.674
 21
5.233
 31
0.0
  0
LINE
  5
F76
330
18
100
AcDbEntity
  8
Object
100
AcDbLine
 10
11.674
 20
5.233
 30
0.0
 11
11.674
 21
5.225999999999999
 31
0.0
  0
LINE
  5
F77
330
18
100
AcDbEntity
  8
Object
100
AcDbLine
 10
11.671
 20
5.233
 30
0.0
 11
11.66
 21
5.233
 31
0.0
  0
LINE
  5
F78
330
18
100
AcDbEntity
  8
Object
100
AcDbLine
 10
11.66
 20
5.233
 30
0.0
 11
11.643
 21
5.233
 31
0.0
  0
LINE
  5
F79
330
18
100
AcDbEntity
  8
Object
100
AcDbLine
 10
11.449
 20
5.233
 30
0.0
 11
11.449
 21
5.229
 31
0.0
  0
LINE
  5
F7A
330
18
100
AcDbEntity
  8
Object
100
AcDbLine
 10
11.674
 20
5.233
 30
0.0
 11
11.671
 21
5.233
 31
0.0
  0
LINE
  5
F7B
330
18
100
AcDbEntity
  8
Object
100
AcDbLine
 10
11.671
 20
5.233
 30
0.0
 11
11.66
 21
5.233
 31
0.0
  0
LINE
  5
F7C
330
18
100
AcDbEntity
  8
Object
100
AcDbLine
 10
11.66
 20
5.233
 30
0.0
 11
11.643
 21
5.233
 31
0.0
  0
LINE
  5
F7D
330
18
100
AcDbEntity
  8
Object
100
AcDbLine
 10
11.643
 20
5.233
 30
0.0
 11
11.625
 21
5.233
 31
0.0
  0
LINE
  5
F7E
330
18
100
AcDbEntity
  8
Object
100
AcDbLine
 10
11.625
 20
5.233
 30
0.0
 11
11.602
 21
5.233
 31
0.0
  0
LINE
  5
F7F
330
18
100
AcDbEntity
  8
Object
100
AcDbLine
 10
11.602
 20
5.233
 30
0.0
 11
11.578
 21
5.233
 31
0.0
  0
LINE
  5
F80
330
18
100
AcDbEntity
  8
Object
100
AcDbLine
 10
11.578
 20
5.233
 30
0.0
 11
11.552
 21
5.233
 31
0.0
  0
LINE
  5
F81
330
18
100
AcDbEntity
  8
Object
100
AcDbLine
 10
11.552
 20
5.233
 30
0.0
 11
11.527
 21
5.233
 31
0.0
  0
LINE
  5
F82
330
18
100
AcDbEntity
  8
Object
100
AcDbLine
 10
11.527
 20
5.233
 30
0.0
 11
11.503
 21
5.233
 31
0.0
  0
LINE
  5
F83
330
18
100
AcDbEntity
  8
Object
100
AcDbLine
 10
11.503
 20
5.233
 30
0.0
 11
11.482
 21
5.233
 31
0.0
  0
LINE
  5
F84
330
18
100
AcDbEntity
  8
Object
100
AcDbLine
 10
11.482
 20
5.233
 30
0.0
 11
11.465
 21
5.233
 31
0.0
  0
LINE
  5
F85
330
18
100
AcDbEntity
  8
Object
100
AcDbLine
 10
11.465
 20
5.233
 30
0.0
 11
11.457
 21
5.233
 31
0.0
  0
LINE
  5
F86
330
18
100
AcDbEntity
  8
Object
100
AcDbLine
 10
11.457
 20
5.233
 30
0.0
 11
11.451
 21
5.233
 31
0.0
  0
LINE
  5
F87
330
18
100
AcDbEntity
  8
Object
100
AcDbLine
 10
11.451
 20
5.233
 30
0.0
 11
11.449
 21
5.233
 31
0.0
  0
LINE
  5
F88
330
18
100
AcDbEntity
  8
Object
100
AcDbLine
 10
11.465
 20
5.233
 30
0.0
 11
11.457
 21
5.233
 31
0.0
  0
LINE
  5
F89
330
18
100
AcDbEntity
  8
Object
100
AcDbLine
 10
11.457
 20
5.233
 30
0.0
 11
11.451
 21
5.233
 31
0.0
  0
LINE
  5
F8A
330
18
100
AcDbEntity
  8
Object
100
AcDbLine
 10
11.451
 20
5.233
 30
0.0
 11
11.449
 21
5.233
 31
0.0
  0
LINE
  5
F8B
330
18
100
AcDbEntity
  8
Object
100
AcDbLine
 10
4.689
 20
5.219
 30
0.0
 11
4.682
 21
5.219
 31
0.0
  0
LINE
  5
F8C
330
18
100
AcDbEntity
  8
Object
100
AcDbLine
 10
4.682
 20
5.219
 30
0.0
 11
4.661
 21
5.219
 31
0.0
  0
LINE
  5
F8D
330
18
100
AcDbEntity
  8
Object
100
AcDbLine
 10
4.661
 20
5.219
 30
0.0
 11
4.628
 21
5.219
 31
0.0
  0
LINE
  5
F8E
330
18
100
AcDbEntity
  8
Object
100
AcDbLine
 10
4.628
 20
5.219
 30
0.0
 11
4.584
 21
5.219
 31
0.0
  0
LINE
  5
F8F
330
18
100
AcDbEntity
  8
Object
100
AcDbLine
 10
4.584
 20
5.219
 30
0.0
 11
4.533999999999999
 21
5.219
 31
0.0
  0
LINE
  5
F90
330
18
100
AcDbEntity
  8
Object
100
AcDbLine
 10
4.533999999999999
 20
5.219
 30
0.0
 11
4.479
 21
5.219
 31
0.0
  0
LINE
  5
F91
330
18
100
AcDbEntity
  8
Object
100
AcDbLine
 10
4.479
 20
5.219
 30
0.0
 11
4.424999999999999
 21
5.219
 31
0.0
  0
LINE
  5
F92
330
18
100
AcDbEntity
  8
Object
100
AcDbLine
 10
4.424999999999999
 20
5.219
 30
0.0
 11
4.373999999999999
 21
5.219
 31
0.0
  0
LINE
  5
F93
330
18
100
AcDbEntity
  8
Object
100
AcDbLine
 10
4.373999999999999
 20
5.219
 30
0.0
 11
4.331
 21
5.219
 31
0.0
  0
LINE
  5
F94
330
18
100
AcDbEntity
  8
Object
100
AcDbLine
 10
4.331
 20
5.219
 30
0.0
 11
4.296999999999999
 21
5.219
 31
0.0
  0
LINE
  5
F95
330
18
100
AcDbEntity
  8
Object
100
AcDbLine
 10
4.296999999999999
 20
5.219
 30
0.0
 11
4.275999999999999
 21
5.219
 31
0.0
  0
LINE
  5
F96
330
18
100
AcDbEntity
  8
Object
100
AcDbLine
 10
4.275999999999999
 20
5.219
 30
0.0
 11
4.269
 21
5.219
 31
0.0
  0
LINE
  5
F97
330
18
100
AcDbEntity
  8
Object
100
AcDbLine
 10
4.692
 20
5.209
 30
0.0
 11
4.698999999999999
 21
5.209
 31
0.0
  0
LINE
  5
F98
330
18
100
AcDbEntity
  8
Object
100
AcDbLine
 10
4.689
 20
5.219
 30
0.0
 11
4.682
 21
5.219
 31
0.0
  0
LINE
  5
F99
330
18
100
AcDbEntity
  8
Object
100
AcDbLine
 10
4.682
 20
5.219
 30
0.0
 11
4.661
 21
5.219
 31
0.0
  0
LINE
  5
F9A
330
18
100
AcDbEntity
  8
Object
100
AcDbLine
 10
4.661
 20
5.219
 30
0.0
 11
4.628
 21
5.219
 31
0.0
  0
LINE
  5
F9B
330
18
100
AcDbEntity
  8
Object
100
AcDbLine
 10
4.589
 20
5.209
 30
0.0
 11
4.634999999999999
 21
5.209
 31
0.0
  0
LINE
  5
F9C
330
18
100
AcDbEntity
  8
Object
100
AcDbLine
 10
4.628
 20
5.219
 30
0.0
 11
4.584
 21
5.219
 31
0.0
  0
LINE
  5
F9D
330
18
100
AcDbEntity
  8
Object
100
AcDbLine
 10
4.584
 20
5.219
 30
0.0
 11
4.533999999999999
 21
5.219
 31
0.0
  0
LINE
  5
F9E
330
18
100
AcDbEntity
  8
Object
100
AcDbLine
 10
4.536
 20
5.209
 30
0.0
 11
4.589
 21
5.209
 31
0.0
  0
LINE
  5
F9F
330
18
100
AcDbEntity
  8
Object
100
AcDbLine
 10
4.533999999999999
 20
5.219
 30
0.0
 11
4.479
 21
5.219
 31
0.0
  0
LINE
  5
FA0
330
18
100
AcDbEntity
  8
Object
100
AcDbLine
 10
4.479
 20
5.219
 30
0.0
 11
4.424999999999999
 21
5.219
 31
0.0
  0
LINE
  5
FA1
330
18
100
AcDbEntity
  8
Object
100
AcDbLine
 10
4.424999999999999
 20
5.219
 30
0.0
 11
4.373999999999999
 21
5.219
 31
0.0
  0
LINE
  5
FA2
330
18
100
AcDbEntity
  8
Object
100
AcDbLine
 10
4.373999999999999
 20
5.219
 30
0.0
 11
4.331
 21
5.219
 31
0.0
  0
LINE
  5
FA3
330
18
100
AcDbEntity
  8
Object
100
AcDbLine
 10
4.331
 20
5.219
 30
0.0
 11
4.296999999999999
 21
5.219
 31
0.0
  0
LINE
  5
FA4
330
18
100
AcDbEntity
  8
Object
100
AcDbLine
 10
4.296999999999999
 20
5.219
 30
0.0
 11
4.275999999999999
 21
5.219
 31
0.0
  0
LINE
  5
FA5
330
18
100
AcDbEntity
  8
Object
100
AcDbLine
 10
4.259
 20
5.209
 30
0.0
 11
4.269
 21
5.219
 31
0.0
  0
LINE
  5
FA6
330
18
100
AcDbEntity
  8
Object
100
AcDbLine
 10
4.269
 20
5.219
 30
0.0
 11
4.275999999999999
 21
5.219
 31
0.0
  0
LINE
  5
FA7
330
18
100
AcDbEntity
  8
Object
100
AcDbLine
 10
4.689
 20
5.219
 30
0.0
 11
4.698999999999999
 21
5.209
 31
0.0
  0
LINE
  5
FA8
330
18
100
AcDbEntity
  8
Object
100
AcDbLine
 10
4.698999999999999
 20
5.209
 30
0.0
 11
4.698999999999999
 21
5.049
 31
0.0
  0
LINE
  5
FA9
330
18
100
AcDbEntity
  8
Object
100
AcDbLine
 10
4.692
 20
5.209
 30
0.0
 11
4.669999999999999
 21
5.209
 31
0.0
  0
LINE
  5
FAA
330
18
100
AcDbEntity
  8
Object
100
AcDbLine
 10
4.669999999999999
 20
5.209
 30
0.0
 11
4.634999999999999
 21
5.209
 31
0.0
  0
LINE
  5
FAB
330
18
100
AcDbEntity
  8
Object
100
AcDbLine
 10
4.536
 20
5.209
 30
0.0
 11
4.479
 21
5.209
 31
0.0
  0
LINE
  5
FAC
330
18
100
AcDbEntity
  8
Object
100
AcDbLine
 10
4.479
 20
5.209
 30
0.0
 11
4.421999999999999
 21
5.209
 31
0.0
  0
LINE
  5
FAD
330
18
100
AcDbEntity
  8
Object
100
AcDbLine
 10
4.421999999999999
 20
5.209
 30
0.0
 11
4.368999999999999
 21
5.209
 31
0.0
  0
LINE
  5
FAE
330
18
100
AcDbEntity
  8
Object
100
AcDbLine
 10
4.368999999999999
 20
5.209
 30
0.0
 11
4.323999999999999
 21
5.209
 31
0.0
  0
LINE
  5
FAF
330
18
100
AcDbEntity
  8
Object
100
AcDbLine
 10
4.323999999999999
 20
5.209
 30
0.0
 11
4.288999999999999
 21
5.209
 31
0.0
  0
LINE
  5
FB0
330
18
100
AcDbEntity
  8
Object
100
AcDbLine
 10
4.288999999999999
 20
5.209
 30
0.0
 11
4.267
 21
5.209
 31
0.0
  0
LINE
  5
FB1
330
18
100
AcDbEntity
  8
Object
100
AcDbLine
 10
4.259
 20
5.049
 30
0.0
 11
4.259
 21
5.209
 31
0.0
  0
LINE
  5
FB2
330
18
100
AcDbEntity
  8
Object
100
AcDbLine
 10
4.259
 20
5.209
 30
0.0
 11
4.267
 21
5.209
 31
0.0
  0
LINE
  5
FB3
330
18
100
AcDbEntity
  8
Object
100
AcDbLine
 10
4.701
 20
4.575
 30
0.0
 11
4.732
 21
4.589
 31
0.0
  0
LINE
  5
FB4
330
18
100
AcDbEntity
  8
Object
100
AcDbLine
 10
4.732
 20
4.589
 30
0.0
 11
4.698
 21
4.57
 31
0.0
  0
LINE
  5
FB5
330
18
100
AcDbEntity
  8
Object
100
AcDbLine
 10
4.698
 20
4.57
 30
0.0
 11
4.690999999999999
 21
4.57
 31
0.0
  0
LINE
  5
FB6
330
18
100
AcDbEntity
  8
Object
100
AcDbLine
 10
4.690999999999999
 20
4.57
 30
0.0
 11
4.669
 21
4.57
 31
0.0
  0
LINE
  5
FB7
330
18
100
AcDbEntity
  8
Object
100
AcDbLine
 10
4.669
 20
4.57
 30
0.0
 11
4.701
 21
4.575
 31
0.0
  0
LINE
  5
FB8
330
18
100
AcDbEntity
  8
Object
100
AcDbLine
 10
4.732
 20
4.589
 30
0.0
 11
4.732
 21
4.713
 31
0.0
  0
LINE
  5
FB9
330
18
100
AcDbEntity
  8
Object
100
AcDbLine
 10
4.701
 20
4.727
 30
0.0
 11
4.669
 21
4.733
 31
0.0
  0
LINE
  5
FBA
330
18
100
AcDbEntity
  8
Object
100
AcDbLine
 10
4.698
 20
4.57
 30
0.0
 11
4.690999999999999
 21
4.57
 31
0.0
  0
LINE
  5
FBB
330
18
100
AcDbEntity
  8
Object
100
AcDbLine
 10
4.690999999999999
 20
4.57
 30
0.0
 11
4.669
 21
4.57
 31
0.0
  0
LINE
  5
FBC
330
18
100
AcDbEntity
  8
Object
100
AcDbLine
 10
4.669
 20
4.57
 30
0.0
 11
4.634
 21
4.57
 31
0.0
  0
LINE
  5
FBD
330
18
100
AcDbEntity
  8
Object
100
AcDbLine
 10
4.634
 20
4.57
 30
0.0
 11
4.589
 21
4.57
 31
0.0
  0
LINE
  5
FBE
330
18
100
AcDbEntity
  8
Object
100
AcDbLine
 10
4.589
 20
4.57
 30
0.0
 11
4.536
 21
4.57
 31
0.0
  0
LINE
  5
FBF
330
18
100
AcDbEntity
  8
Object
100
AcDbLine
 10
4.536
 20
4.57
 30
0.0
 11
4.479
 21
4.57
 31
0.0
  0
LINE
  5
FC0
330
18
100
AcDbEntity
  8
Object
100
AcDbLine
 10
4.479
 20
4.57
 30
0.0
 11
4.423
 21
4.57
 31
0.0
  0
LINE
  5
FC1
330
18
100
AcDbEntity
  8
Object
100
AcDbLine
 10
4.423
 20
4.57
 30
0.0
 11
4.37
 21
4.57
 31
0.0
  0
LINE
  5
FC2
330
18
100
AcDbEntity
  8
Object
100
AcDbLine
 10
4.37
 20
4.57
 30
0.0
 11
4.323999999999999
 21
4.57
 31
0.0
  0
LINE
  5
FC3
330
18
100
AcDbEntity
  8
Object
100
AcDbLine
 10
4.323999999999999
 20
4.57
 30
0.0
 11
4.29
 21
4.57
 31
0.0
  0
LINE
  5
FC4
330
18
100
AcDbEntity
  8
Object
100
AcDbLine
 10
4.29
 20
4.57
 30
0.0
 11
4.267999999999999
 21
4.57
 31
0.0
  0
LINE
  5
FC5
330
18
100
AcDbEntity
  8
Object
100
AcDbLine
 10
4.267999999999999
 20
4.57
 30
0.0
 11
4.259999999999999
 21
4.57
 31
0.0
  0
LINE
  5
FC6
330
18
100
AcDbEntity
  8
Object
100
AcDbLine
 10
4.669
 20
4.733
 30
0.0
 11
4.637
 21
4.727
 31
0.0
  0
LINE
  5
FC7
330
18
100
AcDbEntity
  8
Object
100
AcDbLine
 10
4.637
 20
4.727
 30
0.0
 11
4.605999999999999
 21
4.713
 31
0.0
  0
LINE
  5
FC8
330
18
100
AcDbEntity
  8
Object
100
AcDbLine
 10
4.605999999999999
 20
4.713
 30
0.0
 11
4.543
 21
4.727
 31
0.0
  0
LINE
  5
FC9
330
18
100
AcDbEntity
  8
Object
100
AcDbLine
 10
4.605999999999999
 20
4.713
 30
0.0
 11
4.605999999999999
 21
4.589
 31
0.0
  0
LINE
  5
FCA
330
18
100
AcDbEntity
  8
Object
100
AcDbLine
 10
4.605999999999999
 20
4.589
 30
0.0
 11
4.543
 21
4.575
 31
0.0
  0
LINE
  5
FCB
330
18
100
AcDbEntity
  8
Object
100
AcDbLine
 10
4.543
 20
4.727
 30
0.0
 11
4.479
 21
4.733
 31
0.0
  0
LINE
  5
FCC
330
18
100
AcDbEntity
  8
Object
100
AcDbLine
 10
4.543
 20
4.575
 30
0.0
 11
4.479
 21
4.57
 31
0.0
  0
LINE
  5
FCD
330
18
100
AcDbEntity
  8
Object
100
AcDbLine
 10
4.479
 20
4.57
 30
0.0
 11
4.415
 21
4.575
 31
0.0
  0
LINE
  5
FCE
330
18
100
AcDbEntity
  8
Object
100
AcDbLine
 10
4.479
 20
4.733
 30
0.0
 11
4.415
 21
4.727
 31
0.0
  0
LINE
  5
FCF
330
18
100
AcDbEntity
  8
Object
100
AcDbLine
 10
4.415
 20
4.727
 30
0.0
 11
4.352999999999999
 21
4.713
 31
0.0
  0
LINE
  5
FD0
330
18
100
AcDbEntity
  8
Object
100
AcDbLine
 10
4.352999999999999
 20
4.589
 30
0.0
 11
4.415
 21
4.575
 31
0.0
  0
LINE
  5
FD1
330
18
100
AcDbEntity
  8
Object
100
AcDbLine
 10
4.698
 20
4.733
 30
0.0
 11
4.732
 21
4.713
 31
0.0
  0
LINE
  5
FD2
330
18
100
AcDbEntity
  8
Object
100
AcDbLine
 10
4.732
 20
4.713
 30
0.0
 11
4.701
 21
4.727
 31
0.0
  0
LINE
  5
FD3
330
18
100
AcDbEntity
  8
Object
100
AcDbLine
 10
4.637
 20
4.575
 30
0.0
 11
4.669
 21
4.57
 31
0.0
  0
LINE
  5
FD4
330
18
100
AcDbEntity
  8
Object
100
AcDbLine
 10
4.669
 20
4.57
 30
0.0
 11
4.634
 21
4.57
 31
0.0
  0
LINE
  5
FD5
330
18
100
AcDbEntity
  8
Object
100
AcDbLine
 10
4.637
 20
4.575
 30
0.0
 11
4.605999999999999
 21
4.589
 31
0.0
  0
LINE
  5
FD6
330
18
100
AcDbEntity
  8
Object
100
AcDbLine
 10
4.634
 20
4.57
 30
0.0
 11
4.589
 21
4.57
 31
0.0
  0
LINE
  5
FD7
330
18
100
AcDbEntity
  8
Object
100
AcDbLine
 10
4.589
 20
4.57
 30
0.0
 11
4.536
 21
4.57
 31
0.0
  0
LINE
  5
FD8
330
18
100
AcDbEntity
  8
Object
100
AcDbLine
 10
4.536
 20
4.57
 30
0.0
 11
4.479
 21
4.57
 31
0.0
  0
LINE
  5
FD9
330
18
100
AcDbEntity
  8
Object
100
AcDbLine
 10
4.267999999999999
 20
4.57
 30
0.0
 11
4.29
 21
4.57
 31
0.0
  0
LINE
  5
FDA
330
18
100
AcDbEntity
  8
Object
100
AcDbLine
 10
4.29
 20
4.57
 30
0.0
 11
4.258
 21
4.575
 31
0.0
  0
LINE
  5
FDB
330
18
100
AcDbEntity
  8
Object
100
AcDbLine
 10
4.267999999999999
 20
4.57
 30
0.0
 11
4.259999999999999
 21
4.57
 31
0.0
  0
LINE
  5
FDC
330
18
100
AcDbEntity
  8
Object
100
AcDbLine
 10
4.259999999999999
 20
4.57
 30
0.0
 11
4.225999999999999
 21
4.589
 31
0.0
  0
LINE
  5
FDD
330
18
100
AcDbEntity
  8
Object
100
AcDbLine
 10
4.225999999999999
 20
4.589
 30
0.0
 11
4.258
 21
4.575
 31
0.0
  0
LINE
  5
FDE
330
18
100
AcDbEntity
  8
Object
100
AcDbLine
 10
4.479
 20
4.57
 30
0.0
 11
4.423
 21
4.57
 31
0.0
  0
LINE
  5
FDF
330
18
100
AcDbEntity
  8
Object
100
AcDbLine
 10
4.423
 20
4.57
 30
0.0
 11
4.37
 21
4.57
 31
0.0
  0
LINE
  5
FE0
330
18
100
AcDbEntity
  8
Object
100
AcDbLine
 10
4.352999999999999
 20
4.589
 30
0.0
 11
4.320999999999999
 21
4.575
 31
0.0
  0
LINE
  5
FE1
330
18
100
AcDbEntity
  8
Object
100
AcDbLine
 10
4.37
 20
4.57
 30
0.0
 11
4.323999999999999
 21
4.57
 31
0.0
  0
LINE
  5
FE2
330
18
100
AcDbEntity
  8
Object
100
AcDbLine
 10
4.323999999999999
 20
4.57
 30
0.0
 11
4.29
 21
4.57
 31
0.0
  0
LINE
  5
FE3
330
18
100
AcDbEntity
  8
Object
100
AcDbLine
 10
4.29
 20
4.57
 30
0.0
 11
4.320999999999999
 21
4.575
 31
0.0
  0
LINE
  5
FE4
330
18
100
AcDbEntity
  8
Object
100
AcDbLine
 10
4.320999999999999
 20
4.727
 30
0.0
 11
4.352999999999999
 21
4.713
 31
0.0
  0
LINE
  5
FE5
330
18
100
AcDbEntity
  8
Object
100
AcDbLine
 10
4.352999999999999
 20
4.713
 30
0.0
 11
4.352999999999999
 21
4.589
 31
0.0
  0
LINE
  5
FE6
330
18
100
AcDbEntity
  8
Object
100
AcDbLine
 10
4.320999999999999
 20
4.727
 30
0.0
 11
4.29
 21
4.733
 31
0.0
  0
LINE
  5
FE7
330
18
100
AcDbEntity
  8
Object
100
AcDbLine
 10
4.29
 20
4.733
 30
0.0
 11
4.258
 21
4.727
 31
0.0
  0
LINE
  5
FE8
330
18
100
AcDbEntity
  8
Object
100
AcDbLine
 10
4.225999999999999
 20
4.589
 30
0.0
 11
4.225999999999999
 21
4.713
 31
0.0
  0
LINE
  5
FE9
330
18
100
AcDbEntity
  8
Object
100
AcDbLine
 10
4.225999999999999
 20
4.713
 30
0.0
 11
4.258
 21
4.727
 31
0.0
  0
LINE
  5
FEA
330
18
100
AcDbEntity
  8
Object
100
AcDbLine
 10
4.259999999999999
 20
4.733
 30
0.0
 11
4.225999999999999
 21
4.713
 31
0.0
  0
LINE
  5
FEB
330
18
100
AcDbEntity
  8
Object
100
AcDbLine
 10
4.592
 20
5.219
 30
0.0
 11
4.578999999999999
 21
5.225999999999999
 31
0.0
  0
LINE
  5
FEC
330
18
100
AcDbEntity
  8
Object
100
AcDbLine
 10
4.578999999999999
 20
5.225999999999999
 30
0.0
 11
4.572
 21
5.222999999999999
 31
0.0
  0
LINE
  5
FED
330
18
100
AcDbEntity
  8
Object
100
AcDbLine
 10
4.572
 20
5.222999999999999
 30
0.0
 11
4.549999999999999
 21
5.219999999999999
 31
0.0
  0
LINE
  5
FEE
330
18
100
AcDbEntity
  8
Object
100
AcDbLine
 10
4.549999999999999
 20
5.219999999999999
 30
0.0
 11
4.536
 21
5.219
 31
0.0
  0
LINE
  5
FEF
330
18
100
AcDbEntity
  8
Object
100
AcDbLine
 10
4.53
 20
5.233
 30
0.0
 11
4.548
 21
5.233
 31
0.0
  0
LINE
  5
FF0
330
18
100
AcDbEntity
  8
Object
100
AcDbLine
 10
4.548
 20
5.233
 30
0.0
 11
4.524
 21
5.23
 31
0.0
  0
LINE
  5
FF1
330
18
100
AcDbEntity
  8
Object
100
AcDbLine
 10
4.53
 20
5.233
 30
0.0
 11
4.506999999999999
 21
5.233
 31
0.0
  0
LINE
  5
FF2
330
18
100
AcDbEntity
  8
Object
100
AcDbLine
 10
4.496999999999999
 20
5.227999999999999
 30
0.0
 11
4.524
 21
5.23
 31
0.0
  0
LINE
  5
FF3
330
18
100
AcDbEntity
  8
Object
100
AcDbLine
 10
4.506999999999999
 20
5.233
 30
0.0
 11
4.482
 21
5.233
 31
0.0
  0
LINE
  5
FF4
330
18
100
AcDbEntity
  8
Object
100
AcDbLine
 10
4.467999999999999
 20
5.225999999999999
 30
0.0
 11
4.496999999999999
 21
5.227999999999999
 31
0.0
  0
LINE
  5
FF5
330
18
100
AcDbEntity
  8
Object
100
AcDbLine
 10
4.482
 20
5.233
 30
0.0
 11
4.456999999999999
 21
5.233
 31
0.0
  0
LINE
  5
FF6
330
18
100
AcDbEntity
  8
Object
100
AcDbLine
 10
4.44
 20
5.222999999999999
 30
0.0
 11
4.467999999999999
 21
5.225999999999999
 31
0.0
  0
LINE
  5
FF7
330
18
100
AcDbEntity
  8
Object
100
AcDbLine
 10
4.456999999999999
 20
5.233
 30
0.0
 11
4.431
 21
5.233
 31
0.0
  0
LINE
  5
FF8
330
18
100
AcDbEntity
  8
Object
100
AcDbLine
 10
4.415
 20
5.221
 30
0.0
 11
4.44
 21
5.222999999999999
 31
0.0
  0
LINE
  5
FF9
330
18
100
AcDbEntity
  8
Object
100
AcDbLine
 10
4.431
 20
5.233
 30
0.0
 11
4.408
 21
5.233
 31
0.0
  0
LINE
  5
FFA
330
18
100
AcDbEntity
  8
Object
100
AcDbLine
 10
4.408
 20
5.233
 30
0.0
 11
4.387
 21
5.233
 31
0.0
  0
LINE
  5
FFB
330
18
100
AcDbEntity
  8
Object
100
AcDbLine
 10
4.395999999999999
 20
5.219
 30
0.0
 11
4.415
 21
5.221
 31
0.0
  0
LINE
  5
FFC
330
18
100
AcDbEntity
  8
Object
100
AcDbLine
 10
4.387
 20
5.233
 30
0.0
 11
4.37
 21
5.233
 31
0.0
  0
LINE
  5
FFD
330
18
100
AcDbEntity
  8
Object
100
AcDbLine
 10
4.37
 20
5.233
 30
0.0
 11
4.357999999999999
 21
5.230999999999999
 31
0.0
  0
LINE
  5
FFE
330
18
100
AcDbEntity
  8
Object
100
AcDbLine
 10
4.371
 20
5.219
 30
0.0
 11
4.354
 21
5.229
 31
0.0
  0
LINE
  5
FFF
330
18
100
AcDbEntity
  8
Object
100
AcDbLine
 10
4.354
 20
5.229
 30
0.0
 11
4.357999999999999
 21
5.230999999999999
 31
0.0
  0
LINE
  5
1000
330
18
100
AcDbEntity
  8
Object
100
AcDbLine
 10
4.576
 20
5.233
 30
0.0
 11
4.578999999999999
 21
5.233
 31
0.0
  0
LINE
  5
1001
330
18
100
AcDbEntity
  8
Object
100
AcDbLine
 10
4.578999999999999
 20
5.233
 30
0.0
 11
4.578999999999999
 21
5.225999999999999
 31
0.0
  0
LINE
  5
1002
330
18
100
AcDbEntity
  8
Object
100
AcDbLine
 10
4.576
 20
5.233
 30
0.0
 11
4.565
 21
5.233
 31
0.0
  0
LINE
  5
1003
330
18
100
AcDbEntity
  8
Object
100
AcDbLine
 10
4.565
 20
5.233
 30
0.0
 11
4.548
 21
5.233
 31
0.0
  0
LINE
  5
1004
330
18
100
AcDbEntity
  8
Object
100
AcDbLine
 10
4.354
 20
5.233
 30
0.0
 11
4.354
 21
5.229
 31
0.0
  0
LINE
  5
1005
330
18
100
AcDbEntity
  8
Object
100
AcDbLine
 10
4.578999999999999
 20
5.233
 30
0.0
 11
4.576
 21
5.233
 31
0.0
  0
LINE
  5
1006
330
18
100
AcDbEntity
  8
Object
100
AcDbLine
 10
4.576
 20
5.233
 30
0.0
 11
4.565
 21
5.233
 31
0.0
  0
LINE
  5
1007
330
18
100
AcDbEntity
  8
Object
100
AcDbLine
 10
4.565
 20
5.233
 30
0.0
 11
4.548
 21
5.233
 31
0.0
  0
LINE
  5
1008
330
18
100
AcDbEntity
  8
Object
100
AcDbLine
 10
4.548
 20
5.233
 30
0.0
 11
4.53
 21
5.233
 31
0.0
  0
LINE
  5
1009
330
18
100
AcDbEntity
  8
Object
100
AcDbLine
 10
4.53
 20
5.233
 30
0.0
 11
4.506999999999999
 21
5.233
 31
0.0
  0
LINE
  5
100A
330
18
100
AcDbEntity
  8
Object
100
AcDbLine
 10
4.506999999999999
 20
5.233
 30
0.0
 11
4.482
 21
5.233
 31
0.0
  0
LINE
  5
100B
330
18
100
AcDbEntity
  8
Object
100
AcDbLine
 10
4.482
 20
5.233
 30
0.0
 11
4.456999999999999
 21
5.233
 31
0.0
  0
LINE
  5
100C
330
18
100
AcDbEntity
  8
Object
100
AcDbLine
 10
4.456999999999999
 20
5.233
 30
0.0
 11
4.431
 21
5.233
 31
0.0
  0
LINE
  5
100D
330
18
100
AcDbEntity
  8
Object
100
AcDbLine
 10
4.431
 20
5.233
 30
0.0
 11
4.408
 21
5.233
 31
0.0
  0
LINE
  5
100E
330
18
100
AcDbEntity
  8
Object
100
AcDbLine
 10
4.408
 20
5.233
 30
0.0
 11
4.387
 21
5.233
 31
0.0
  0
LINE
  5
100F
330
18
100
AcDbEntity
  8
Object
100
AcDbLine
 10
4.387
 20
5.233
 30
0.0
 11
4.37
 21
5.233
 31
0.0
  0
LINE
  5
1010
330
18
100
AcDbEntity
  8
Object
100
AcDbLine
 10
4.37
 20
5.233
 30
0.0
 11
4.360999999999999
 21
5.233
 31
0.0
  0
LINE
  5
1011
330
18
100
AcDbEntity
  8
Object
100
AcDbLine
 10
4.360999999999999
 20
5.233
 30
0.0
 11
4.355999999999999
 21
5.233
 31
0.0
  0
LINE
  5
1012
330
18
100
AcDbEntity
  8
Object
100
AcDbLine
 10
4.355999999999999
 20
5.233
 30
0.0
 11
4.354
 21
5.233
 31
0.0
  0
LINE
  5
1013
330
18
100
AcDbEntity
  8
Object
100
AcDbLine
 10
4.37
 20
5.233
 30
0.0
 11
4.360999999999999
 21
5.233
 31
0.0
  0
LINE
  5
1014
330
18
100
AcDbEntity
  8
Object
100
AcDbLine
 10
4.360999999999999
 20
5.233
 30
0.0
 11
4.355999999999999
 21
5.233
 31
0.0
  0
LINE
  5
1015
330
18
100
AcDbEntity
  8
Object
100
AcDbLine
 10
4.355999999999999
 20
5.233
 30
0.0
 11
4.354
 21
5.233
 31
0.0
  0
LINE
  5
1016
330
18
100
AcDbEntity
  8
Object
100
AcDbLine
 10
7.376
 20
12.698
 30
0.0
 11
7.427999999999999
 21
12.698
 31
0.0
  0
LINE
  5
1017
330
18
100
AcDbEntity
  8
Object
100
AcDbLine
 10
12.214
 20
11.338
 30
0.0
 11
12.214
 21
12.588
 31
0.0
  0
LINE
  5
1018
330
18
100
AcDbEntity
  8
Object
100
AcDbLine
 10
12.214
 20
12.588
 30
0.0
 11
11.839
 21
12.963
 31
0.0
  0
LINE
  5
1019
330
18
100
AcDbEntity
  8
Object
100
AcDbLine
 10
11.839
 20
10.963
 30
0.0
 11
12.214
 21
11.338
 31
0.0
  0
LINE
  5
101A
330
18
100
AcDbEntity
  8
Object
100
AcDbLine
 10
8.854
 20
12.103
 30
0.0
 11
11.317
 21
12.103
 31
0.0
  0
LINE
  5
101B
330
18
100
AcDbEntity
  8
Object
100
AcDbLine
 10
11.317
 20
11.823
 30
0.0
 11
8.854
 21
11.823
 31
0.0
  0
LINE
  5
101C
330
18
100
AcDbEntity
  8
Object
100
AcDbLine
 10
8.332
 20
11.919
 30
0.0
 11
8.339
 21
11.963
 31
0.0
  0
LINE
  5
101D
330
18
100
AcDbEntity
  8
Object
100
AcDbLine
 10
8.339
 20
11.963
 30
0.0
 11
8.332
 21
12.006
 31
0.0
  0
LINE
  5
101E
330
18
100
AcDbEntity
  8
Object
100
AcDbLine
 10
8.721
 20
12.006
 30
0.0
 11
8.714
 21
11.963
 31
0.0
  0
LINE
  5
101F
330
18
100
AcDbEntity
  8
Object
100
AcDbLine
 10
8.714
 20
11.963
 30
0.0
 11
8.721
 21
11.919
 31
0.0
  0
LINE
  5
1020
330
18
100
AcDbEntity
  8
Object
100
AcDbLine
 10
8.721
 20
11.919
 30
0.0
 11
8.740999999999999
 21
11.88
 31
0.0
  0
LINE
  5
1021
330
18
100
AcDbEntity
  8
Object
100
AcDbLine
 10
8.772
 20
12.076
 30
0.0
 11
8.740999999999999
 21
12.045
 31
0.0
  0
LINE
  5
1022
330
18
100
AcDbEntity
  8
Object
100
AcDbLine
 10
8.740999999999999
 20
12.045
 30
0.0
 11
8.721
 21
12.006
 31
0.0
  0
LINE
  5
1023
330
18
100
AcDbEntity
  8
Object
100
AcDbLine
 10
8.313
 20
12.045
 30
0.0
 11
8.332
 21
12.006
 31
0.0
  0
LINE
  5
1024
330
18
100
AcDbEntity
  8
Object
100
AcDbLine
 10
8.772
 20
11.849
 30
0.0
 11
8.740999999999999
 21
11.88
 31
0.0
  0
LINE
  5
1025
330
18
100
AcDbEntity
  8
Object
100
AcDbLine
 10
8.332
 20
11.919
 30
0.0
 11
8.313
 21
11.88
 31
0.0
  0
LINE
  5
1026
330
18
100
AcDbEntity
  8
Object
100
AcDbLine
 10
8.282
 20
12.076
 30
0.0
 11
8.313
 21
12.045
 31
0.0
  0
LINE
  5
1027
330
18
100
AcDbEntity
  8
Object
100
AcDbLine
 10
8.313
 20
11.88
 30
0.0
 11
8.282
 21
11.849
 31
0.0
  0
LINE
  5
1028
330
18
100
AcDbEntity
  8
Object
100
AcDbLine
 10
8.810999999999999
 20
11.83
 30
0.0
 11
8.772
 21
11.849
 31
0.0
  0
LINE
  5
1029
330
18
100
AcDbEntity
  8
Object
100
AcDbLine
 10
8.282
 20
11.849
 30
0.0
 11
8.243
 21
11.83
 31
0.0
  0
LINE
  5
102A
330
18
100
AcDbEntity
  8
Object
100
AcDbLine
 10
8.243
 20
12.096
 30
0.0
 11
8.282
 21
12.076
 31
0.0
  0
LINE
  5
102B
330
18
100
AcDbEntity
  8
Object
100
AcDbLine
 10
8.854
 20
12.103
 30
0.0
 11
8.810999999999999
 21
12.096
 31
0.0
  0
LINE
  5
102C
330
18
100
AcDbEntity
  8
Object
100
AcDbLine
 10
8.810999999999999
 20
12.096
 30
0.0
 11
8.772
 21
12.076
 31
0.0
  0
LINE
  5
102D
330
18
100
AcDbEntity
  8
Object
100
AcDbLine
 10
8.208999999999999
 20
12.685
 30
0.0
 11
8.208999999999999
 21
12.64
 31
0.0
  0
LINE
  5
102E
330
18
100
AcDbEntity
  8
Object
100
AcDbLine
 10
8.208999999999999
 20
12.584
 30
0.0
 11
8.208999999999999
 21
12.573
 31
0.0
  0
LINE
  5
102F
330
18
100
AcDbEntity
  8
Object
100
AcDbLine
 10
8.198999999999999
 20
12.103
 30
0.0
 11
8.243
 21
12.096
 31
0.0
  0
LINE
  5
1030
330
18
100
AcDbEntity
  8
Object
100
AcDbLine
 10
8.854
 20
11.823
 30
0.0
 11
8.810999999999999
 21
11.83
 31
0.0
  0
LINE
  5
1031
330
18
100
AcDbEntity
  8
Object
100
AcDbLine
 10
8.243
 20
11.83
 30
0.0
 11
8.198999999999999
 21
11.823
 31
0.0
  0
LINE
  5
1032
330
18
100
AcDbEntity
  8
Object
100
AcDbLine
 10
8.182999999999999
 20
12.698
 30
0.0
 11
8.208999999999999
 21
12.685
 31
0.0
  0
LINE
  5
1033
330
18
100
AcDbEntity
  8
Object
100
AcDbLine
 10
8.169
 20
12.686
 30
0.0
 11
8.194
 21
12.673
 31
0.0
  0
LINE
  5
1034
330
18
100
AcDbEntity
  8
Object
100
AcDbLine
 10
8.194
 20
12.673
 30
0.0
 11
8.194
 21
12.652
 31
0.0
  0
LINE
  5
1035
330
18
100
AcDbEntity
  8
Object
100
AcDbLine
 10
8.169
 20
12.686
 30
0.0
 11
8.146
 21
12.686
 31
0.0
  0
LINE
  5
1036
330
18
100
AcDbEntity
  8
Object
100
AcDbLine
 10
8.131
 20
12.698
 30
0.0
 11
8.182999999999999
 21
12.698
 31
0.0
  0
LINE
  5
1037
330
18
100
AcDbEntity
  8
Object
100
AcDbLine
 10
8.208999999999999
 20
12.64
 30
0.0
 11
8.12
 21
12.595
 31
0.0
  0
LINE
  5
1038
330
18
100
AcDbEntity
  8
Object
100
AcDbLine
 10
8.12
 20
12.663
 30
0.0
 11
8.12
 21
12.673
 31
0.0
  0
LINE
  5
1039
330
18
100
AcDbEntity
  8
Object
100
AcDbLine
 10
8.12
 20
12.673
 30
0.0
 11
8.146
 21
12.686
 31
0.0
  0
LINE
  5
103A
330
18
100
AcDbEntity
  8
Object
100
AcDbLine
 10
8.208999999999999
 20
12.584
 30
0.0
 11
8.12
 21
12.584
 31
0.0
  0
LINE
  5
103B
330
18
100
AcDbEntity
  8
Object
100
AcDbLine
 10
8.12
 20
12.584
 30
0.0
 11
8.12
 21
12.595
 31
0.0
  0
LINE
  5
103C
330
18
100
AcDbEntity
  8
Object
100
AcDbLine
 10
8.12
 20
12.663
 30
0.0
 11
8.104
 21
12.663
 31
0.0
  0
LINE
  5
103D
330
18
100
AcDbEntity
  8
Object
100
AcDbLine
 10
8.104
 20
12.607
 30
0.0
 11
8.194
 21
12.652
 31
0.0
  0
LINE
  5
103E
330
18
100
AcDbEntity
  8
Object
100
AcDbLine
 10
8.208999999999999
 20
12.573
 30
0.0
 11
8.104
 21
12.573
 31
0.0
  0
LINE
  5
103F
330
18
100
AcDbEntity
  8
Object
100
AcDbLine
 10
8.054
 20
12.584
 30
0.0
 11
8.054
 21
12.573
 31
0.0
  0
LINE
  5
1040
330
18
100
AcDbEntity
  8
Object
100
AcDbLine
 10
8.104
 20
12.573
 30
0.0
 11
8.104
 21
12.607
 31
0.0
  0
LINE
  5
1041
330
18
100
AcDbEntity
  8
Object
100
AcDbLine
 10
8.054
 20
12.584
 30
0.0
 11
8.05
 21
12.584
 31
0.0
  0
LINE
  5
1042
330
18
100
AcDbEntity
  8
Object
100
AcDbLine
 10
8.05
 20
12.584
 30
0.0
 11
8.05
 21
12.698
 31
0.0
  0
LINE
  5
1043
330
18
100
AcDbEntity
  8
Object
100
AcDbLine
 10
8.131
 20
12.698
 30
0.0
 11
8.104
 21
12.685
 31
0.0
  0
LINE
  5
1044
330
18
100
AcDbEntity
  8
Object
100
AcDbLine
 10
8.104
 20
12.685
 30
0.0
 11
8.104
 21
12.663
 31
0.0
  0
LINE
  5
1045
330
18
100
AcDbEntity
  8
Object
100
AcDbLine
 10
8.044999999999999
 20
12.698
 30
0.0
 11
8.05
 21
12.698
 31
0.0
  0
LINE
  5
1046
330
18
100
AcDbEntity
  8
Object
100
AcDbLine
 10
8.041999999999999
 20
12.665
 30
0.0
 11
8.044
 21
12.672
 31
0.0
  0
LINE
  5
1047
330
18
100
AcDbEntity
  8
Object
100
AcDbLine
 10
8.044
 20
12.672
 30
0.0
 11
8.044
 21
12.584
 31
0.0
  0
LINE
  5
1048
330
18
100
AcDbEntity
  8
Object
100
AcDbLine
 10
8.044
 20
12.584
 30
0.0
 11
8.04
 21
12.584
 31
0.0
  0
LINE
  5
1049
330
18
100
AcDbEntity
  8
Object
100
AcDbLine
 10
8.054
 20
12.573
 30
0.0
 11
8.04
 21
12.573
 31
0.0
  0
LINE
  5
104A
330
18
100
AcDbEntity
  8
Object
100
AcDbLine
 10
8.04
 20
12.573
 30
0.0
 11
8.04
 21
12.584
 31
0.0
  0
LINE
  5
104B
330
18
100
AcDbEntity
  8
Object
100
AcDbLine
 10
7.985999999999999
 20
12.584
 30
0.0
 11
7.985999999999999
 21
12.573
 31
0.0
  0
LINE
  5
104C
330
18
100
AcDbEntity
  8
Object
100
AcDbLine
 10
7.985999999999999
 20
12.698
 30
0.0
 11
7.985999999999999
 21
12.686
 31
0.0
  0
LINE
  5
104D
330
18
100
AcDbEntity
  8
Object
100
AcDbLine
 10
8.041999999999999
 20
12.665
 30
0.0
 11
8.037
 21
12.678
 31
0.0
  0
LINE
  5
104E
330
18
100
AcDbEntity
  8
Object
100
AcDbLine
 10
8.037
 20
12.678
 30
0.0
 11
8.044999999999999
 21
12.698
 31
0.0
  0
LINE
  5
104F
330
18
100
AcDbEntity
  8
Object
100
AcDbLine
 10
7.964
 20
12.64
 30
0.0
 11
7.964
 21
12.63
 31
0.0
  0
LINE
  5
1050
330
18
100
AcDbEntity
  8
Object
100
AcDbLine
 10
7.985999999999999
 20
12.584
 30
0.0
 11
7.908999999999999
 21
12.584
 31
0.0
  0
LINE
  5
1051
330
18
100
AcDbEntity
  8
Object
100
AcDbLine
 10
7.908999999999999
 20
12.584
 30
0.0
 11
7.908999999999999
 21
12.63
 31
0.0
  0
LINE
  5
1052
330
18
100
AcDbEntity
  8
Object
100
AcDbLine
 10
7.908999999999999
 20
12.63
 30
0.0
 11
7.964
 21
12.63
 31
0.0
  0
LINE
  5
1053
330
18
100
AcDbEntity
  8
Object
100
AcDbLine
 10
7.964
 20
12.64
 30
0.0
 11
7.908999999999999
 21
12.64
 31
0.0
  0
LINE
  5
1054
330
18
100
AcDbEntity
  8
Object
100
AcDbLine
 10
7.908999999999999
 20
12.64
 30
0.0
 11
7.908999999999999
 21
12.686
 31
0.0
  0
LINE
  5
1055
330
18
100
AcDbEntity
  8
Object
100
AcDbLine
 10
7.908999999999999
 20
12.686
 30
0.0
 11
7.985999999999999
 21
12.686
 31
0.0
  0
LINE
  5
1056
330
18
100
AcDbEntity
  8
Object
100
AcDbLine
 10
7.894
 20
12.698
 30
0.0
 11
7.985999999999999
 21
12.698
 31
0.0
  0
LINE
  5
1057
330
18
100
AcDbEntity
  8
Object
100
AcDbLine
 10
7.985999999999999
 20
12.573
 30
0.0
 11
7.894
 21
12.573
 31
0.0
  0
LINE
  5
1058
330
18
100
AcDbEntity
  8
Object
100
AcDbLine
 10
7.894
 20
12.573
 30
0.0
 11
7.894
 21
12.698
 31
0.0
  0
LINE
  5
1059
330
18
100
AcDbEntity
  8
Object
100
AcDbLine
 10
7.857
 20
12.634
 30
0.0
 11
7.857
 21
12.586
 31
0.0
  0
LINE
  5
105A
330
18
100
AcDbEntity
  8
Object
100
AcDbLine
 10
7.846
 20
12.686
 30
0.0
 11
7.846
 21
12.646
 31
0.0
  0
LINE
  5
105B
330
18
100
AcDbEntity
  8
Object
100
AcDbLine
 10
7.857
 20
12.634
 30
0.0
 11
7.842999999999999
 21
12.642
 31
0.0
  0
LINE
  5
105C
330
18
100
AcDbEntity
  8
Object
100
AcDbLine
 10
7.842999999999999
 20
12.642
 30
0.0
 11
7.846
 21
12.646
 31
0.0
  0
LINE
  5
105D
330
18
100
AcDbEntity
  8
Object
100
AcDbLine
 10
7.836
 20
12.698
 30
0.0
 11
7.846
 21
12.686
 31
0.0
  0
LINE
  5
105E
330
18
100
AcDbEntity
  8
Object
100
AcDbLine
 10
7.857
 20
12.586
 30
0.0
 11
7.836
 21
12.573
 31
0.0
  0
LINE
  5
105F
330
18
100
AcDbEntity
  8
Object
100
AcDbLine
 10
7.751
 20
12.698
 30
0.0
 11
7.836
 21
12.698
 31
0.0
  0
LINE
  5
1060
330
18
100
AcDbEntity
  8
Object
100
AcDbLine
 10
7.836
 20
12.573
 30
0.0
 11
7.751
 21
12.573
 31
0.0
  0
LINE
  5
1061
330
18
100
AcDbEntity
  8
Object
100
AcDbLine
 10
7.711
 20
12.683
 30
0.0
 11
7.711
 21
12.643
 31
0.0
  0
LINE
  5
1062
330
18
100
AcDbEntity
  8
Object
100
AcDbLine
 10
7.751
 20
12.573
 30
0.0
 11
7.751
 21
12.698
 31
0.0
  0
LINE
  5
1063
330
18
100
AcDbEntity
  8
Object
100
AcDbLine
 10
7.693999999999999
 20
12.573
 30
0.0
 11
7.711
 21
12.573
 31
0.0
  0
LINE
  5
1064
330
18
100
AcDbEntity
  8
Object
100
AcDbLine
 10
7.711
 20
12.573
 30
0.0
 11
7.689
 21
12.633
 31
0.0
  0
LINE
  5
1065
330
18
100
AcDbEntity
  8
Object
100
AcDbLine
 10
7.689
 20
12.633
 30
0.0
 11
7.711
 21
12.643
 31
0.0
  0
LINE
  5
1066
330
18
100
AcDbEntity
  8
Object
100
AcDbLine
 10
7.682999999999999
 20
12.698
 30
0.0
 11
7.711
 21
12.683
 31
0.0
  0
LINE
  5
1067
330
18
100
AcDbEntity
  8
Object
100
AcDbLine
 10
7.693999999999999
 20
12.573
 30
0.0
 11
7.674
 21
12.63
 31
0.0
  0
LINE
  5
1068
330
18
100
AcDbEntity
  8
Object
100
AcDbLine
 10
7.621
 20
12.573
 30
0.0
 11
7.621
 21
12.63
 31
0.0
  0
LINE
  5
1069
330
18
100
AcDbEntity
  8
Object
100
AcDbLine
 10
7.621
 20
12.63
 30
0.0
 11
7.674
 21
12.63
 31
0.0
  0
LINE
  5
106A
330
18
100
AcDbEntity
  8
Object
100
AcDbLine
 10
7.605999999999999
 20
12.698
 30
0.0
 11
7.682999999999999
 21
12.698
 31
0.0
  0
LINE
  5
106B
330
18
100
AcDbEntity
  8
Object
100
AcDbLine
 10
7.621
 20
12.573
 30
0.0
 11
7.605999999999999
 21
12.573
 31
0.0
  0
LINE
  5
106C
330
18
100
AcDbEntity
  8
Object
100
AcDbLine
 10
7.605999999999999
 20
12.573
 30
0.0
 11
7.605999999999999
 21
12.698
 31
0.0
  0
LINE
  5
106D
330
18
100
AcDbEntity
  8
Object
100
AcDbLine
 10
7.564
 20
12.698
 30
0.0
 11
7.564
 21
12.686
 31
0.0
  0
LINE
  5
106E
330
18
100
AcDbEntity
  8
Object
100
AcDbLine
 10
7.532
 20
12.573
 30
0.0
 11
7.532
 21
12.686
 31
0.0
  0
LINE
  5
106F
330
18
100
AcDbEntity
  8
Object
100
AcDbLine
 10
7.532
 20
12.686
 30
0.0
 11
7.564
 21
12.686
 31
0.0
  0
LINE
  5
1070
330
18
100
AcDbEntity
  8
Object
100
AcDbLine
 10
7.532
 20
12.573
 30
0.0
 11
7.519
 21
12.573
 31
0.0
  0
LINE
  5
1071
330
18
100
AcDbEntity
  8
Object
100
AcDbLine
 10
7.488
 20
12.698
 30
0.0
 11
7.564
 21
12.698
 31
0.0
  0
LINE
  5
1072
330
18
100
AcDbEntity
  8
Object
100
AcDbLine
 10
7.453999999999999
 20
12.639
 30
0.0
 11
7.453999999999999
 21
12.586
 31
0.0
  0
LINE
  5
1073
330
18
100
AcDbEntity
  8
Object
100
AcDbLine
 10
7.453999999999999
 20
12.685
 30
0.0
 11
7.453999999999999
 21
12.663
 31
0.0
  0
LINE
  5
1074
330
18
100
AcDbEntity
  8
Object
100
AcDbLine
 10
7.488
 20
12.698
 30
0.0
 11
7.488
 21
12.686
 31
0.0
  0
LINE
  5
1075
330
18
100
AcDbEntity
  8
Object
100
AcDbLine
 10
7.488
 20
12.686
 30
0.0
 11
7.519
 21
12.686
 31
0.0
  0
LINE
  5
1076
330
18
100
AcDbEntity
  8
Object
100
AcDbLine
 10
7.519
 20
12.686
 30
0.0
 11
7.519
 21
12.573
 31
0.0
  0
LINE
  5
1077
330
18
100
AcDbEntity
  8
Object
100
AcDbLine
 10
7.453999999999999
 20
12.663
 30
0.0
 11
7.439
 21
12.663
 31
0.0
  0
LINE
  5
1078
330
18
100
AcDbEntity
  8
Object
100
AcDbLine
 10
7.453999999999999
 20
12.586
 30
0.0
 11
7.427999999999999
 21
12.573
 31
0.0
  0
LINE
  5
1079
330
18
100
AcDbEntity
  8
Object
100
AcDbLine
 10
7.427999999999999
 20
12.652
 30
0.0
 11
7.453999999999999
 21
12.639
 31
0.0
  0
LINE
  5
107A
330
18
100
AcDbEntity
  8
Object
100
AcDbLine
 10
7.427999999999999
 20
12.698
 30
0.0
 11
7.453999999999999
 21
12.685
 31
0.0
  0
LINE
  5
107B
330
18
100
AcDbEntity
  8
Object
100
AcDbLine
 10
7.414
 20
12.686
 30
0.0
 11
7.439
 21
12.673
 31
0.0
  0
LINE
  5
107C
330
18
100
AcDbEntity
  8
Object
100
AcDbLine
 10
7.439
 20
12.673
 30
0.0
 11
7.439
 21
12.663
 31
0.0
  0
LINE
  5
107D
330
18
100
AcDbEntity
  8
Object
100
AcDbLine
 10
7.414
 20
12.686
 30
0.0
 11
7.391
 21
12.686
 31
0.0
  0
LINE
  5
107E
330
18
100
AcDbEntity
  8
Object
100
AcDbLine
 10
7.376
 20
12.698
 30
0.0
 11
7.427999999999999
 21
12.698
 31
0.0
  0
LINE
  5
107F
330
18
100
AcDbEntity
  8
Object
100
AcDbLine
 10
7.376
 20
12.652
 30
0.0
 11
7.427999999999999
 21
12.652
 31
0.0
  0
LINE
  5
1080
330
18
100
AcDbEntity
  8
Object
100
AcDbLine
 10
7.427999999999999
 20
12.573
 30
0.0
 11
7.376
 21
12.573
 31
0.0
  0
LINE
  5
1081
330
18
100
AcDbEntity
  8
Object
100
AcDbLine
 10
7.376
 20
12.652
 30
0.0
 11
7.365
 21
12.647
 31
0.0
  0
LINE
  5
1082
330
18
100
AcDbEntity
  8
Object
100
AcDbLine
 10
7.365
 20
12.647
 30
0.0
 11
7.365
 21
12.673
 31
0.0
  0
LINE
  5
1083
330
18
100
AcDbEntity
  8
Object
100
AcDbLine
 10
7.365
 20
12.673
 30
0.0
 11
7.391
 21
12.686
 31
0.0
  0
LINE
  5
1084
330
18
100
AcDbEntity
  8
Object
100
AcDbLine
 10
7.376
 20
12.573
 30
0.0
 11
7.349
 21
12.586
 31
0.0
  0
LINE
  5
1085
330
18
100
AcDbEntity
  8
Object
100
AcDbLine
 10
7.349
 20
12.586
 30
0.0
 11
7.349
 21
12.685
 31
0.0
  0
LINE
  5
1086
330
18
100
AcDbEntity
  8
Object
100
AcDbLine
 10
7.310999999999999
 20
12.683
 30
0.0
 11
7.310999999999999
 21
12.643
 31
0.0
  0
LINE
  5
1087
330
18
100
AcDbEntity
  8
Object
100
AcDbLine
 10
7.294
 20
12.573
 30
0.0
 11
7.310999999999999
 21
12.573
 31
0.0
  0
LINE
  5
1088
330
18
100
AcDbEntity
  8
Object
100
AcDbLine
 10
7.310999999999999
 20
12.573
 30
0.0
 11
7.289
 21
12.633
 31
0.0
  0
LINE
  5
1089
330
18
100
AcDbEntity
  8
Object
100
AcDbLine
 10
7.289
 20
12.633
 30
0.0
 11
7.310999999999999
 21
12.643
 31
0.0
  0
LINE
  5
108A
330
18
100
AcDbEntity
  8
Object
100
AcDbLine
 10
7.349
 20
12.685
 30
0.0
 11
7.376
 21
12.698
 31
0.0
  0
LINE
  5
108B
330
18
100
AcDbEntity
  8
Object
100
AcDbLine
 10
7.283
 20
12.698
 30
0.0
 11
7.310999999999999
 21
12.683
 31
0.0
  0
LINE
  5
108C
330
18
100
AcDbEntity
  8
Object
100
AcDbLine
 10
7.294
 20
12.573
 30
0.0
 11
7.274
 21
12.63
 31
0.0
  0
LINE
  5
108D
330
18
100
AcDbEntity
  8
Object
100
AcDbLine
 10
7.221
 20
12.573
 30
0.0
 11
7.221
 21
12.63
 31
0.0
  0
LINE
  5
108E
330
18
100
AcDbEntity
  8
Object
100
AcDbLine
 10
7.221
 20
12.63
 30
0.0
 11
7.274
 21
12.63
 31
0.0
  0
LINE
  5
108F
330
18
100
AcDbEntity
  8
Object
100
AcDbLine
 10
7.206
 20
12.698
 30
0.0
 11
7.283
 21
12.698
 31
0.0
  0
LINE
  5
1090
330
18
100
AcDbEntity
  8
Object
100
AcDbLine
 10
7.221
 20
12.573
 30
0.0
 11
7.206
 21
12.573
 31
0.0
  0
LINE
  5
1091
330
18
100
AcDbEntity
  8
Object
100
AcDbLine
 10
7.166
 20
12.698
 30
0.0
 11
7.166
 21
12.686
 31
0.0
  0
LINE
  5
1092
330
18
100
AcDbEntity
  8
Object
100
AcDbLine
 10
7.206
 20
12.573
 30
0.0
 11
7.206
 21
12.698
 31
0.0
  0
LINE
  5
1093
330
18
100
AcDbEntity
  8
Object
100
AcDbLine
 10
7.144
 20
12.64
 30
0.0
 11
7.144
 21
12.63
 31
0.0
  0
LINE
  5
1094
330
18
100
AcDbEntity
  8
Object
100
AcDbLine
 10
7.166
 20
12.686
 30
0.0
 11
7.089
 21
12.686
 31
0.0
  0
LINE
  5
1095
330
18
100
AcDbEntity
  8
Object
100
AcDbLine
 10
7.089
 20
12.573
 30
0.0
 11
7.089
 21
12.63
 31
0.0
  0
LINE
  5
1096
330
18
100
AcDbEntity
  8
Object
100
AcDbLine
 10
7.089
 20
12.63
 30
0.0
 11
7.144
 21
12.63
 31
0.0
  0
LINE
  5
1097
330
18
100
AcDbEntity
  8
Object
100
AcDbLine
 10
7.144
 20
12.64
 30
0.0
 11
7.089
 21
12.64
 31
0.0
  0
LINE
  5
1098
330
18
100
AcDbEntity
  8
Object
100
AcDbLine
 10
7.089
 20
12.64
 30
0.0
 11
7.089
 21
12.686
 31
0.0
  0
LINE
  5
1099
330
18
100
AcDbEntity
  8
Object
100
AcDbLine
 10
7.089
 20
12.573
 30
0.0
 11
7.073999999999999
 21
12.573
 31
0.0
  0
LINE
  5
109A
330
18
100
AcDbEntity
  8
Object
100
AcDbLine
 10
7.073999999999999
 20
12.573
 30
0.0
 11
7.073999999999999
 21
12.698
 31
0.0
  0
LINE
  5
109B
330
18
100
AcDbEntity
  8
Object
100
AcDbLine
 10
6.374
 20
12.698
 30
0.0
 11
6.374
 21
12.686
 31
0.0
  0
LINE
  5
109C
330
18
100
AcDbEntity
  8
Object
100
AcDbLine
 10
6.342999999999999
 20
12.573
 30
0.0
 11
6.342999999999999
 21
12.686
 31
0.0
  0
LINE
  5
109D
330
18
100
AcDbEntity
  8
Object
100
AcDbLine
 10
6.342999999999999
 20
12.686
 30
0.0
 11
6.374
 21
12.686
 31
0.0
  0
LINE
  5
109E
330
18
100
AcDbEntity
  8
Object
100
AcDbLine
 10
6.33
 20
12.573
 30
0.0
 11
6.33
 21
12.686
 31
0.0
  0
LINE
  5
109F
330
18
100
AcDbEntity
  8
Object
100
AcDbLine
 10
6.33
 20
12.686
 30
0.0
 11
6.298
 21
12.686
 31
0.0
  0
LINE
  5
10A0
330
18
100
AcDbEntity
  8
Object
100
AcDbLine
 10
6.298
 20
12.686
 30
0.0
 11
6.298
 21
12.698
 31
0.0
  0
LINE
  5
10A1
330
18
100
AcDbEntity
  8
Object
100
AcDbLine
 10
6.241999999999999
 20
12.698
 30
0.0
 11
6.241999999999999
 21
12.686
 31
0.0
  0
LINE
  5
10A2
330
18
100
AcDbEntity
  8
Object
100
AcDbLine
 10
6.241999999999999
 20
12.584
 30
0.0
 11
6.241999999999999
 21
12.573
 31
0.0
  0
LINE
  5
10A3
330
18
100
AcDbEntity
  8
Object
100
AcDbLine
 10
6.241999999999999
 20
12.686
 30
0.0
 11
6.238999999999999
 21
12.686
 31
0.0
  0
LINE
  5
10A4
330
18
100
AcDbEntity
  8
Object
100
AcDbLine
 10
6.241999999999999
 20
12.584
 30
0.0
 11
6.238999999999999
 21
12.584
 31
0.0
  0
LINE
  5
10A5
330
18
100
AcDbEntity
  8
Object
100
AcDbLine
 10
6.238999999999999
 20
12.584
 30
0.0
 11
6.238999999999999
 21
12.686
 31
0.0
  0
LINE
  5
10A6
330
18
100
AcDbEntity
  8
Object
100
AcDbLine
 10
6.23
 20
12.584
 30
0.0
 11
6.232
 21
12.584
 31
0.0
  0
LINE
  5
10A7
330
18
100
AcDbEntity
  8
Object
100
AcDbLine
 10
6.23
 20
12.686
 30
0.0
 11
6.232
 21
12.686
 31
0.0
  0
LINE
  5
10A8
330
18
100
AcDbEntity
  8
Object
100
AcDbLine
 10
6.232
 20
12.686
 30
0.0
 11
6.232
 21
12.584
 31
0.0
  0
LINE
  5
10A9
330
18
100
AcDbEntity
  8
Object
100
AcDbLine
 10
6.23
 20
12.686
 30
0.0
 11
6.23
 21
12.698
 31
0.0
  0
LINE
  5
10AA
330
18
100
AcDbEntity
  8
Object
100
AcDbLine
 10
6.189
 20
12.698
 30
0.0
 11
6.189
 21
12.599
 31
0.0
  0
LINE
  5
10AB
330
18
100
AcDbEntity
  8
Object
100
AcDbLine
 10
6.23
 20
12.573
 30
0.0
 11
6.23
 21
12.584
 31
0.0
  0
LINE
  5
10AC
330
18
100
AcDbEntity
  8
Object
100
AcDbLine
 10
6.189
 20
12.599
 30
0.0
 11
6.165
 21
12.573
 31
0.0
  0
LINE
  5
10AD
330
18
100
AcDbEntity
  8
Object
100
AcDbLine
 10
6.173
 20
12.607
 30
0.0
 11
6.153
 21
12.584
 31
0.0
  0
LINE
  5
10AE
330
18
100
AcDbEntity
  8
Object
100
AcDbLine
 10
6.153
 20
12.584
 30
0.0
 11
6.118999999999999
 21
12.584
 31
0.0
  0
LINE
  5
10AF
330
18
100
AcDbEntity
  8
Object
100
AcDbLine
 10
6.118999999999999
 20
12.584
 30
0.0
 11
6.099
 21
12.607
 31
0.0
  0
LINE
  5
10B0
330
18
100
AcDbEntity
  8
Object
100
AcDbLine
 10
6.099
 20
12.607
 30
0.0
 11
6.099
 21
12.698
 31
0.0
  0
LINE
  5
10B1
330
18
100
AcDbEntity
  8
Object
100
AcDbLine
 10
6.173
 20
12.607
 30
0.0
 11
6.173
 21
12.698
 31
0.0
  0
LINE
  5
10B2
330
18
100
AcDbEntity
  8
Object
100
AcDbLine
 10
6.084
 20
12.599
 30
0.0
 11
6.084
 21
12.698
 31
0.0
  0
LINE
  5
10B3
330
18
100
AcDbEntity
  8
Object
100
AcDbLine
 10
6.041
 20
12.666
 30
0.0
 11
6.041
 21
12.604
 31
0.0
  0
LINE
  5
10B4
330
18
100
AcDbEntity
  8
Object
100
AcDbLine
 10
6.108
 20
12.573
 30
0.0
 11
6.084
 21
12.599
 31
0.0
  0
LINE
  5
10B5
330
18
100
AcDbEntity
  8
Object
100
AcDbLine
 10
6.012999999999999
 20
12.698
 30
0.0
 11
6.041
 21
12.666
 31
0.0
  0
LINE
  5
10B6
330
18
100
AcDbEntity
  8
Object
100
AcDbLine
 10
6.041
 20
12.604
 30
0.0
 11
6.012999999999999
 21
12.573
 31
0.0
  0
LINE
  5
10B7
330
18
100
AcDbEntity
  8
Object
100
AcDbLine
 10
5.891
 20
12.698
 30
0.0
 11
5.891
 21
12.573
 31
0.0
  0
LINE
  5
10B8
330
18
100
AcDbEntity
  8
Object
100
AcDbLine
 10
5.935999999999999
 20
12.573
 30
0.0
 11
5.935999999999999
 21
12.698
 31
0.0
  0
LINE
  5
10B9
330
18
100
AcDbEntity
  8
Object
100
AcDbLine
 10
5.876
 20
12.698
 30
0.0
 11
5.876
 21
12.601
 31
0.0
  0
LINE
  5
10BA
330
18
100
AcDbEntity
  8
Object
100
AcDbLine
 10
5.876
 20
12.601
 30
0.0
 11
5.802
 21
12.698
 31
0.0
  0
LINE
  5
10BB
330
18
100
AcDbEntity
  8
Object
100
AcDbLine
 10
5.802
 20
12.573
 30
0.0
 11
5.802
 21
12.669
 31
0.0
  0
LINE
  5
10BC
330
18
100
AcDbEntity
  8
Object
100
AcDbLine
 10
5.802
 20
12.669
 30
0.0
 11
5.876
 21
12.573
 31
0.0
  0
LINE
  5
10BD
330
18
100
AcDbEntity
  8
Object
100
AcDbLine
 10
5.786
 20
12.573
 30
0.0
 11
5.786
 21
12.698
 31
0.0
  0
LINE
  5
10BE
330
18
100
AcDbEntity
  8
Object
100
AcDbLine
 10
5.690999999999999
 20
12.698
 30
0.0
 11
5.735999999999999
 21
12.573
 31
0.0
  0
LINE
  5
10BF
330
18
100
AcDbEntity
  8
Object
100
AcDbLine
 10
5.719
 20
12.573
 30
0.0
 11
5.711
 21
12.595
 31
0.0
  0
LINE
  5
10C0
330
18
100
AcDbEntity
  8
Object
100
AcDbLine
 10
5.645999999999999
 20
12.573
 30
0.0
 11
5.653999999999999
 21
12.595
 31
0.0
  0
LINE
  5
10C1
330
18
100
AcDbEntity
  8
Object
100
AcDbLine
 10
5.653999999999999
 20
12.595
 30
0.0
 11
5.711
 21
12.595
 31
0.0
  0
LINE
  5
10C2
330
18
100
AcDbEntity
  8
Object
100
AcDbLine
 10
5.591
 20
12.683
 30
0.0
 11
5.591
 21
12.643
 31
0.0
  0
LINE
  5
10C3
330
18
100
AcDbEntity
  8
Object
100
AcDbLine
 10
5.629
 20
12.573
 30
0.0
 11
5.674999999999999
 21
12.698
 31
0.0
  0
LINE
  5
10C4
330
18
100
AcDbEntity
  8
Object
100
AcDbLine
 10
5.591
 20
12.643
 30
0.0
 11
5.564
 21
12.63
 31
0.0
  0
LINE
  5
10C5
330
18
100
AcDbEntity
  8
Object
100
AcDbLine
 10
5.564
 20
12.698
 30
0.0
 11
5.591
 21
12.683
 31
0.0
  0
LINE
  5
10C6
330
18
100
AcDbEntity
  8
Object
100
AcDbLine
 10
5.501999999999999
 20
12.573
 30
0.0
 11
5.501999999999999
 21
12.63
 31
0.0
  0
LINE
  5
10C7
330
18
100
AcDbEntity
  8
Object
100
AcDbLine
 10
5.501999999999999
 20
12.63
 30
0.0
 11
5.564
 21
12.63
 31
0.0
  0
LINE
  5
10C8
330
18
100
AcDbEntity
  8
Object
100
AcDbLine
 10
6.165
 20
12.573
 30
0.0
 11
6.108
 21
12.573
 31
0.0
  0
LINE
  5
10C9
330
18
100
AcDbEntity
  8
Object
100
AcDbLine
 10
5.802
 20
12.573
 30
0.0
 11
5.786
 21
12.573
 31
0.0
  0
LINE
  5
10CA
330
18
100
AcDbEntity
  8
Object
100
AcDbLine
 10
5.891
 20
12.573
 30
0.0
 11
5.876
 21
12.573
 31
0.0
  0
LINE
  5
10CB
330
18
100
AcDbEntity
  8
Object
100
AcDbLine
 10
6.241999999999999
 20
12.573
 30
0.0
 11
6.23
 21
12.573
 31
0.0
  0
LINE
  5
10CC
330
18
100
AcDbEntity
  8
Object
100
AcDbLine
 10
6.342999999999999
 20
12.573
 30
0.0
 11
6.33
 21
12.573
 31
0.0
  0
LINE
  5
10CD
330
18
100
AcDbEntity
  8
Object
100
AcDbLine
 10
6.012999999999999
 20
12.573
 30
0.0
 11
5.935999999999999
 21
12.573
 31
0.0
  0
LINE
  5
10CE
330
18
100
AcDbEntity
  8
Object
100
AcDbLine
 10
5.485999999999999
 20
12.698
 30
0.0
 11
5.485999999999999
 21
12.573
 31
0.0
  0
LINE
  5
10CF
330
18
100
AcDbEntity
  8
Object
100
AcDbLine
 10
5.485999999999999
 20
12.573
 30
0.0
 11
5.501999999999999
 21
12.573
 31
0.0
  0
LINE
  5
10D0
330
18
100
AcDbEntity
  8
Object
100
AcDbLine
 10
5.645999999999999
 20
12.573
 30
0.0
 11
5.629
 21
12.573
 31
0.0
  0
LINE
  5
10D1
330
18
100
AcDbEntity
  8
Object
100
AcDbLine
 10
5.735999999999999
 20
12.573
 30
0.0
 11
5.719
 21
12.573
 31
0.0
  0
LINE
  5
10D2
330
18
100
AcDbEntity
  8
Object
100
AcDbLine
 10
4.735
 20
12.103
 30
0.0
 11
8.198999999999999
 21
12.103
 31
0.0
  0
LINE
  5
10D3
330
18
100
AcDbEntity
  8
Object
100
AcDbLine
 10
3.479
 20
11.963
 30
0.0
 11
3.479
 21
10.963
 31
0.0
  0
LINE
  5
10D4
330
18
100
AcDbEntity
  8
Object
100
AcDbLine
 10
8.198999999999999
 20
11.823
 30
0.0
 11
4.735
 21
11.823
 31
0.0
  0
LINE
  5
10D5
330
18
100
AcDbEntity
  8
Object
100
AcDbLine
 10
3.479
 20
10.963
 30
0.0
 11
11.839
 21
10.963
 31
0.0
  0
LINE
  5
10D6
330
18
100
AcDbEntity
  8
Object
100
AcDbLine
 10
3.479
 20
11.963
 30
0.0
 11
3.471
 21
12.026
 31
0.0
  0
LINE
  5
10D7
330
18
100
AcDbEntity
  8
Object
100
AcDbLine
 10
3.471
 20
12.026
 30
0.0
 11
3.449
 21
12.086
 31
0.0
  0
LINE
  5
10D8
330
18
100
AcDbEntity
  8
Object
100
AcDbLine
 10
3.449
 20
12.086
 30
0.0
 11
3.413
 21
12.138
 31
0.0
  0
LINE
  5
10D9
330
18
100
AcDbEntity
  8
Object
100
AcDbLine
 10
3.413
 20
12.138
 30
0.0
 11
3.365
 21
12.181
 31
0.0
  0
LINE
  5
10DA
330
18
100
AcDbEntity
  8
Object
100
AcDbLine
 10
3.365
 20
12.181
 30
0.0
 11
3.308
 21
12.21
 31
0.0
  0
LINE
  5
10DB
330
18
100
AcDbEntity
  8
Object
100
AcDbLine
 10
7.073999999999999
 20
12.698
 30
0.0
 11
7.166
 21
12.698
 31
0.0
  0
LINE
  5
10DC
330
18
100
AcDbEntity
  8
Object
100
AcDbLine
 10
6.298
 20
12.698
 30
0.0
 11
6.374
 21
12.698
 31
0.0
  0
LINE
  5
10DD
330
18
100
AcDbEntity
  8
Object
100
AcDbLine
 10
5.786
 20
12.698
 30
0.0
 11
5.802
 21
12.698
 31
0.0
  0
LINE
  5
10DE
330
18
100
AcDbEntity
  8
Object
100
AcDbLine
 10
5.935999999999999
 20
12.698
 30
0.0
 11
6.012999999999999
 21
12.698
 31
0.0
  0
LINE
  5
10DF
330
18
100
AcDbEntity
  8
Object
100
AcDbLine
 10
6.084
 20
12.698
 30
0.0
 11
6.099
 21
12.698
 31
0.0
  0
LINE
  5
10E0
330
18
100
AcDbEntity
  8
Object
100
AcDbLine
 10
6.23
 20
12.698
 30
0.0
 11
6.241999999999999
 21
12.698
 31
0.0
  0
LINE
  5
10E1
330
18
100
AcDbEntity
  8
Object
100
AcDbLine
 10
5.485999999999999
 20
12.698
 30
0.0
 11
5.564
 21
12.698
 31
0.0
  0
LINE
  5
10E2
330
18
100
AcDbEntity
  8
Object
100
AcDbLine
 10
11.839
 20
12.963
 30
0.0
 11
2.588999999999999
 21
12.963
 31
0.0
  0
LINE
  5
10E3
330
18
100
AcDbEntity
  8
Object
100
AcDbLine
 10
6.173
 20
12.698
 30
0.0
 11
6.189
 21
12.698
 31
0.0
  0
LINE
  5
10E4
330
18
100
AcDbEntity
  8
Object
100
AcDbLine
 10
5.876
 20
12.698
 30
0.0
 11
5.891
 21
12.698
 31
0.0
  0
LINE
  5
10E5
330
18
100
AcDbEntity
  8
Object
100
AcDbLine
 10
5.674999999999999
 20
12.698
 30
0.0
 11
5.690999999999999
 21
12.698
 31
0.0
  0
LINE
  5
10E6
330
18
100
AcDbEntity
  8
Object
100
AcDbLine
 10
3.308
 20
12.21
 30
0.0
 11
3.245999999999999
 21
12.226
 31
0.0
  0
LINE
  5
10E7
330
18
100
AcDbEntity
  8
Object
100
AcDbLine
 10
3.245999999999999
 20
12.226
 30
0.0
 11
3.181999999999999
 21
12.226
 31
0.0
  0
LINE
  5
10E8
330
18
100
AcDbEntity
  8
Object
100
AcDbLine
 10
3.181999999999999
 20
12.226
 30
0.0
 11
3.12
 21
12.21
 31
0.0
  0
LINE
  5
10E9
330
18
100
AcDbEntity
  8
Object
100
AcDbLine
 10
3.12
 20
12.21
 30
0.0
 11
3.064
 21
12.181
 31
0.0
  0
LINE
  5
10EA
330
18
100
AcDbEntity
  8
Object
100
AcDbLine
 10
2.948999999999999
 20
11.963
 30
0.0
 11
2.948999999999999
 21
10.963
 31
0.0
  0
LINE
  5
10EB
330
18
100
AcDbEntity
  8
Object
100
AcDbLine
 10
2.948999999999999
 20
10.963
 30
0.0
 11
2.588999999999999
 21
10.963
 31
0.0
  0
LINE
  5
10EC
330
18
100
AcDbEntity
  8
Object
100
AcDbLine
 10
2.588999999999999
 20
12.963
 30
0.0
 11
2.213999999999999
 21
12.588
 31
0.0
  0
LINE
  5
10ED
330
18
100
AcDbEntity
  8
Object
100
AcDbLine
 10
3.064
 20
12.181
 30
0.0
 11
3.016
 21
12.138
 31
0.0
  0
LINE
  5
10EE
330
18
100
AcDbEntity
  8
Object
100
AcDbLine
 10
3.016
 20
12.138
 30
0.0
 11
2.98
 21
12.086
 31
0.0
  0
LINE
  5
10EF
330
18
100
AcDbEntity
  8
Object
100
AcDbLine
 10
2.98
 20
12.086
 30
0.0
 11
2.956999999999999
 21
12.026
 31
0.0
  0
LINE
  5
10F0
330
18
100
AcDbEntity
  8
Object
100
AcDbLine
 10
2.956999999999999
 20
12.026
 30
0.0
 11
2.948999999999999
 21
11.963
 31
0.0
  0
LINE
  5
10F1
330
18
100
AcDbEntity
  8
Object
100
AcDbLine
 10
2.213999999999999
 20
12.588
 30
0.0
 11
2.213999999999999
 21
11.338
 31
0.0
  0
LINE
  5
10F2
330
18
100
AcDbEntity
  8
Object
100
AcDbLine
 10
2.213999999999999
 20
11.338
 30
0.0
 11
2.588999999999999
 21
10.963
 31
0.0
  0
LINE
  5
10F3
330
18
100
AcDbEntity
  8
Object
100
AcDbLine
 10
7.427999999999999
 20
12.698
 30
0.0
 11
7.453999999999999
 21
12.685
 31
0.0
  0
LINE
  5
10F4
330
18
100
AcDbEntity
  8
Object
100
AcDbLine
 10
7.349
 20
12.685
 30
0.0
 11
7.376
 21
12.698
 31
0.0
  0
LINE
  5
10F5
330
18
100
AcDbEntity
  8
Object
100
AcDbLine
 10
8.05
 20
12.698
 30
0.0
 11
8.05
 21
12.584
 31
0.0
  0
LINE
  5
10F6
330
18
100
AcDbEntity
  8
Object
100
AcDbLine
 10
6.153
 20
12.584
 30
0.0
 11
6.173
 21
12.607
 31
0.0
  0
LINE
  5
10F7
330
18
100
AcDbEntity
  8
Object
100
AcDbLine
 10
6.298
 20
12.686
 30
0.0
 11
6.298
 21
12.698
 31
0.0
  0
LINE
  5
10F8
330
18
100
AcDbEntity
  8
Object
100
AcDbLine
 10
12.214
 20
12.588
 30
0.0
 11
11.839
 21
12.963
 31
0.0
  0
LINE
  5
10F9
330
18
100
AcDbEntity
  8
Object
100
AcDbLine
 10
11.839
 20
12.963
 30
0.0
 11
2.588999999999999
 21
12.963
 31
0.0
  0
LINE
  5
10FA
330
18
100
AcDbEntity
  8
Object
100
AcDbLine
 10
11.317
 20
11.823
 30
0.0
 11
8.854
 21
11.823
 31
0.0
  0
LINE
  5
10FB
330
18
100
AcDbEntity
  8
Object
100
AcDbLine
 10
6.232
 20
12.686
 30
0.0
 11
6.23
 21
12.686
 31
0.0
  0
LINE
  5
10FC
330
18
100
AcDbEntity
  8
Object
100
AcDbLine
 10
7.751
 20
12.698
 30
0.0
 11
7.836
 21
12.698
 31
0.0
  0
LINE
  5
10FD
330
18
100
AcDbEntity
  8
Object
100
AcDbLine
 10
7.089
 20
12.63
 30
0.0
 11
7.089
 21
12.573
 31
0.0
  0
LINE
  5
10FE
330
18
100
AcDbEntity
  8
Object
100
AcDbLine
 10
7.621
 20
12.63
 30
0.0
 11
7.621
 21
12.573
 31
0.0
  0
LINE
  5
10FF
330
18
100
AcDbEntity
  8
Object
100
AcDbLine
 10
8.054
 20
12.584
 30
0.0
 11
8.054
 21
12.573
 31
0.0
  0
LINE
  5
1100
330
18
100
AcDbEntity
  8
Object
100
AcDbLine
 10
5.564
 20
12.63
 30
0.0
 11
5.501999999999999
 21
12.63
 31
0.0
  0
LINE
  5
1101
330
18
100
AcDbEntity
  8
Object
100
AcDbLine
 10
3.479
 20
11.963
 30
0.0
 11
3.479
 21
10.963
 31
0.0
  0
LINE
  5
1102
330
18
100
AcDbEntity
  8
Object
100
AcDbLine
 10
5.690999999999999
 20
12.698
 30
0.0
 11
5.735999999999999
 21
12.573
 31
0.0
  0
LINE
  5
1103
330
18
100
AcDbEntity
  8
Object
100
AcDbLine
 10
8.12
 20
12.584
 30
0.0
 11
8.208999999999999
 21
12.584
 31
0.0
  0
LINE
  5
1104
330
18
100
AcDbEntity
  8
Object
100
AcDbLine
 10
7.985999999999999
 20
12.573
 30
0.0
 11
7.894
 21
12.573
 31
0.0
  0
LINE
  5
1105
330
18
100
AcDbEntity
  8
Object
100
AcDbLine
 10
7.857
 20
12.634
 30
0.0
 11
7.857
 21
12.586
 31
0.0
  0
LINE
  5
1106
330
18
100
AcDbEntity
  8
Object
100
AcDbLine
 10
7.519
 20
12.686
 30
0.0
 11
7.519
 21
12.573
 31
0.0
  0
LINE
  5
1107
330
18
100
AcDbEntity
  8
Object
100
AcDbLine
 10
7.519
 20
12.573
 30
0.0
 11
7.532
 21
12.573
 31
0.0
  0
LINE
  5
1108
330
18
100
AcDbEntity
  8
Object
100
AcDbLine
 10
7.073999999999999
 20
12.573
 30
0.0
 11
7.073999999999999
 21
12.698
 31
0.0
  0
LINE
  5
1109
330
18
100
AcDbEntity
  8
Object
100
AcDbLine
 10
7.621
 20
12.573
 30
0.0
 11
7.605999999999999
 21
12.573
 31
0.0
  0
LINE
  5
110A
330
18
100
AcDbEntity
  8
Object
100
AcDbLine
 10
5.876
 20
12.601
 30
0.0
 11
5.876
 21
12.698
 31
0.0
  0
LINE
  5
110B
330
18
100
AcDbEntity
  8
Object
100
AcDbLine
 10
6.173
 20
12.698
 30
0.0
 11
6.189
 21
12.698
 31
0.0
  0
LINE
  5
110C
330
18
100
AcDbEntity
  8
Object
100
AcDbLine
 10
2.948999999999999
 20
10.963
 30
0.0
 11
2.948999999999999
 21
11.963
 31
0.0
  0
LINE
  5
110D
330
18
100
AcDbEntity
  8
Object
100
AcDbLine
 10
8.198999999999999
 20
11.823
 30
0.0
 11
4.735
 21
11.823
 31
0.0
  0
LINE
  5
110E
330
18
100
AcDbEntity
  8
Object
100
AcDbLine
 10
8.332
 20
12.006
 30
0.0
 11
8.339
 21
11.963
 31
0.0
  0
LINE
  5
110F
330
18
100
AcDbEntity
  8
Object
100
AcDbLine
 10
8.339
 20
11.963
 30
0.0
 11
8.332
 21
11.919
 31
0.0
  0
LINE
  5
1110
330
18
100
AcDbEntity
  8
Object
100
AcDbLine
 10
8.313
 20
12.045
 30
0.0
 11
8.332
 21
12.006
 31
0.0
  0
LINE
  5
1111
330
18
100
AcDbEntity
  8
Object
100
AcDbLine
 10
8.332
 20
11.919
 30
0.0
 11
8.313
 21
11.88
 31
0.0
  0
LINE
  5
1112
330
18
100
AcDbEntity
  8
Object
100
AcDbLine
 10
8.282
 20
12.076
 30
0.0
 11
8.313
 21
12.045
 31
0.0
  0
LINE
  5
1113
330
18
100
AcDbEntity
  8
Object
100
AcDbLine
 10
8.313
 20
11.88
 30
0.0
 11
8.282
 21
11.849
 31
0.0
  0
LINE
  5
1114
330
18
100
AcDbEntity
  8
Object
100
AcDbLine
 10
8.282
 20
11.849
 30
0.0
 11
8.243
 21
11.83
 31
0.0
  0
LINE
  5
1115
330
18
100
AcDbEntity
  8
Object
100
AcDbLine
 10
8.282
 20
12.076
 30
0.0
 11
8.243
 21
12.096
 31
0.0
  0
LINE
  5
1116
330
18
100
AcDbEntity
  8
Object
100
AcDbLine
 10
8.243
 20
12.096
 30
0.0
 11
8.198999999999999
 21
12.103
 31
0.0
  0
LINE
  5
1117
330
18
100
AcDbEntity
  8
Object
100
AcDbLine
 10
8.243
 20
11.83
 30
0.0
 11
8.198999999999999
 21
11.823
 31
0.0
  0
LINE
  5
1118
330
18
100
AcDbEntity
  8
Object
100
AcDbLine
 10
6.23
 20
12.698
 30
0.0
 11
6.241999999999999
 21
12.698
 31
0.0
  0
LINE
  5
1119
330
18
100
AcDbEntity
  8
Object
100
AcDbLine
 10
6.23
 20
12.573
 30
0.0
 11
6.23
 21
12.584
 31
0.0
  0
LINE
  5
111A
330
18
100
AcDbEntity
  8
Object
100
AcDbLine
 10
5.935999999999999
 20
12.573
 30
0.0
 11
5.935999999999999
 21
12.698
 31
0.0
  0
LINE
  5
111B
330
18
100
AcDbEntity
  8
Object
100
AcDbLine
 10
5.674999999999999
 20
12.698
 30
0.0
 11
5.690999999999999
 21
12.698
 31
0.0
  0
LINE
  5
111C
330
18
100
AcDbEntity
  8
Object
100
AcDbLine
 10
5.653999999999999
 20
12.595
 30
0.0
 11
5.645999999999999
 21
12.573
 31
0.0
  0
LINE
  5
111D
330
18
100
AcDbEntity
  8
Object
100
AcDbLine
 10
5.735999999999999
 20
12.573
 30
0.0
 11
5.719
 21
12.573
 31
0.0
  0
LINE
  5
111E
330
18
100
AcDbEntity
  8
Object
100
AcDbLine
 10
8.104
 20
12.663
 30
0.0
 11
8.104
 21
12.685
 31
0.0
  0
LINE
  5
111F
330
18
100
AcDbEntity
  8
Object
100
AcDbLine
 10
8.169
 20
12.686
 30
0.0
 11
8.146
 21
12.686
 31
0.0
  0
LINE
  5
1120
330
18
100
AcDbEntity
  8
Object
100
AcDbLine
 10
8.194
 20
12.652
 30
0.0
 11
8.194
 21
12.673
 31
0.0
  0
LINE
  5
1121
330
18
100
AcDbEntity
  8
Object
100
AcDbLine
 10
7.836
 20
12.698
 30
0.0
 11
7.846
 21
12.686
 31
0.0
  0
LINE
  5
1122
330
18
100
AcDbEntity
  8
Object
100
AcDbLine
 10
7.488
 20
12.686
 30
0.0
 11
7.488
 21
12.698
 31
0.0
  0
LINE
  5
1123
330
18
100
AcDbEntity
  8
Object
100
AcDbLine
 10
7.283
 20
12.698
 30
0.0
 11
7.310999999999999
 21
12.683
 31
0.0
  0
LINE
  5
1124
330
18
100
AcDbEntity
  8
Object
100
AcDbLine
 10
7.439
 20
12.663
 30
0.0
 11
7.439
 21
12.673
 31
0.0
  0
LINE
  5
1125
330
18
100
AcDbEntity
  8
Object
100
AcDbLine
 10
7.682999999999999
 20
12.698
 30
0.0
 11
7.711
 21
12.683
 31
0.0
  0
LINE
  5
1126
330
18
100
AcDbEntity
  8
Object
100
AcDbLine
 10
5.891
 20
12.573
 30
0.0
 11
5.876
 21
12.573
 31
0.0
  0
LINE
  5
1127
330
18
100
AcDbEntity
  8
Object
100
AcDbLine
 10
5.802
 20
12.573
 30
0.0
 11
5.786
 21
12.573
 31
0.0
  0
LINE
  5
1128
330
18
100
AcDbEntity
  8
Object
100
AcDbLine
 10
6.33
 20
12.573
 30
0.0
 11
6.33
 21
12.686
 31
0.0
  0
LINE
  5
1129
330
18
100
AcDbEntity
  8
Object
100
AcDbLine
 10
6.23
 20
12.686
 30
0.0
 11
6.23
 21
12.698
 31
0.0
  0
LINE
  5
112A
330
18
100
AcDbEntity
  8
Object
100
AcDbLine
 10
5.719
 20
12.573
 30
0.0
 11
5.711
 21
12.595
 31
0.0
  0
LINE
  5
112B
330
18
100
AcDbEntity
  8
Object
100
AcDbLine
 10
7.908999999999999
 20
12.63
 30
0.0
 11
7.908999999999999
 21
12.584
 31
0.0
  0
LINE
  5
112C
330
18
100
AcDbEntity
  8
Object
100
AcDbLine
 10
7.310999999999999
 20
12.573
 30
0.0
 11
7.294
 21
12.573
 31
0.0
  0
LINE
  5
112D
330
18
100
AcDbEntity
  8
Object
100
AcDbLine
 10
7.453999999999999
 20
12.663
 30
0.0
 11
7.439
 21
12.663
 31
0.0
  0
LINE
  5
112E
330
18
100
AcDbEntity
  8
Object
100
AcDbLine
 10
7.605999999999999
 20
12.573
 30
0.0
 11
7.605999999999999
 21
12.698
 31
0.0
  0
LINE
  5
112F
330
18
100
AcDbEntity
  8
Object
100
AcDbLine
 10
8.05
 20
12.584
 30
0.0
 11
8.054
 21
12.584
 31
0.0
  0
LINE
  5
1130
330
18
100
AcDbEntity
  8
Object
100
AcDbLine
 10
5.786
 20
12.698
 30
0.0
 11
5.802
 21
12.698
 31
0.0
  0
LINE
  5
1131
330
18
100
AcDbEntity
  8
Object
100
AcDbLine
 10
5.802
 20
12.669
 30
0.0
 11
5.802
 21
12.573
 31
0.0
  0
LINE
  5
1132
330
18
100
AcDbEntity
  8
Object
100
AcDbLine
 10
6.189
 20
12.698
 30
0.0
 11
6.189
 21
12.599
 31
0.0
  0
LINE
  5
1133
330
18
100
AcDbEntity
  8
Object
100
AcDbLine
 10
6.241999999999999
 20
12.686
 30
0.0
 11
6.238999999999999
 21
12.686
 31
0.0
  0
LINE
  5
1134
330
18
100
AcDbEntity
  8
Object
100
AcDbLine
 10
5.935999999999999
 20
12.698
 30
0.0
 11
6.012999999999999
 21
12.698
 31
0.0
  0
LINE
  5
1135
330
18
100
AcDbEntity
  8
Object
100
AcDbLine
 10
5.645999999999999
 20
12.573
 30
0.0
 11
5.629
 21
12.573
 31
0.0
  0
LINE
  5
1136
330
18
100
AcDbEntity
  8
Object
100
AcDbLine
 10
8.208999999999999
 20
12.584
 30
0.0
 11
8.208999999999999
 21
12.573
 31
0.0
  0
LINE
  5
1137
330
18
100
AcDbEntity
  8
Object
100
AcDbLine
 10
7.964
 20
12.64
 30
0.0
 11
7.964
 21
12.63
 31
0.0
  0
LINE
  5
1138
330
18
100
AcDbEntity
  8
Object
100
AcDbLine
 10
7.206
 20
12.698
 30
0.0
 11
7.283
 21
12.698
 31
0.0
  0
LINE
  5
1139
330
18
100
AcDbEntity
  8
Object
100
AcDbLine
 10
7.089
 20
12.686
 30
0.0
 11
7.089
 21
12.64
 31
0.0
  0
LINE
  5
113A
330
18
100
AcDbEntity
  8
Object
100
AcDbLine
 10
8.041999999999999
 20
12.665
 30
0.0
 11
8.037
 21
12.678
 31
0.0
  0
LINE
  5
113B
330
18
100
AcDbEntity
  8
Object
100
AcDbLine
 10
5.501999999999999
 20
12.573
 30
0.0
 11
5.485999999999999
 21
12.573
 31
0.0
  0
LINE
  5
113C
330
18
100
AcDbEntity
  8
Object
100
AcDbLine
 10
5.786
 20
12.573
 30
0.0
 11
5.786
 21
12.698
 31
0.0
  0
LINE
  5
113D
330
18
100
AcDbEntity
  8
Object
100
AcDbLine
 10
6.241999999999999
 20
12.698
 30
0.0
 11
6.241999999999999
 21
12.686
 31
0.0
  0
LINE
  5
113E
330
18
100
AcDbEntity
  8
Object
100
AcDbLine
 10
6.241999999999999
 20
12.573
 30
0.0
 11
6.23
 21
12.573
 31
0.0
  0
LINE
  5
113F
330
18
100
AcDbEntity
  8
Object
100
AcDbLine
 10
6.012999999999999
 20
12.573
 30
0.0
 11
5.935999999999999
 21
12.573
 31
0.0
  0
LINE
  5
1140
330
18
100
AcDbEntity
  8
Object
100
AcDbLine
 10
8.208999999999999
 20
12.64
 30
0.0
 11
8.12
 21
12.595
 31
0.0
  0
LINE
  5
1141
330
18
100
AcDbEntity
  8
Object
100
AcDbLine
 10
7.964
 20
12.63
 30
0.0
 11
7.908999999999999
 21
12.63
 31
0.0
  0
LINE
  5
1142
330
18
100
AcDbEntity
  8
Object
100
AcDbLine
 10
7.908999999999999
 20
12.64
 30
0.0
 11
7.964
 21
12.64
 31
0.0
  0
LINE
  5
1143
330
18
100
AcDbEntity
  8
Object
100
AcDbLine
 10
7.689
 20
12.633
 30
0.0
 11
7.711
 21
12.573
 31
0.0
  0
LINE
  5
1144
330
18
100
AcDbEntity
  8
Object
100
AcDbLine
 10
5.564
 20
12.698
 30
0.0
 11
5.591
 21
12.683
 31
0.0
  0
LINE
  5
1145
330
18
100
AcDbEntity
  8
Object
100
AcDbLine
 10
5.891
 20
12.698
 30
0.0
 11
5.891
 21
12.573
 31
0.0
  0
LINE
  5
1146
330
18
100
AcDbEntity
  8
Object
100
AcDbLine
 10
6.342999999999999
 20
12.573
 30
0.0
 11
6.33
 21
12.573
 31
0.0
  0
LINE
  5
1147
330
18
100
AcDbEntity
  8
Object
100
AcDbLine
 10
6.232
 20
12.584
 30
0.0
 11
6.232
 21
12.686
 31
0.0
  0
LINE
  5
1148
330
18
100
AcDbEntity
  8
Object
100
AcDbLine
 10
8.12
 20
12.673
 30
0.0
 11
8.12
 21
12.663
 31
0.0
  0
LINE
  5
1149
330
18
100
AcDbEntity
  8
Object
100
AcDbLine
 10
7.857
 20
12.586
 30
0.0
 11
7.836
 21
12.573
 31
0.0
  0
LINE
  5
114A
330
18
100
AcDbEntity
  8
Object
100
AcDbLine
 10
7.144
 20
12.64
 30
0.0
 11
7.144
 21
12.63
 31
0.0
  0
LINE
  5
114B
330
18
100
AcDbEntity
  8
Object
100
AcDbLine
 10
7.453999999999999
 20
12.586
 30
0.0
 11
7.427999999999999
 21
12.573
 31
0.0
  0
LINE
  5
114C
330
18
100
AcDbEntity
  8
Object
100
AcDbLine
 10
7.674
 20
12.63
 30
0.0
 11
7.621
 21
12.63
 31
0.0
  0
LINE
  5
114D
330
18
100
AcDbEntity
  8
Object
100
AcDbLine
 10
8.044
 20
12.672
 30
0.0
 11
8.041999999999999
 21
12.665
 31
0.0
  0
LINE
  5
114E
330
18
100
AcDbEntity
  8
Object
100
AcDbLine
 10
8.04
 20
12.584
 30
0.0
 11
8.044
 21
12.584
 31
0.0
  0
LINE
  5
114F
330
18
100
AcDbEntity
  8
Object
100
AcDbLine
 10
5.802
 20
12.698
 30
0.0
 11
5.876
 21
12.601
 31
0.0
  0
LINE
  5
1150
330
18
100
AcDbEntity
  8
Object
100
AcDbLine
 10
5.876
 20
12.573
 30
0.0
 11
5.802
 21
12.669
 31
0.0
  0
LINE
  5
1151
330
18
100
AcDbEntity
  8
Object
100
AcDbLine
 10
6.118999999999999
 20
12.584
 30
0.0
 11
6.099
 21
12.607
 31
0.0
  0
LINE
  5
1152
330
18
100
AcDbEntity
  8
Object
100
AcDbLine
 10
6.099
 20
12.607
 30
0.0
 11
6.099
 21
12.698
 31
0.0
  0
LINE
  5
1153
330
18
100
AcDbEntity
  8
Object
100
AcDbLine
 10
8.854
 20
12.103
 30
0.0
 11
11.317
 21
12.103
 31
0.0
  0
LINE
  5
1154
330
18
100
AcDbEntity
  8
Object
100
AcDbLine
 10
6.23
 20
12.584
 30
0.0
 11
6.232
 21
12.584
 31
0.0
  0
LINE
  5
1155
330
18
100
AcDbEntity
  8
Object
100
AcDbLine
 10
6.012999999999999
 20
12.698
 30
0.0
 11
6.041
 21
12.666
 31
0.0
  0
LINE
  5
1156
330
18
100
AcDbEntity
  8
Object
100
AcDbLine
 10
8.131
 20
12.698
 30
0.0
 11
8.182999999999999
 21
12.698
 31
0.0
  0
LINE
  5
1157
330
18
100
AcDbEntity
  8
Object
100
AcDbLine
 10
7.089
 20
12.64
 30
0.0
 11
7.144
 21
12.64
 31
0.0
  0
LINE
  5
1158
330
18
100
AcDbEntity
  8
Object
100
AcDbLine
 10
7.166
 20
12.698
 30
0.0
 11
7.166
 21
12.686
 31
0.0
  0
LINE
  5
1159
330
18
100
AcDbEntity
  8
Object
100
AcDbLine
 10
5.876
 20
12.698
 30
0.0
 11
5.891
 21
12.698
 31
0.0
  0
LINE
  5
115A
330
18
100
AcDbEntity
  8
Object
100
AcDbLine
 10
6.374
 20
12.686
 30
0.0
 11
6.342999999999999
 21
12.686
 31
0.0
  0
LINE
  5
115B
330
18
100
AcDbEntity
  8
Object
100
AcDbLine
 10
5.711
 20
12.595
 30
0.0
 11
5.653999999999999
 21
12.595
 31
0.0
  0
LINE
  5
115C
330
18
100
AcDbEntity
  8
Object
100
AcDbLine
 10
8.208999999999999
 20
12.685
 30
0.0
 11
8.208999999999999
 21
12.64
 31
0.0
  0
LINE
  5
115D
330
18
100
AcDbEntity
  8
Object
100
AcDbLine
 10
7.908999999999999
 20
12.64
 30
0.0
 11
7.908999999999999
 21
12.686
 31
0.0
  0
LINE
  5
115E
330
18
100
AcDbEntity
  8
Object
100
AcDbLine
 10
7.908999999999999
 20
12.686
 30
0.0
 11
7.985999999999999
 21
12.686
 31
0.0
  0
LINE
  5
115F
330
18
100
AcDbEntity
  8
Object
100
AcDbLine
 10
7.836
 20
12.573
 30
0.0
 11
7.751
 21
12.573
 31
0.0
  0
LINE
  5
1160
330
18
100
AcDbEntity
  8
Object
100
AcDbLine
 10
7.427999999999999
 20
12.652
 30
0.0
 11
7.453999999999999
 21
12.639
 31
0.0
  0
LINE
  5
1161
330
18
100
AcDbEntity
  8
Object
100
AcDbLine
 10
7.365
 20
12.673
 30
0.0
 11
7.365
 21
12.647
 31
0.0
  0
LINE
  5
1162
330
18
100
AcDbEntity
  8
Object
100
AcDbLine
 10
7.427999999999999
 20
12.573
 30
0.0
 11
7.376
 21
12.573
 31
0.0
  0
LINE
  5
1163
330
18
100
AcDbEntity
  8
Object
100
AcDbLine
 10
6.189
 20
12.599
 30
0.0
 11
6.165
 21
12.573
 31
0.0
  0
LINE
  5
1164
330
18
100
AcDbEntity
  8
Object
100
AcDbLine
 10
11.839
 20
10.963
 30
0.0
 11
12.214
 21
11.338
 31
0.0
  0
LINE
  5
1165
330
18
100
AcDbEntity
  8
Object
100
AcDbLine
 10
3.479
 20
11.963
 30
0.0
 11
3.471
 21
12.026
 31
0.0
  0
LINE
  5
1166
330
18
100
AcDbEntity
  8
Object
100
AcDbLine
 10
3.471
 20
12.026
 30
0.0
 11
3.449
 21
12.086
 31
0.0
  0
LINE
  5
1167
330
18
100
AcDbEntity
  8
Object
100
AcDbLine
 10
3.449
 20
12.086
 30
0.0
 11
3.413
 21
12.138
 31
0.0
  0
LINE
  5
1168
330
18
100
AcDbEntity
  8
Object
100
AcDbLine
 10
3.413
 20
12.138
 30
0.0
 11
3.365
 21
12.181
 31
0.0
  0
LINE
  5
1169
330
18
100
AcDbEntity
  8
Object
100
AcDbLine
 10
3.365
 20
12.181
 30
0.0
 11
3.308
 21
12.21
 31
0.0
  0
LINE
  5
116A
330
18
100
AcDbEntity
  8
Object
100
AcDbLine
 10
3.308
 20
12.21
 30
0.0
 11
3.245999999999999
 21
12.226
 31
0.0
  0
LINE
  5
116B
330
18
100
AcDbEntity
  8
Object
100
AcDbLine
 10
3.245999999999999
 20
12.226
 30
0.0
 11
3.181999999999999
 21
12.226
 31
0.0
  0
LINE
  5
116C
330
18
100
AcDbEntity
  8
Object
100
AcDbLine
 10
3.181999999999999
 20
12.226
 30
0.0
 11
3.12
 21
12.21
 31
0.0
  0
LINE
  5
116D
330
18
100
AcDbEntity
  8
Object
100
AcDbLine
 10
3.12
 20
12.21
 30
0.0
 11
3.064
 21
12.181
 31
0.0
  0
LINE
  5
116E
330
18
100
AcDbEntity
  8
Object
100
AcDbLine
 10
3.064
 20
12.181
 30
0.0
 11
3.016
 21
12.138
 31
0.0
  0
LINE
  5
116F
330
18
100
AcDbEntity
  8
Object
100
AcDbLine
 10
3.016
 20
12.138
 30
0.0
 11
2.98
 21
12.086
 31
0.0
  0
LINE
  5
1170
330
18
100
AcDbEntity
  8
Object
100
AcDbLine
 10
2.98
 20
12.086
 30
0.0
 11
2.956999999999999
 21
12.026
 31
0.0
  0
LINE
  5
1171
330
18
100
AcDbEntity
  8
Object
100
AcDbLine
 10
2.956999999999999
 20
12.026
 30
0.0
 11
2.948999999999999
 21
11.963
 31
0.0
  0
LINE
  5
1172
330
18
100
AcDbEntity
  8
Object
100
AcDbLine
 10
8.12
 20
12.663
 30
0.0
 11
8.104
 21
12.663
 31
0.0
  0
LINE
  5
1173
330
18
100
AcDbEntity
  8
Object
100
AcDbLine
 10
8.146
 20
12.686
 30
0.0
 11
8.12
 21
12.673
 31
0.0
  0
LINE
  5
1174
330
18
100
AcDbEntity
  8
Object
100
AcDbLine
 10
8.104
 20
12.573
 30
0.0
 11
8.104
 21
12.607
 31
0.0
  0
LINE
  5
1175
330
18
100
AcDbEntity
  8
Object
100
AcDbLine
 10
7.908999999999999
 20
12.584
 30
0.0
 11
7.985999999999999
 21
12.584
 31
0.0
  0
LINE
  5
1176
330
18
100
AcDbEntity
  8
Object
100
AcDbLine
 10
7.894
 20
12.698
 30
0.0
 11
7.985999999999999
 21
12.698
 31
0.0
  0
LINE
  5
1177
330
18
100
AcDbEntity
  8
Object
100
AcDbLine
 10
7.842999999999999
 20
12.642
 30
0.0
 11
7.857
 21
12.634
 31
0.0
  0
LINE
  5
1178
330
18
100
AcDbEntity
  8
Object
100
AcDbLine
 10
7.206
 20
12.573
 30
0.0
 11
7.206
 21
12.698
 31
0.0
  0
LINE
  5
1179
330
18
100
AcDbEntity
  8
Object
100
AcDbLine
 10
7.294
 20
12.573
 30
0.0
 11
7.274
 21
12.63
 31
0.0
  0
LINE
  5
117A
330
18
100
AcDbEntity
  8
Object
100
AcDbLine
 10
7.166
 20
12.686
 30
0.0
 11
7.089
 21
12.686
 31
0.0
  0
LINE
  5
117B
330
18
100
AcDbEntity
  8
Object
100
AcDbLine
 10
7.453999999999999
 20
12.639
 30
0.0
 11
7.453999999999999
 21
12.586
 31
0.0
  0
LINE
  5
117C
330
18
100
AcDbEntity
  8
Object
100
AcDbLine
 10
7.365
 20
12.647
 30
0.0
 11
7.376
 21
12.652
 31
0.0
  0
LINE
  5
117D
330
18
100
AcDbEntity
  8
Object
100
AcDbLine
 10
7.453999999999999
 20
12.685
 30
0.0
 11
7.453999999999999
 21
12.663
 31
0.0
  0
LINE
  5
117E
330
18
100
AcDbEntity
  8
Object
100
AcDbLine
 10
7.711
 20
12.683
 30
0.0
 11
7.711
 21
12.643
 31
0.0
  0
LINE
  5
117F
330
18
100
AcDbEntity
  8
Object
100
AcDbLine
 10
7.605999999999999
 20
12.698
 30
0.0
 11
7.682999999999999
 21
12.698
 31
0.0
  0
LINE
  5
1180
330
18
100
AcDbEntity
  8
Object
100
AcDbLine
 10
8.054
 20
12.573
 30
0.0
 11
8.04
 21
12.573
 31
0.0
  0
LINE
  5
1181
330
18
100
AcDbEntity
  8
Object
100
AcDbLine
 10
5.485999999999999
 20
12.573
 30
0.0
 11
5.485999999999999
 21
12.698
 31
0.0
  0
LINE
  5
1182
330
18
100
AcDbEntity
  8
Object
100
AcDbLine
 10
5.591
 20
12.643
 30
0.0
 11
5.564
 21
12.63
 31
0.0
  0
LINE
  5
1183
330
18
100
AcDbEntity
  8
Object
100
AcDbLine
 10
6.118999999999999
 20
12.584
 30
0.0
 11
6.153
 21
12.584
 31
0.0
  0
LINE
  5
1184
330
18
100
AcDbEntity
  8
Object
100
AcDbLine
 10
2.588999999999999
 20
12.963
 30
0.0
 11
2.213999999999999
 21
12.588
 31
0.0
  0
LINE
  5
1185
330
18
100
AcDbEntity
  8
Object
100
AcDbLine
 10
6.241999999999999
 20
12.584
 30
0.0
 11
6.241999999999999
 21
12.573
 31
0.0
  0
LINE
  5
1186
330
18
100
AcDbEntity
  8
Object
100
AcDbLine
 10
6.041
 20
12.604
 30
0.0
 11
6.012999999999999
 21
12.573
 31
0.0
  0
LINE
  5
1187
330
18
100
AcDbEntity
  8
Object
100
AcDbLine
 10
7.985999999999999
 20
12.584
 30
0.0
 11
7.985999999999999
 21
12.573
 31
0.0
  0
LINE
  5
1188
330
18
100
AcDbEntity
  8
Object
100
AcDbLine
 10
7.985999999999999
 20
12.698
 30
0.0
 11
7.985999999999999
 21
12.686
 31
0.0
  0
LINE
  5
1189
330
18
100
AcDbEntity
  8
Object
100
AcDbLine
 10
7.846
 20
12.686
 30
0.0
 11
7.846
 21
12.646
 31
0.0
  0
LINE
  5
118A
330
18
100
AcDbEntity
  8
Object
100
AcDbLine
 10
7.274
 20
12.63
 30
0.0
 11
7.221
 21
12.63
 31
0.0
  0
LINE
  5
118B
330
18
100
AcDbEntity
  8
Object
100
AcDbLine
 10
7.073999999999999
 20
12.698
 30
0.0
 11
7.166
 21
12.698
 31
0.0
  0
LINE
  5
118C
330
18
100
AcDbEntity
  8
Object
100
AcDbLine
 10
7.376
 20
12.573
 30
0.0
 11
7.349
 21
12.586
 31
0.0
  0
LINE
  5
118D
330
18
100
AcDbEntity
  8
Object
100
AcDbLine
 10
6.374
 20
12.698
 30
0.0
 11
6.374
 21
12.686
 31
0.0
  0
LINE
  5
118E
330
18
100
AcDbEntity
  8
Object
100
AcDbLine
 10
2.588999999999999
 20
10.963
 30
0.0
 11
2.213999999999999
 21
11.338
 31
0.0
  0
LINE
  5
118F
330
18
100
AcDbEntity
  8
Object
100
AcDbLine
 10
2.213999999999999
 20
11.338
 30
0.0
 11
2.213999999999999
 21
12.588
 31
0.0
  0
LINE
  5
1190
330
18
100
AcDbEntity
  8
Object
100
AcDbLine
 10
8.12
 20
12.595
 30
0.0
 11
8.12
 21
12.584
 31
0.0
  0
LINE
  5
1191
330
18
100
AcDbEntity
  8
Object
100
AcDbLine
 10
8.182999999999999
 20
12.698
 30
0.0
 11
8.208999999999999
 21
12.685
 31
0.0
  0
LINE
  5
1192
330
18
100
AcDbEntity
  8
Object
100
AcDbLine
 10
7.894
 20
12.573
 30
0.0
 11
7.894
 21
12.698
 31
0.0
  0
LINE
  5
1193
330
18
100
AcDbEntity
  8
Object
100
AcDbLine
 10
7.488
 20
12.698
 30
0.0
 11
7.564
 21
12.698
 31
0.0
  0
LINE
  5
1194
330
18
100
AcDbEntity
  8
Object
100
AcDbLine
 10
7.310999999999999
 20
12.643
 30
0.0
 11
7.289
 21
12.633
 31
0.0
  0
LINE
  5
1195
330
18
100
AcDbEntity
  8
Object
100
AcDbLine
 10
7.414
 20
12.686
 30
0.0
 11
7.391
 21
12.686
 31
0.0
  0
LINE
  5
1196
330
18
100
AcDbEntity
  8
Object
100
AcDbLine
 10
7.711
 20
12.573
 30
0.0
 11
7.693999999999999
 21
12.573
 31
0.0
  0
LINE
  5
1197
330
18
100
AcDbEntity
  8
Object
100
AcDbLine
 10
8.04
 20
12.573
 30
0.0
 11
8.04
 21
12.584
 31
0.0
  0
LINE
  5
1198
330
18
100
AcDbEntity
  8
Object
100
AcDbLine
 10
6.298
 20
12.698
 30
0.0
 11
6.374
 21
12.698
 31
0.0
  0
LINE
  5
1199
330
18
100
AcDbEntity
  8
Object
100
AcDbLine
 10
4.735
 20
12.103
 30
0.0
 11
8.198999999999999
 21
12.103
 31
0.0
  0
LINE
  5
119A
330
18
100
AcDbEntity
  8
Object
100
AcDbLine
 10
8.854
 20
11.823
 30
0.0
 11
8.810999999999999
 21
11.83
 31
0.0
  0
LINE
  5
119B
330
18
100
AcDbEntity
  8
Object
100
AcDbLine
 10
8.810999999999999
 20
11.83
 30
0.0
 11
8.772
 21
11.849
 31
0.0
  0
LINE
  5
119C
330
18
100
AcDbEntity
  8
Object
100
AcDbLine
 10
8.772
 20
11.849
 30
0.0
 11
8.740999999999999
 21
11.88
 31
0.0
  0
LINE
  5
119D
330
18
100
AcDbEntity
  8
Object
100
AcDbLine
 10
8.740999999999999
 20
11.88
 30
0.0
 11
8.721
 21
11.919
 31
0.0
  0
LINE
  5
119E
330
18
100
AcDbEntity
  8
Object
100
AcDbLine
 10
8.721
 20
11.919
 30
0.0
 11
8.714
 21
11.963
 31
0.0
  0
LINE
  5
119F
330
18
100
AcDbEntity
  8
Object
100
AcDbLine
 10
6.238999999999999
 20
12.686
 30
0.0
 11
6.238999999999999
 21
12.584
 31
0.0
  0
LINE
  5
11A0
330
18
100
AcDbEntity
  8
Object
100
AcDbLine
 10
7.532
 20
12.686
 30
0.0
 11
7.564
 21
12.686
 31
0.0
  0
LINE
  5
11A1
330
18
100
AcDbEntity
  8
Object
100
AcDbLine
 10
7.564
 20
12.686
 30
0.0
 11
7.564
 21
12.698
 31
0.0
  0
LINE
  5
11A2
330
18
100
AcDbEntity
  8
Object
100
AcDbLine
 10
7.289
 20
12.633
 30
0.0
 11
7.310999999999999
 21
12.573
 31
0.0
  0
LINE
  5
11A3
330
18
100
AcDbEntity
  8
Object
100
AcDbLine
 10
7.376
 20
12.652
 30
0.0
 11
7.427999999999999
 21
12.652
 31
0.0
  0
LINE
  5
11A4
330
18
100
AcDbEntity
  8
Object
100
AcDbLine
 10
8.037
 20
12.678
 30
0.0
 11
8.044999999999999
 21
12.698
 31
0.0
  0
LINE
  5
11A5
330
18
100
AcDbEntity
  8
Object
100
AcDbLine
 10
5.485999999999999
 20
12.698
 30
0.0
 11
5.564
 21
12.698
 31
0.0
  0
LINE
  5
11A6
330
18
100
AcDbEntity
  8
Object
100
AcDbLine
 10
5.591
 20
12.683
 30
0.0
 11
5.591
 21
12.643
 31
0.0
  0
LINE
  5
11A7
330
18
100
AcDbEntity
  8
Object
100
AcDbLine
 10
6.084
 20
12.599
 30
0.0
 11
6.084
 21
12.698
 31
0.0
  0
LINE
  5
11A8
330
18
100
AcDbEntity
  8
Object
100
AcDbLine
 10
8.104
 20
12.685
 30
0.0
 11
8.131
 21
12.698
 31
0.0
  0
LINE
  5
11A9
330
18
100
AcDbEntity
  8
Object
100
AcDbLine
 10
8.194
 20
12.673
 30
0.0
 11
8.169
 21
12.686
 31
0.0
  0
LINE
  5
11AA
330
18
100
AcDbEntity
  8
Object
100
AcDbLine
 10
8.104
 20
12.607
 30
0.0
 11
8.194
 21
12.652
 31
0.0
  0
LINE
  5
11AB
330
18
100
AcDbEntity
  8
Object
100
AcDbLine
 10
8.208999999999999
 20
12.573
 30
0.0
 11
8.104
 21
12.573
 31
0.0
  0
LINE
  5
11AC
330
18
100
AcDbEntity
  8
Object
100
AcDbLine
 10
7.846
 20
12.646
 30
0.0
 11
7.842999999999999
 21
12.642
 31
0.0
  0
LINE
  5
11AD
330
18
100
AcDbEntity
  8
Object
100
AcDbLine
 10
7.089
 20
12.573
 30
0.0
 11
7.073999999999999
 21
12.573
 31
0.0
  0
LINE
  5
11AE
330
18
100
AcDbEntity
  8
Object
100
AcDbLine
 10
12.214
 20
11.338
 30
0.0
 11
12.214
 21
12.588
 31
0.0
  0
LINE
  5
11AF
330
18
100
AcDbEntity
  8
Object
100
AcDbLine
 10
8.854
 20
12.103
 30
0.0
 11
8.810999999999999
 21
12.096
 31
0.0
  0
LINE
  5
11B0
330
18
100
AcDbEntity
  8
Object
100
AcDbLine
 10
8.810999999999999
 20
12.096
 30
0.0
 11
8.772
 21
12.076
 31
0.0
  0
LINE
  5
11B1
330
18
100
AcDbEntity
  8
Object
100
AcDbLine
 10
8.772
 20
12.076
 30
0.0
 11
8.740999999999999
 21
12.045
 31
0.0
  0
LINE
  5
11B2
330
18
100
AcDbEntity
  8
Object
100
AcDbLine
 10
8.740999999999999
 20
12.045
 30
0.0
 11
8.721
 21
12.006
 31
0.0
  0
LINE
  5
11B3
330
18
100
AcDbEntity
  8
Object
100
AcDbLine
 10
8.721
 20
12.006
 30
0.0
 11
8.714
 21
11.963
 31
0.0
  0
LINE
  5
11B4
330
18
100
AcDbEntity
  8
Object
100
AcDbLine
 10
6.041
 20
12.666
 30
0.0
 11
6.041
 21
12.604
 31
0.0
  0
LINE
  5
11B5
330
18
100
AcDbEntity
  8
Object
100
AcDbLine
 10
7.751
 20
12.573
 30
0.0
 11
7.751
 21
12.698
 31
0.0
  0
LINE
  5
11B6
330
18
100
AcDbEntity
  8
Object
100
AcDbLine
 10
7.310999999999999
 20
12.683
 30
0.0
 11
7.310999999999999
 21
12.643
 31
0.0
  0
LINE
  5
11B7
330
18
100
AcDbEntity
  8
Object
100
AcDbLine
 10
7.144
 20
12.63
 30
0.0
 11
7.089
 21
12.63
 31
0.0
  0
LINE
  5
11B8
330
18
100
AcDbEntity
  8
Object
100
AcDbLine
 10
7.391
 20
12.686
 30
0.0
 11
7.365
 21
12.673
 31
0.0
  0
LINE
  5
11B9
330
18
100
AcDbEntity
  8
Object
100
AcDbLine
 10
7.349
 20
12.586
 30
0.0
 11
7.349
 21
12.685
 31
0.0
  0
LINE
  5
11BA
330
18
100
AcDbEntity
  8
Object
100
AcDbLine
 10
8.044999999999999
 20
12.698
 30
0.0
 11
8.05
 21
12.698
 31
0.0
  0
LINE
  5
11BB
330
18
100
AcDbEntity
  8
Object
100
AcDbLine
 10
8.044
 20
12.584
 30
0.0
 11
8.044
 21
12.672
 31
0.0
  0
LINE
  5
11BC
330
18
100
AcDbEntity
  8
Object
100
AcDbLine
 10
6.084
 20
12.599
 30
0.0
 11
6.108
 21
12.573
 31
0.0
  0
LINE
  5
11BD
330
18
100
AcDbEntity
  8
Object
100
AcDbLine
 10
6.108
 20
12.573
 30
0.0
 11
6.165
 21
12.573
 31
0.0
  0
LINE
  5
11BE
330
18
100
AcDbEntity
  8
Object
100
AcDbLine
 10
6.173
 20
12.607
 30
0.0
 11
6.173
 21
12.698
 31
0.0
  0
LINE
  5
11BF
330
18
100
AcDbEntity
  8
Object
100
AcDbLine
 10
6.33
 20
12.686
 30
0.0
 11
6.298
 21
12.686
 31
0.0
  0
LINE
  5
11C0
330
18
100
AcDbEntity
  8
Object
100
AcDbLine
 10
6.342999999999999
 20
12.686
 30
0.0
 11
6.342999999999999
 21
12.573
 31
0.0
  0
LINE
  5
11C1
330
18
100
AcDbEntity
  8
Object
100
AcDbLine
 10
2.588999999999999
 20
10.963
 30
0.0
 11
2.948999999999999
 21
10.963
 31
0.0
  0
LINE
  5
11C2
330
18
100
AcDbEntity
  8
Object
100
AcDbLine
 10
6.238999999999999
 20
12.584
 30
0.0
 11
6.241999999999999
 21
12.584
 31
0.0
  0
LINE
  5
11C3
330
18
100
AcDbEntity
  8
Object
100
AcDbLine
 10
5.629
 20
12.573
 30
0.0
 11
5.674999999999999
 21
12.698
 31
0.0
  0
LINE
  5
11C4
330
18
100
AcDbEntity
  8
Object
100
AcDbLine
 10
7.221
 20
12.573
 30
0.0
 11
7.206
 21
12.573
 31
0.0
  0
LINE
  5
11C5
330
18
100
AcDbEntity
  8
Object
100
AcDbLine
 10
7.439
 20
12.673
 30
0.0
 11
7.414
 21
12.686
 31
0.0
  0
LINE
  5
11C6
330
18
100
AcDbEntity
  8
Object
100
AcDbLine
 10
7.711
 20
12.643
 30
0.0
 11
7.689
 21
12.633
 31
0.0
  0
LINE
  5
11C7
330
18
100
AcDbEntity
  8
Object
100
AcDbLine
 10
7.693999999999999
 20
12.573
 30
0.0
 11
7.674
 21
12.63
 31
0.0
  0
LINE
  5
11C8
330
18
100
AcDbEntity
  8
Object
100
AcDbLine
 10
5.501999999999999
 20
12.63
 30
0.0
 11
5.501999999999999
 21
12.573
 31
0.0
  0
LINE
  5
11C9
330
18
100
AcDbEntity
  8
Object
100
AcDbLine
 10
6.084
 20
12.698
 30
0.0
 11
6.099
 21
12.698
 31
0.0
  0
LINE
  5
11CA
330
18
100
AcDbEntity
  8
Object
100
AcDbLine
 10
3.479
 20
10.963
 30
0.0
 11
11.839
 21
10.963
 31
0.0
  0
LINE
  5
11CB
330
18
100
AcDbEntity
  8
Object
100
AcDbLine
 10
7.519
 20
12.686
 30
0.0
 11
7.488
 21
12.686
 31
0.0
  0
LINE
  5
11CC
330
18
100
AcDbEntity
  8
Object
100
AcDbLine
 10
7.532
 20
12.686
 30
0.0
 11
7.532
 21
12.573
 31
0.0
  0
LINE
  5
11CD
330
18
100
AcDbEntity
  8
Object
100
AcDbLine
 10
7.221
 20
12.63
 30
0.0
 11
7.221
 21
12.573
 31
0.0
  0
LINE
  5
11CE
330
18
100
AcDbEntity
  8
Object
100
AcDbLine
 10
7.365
 20
12.597
 30
0.0
 11
7.365
 21
12.627
 31
0.0
  0
LINE
  5
11CF
330
18
100
AcDbEntity
  8
Object
100
AcDbLine
 10
7.365
 20
12.627
 30
0.0
 11
7.391
 21
12.64
 31
0.0
  0
LINE
  5
11D0
330
18
100
AcDbEntity
  8
Object
100
AcDbLine
 10
7.414
 20
12.584
 30
0.0
 11
7.439
 21
12.597
 31
0.0
  0
LINE
  5
11D1
330
18
100
AcDbEntity
  8
Object
100
AcDbLine
 10
7.391
 20
12.64
 30
0.0
 11
7.414
 21
12.64
 31
0.0
  0
LINE
  5
11D2
330
18
100
AcDbEntity
  8
Object
100
AcDbLine
 10
7.414
 20
12.64
 30
0.0
 11
7.439
 21
12.627
 31
0.0
  0
LINE
  5
11D3
330
18
100
AcDbEntity
  8
Object
100
AcDbLine
 10
7.391
 20
12.584
 30
0.0
 11
7.414
 21
12.584
 31
0.0
  0
LINE
  5
11D4
330
18
100
AcDbEntity
  8
Object
100
AcDbLine
 10
7.439
 20
12.597
 30
0.0
 11
7.439
 21
12.627
 31
0.0
  0
LINE
  5
11D5
330
18
100
AcDbEntity
  8
Object
100
AcDbLine
 10
7.365
 20
12.597
 30
0.0
 11
7.391
 21
12.584
 31
0.0
  0
LINE
  5
11D6
330
18
100
AcDbEntity
  8
Object
100
AcDbLine
 10
7.414
 20
12.64
 30
0.0
 11
7.439
 21
12.627
 31
0.0
  0
LINE
  5
11D7
330
18
100
AcDbEntity
  8
Object
100
AcDbLine
 10
7.439
 20
12.627
 30
0.0
 11
7.439
 21
12.597
 31
0.0
  0
LINE
  5
11D8
330
18
100
AcDbEntity
  8
Object
100
AcDbLine
 10
7.439
 20
12.597
 30
0.0
 11
7.414
 21
12.584
 31
0.0
  0
LINE
  5
11D9
330
18
100
AcDbEntity
  8
Object
100
AcDbLine
 10
7.414
 20
12.64
 30
0.0
 11
7.391
 21
12.64
 31
0.0
  0
LINE
  5
11DA
330
18
100
AcDbEntity
  8
Object
100
AcDbLine
 10
7.414
 20
12.584
 30
0.0
 11
7.391
 21
12.584
 31
0.0
  0
LINE
  5
11DB
330
18
100
AcDbEntity
  8
Object
100
AcDbLine
 10
7.391
 20
12.584
 30
0.0
 11
7.365
 21
12.597
 31
0.0
  0
LINE
  5
11DC
330
18
100
AcDbEntity
  8
Object
100
AcDbLine
 10
7.365
 20
12.597
 30
0.0
 11
7.365
 21
12.627
 31
0.0
  0
LINE
  5
11DD
330
18
100
AcDbEntity
  8
Object
100
AcDbLine
 10
7.365
 20
12.627
 30
0.0
 11
7.391
 21
12.64
 31
0.0
  0
LINE
  5
11DE
330
18
100
AcDbEntity
  8
Object
100
AcDbLine
 10
7.83
 20
12.653
 30
0.0
 11
7.83
 21
12.679
 31
0.0
  0
LINE
  5
11DF
330
18
100
AcDbEntity
  8
Object
100
AcDbLine
 10
7.767
 20
12.584
 30
0.0
 11
7.823
 21
12.584
 31
0.0
  0
LINE
  5
11E0
330
18
100
AcDbEntity
  8
Object
100
AcDbLine
 10
7.83
 20
12.679
 30
0.0
 11
7.823999999999999
 21
12.686
 31
0.0
  0
LINE
  5
11E1
330
18
100
AcDbEntity
  8
Object
100
AcDbLine
 10
7.767
 20
12.686
 30
0.0
 11
7.767
 21
12.646
 31
0.0
  0
LINE
  5
11E2
330
18
100
AcDbEntity
  8
Object
100
AcDbLine
 10
7.823999999999999
 20
12.646
 30
0.0
 11
7.83
 21
12.653
 31
0.0
  0
LINE
  5
11E3
330
18
100
AcDbEntity
  8
Object
100
AcDbLine
 10
7.841
 20
12.595
 30
0.0
 11
7.841
 21
12.623
 31
0.0
  0
LINE
  5
11E4
330
18
100
AcDbEntity
  8
Object
100
AcDbLine
 10
7.823
 20
12.635
 30
0.0
 11
7.767
 21
12.635
 31
0.0
  0
LINE
  5
11E5
330
18
100
AcDbEntity
  8
Object
100
AcDbLine
 10
7.767
 20
12.635
 30
0.0
 11
7.767
 21
12.584
 31
0.0
  0
LINE
  5
11E6
330
18
100
AcDbEntity
  8
Object
100
AcDbLine
 10
7.823999999999999
 20
12.686
 30
0.0
 11
7.767
 21
12.686
 31
0.0
  0
LINE
  5
11E7
330
18
100
AcDbEntity
  8
Object
100
AcDbLine
 10
7.767
 20
12.646
 30
0.0
 11
7.823999999999999
 21
12.646
 31
0.0
  0
LINE
  5
11E8
330
18
100
AcDbEntity
  8
Object
100
AcDbLine
 10
7.823
 20
12.584
 30
0.0
 11
7.841
 21
12.595
 31
0.0
  0
LINE
  5
11E9
330
18
100
AcDbEntity
  8
Object
100
AcDbLine
 10
7.841
 20
12.623
 30
0.0
 11
7.823
 21
12.635
 31
0.0
  0
LINE
  5
11EA
330
18
100
AcDbEntity
  8
Object
100
AcDbLine
 10
7.621
 20
12.64
 30
0.0
 11
7.669
 21
12.64
 31
0.0
  0
LINE
  5
11EB
330
18
100
AcDbEntity
  8
Object
100
AcDbLine
 10
7.695
 20
12.655
 30
0.0
 11
7.695
 21
12.673
 31
0.0
  0
LINE
  5
11EC
330
18
100
AcDbEntity
  8
Object
100
AcDbLine
 10
7.695
 20
12.673
 30
0.0
 11
7.669
 21
12.686
 31
0.0
  0
LINE
  5
11ED
330
18
100
AcDbEntity
  8
Object
100
AcDbLine
 10
7.621
 20
12.686
 30
0.0
 11
7.621
 21
12.64
 31
0.0
  0
LINE
  5
11EE
330
18
100
AcDbEntity
  8
Object
100
AcDbLine
 10
7.669
 20
12.64
 30
0.0
 11
7.695
 21
12.655
 31
0.0
  0
LINE
  5
11EF
330
18
100
AcDbEntity
  8
Object
100
AcDbLine
 10
7.669
 20
12.686
 30
0.0
 11
7.621
 21
12.686
 31
0.0
  0
LINE
  5
11F0
330
18
100
AcDbEntity
  8
Object
100
AcDbLine
 10
5.549
 20
12.686
 30
0.0
 11
5.501999999999999
 21
12.686
 31
0.0
  0
LINE
  5
11F1
330
18
100
AcDbEntity
  8
Object
100
AcDbLine
 10
5.501999999999999
 20
12.686
 30
0.0
 11
5.501999999999999
 21
12.64
 31
0.0
  0
LINE
  5
11F2
330
18
100
AcDbEntity
  8
Object
100
AcDbLine
 10
5.501999999999999
 20
12.64
 30
0.0
 11
5.549
 21
12.64
 31
0.0
  0
LINE
  5
11F3
330
18
100
AcDbEntity
  8
Object
100
AcDbLine
 10
5.549
 20
12.64
 30
0.0
 11
5.576
 21
12.655
 31
0.0
  0
LINE
  5
11F4
330
18
100
AcDbEntity
  8
Object
100
AcDbLine
 10
5.576
 20
12.655
 30
0.0
 11
5.576
 21
12.673
 31
0.0
  0
LINE
  5
11F5
330
18
100
AcDbEntity
  8
Object
100
AcDbLine
 10
5.576
 20
12.673
 30
0.0
 11
5.549
 21
12.686
 31
0.0
  0
LINE
  5
11F6
330
18
100
AcDbEntity
  8
Object
100
AcDbLine
 10
5.658
 20
12.607
 30
0.0
 11
5.706999999999999
 21
12.607
 31
0.0
  0
LINE
  5
11F7
330
18
100
AcDbEntity
  8
Object
100
AcDbLine
 10
5.706999999999999
 20
12.607
 30
0.0
 11
5.682999999999999
 21
12.674
 31
0.0
  0
LINE
  5
11F8
330
18
100
AcDbEntity
  8
Object
100
AcDbLine
 10
5.682999999999999
 20
12.674
 30
0.0
 11
5.658
 21
12.607
 31
0.0
  0
LINE
  5
11F9
330
18
100
AcDbEntity
  8
Object
100
AcDbLine
 10
6.001
 20
12.686
 30
0.0
 11
5.951999999999999
 21
12.686
 31
0.0
  0
LINE
  5
11FA
330
18
100
AcDbEntity
  8
Object
100
AcDbLine
 10
5.951999999999999
 20
12.686
 30
0.0
 11
5.951999999999999
 21
12.584
 31
0.0
  0
LINE
  5
11FB
330
18
100
AcDbEntity
  8
Object
100
AcDbLine
 10
5.951999999999999
 20
12.584
 30
0.0
 11
6.001
 21
12.584
 31
0.0
  0
LINE
  5
11FC
330
18
100
AcDbEntity
  8
Object
100
AcDbLine
 10
6.001
 20
12.686
 30
0.0
 11
6.025999999999999
 21
12.659
 31
0.0
  0
LINE
  5
11FD
330
18
100
AcDbEntity
  8
Object
100
AcDbLine
 10
6.025999999999999
 20
12.659
 30
0.0
 11
6.025999999999999
 21
12.612
 31
0.0
  0
LINE
  5
11FE
330
18
100
AcDbEntity
  8
Object
100
AcDbLine
 10
6.025999999999999
 20
12.612
 30
0.0
 11
6.001
 21
12.584
 31
0.0
  0
LINE
  5
11FF
330
18
100
AcDbEntity
  8
Object
100
AcDbLine
 10
7.294999999999999
 20
12.655
 30
0.0
 11
7.294999999999999
 21
12.673
 31
0.0
  0
LINE
  5
1200
330
18
100
AcDbEntity
  8
Object
100
AcDbLine
 10
7.221
 20
12.686
 30
0.0
 11
7.221
 21
12.64
 31
0.0
  0
LINE
  5
1201
330
18
100
AcDbEntity
  8
Object
100
AcDbLine
 10
7.269
 20
12.64
 30
0.0
 11
7.294999999999999
 21
12.655
 31
0.0
  0
LINE
  5
1202
330
18
100
AcDbEntity
  8
Object
100
AcDbLine
 10
7.294999999999999
 20
12.673
 30
0.0
 11
7.269
 21
12.686
 31
0.0
  0
LINE
  5
1203
330
18
100
AcDbEntity
  8
Object
100
AcDbLine
 10
7.269
 20
12.686
 30
0.0
 11
7.221
 21
12.686
 31
0.0
  0
LINE
  5
1204
330
18
100
AcDbEntity
  8
Object
100
AcDbLine
 10
7.221
 20
12.64
 30
0.0
 11
7.269
 21
12.64
 31
0.0
  0
LINE
  5
1205
330
18
100
AcDbEntity
  8
Object
100
AcDbLine
 10
7.823999999999999
 20
12.646
 30
0.0
 11
7.83
 21
12.653
 31
0.0
  0
LINE
  5
1206
330
18
100
AcDbEntity
  8
Object
100
AcDbLine
 10
7.823999999999999
 20
12.686
 30
0.0
 11
7.83
 21
12.679
 31
0.0
  0
LINE
  5
1207
330
18
100
AcDbEntity
  8
Object
100
AcDbLine
 10
7.83
 20
12.679
 30
0.0
 11
7.83
 21
12.653
 31
0.0
  0
LINE
  5
1208
330
18
100
AcDbEntity
  8
Object
100
AcDbLine
 10
7.823999999999999
 20
12.686
 30
0.0
 11
7.767
 21
12.686
 31
0.0
  0
LINE
  5
1209
330
18
100
AcDbEntity
  8
Object
100
AcDbLine
 10
7.767
 20
12.686
 30
0.0
 11
7.767
 21
12.646
 31
0.0
  0
LINE
  5
120A
330
18
100
AcDbEntity
  8
Object
100
AcDbLine
 10
7.767
 20
12.646
 30
0.0
 11
7.823999999999999
 21
12.646
 31
0.0
  0
LINE
  5
120B
330
18
100
AcDbEntity
  8
Object
100
AcDbLine
 10
7.823
 20
12.635
 30
0.0
 11
7.841
 21
12.623
 31
0.0
  0
LINE
  5
120C
330
18
100
AcDbEntity
  8
Object
100
AcDbLine
 10
7.841
 20
12.623
 30
0.0
 11
7.841
 21
12.595
 31
0.0
  0
LINE
  5
120D
330
18
100
AcDbEntity
  8
Object
100
AcDbLine
 10
7.841
 20
12.595
 30
0.0
 11
7.823
 21
12.584
 31
0.0
  0
LINE
  5
120E
330
18
100
AcDbEntity
  8
Object
100
AcDbLine
 10
7.823
 20
12.584
 30
0.0
 11
7.767
 21
12.584
 31
0.0
  0
LINE
  5
120F
330
18
100
AcDbEntity
  8
Object
100
AcDbLine
 10
7.767
 20
12.584
 30
0.0
 11
7.767
 21
12.635
 31
0.0
  0
LINE
  5
1210
330
18
100
AcDbEntity
  8
Object
100
AcDbLine
 10
7.767
 20
12.635
 30
0.0
 11
7.823
 21
12.635
 31
0.0
  0
LINE
  5
1211
330
18
100
AcDbEntity
  8
Object
100
AcDbLine
 10
7.669
 20
12.64
 30
0.0
 11
7.695
 21
12.655
 31
0.0
  0
LINE
  5
1212
330
18
100
AcDbEntity
  8
Object
100
AcDbLine
 10
7.669
 20
12.686
 30
0.0
 11
7.695
 21
12.673
 31
0.0
  0
LINE
  5
1213
330
18
100
AcDbEntity
  8
Object
100
AcDbLine
 10
7.695
 20
12.673
 30
0.0
 11
7.695
 21
12.655
 31
0.0
  0
LINE
  5
1214
330
18
100
AcDbEntity
  8
Object
100
AcDbLine
 10
7.669
 20
12.686
 30
0.0
 11
7.621
 21
12.686
 31
0.0
  0
LINE
  5
1215
330
18
100
AcDbEntity
  8
Object
100
AcDbLine
 10
7.621
 20
12.686
 30
0.0
 11
7.621
 21
12.64
 31
0.0
  0
LINE
  5
1216
330
18
100
AcDbEntity
  8
Object
100
AcDbLine
 10
7.621
 20
12.64
 30
0.0
 11
7.669
 21
12.64
 31
0.0
  0
LINE
  5
1217
330
18
100
AcDbEntity
  8
Object
100
AcDbLine
 10
5.549
 20
12.64
 30
0.0
 11
5.576
 21
12.655
 31
0.0
  0
LINE
  5
1218
330
18
100
AcDbEntity
  8
Object
100
AcDbLine
 10
5.549
 20
12.686
 30
0.0
 11
5.576
 21
12.673
 31
0.0
  0
LINE
  5
1219
330
18
100
AcDbEntity
  8
Object
100
AcDbLine
 10
5.576
 20
12.673
 30
0.0
 11
5.576
 21
12.655
 31
0.0
  0
LINE
  5
121A
330
18
100
AcDbEntity
  8
Object
100
AcDbLine
 10
5.549
 20
12.64
 30
0.0
 11
5.501999999999999
 21
12.64
 31
0.0
  0
LINE
  5
121B
330
18
100
AcDbEntity
  8
Object
100
AcDbLine
 10
5.501999999999999
 20
12.64
 30
0.0
 11
5.501999999999999
 21
12.686
 31
0.0
  0
LINE
  5
121C
330
18
100
AcDbEntity
  8
Object
100
AcDbLine
 10
5.501999999999999
 20
12.686
 30
0.0
 11
5.549
 21
12.686
 31
0.0
  0
LINE
  5
121D
330
18
100
AcDbEntity
  8
Object
100
AcDbLine
 10
5.706999999999999
 20
12.607
 30
0.0
 11
5.658
 21
12.607
 31
0.0
  0
LINE
  5
121E
330
18
100
AcDbEntity
  8
Object
100
AcDbLine
 10
5.658
 20
12.607
 30
0.0
 11
5.682999999999999
 21
12.674
 31
0.0
  0
LINE
  5
121F
330
18
100
AcDbEntity
  8
Object
100
AcDbLine
 10
5.682999999999999
 20
12.674
 30
0.0
 11
5.706999999999999
 21
12.607
 31
0.0
  0
LINE
  5
1220
330
18
100
AcDbEntity
  8
Object
100
AcDbLine
 10
6.001
 20
12.686
 30
0.0
 11
6.025999999999999
 21
12.659
 31
0.0
  0
LINE
  5
1221
330
18
100
AcDbEntity
  8
Object
100
AcDbLine
 10
6.025999999999999
 20
12.659
 30
0.0
 11
6.025999999999999
 21
12.612
 31
0.0
  0
LINE
  5
1222
330
18
100
AcDbEntity
  8
Object
100
AcDbLine
 10
6.025999999999999
 20
12.612
 30
0.0
 11
6.001
 21
12.584
 31
0.0
  0
LINE
  5
1223
330
18
100
AcDbEntity
  8
Object
100
AcDbLine
 10
6.001
 20
12.584
 30
0.0
 11
5.951999999999999
 21
12.584
 31
0.0
  0
LINE
  5
1224
330
18
100
AcDbEntity
  8
Object
100
AcDbLine
 10
5.951999999999999
 20
12.584
 30
0.0
 11
5.951999999999999
 21
12.686
 31
0.0
  0
LINE
  5
1225
330
18
100
AcDbEntity
  8
Object
100
AcDbLine
 10
5.951999999999999
 20
12.686
 30
0.0
 11
6.001
 21
12.686
 31
0.0
  0
LINE
  5
1226
330
18
100
AcDbEntity
  8
Object
100
AcDbLine
 10
7.269
 20
12.686
 30
0.0
 11
7.294999999999999
 21
12.673
 31
0.0
  0
LINE
  5
1227
330
18
100
AcDbEntity
  8
Object
100
AcDbLine
 10
7.294999999999999
 20
12.673
 30
0.0
 11
7.294999999999999
 21
12.655
 31
0.0
  0
LINE
  5
1228
330
18
100
AcDbEntity
  8
Object
100
AcDbLine
 10
7.294999999999999
 20
12.655
 30
0.0
 11
7.269
 21
12.64
 31
0.0
  0
LINE
  5
1229
330
18
100
AcDbEntity
  8
Object
100
AcDbLine
 10
7.269
 20
12.64
 30
0.0
 11
7.221
 21
12.64
 31
0.0
  0
LINE
  5
122A
330
18
100
AcDbEntity
  8
Object
100
AcDbLine
 10
7.221
 20
12.64
 30
0.0
 11
7.221
 21
12.686
 31
0.0
  0
LINE
  5
122B
330
18
100
AcDbEntity
  8
Object
100
AcDbLine
 10
7.221
 20
12.686
 30
0.0
 11
7.269
 21
12.686
 31
0.0
  0
LINE
  5
122C
330
18
100
AcDbEntity
  8
Object
100
AcDbLine
 10
5.078
 20
11.741
 30
0.0
 11
5.07
 21
11.741
 31
0.0
  0
LINE
  5
122D
330
18
100
AcDbEntity
  8
Object
100
AcDbLine
 10
5.07
 20
11.741
 30
0.0
 11
4.905999999999999
 21
11.741
 31
0.0
  0
LINE
  5
122E
330
18
100
AcDbEntity
  8
Object
100
AcDbLine
 10
4.905999999999999
 20
11.741
 30
0.0
 11
4.875
 21
11.741
 31
0.0
  0
LINE
  5
122F
330
18
100
AcDbEntity
  8
Object
100
AcDbLine
 10
4.875
 20
11.741
 30
0.0
 11
4.85
 21
11.741
 31
0.0
  0
LINE
  5
1230
330
18
100
AcDbEntity
  8
Object
100
AcDbLine
 10
4.85
 20
11.741
 30
0.0
 11
4.831999999999999
 21
11.741
 31
0.0
  0
LINE
  5
1231
330
18
100
AcDbEntity
  8
Object
100
AcDbLine
 10
4.831999999999999
 20
11.741
 30
0.0
 11
4.825
 21
11.741
 31
0.0
  0
LINE
  5
1232
330
18
100
AcDbEntity
  8
Object
100
AcDbLine
 10
4.825
 20
11.741
 30
0.0
 11
4.823
 21
11.741
 31
0.0
  0
LINE
  5
1233
330
18
100
AcDbEntity
  8
Object
100
AcDbLine
 10
4.823
 20
11.741
 30
0.0
 11
4.818
 21
11.741
 31
0.0
  0
LINE
  5
1234
330
18
100
AcDbEntity
  8
Object
100
AcDbLine
 10
4.818
 20
11.741
 30
0.0
 11
4.81
 21
11.741
 31
0.0
  0
LINE
  5
1235
330
18
100
AcDbEntity
  8
Object
100
AcDbLine
 10
4.81
 20
11.741
 30
0.0
 11
4.759999999999999
 21
11.741
 31
0.0
  0
LINE
  5
1236
330
18
100
AcDbEntity
  8
Object
100
AcDbLine
 10
5.078
 20
11.338
 30
0.0
 11
5.07
 21
11.338
 31
0.0
  0
LINE
  5
1237
330
18
100
AcDbEntity
  8
Object
100
AcDbLine
 10
5.07
 20
11.338
 30
0.0
 11
4.905999999999999
 21
11.338
 31
0.0
  0
LINE
  5
1238
330
18
100
AcDbEntity
  8
Object
100
AcDbLine
 10
4.905999999999999
 20
11.338
 30
0.0
 11
4.875
 21
11.338
 31
0.0
  0
LINE
  5
1239
330
18
100
AcDbEntity
  8
Object
100
AcDbLine
 10
4.875
 20
11.338
 30
0.0
 11
4.85
 21
11.338
 31
0.0
  0
LINE
  5
123A
330
18
100
AcDbEntity
  8
Object
100
AcDbLine
 10
4.85
 20
11.338
 30
0.0
 11
4.831999999999999
 21
11.338
 31
0.0
  0
LINE
  5
123B
330
18
100
AcDbEntity
  8
Object
100
AcDbLine
 10
4.831999999999999
 20
11.338
 30
0.0
 11
4.825
 21
11.338
 31
0.0
  0
LINE
  5
123C
330
18
100
AcDbEntity
  8
Object
100
AcDbLine
 10
4.825
 20
11.338
 30
0.0
 11
4.823
 21
11.338
 31
0.0
  0
LINE
  5
123D
330
18
100
AcDbEntity
  8
Object
100
AcDbLine
 10
4.823
 20
11.338
 30
0.0
 11
4.818
 21
11.338
 31
0.0
  0
LINE
  5
123E
330
18
100
AcDbEntity
  8
Object
100
AcDbLine
 10
4.818
 20
11.338
 30
0.0
 11
4.81
 21
11.338
 31
0.0
  0
LINE
  5
123F
330
18
100
AcDbEntity
  8
Object
100
AcDbLine
 10
4.81
 20
11.338
 30
0.0
 11
4.302999999999999
 21
11.338
 31
0.0
  0
LINE
  5
1240
330
18
100
AcDbEntity
  8
Object
100
AcDbLine
 10
5.118
 20
11.701
 30
0.0
 11
5.112
 21
11.721
 31
0.0
  0
LINE
  5
1241
330
18
100
AcDbEntity
  8
Object
100
AcDbLine
 10
5.097999999999999
 20
11.343
 30
0.0
 11
5.112
 21
11.358
 31
0.0
  0
LINE
  5
1242
330
18
100
AcDbEntity
  8
Object
100
AcDbLine
 10
5.112
 20
11.358
 30
0.0
 11
5.118
 21
11.378
 31
0.0
  0
LINE
  5
1243
330
18
100
AcDbEntity
  8
Object
100
AcDbLine
 10
5.118
 20
11.378
 30
0.0
 11
5.118
 21
11.701
 31
0.0
  0
LINE
  5
1244
330
18
100
AcDbEntity
  8
Object
100
AcDbLine
 10
4.81
 20
12.588
 30
0.0
 11
4.81
 21
12.185
 31
0.0
  0
LINE
  5
1245
330
18
100
AcDbEntity
  8
Object
100
AcDbLine
 10
4.81
 20
12.185
 30
0.0
 11
4.759999999999999
 21
12.185
 31
0.0
  0
LINE
  5
1246
330
18
100
AcDbEntity
  8
Object
100
AcDbLine
 10
4.759999999999999
 20
11.741
 30
0.0
 11
4.81
 21
11.741
 31
0.0
  0
LINE
  5
1247
330
18
100
AcDbEntity
  8
Object
100
AcDbLine
 10
4.81
 20
11.741
 30
0.0
 11
4.81
 21
11.338
 31
0.0
  0
LINE
  5
1248
330
18
100
AcDbEntity
  8
Object
100
AcDbLine
 10
4.738
 20
12.179
 30
0.0
 11
4.759999999999999
 21
12.185
 31
0.0
  0
LINE
  5
1249
330
18
100
AcDbEntity
  8
Object
100
AcDbLine
 10
4.759999999999999
 20
11.741
 30
0.0
 11
4.738
 21
11.747
 31
0.0
  0
LINE
  5
124A
330
18
100
AcDbEntity
  8
Object
100
AcDbLine
 10
4.738
 20
12.101
 30
0.0
 11
4.759999999999999
 21
12.095
 31
0.0
  0
LINE
  5
124B
330
18
100
AcDbEntity
  8
Object
100
AcDbLine
 10
4.759999999999999
 20
12.095
 30
0.0
 11
4.78
 21
12.095
 31
0.0
  0
LINE
  5
124C
330
18
100
AcDbEntity
  8
Object
100
AcDbLine
 10
4.78
 20
12.095
 30
0.0
 11
4.78
 21
11.831
 31
0.0
  0
LINE
  5
124D
330
18
100
AcDbEntity
  8
Object
100
AcDbLine
 10
4.78
 20
11.831
 30
0.0
 11
4.759999999999999
 21
11.831
 31
0.0
  0
LINE
  5
124E
330
18
100
AcDbEntity
  8
Object
100
AcDbLine
 10
4.759999999999999
 20
11.831
 30
0.0
 11
4.738
 21
11.825
 31
0.0
  0
LINE
  5
124F
330
18
100
AcDbEntity
  8
Object
100
AcDbLine
 10
4.738
 20
12.101
 30
0.0
 11
4.721
 21
12.117
 31
0.0
  0
LINE
  5
1250
330
18
100
AcDbEntity
  8
Object
100
AcDbLine
 10
4.721
 20
11.808
 30
0.0
 11
4.738
 21
11.825
 31
0.0
  0
LINE
  5
1251
330
18
100
AcDbEntity
  8
Object
100
AcDbLine
 10
4.721
 20
12.117
 30
0.0
 11
4.714999999999999
 21
12.14
 31
0.0
  0
LINE
  5
1252
330
18
100
AcDbEntity
  8
Object
100
AcDbLine
 10
4.714999999999999
 20
11.786
 30
0.0
 11
4.721
 21
11.808
 31
0.0
  0
LINE
  5
1253
330
18
100
AcDbEntity
  8
Object
100
AcDbLine
 10
4.714999999999999
 20
12.14
 30
0.0
 11
4.721
 21
12.162
 31
0.0
  0
LINE
  5
1254
330
18
100
AcDbEntity
  8
Object
100
AcDbLine
 10
4.721
 20
11.763
 30
0.0
 11
4.714999999999999
 21
11.786
 31
0.0
  0
LINE
  5
1255
330
18
100
AcDbEntity
  8
Object
100
AcDbLine
 10
4.721
 20
12.162
 30
0.0
 11
4.738
 21
12.179
 31
0.0
  0
LINE
  5
1256
330
18
100
AcDbEntity
  8
Object
100
AcDbLine
 10
4.738
 20
11.747
 30
0.0
 11
4.721
 21
11.763
 31
0.0
  0
LINE
  5
1257
330
18
100
AcDbEntity
  8
Object
100
AcDbLine
 10
4.81
 20
12.588
 30
0.0
 11
4.302999999999999
 21
12.588
 31
0.0
  0
LINE
  5
1258
330
18
100
AcDbEntity
  8
Object
100
AcDbLine
 10
4.302999999999999
 20
11.338
 30
0.0
 11
4.81
 21
11.338
 31
0.0
  0
LINE
  5
1259
330
18
100
AcDbEntity
  8
Object
100
AcDbLine
 10
4.23
 20
12.564
 30
0.0
 11
4.201999999999999
 21
12.536
 31
0.0
  0
LINE
  5
125A
330
18
100
AcDbEntity
  8
Object
100
AcDbLine
 10
4.177999999999999
 20
12.463
 30
0.0
 11
4.184
 21
12.501
 31
0.0
  0
LINE
  5
125B
330
18
100
AcDbEntity
  8
Object
100
AcDbLine
 10
4.184
 20
12.501
 30
0.0
 11
4.201999999999999
 21
12.536
 31
0.0
  0
LINE
  5
125C
330
18
100
AcDbEntity
  8
Object
100
AcDbLine
 10
4.23
 20
12.564
 30
0.0
 11
4.264999999999999
 21
12.582
 31
0.0
  0
LINE
  5
125D
330
18
100
AcDbEntity
  8
Object
100
AcDbLine
 10
4.264999999999999
 20
12.582
 30
0.0
 11
4.302999999999999
 21
12.588
 31
0.0
  0
LINE
  5
125E
330
18
100
AcDbEntity
  8
Object
100
AcDbLine
 10
4.177999999999999
 20
12.463
 30
0.0
 11
4.177999999999999
 21
11.463
 31
0.0
  0
LINE
  5
125F
330
18
100
AcDbEntity
  8
Object
100
AcDbLine
 10
4.302999999999999
 20
11.338
 30
0.0
 11
4.264999999999999
 21
11.344
 31
0.0
  0
LINE
  5
1260
330
18
100
AcDbEntity
  8
Object
100
AcDbLine
 10
4.264999999999999
 20
11.344
 30
0.0
 11
4.23
 21
11.362
 31
0.0
  0
LINE
  5
1261
330
18
100
AcDbEntity
  8
Object
100
AcDbLine
 10
4.23
 20
11.362
 30
0.0
 11
4.201999999999999
 21
11.389
 31
0.0
  0
LINE
  5
1262
330
18
100
AcDbEntity
  8
Object
100
AcDbLine
 10
4.201999999999999
 20
11.389
 30
0.0
 11
4.184
 21
11.424
 31
0.0
  0
LINE
  5
1263
330
18
100
AcDbEntity
  8
Object
100
AcDbLine
 10
4.184
 20
11.424
 30
0.0
 11
4.177999999999999
 21
11.463
 31
0.0
  0
LINE
  5
1264
330
18
100
AcDbEntity
  8
Object
100
AcDbLine
 10
4.875
 20
11.741
 30
0.0
 11
4.905999999999999
 21
11.741
 31
0.0
  0
LINE
  5
1265
330
18
100
AcDbEntity
  8
Object
100
AcDbLine
 10
4.905999999999999
 20
11.741
 30
0.0
 11
4.905999999999999
 21
11.338
 31
0.0
  0
LINE
  5
1266
330
18
100
AcDbEntity
  8
Object
100
AcDbLine
 10
4.905999999999999
 20
11.338
 30
0.0
 11
4.875
 21
11.338
 31
0.0
  0
LINE
  5
1267
330
18
100
AcDbEntity
  8
Object
100
AcDbLine
 10
4.875
 20
11.741
 30
0.0
 11
4.85
 21
11.741
 31
0.0
  0
LINE
  5
1268
330
18
100
AcDbEntity
  8
Object
100
AcDbLine
 10
4.875
 20
11.338
 30
0.0
 11
4.85
 21
11.338
 31
0.0
  0
LINE
  5
1269
330
18
100
AcDbEntity
  8
Object
100
AcDbLine
 10
4.85
 20
11.338
 30
0.0
 11
4.831999999999999
 21
11.338
 31
0.0
  0
LINE
  5
126A
330
18
100
AcDbEntity
  8
Object
100
AcDbLine
 10
4.85
 20
11.741
 30
0.0
 11
4.831999999999999
 21
11.741
 31
0.0
  0
LINE
  5
126B
330
18
100
AcDbEntity
  8
Object
100
AcDbLine
 10
4.831999999999999
 20
11.741
 30
0.0
 11
4.825
 21
11.741
 31
0.0
  0
LINE
  5
126C
330
18
100
AcDbEntity
  8
Object
100
AcDbLine
 10
4.825
 20
11.338
 30
0.0
 11
4.831999999999999
 21
11.338
 31
0.0
  0
LINE
  5
126D
330
18
100
AcDbEntity
  8
Object
100
AcDbLine
 10
5.11
 20
11.701
 30
0.0
 11
5.118
 21
11.701
 31
0.0
  0
LINE
  5
126E
330
18
100
AcDbEntity
  8
Object
100
AcDbLine
 10
5.112
 20
11.721
 30
0.0
 11
5.097999999999999
 21
11.735
 31
0.0
  0
LINE
  5
126F
330
18
100
AcDbEntity
  8
Object
100
AcDbLine
 10
5.089999999999999
 20
11.735
 30
0.0
 11
5.07
 21
11.741
 31
0.0
  0
LINE
  5
1270
330
18
100
AcDbEntity
  8
Object
100
AcDbLine
 10
5.07
 20
11.741
 30
0.0
 11
5.078
 21
11.741
 31
0.0
  0
LINE
  5
1271
330
18
100
AcDbEntity
  8
Object
100
AcDbLine
 10
5.078
 20
11.741
 30
0.0
 11
5.097999999999999
 21
11.735
 31
0.0
  0
LINE
  5
1272
330
18
100
AcDbEntity
  8
Object
100
AcDbLine
 10
4.738
 20
11.825
 30
0.0
 11
4.759999999999999
 21
11.831
 31
0.0
  0
LINE
  5
1273
330
18
100
AcDbEntity
  8
Object
100
AcDbLine
 10
4.759999999999999
 20
11.741
 30
0.0
 11
4.738
 21
11.747
 31
0.0
  0
LINE
  5
1274
330
18
100
AcDbEntity
  8
Object
100
AcDbLine
 10
4.738
 20
11.747
 30
0.0
 11
4.721
 21
11.763
 31
0.0
  0
LINE
  5
1275
330
18
100
AcDbEntity
  8
Object
100
AcDbLine
 10
4.738
 20
11.825
 30
0.0
 11
4.721
 21
11.808
 31
0.0
  0
LINE
  5
1276
330
18
100
AcDbEntity
  8
Object
100
AcDbLine
 10
4.721
 20
11.808
 30
0.0
 11
4.714999999999999
 21
11.786
 31
0.0
  0
LINE
  5
1277
330
18
100
AcDbEntity
  8
Object
100
AcDbLine
 10
4.714999999999999
 20
11.786
 30
0.0
 11
4.721
 21
11.763
 31
0.0
  0
LINE
  5
1278
330
18
100
AcDbEntity
  8
Object
100
AcDbLine
 10
4.823
 20
11.741
 30
0.0
 11
4.825
 21
11.741
 31
0.0
  0
LINE
  5
1279
330
18
100
AcDbEntity
  8
Object
100
AcDbLine
 10
4.825
 20
11.741
 30
0.0
 11
4.825
 21
11.338
 31
0.0
  0
LINE
  5
127A
330
18
100
AcDbEntity
  8
Object
100
AcDbLine
 10
4.825
 20
11.338
 30
0.0
 11
4.823
 21
11.338
 31
0.0
  0
LINE
  5
127B
330
18
100
AcDbEntity
  8
Object
100
AcDbLine
 10
4.823
 20
11.741
 30
0.0
 11
4.818
 21
11.741
 31
0.0
  0
LINE
  5
127C
330
18
100
AcDbEntity
  8
Object
100
AcDbLine
 10
4.823
 20
11.338
 30
0.0
 11
4.818
 21
11.338
 31
0.0
  0
LINE
  5
127D
330
18
100
AcDbEntity
  8
Object
100
AcDbLine
 10
4.818
 20
11.338
 30
0.0
 11
4.81
 21
11.338
 31
0.0
  0
LINE
  5
127E
330
18
100
AcDbEntity
  8
Object
100
AcDbLine
 10
4.818
 20
11.741
 30
0.0
 11
4.81
 21
11.741
 31
0.0
  0
LINE
  5
127F
330
18
100
AcDbEntity
  8
Object
100
AcDbLine
 10
5.089999999999999
 20
11.735
 30
0.0
 11
5.104
 21
11.721
 31
0.0
  0
LINE
  5
1280
330
18
100
AcDbEntity
  8
Object
100
AcDbLine
 10
5.104
 20
11.721
 30
0.0
 11
5.11
 21
11.701
 31
0.0
  0
LINE
  5
1281
330
18
100
AcDbEntity
  8
Object
100
AcDbLine
 10
5.11
 20
11.378
 30
0.0
 11
5.104
 21
11.358
 31
0.0
  0
LINE
  5
1282
330
18
100
AcDbEntity
  8
Object
100
AcDbLine
 10
5.104
 20
11.358
 30
0.0
 11
5.089999999999999
 21
11.343
 31
0.0
  0
LINE
  5
1283
330
18
100
AcDbEntity
  8
Object
100
AcDbLine
 10
5.089999999999999
 20
11.343
 30
0.0
 11
5.07
 21
11.338
 31
0.0
  0
LINE
  5
1284
330
18
100
AcDbEntity
  8
Object
100
AcDbLine
 10
5.07
 20
11.741
 30
0.0
 11
4.905999999999999
 21
11.741
 31
0.0
  0
LINE
  5
1285
330
18
100
AcDbEntity
  8
Object
100
AcDbLine
 10
4.905999999999999
 20
11.338
 30
0.0
 11
5.07
 21
11.338
 31
0.0
  0
LINE
  5
1286
330
18
100
AcDbEntity
  8
Object
100
AcDbLine
 10
5.11
 20
11.378
 30
0.0
 11
5.11
 21
11.701
 31
0.0
  0
LINE
  5
1287
330
18
100
AcDbEntity
  8
Object
100
AcDbLine
 10
4.302999999999999
 20
11.338
 30
0.0
 11
4.264999999999999
 21
11.344
 31
0.0
  0
LINE
  5
1288
330
18
100
AcDbEntity
  8
Object
100
AcDbLine
 10
4.264999999999999
 20
11.344
 30
0.0
 11
4.23
 21
11.362
 31
0.0
  0
LINE
  5
1289
330
18
100
AcDbEntity
  8
Object
100
AcDbLine
 10
4.23
 20
11.362
 30
0.0
 11
4.201999999999999
 21
11.389
 31
0.0
  0
LINE
  5
128A
330
18
100
AcDbEntity
  8
Object
100
AcDbLine
 10
4.201999999999999
 20
11.389
 30
0.0
 11
4.184
 21
11.424
 31
0.0
  0
LINE
  5
128B
330
18
100
AcDbEntity
  8
Object
100
AcDbLine
 10
4.184
 20
11.424
 30
0.0
 11
4.177999999999999
 21
11.463
 31
0.0
  0
LINE
  5
128C
330
18
100
AcDbEntity
  8
Object
100
AcDbLine
 10
5.118
 20
11.378
 30
0.0
 11
5.11
 21
11.378
 31
0.0
  0
LINE
  5
128D
330
18
100
AcDbEntity
  8
Object
100
AcDbLine
 10
5.097999999999999
 20
11.343
 30
0.0
 11
5.078
 21
11.338
 31
0.0
  0
LINE
  5
128E
330
18
100
AcDbEntity
  8
Object
100
AcDbLine
 10
5.078
 20
11.338
 30
0.0
 11
5.07
 21
11.338
 31
0.0
  0
LINE
  5
128F
330
18
100
AcDbEntity
  8
Object
100
AcDbLine
 10
4.177999999999999
 20
12.463
 30
0.0
 11
4.177999999999999
 21
11.463
 31
0.0
  0
LINE
  5
1290
330
18
100
AcDbEntity
  8
Object
100
AcDbLine
 10
4.78
 20
12.095
 30
0.0
 11
4.759999999999999
 21
12.095
 31
0.0
  0
LINE
  5
1291
330
18
100
AcDbEntity
  8
Object
100
AcDbLine
 10
4.302999999999999
 20
12.588
 30
0.0
 11
4.264999999999999
 21
12.582
 31
0.0
  0
LINE
  5
1292
330
18
100
AcDbEntity
  8
Object
100
AcDbLine
 10
4.264999999999999
 20
12.582
 30
0.0
 11
4.23
 21
12.564
 31
0.0
  0
LINE
  5
1293
330
18
100
AcDbEntity
  8
Object
100
AcDbLine
 10
4.23
 20
12.564
 30
0.0
 11
4.201999999999999
 21
12.536
 31
0.0
  0
LINE
  5
1294
330
18
100
AcDbEntity
  8
Object
100
AcDbLine
 10
4.201999999999999
 20
12.536
 30
0.0
 11
4.184
 21
12.501
 31
0.0
  0
LINE
  5
1295
330
18
100
AcDbEntity
  8
Object
100
AcDbLine
 10
4.184
 20
12.501
 30
0.0
 11
4.177999999999999
 21
12.463
 31
0.0
  0
LINE
  5
1296
330
18
100
AcDbEntity
  8
Object
100
AcDbLine
 10
4.823
 20
12.588
 30
0.0
 11
4.825
 21
12.588
 31
0.0
  0
LINE
  5
1297
330
18
100
AcDbEntity
  8
Object
100
AcDbLine
 10
4.825
 20
12.588
 30
0.0
 11
4.825
 21
12.185
 31
0.0
  0
LINE
  5
1298
330
18
100
AcDbEntity
  8
Object
100
AcDbLine
 10
4.825
 20
12.185
 30
0.0
 11
4.823
 21
12.185
 31
0.0
  0
LINE
  5
1299
330
18
100
AcDbEntity
  8
Object
100
AcDbLine
 10
4.823
 20
12.185
 30
0.0
 11
4.818
 21
12.185
 31
0.0
  0
LINE
  5
129A
330
18
100
AcDbEntity
  8
Object
100
AcDbLine
 10
4.823
 20
12.588
 30
0.0
 11
4.818
 21
12.588
 31
0.0
  0
LINE
  5
129B
330
18
100
AcDbEntity
  8
Object
100
AcDbLine
 10
4.81
 20
12.185
 30
0.0
 11
4.818
 21
12.185
 31
0.0
  0
LINE
  5
129C
330
18
100
AcDbEntity
  8
Object
100
AcDbLine
 10
4.818
 20
12.588
 30
0.0
 11
4.81
 21
12.588
 31
0.0
  0
LINE
  5
129D
330
18
100
AcDbEntity
  8
Object
100
AcDbLine
 10
5.078
 20
12.588
 30
0.0
 11
5.07
 21
12.588
 31
0.0
  0
LINE
  5
129E
330
18
100
AcDbEntity
  8
Object
100
AcDbLine
 10
5.07
 20
12.588
 30
0.0
 11
4.905999999999999
 21
12.588
 31
0.0
  0
LINE
  5
129F
330
18
100
AcDbEntity
  8
Object
100
AcDbLine
 10
4.905999999999999
 20
12.588
 30
0.0
 11
4.875
 21
12.588
 31
0.0
  0
LINE
  5
12A0
330
18
100
AcDbEntity
  8
Object
100
AcDbLine
 10
4.875
 20
12.588
 30
0.0
 11
4.85
 21
12.588
 31
0.0
  0
LINE
  5
12A1
330
18
100
AcDbEntity
  8
Object
100
AcDbLine
 10
4.85
 20
12.588
 30
0.0
 11
4.831999999999999
 21
12.588
 31
0.0
  0
LINE
  5
12A2
330
18
100
AcDbEntity
  8
Object
100
AcDbLine
 10
4.831999999999999
 20
12.588
 30
0.0
 11
4.825
 21
12.588
 31
0.0
  0
LINE
  5
12A3
330
18
100
AcDbEntity
  8
Object
100
AcDbLine
 10
4.825
 20
12.588
 30
0.0
 11
4.823
 21
12.588
 31
0.0
  0
LINE
  5
12A4
330
18
100
AcDbEntity
  8
Object
100
AcDbLine
 10
4.823
 20
12.588
 30
0.0
 11
4.818
 21
12.588
 31
0.0
  0
LINE
  5
12A5
330
18
100
AcDbEntity
  8
Object
100
AcDbLine
 10
4.818
 20
12.588
 30
0.0
 11
4.81
 21
12.588
 31
0.0
  0
LINE
  5
12A6
330
18
100
AcDbEntity
  8
Object
100
AcDbLine
 10
4.81
 20
12.588
 30
0.0
 11
4.302999999999999
 21
12.588
 31
0.0
  0
LINE
  5
12A7
330
18
100
AcDbEntity
  8
Object
100
AcDbLine
 10
5.078
 20
12.185
 30
0.0
 11
5.07
 21
12.185
 31
0.0
  0
LINE
  5
12A8
330
18
100
AcDbEntity
  8
Object
100
AcDbLine
 10
5.07
 20
12.185
 30
0.0
 11
4.905999999999999
 21
12.185
 31
0.0
  0
LINE
  5
12A9
330
18
100
AcDbEntity
  8
Object
100
AcDbLine
 10
4.905999999999999
 20
12.185
 30
0.0
 11
4.875
 21
12.185
 31
0.0
  0
LINE
  5
12AA
330
18
100
AcDbEntity
  8
Object
100
AcDbLine
 10
4.875
 20
12.185
 30
0.0
 11
4.85
 21
12.185
 31
0.0
  0
LINE
  5
12AB
330
18
100
AcDbEntity
  8
Object
100
AcDbLine
 10
4.85
 20
12.185
 30
0.0
 11
4.831999999999999
 21
12.185
 31
0.0
  0
LINE
  5
12AC
330
18
100
AcDbEntity
  8
Object
100
AcDbLine
 10
4.831999999999999
 20
12.185
 30
0.0
 11
4.825
 21
12.185
 31
0.0
  0
LINE
  5
12AD
330
18
100
AcDbEntity
  8
Object
100
AcDbLine
 10
4.825
 20
12.185
 30
0.0
 11
4.823
 21
12.185
 31
0.0
  0
LINE
  5
12AE
330
18
100
AcDbEntity
  8
Object
100
AcDbLine
 10
4.823
 20
12.185
 30
0.0
 11
4.818
 21
12.185
 31
0.0
  0
LINE
  5
12AF
330
18
100
AcDbEntity
  8
Object
100
AcDbLine
 10
4.818
 20
12.185
 30
0.0
 11
4.81
 21
12.185
 31
0.0
  0
LINE
  5
12B0
330
18
100
AcDbEntity
  8
Object
100
AcDbLine
 10
4.81
 20
12.185
 30
0.0
 11
4.759999999999999
 21
12.185
 31
0.0
  0
LINE
  5
12B1
330
18
100
AcDbEntity
  8
Object
100
AcDbLine
 10
4.759999999999999
 20
12.185
 30
0.0
 11
4.738
 21
12.179
 31
0.0
  0
LINE
  5
12B2
330
18
100
AcDbEntity
  8
Object
100
AcDbLine
 10
4.759999999999999
 20
12.095
 30
0.0
 11
4.738
 21
12.101
 31
0.0
  0
LINE
  5
12B3
330
18
100
AcDbEntity
  8
Object
100
AcDbLine
 10
4.738
 20
12.101
 30
0.0
 11
4.721
 21
12.117
 31
0.0
  0
LINE
  5
12B4
330
18
100
AcDbEntity
  8
Object
100
AcDbLine
 10
4.738
 20
12.179
 30
0.0
 11
4.721
 21
12.162
 31
0.0
  0
LINE
  5
12B5
330
18
100
AcDbEntity
  8
Object
100
AcDbLine
 10
4.721
 20
12.162
 30
0.0
 11
4.714999999999999
 21
12.14
 31
0.0
  0
LINE
  5
12B6
330
18
100
AcDbEntity
  8
Object
100
AcDbLine
 10
4.714999999999999
 20
12.14
 30
0.0
 11
4.721
 21
12.117
 31
0.0
  0
LINE
  5
12B7
330
18
100
AcDbEntity
  8
Object
100
AcDbLine
 10
4.759999999999999
 20
11.831
 30
0.0
 11
4.78
 21
11.831
 31
0.0
  0
LINE
  5
12B8
330
18
100
AcDbEntity
  8
Object
100
AcDbLine
 10
4.825
 20
12.095
 30
0.0
 11
4.844
 21
12.095
 31
0.0
  0
LINE
  5
12B9
330
18
100
AcDbEntity
  8
Object
100
AcDbLine
 10
4.844
 20
12.095
 30
0.0
 11
4.844
 21
11.831
 31
0.0
  0
LINE
  5
12BA
330
18
100
AcDbEntity
  8
Object
100
AcDbLine
 10
4.844
 20
11.831
 30
0.0
 11
4.825
 21
11.831
 31
0.0
  0
LINE
  5
12BB
330
18
100
AcDbEntity
  8
Object
100
AcDbLine
 10
4.825
 20
11.831
 30
0.0
 11
4.804
 21
11.831
 31
0.0
  0
LINE
  5
12BC
330
18
100
AcDbEntity
  8
Object
100
AcDbLine
 10
4.825
 20
12.095
 30
0.0
 11
4.804
 21
12.095
 31
0.0
  0
LINE
  5
12BD
330
18
100
AcDbEntity
  8
Object
100
AcDbLine
 10
4.78
 20
11.831
 30
0.0
 11
4.804
 21
11.831
 31
0.0
  0
LINE
  5
12BE
330
18
100
AcDbEntity
  8
Object
100
AcDbLine
 10
4.804
 20
12.095
 30
0.0
 11
4.78
 21
12.095
 31
0.0
  0
LINE
  5
12BF
330
18
100
AcDbEntity
  8
Object
100
AcDbLine
 10
4.844
 20
12.095
 30
0.0
 11
4.825
 21
12.095
 31
0.0
  0
LINE
  5
12C0
330
18
100
AcDbEntity
  8
Object
100
AcDbLine
 10
4.825
 20
12.095
 30
0.0
 11
4.804
 21
12.095
 31
0.0
  0
LINE
  5
12C1
330
18
100
AcDbEntity
  8
Object
100
AcDbLine
 10
4.804
 20
12.095
 30
0.0
 11
4.78
 21
12.095
 31
0.0
  0
LINE
  5
12C2
330
18
100
AcDbEntity
  8
Object
100
AcDbLine
 10
4.875
 20
12.588
 30
0.0
 11
4.905999999999999
 21
12.588
 31
0.0
  0
LINE
  5
12C3
330
18
100
AcDbEntity
  8
Object
100
AcDbLine
 10
4.905999999999999
 20
12.588
 30
0.0
 11
4.905999999999999
 21
12.185
 31
0.0
  0
LINE
  5
12C4
330
18
100
AcDbEntity
  8
Object
100
AcDbLine
 10
4.905999999999999
 20
12.185
 30
0.0
 11
4.875
 21
12.185
 31
0.0
  0
LINE
  5
12C5
330
18
100
AcDbEntity
  8
Object
100
AcDbLine
 10
4.875
 20
12.588
 30
0.0
 11
4.85
 21
12.588
 31
0.0
  0
LINE
  5
12C6
330
18
100
AcDbEntity
  8
Object
100
AcDbLine
 10
4.875
 20
12.185
 30
0.0
 11
4.85
 21
12.185
 31
0.0
  0
LINE
  5
12C7
330
18
100
AcDbEntity
  8
Object
100
AcDbLine
 10
4.85
 20
12.185
 30
0.0
 11
4.831999999999999
 21
12.185
 31
0.0
  0
LINE
  5
12C8
330
18
100
AcDbEntity
  8
Object
100
AcDbLine
 10
4.85
 20
12.588
 30
0.0
 11
4.831999999999999
 21
12.588
 31
0.0
  0
LINE
  5
12C9
330
18
100
AcDbEntity
  8
Object
100
AcDbLine
 10
4.831999999999999
 20
12.588
 30
0.0
 11
4.825
 21
12.588
 31
0.0
  0
LINE
  5
12CA
330
18
100
AcDbEntity
  8
Object
100
AcDbLine
 10
4.825
 20
12.185
 30
0.0
 11
4.831999999999999
 21
12.185
 31
0.0
  0
LINE
  5
12CB
330
18
100
AcDbEntity
  8
Object
100
AcDbLine
 10
5.07
 20
12.588
 30
0.0
 11
5.089999999999999
 21
12.582
 31
0.0
  0
LINE
  5
12CC
330
18
100
AcDbEntity
  8
Object
100
AcDbLine
 10
5.089999999999999
 20
12.582
 30
0.0
 11
5.104
 21
12.568
 31
0.0
  0
LINE
  5
12CD
330
18
100
AcDbEntity
  8
Object
100
AcDbLine
 10
5.104
 20
12.568
 30
0.0
 11
5.11
 21
12.548
 31
0.0
  0
LINE
  5
12CE
330
18
100
AcDbEntity
  8
Object
100
AcDbLine
 10
5.11
 20
12.225
 30
0.0
 11
5.104
 21
12.205
 31
0.0
  0
LINE
  5
12CF
330
18
100
AcDbEntity
  8
Object
100
AcDbLine
 10
5.104
 20
12.205
 30
0.0
 11
5.089999999999999
 21
12.19
 31
0.0
  0
LINE
  5
12D0
330
18
100
AcDbEntity
  8
Object
100
AcDbLine
 10
5.089999999999999
 20
12.19
 30
0.0
 11
5.07
 21
12.185
 31
0.0
  0
LINE
  5
12D1
330
18
100
AcDbEntity
  8
Object
100
AcDbLine
 10
5.07
 20
12.588
 30
0.0
 11
4.905999999999999
 21
12.588
 31
0.0
  0
LINE
  5
12D2
330
18
100
AcDbEntity
  8
Object
100
AcDbLine
 10
4.905999999999999
 20
12.185
 30
0.0
 11
5.07
 21
12.185
 31
0.0
  0
LINE
  5
12D3
330
18
100
AcDbEntity
  8
Object
100
AcDbLine
 10
5.11
 20
12.225
 30
0.0
 11
5.11
 21
12.548
 31
0.0
  0
LINE
  5
12D4
330
18
100
AcDbEntity
  8
Object
100
AcDbLine
 10
5.11
 20
12.548
 30
0.0
 11
5.118
 21
12.548
 31
0.0
  0
LINE
  5
12D5
330
18
100
AcDbEntity
  8
Object
100
AcDbLine
 10
5.07
 20
12.588
 30
0.0
 11
5.078
 21
12.588
 31
0.0
  0
LINE
  5
12D6
330
18
100
AcDbEntity
  8
Object
100
AcDbLine
 10
5.078
 20
12.588
 30
0.0
 11
5.097999999999999
 21
12.582
 31
0.0
  0
LINE
  5
12D7
330
18
100
AcDbEntity
  8
Object
100
AcDbLine
 10
5.097999999999999
 20
12.582
 30
0.0
 11
5.112
 21
12.568
 31
0.0
  0
LINE
  5
12D8
330
18
100
AcDbEntity
  8
Object
100
AcDbLine
 10
5.112
 20
12.568
 30
0.0
 11
5.118
 21
12.548
 31
0.0
  0
LINE
  5
12D9
330
18
100
AcDbEntity
  8
Object
100
AcDbLine
 10
5.097999999999999
 20
12.19
 30
0.0
 11
5.112
 21
12.205
 31
0.0
  0
LINE
  5
12DA
330
18
100
AcDbEntity
  8
Object
100
AcDbLine
 10
5.112
 20
12.205
 30
0.0
 11
5.118
 21
12.225
 31
0.0
  0
LINE
  5
12DB
330
18
100
AcDbEntity
  8
Object
100
AcDbLine
 10
5.118
 20
12.225
 30
0.0
 11
5.118
 21
12.548
 31
0.0
  0
LINE
  5
12DC
330
18
100
AcDbEntity
  8
Object
100
AcDbLine
 10
5.118
 20
12.225
 30
0.0
 11
5.11
 21
12.225
 31
0.0
  0
LINE
  5
12DD
330
18
100
AcDbEntity
  8
Object
100
AcDbLine
 10
5.097999999999999
 20
12.19
 30
0.0
 11
5.078
 21
12.185
 31
0.0
  0
LINE
  5
12DE
330
18
100
AcDbEntity
  8
Object
100
AcDbLine
 10
5.078
 20
12.185
 30
0.0
 11
5.07
 21
12.185
 31
0.0
  0
LINE
  5
12DF
330
18
100
AcDbEntity
  8
Object
100
AcDbLine
 10
4.844
 20
11.831
 30
0.0
 11
4.825
 21
11.831
 31
0.0
  0
LINE
  5
12E0
330
18
100
AcDbEntity
  8
Object
100
AcDbLine
 10
4.825
 20
11.831
 30
0.0
 11
4.804
 21
11.831
 31
0.0
  0
LINE
  5
12E1
330
18
100
AcDbEntity
  8
Object
100
AcDbLine
 10
4.804
 20
11.831
 30
0.0
 11
4.78
 21
11.831
 31
0.0
  0
LINE
  5
12E2
330
18
100
AcDbEntity
  8
Object
100
AcDbLine
 10
4.844
 20
11.831
 30
0.0
 11
5.11
 21
11.831
 31
0.0
  0
LINE
  5
12E3
330
18
100
AcDbEntity
  8
Object
100
AcDbLine
 10
5.11
 20
12.095
 30
0.0
 11
4.844
 21
12.095
 31
0.0
  0
LINE
  5
12E4
330
18
100
AcDbEntity
  8
Object
100
AcDbLine
 10
4.844
 20
12.095
 30
0.0
 11
5.11
 21
12.095
 31
0.0
  0
LINE
  5
12E5
330
18
100
AcDbEntity
  8
Object
100
AcDbLine
 10
4.844
 20
11.831
 30
0.0
 11
5.11
 21
11.831
 31
0.0
  0
LINE
  5
12E6
330
18
100
AcDbEntity
  8
Object
100
AcDbLine
 10
5.131
 20
11.861
 30
0.0
 11
5.128
 21
11.846
 31
0.0
  0
LINE
  5
12E7
330
18
100
AcDbEntity
  8
Object
100
AcDbLine
 10
5.128
 20
11.846
 30
0.0
 11
5.12
 21
11.835
 31
0.0
  0
LINE
  5
12E8
330
18
100
AcDbEntity
  8
Object
100
AcDbLine
 10
5.12
 20
11.835
 30
0.0
 11
5.11
 21
11.831
 31
0.0
  0
LINE
  5
12E9
330
18
100
AcDbEntity
  8
Object
100
AcDbLine
 10
5.131
 20
11.861
 30
0.0
 11
5.131
 21
12.065
 31
0.0
  0
LINE
  5
12EA
330
18
100
AcDbEntity
  8
Object
100
AcDbLine
 10
5.131
 20
12.065
 30
0.0
 11
5.128
 21
12.08
 31
0.0
  0
LINE
  5
12EB
330
18
100
AcDbEntity
  8
Object
100
AcDbLine
 10
5.128
 20
12.08
 30
0.0
 11
5.12
 21
12.091
 31
0.0
  0
LINE
  5
12EC
330
18
100
AcDbEntity
  8
Object
100
AcDbLine
 10
5.12
 20
12.091
 30
0.0
 11
5.11
 21
12.095
 31
0.0
  0
LINE
  5
12ED
330
18
100
AcDbEntity
  8
Object
100
AcDbLine
 10
11.293
 20
12.185
 30
0.0
 11
11.243
 21
12.185
 31
0.0
  0
LINE
  5
12EE
330
18
100
AcDbEntity
  8
Object
100
AcDbLine
 10
11.243
 20
12.185
 30
0.0
 11
11.236
 21
12.185
 31
0.0
  0
LINE
  5
12EF
330
18
100
AcDbEntity
  8
Object
100
AcDbLine
 10
11.236
 20
12.185
 30
0.0
 11
11.231
 21
12.185
 31
0.0
  0
LINE
  5
12F0
330
18
100
AcDbEntity
  8
Object
100
AcDbLine
 10
11.231
 20
12.185
 30
0.0
 11
11.228
 21
12.185
 31
0.0
  0
LINE
  5
12F1
330
18
100
AcDbEntity
  8
Object
100
AcDbLine
 10
11.228
 20
12.185
 30
0.0
 11
11.221
 21
12.185
 31
0.0
  0
LINE
  5
12F2
330
18
100
AcDbEntity
  8
Object
100
AcDbLine
 10
11.221
 20
12.185
 30
0.0
 11
11.204
 21
12.185
 31
0.0
  0
LINE
  5
12F3
330
18
100
AcDbEntity
  8
Object
100
AcDbLine
 10
11.204
 20
12.185
 30
0.0
 11
11.178
 21
12.185
 31
0.0
  0
LINE
  5
12F4
330
18
100
AcDbEntity
  8
Object
100
AcDbLine
 10
11.178
 20
12.185
 30
0.0
 11
11.148
 21
12.185
 31
0.0
  0
LINE
  5
12F5
330
18
100
AcDbEntity
  8
Object
100
AcDbLine
 10
11.148
 20
12.185
 30
0.0
 11
10.984
 21
12.185
 31
0.0
  0
LINE
  5
12F6
330
18
100
AcDbEntity
  8
Object
100
AcDbLine
 10
10.984
 20
12.185
 30
0.0
 11
10.976
 21
12.185
 31
0.0
  0
LINE
  5
12F7
330
18
100
AcDbEntity
  8
Object
100
AcDbLine
 10
11.75
 20
12.588
 30
0.0
 11
11.243
 21
12.588
 31
0.0
  0
LINE
  5
12F8
330
18
100
AcDbEntity
  8
Object
100
AcDbLine
 10
11.243
 20
12.588
 30
0.0
 11
11.236
 21
12.588
 31
0.0
  0
LINE
  5
12F9
330
18
100
AcDbEntity
  8
Object
100
AcDbLine
 10
11.236
 20
12.588
 30
0.0
 11
11.231
 21
12.588
 31
0.0
  0
LINE
  5
12FA
330
18
100
AcDbEntity
  8
Object
100
AcDbLine
 10
11.231
 20
12.588
 30
0.0
 11
11.228
 21
12.588
 31
0.0
  0
LINE
  5
12FB
330
18
100
AcDbEntity
  8
Object
100
AcDbLine
 10
11.228
 20
12.588
 30
0.0
 11
11.221
 21
12.588
 31
0.0
  0
LINE
  5
12FC
330
18
100
AcDbEntity
  8
Object
100
AcDbLine
 10
11.221
 20
12.588
 30
0.0
 11
11.204
 21
12.588
 31
0.0
  0
LINE
  5
12FD
330
18
100
AcDbEntity
  8
Object
100
AcDbLine
 10
11.204
 20
12.588
 30
0.0
 11
11.178
 21
12.588
 31
0.0
  0
LINE
  5
12FE
330
18
100
AcDbEntity
  8
Object
100
AcDbLine
 10
11.178
 20
12.588
 30
0.0
 11
11.148
 21
12.588
 31
0.0
  0
LINE
  5
12FF
330
18
100
AcDbEntity
  8
Object
100
AcDbLine
 10
11.148
 20
12.588
 30
0.0
 11
10.984
 21
12.588
 31
0.0
  0
LINE
  5
1300
330
18
100
AcDbEntity
  8
Object
100
AcDbLine
 10
10.984
 20
12.588
 30
0.0
 11
10.976
 21
12.588
 31
0.0
  0
LINE
  5
1301
330
18
100
AcDbEntity
  8
Object
100
AcDbLine
 10
10.976
 20
12.588
 30
0.0
 11
10.956
 21
12.582
 31
0.0
  0
LINE
  5
1302
330
18
100
AcDbEntity
  8
Object
100
AcDbLine
 10
10.956
 20
12.582
 30
0.0
 11
10.941
 21
12.568
 31
0.0
  0
LINE
  5
1303
330
18
100
AcDbEntity
  8
Object
100
AcDbLine
 10
10.941
 20
12.568
 30
0.0
 11
10.936
 21
12.548
 31
0.0
  0
LINE
  5
1304
330
18
100
AcDbEntity
  8
Object
100
AcDbLine
 10
10.956
 20
12.19
 30
0.0
 11
10.976
 21
12.185
 31
0.0
  0
LINE
  5
1305
330
18
100
AcDbEntity
  8
Object
100
AcDbLine
 10
10.936
 20
12.225
 30
0.0
 11
10.941
 21
12.205
 31
0.0
  0
LINE
  5
1306
330
18
100
AcDbEntity
  8
Object
100
AcDbLine
 10
10.941
 20
12.205
 30
0.0
 11
10.956
 21
12.19
 31
0.0
  0
LINE
  5
1307
330
18
100
AcDbEntity
  8
Object
100
AcDbLine
 10
10.936
 20
12.548
 30
0.0
 11
10.936
 21
12.225
 31
0.0
  0
LINE
  5
1308
330
18
100
AcDbEntity
  8
Object
100
AcDbLine
 10
11.852
 20
12.536
 30
0.0
 11
11.869
 21
12.501
 31
0.0
  0
LINE
  5
1309
330
18
100
AcDbEntity
  8
Object
100
AcDbLine
 10
11.869
 20
12.501
 30
0.0
 11
11.875
 21
12.463
 31
0.0
  0
LINE
  5
130A
330
18
100
AcDbEntity
  8
Object
100
AcDbLine
 10
11.875
 20
11.463
 30
0.0
 11
11.869
 21
11.424
 31
0.0
  0
LINE
  5
130B
330
18
100
AcDbEntity
  8
Object
100
AcDbLine
 10
11.869
 20
11.424
 30
0.0
 11
11.852
 21
11.389
 31
0.0
  0
LINE
  5
130C
330
18
100
AcDbEntity
  8
Object
100
AcDbLine
 10
11.852
 20
12.536
 30
0.0
 11
11.824
 21
12.564
 31
0.0
  0
LINE
  5
130D
330
18
100
AcDbEntity
  8
Object
100
AcDbLine
 10
11.824
 20
11.362
 30
0.0
 11
11.852
 21
11.389
 31
0.0
  0
LINE
  5
130E
330
18
100
AcDbEntity
  8
Object
100
AcDbLine
 10
11.824
 20
12.564
 30
0.0
 11
11.789
 21
12.582
 31
0.0
  0
LINE
  5
130F
330
18
100
AcDbEntity
  8
Object
100
AcDbLine
 10
11.789
 20
11.344
 30
0.0
 11
11.824
 21
11.362
 31
0.0
  0
LINE
  5
1310
330
18
100
AcDbEntity
  8
Object
100
AcDbLine
 10
11.789
 20
12.582
 30
0.0
 11
11.75
 21
12.588
 31
0.0
  0
LINE
  5
1311
330
18
100
AcDbEntity
  8
Object
100
AcDbLine
 10
11.75
 20
11.338
 30
0.0
 11
11.789
 21
11.344
 31
0.0
  0
LINE
  5
1312
330
18
100
AcDbEntity
  8
Object
100
AcDbLine
 10
11.875
 20
11.463
 30
0.0
 11
11.875
 21
12.463
 31
0.0
  0
LINE
  5
1313
330
18
100
AcDbEntity
  8
Object
100
AcDbLine
 10
11.332
 20
12.117
 30
0.0
 11
11.338
 21
12.14
 31
0.0
  0
LINE
  5
1314
330
18
100
AcDbEntity
  8
Object
100
AcDbLine
 10
11.338
 20
12.14
 30
0.0
 11
11.332
 21
12.162
 31
0.0
  0
LINE
  5
1315
330
18
100
AcDbEntity
  8
Object
100
AcDbLine
 10
11.332
 20
11.808
 30
0.0
 11
11.338
 21
11.786
 31
0.0
  0
LINE
  5
1316
330
18
100
AcDbEntity
  8
Object
100
AcDbLine
 10
11.338
 20
11.786
 30
0.0
 11
11.332
 21
11.763
 31
0.0
  0
LINE
  5
1317
330
18
100
AcDbEntity
  8
Object
100
AcDbLine
 10
11.332
 20
12.117
 30
0.0
 11
11.316
 21
12.101
 31
0.0
  0
LINE
  5
1318
330
18
100
AcDbEntity
  8
Object
100
AcDbLine
 10
11.316
 20
12.179
 30
0.0
 11
11.332
 21
12.162
 31
0.0
  0
LINE
  5
1319
330
18
100
AcDbEntity
  8
Object
100
AcDbLine
 10
11.316
 20
11.825
 30
0.0
 11
11.332
 21
11.808
 31
0.0
  0
LINE
  5
131A
330
18
100
AcDbEntity
  8
Object
100
AcDbLine
 10
11.332
 20
11.763
 30
0.0
 11
11.316
 21
11.747
 31
0.0
  0
LINE
  5
131B
330
18
100
AcDbEntity
  8
Object
100
AcDbLine
 10
11.316
 20
12.101
 30
0.0
 11
11.293
 21
12.095
 31
0.0
  0
LINE
  5
131C
330
18
100
AcDbEntity
  8
Object
100
AcDbLine
 10
11.293
 20
11.831
 30
0.0
 11
11.316
 21
11.825
 31
0.0
  0
LINE
  5
131D
330
18
100
AcDbEntity
  8
Object
100
AcDbLine
 10
11.293
 20
12.095
 30
0.0
 11
11.273
 21
12.095
 31
0.0
  0
LINE
  5
131E
330
18
100
AcDbEntity
  8
Object
100
AcDbLine
 10
11.273
 20
11.831
 30
0.0
 11
11.293
 21
11.831
 31
0.0
  0
LINE
  5
131F
330
18
100
AcDbEntity
  8
Object
100
AcDbLine
 10
11.316
 20
12.179
 30
0.0
 11
11.293
 21
12.185
 31
0.0
  0
LINE
  5
1320
330
18
100
AcDbEntity
  8
Object
100
AcDbLine
 10
11.293
 20
12.185
 30
0.0
 11
11.243
 21
12.185
 31
0.0
  0
LINE
  5
1321
330
18
100
AcDbEntity
  8
Object
100
AcDbLine
 10
11.75
 20
12.588
 30
0.0
 11
11.243
 21
12.588
 31
0.0
  0
LINE
  5
1322
330
18
100
AcDbEntity
  8
Object
100
AcDbLine
 10
11.243
 20
11.741
 30
0.0
 11
11.293
 21
11.741
 31
0.0
  0
LINE
  5
1323
330
18
100
AcDbEntity
  8
Object
100
AcDbLine
 10
11.293
 20
11.741
 30
0.0
 11
11.316
 21
11.747
 31
0.0
  0
LINE
  5
1324
330
18
100
AcDbEntity
  8
Object
100
AcDbLine
 10
11.243
 20
11.338
 30
0.0
 11
11.75
 21
11.338
 31
0.0
  0
LINE
  5
1325
330
18
100
AcDbEntity
  8
Object
100
AcDbLine
 10
11.221
 20
12.185
 30
0.0
 11
11.228
 21
12.185
 31
0.0
  0
LINE
  5
1326
330
18
100
AcDbEntity
  8
Object
100
AcDbLine
 10
11.221
 20
12.588
 30
0.0
 11
11.228
 21
12.588
 31
0.0
  0
LINE
  5
1327
330
18
100
AcDbEntity
  8
Object
100
AcDbLine
 10
11.228
 20
12.588
 30
0.0
 11
11.228
 21
12.185
 31
0.0
  0
LINE
  5
1328
330
18
100
AcDbEntity
  8
Object
100
AcDbLine
 10
11.204
 20
12.185
 30
0.0
 11
11.221
 21
12.185
 31
0.0
  0
LINE
  5
1329
330
18
100
AcDbEntity
  8
Object
100
AcDbLine
 10
11.221
 20
12.588
 30
0.0
 11
11.204
 21
12.588
 31
0.0
  0
LINE
  5
132A
330
18
100
AcDbEntity
  8
Object
100
AcDbLine
 10
11.204
 20
12.588
 30
0.0
 11
11.178
 21
12.588
 31
0.0
  0
LINE
  5
132B
330
18
100
AcDbEntity
  8
Object
100
AcDbLine
 10
11.204
 20
12.185
 30
0.0
 11
11.178
 21
12.185
 31
0.0
  0
LINE
  5
132C
330
18
100
AcDbEntity
  8
Object
100
AcDbLine
 10
11.178
 20
12.185
 30
0.0
 11
11.148
 21
12.185
 31
0.0
  0
LINE
  5
132D
330
18
100
AcDbEntity
  8
Object
100
AcDbLine
 10
11.178
 20
12.588
 30
0.0
 11
11.148
 21
12.588
 31
0.0
  0
LINE
  5
132E
330
18
100
AcDbEntity
  8
Object
100
AcDbLine
 10
10.976
 20
12.185
 30
0.0
 11
10.984
 21
12.185
 31
0.0
  0
LINE
  5
132F
330
18
100
AcDbEntity
  8
Object
100
AcDbLine
 10
10.949
 20
12.205
 30
0.0
 11
10.944
 21
12.225
 31
0.0
  0
LINE
  5
1330
330
18
100
AcDbEntity
  8
Object
100
AcDbLine
 10
10.944
 20
12.225
 30
0.0
 11
10.936
 21
12.225
 31
0.0
  0
LINE
  5
1331
330
18
100
AcDbEntity
  8
Object
100
AcDbLine
 10
11.332
 20
12.117
 30
0.0
 11
11.338
 21
12.14
 31
0.0
  0
LINE
  5
1332
330
18
100
AcDbEntity
  8
Object
100
AcDbLine
 10
11.338
 20
12.14
 30
0.0
 11
11.332
 21
12.162
 31
0.0
  0
LINE
  5
1333
330
18
100
AcDbEntity
  8
Object
100
AcDbLine
 10
11.332
 20
12.162
 30
0.0
 11
11.316
 21
12.179
 31
0.0
  0
LINE
  5
1334
330
18
100
AcDbEntity
  8
Object
100
AcDbLine
 10
11.332
 20
12.117
 30
0.0
 11
11.316
 21
12.101
 31
0.0
  0
LINE
  5
1335
330
18
100
AcDbEntity
  8
Object
100
AcDbLine
 10
11.316
 20
12.101
 30
0.0
 11
11.293
 21
12.095
 31
0.0
  0
LINE
  5
1336
330
18
100
AcDbEntity
  8
Object
100
AcDbLine
 10
11.293
 20
12.185
 30
0.0
 11
11.316
 21
12.179
 31
0.0
  0
LINE
  5
1337
330
18
100
AcDbEntity
  8
Object
100
AcDbLine
 10
11.236
 20
12.588
 30
0.0
 11
11.243
 21
12.588
 31
0.0
  0
LINE
  5
1338
330
18
100
AcDbEntity
  8
Object
100
AcDbLine
 10
11.243
 20
12.588
 30
0.0
 11
11.243
 21
12.185
 31
0.0
  0
LINE
  5
1339
330
18
100
AcDbEntity
  8
Object
100
AcDbLine
 10
11.243
 20
12.185
 30
0.0
 11
11.236
 21
12.185
 31
0.0
  0
LINE
  5
133A
330
18
100
AcDbEntity
  8
Object
100
AcDbLine
 10
11.236
 20
12.185
 30
0.0
 11
11.231
 21
12.185
 31
0.0
  0
LINE
  5
133B
330
18
100
AcDbEntity
  8
Object
100
AcDbLine
 10
11.236
 20
12.588
 30
0.0
 11
11.231
 21
12.588
 31
0.0
  0
LINE
  5
133C
330
18
100
AcDbEntity
  8
Object
100
AcDbLine
 10
11.228
 20
12.185
 30
0.0
 11
11.231
 21
12.185
 31
0.0
  0
LINE
  5
133D
330
18
100
AcDbEntity
  8
Object
100
AcDbLine
 10
11.231
 20
12.588
 30
0.0
 11
11.228
 21
12.588
 31
0.0
  0
LINE
  5
133E
330
18
100
AcDbEntity
  8
Object
100
AcDbLine
 10
10.949
 20
12.568
 30
0.0
 11
10.964
 21
12.582
 31
0.0
  0
LINE
  5
133F
330
18
100
AcDbEntity
  8
Object
100
AcDbLine
 10
10.964
 20
12.582
 30
0.0
 11
10.984
 21
12.588
 31
0.0
  0
LINE
  5
1340
330
18
100
AcDbEntity
  8
Object
100
AcDbLine
 10
10.984
 20
12.588
 30
0.0
 11
11.148
 21
12.588
 31
0.0
  0
LINE
  5
1341
330
18
100
AcDbEntity
  8
Object
100
AcDbLine
 10
11.148
 20
12.588
 30
0.0
 11
11.148
 21
12.185
 31
0.0
  0
LINE
  5
1342
330
18
100
AcDbEntity
  8
Object
100
AcDbLine
 10
11.148
 20
12.185
 30
0.0
 11
10.984
 21
12.185
 31
0.0
  0
LINE
  5
1343
330
18
100
AcDbEntity
  8
Object
100
AcDbLine
 10
10.984
 20
12.185
 30
0.0
 11
10.964
 21
12.19
 31
0.0
  0
LINE
  5
1344
330
18
100
AcDbEntity
  8
Object
100
AcDbLine
 10
10.964
 20
12.19
 30
0.0
 11
10.949
 21
12.205
 31
0.0
  0
LINE
  5
1345
330
18
100
AcDbEntity
  8
Object
100
AcDbLine
 10
11.875
 20
12.463
 30
0.0
 11
11.869
 21
12.501
 31
0.0
  0
LINE
  5
1346
330
18
100
AcDbEntity
  8
Object
100
AcDbLine
 10
11.869
 20
12.501
 30
0.0
 11
11.852
 21
12.536
 31
0.0
  0
LINE
  5
1347
330
18
100
AcDbEntity
  8
Object
100
AcDbLine
 10
11.852
 20
12.536
 30
0.0
 11
11.824
 21
12.564
 31
0.0
  0
LINE
  5
1348
330
18
100
AcDbEntity
  8
Object
100
AcDbLine
 10
11.824
 20
12.564
 30
0.0
 11
11.789
 21
12.582
 31
0.0
  0
LINE
  5
1349
330
18
100
AcDbEntity
  8
Object
100
AcDbLine
 10
11.789
 20
12.582
 30
0.0
 11
11.75
 21
12.588
 31
0.0
  0
LINE
  5
134A
330
18
100
AcDbEntity
  8
Object
100
AcDbLine
 10
10.984
 20
12.588
 30
0.0
 11
10.976
 21
12.588
 31
0.0
  0
LINE
  5
134B
330
18
100
AcDbEntity
  8
Object
100
AcDbLine
 10
10.949
 20
12.568
 30
0.0
 11
10.944
 21
12.548
 31
0.0
  0
LINE
  5
134C
330
18
100
AcDbEntity
  8
Object
100
AcDbLine
 10
10.944
 20
12.548
 30
0.0
 11
10.936
 21
12.548
 31
0.0
  0
LINE
  5
134D
330
18
100
AcDbEntity
  8
Object
100
AcDbLine
 10
10.944
 20
12.225
 30
0.0
 11
10.944
 21
12.548
 31
0.0
  0
LINE
  5
134E
330
18
100
AcDbEntity
  8
Object
100
AcDbLine
 10
11.875
 20
11.463
 30
0.0
 11
11.875
 21
12.463
 31
0.0
  0
LINE
  5
134F
330
18
100
AcDbEntity
  8
Object
100
AcDbLine
 10
11.273
 20
11.831
 30
0.0
 11
11.293
 21
11.831
 31
0.0
  0
LINE
  5
1350
330
18
100
AcDbEntity
  8
Object
100
AcDbLine
 10
11.875
 20
11.463
 30
0.0
 11
11.869
 21
11.424
 31
0.0
  0
LINE
  5
1351
330
18
100
AcDbEntity
  8
Object
100
AcDbLine
 10
11.869
 20
11.424
 30
0.0
 11
11.852
 21
11.389
 31
0.0
  0
LINE
  5
1352
330
18
100
AcDbEntity
  8
Object
100
AcDbLine
 10
11.852
 20
11.389
 30
0.0
 11
11.824
 21
11.362
 31
0.0
  0
LINE
  5
1353
330
18
100
AcDbEntity
  8
Object
100
AcDbLine
 10
11.824
 20
11.362
 30
0.0
 11
11.789
 21
11.344
 31
0.0
  0
LINE
  5
1354
330
18
100
AcDbEntity
  8
Object
100
AcDbLine
 10
11.789
 20
11.344
 30
0.0
 11
11.75
 21
11.338
 31
0.0
  0
LINE
  5
1355
330
18
100
AcDbEntity
  8
Object
100
AcDbLine
 10
11.236
 20
11.741
 30
0.0
 11
11.243
 21
11.741
 31
0.0
  0
LINE
  5
1356
330
18
100
AcDbEntity
  8
Object
100
AcDbLine
 10
11.243
 20
11.741
 30
0.0
 11
11.243
 21
11.338
 31
0.0
  0
LINE
  5
1357
330
18
100
AcDbEntity
  8
Object
100
AcDbLine
 10
11.243
 20
11.338
 30
0.0
 11
11.236
 21
11.338
 31
0.0
  0
LINE
  5
1358
330
18
100
AcDbEntity
  8
Object
100
AcDbLine
 10
11.236
 20
11.741
 30
0.0
 11
11.231
 21
11.741
 31
0.0
  0
LINE
  5
1359
330
18
100
AcDbEntity
  8
Object
100
AcDbLine
 10
11.236
 20
11.338
 30
0.0
 11
11.231
 21
11.338
 31
0.0
  0
LINE
  5
135A
330
18
100
AcDbEntity
  8
Object
100
AcDbLine
 10
11.231
 20
11.338
 30
0.0
 11
11.228
 21
11.338
 31
0.0
  0
LINE
  5
135B
330
18
100
AcDbEntity
  8
Object
100
AcDbLine
 10
11.231
 20
11.741
 30
0.0
 11
11.228
 21
11.741
 31
0.0
  0
LINE
  5
135C
330
18
100
AcDbEntity
  8
Object
100
AcDbLine
 10
11.75
 20
11.338
 30
0.0
 11
11.243
 21
11.338
 31
0.0
  0
LINE
  5
135D
330
18
100
AcDbEntity
  8
Object
100
AcDbLine
 10
11.243
 20
11.338
 30
0.0
 11
11.236
 21
11.338
 31
0.0
  0
LINE
  5
135E
330
18
100
AcDbEntity
  8
Object
100
AcDbLine
 10
11.236
 20
11.338
 30
0.0
 11
11.231
 21
11.338
 31
0.0
  0
LINE
  5
135F
330
18
100
AcDbEntity
  8
Object
100
AcDbLine
 10
11.231
 20
11.338
 30
0.0
 11
11.228
 21
11.338
 31
0.0
  0
LINE
  5
1360
330
18
100
AcDbEntity
  8
Object
100
AcDbLine
 10
11.228
 20
11.338
 30
0.0
 11
11.221
 21
11.338
 31
0.0
  0
LINE
  5
1361
330
18
100
AcDbEntity
  8
Object
100
AcDbLine
 10
11.221
 20
11.338
 30
0.0
 11
11.204
 21
11.338
 31
0.0
  0
LINE
  5
1362
330
18
100
AcDbEntity
  8
Object
100
AcDbLine
 10
11.204
 20
11.338
 30
0.0
 11
11.178
 21
11.338
 31
0.0
  0
LINE
  5
1363
330
18
100
AcDbEntity
  8
Object
100
AcDbLine
 10
11.178
 20
11.338
 30
0.0
 11
11.148
 21
11.338
 31
0.0
  0
LINE
  5
1364
330
18
100
AcDbEntity
  8
Object
100
AcDbLine
 10
11.148
 20
11.338
 30
0.0
 11
10.984
 21
11.338
 31
0.0
  0
LINE
  5
1365
330
18
100
AcDbEntity
  8
Object
100
AcDbLine
 10
10.984
 20
11.338
 30
0.0
 11
10.976
 21
11.338
 31
0.0
  0
LINE
  5
1366
330
18
100
AcDbEntity
  8
Object
100
AcDbLine
 10
11.293
 20
11.741
 30
0.0
 11
11.243
 21
11.741
 31
0.0
  0
LINE
  5
1367
330
18
100
AcDbEntity
  8
Object
100
AcDbLine
 10
11.243
 20
11.741
 30
0.0
 11
11.236
 21
11.741
 31
0.0
  0
LINE
  5
1368
330
18
100
AcDbEntity
  8
Object
100
AcDbLine
 10
11.236
 20
11.741
 30
0.0
 11
11.231
 21
11.741
 31
0.0
  0
LINE
  5
1369
330
18
100
AcDbEntity
  8
Object
100
AcDbLine
 10
11.231
 20
11.741
 30
0.0
 11
11.228
 21
11.741
 31
0.0
  0
LINE
  5
136A
330
18
100
AcDbEntity
  8
Object
100
AcDbLine
 10
11.228
 20
11.741
 30
0.0
 11
11.221
 21
11.741
 31
0.0
  0
LINE
  5
136B
330
18
100
AcDbEntity
  8
Object
100
AcDbLine
 10
11.221
 20
11.741
 30
0.0
 11
11.204
 21
11.741
 31
0.0
  0
LINE
  5
136C
330
18
100
AcDbEntity
  8
Object
100
AcDbLine
 10
11.204
 20
11.741
 30
0.0
 11
11.178
 21
11.741
 31
0.0
  0
LINE
  5
136D
330
18
100
AcDbEntity
  8
Object
100
AcDbLine
 10
11.178
 20
11.741
 30
0.0
 11
11.148
 21
11.741
 31
0.0
  0
LINE
  5
136E
330
18
100
AcDbEntity
  8
Object
100
AcDbLine
 10
11.148
 20
11.741
 30
0.0
 11
10.984
 21
11.741
 31
0.0
  0
LINE
  5
136F
330
18
100
AcDbEntity
  8
Object
100
AcDbLine
 10
10.984
 20
11.741
 30
0.0
 11
10.976
 21
11.741
 31
0.0
  0
LINE
  5
1370
330
18
100
AcDbEntity
  8
Object
100
AcDbLine
 10
11.332
 20
11.808
 30
0.0
 11
11.338
 21
11.786
 31
0.0
  0
LINE
  5
1371
330
18
100
AcDbEntity
  8
Object
100
AcDbLine
 10
11.338
 20
11.786
 30
0.0
 11
11.332
 21
11.763
 31
0.0
  0
LINE
  5
1372
330
18
100
AcDbEntity
  8
Object
100
AcDbLine
 10
11.316
 20
11.825
 30
0.0
 11
11.332
 21
11.808
 31
0.0
  0
LINE
  5
1373
330
18
100
AcDbEntity
  8
Object
100
AcDbLine
 10
11.332
 20
11.763
 30
0.0
 11
11.316
 21
11.747
 31
0.0
  0
LINE
  5
1374
330
18
100
AcDbEntity
  8
Object
100
AcDbLine
 10
11.316
 20
11.747
 30
0.0
 11
11.293
 21
11.741
 31
0.0
  0
LINE
  5
1375
330
18
100
AcDbEntity
  8
Object
100
AcDbLine
 10
11.293
 20
11.831
 30
0.0
 11
11.316
 21
11.825
 31
0.0
  0
LINE
  5
1376
330
18
100
AcDbEntity
  8
Object
100
AcDbLine
 10
11.293
 20
12.095
 30
0.0
 11
11.273
 21
12.095
 31
0.0
  0
LINE
  5
1377
330
18
100
AcDbEntity
  8
Object
100
AcDbLine
 10
11.273
 20
12.095
 30
0.0
 11
11.25
 21
12.095
 31
0.0
  0
LINE
  5
1378
330
18
100
AcDbEntity
  8
Object
100
AcDbLine
 10
11.273
 20
12.095
 30
0.0
 11
11.273
 21
11.831
 31
0.0
  0
LINE
  5
1379
330
18
100
AcDbEntity
  8
Object
100
AcDbLine
 10
11.273
 20
11.831
 30
0.0
 11
11.25
 21
11.831
 31
0.0
  0
LINE
  5
137A
330
18
100
AcDbEntity
  8
Object
100
AcDbLine
 10
11.25
 20
12.095
 30
0.0
 11
11.228
 21
12.095
 31
0.0
  0
LINE
  5
137B
330
18
100
AcDbEntity
  8
Object
100
AcDbLine
 10
11.25
 20
11.831
 30
0.0
 11
11.228
 21
11.831
 31
0.0
  0
LINE
  5
137C
330
18
100
AcDbEntity
  8
Object
100
AcDbLine
 10
11.228
 20
11.831
 30
0.0
 11
11.21
 21
11.831
 31
0.0
  0
LINE
  5
137D
330
18
100
AcDbEntity
  8
Object
100
AcDbLine
 10
11.228
 20
12.095
 30
0.0
 11
11.21
 21
12.095
 31
0.0
  0
LINE
  5
137E
330
18
100
AcDbEntity
  8
Object
100
AcDbLine
 10
11.273
 20
11.831
 30
0.0
 11
11.25
 21
11.831
 31
0.0
  0
LINE
  5
137F
330
18
100
AcDbEntity
  8
Object
100
AcDbLine
 10
11.25
 20
11.831
 30
0.0
 11
11.228
 21
11.831
 31
0.0
  0
LINE
  5
1380
330
18
100
AcDbEntity
  8
Object
100
AcDbLine
 10
11.228
 20
11.831
 30
0.0
 11
11.21
 21
11.831
 31
0.0
  0
LINE
  5
1381
330
18
100
AcDbEntity
  8
Object
100
AcDbLine
 10
11.221
 20
11.741
 30
0.0
 11
11.228
 21
11.741
 31
0.0
  0
LINE
  5
1382
330
18
100
AcDbEntity
  8
Object
100
AcDbLine
 10
11.228
 20
11.741
 30
0.0
 11
11.228
 21
11.338
 31
0.0
  0
LINE
  5
1383
330
18
100
AcDbEntity
  8
Object
100
AcDbLine
 10
11.228
 20
11.338
 30
0.0
 11
11.221
 21
11.338
 31
0.0
  0
LINE
  5
1384
330
18
100
AcDbEntity
  8
Object
100
AcDbLine
 10
11.221
 20
11.741
 30
0.0
 11
11.204
 21
11.741
 31
0.0
  0
LINE
  5
1385
330
18
100
AcDbEntity
  8
Object
100
AcDbLine
 10
11.221
 20
11.338
 30
0.0
 11
11.204
 21
11.338
 31
0.0
  0
LINE
  5
1386
330
18
100
AcDbEntity
  8
Object
100
AcDbLine
 10
11.204
 20
11.338
 30
0.0
 11
11.178
 21
11.338
 31
0.0
  0
LINE
  5
1387
330
18
100
AcDbEntity
  8
Object
100
AcDbLine
 10
11.204
 20
11.741
 30
0.0
 11
11.178
 21
11.741
 31
0.0
  0
LINE
  5
1388
330
18
100
AcDbEntity
  8
Object
100
AcDbLine
 10
11.148
 20
11.338
 30
0.0
 11
11.178
 21
11.338
 31
0.0
  0
LINE
  5
1389
330
18
100
AcDbEntity
  8
Object
100
AcDbLine
 10
11.178
 20
11.741
 30
0.0
 11
11.148
 21
11.741
 31
0.0
  0
LINE
  5
138A
330
18
100
AcDbEntity
  8
Object
100
AcDbLine
 10
10.949
 20
11.721
 30
0.0
 11
10.964
 21
11.735
 31
0.0
  0
LINE
  5
138B
330
18
100
AcDbEntity
  8
Object
100
AcDbLine
 10
10.964
 20
11.735
 30
0.0
 11
10.984
 21
11.741
 31
0.0
  0
LINE
  5
138C
330
18
100
AcDbEntity
  8
Object
100
AcDbLine
 10
10.984
 20
11.741
 30
0.0
 11
11.148
 21
11.741
 31
0.0
  0
LINE
  5
138D
330
18
100
AcDbEntity
  8
Object
100
AcDbLine
 10
11.148
 20
11.741
 30
0.0
 11
11.148
 21
11.338
 31
0.0
  0
LINE
  5
138E
330
18
100
AcDbEntity
  8
Object
100
AcDbLine
 10
11.148
 20
11.338
 30
0.0
 11
10.984
 21
11.338
 31
0.0
  0
LINE
  5
138F
330
18
100
AcDbEntity
  8
Object
100
AcDbLine
 10
10.984
 20
11.338
 30
0.0
 11
10.964
 21
11.343
 31
0.0
  0
LINE
  5
1390
330
18
100
AcDbEntity
  8
Object
100
AcDbLine
 10
10.964
 20
11.343
 30
0.0
 11
10.949
 21
11.358
 31
0.0
  0
LINE
  5
1391
330
18
100
AcDbEntity
  8
Object
100
AcDbLine
 10
10.976
 20
11.338
 30
0.0
 11
10.984
 21
11.338
 31
0.0
  0
LINE
  5
1392
330
18
100
AcDbEntity
  8
Object
100
AcDbLine
 10
10.949
 20
11.358
 30
0.0
 11
10.944
 21
11.378
 31
0.0
  0
LINE
  5
1393
330
18
100
AcDbEntity
  8
Object
100
AcDbLine
 10
10.941
 20
11.358
 30
0.0
 11
10.936
 21
11.378
 31
0.0
  0
LINE
  5
1394
330
18
100
AcDbEntity
  8
Object
100
AcDbLine
 10
10.936
 20
11.378
 30
0.0
 11
10.944
 21
11.378
 31
0.0
  0
LINE
  5
1395
330
18
100
AcDbEntity
  8
Object
100
AcDbLine
 10
10.976
 20
11.741
 30
0.0
 11
10.956
 21
11.735
 31
0.0
  0
LINE
  5
1396
330
18
100
AcDbEntity
  8
Object
100
AcDbLine
 10
10.956
 20
11.735
 30
0.0
 11
10.941
 21
11.721
 31
0.0
  0
LINE
  5
1397
330
18
100
AcDbEntity
  8
Object
100
AcDbLine
 10
10.941
 20
11.721
 30
0.0
 11
10.936
 21
11.701
 31
0.0
  0
LINE
  5
1398
330
18
100
AcDbEntity
  8
Object
100
AcDbLine
 10
10.976
 20
11.338
 30
0.0
 11
10.956
 21
11.343
 31
0.0
  0
LINE
  5
1399
330
18
100
AcDbEntity
  8
Object
100
AcDbLine
 10
10.956
 20
11.343
 30
0.0
 11
10.941
 21
11.358
 31
0.0
  0
LINE
  5
139A
330
18
100
AcDbEntity
  8
Object
100
AcDbLine
 10
10.936
 20
11.701
 30
0.0
 11
10.936
 21
11.378
 31
0.0
  0
LINE
  5
139B
330
18
100
AcDbEntity
  8
Object
100
AcDbLine
 10
10.984
 20
11.741
 30
0.0
 11
10.976
 21
11.741
 31
0.0
  0
LINE
  5
139C
330
18
100
AcDbEntity
  8
Object
100
AcDbLine
 10
10.944
 20
11.701
 30
0.0
 11
10.949
 21
11.721
 31
0.0
  0
LINE
  5
139D
330
18
100
AcDbEntity
  8
Object
100
AcDbLine
 10
11.273
 20
12.095
 30
0.0
 11
11.25
 21
12.095
 31
0.0
  0
LINE
  5
139E
330
18
100
AcDbEntity
  8
Object
100
AcDbLine
 10
11.25
 20
12.095
 30
0.0
 11
11.228
 21
12.095
 31
0.0
  0
LINE
  5
139F
330
18
100
AcDbEntity
  8
Object
100
AcDbLine
 10
11.228
 20
12.095
 30
0.0
 11
11.21
 21
12.095
 31
0.0
  0
LINE
  5
13A0
330
18
100
AcDbEntity
  8
Object
100
AcDbLine
 10
11.21
 20
12.095
 30
0.0
 11
10.944
 21
12.095
 31
0.0
  0
LINE
  5
13A1
330
18
100
AcDbEntity
  8
Object
100
AcDbLine
 10
11.21
 20
12.095
 30
0.0
 11
11.21
 21
11.831
 31
0.0
  0
LINE
  5
13A2
330
18
100
AcDbEntity
  8
Object
100
AcDbLine
 10
11.21
 20
11.831
 30
0.0
 11
10.944
 21
11.831
 31
0.0
  0
LINE
  5
13A3
330
18
100
AcDbEntity
  8
Object
100
AcDbLine
 10
10.926
 20
12.08
 30
0.0
 11
10.933
 21
12.091
 31
0.0
  0
LINE
  5
13A4
330
18
100
AcDbEntity
  8
Object
100
AcDbLine
 10
10.933
 20
12.091
 30
0.0
 11
10.944
 21
12.095
 31
0.0
  0
LINE
  5
13A5
330
18
100
AcDbEntity
  8
Object
100
AcDbLine
 10
10.944
 20
11.831
 30
0.0
 11
10.933
 21
11.835
 31
0.0
  0
LINE
  5
13A6
330
18
100
AcDbEntity
  8
Object
100
AcDbLine
 10
10.933
 20
11.835
 30
0.0
 11
10.926
 21
11.846
 31
0.0
  0
LINE
  5
13A7
330
18
100
AcDbEntity
  8
Object
100
AcDbLine
 10
10.926
 20
12.08
 30
0.0
 11
10.923
 21
12.065
 31
0.0
  0
LINE
  5
13A8
330
18
100
AcDbEntity
  8
Object
100
AcDbLine
 10
10.926
 20
11.846
 30
0.0
 11
10.923
 21
11.861
 31
0.0
  0
LINE
  5
13A9
330
18
100
AcDbEntity
  8
Object
100
AcDbLine
 10
10.923
 20
11.861
 30
0.0
 11
10.923
 21
12.065
 31
0.0
  0
LINE
  5
13AA
330
18
100
AcDbEntity
  8
Object
100
AcDbLine
 10
10.944
 20
11.831
 30
0.0
 11
11.21
 21
11.831
 31
0.0
  0
LINE
  5
13AB
330
18
100
AcDbEntity
  8
Object
100
AcDbLine
 10
10.936
 20
11.701
 30
0.0
 11
10.944
 21
11.701
 31
0.0
  0
LINE
  5
13AC
330
18
100
AcDbEntity
  8
Object
100
AcDbLine
 10
10.944
 20
11.701
 30
0.0
 11
10.944
 21
11.378
 31
0.0
  0
LINE
  5
13AD
330
18
100
AcDbEntity
  8
Object
100
AcDbLine
 10
11.21
 20
12.095
 30
0.0
 11
10.944
 21
12.095
 31
0.0
  0
LINE
  5
13AE
330
18
100
AcDbEntity
  8
Object
100
AcDbLine
 10
11.699
 20
11.949
 30
0.0
 11
11.687
 21
11.908
 31
0.0
  0
LINE
  5
13AF
330
18
100
AcDbEntity
  8
Object
100
AcDbLine
 10
11.687
 20
11.908
 30
0.0
 11
11.662
 21
11.873
 31
0.0
  0
LINE
  5
13B0
330
18
100
AcDbEntity
  8
Object
100
AcDbLine
 10
11.777
 20
11.908
 30
0.0
 11
11.784
 21
11.963
 31
0.0
  0
LINE
  5
13B1
330
18
100
AcDbEntity
  8
Object
100
AcDbLine
 10
11.784
 20
11.963
 30
0.0
 11
11.777
 21
12.017
 31
0.0
  0
LINE
  5
13B2
330
18
100
AcDbEntity
  8
Object
100
AcDbLine
 10
11.777
 20
12.017
 30
0.0
 11
11.756
 21
12.068
 31
0.0
  0
LINE
  5
13B3
330
18
100
AcDbEntity
  8
Object
100
AcDbLine
 10
11.756
 20
11.858
 30
0.0
 11
11.777
 21
11.908
 31
0.0
  0
LINE
  5
13B4
330
18
100
AcDbEntity
  8
Object
100
AcDbLine
 10
11.756
 20
12.068
 30
0.0
 11
11.723
 21
12.111
 31
0.0
  0
LINE
  5
13B5
330
18
100
AcDbEntity
  8
Object
100
AcDbLine
 10
11.756
 20
11.858
 30
0.0
 11
11.723
 21
11.814
 31
0.0
  0
LINE
  5
13B6
330
18
100
AcDbEntity
  8
Object
100
AcDbLine
 10
11.723
 20
11.814
 30
0.0
 11
11.679
 21
11.781
 31
0.0
  0
LINE
  5
13B7
330
18
100
AcDbEntity
  8
Object
100
AcDbLine
 10
11.723
 20
12.111
 30
0.0
 11
11.679
 21
12.145
 31
0.0
  0
LINE
  5
13B8
330
18
100
AcDbEntity
  8
Object
100
AcDbLine
 10
11.629
 20
11.76
 30
0.0
 11
11.679
 21
11.781
 31
0.0
  0
LINE
  5
13B9
330
18
100
AcDbEntity
  8
Object
100
AcDbLine
 10
11.662
 20
11.873
 30
0.0
 11
11.627
 21
11.849
 31
0.0
  0
LINE
  5
13BA
330
18
100
AcDbEntity
  8
Object
100
AcDbLine
 10
11.679
 20
12.145
 30
0.0
 11
11.629
 21
12.166
 31
0.0
  0
LINE
  5
13BB
330
18
100
AcDbEntity
  8
Object
100
AcDbLine
 10
11.629
 20
12.166
 30
0.0
 11
11.574
 21
12.173
 31
0.0
  0
LINE
  5
13BC
330
18
100
AcDbEntity
  8
Object
100
AcDbLine
 10
11.602
 20
11.844
 30
0.0
 11
11.576
 21
11.843
 31
0.0
  0
LINE
  5
13BD
330
18
100
AcDbEntity
  8
Object
100
AcDbLine
 10
11.574
 20
11.753
 30
0.0
 11
11.629
 21
11.76
 31
0.0
  0
LINE
  5
13BE
330
18
100
AcDbEntity
  8
Object
100
AcDbLine
 10
11.576
 20
11.843
 30
0.0
 11
11.551
 21
11.849
 31
0.0
  0
LINE
  5
13BF
330
18
100
AcDbEntity
  8
Object
100
AcDbLine
 10
11.551
 20
11.849
 30
0.0
 11
11.539
 21
11.854
 31
0.0
  0
LINE
  5
13C0
330
18
100
AcDbEntity
  8
Object
100
AcDbLine
 10
11.393
 20
12.068
 30
0.0
 11
11.372
 21
12.017
 31
0.0
  0
LINE
  5
13C1
330
18
100
AcDbEntity
  8
Object
100
AcDbLine
 10
11.627
 20
11.849
 30
0.0
 11
11.602
 21
11.844
 31
0.0
  0
LINE
  5
13C2
330
18
100
AcDbEntity
  8
Object
100
AcDbLine
 10
11.699
 20
11.949
 30
0.0
 11
11.696
 21
11.974
 31
0.0
  0
LINE
  5
13C3
330
18
100
AcDbEntity
  8
Object
100
AcDbLine
 10
11.696
 20
11.974
 30
0.0
 11
11.688
 21
11.999
 31
0.0
  0
LINE
  5
13C4
330
18
100
AcDbEntity
  8
Object
100
AcDbLine
 10
11.686
 20
11.907
 30
0.0
 11
11.687
 21
11.91
 31
0.0
  0
LINE
  5
13C5
330
18
100
AcDbEntity
  8
Object
100
AcDbLine
 10
11.688
 20
11.999
 30
0.0
 11
11.684
 21
12.005
 31
0.0
  0
LINE
  5
13C6
330
18
100
AcDbEntity
  8
Object
100
AcDbLine
 10
11.659
 20
11.871
 30
0.0
 11
11.664
 21
11.876
 31
0.0
  0
LINE
  5
13C7
330
18
100
AcDbEntity
  8
Object
100
AcDbLine
 10
11.625
 20
11.849
 30
0.0
 11
11.628
 21
11.85
 31
0.0
  0
LINE
  5
13C8
330
18
100
AcDbEntity
  8
Object
100
AcDbLine
 10
11.784
 20
11.963
 30
0.0
 11
11.794
 21
11.963
 31
0.0
  0
LINE
  5
13C9
330
18
100
AcDbEntity
  8
Object
100
AcDbLine
 10
11.794
 20
11.963
 30
0.0
 11
11.787
 21
11.906
 31
0.0
  0
LINE
  5
13CA
330
18
100
AcDbEntity
  8
Object
100
AcDbLine
 10
11.787
 20
11.906
 30
0.0
 11
11.765
 21
11.853
 31
0.0
  0
LINE
  5
13CB
330
18
100
AcDbEntity
  8
Object
100
AcDbLine
 10
11.765
 20
11.853
 30
0.0
 11
11.73
 21
11.807
 31
0.0
  0
LINE
  5
13CC
330
18
100
AcDbEntity
  8
Object
100
AcDbLine
 10
11.73
 20
11.807
 30
0.0
 11
11.684
 21
11.772
 31
0.0
  0
LINE
  5
13CD
330
18
100
AcDbEntity
  8
Object
100
AcDbLine
 10
11.684
 20
11.772
 30
0.0
 11
11.631
 21
11.75
 31
0.0
  0
LINE
  5
13CE
330
18
100
AcDbEntity
  8
Object
100
AcDbLine
 10
11.631
 20
11.75
 30
0.0
 11
11.574
 21
11.743
 31
0.0
  0
LINE
  5
13CF
330
18
100
AcDbEntity
  8
Object
100
AcDbLine
 10
11.574
 20
11.743
 30
0.0
 11
11.518
 21
11.75
 31
0.0
  0
LINE
  5
13D0
330
18
100
AcDbEntity
  8
Object
100
AcDbLine
 10
11.574
 20
11.753
 30
0.0
 11
11.52
 21
11.76
 31
0.0
  0
LINE
  5
13D1
330
18
100
AcDbEntity
  8
Object
100
AcDbLine
 10
11.52
 20
11.76
 30
0.0
 11
11.469
 21
11.781
 31
0.0
  0
LINE
  5
13D2
330
18
100
AcDbEntity
  8
Object
100
AcDbLine
 10
11.518
 20
11.75
 30
0.0
 11
11.464
 21
11.772
 31
0.0
  0
LINE
  5
13D3
330
18
100
AcDbEntity
  8
Object
100
AcDbLine
 10
11.464
 20
11.772
 30
0.0
 11
11.419
 21
11.807
 31
0.0
  0
LINE
  5
13D4
330
18
100
AcDbEntity
  8
Object
100
AcDbLine
 10
11.469
 20
11.781
 30
0.0
 11
11.426
 21
11.814
 31
0.0
  0
LINE
  5
13D5
330
18
100
AcDbEntity
  8
Object
100
AcDbLine
 10
11.426
 20
11.814
 30
0.0
 11
11.393
 21
11.858
 31
0.0
  0
LINE
  5
13D6
330
18
100
AcDbEntity
  8
Object
100
AcDbLine
 10
11.419
 20
11.807
 30
0.0
 11
11.384
 21
11.853
 31
0.0
  0
LINE
  5
13D7
330
18
100
AcDbEntity
  8
Object
100
AcDbLine
 10
11.384
 20
11.853
 30
0.0
 11
11.362
 21
11.906
 31
0.0
  0
LINE
  5
13D8
330
18
100
AcDbEntity
  8
Object
100
AcDbLine
 10
11.364
 20
11.963
 30
0.0
 11
11.372
 21
11.908
 31
0.0
  0
LINE
  5
13D9
330
18
100
AcDbEntity
  8
Object
100
AcDbLine
 10
11.372
 20
11.908
 30
0.0
 11
11.393
 21
11.858
 31
0.0
  0
LINE
  5
13DA
330
18
100
AcDbEntity
  8
Object
100
AcDbLine
 10
11.362
 20
11.906
 30
0.0
 11
11.354
 21
11.963
 31
0.0
  0
LINE
  5
13DB
330
18
100
AcDbEntity
  8
Object
100
AcDbLine
 10
11.354
 20
11.963
 30
0.0
 11
11.364
 21
11.963
 31
0.0
  0
LINE
  5
13DC
330
18
100
AcDbEntity
  8
Object
100
AcDbLine
 10
11.794
 20
11.963
 30
0.0
 11
11.787
 21
12.02
 31
0.0
  0
LINE
  5
13DD
330
18
100
AcDbEntity
  8
Object
100
AcDbLine
 10
11.787
 20
12.02
 30
0.0
 11
11.765
 21
12.073
 31
0.0
  0
LINE
  5
13DE
330
18
100
AcDbEntity
  8
Object
100
AcDbLine
 10
11.765
 20
12.073
 30
0.0
 11
11.73
 21
12.118
 31
0.0
  0
LINE
  5
13DF
330
18
100
AcDbEntity
  8
Object
100
AcDbLine
 10
11.73
 20
12.118
 30
0.0
 11
11.684
 21
12.153
 31
0.0
  0
LINE
  5
13E0
330
18
100
AcDbEntity
  8
Object
100
AcDbLine
 10
11.684
 20
12.153
 30
0.0
 11
11.631
 21
12.175
 31
0.0
  0
LINE
  5
13E1
330
18
100
AcDbEntity
  8
Object
100
AcDbLine
 10
11.631
 20
12.175
 30
0.0
 11
11.574
 21
12.183
 31
0.0
  0
LINE
  5
13E2
330
18
100
AcDbEntity
  8
Object
100
AcDbLine
 10
11.52
 20
12.166
 30
0.0
 11
11.574
 21
12.173
 31
0.0
  0
LINE
  5
13E3
330
18
100
AcDbEntity
  8
Object
100
AcDbLine
 10
11.574
 20
12.183
 30
0.0
 11
11.518
 21
12.175
 31
0.0
  0
LINE
  5
13E4
330
18
100
AcDbEntity
  8
Object
100
AcDbLine
 10
11.518
 20
12.175
 30
0.0
 11
11.464
 21
12.153
 31
0.0
  0
LINE
  5
13E5
330
18
100
AcDbEntity
  8
Object
100
AcDbLine
 10
11.52
 20
12.166
 30
0.0
 11
11.469
 21
12.145
 31
0.0
  0
LINE
  5
13E6
330
18
100
AcDbEntity
  8
Object
100
AcDbLine
 10
11.469
 20
12.145
 30
0.0
 11
11.426
 21
12.111
 31
0.0
  0
LINE
  5
13E7
330
18
100
AcDbEntity
  8
Object
100
AcDbLine
 10
11.464
 20
12.153
 30
0.0
 11
11.419
 21
12.118
 31
0.0
  0
LINE
  5
13E8
330
18
100
AcDbEntity
  8
Object
100
AcDbLine
 10
11.419
 20
12.118
 30
0.0
 11
11.384
 21
12.073
 31
0.0
  0
LINE
  5
13E9
330
18
100
AcDbEntity
  8
Object
100
AcDbLine
 10
11.393
 20
12.068
 30
0.0
 11
11.426
 21
12.111
 31
0.0
  0
LINE
  5
13EA
330
18
100
AcDbEntity
  8
Object
100
AcDbLine
 10
11.384
 20
12.073
 30
0.0
 11
11.362
 21
12.02
 31
0.0
  0
LINE
  5
13EB
330
18
100
AcDbEntity
  8
Object
100
AcDbLine
 10
11.364
 20
11.963
 30
0.0
 11
11.372
 21
12.017
 31
0.0
  0
LINE
  5
13EC
330
18
100
AcDbEntity
  8
Object
100
AcDbLine
 10
11.362
 20
12.02
 30
0.0
 11
11.354
 21
11.963
 31
0.0
  0
LINE
  5
13ED
330
18
100
AcDbEntity
  8
Object
100
AcDbLine
 10
11.794
 20
11.963
 30
0.0
 11
11.787
 21
11.906
 31
0.0
  0
LINE
  5
13EE
330
18
100
AcDbEntity
  8
Object
100
AcDbLine
 10
11.787
 20
11.906
 30
0.0
 11
11.765
 21
11.853
 31
0.0
  0
LINE
  5
13EF
330
18
100
AcDbEntity
  8
Object
100
AcDbLine
 10
11.765
 20
11.853
 30
0.0
 11
11.73
 21
11.807
 31
0.0
  0
LINE
  5
13F0
330
18
100
AcDbEntity
  8
Object
100
AcDbLine
 10
11.73
 20
11.807
 30
0.0
 11
11.684
 21
11.772
 31
0.0
  0
LINE
  5
13F1
330
18
100
AcDbEntity
  8
Object
100
AcDbLine
 10
11.684
 20
11.772
 30
0.0
 11
11.631
 21
11.75
 31
0.0
  0
LINE
  5
13F2
330
18
100
AcDbEntity
  8
Object
100
AcDbLine
 10
11.631
 20
11.75
 30
0.0
 11
11.574
 21
11.743
 31
0.0
  0
LINE
  5
13F3
330
18
100
AcDbEntity
  8
Object
100
AcDbLine
 10
11.574
 20
11.743
 30
0.0
 11
11.518
 21
11.75
 31
0.0
  0
LINE
  5
13F4
330
18
100
AcDbEntity
  8
Object
100
AcDbLine
 10
11.518
 20
11.75
 30
0.0
 11
11.464
 21
11.772
 31
0.0
  0
LINE
  5
13F5
330
18
100
AcDbEntity
  8
Object
100
AcDbLine
 10
11.464
 20
11.772
 30
0.0
 11
11.419
 21
11.807
 31
0.0
  0
LINE
  5
13F6
330
18
100
AcDbEntity
  8
Object
100
AcDbLine
 10
11.419
 20
11.807
 30
0.0
 11
11.384
 21
11.853
 31
0.0
  0
LINE
  5
13F7
330
18
100
AcDbEntity
  8
Object
100
AcDbLine
 10
11.384
 20
11.853
 30
0.0
 11
11.362
 21
11.906
 31
0.0
  0
LINE
  5
13F8
330
18
100
AcDbEntity
  8
Object
100
AcDbLine
 10
11.362
 20
11.906
 30
0.0
 11
11.354
 21
11.963
 31
0.0
  0
LINE
  5
13F9
330
18
100
AcDbEntity
  8
Object
100
AcDbLine
 10
11.794
 20
11.963
 30
0.0
 11
11.787
 21
12.02
 31
0.0
  0
LINE
  5
13FA
330
18
100
AcDbEntity
  8
Object
100
AcDbLine
 10
11.787
 20
12.02
 30
0.0
 11
11.765
 21
12.073
 31
0.0
  0
LINE
  5
13FB
330
18
100
AcDbEntity
  8
Object
100
AcDbLine
 10
11.765
 20
12.073
 30
0.0
 11
11.73
 21
12.118
 31
0.0
  0
LINE
  5
13FC
330
18
100
AcDbEntity
  8
Object
100
AcDbLine
 10
11.73
 20
12.118
 30
0.0
 11
11.684
 21
12.153
 31
0.0
  0
LINE
  5
13FD
330
18
100
AcDbEntity
  8
Object
100
AcDbLine
 10
11.684
 20
12.153
 30
0.0
 11
11.631
 21
12.175
 31
0.0
  0
LINE
  5
13FE
330
18
100
AcDbEntity
  8
Object
100
AcDbLine
 10
11.631
 20
12.175
 30
0.0
 11
11.574
 21
12.183
 31
0.0
  0
LINE
  5
13FF
330
18
100
AcDbEntity
  8
Object
100
AcDbLine
 10
11.574
 20
12.183
 30
0.0
 11
11.518
 21
12.175
 31
0.0
  0
LINE
  5
1400
330
18
100
AcDbEntity
  8
Object
100
AcDbLine
 10
11.518
 20
12.175
 30
0.0
 11
11.464
 21
12.153
 31
0.0
  0
LINE
  5
1401
330
18
100
AcDbEntity
  8
Object
100
AcDbLine
 10
11.464
 20
12.153
 30
0.0
 11
11.419
 21
12.118
 31
0.0
  0
LINE
  5
1402
330
18
100
AcDbEntity
  8
Object
100
AcDbLine
 10
11.419
 20
12.118
 30
0.0
 11
11.384
 21
12.073
 31
0.0
  0
LINE
  5
1403
330
18
100
AcDbEntity
  8
Object
100
AcDbLine
 10
11.384
 20
12.073
 30
0.0
 11
11.362
 21
12.02
 31
0.0
  0
LINE
  5
1404
330
18
100
AcDbEntity
  8
Object
100
AcDbLine
 10
11.362
 20
12.02
 30
0.0
 11
11.354
 21
11.963
 31
0.0
  0
LINE
  5
1405
330
18
100
AcDbEntity
  8
Object
100
AcDbLine
 10
11.643
 20
12.035
 30
0.0
 11
11.657
 21
12.02
 31
0.0
  0
LINE
  5
1406
330
18
100
AcDbEntity
  8
Object
100
AcDbLine
 10
11.653
 20
12.057
 30
0.0
 11
11.643
 21
12.067
 31
0.0
  0
LINE
  5
1407
330
18
100
AcDbEntity
  8
Object
100
AcDbLine
 10
11.643
 20
12.067
 30
0.0
 11
11.606
 21
12.084
 31
0.0
  0
LINE
  5
1408
330
18
100
AcDbEntity
  8
Object
100
AcDbLine
 10
11.606
 20
12.084
 30
0.0
 11
11.565
 21
12.087
 31
0.0
  0
LINE
  5
1409
330
18
100
AcDbEntity
  8
Object
100
AcDbLine
 10
11.578
 20
12.073
 30
0.0
 11
11.552
 21
12.074
 31
0.0
  0
LINE
  5
140A
330
18
100
AcDbEntity
  8
Object
100
AcDbLine
 10
11.552
 20
12.074
 30
0.0
 11
11.527
 21
12.069
 31
0.0
  0
LINE
  5
140B
330
18
100
AcDbEntity
  8
Object
100
AcDbLine
 10
11.565
 20
12.087
 30
0.0
 11
11.525
 21
12.078
 31
0.0
  0
LINE
  5
140C
330
18
100
AcDbEntity
  8
Object
100
AcDbLine
 10
11.503
 20
12.058
 30
0.0
 11
11.527
 21
12.069
 31
0.0
  0
LINE
  5
140D
330
18
100
AcDbEntity
  8
Object
100
AcDbLine
 10
11.525
 20
12.078
 30
0.0
 11
11.491
 21
12.056
 31
0.0
  0
LINE
  5
140E
330
18
100
AcDbEntity
  8
Object
100
AcDbLine
 10
11.503
 20
12.058
 30
0.0
 11
11.482
 21
12.043
 31
0.0
  0
LINE
  5
140F
330
18
100
AcDbEntity
  8
Object
100
AcDbLine
 10
11.482
 20
12.043
 30
0.0
 11
11.465
 21
12.024
 31
0.0
  0
LINE
  5
1410
330
18
100
AcDbEntity
  8
Object
100
AcDbLine
 10
11.465
 20
12.024
 30
0.0
 11
11.491
 21
12.056
 31
0.0
  0
LINE
  5
1411
330
18
100
AcDbEntity
  8
Object
100
AcDbLine
 10
11.578
 20
11.853
 30
0.0
 11
11.552
 21
11.852
 31
0.0
  0
LINE
  5
1412
330
18
100
AcDbEntity
  8
Object
100
AcDbLine
 10
11.552
 20
11.852
 30
0.0
 11
11.527
 21
11.857
 31
0.0
  0
LINE
  5
1413
330
18
100
AcDbEntity
  8
Object
100
AcDbLine
 10
11.527
 20
11.857
 30
0.0
 11
11.503
 21
11.867
 31
0.0
  0
LINE
  5
1414
330
18
100
AcDbEntity
  8
Object
100
AcDbLine
 10
11.503
 20
11.867
 30
0.0
 11
11.482
 21
11.882
 31
0.0
  0
LINE
  5
1415
330
18
100
AcDbEntity
  8
Object
100
AcDbLine
 10
11.486
 20
12.051
 30
0.0
 11
11.471
 21
12.032
 31
0.0
  0
LINE
  5
1416
330
18
100
AcDbEntity
  8
Object
100
AcDbLine
 10
11.465
 20
11.902
 30
0.0
 11
11.482
 21
11.882
 31
0.0
  0
LINE
  5
1417
330
18
100
AcDbEntity
  8
Object
100
AcDbLine
 10
11.674
 20
11.963
 30
0.0
 11
11.671
 21
11.936
 31
0.0
  0
LINE
  5
1418
330
18
100
AcDbEntity
  8
Object
100
AcDbLine
 10
11.671
 20
11.936
 30
0.0
 11
11.667
 21
11.924
 31
0.0
  0
LINE
  5
1419
330
18
100
AcDbEntity
  8
Object
100
AcDbLine
 10
11.667
 20
11.924
 30
0.0
 11
11.66
 21
11.911
 31
0.0
  0
LINE
  5
141A
330
18
100
AcDbEntity
  8
Object
100
AcDbLine
 10
11.66
 20
11.911
 30
0.0
 11
11.645
 21
11.892
 31
0.0
  0
LINE
  5
141B
330
18
100
AcDbEntity
  8
Object
100
AcDbLine
 10
11.645
 20
11.892
 30
0.0
 11
11.643
 21
11.89
 31
0.0
  0
LINE
  5
141C
330
18
100
AcDbEntity
  8
Object
100
AcDbLine
 10
11.612
 20
12.081
 30
0.0
 11
11.606
 21
12.084
 31
0.0
  0
LINE
  5
141D
330
18
100
AcDbEntity
  8
Object
100
AcDbLine
 10
11.606
 20
12.084
 30
0.0
 11
11.602
 21
12.084
 31
0.0
  0
LINE
  5
141E
330
18
100
AcDbEntity
  8
Object
100
AcDbLine
 10
11.571
 20
12.087
 30
0.0
 11
11.565
 21
12.087
 31
0.0
  0
LINE
  5
141F
330
18
100
AcDbEntity
  8
Object
100
AcDbLine
 10
11.565
 20
12.087
 30
0.0
 11
11.551
 21
12.085
 31
0.0
  0
LINE
  5
1420
330
18
100
AcDbEntity
  8
Object
100
AcDbLine
 10
11.547
 20
12.084
 30
0.0
 11
11.525
 21
12.078
 31
0.0
  0
LINE
  5
1421
330
18
100
AcDbEntity
  8
Object
100
AcDbLine
 10
11.525
 20
12.078
 30
0.0
 11
11.505
 21
12.067
 31
0.0
  0
LINE
  5
1422
330
18
100
AcDbEntity
  8
Object
100
AcDbLine
 10
11.505
 20
12.067
 30
0.0
 11
11.491
 21
12.056
 31
0.0
  0
LINE
  5
1423
330
18
100
AcDbEntity
  8
Object
100
AcDbLine
 10
11.491
 20
12.056
 30
0.0
 11
11.486
 21
12.051
 31
0.0
  0
LINE
  5
1424
330
18
100
AcDbEntity
  8
Object
100
AcDbLine
 10
11.471
 20
12.032
 30
0.0
 11
11.465
 21
12.024
 31
0.0
  0
LINE
  5
1425
330
18
100
AcDbEntity
  8
Object
100
AcDbLine
 10
11.465
 20
12.024
 30
0.0
 11
11.459
 21
12.01
 31
0.0
  0
LINE
  5
1426
330
18
100
AcDbEntity
  8
Object
100
AcDbLine
 10
11.465
 20
12.024
 30
0.0
 11
11.457
 21
12.004
 31
0.0
  0
LINE
  5
1427
330
18
100
AcDbEntity
  8
Object
100
AcDbLine
 10
11.457
 20
12.004
 30
0.0
 11
11.459
 21
12.01
 31
0.0
  0
LINE
  5
1428
330
18
100
AcDbEntity
  8
Object
100
AcDbLine
 10
11.457
 20
12.004
 30
0.0
 11
11.451
 21
11.984
 31
0.0
  0
LINE
  5
1429
330
18
100
AcDbEntity
  8
Object
100
AcDbLine
 10
11.451
 20
11.984
 30
0.0
 11
11.449
 21
11.963
 31
0.0
  0
LINE
  5
142A
330
18
100
AcDbEntity
  8
Object
100
AcDbLine
 10
11.674
 20
11.963
 30
0.0
 11
11.672
 21
11.983
 31
0.0
  0
LINE
  5
142B
330
18
100
AcDbEntity
  8
Object
100
AcDbLine
 10
11.672
 20
11.983
 30
0.0
 11
11.674
 21
11.963
 31
0.0
  0
LINE
  5
142C
330
18
100
AcDbEntity
  8
Object
100
AcDbLine
 10
11.672
 20
11.983
 30
0.0
 11
11.671
 21
11.989
 31
0.0
  0
LINE
  5
142D
330
18
100
AcDbEntity
  8
Object
100
AcDbLine
 10
11.671
 20
11.989
 30
0.0
 11
11.666
 21
12.002
 31
0.0
  0
LINE
  5
142E
330
18
100
AcDbEntity
  8
Object
100
AcDbLine
 10
11.666
 20
12.002
 30
0.0
 11
11.66
 21
12.014
 31
0.0
  0
LINE
  5
142F
330
18
100
AcDbEntity
  8
Object
100
AcDbLine
 10
11.66
 20
12.014
 30
0.0
 11
11.657
 21
12.02
 31
0.0
  0
LINE
  5
1430
330
18
100
AcDbEntity
  8
Object
100
AcDbLine
 10
11.578
 20
12.073
 30
0.0
 11
11.602
 21
12.066
 31
0.0
  0
LINE
  5
1431
330
18
100
AcDbEntity
  8
Object
100
AcDbLine
 10
11.602
 20
12.066
 30
0.0
 11
11.625
 21
12.053
 31
0.0
  0
LINE
  5
1432
330
18
100
AcDbEntity
  8
Object
100
AcDbLine
 10
11.625
 20
12.053
 30
0.0
 11
11.643
 21
12.035
 31
0.0
  0
LINE
  5
1433
330
18
100
AcDbEntity
  8
Object
100
AcDbLine
 10
11.643
 20
11.89
 30
0.0
 11
11.625
 21
11.872
 31
0.0
  0
LINE
  5
1434
330
18
100
AcDbEntity
  8
Object
100
AcDbLine
 10
11.625
 20
11.872
 30
0.0
 11
11.602
 21
11.86
 31
0.0
  0
LINE
  5
1435
330
18
100
AcDbEntity
  8
Object
100
AcDbLine
 10
11.602
 20
11.86
 30
0.0
 11
11.578
 21
11.853
 31
0.0
  0
LINE
  5
1436
330
18
100
AcDbEntity
  8
Object
100
AcDbLine
 10
11.643
 20
12.035
 30
0.0
 11
11.66
 21
12.014
 31
0.0
  0
LINE
  5
1437
330
18
100
AcDbEntity
  8
Object
100
AcDbLine
 10
11.66
 20
12.014
 30
0.0
 11
11.671
 21
11.989
 31
0.0
  0
LINE
  5
1438
330
18
100
AcDbEntity
  8
Object
100
AcDbLine
 10
11.671
 20
11.989
 30
0.0
 11
11.674
 21
11.963
 31
0.0
  0
LINE
  5
1439
330
18
100
AcDbEntity
  8
Object
100
AcDbLine
 10
11.674
 20
11.963
 30
0.0
 11
11.671
 21
11.936
 31
0.0
  0
LINE
  5
143A
330
18
100
AcDbEntity
  8
Object
100
AcDbLine
 10
11.671
 20
11.936
 30
0.0
 11
11.66
 21
11.911
 31
0.0
  0
LINE
  5
143B
330
18
100
AcDbEntity
  8
Object
100
AcDbLine
 10
11.66
 20
11.911
 30
0.0
 11
11.643
 21
11.89
 31
0.0
  0
LINE
  5
143C
330
18
100
AcDbEntity
  8
Object
100
AcDbLine
 10
11.457
 20
11.921
 30
0.0
 11
11.451
 21
11.942
 31
0.0
  0
LINE
  5
143D
330
18
100
AcDbEntity
  8
Object
100
AcDbLine
 10
11.451
 20
11.942
 30
0.0
 11
11.449
 21
11.963
 31
0.0
  0
LINE
  5
143E
330
18
100
AcDbEntity
  8
Object
100
AcDbLine
 10
11.449
 20
11.963
 30
0.0
 11
11.451
 21
11.984
 31
0.0
  0
LINE
  5
143F
330
18
100
AcDbEntity
  8
Object
100
AcDbLine
 10
11.465
 20
11.902
 30
0.0
 11
11.457
 21
11.921
 31
0.0
  0
LINE
  5
1440
330
18
100
AcDbEntity
  8
Object
100
AcDbLine
 10
11.457
 20
11.921
 30
0.0
 11
11.453
 21
11.931
 31
0.0
  0
LINE
  5
1441
330
18
100
AcDbEntity
  8
Object
100
AcDbLine
 10
11.453
 20
11.931
 30
0.0
 11
11.451
 21
11.942
 31
0.0
  0
LINE
  5
1442
330
18
100
AcDbEntity
  8
Object
100
AcDbLine
 10
11.451
 20
11.942
 30
0.0
 11
11.449
 21
11.963
 31
0.0
  0
LINE
  5
1443
330
18
100
AcDbEntity
  8
Object
100
AcDbLine
 10
4.602999999999999
 20
11.949
 30
0.0
 11
4.592
 21
11.908
 31
0.0
  0
LINE
  5
1444
330
18
100
AcDbEntity
  8
Object
100
AcDbLine
 10
4.592
 20
11.908
 30
0.0
 11
4.567
 21
11.873
 31
0.0
  0
LINE
  5
1445
330
18
100
AcDbEntity
  8
Object
100
AcDbLine
 10
4.682
 20
11.908
 30
0.0
 11
4.689
 21
11.963
 31
0.0
  0
LINE
  5
1446
330
18
100
AcDbEntity
  8
Object
100
AcDbLine
 10
4.689
 20
11.963
 30
0.0
 11
4.682
 21
12.017
 31
0.0
  0
LINE
  5
1447
330
18
100
AcDbEntity
  8
Object
100
AcDbLine
 10
4.682
 20
12.017
 30
0.0
 11
4.661
 21
12.068
 31
0.0
  0
LINE
  5
1448
330
18
100
AcDbEntity
  8
Object
100
AcDbLine
 10
4.661
 20
11.858
 30
0.0
 11
4.682
 21
11.908
 31
0.0
  0
LINE
  5
1449
330
18
100
AcDbEntity
  8
Object
100
AcDbLine
 10
4.661
 20
12.068
 30
0.0
 11
4.628
 21
12.111
 31
0.0
  0
LINE
  5
144A
330
18
100
AcDbEntity
  8
Object
100
AcDbLine
 10
4.661
 20
11.858
 30
0.0
 11
4.628
 21
11.814
 31
0.0
  0
LINE
  5
144B
330
18
100
AcDbEntity
  8
Object
100
AcDbLine
 10
4.628
 20
11.814
 30
0.0
 11
4.584
 21
11.781
 31
0.0
  0
LINE
  5
144C
330
18
100
AcDbEntity
  8
Object
100
AcDbLine
 10
4.628
 20
12.111
 30
0.0
 11
4.584
 21
12.145
 31
0.0
  0
LINE
  5
144D
330
18
100
AcDbEntity
  8
Object
100
AcDbLine
 10
4.533999999999999
 20
11.76
 30
0.0
 11
4.584
 21
11.781
 31
0.0
  0
LINE
  5
144E
330
18
100
AcDbEntity
  8
Object
100
AcDbLine
 10
4.567
 20
11.873
 30
0.0
 11
4.532
 21
11.849
 31
0.0
  0
LINE
  5
144F
330
18
100
AcDbEntity
  8
Object
100
AcDbLine
 10
4.584
 20
12.145
 30
0.0
 11
4.533999999999999
 21
12.166
 31
0.0
  0
LINE
  5
1450
330
18
100
AcDbEntity
  8
Object
100
AcDbLine
 10
4.533999999999999
 20
12.166
 30
0.0
 11
4.479
 21
12.173
 31
0.0
  0
LINE
  5
1451
330
18
100
AcDbEntity
  8
Object
100
AcDbLine
 10
4.506999999999999
 20
11.844
 30
0.0
 11
4.480999999999999
 21
11.843
 31
0.0
  0
LINE
  5
1452
330
18
100
AcDbEntity
  8
Object
100
AcDbLine
 10
4.479
 20
11.753
 30
0.0
 11
4.533999999999999
 21
11.76
 31
0.0
  0
LINE
  5
1453
330
18
100
AcDbEntity
  8
Object
100
AcDbLine
 10
4.480999999999999
 20
11.843
 30
0.0
 11
4.456
 21
11.849
 31
0.0
  0
LINE
  5
1454
330
18
100
AcDbEntity
  8
Object
100
AcDbLine
 10
4.456
 20
11.849
 30
0.0
 11
4.443999999999999
 21
11.854
 31
0.0
  0
LINE
  5
1455
330
18
100
AcDbEntity
  8
Object
100
AcDbLine
 10
4.296999999999999
 20
12.068
 30
0.0
 11
4.275999999999999
 21
12.017
 31
0.0
  0
LINE
  5
1456
330
18
100
AcDbEntity
  8
Object
100
AcDbLine
 10
4.532
 20
11.849
 30
0.0
 11
4.506999999999999
 21
11.844
 31
0.0
  0
LINE
  5
1457
330
18
100
AcDbEntity
  8
Object
100
AcDbLine
 10
4.602999999999999
 20
11.949
 30
0.0
 11
4.600999999999999
 21
11.974
 31
0.0
  0
LINE
  5
1458
330
18
100
AcDbEntity
  8
Object
100
AcDbLine
 10
4.600999999999999
 20
11.974
 30
0.0
 11
4.592999999999999
 21
11.999
 31
0.0
  0
LINE
  5
1459
330
18
100
AcDbEntity
  8
Object
100
AcDbLine
 10
4.589
 20
11.904
 30
0.0
 11
4.592999999999999
 21
11.913
 31
0.0
  0
LINE
  5
145A
330
18
100
AcDbEntity
  8
Object
100
AcDbLine
 10
4.592999999999999
 20
11.999
 30
0.0
 11
4.589
 21
12.005
 31
0.0
  0
LINE
  5
145B
330
18
100
AcDbEntity
  8
Object
100
AcDbLine
 10
4.562999999999999
 20
11.871
 30
0.0
 11
4.57
 21
11.878
 31
0.0
  0
LINE
  5
145C
330
18
100
AcDbEntity
  8
Object
100
AcDbLine
 10
4.528999999999999
 20
11.849
 30
0.0
 11
4.533999999999999
 21
11.851
 31
0.0
  0
LINE
  5
145D
330
18
100
AcDbEntity
  8
Object
100
AcDbLine
 10
4.698999999999999
 20
11.963
 30
0.0
 11
4.692
 21
11.906
 31
0.0
  0
LINE
  5
145E
330
18
100
AcDbEntity
  8
Object
100
AcDbLine
 10
4.692
 20
11.906
 30
0.0
 11
4.669999999999999
 21
11.853
 31
0.0
  0
LINE
  5
145F
330
18
100
AcDbEntity
  8
Object
100
AcDbLine
 10
4.669999999999999
 20
11.853
 30
0.0
 11
4.634999999999999
 21
11.807
 31
0.0
  0
LINE
  5
1460
330
18
100
AcDbEntity
  8
Object
100
AcDbLine
 10
4.634999999999999
 20
11.807
 30
0.0
 11
4.589
 21
11.772
 31
0.0
  0
LINE
  5
1461
330
18
100
AcDbEntity
  8
Object
100
AcDbLine
 10
4.589
 20
11.772
 30
0.0
 11
4.536
 21
11.75
 31
0.0
  0
LINE
  5
1462
330
18
100
AcDbEntity
  8
Object
100
AcDbLine
 10
4.536
 20
11.75
 30
0.0
 11
4.479
 21
11.743
 31
0.0
  0
LINE
  5
1463
330
18
100
AcDbEntity
  8
Object
100
AcDbLine
 10
4.479
 20
11.743
 30
0.0
 11
4.421999999999999
 21
11.75
 31
0.0
  0
LINE
  5
1464
330
18
100
AcDbEntity
  8
Object
100
AcDbLine
 10
4.479
 20
11.753
 30
0.0
 11
4.424999999999999
 21
11.76
 31
0.0
  0
LINE
  5
1465
330
18
100
AcDbEntity
  8
Object
100
AcDbLine
 10
4.424999999999999
 20
11.76
 30
0.0
 11
4.373999999999999
 21
11.781
 31
0.0
  0
LINE
  5
1466
330
18
100
AcDbEntity
  8
Object
100
AcDbLine
 10
4.421999999999999
 20
11.75
 30
0.0
 11
4.368999999999999
 21
11.772
 31
0.0
  0
LINE
  5
1467
330
18
100
AcDbEntity
  8
Object
100
AcDbLine
 10
4.368999999999999
 20
11.772
 30
0.0
 11
4.323999999999999
 21
11.807
 31
0.0
  0
LINE
  5
1468
330
18
100
AcDbEntity
  8
Object
100
AcDbLine
 10
4.373999999999999
 20
11.781
 30
0.0
 11
4.331
 21
11.814
 31
0.0
  0
LINE
  5
1469
330
18
100
AcDbEntity
  8
Object
100
AcDbLine
 10
4.331
 20
11.814
 30
0.0
 11
4.296999999999999
 21
11.858
 31
0.0
  0
LINE
  5
146A
330
18
100
AcDbEntity
  8
Object
100
AcDbLine
 10
4.323999999999999
 20
11.807
 30
0.0
 11
4.288999999999999
 21
11.853
 31
0.0
  0
LINE
  5
146B
330
18
100
AcDbEntity
  8
Object
100
AcDbLine
 10
4.288999999999999
 20
11.853
 30
0.0
 11
4.267
 21
11.906
 31
0.0
  0
LINE
  5
146C
330
18
100
AcDbEntity
  8
Object
100
AcDbLine
 10
4.296999999999999
 20
11.858
 30
0.0
 11
4.275999999999999
 21
11.908
 31
0.0
  0
LINE
  5
146D
330
18
100
AcDbEntity
  8
Object
100
AcDbLine
 10
4.267
 20
11.906
 30
0.0
 11
4.259
 21
11.963
 31
0.0
  0
LINE
  5
146E
330
18
100
AcDbEntity
  8
Object
100
AcDbLine
 10
4.259
 20
11.963
 30
0.0
 11
4.269
 21
11.963
 31
0.0
  0
LINE
  5
146F
330
18
100
AcDbEntity
  8
Object
100
AcDbLine
 10
4.269
 20
11.963
 30
0.0
 11
4.275999999999999
 21
11.908
 31
0.0
  0
LINE
  5
1470
330
18
100
AcDbEntity
  8
Object
100
AcDbLine
 10
4.692
 20
12.02
 30
0.0
 11
4.698999999999999
 21
11.963
 31
0.0
  0
LINE
  5
1471
330
18
100
AcDbEntity
  8
Object
100
AcDbLine
 10
4.698999999999999
 20
11.963
 30
0.0
 11
4.689
 21
11.963
 31
0.0
  0
LINE
  5
1472
330
18
100
AcDbEntity
  8
Object
100
AcDbLine
 10
4.692
 20
12.02
 30
0.0
 11
4.669999999999999
 21
12.073
 31
0.0
  0
LINE
  5
1473
330
18
100
AcDbEntity
  8
Object
100
AcDbLine
 10
4.669999999999999
 20
12.073
 30
0.0
 11
4.634999999999999
 21
12.118
 31
0.0
  0
LINE
  5
1474
330
18
100
AcDbEntity
  8
Object
100
AcDbLine
 10
4.634999999999999
 20
12.118
 30
0.0
 11
4.589
 21
12.153
 31
0.0
  0
LINE
  5
1475
330
18
100
AcDbEntity
  8
Object
100
AcDbLine
 10
4.589
 20
12.153
 30
0.0
 11
4.536
 21
12.175
 31
0.0
  0
LINE
  5
1476
330
18
100
AcDbEntity
  8
Object
100
AcDbLine
 10
4.536
 20
12.175
 30
0.0
 11
4.479
 21
12.183
 31
0.0
  0
LINE
  5
1477
330
18
100
AcDbEntity
  8
Object
100
AcDbLine
 10
4.424999999999999
 20
12.166
 30
0.0
 11
4.479
 21
12.173
 31
0.0
  0
LINE
  5
1478
330
18
100
AcDbEntity
  8
Object
100
AcDbLine
 10
4.479
 20
12.183
 30
0.0
 11
4.421999999999999
 21
12.175
 31
0.0
  0
LINE
  5
1479
330
18
100
AcDbEntity
  8
Object
100
AcDbLine
 10
4.421999999999999
 20
12.175
 30
0.0
 11
4.368999999999999
 21
12.153
 31
0.0
  0
LINE
  5
147A
330
18
100
AcDbEntity
  8
Object
100
AcDbLine
 10
4.424999999999999
 20
12.166
 30
0.0
 11
4.373999999999999
 21
12.145
 31
0.0
  0
LINE
  5
147B
330
18
100
AcDbEntity
  8
Object
100
AcDbLine
 10
4.373999999999999
 20
12.145
 30
0.0
 11
4.331
 21
12.111
 31
0.0
  0
LINE
  5
147C
330
18
100
AcDbEntity
  8
Object
100
AcDbLine
 10
4.368999999999999
 20
12.153
 30
0.0
 11
4.323999999999999
 21
12.118
 31
0.0
  0
LINE
  5
147D
330
18
100
AcDbEntity
  8
Object
100
AcDbLine
 10
4.323999999999999
 20
12.118
 30
0.0
 11
4.288999999999999
 21
12.073
 31
0.0
  0
LINE
  5
147E
330
18
100
AcDbEntity
  8
Object
100
AcDbLine
 10
4.296999999999999
 20
12.068
 30
0.0
 11
4.331
 21
12.111
 31
0.0
  0
LINE
  5
147F
330
18
100
AcDbEntity
  8
Object
100
AcDbLine
 10
4.288999999999999
 20
12.073
 30
0.0
 11
4.267
 21
12.02
 31
0.0
  0
LINE
  5
1480
330
18
100
AcDbEntity
  8
Object
100
AcDbLine
 10
4.267
 20
12.02
 30
0.0
 11
4.259
 21
11.963
 31
0.0
  0
LINE
  5
1481
330
18
100
AcDbEntity
  8
Object
100
AcDbLine
 10
4.269
 20
11.963
 30
0.0
 11
4.275999999999999
 21
12.017
 31
0.0
  0
LINE
  5
1482
330
18
100
AcDbEntity
  8
Object
100
AcDbLine
 10
4.698999999999999
 20
11.963
 30
0.0
 11
4.692
 21
11.906
 31
0.0
  0
LINE
  5
1483
330
18
100
AcDbEntity
  8
Object
100
AcDbLine
 10
4.692
 20
11.906
 30
0.0
 11
4.669999999999999
 21
11.853
 31
0.0
  0
LINE
  5
1484
330
18
100
AcDbEntity
  8
Object
100
AcDbLine
 10
4.669999999999999
 20
11.853
 30
0.0
 11
4.634999999999999
 21
11.807
 31
0.0
  0
LINE
  5
1485
330
18
100
AcDbEntity
  8
Object
100
AcDbLine
 10
4.634999999999999
 20
11.807
 30
0.0
 11
4.589
 21
11.772
 31
0.0
  0
LINE
  5
1486
330
18
100
AcDbEntity
  8
Object
100
AcDbLine
 10
4.589
 20
11.772
 30
0.0
 11
4.536
 21
11.75
 31
0.0
  0
LINE
  5
1487
330
18
100
AcDbEntity
  8
Object
100
AcDbLine
 10
4.536
 20
11.75
 30
0.0
 11
4.479
 21
11.743
 31
0.0
  0
LINE
  5
1488
330
18
100
AcDbEntity
  8
Object
100
AcDbLine
 10
4.479
 20
11.743
 30
0.0
 11
4.421999999999999
 21
11.75
 31
0.0
  0
LINE
  5
1489
330
18
100
AcDbEntity
  8
Object
100
AcDbLine
 10
4.421999999999999
 20
11.75
 30
0.0
 11
4.368999999999999
 21
11.772
 31
0.0
  0
LINE
  5
148A
330
18
100
AcDbEntity
  8
Object
100
AcDbLine
 10
4.368999999999999
 20
11.772
 30
0.0
 11
4.323999999999999
 21
11.807
 31
0.0
  0
LINE
  5
148B
330
18
100
AcDbEntity
  8
Object
100
AcDbLine
 10
4.323999999999999
 20
11.807
 30
0.0
 11
4.288999999999999
 21
11.853
 31
0.0
  0
LINE
  5
148C
330
18
100
AcDbEntity
  8
Object
100
AcDbLine
 10
4.288999999999999
 20
11.853
 30
0.0
 11
4.267
 21
11.906
 31
0.0
  0
LINE
  5
148D
330
18
100
AcDbEntity
  8
Object
100
AcDbLine
 10
4.267
 20
11.906
 30
0.0
 11
4.259
 21
11.963
 31
0.0
  0
LINE
  5
148E
330
18
100
AcDbEntity
  8
Object
100
AcDbLine
 10
4.698999999999999
 20
11.963
 30
0.0
 11
4.692
 21
12.02
 31
0.0
  0
LINE
  5
148F
330
18
100
AcDbEntity
  8
Object
100
AcDbLine
 10
4.692
 20
12.02
 30
0.0
 11
4.669999999999999
 21
12.073
 31
0.0
  0
LINE
  5
1490
330
18
100
AcDbEntity
  8
Object
100
AcDbLine
 10
4.669999999999999
 20
12.073
 30
0.0
 11
4.634999999999999
 21
12.118
 31
0.0
  0
LINE
  5
1491
330
18
100
AcDbEntity
  8
Object
100
AcDbLine
 10
4.634999999999999
 20
12.118
 30
0.0
 11
4.589
 21
12.153
 31
0.0
  0
LINE
  5
1492
330
18
100
AcDbEntity
  8
Object
100
AcDbLine
 10
4.589
 20
12.153
 30
0.0
 11
4.536
 21
12.175
 31
0.0
  0
LINE
  5
1493
330
18
100
AcDbEntity
  8
Object
100
AcDbLine
 10
4.536
 20
12.175
 30
0.0
 11
4.479
 21
12.183
 31
0.0
  0
LINE
  5
1494
330
18
100
AcDbEntity
  8
Object
100
AcDbLine
 10
4.479
 20
12.183
 30
0.0
 11
4.421999999999999
 21
12.175
 31
0.0
  0
LINE
  5
1495
330
18
100
AcDbEntity
  8
Object
100
AcDbLine
 10
4.421999999999999
 20
12.175
 30
0.0
 11
4.368999999999999
 21
12.153
 31
0.0
  0
LINE
  5
1496
330
18
100
AcDbEntity
  8
Object
100
AcDbLine
 10
4.368999999999999
 20
12.153
 30
0.0
 11
4.323999999999999
 21
12.118
 31
0.0
  0
LINE
  5
1497
330
18
100
AcDbEntity
  8
Object
100
AcDbLine
 10
4.323999999999999
 20
12.118
 30
0.0
 11
4.288999999999999
 21
12.073
 31
0.0
  0
LINE
  5
1498
330
18
100
AcDbEntity
  8
Object
100
AcDbLine
 10
4.288999999999999
 20
12.073
 30
0.0
 11
4.267
 21
12.02
 31
0.0
  0
LINE
  5
1499
330
18
100
AcDbEntity
  8
Object
100
AcDbLine
 10
4.267
 20
12.02
 30
0.0
 11
4.259
 21
11.963
 31
0.0
  0
LINE
  5
149A
330
18
100
AcDbEntity
  8
Object
100
AcDbLine
 10
4.548
 20
12.035
 30
0.0
 11
4.560999999999999
 21
12.02
 31
0.0
  0
LINE
  5
149B
330
18
100
AcDbEntity
  8
Object
100
AcDbLine
 10
4.557999999999999
 20
12.057
 30
0.0
 11
4.548
 21
12.067
 31
0.0
  0
LINE
  5
149C
330
18
100
AcDbEntity
  8
Object
100
AcDbLine
 10
4.548
 20
12.067
 30
0.0
 11
4.511
 21
12.084
 31
0.0
  0
LINE
  5
149D
330
18
100
AcDbEntity
  8
Object
100
AcDbLine
 10
4.511
 20
12.084
 30
0.0
 11
4.469999999999999
 21
12.087
 31
0.0
  0
LINE
  5
149E
330
18
100
AcDbEntity
  8
Object
100
AcDbLine
 10
4.482
 20
12.073
 30
0.0
 11
4.456999999999999
 21
12.074
 31
0.0
  0
LINE
  5
149F
330
18
100
AcDbEntity
  8
Object
100
AcDbLine
 10
4.456999999999999
 20
12.074
 30
0.0
 11
4.431
 21
12.069
 31
0.0
  0
LINE
  5
14A0
330
18
100
AcDbEntity
  8
Object
100
AcDbLine
 10
4.469999999999999
 20
12.087
 30
0.0
 11
4.429999999999999
 21
12.078
 31
0.0
  0
LINE
  5
14A1
330
18
100
AcDbEntity
  8
Object
100
AcDbLine
 10
4.408
 20
12.058
 30
0.0
 11
4.431
 21
12.069
 31
0.0
  0
LINE
  5
14A2
330
18
100
AcDbEntity
  8
Object
100
AcDbLine
 10
4.429999999999999
 20
12.078
 30
0.0
 11
4.395999999999999
 21
12.056
 31
0.0
  0
LINE
  5
14A3
330
18
100
AcDbEntity
  8
Object
100
AcDbLine
 10
4.408
 20
12.058
 30
0.0
 11
4.387
 21
12.043
 31
0.0
  0
LINE
  5
14A4
330
18
100
AcDbEntity
  8
Object
100
AcDbLine
 10
4.387
 20
12.043
 30
0.0
 11
4.37
 21
12.024
 31
0.0
  0
LINE
  5
14A5
330
18
100
AcDbEntity
  8
Object
100
AcDbLine
 10
4.37
 20
12.024
 30
0.0
 11
4.395999999999999
 21
12.056
 31
0.0
  0
LINE
  5
14A6
330
18
100
AcDbEntity
  8
Object
100
AcDbLine
 10
4.482
 20
11.853
 30
0.0
 11
4.456999999999999
 21
11.852
 31
0.0
  0
LINE
  5
14A7
330
18
100
AcDbEntity
  8
Object
100
AcDbLine
 10
4.456999999999999
 20
11.852
 30
0.0
 11
4.431
 21
11.857
 31
0.0
  0
LINE
  5
14A8
330
18
100
AcDbEntity
  8
Object
100
AcDbLine
 10
4.431
 20
11.857
 30
0.0
 11
4.408
 21
11.867
 31
0.0
  0
LINE
  5
14A9
330
18
100
AcDbEntity
  8
Object
100
AcDbLine
 10
4.408
 20
11.867
 30
0.0
 11
4.387
 21
11.882
 31
0.0
  0
LINE
  5
14AA
330
18
100
AcDbEntity
  8
Object
100
AcDbLine
 10
4.391
 20
12.051
 30
0.0
 11
4.375
 21
12.032
 31
0.0
  0
LINE
  5
14AB
330
18
100
AcDbEntity
  8
Object
100
AcDbLine
 10
4.37
 20
11.902
 30
0.0
 11
4.387
 21
11.882
 31
0.0
  0
LINE
  5
14AC
330
18
100
AcDbEntity
  8
Object
100
AcDbLine
 10
4.578999999999999
 20
11.963
 30
0.0
 11
4.576
 21
11.936
 31
0.0
  0
LINE
  5
14AD
330
18
100
AcDbEntity
  8
Object
100
AcDbLine
 10
4.576
 20
11.936
 30
0.0
 11
4.572
 21
11.924
 31
0.0
  0
LINE
  5
14AE
330
18
100
AcDbEntity
  8
Object
100
AcDbLine
 10
4.572
 20
11.924
 30
0.0
 11
4.565
 21
11.911
 31
0.0
  0
LINE
  5
14AF
330
18
100
AcDbEntity
  8
Object
100
AcDbLine
 10
4.565
 20
11.911
 30
0.0
 11
4.549999999999999
 21
11.892
 31
0.0
  0
LINE
  5
14B0
330
18
100
AcDbEntity
  8
Object
100
AcDbLine
 10
4.549999999999999
 20
11.892
 30
0.0
 11
4.548
 21
11.89
 31
0.0
  0
LINE
  5
14B1
330
18
100
AcDbEntity
  8
Object
100
AcDbLine
 10
4.517
 20
12.081
 30
0.0
 11
4.511
 21
12.084
 31
0.0
  0
LINE
  5
14B2
330
18
100
AcDbEntity
  8
Object
100
AcDbLine
 10
4.511
 20
12.084
 30
0.0
 11
4.506999999999999
 21
12.084
 31
0.0
  0
LINE
  5
14B3
330
18
100
AcDbEntity
  8
Object
100
AcDbLine
 10
4.475999999999999
 20
12.087
 30
0.0
 11
4.469999999999999
 21
12.087
 31
0.0
  0
LINE
  5
14B4
330
18
100
AcDbEntity
  8
Object
100
AcDbLine
 10
4.469999999999999
 20
12.087
 30
0.0
 11
4.456
 21
12.085
 31
0.0
  0
LINE
  5
14B5
330
18
100
AcDbEntity
  8
Object
100
AcDbLine
 10
4.44
 20
12.081
 30
0.0
 11
4.431
 21
12.078
 31
0.0
  0
LINE
  5
14B6
330
18
100
AcDbEntity
  8
Object
100
AcDbLine
 10
4.431
 20
12.078
 30
0.0
 11
4.429999999999999
 21
12.078
 31
0.0
  0
LINE
  5
14B7
330
18
100
AcDbEntity
  8
Object
100
AcDbLine
 10
4.429999999999999
 20
12.078
 30
0.0
 11
4.41
 21
12.067
 31
0.0
  0
LINE
  5
14B8
330
18
100
AcDbEntity
  8
Object
100
AcDbLine
 10
4.41
 20
12.067
 30
0.0
 11
4.395999999999999
 21
12.056
 31
0.0
  0
LINE
  5
14B9
330
18
100
AcDbEntity
  8
Object
100
AcDbLine
 10
4.395999999999999
 20
12.056
 30
0.0
 11
4.391
 21
12.051
 31
0.0
  0
LINE
  5
14BA
330
18
100
AcDbEntity
  8
Object
100
AcDbLine
 10
4.375
 20
12.032
 30
0.0
 11
4.37
 21
12.024
 31
0.0
  0
LINE
  5
14BB
330
18
100
AcDbEntity
  8
Object
100
AcDbLine
 10
4.37
 20
12.024
 30
0.0
 11
4.360999999999999
 21
12.004
 31
0.0
  0
LINE
  5
14BC
330
18
100
AcDbEntity
  8
Object
100
AcDbLine
 10
4.360999999999999
 20
12.004
 30
0.0
 11
4.355999999999999
 21
11.984
 31
0.0
  0
LINE
  5
14BD
330
18
100
AcDbEntity
  8
Object
100
AcDbLine
 10
4.355999999999999
 20
11.984
 30
0.0
 11
4.354
 21
11.963
 31
0.0
  0
LINE
  5
14BE
330
18
100
AcDbEntity
  8
Object
100
AcDbLine
 10
4.578999999999999
 20
11.963
 30
0.0
 11
4.576999999999999
 21
11.983
 31
0.0
  0
LINE
  5
14BF
330
18
100
AcDbEntity
  8
Object
100
AcDbLine
 10
4.576999999999999
 20
11.983
 30
0.0
 11
4.578999999999999
 21
11.963
 31
0.0
  0
LINE
  5
14C0
330
18
100
AcDbEntity
  8
Object
100
AcDbLine
 10
4.576999999999999
 20
11.983
 30
0.0
 11
4.576
 21
11.989
 31
0.0
  0
LINE
  5
14C1
330
18
100
AcDbEntity
  8
Object
100
AcDbLine
 10
4.576
 20
11.989
 30
0.0
 11
4.570999999999999
 21
12.002
 31
0.0
  0
LINE
  5
14C2
330
18
100
AcDbEntity
  8
Object
100
AcDbLine
 10
4.570999999999999
 20
12.002
 30
0.0
 11
4.565
 21
12.014
 31
0.0
  0
LINE
  5
14C3
330
18
100
AcDbEntity
  8
Object
100
AcDbLine
 10
4.565
 20
12.014
 30
0.0
 11
4.560999999999999
 21
12.02
 31
0.0
  0
LINE
  5
14C4
330
18
100
AcDbEntity
  8
Object
100
AcDbLine
 10
4.482
 20
12.073
 30
0.0
 11
4.506999999999999
 21
12.066
 31
0.0
  0
LINE
  5
14C5
330
18
100
AcDbEntity
  8
Object
100
AcDbLine
 10
4.506999999999999
 20
12.066
 30
0.0
 11
4.528999999999999
 21
12.053
 31
0.0
  0
LINE
  5
14C6
330
18
100
AcDbEntity
  8
Object
100
AcDbLine
 10
4.528999999999999
 20
12.053
 30
0.0
 11
4.548
 21
12.035
 31
0.0
  0
LINE
  5
14C7
330
18
100
AcDbEntity
  8
Object
100
AcDbLine
 10
4.548
 20
11.89
 30
0.0
 11
4.53
 21
11.872
 31
0.0
  0
LINE
  5
14C8
330
18
100
AcDbEntity
  8
Object
100
AcDbLine
 10
4.53
 20
11.872
 30
0.0
 11
4.506999999999999
 21
11.86
 31
0.0
  0
LINE
  5
14C9
330
18
100
AcDbEntity
  8
Object
100
AcDbLine
 10
4.506999999999999
 20
11.86
 30
0.0
 11
4.482
 21
11.853
 31
0.0
  0
LINE
  5
14CA
330
18
100
AcDbEntity
  8
Object
100
AcDbLine
 10
4.548
 20
12.035
 30
0.0
 11
4.565
 21
12.014
 31
0.0
  0
LINE
  5
14CB
330
18
100
AcDbEntity
  8
Object
100
AcDbLine
 10
4.565
 20
12.014
 30
0.0
 11
4.576
 21
11.989
 31
0.0
  0
LINE
  5
14CC
330
18
100
AcDbEntity
  8
Object
100
AcDbLine
 10
4.576
 20
11.989
 30
0.0
 11
4.578999999999999
 21
11.963
 31
0.0
  0
LINE
  5
14CD
330
18
100
AcDbEntity
  8
Object
100
AcDbLine
 10
4.578999999999999
 20
11.963
 30
0.0
 11
4.576
 21
11.936
 31
0.0
  0
LINE
  5
14CE
330
18
100
AcDbEntity
  8
Object
100
AcDbLine
 10
4.576
 20
11.936
 30
0.0
 11
4.565
 21
11.911
 31
0.0
  0
LINE
  5
14CF
330
18
100
AcDbEntity
  8
Object
100
AcDbLine
 10
4.565
 20
11.911
 30
0.0
 11
4.548
 21
11.89
 31
0.0
  0
LINE
  5
14D0
330
18
100
AcDbEntity
  8
Object
100
AcDbLine
 10
4.360999999999999
 20
11.921
 30
0.0
 11
4.355999999999999
 21
11.942
 31
0.0
  0
LINE
  5
14D1
330
18
100
AcDbEntity
  8
Object
100
AcDbLine
 10
4.355999999999999
 20
11.942
 30
0.0
 11
4.354
 21
11.963
 31
0.0
  0
LINE
  5
14D2
330
18
100
AcDbEntity
  8
Object
100
AcDbLine
 10
4.354
 20
11.963
 30
0.0
 11
4.355999999999999
 21
11.984
 31
0.0
  0
LINE
  5
14D3
330
18
100
AcDbEntity
  8
Object
100
AcDbLine
 10
4.37
 20
11.902
 30
0.0
 11
4.360999999999999
 21
11.921
 31
0.0
  0
LINE
  5
14D4
330
18
100
AcDbEntity
  8
Object
100
AcDbLine
 10
4.360999999999999
 20
11.921
 30
0.0
 11
4.357999999999999
 21
11.931
 31
0.0
  0
LINE
  5
14D5
330
18
100
AcDbEntity
  8
Object
100
AcDbLine
 10
4.357999999999999
 20
11.931
 30
0.0
 11
4.355999999999999
 21
11.942
 31
0.0
  0
LINE
  5
14D6
330
18
100
AcDbEntity
  8
Object
100
AcDbLine
 10
4.355999999999999
 20
11.942
 30
0.0
 11
4.354
 21
11.963
 31
0.0
  0
DIMENSION
  5
14D8
330
18
100
AcDbEntity
  8
Dimension
100
AcDbDimension
  2
*D0
 10
13.50564669848823
 20
10.963
 30
0.0
 11
13.50564669848823
 21
11.963
 31
0.0
 70
    32
 71
     5
 42
2.0
  3
STANDARD
100
AcDbAlignedDimension
 13
11.839
 23
12.963
 33
0.0
 14
11.839
 24
10.963
 34
0.0
 50
90.0
100
AcDbRotatedDimension
  0
DIMENSION
  5
14E6
330
18
100
AcDbEntity
  8
Dimension
100
AcDbDimension
  2
*D1
 10
12.214
 20
6.079914365387764
 30
0.0
 11
7.214
 21
6.079914365387764
 31
0.0
 70
    32
 71
     5
 42
10.0
  3
STANDARD
100
AcDbAlignedDimension
 13
2.213999999999999
 23
4.974
 33
0.0
 14
12.214
 24
4.974
 34
0.0
100
AcDbRotatedDimension
  0
DIMENSION
  5
14F4
330
18
100
AcDbEntity
  8
Dimension
100
AcDbDimension
  2
*D2
 10
16.03166118734448
 20
4.57
 30
0.0
 11
16.03166118734448
 21
4.772000000000002
 31
0.0
 70
    32
 71
     5
 42
0.404
  3
STANDARD
100
AcDbAlignedDimension
 13
16.964
 23
4.974
 33
0.0
 14
17.752
 24
4.57
 34
0.0
 50
90.0
100
AcDbRotatedDimension
  0
MTEXT
  5
1505
330
18
100
AcDbEntity
  8
Text
100
AcDbMText
 10
11.37324893148254
 20
0.8775685908585028
 30
0.0
 40
0.09
 41
0.25
 71
     5
 72
     5
  1
1
 73
     1
 44
1.0
1001
ACAD
1000
MTEXTBEGIN
1070
    73
1070
     1
1070
    44
1040
1.0
1070
    74
1070
     0
1000
MTEXTEND
  0
MTEXT
  5
1506
330
18
100
AcDbEntity
  8
Text
100
AcDbMText
 10
11.74824893148254
 20
0.8775685908585028
 30
0.0
 40
0.07
 41
0.5
 71
     5
 72
     5
  1
6-15-07
 73
     1
 44
1.0
1001
ACAD
1000
MTEXTBEGIN
1070
    73
1070
     1
1070
    44
1040
1.0
1070
    74
1070
     0
1000
MTEXTEND
  0
MTEXT
  5
1507
330
18
100
AcDbEntity
  8
Text
100
AcDbMText
 10
12.18574893148254
 20
0.8775685908585028
 30
0.0
 40
0.09
 41
0.375
 71
     5
 72
     5
  1
DTP
 73
     1
 44
1.0
1001
ACAD
1000
MTEXTBEGIN
1070
    73
1070
     1
1070
    44
1040
1.0
1070
    74
1070
     0
1000
MTEXTEND
  0
MTEXT
  5
1508
330
18
100
AcDbEntity
  8
Text
100
AcDbMText
 10
12.77324893148254
 20
0.8775685908585023
 30
0.0
 40
0.07
 41
2.75
 71
     4
 72
     5
  1
B. REVISED PAPER SIZE; WAS B SIZE.\PA. REVISED DRAWING TITLE.
 73
     1
 44
1.0
1001
ACAD
1000
MTEXTBEGIN
1070
    73
1070
     1
1070
    44
1040
1.0
1070
    74
1070
     0
1000
MTEXTEND
  0
MTEXT
  5
1509
330
18
100
AcDbEntity
  8
Text
100
AcDbMText
 10
12.5604002814227
 20
0.8762490740326651
 30
0.0
 40
0.07
 41
0.375
 71
     5
 72
     5
  1
DJWA
 73
     1
 44
1.0
1001
ACAD
1000
MTEXTBEGIN
1070
    73
1070
     1
1070
    44
1040
1.0
1070
    74
1070
     0
1000
MTEXTEND
  0
MTEXT
  5
150A
330
18
100
AcDbEntity
  8
Text
100
AcDbMText
 10
11.37324893148254
 20
1.127568590858502
 30
0.0
 40
0.09
 41
0.25
 71
     5
 72
     5
  1
-
 73
     1
 44
1.0
1001
ACAD
1000
MTEXTBEGIN
1070
    73
1070
     1
1070
    44
1040
1.0
1070
    74
1070
     0
1000
MTEXTEND
  0
MTEXT
  5
150B
330
18
100
AcDbEntity
  8
Text
100
AcDbMText
 10
11.74824893148254
 20
1.127568590858502
 30
0.0
 40
0.07
 41
0.5
 71
     5
 72
     5
  1
--------
 73
     1
 44
1.0
1001
ACAD
1000
MTEXTBEGIN
1070
    73
1070
     1
1070
    44
1040
1.0
1070
    74
1070
     0
1000
MTEXTEND
  0
MTEXT
  5
150C
330
18
100
AcDbEntity
  8
Text
100
AcDbMText
 10
12.18574893148254
 20
1.127568590858502
 30
0.0
 40
0.09
 41
0.375
 71
     5
 72
     5
  1
---
 73
     1
 44
1.0
1001
ACAD
1000
MTEXTBEGIN
1070
    73
1070
     1
1070
    44
1040
1.0
1070
    74
1070
     0
1000
MTEXTEND
  0
MTEXT
  5
150D
330
18
100
AcDbEntity
  8
Text
100
AcDbMText
 10
12.77324893148254
 20
1.127568590858502
 30
0.0
 40
0.07
 41
2.75
 71
     4
 72
     5
  1
D. ADDED RIGHT SIDE VIEW.\PC. REVISED PART GEOMETRY.
 73
     1
 44
1.0
1001
ACAD
1000
MTEXTBEGIN
1070
    73
1070
     1
1070
    44
1040
1.0
1070
    74
1070
     0
1000
MTEXTEND
  0
MTEXT
  5
150E
330
18
100
AcDbEntity
  8
Text
100
AcDbMText
 10
12.5604002814227
 20
1.126249074032664
 30
0.0
 40
0.07
 41
0.375
 71
     5
 72
     5
  1
----
 73
     1
 44
1.0
1001
ACAD
1000
MTEXTBEGIN
1070
    73
1070
     1
1070
    44
1040
1.0
1070
    74
1070
     0
1000
MTEXTEND
  0
MTEXT
  5
150F
330
18
100
AcDbEntity
  8
Text
100
AcDbMText
 10
11.37324893148254
 20
1.377568590858502
 30
0.0
 40
0.09
 41
0.25
 71
     5
 72
     5
  1
-
 73
     1
 44
1.0
1001
ACAD
1000
MTEXTBEGIN
1070
    73
1070
     1
1070
    44
1040
1.0
1070
    74
1070
     0
1000
MTEXTEND
  0
MTEXT
  5
1510
330
18
100
AcDbEntity
  8
Text
100
AcDbMText
 10
11.74824893148254
 20
1.377568590858502
 30
0.0
 40
0.07
 41
0.5
 71
     5
 72
     5
  1
--------
 73
     1
 44
1.0
1001
ACAD
1000
MTEXTBEGIN
1070
    73
1070
     1
1070
    44
1040
1.0
1070
    74
1070
     0
1000
MTEXTEND
  0
MTEXT
  5
1511
330
18
100
AcDbEntity
  8
Text
100
AcDbMText
 10
12.18574893148254
 20
1.377568590858502
 30
0.0
 40
0.09
 41
0.375
 71
     5
 72
     5
  1
---
 73
     1
 44
1.0
1001
ACAD
1000
MTEXTBEGIN
1070
    73
1070
     1
1070
    44
1040
1.0
1070
    74
1070
     0
1000
MTEXTEND
  0
MTEXT
  5
1512
330
18
100
AcDbEntity
  8
Text
100
AcDbMText
 10
12.77324893148254
 20
1.377568590858502
 30
0.0
 40
0.07
 41
2.75
 71
     4
 72
     5
  1
F. ADDED GENERAL NOTES.\PE. REVISED DIMENSION.
 73
     1
 44
1.0
1001
ACAD
1000
MTEXTBEGIN
1070
    73
1070
     1
1070
    44
1040
1.0
1070
    74
1070
     0
1000
MTEXTEND
  0
MTEXT
  5
1513
330
18
100
AcDbEntity
  8
Text
100
AcDbMText
 10
12.5604002814227
 20
1.376249074032664
 30
0.0
 40
0.07
 41
0.375
 71
     5
 72
     5
  1
----
 73
     1
 44
1.0
1001
ACAD
1000
MTEXTBEGIN
1070
    73
1070
     1
1070
    44
1040
1.0
1070
    74
1070
     0
1000
MTEXTEND
  0
LINE
  5
1516
330
18
100
AcDbEntity
  8
Text
100
AcDbLine
 10
17.76727483669025
 20
1.508958735843648
 30
0.0
 11
17.91727483669024
 21
1.76876635697898
 31
0.0
  0
LINE
  5
1517
330
18
100
AcDbEntity
  8
Text
100
AcDbLine
 10
17.91727483669024
 20
1.76876635697898
 30
0.0
 11
18.06727483669025
 21
1.508958735843648
 31
0.0
  0
LINE
  5
1518
330
18
100
AcDbEntity
  8
Text
100
AcDbLine
 10
18.06727483669025
 20
1.508958735843648
 30
0.0
 11
17.76727483669025
 21
1.508958735843648
 31
0.0
  0
TEXT
  5
1519
330
18
100
AcDbEntity
  8
Text
100
AcDbText
 10
17.87625704143589
 20
1.571879641090426
 30
0.0
 40
0.09
  1
A
100
AcDbText
  0
LINE
  5
151A
330
18
100
AcDbEntity
  8
Text
100
AcDbLine
 10
21.34668781513866
 20
0.761370201018778
 30
0.0
 11
21.49668781513867
 21
1.021177822154109
 31
0.0
  0
LINE
  5
151B
330
18
100
AcDbEntity
  8
Text
100
AcDbLine
 10
21.49668781513867
 20
1.021177822154109
 30
0.0
 11
21.64668781513867
 21
0.761370201018778
 31
0.0
  0
LINE
  5
151C
330
18
100
AcDbEntity
  8
Text
100
AcDbLine
 10
21.64668781513867
 20
0.761370201018778
 30
0.0
 11
21.34668781513866
 21
0.761370201018778
 31
0.0
  0
TEXT
  5
151D
330
18
100
AcDbEntity
  8
Text
100
AcDbText
 10
21.46185143819969
 20
0.818112184514832
 30
0.0
 40
0.09
  1
B
100
AcDbText
  0
LINE
  5
151E
330
18
100
AcDbEntity
  8
Text
100
AcDbLine
 10
6.502573713761606
 20
4.163318214433076
 30
0.0
 11
6.652573713761604
 21
4.423125835568407
 31
0.0
  0
LINE
  5
151F
330
18
100
AcDbEntity
  8
Text
100
AcDbLine
 10
6.652573713761604
 20
4.423125835568407
 30
0.0
 11
6.802573713761606
 21
4.163318214433076
 31
0.0
  0
LINE
  5
1520
330
18
100
AcDbEntity
  8
Text
100
AcDbLine
 10
6.802573713761606
 20
4.163318214433076
 30
0.0
 11
6.502573713761606
 21
4.163318214433076
 31
0.0
  0
TEXT
  5
1521
330
18
100
AcDbEntity
  8
Text
100
AcDbText
 10
6.611555918507253
 20
4.216899473065716
 30
0.0
 40
0.09
  1
C
100
AcDbText
  0
LINE
  5
1522
330
18
100
AcDbEntity
  8
Text
100
AcDbLine
 10
16.97392979269872
 20
4.118678496368559
 30
0.0
 11
17.12392979269872
 21
4.378486117503891
 31
0.0
  0
LINE
  5
1523
330
18
100
AcDbEntity
  8
Text
100
AcDbLine
 10
17.12392979269872
 20
4.378486117503891
 30
0.0
 11
17.27392979269873
 21
4.118678496368559
 31
0.0
  0
LINE
  5
1524
330
18
100
AcDbEntity
  8
Text
100
AcDbLine
 10
17.27392979269873
 20
4.118678496368559
 30
0.0
 11
16.97392979269872
 21
4.118678496368559
 31
0.0
  0
TEXT
  5
1525
330
18
100
AcDbEntity
  8
Text
100
AcDbText
 10
17.08292084150635
 20
4.172787172895803
 30
0.0
 40
0.09
  1
C
100
AcDbText
  0
LINE
  5
1526
330
18
100
AcDbEntity
  8
Text
100
AcDbLine
 10
6.635598483490397
 20
10.2768942807447
 30
0.0
 11
6.785598483490396
 21
10.53670190188003
 31
0.0
  0
LINE
  5
1527
330
18
100
AcDbEntity
  8
Text
100
AcDbLine
 10
6.785598483490396
 20
10.53670190188003
 30
0.0
 11
6.935598483490398
 21
10.2768942807447
 31
0.0
  0
LINE
  5
1528
330
18
100
AcDbEntity
  8
Text
100
AcDbLine
 10
6.935598483490398
 20
10.2768942807447
 30
0.0
 11
6.635598483490397
 21
10.2768942807447
 31
0.0
  0
TEXT
  5
1529
330
18
100
AcDbEntity
  8
Text
100
AcDbText
 10
6.749882348329283
 20
10.33186589133386
 30
0.0
 40
0.09
  1
C
100
AcDbText
  0
LINE
  5
152A
330
18
100
AcDbEntity
  8
Text
100
AcDbLine
 10
16.64530711587141
 20
4.118678496368559
 30
0.0
 11
16.79530711587141
 21
4.378486117503891
 31
0.0
  0
LINE
  5
152B
330
18
100
AcDbEntity
  8
Text
100
AcDbLine
 10
16.79530711587141
 20
4.378486117503891
 30
0.0
 11
16.94530711587141
 21
4.118678496368559
 31
0.0
  0
LINE
  5
152C
330
18
100
AcDbEntity
  8
Text
100
AcDbLine
 10
16.94530711587141
 20
4.118678496368559
 30
0.0
 11
16.64530711587141
 21
4.118678496368559
 31
0.0
  0
TEXT
  5
152D
330
18
100
AcDbEntity
  8
Text
100
AcDbText
 10
16.75869275970187
 20
4.168394277180909
 30
0.0
 40
0.09
  1
D
100
AcDbText
  0
LINE
  5
152E
330
18
100
AcDbEntity
  8
Text
100
AcDbLine
 10
15.30560545403664
 20
4.634643989195645
 30
0.0
 11
15.45560545403663
 21
4.894451610330976
 31
0.0
  0
LINE
  5
152F
330
18
100
AcDbEntity
  8
Text
100
AcDbLine
 10
15.45560545403663
 20
4.894451610330976
 30
0.0
 11
15.60560545403664
 21
4.634643989195645
 31
0.0
  0
LINE
  5
1530
330
18
100
AcDbEntity
  8
Text
100
AcDbLine
 10
15.60560545403664
 20
4.634643989195645
 30
0.0
 11
15.30560545403664
 21
4.634643989195645
 31
0.0
  0
TEXT
  5
1531
330
18
100
AcDbEntity
  8
Text
100
AcDbText
 10
15.4167893783247
 20
4.6865606240804
 30
0.0
 40
0.09
  1
E
100
AcDbText
  0
LINE
  5
1532
330
18
100
AcDbEntity
  8
Text
100
AcDbLine
 10
16.58697289925398
 20
15.9150557719255
 30
0.0
 11
16.73697289925398
 21
16.17486339306083
 31
0.0
  0
LINE
  5
1533
330
18
100
AcDbEntity
  8
Text
100
AcDbLine
 10
16.73697289925398
 20
16.17486339306083
 30
0.0
 11
16.88697289925398
 21
15.9150557719255
 31
0.0
  0
LINE
  5
1534
330
18
100
AcDbEntity
  8
Text
100
AcDbLine
 10
16.88697289925398
 20
15.9150557719255
 30
0.0
 11
16.58697289925398
 21
15.9150557719255
 31
0.0
  0
TEXT
  5
1535
330
18
100
AcDbEntity
  8
Text
100
AcDbText
 10
16.69716080141045
 20
15.96230809630181
 30
0.0
 40
0.09
  1
F
100
AcDbText
  0
DIMENSION
  5
153C
330
18
100
AcDbEntity
  8
Dimension
100
AcDbDimension
  2
*D3
 10
3.069845149430331
 20
11.74017583609698
 30
0.0
 11
5.031783396519592
 21
13.64241498054043
 31
0.0
 70
   163
  1
0.53 DIA [13.5mm]
 71
     5
 42
0.5280103884361492
  3
STANDARD
100
AcDbDiametricDimension
 15
3.356161426050182
 25
12.18381753841884
 35
0.0
 40
0.0
1001
ACAD
1000
DSTYLE
1002
{
1070
   141
1040
0.0
1070
   288
1070
     1
1002
}
  0
ENDSEC
  0
SECTION
  2
OBJECTS
  0
DICTIONARY
  5
C
330
0
100
AcDbDictionary
281
     1
  3
ACAD_COLOR
350
10D
  3
ACAD_GROUP
350
D
  3
ACAD_LAYOUT
350
110
  3
ACAD_MATERIAL
350
10C
  3
ACAD_MLINESTYLE
350
1B
  3
ACAD_PLOTSETTINGS
350
111
  3
ACAD_PLOTSTYLENAME
350
10A
  3
ACAD_TABLESTYLE
350
10E
  3
ACDBHEADERROUNDTRIPXREC
350
1581
  3
AcDbVariableDictionary
350
13E
  3
ASE_INDEX_DICTIONARY
350
148
  0
DICTIONARY
  5
154
330
2
100
AcDbDictionary
280
     1
281
     1
  3
ACAD_LAYERFILTERS
360
158
  3
ACLYDICTIONARY
360
157
  0
DICTIONARY
  5
10D
102
{ACAD_REACTORS
330
C
102
}
330
C
100
AcDbDictionary
281
     1
  0
DICTIONARY
  5
D
102
{ACAD_REACTORS
330
C
102
}
330
C
100
AcDbDictionary
281
     1
  0
DICTIONARY
  5
110
102
{ACAD_REACTORS
330
C
102
}
330
C
100
AcDbDictionary
281
     1
  3
Layout1
350
113
  3
Model
350
112
  0
DICTIONARY
  5
10C
102
{ACAD_REACTORS
330
C
102
}
330
C
100
AcDbDictionary
281
     1
  0
DICTIONARY
  5
1B
102
{ACAD_REACTORS
330
C
102
}
330
C
100
AcDbDictionary
281
     1
  3
STANDARD
350
1C
  0
DICTIONARY
  5
111
102
{ACAD_REACTORS
330
C
102
}
330
C
100
AcDbDictionary
281
     1
  0
ACDBDICTIONARYWDFLT
  5
10A
102
{ACAD_REACTORS
330
C
102
}
330
C
100
AcDbDictionary
281
     1
  3
Normal
350
10B
100
AcDbDictionaryWithDefault
340
10B
  0
DICTIONARY
  5
10E
102
{ACAD_REACTORS
330
C
102
}
330
C
100
AcDbDictionary
281
     1
  3
Standard
350
10F
  0
DICTIONARY
  5
1581
102
{ACAD_REACTORS
330
C
102
}
330
C
100
AcDbDictionary
281
     1
  0
DICTIONARY
  5
13E
102
{ACAD_REACTORS
330
C
102
}
330
C
100
AcDbDictionary
281
     1
  3
CTABLESTYLE
350
13F
  3
DIMASSOC
350
157E
  3
PROJECTNAME
350
157F
  0
DICTIONARY
  5
148
102
{ACAD_REACTORS
330
C
102
}
330
C
100
AcDbDictionary
281
     1
  3
ASEBlockHierarchyIndexRecord
350
14A
1001
DCO15
1040
1529148047.148
  0
DICTIONARY
  5
158
102
{ACAD_REACTORS
330
154
102
}
330
154
100
AcDbDictionary
281
     1
  0
DICTIONARY
  5
157
102
{ACAD_REACTORS
330
154
102
}
330
154
100
AcDbDictionary
281
     1
1001
ACAD
1000
<All
  0
LAYOUT
  5
113
102
{ACAD_XDICTIONARY
360
1584
102
}
102
{ACAD_REACTORS
330
110
102
}
330
110
100
AcDbPlotSettings
  1

  2
\\RSENG\RSplotter4NT
  4

  6

 40
0.0
 41
0.0
 42
0.0
 43
0.0
 44
0.0
 45
0.0
 46
0.0
 47
0.0
 48
0.0
 49
0.0
140
0.0
141
0.0
142
1.0
143
1.0
 70
   688
 72
     0
 73
     0
 74
     5
  7
Symantec Fax Starter Edition
 75
    16
147
1.0
148
0.0
149
0.0
100
AcDbLayout
  1
Layout1
 70
     1
 71
     1
 10
0.0
 20
0.0
 11
12.0
 21
9.0
 12
0.0
 22
0.0
 32
0.0
 14
1.000000000000000E+20
 24
1.000000000000000E+20
 34
1.000000000000000E+20
 15
-1.000000000000000E+20
 25
-1.000000000000000E+20
 35
-1.000000000000000E+20
146
0.0
 13
0.0
 23
0.0
 33
0.0
 16
1.0
 26
0.0
 36
0.0
 17
0.0
 27
1.0
 37
0.0
 76
     0
330
15
  0
LAYOUT
  5
112
102
{ACAD_XDICTIONARY
360
1582
102
}
102
{ACAD_REACTORS
330
110
102
}
330
110
100
AcDbPlotSettings
  1

  2
\\RSENG\RSplotter4NT
  4

  6

 40
0.0
 41
0.0
 42
0.0
 43
0.0
 44
0.0
 45
0.0
 46
0.0
 47
0.0
 48
0.0
 49
0.0
140
0.0
141
0.0
142
1.0
143
1.0
 70
  1712
 72
     0
 73
     0
 74
     0
  7
Symantec Fax Starter Edition
 75
     0
147
1.0
148
0.0
149
0.0
100
AcDbLayout
  1
Model
 70
     1
 71
     0
 10
0.0
 20
0.0
 11
12.0
 21
9.0
 12
0.0
 22
0.0
 32
0.0
 14
0.0
 24
0.0
 34
0.0
 15
0.0
 25
0.0
 35
0.0
146
0.0
 13
0.0
 23
0.0
 33
0.0
 16
1.0
 26
0.0
 36
0.0
 17
0.0
 27
1.0
 37
0.0
 76
     0
330
18
  0
MLINESTYLE
  5
1C
102
{ACAD_REACTORS
330
1B
102
}
330
1B
100
AcDbMlineStyle
  2
STANDARD
 70
     0
  3

 62
   256
 51
90.0
 52
90.0
 71
     2
 49
0.5
 62
   256
  6
BYLAYER
 49
-0.5
 62
   256
  6
BYLAYER
  0
ACDBPLACEHOLDER
  5
10B
102
{ACAD_REACTORS
330
10A
102
}
330
10A
  0
TABLESTYLE
  5
10F
102
{ACAD_REACTORS
330
10E
102
}
330
10E
100
AcDbTableStyle
  3
Standard
 70
     0
 71
     0
 40
0.06
 41
0.06
280
     0
281
     0
  7
STANDARD
140
0.18
170
     2
 62
     0
 63
     7
283
     0
274
    -2
284
     1
 64
     0
275
    -2
285
     1
 65
     0
276
    -2
286
     1
 66
     0
277
    -2
287
     1
 67
     0
278
    -2
288
     1
 68
     0
279
    -2
289
     1
 69
     0
  7
STANDARD
140
0.25
170
     5
 62
     0
 63
     7
283
     0
274
    -2
284
     1
 64
     0
275
    -2
285
     1
 65
     0
276
    -2
286
     1
 66
     0
277
    -2
287
     1
 67
     0
278
    -2
288
     1
 68
     0
279
    -2
289
     1
 69
     0
  7
STANDARD
140
0.18
170
     5
 62
     0
 63
     7
283
     0
274
    -2
284
     1
 64
     0
275
    -2
285
     1
 65
     0
276
    -2
286
     1
 66
     0
277
    -2
287
     1
 67
     0
278
    -2
288
     1
 68
     0
279
    -2
289
     1
 69
     0
  0
DICTIONARYVAR
  5
13F
102
{ACAD_REACTORS
330
13E
102
}
330
13E
100
DictionaryVariables
280
     0
  1
STANDARD
  0
DICTIONARYVAR
  5
157E
102
{ACAD_REACTORS
330
13E
102
}
330
13E
100
DictionaryVariables
280
     0
  1
1
  0
DICTIONARYVAR
  5
157F
102
{ACAD_REACTORS
330
13E
102
}
330
13E
100
DictionaryVariables
280
     0
  1

  0
XRECORD
  5
14A
102
{ACAD_REACTORS
330
148
102
}
330
148
100
AcDbXrecord
280
     1
  0
DICTIONARY
  5
1584
330
113
100
AcDbDictionary
280
     1
281
     1
  3
ACAD_XREC_ROUNDTRIP
360
1585
  0
DICTIONARY
  5
1582
330
112
100
AcDbDictionary
280
     1
281
     1
  3
ACAD_XREC_ROUNDTRIP
360
1583
  0
XRECORD
  5
1585
102
{ACAD_REACTORS
330
1584
102
}
330
1584
100
AcDbXrecord
280
     1
102
SHADEPLOT
 70
     0
102
SHADEPLOTRESLEVEL
 70
     2
102
SHADEPLOTCUSTOMDPI
 70
   300
  0
XRECORD
  5
1583
102
{ACAD_REACTORS
330
1582
102
}
330
1582
100
AcDbXrecord
280
     1
102
SHADEPLOT
 70
     0
102
SHADEPLOTRESLEVEL
 70
     2
102
SHADEPLOTCUSTOMDPI
 70
   300
  0
ENDSEC
  0
EOF
