  0
SECTION
  2
HEADER
  9
$ACADVER
  1
AC1015
  9
$ACADMAINTVER
 70
    20
  9
$DWGCODEPAGE
  3
ANSI_1252
  9
$INSBASE
 10
0.0
 20
0.0
 30
0.0
  9
$EXTMIN
 10
-0.025
 20
-0.0250000000000018
 30
0.0
  9
$EXTMAX
 10
17.025
 20
11.025
 30
0.0
  9
$LIMMIN
 10
0.0
 20
0.0
  9
$LIMMAX
 10
12.0
 20
9.0
  9
$ORTHOMODE
 70
     0
  9
$REGENMODE
 70
     1
  9
$FILLMODE
 70
     1
  9
$QTEXTMODE
 70
     0
  9
$MIRRTEXT
 70
     0
  9
$LTSCALE
 40
1.0
  9
$ATTMODE
 70
     1
  9
$TEXTSIZE
 40
0.09
  9
$TRACEWID
 40
0.05
  9
$TEXTSTYLE
  7
Standard
  9
$CLAYER
  8
0
  9
$CELTYPE
  6
ByLayer
  9
$CECOLOR
 62
   256
  9
$CELTSCALE
 40
1.0
  9
$DISPSILH
 70
     0
  9
$DIMSCALE
 40
1.0
  9
$DIMASZ
 40
0.1875
  9
$DIMEXO
 40
0.0625
  9
$DIMDLI
 40
0.38
  9
$DIMRND
 40
0.0
  9
$DIMDLE
 40
0.0
  9
$DIMEXE
 40
0.125
  9
$DIMTP
 40
0.0
  9
$DIMTM
 40
0.0
  9
$DIMTXT
 40
0.125
  9
$DIMCEN
 40
0.09
  9
$DIMTSZ
 40
0.0
  9
$DIMTOL
 70
     0
  9
$DIMLIM
 70
     0
  9
$DIMTIH
 70
     1
  9
$DIMTOH
 70
     1
  9
$DIMSE1
 70
     0
  9
$DIMSE2
 70
     0
  9
$DIMTAD
 70
     0
  9
$DIMZIN
 70
     0
  9
$DIMBLK
  1

  9
$DIMASO
 70
     1
  9
$DIMSHO
 70
     1
  9
$DIMPOST
  1

  9
$DIMAPOST
  1
mm
  9
$DIMALT
 70
     1
  9
$DIMALTD
 70
     1
  9
$DIMALTF
 40
25.4
  9
$DIMLFAC
 40
1.0
  9
$DIMTOFL
 70
     0
  9
$DIMTVP
 40
0.0
  9
$DIMTIX
 70
     0
  9
$DIMSOXD
 70
     0
  9
$DIMSAH
 70
     0
  9
$DIMBLK1
  1

  9
$DIMBLK2
  1

  9
$DIMSTYLE
  2
Standard
  9
$DIMCLRD
 70
     0
  9
$DIMCLRE
 70
     0
  9
$DIMCLRT
 70
     0
  9
$DIMTFAC
 40
1.0
  9
$DIMGAP
 40
0.09
  9
$DIMJUST
 70
     0
  9
$DIMSD1
 70
     0
  9
$DIMSD2
 70
     0
  9
$DIMTOLJ
 70
     1
  9
$DIMTZIN
 70
     0
  9
$DIMALTZ
 70
     0
  9
$DIMALTTZ
 70
     0
  9
$DIMUPT
 70
     0
  9
$DIMDEC
 70
     2
  9
$DIMTDEC
 70
     2
  9
$DIMALTU
 70
     2
  9
$DIMALTTD
 70
     1
  9
$DIMTXSTY
  7
Standard
  9
$DIMAUNIT
 70
     0
  9
$DIMADEC
 70
     0
  9
$DIMALTRND
 40
0.0
  9
$DIMAZIN
 70
     0
  9
$DIMDSEP
 70
    46
  9
$DIMATFIT
 70
     3
  9
$DIMFRAC
 70
     0
  9
$DIMLDRBLK
  1

  9
$DIMLUNIT
 70
     2
  9
$DIMLWD
 70
    -2
  9
$DIMLWE
 70
    -2
  9
$DIMTMOVE
 70
     0
  9
$LUNITS
 70
     2
  9
$LUPREC
 70
     4
  9
$SKETCHINC
 40
0.1
  9
$FILLETRAD
 40
0.0
  9
$AUNITS
 70
     0
  9
$AUPREC
 70
     0
  9
$MENU
  1
.
  9
$ELEVATION
 40
0.0
  9
$PELEVATION
 40
0.0
  9
$THICKNESS
 40
0.0
  9
$LIMCHECK
 70
     0
  9
$CHAMFERA
 40
0.0
  9
$CHAMFERB
 40
0.0
  9
$CHAMFERC
 40
0.0
  9
$CHAMFERD
 40
0.0
  9
$SKPOLY
 70
     0
  9
$TDCREATE
 40
2453503.394684896
  9
$TDUCREATE
 40
2453503.603018230
  9
$TDUPDATE
 40
2454294.608645417
  9
$TDUUPDATE
 40
2454294.816978750
  9
$TDINDWG
 40
0.0263805903
  9
$TDUSRTIMER
 40
0.0263805903
  9
$USRTIMER
 70
     1
  9
$ANGBASE
 50
0.0
  9
$ANGDIR
 70
     0
  9
$PDMODE
 70
     2
  9
$PDSIZE
 40
0.025
  9
$PLINEWID
 40
0.0
  9
$SPLFRAME
 70
     0
  9
$SPLINETYPE
 70
     6
  9
$SPLINESEGS
 70
     8
  9
$HANDSEED
  5
6F1
  9
$SURFTAB1
 70
     6
  9
$SURFTAB2
 70
     6
  9
$SURFTYPE
 70
     6
  9
$SURFU
 70
     6
  9
$SURFV
 70
     6
  9
$UCSBASE
  2

  9
$UCSNAME
  2

  9
$UCSORG
 10
0.0
 20
0.0
 30
0.0
  9
$UCSXDIR
 10
1.0
 20
0.0
 30
0.0
  9
$UCSYDIR
 10
0.0
 20
1.0
 30
0.0
  9
$UCSORTHOREF
  2

  9
$UCSORTHOVIEW
 70
     0
  9
$UCSORGTOP
 10
0.0
 20
0.0
 30
0.0
  9
$UCSORGBOTTOM
 10
0.0
 20
0.0
 30
0.0
  9
$UCSORGLEFT
 10
0.0
 20
0.0
 30
0.0
  9
$UCSORGRIGHT
 10
0.0
 20
0.0
 30
0.0
  9
$UCSORGFRONT
 10
0.0
 20
0.0
 30
0.0
  9
$UCSORGBACK
 10
0.0
 20
0.0
 30
0.0
  9
$PUCSBASE
  2

  9
$PUCSNAME
  2

  9
$PUCSORG
 10
0.0
 20
0.0
 30
0.0
  9
$PUCSXDIR
 10
1.0
 20
0.0
 30
0.0
  9
$PUCSYDIR
 10
0.0
 20
1.0
 30
0.0
  9
$PUCSORTHOREF
  2

  9
$PUCSORTHOVIEW
 70
     0
  9
$PUCSORGTOP
 10
0.0
 20
0.0
 30
0.0
  9
$PUCSORGBOTTOM
 10
0.0
 20
0.0
 30
0.0
  9
$PUCSORGLEFT
 10
0.0
 20
0.0
 30
0.0
  9
$PUCSORGRIGHT
 10
0.0
 20
0.0
 30
0.0
  9
$PUCSORGFRONT
 10
0.0
 20
0.0
 30
0.0
  9
$PUCSORGBACK
 10
0.0
 20
0.0
 30
0.0
  9
$USERI1
 70
     0
  9
$USERI2
 70
     0
  9
$USERI3
 70
     0
  9
$USERI4
 70
     0
  9
$USERI5
 70
     0
  9
$USERR1
 40
0.0
  9
$USERR2
 40
0.0
  9
$USERR3
 40
0.0
  9
$USERR4
 40
0.0
  9
$USERR5
 40
0.0
  9
$WORLDVIEW
 70
     1
  9
$SHADEDGE
 70
     3
  9
$SHADEDIF
 70
    70
  9
$TILEMODE
 70
     1
  9
$MAXACTVP
 70
    64
  9
$PINSBASE
 10
0.0
 20
0.0
 30
0.0
  9
$PLIMCHECK
 70
     0
  9
$PEXTMIN
 10
1.049999952316284
 20
0.7999999523162842
 30
0.0
  9
$PEXTMAX
 10
9.449999570846555
 20
7.199999570846556
 30
0.0
  9
$PLIMMIN
 10
-0.2500002402958907
 20
-0.2499999962453767
  9
$PLIMMAX
 10
10.74999951940821
 20
8.249999763458731
  9
$UNITMODE
 70
     0
  9
$VISRETAIN
 70
     1
  9
$PLINEGEN
 70
     0
  9
$PSLTSCALE
 70
     1
  9
$TREEDEPTH
 70
  3020
  9
$CMLSTYLE
  2
Standard
  9
$CMLJUST
 70
     0
  9
$CMLSCALE
 40
1.0
  9
$PROXYGRAPHICS
 70
     1
  9
$MEASUREMENT
 70
     0
  9
$CELWEIGHT
370
    -1
  9
$ENDCAPS
280
     0
  9
$JOINSTYLE
280
     0
  9
$LWDISPLAY
290
     0
  9
$INSUNITS
 70
     1
  9
$HYPERLINKBASE
  1

  9
$STYLESHEET
  1

  9
$XEDIT
290
     1
  9
$CEPSNTYPE
380
     0
  9
$PSTYLEMODE
290
     1
  9
$FINGERPRINTGUID
  2
{215B32BF-ED81-4911-A088-87F816ED4BFA}
  9
$VERSIONGUID
  2
{9883F86D-7843-4D3A-AA12-3572105A048E}
  9
$EXTNAMES
290
     1
  9
$PSVPSCALE
 40
0.0
  9
$OLESTARTUP
290
     0
  0
ENDSEC
  0
SECTION
  2
CLASSES
  0
CLASS
  1
ACDBDICTIONARYWDFLT
  2
AcDbDictionaryWithDefault
  3
ObjectDBX Classes
 90
        0
280
     0
281
     0
  0
CLASS
  1
ACDBPLACEHOLDER
  2
AcDbPlaceHolder
  3
ObjectDBX Classes
 90
        0
280
     0
281
     0
  0
CLASS
  1
LAYOUT
  2
AcDbLayout
  3
ObjectDBX Classes
 90
        0
280
     0
281
     0
  0
CLASS
  1
DICTIONARYVAR
  2
AcDbDictionaryVar
  3
ObjectDBX Classes
 90
        0
280
     0
281
     0
  0
CLASS
  1
TABLESTYLE
  2
AcDbTableStyle
  3
ObjectDBX Classes
 90
     2047
280
     0
281
     0
  0
CLASS
  1
SORTENTSTABLE
  2
AcDbSortentsTable
  3
ObjectDBX Classes
 90
        0
280
     0
281
     0
  0
CLASS
  1
DIMASSOC
  2
AcDbDimAssoc
  3
"AcDbDimAssoc|Product Desc:     AcDim ARX App For Dimension|Company:          Autodesk, Inc.|WEB Address:      www.autodesk.com"
 90
        0
280
     0
281
     0
  0
ENDSEC
  0
SECTION
  2
TABLES
  0
TABLE
  2
VPORT
  5
8
330
0
100
AcDbSymbolTable
 70
     2
  0
VPORT
  5
6E3
330
8
100
AcDbSymbolTableRecord
100
AcDbViewportTableRecord
  2
*Active
 70
     0
 10
0.0
 20
0.0
 11
1.0
 21
1.0
 12
8.500051967380468
 22
5.889084880569742
 13
0.0
 23
0.0
 14
0.5
 24
0.5
 15
0.5
 25
0.5
 16
0.0
 26
0.0
 36
1.0
 17
0.0
 27
0.0
 37
0.0
 40
11.89934223813669
 41
1.499364675984752
 42
50.0
 43
0.0
 44
0.0
 50
0.0
 51
0.0
 71
     0
 72
  1000
 73
     1
 74
     3
 75
     0
 76
     0
 77
     0
 78
     0
281
     0
 65
     1
110
0.0
120
0.0
130
0.0
111
1.0
121
0.0
131
0.0
112
0.0
122
1.0
132
0.0
 79
     0
146
0.0
  0
ENDTAB
  0
TABLE
  2
LTYPE
  5
5
330
0
100
AcDbSymbolTable
 70
     1
  0
LTYPE
  5
14
330
5
100
AcDbSymbolTableRecord
100
AcDbLinetypeTableRecord
  2
ByBlock
 70
     0
  3

 72
    65
 73
     0
 40
0.0
  0
LTYPE
  5
15
330
5
100
AcDbSymbolTableRecord
100
AcDbLinetypeTableRecord
  2
ByLayer
 70
     0
  3

 72
    65
 73
     0
 40
0.0
  0
LTYPE
  5
16
330
5
100
AcDbSymbolTableRecord
100
AcDbLinetypeTableRecord
  2
Continuous
 70
     0
  3
Solid line
 72
    65
 73
     0
 40
0.0
  0
ENDTAB
  0
TABLE
  2
LAYER
  5
2
102
{ACAD_XDICTIONARY
360
6B8
102
}
330
0
100
AcDbSymbolTable
 70
     6
  0
LAYER
  5
10
330
2
100
AcDbSymbolTableRecord
100
AcDbLayerTableRecord
  2
0
 70
     0
 62
     7
  6
Continuous
370
    -3
390
F
  0
LAYER
  5
8B
330
2
100
AcDbSymbolTableRecord
100
AcDbLayerTableRecord
  2
Title Block
 70
     0
 62
     3
  6
Continuous
370
    -3
390
F
  0
LAYER
  5
8C
330
2
100
AcDbSymbolTableRecord
100
AcDbLayerTableRecord
  2
Dimension
 70
     0
 62
     6
  6
Continuous
370
    -3
390
F
  0
LAYER
  5
8D
330
2
100
AcDbSymbolTableRecord
100
AcDbLayerTableRecord
  2
Text
 70
     0
 62
     1
  6
Continuous
370
    -3
390
F
  0
LAYER
  5
8E
330
2
100
AcDbSymbolTableRecord
100
AcDbLayerTableRecord
  2
Object
 70
     0
 62
     5
  6
Continuous
370
    -3
390
F
  0
LAYER
  5
587
330
2
100
AcDbSymbolTableRecord
100
AcDbLayerTableRecord
  2
Defpoints
 70
     0
 62
     7
  6
Continuous
290
     0
370
    -3
390
F
  0
ENDTAB
  0
TABLE
  2
STYLE
  5
3
330
0
100
AcDbSymbolTable
 70
     1
  0
STYLE
  5
11
330
3
100
AcDbSymbolTableRecord
100
AcDbTextStyleTableRecord
  2
Standard
 70
     0
 40
0.0
 41
1.0
 50
0.0
 71
     0
 42
0.09
  3
technic_.ttf
  4

1001
ACAD
1000
Technic
1071
      514
  0
ENDTAB
  0
TABLE
  2
VIEW
  5
6
330
0
100
AcDbSymbolTable
 70
     0
  0
ENDTAB
  0
TABLE
  2
UCS
  5
7
330
0
100
AcDbSymbolTable
 70
     0
  0
ENDTAB
  0
TABLE
  2
APPID
  5
9
330
0
100
AcDbSymbolTable
 70
     5
  0
APPID
  5
12
330
9
100
AcDbSymbolTableRecord
100
AcDbRegAppTableRecord
  2
ACAD
 70
     0
  0
APPID
  5
90
330
9
100
AcDbSymbolTableRecord
100
AcDbRegAppTableRecord
  2
DCO15
 70
     0
  0
APPID
  5
91
330
9
100
AcDbSymbolTableRecord
100
AcDbRegAppTableRecord
  2
AcAecLayerStandard
 70
     0
  0
APPID
  5
47F
330
9
100
AcDbSymbolTableRecord
100
AcDbRegAppTableRecord
  2
ACAD_DSTYLE_DIMTEXT_FILL
 70
     0
  0
APPID
  5
6B2
330
9
100
AcDbSymbolTableRecord
100
AcDbRegAppTableRecord
  2
ACAD_PSEXT
 70
     0
  0
ENDTAB
  0
TABLE
  2
DIMSTYLE
  5
A
330
0
100
AcDbSymbolTable
 70
     1
100
AcDbDimStyleTable
 71
     1
340
27
  0
DIMSTYLE
105
27
102
{ACAD_REACTORS
330
586
330
5A1
330
615
102
}
330
A
100
AcDbSymbolTableRecord
100
AcDbDimStyleTableRecord
  2
Standard
 70
     0
  4
mm
 41
0.1875
 44
0.125
140
0.125
170
     1
171
     1
271
     2
272
     2
274
     1
340
11
  0
ENDTAB
  0
TABLE
  2
BLOCK_RECORD
  5
1
330
0
100
AcDbSymbolTable
 70
     4
  0
BLOCK_RECORD
  5
1F
102
{ACAD_XDICTIONARY
360
582
102
}
330
1
100
AcDbSymbolTableRecord
100
AcDbBlockTableRecord
  2
*Model_Space
340
22
  0
BLOCK_RECORD
  5
5D
330
1
100
AcDbSymbolTableRecord
100
AcDbBlockTableRecord
  2
*Paper_Space
340
5E
  0
BLOCK_RECORD
  5
58
330
1
100
AcDbSymbolTableRecord
100
AcDbBlockTableRecord
  2
*Paper_Space0
340
59
  0
BLOCK_RECORD
  5
588
330
1
100
AcDbSymbolTableRecord
100
AcDbBlockTableRecord
  2
*D1
340
0
  0
BLOCK_RECORD
  5
5A2
330
1
100
AcDbSymbolTableRecord
100
AcDbBlockTableRecord
  2
*D2
340
0
  0
BLOCK_RECORD
  5
616
330
1
100
AcDbSymbolTableRecord
100
AcDbBlockTableRecord
  2
*D3
340
0
  0
ENDTAB
  0
ENDSEC
  0
SECTION
  2
BLOCKS
  0
BLOCK
  5
20
330
1F
100
AcDbEntity
  8
0
100
AcDbBlockBegin
  2
*Model_Space
 70
     0
 10
0.0
 20
0.0
 30
0.0
  3
*Model_Space
  1

  0
ENDBLK
  5
21
330
1F
100
AcDbEntity
  8
0
100
AcDbBlockEnd
  0
BLOCK
  5
5F
330
5D
100
AcDbEntity
 67
     1
  8
0
100
AcDbBlockBegin
  2
*Paper_Space
 70
     0
 10
0.0
 20
0.0
 30
0.0
  3
*Paper_Space
  1

  0
ENDBLK
  5
60
330
5D
100
AcDbEntity
 67
     1
  8
0
100
AcDbBlockEnd
  0
BLOCK
  5
5A
330
58
100
AcDbEntity
  8
0
100
AcDbBlockBegin
  2
*Paper_Space0
 70
     0
 10
0.0
 20
0.0
 30
0.0
  3
*Paper_Space0
  1

  0
VIEWPORT
  5
6B1
102
{ACAD_XDICTIONARY
360
6E9
102
}
330
58
100
AcDbEntity
  8
0
100
AcDbViewport
 10
5.249999639556163
 20
3.999999883606677
 30
0.0
 40
13.51843462426743
 41
8.992999745766947
 69
     0
 12
5.249999639556163
 22
3.999999883606677
 13
0.0
 23
0.0
 14
0.5
 24
0.5
 15
0.5
 25
0.5
 16
0.0
 26
0.0
 36
1.0
 17
0.0
 27
0.0
 37
0.0
 42
50.0
 43
0.0
 44
0.0
 45
8.992999745766947
 50
0.0
 51
0.0
 72
  1000
 90
    32800
  1

281
     0
 71
     1
 74
     0
110
0.0
120
0.0
130
0.0
111
1.0
121
0.0
131
0.0
112
0.0
122
1.0
132
0.0
 79
     0
146
0.0
  0
VIEWPORT
  5
6B4
102
{ACAD_XDICTIONARY
360
6EB
102
}
330
58
100
AcDbEntity
  8
Text
100
AcDbViewport
 10
5.24999976158142
 20
3.99999976158142
 30
0.0
 40
8.399999618530271
 41
6.399999618530272
 69
     0
 12
8.500051927677745
 22
5.500000051457137
 13
0.0
 23
0.0
 14
0.5
 24
0.5
 15
0.5
 25
0.5
 16
0.0
 26
0.0
 36
1.0
 17
0.0
 27
0.0
 37
0.0
 42
50.0
 43
0.0
 44
0.0
 45
13.09966437372934
 50
0.0
 51
0.0
 72
  1000
 90
    32864
  1

281
     0
 71
     1
 74
     0
110
0.0
120
0.0
130
0.0
111
1.0
121
0.0
131
0.0
112
0.0
122
1.0
132
0.0
 79
     0
146
0.0
  0
ENDBLK
  5
5B
330
58
100
AcDbEntity
  8
0
100
AcDbBlockEnd
  0
BLOCK
  5
593
330
588
100
AcDbEntity
  8
0
100
AcDbBlockBegin
  2
*D1
 70
     1
 10
0.0
 20
0.0
 30
0.0
  3
*D1
  1

  0
LINE
  5
651
330
588
100
AcDbEntity
  8
Dimension
 62
     0
370
    -2
100
AcDbLine
 10
1.707359628698203
 20
8.337578819870085
 30
0.0
 11
1.707359628698203
 21
9.902998336378875
 31
0.0
  0
LINE
  5
652
330
588
100
AcDbEntity
  8
Dimension
 62
     0
370
    -2
100
AcDbLine
 10
15.1663596286982
 20
8.337578819870085
 30
0.0
 11
15.1663596286982
 21
9.902998336378875
 31
0.0
  0
LINE
  5
653
330
588
100
AcDbEntity
  8
Dimension
 62
     0
370
    -2
100
AcDbLine
 10
1.894859628698203
 20
9.777998336378875
 30
0.0
 11
7.713910067294696
 21
9.777998336378875
 31
0.0
  0
LINE
  5
654
330
588
100
AcDbEntity
  8
Dimension
 62
     0
370
    -2
100
AcDbLine
 10
14.9788596286982
 20
9.777998336378875
 30
0.0
 11
9.159809190101713
 21
9.777998336378875
 31
0.0
  0
SOLID
  5
655
330
588
100
AcDbEntity
  8
Dimension
 62
     0
100
AcDbTrace
 10
1.894859628698203
 20
9.809248336378875
 30
0.0
 11
1.894859628698203
 21
9.746748336378875
 31
0.0
 12
1.707359628698203
 22
9.777998336378875
 32
0.0
 13
1.707359628698203
 23
9.777998336378875
 33
0.0
  0
SOLID
  5
656
330
588
100
AcDbEntity
  8
Dimension
 62
     0
100
AcDbTrace
 10
14.9788596286982
 20
9.809248336378875
 30
0.0
 11
14.9788596286982
 21
9.746748336378875
 31
0.0
 12
15.1663596286982
 22
9.777998336378875
 32
0.0
 13
15.1663596286982
 23
9.777998336378875
 33
0.0
  0
MTEXT
  5
657
330
588
100
AcDbEntity
  8
Dimension
 62
     0
100
AcDbMText
 10
8.436859628698204
 20
9.777998336378875
 30
0.0
 40
0.125
 41
0.0
 71
     5
 72
     1
  1
\A1;13.46 [341.9mm]
 73
     1
 44
1.0
1001
ACAD
1000
MTEXTBEGIN
1070
    73
1070
     1
1070
    44
1040
1.0
1070
    74
1070
     0
1000
MTEXTEND
  0
POINT
  5
658
330
588
100
AcDbEntity
  8
Defpoints
 62
     0
100
AcDbPoint
 10
1.707359628698203
 20
8.275078819870085
 30
0.0
  0
POINT
  5
659
330
588
100
AcDbEntity
  8
Defpoints
 62
     0
100
AcDbPoint
 10
15.1663596286982
 20
8.275078819870085
 30
0.0
  0
POINT
  5
65A
330
588
100
AcDbEntity
  8
Defpoints
 62
     0
100
AcDbPoint
 10
15.1663596286982
 20
9.777998336378875
 30
0.0
  0
ENDBLK
  5
594
330
588
100
AcDbEntity
  8
0
100
AcDbBlockEnd
  0
BLOCK
  5
5AD
330
5A2
100
AcDbEntity
  8
0
100
AcDbBlockBegin
  2
*D2
 70
     1
 10
0.0
 20
0.0
 30
0.0
  3
*D2
  1

  0
LINE
  5
68B
330
5A2
100
AcDbEntity
  8
Dimension
 62
     0
370
    -2
100
AcDbLine
 10
14.3448596286982
 20
4.408078819870084
 30
0.0
 11
16.13287268456282
 21
4.408078819870084
 31
0.0
  0
LINE
  5
68C
330
5A2
100
AcDbEntity
  8
Dimension
 62
     0
370
    -2
100
AcDbLine
 10
15.0858596286982
 20
8.849078819870085
 30
0.0
 11
16.13287268456283
 21
8.849078819870085
 31
0.0
  0
LINE
  5
68D
330
5A2
100
AcDbEntity
  8
Dimension
 62
     0
370
    -2
100
AcDbLine
 10
16.00787268456282
 20
4.595578819870084
 30
0.0
 11
16.00787268456282
 21
6.451042270162482
 31
0.0
  0
LINE
  5
68E
330
5A2
100
AcDbEntity
  8
Dimension
 62
     0
370
    -2
100
AcDbLine
 10
16.00787268456283
 20
8.661578819870085
 30
0.0
 11
16.00787268456282
 21
6.806115369577686
 31
0.0
  0
SOLID
  5
68F
330
5A2
100
AcDbEntity
  8
Dimension
 62
     0
100
AcDbTrace
 10
15.97662268456283
 20
4.595578819870084
 30
0.0
 11
16.03912268456283
 21
4.595578819870084
 31
0.0
 12
16.00787268456282
 22
4.408078819870084
 32
0.0
 13
16.00787268456282
 23
4.408078819870084
 33
0.0
  0
SOLID
  5
690
330
5A2
100
AcDbEntity
  8
Dimension
 62
     0
100
AcDbTrace
 10
15.97662268456283
 20
8.661578819870085
 30
0.0
 11
16.03912268456283
 21
8.661578819870085
 31
0.0
 12
16.00787268456283
 22
8.849078819870085
 32
0.0
 13
16.00787268456283
 23
8.849078819870085
 33
0.0
  0
MTEXT
  5
691
330
5A2
100
AcDbEntity
  8
Dimension
 62
     0
100
AcDbMText
 10
16.00787268456282
 20
6.628578819870087
 30
0.0
 40
0.125
 41
0.0
 71
     5
 72
     1
  1
\A1;4.44 [112.8mm]
 73
     1
 44
1.0
1001
ACAD
1000
MTEXTBEGIN
1070
    73
1070
     1
1070
    44
1040
1.0
1070
    74
1070
     0
1000
MTEXTEND
  0
POINT
  5
692
330
5A2
100
AcDbEntity
  8
Defpoints
 62
     0
100
AcDbPoint
 10
14.2823596286982
 20
4.408078819870084
 30
0.0
  0
POINT
  5
693
330
5A2
100
AcDbEntity
  8
Defpoints
 62
     0
100
AcDbPoint
 10
15.0233596286982
 20
8.849078819870085
 30
0.0
  0
POINT
  5
694
330
5A2
100
AcDbEntity
  8
Defpoints
 62
     0
100
AcDbPoint
 10
16.00787268456283
 20
8.849078819870085
 30
0.0
  0
ENDBLK
  5
5AE
330
5A2
100
AcDbEntity
  8
0
100
AcDbBlockEnd
  0
BLOCK
  5
621
330
616
100
AcDbEntity
  8
0
100
AcDbBlockBegin
  2
*D3
 70
     1
 10
0.0
 20
0.0
 30
0.0
  3
*D3
  1

  0
LINE
  5
665
330
616
100
AcDbEntity
  8
Dimension
 62
     0
370
    -2
100
AcDbLine
 10
2.172744446536743
 20
6.088269799075238
 30
0.0
 11
2.360244446536743
 21
6.088269799075238
 31
0.0
  0
LINE
  5
666
330
616
100
AcDbEntity
  8
Dimension
 62
     0
370
    -2
100
AcDbLine
 10
1.672962913437386
 20
6.088269799075238
 30
0.0
 11
1.485462913437386
 21
6.088269799075238
 31
0.0
  0
SOLID
  5
667
330
616
100
AcDbEntity
  8
Dimension
 62
     0
100
AcDbTrace
 10
2.172744446536743
 20
6.119519799075238
 30
0.0
 11
2.172744446536743
 21
6.057019799075238
 31
0.0
 12
1.985244446536743
 22
6.088269799075238
 32
0.0
 13
1.985244446536743
 23
6.088269799075238
 33
0.0
  0
SOLID
  5
668
330
616
100
AcDbEntity
  8
Dimension
 62
     0
100
AcDbTrace
 10
1.672962913437386
 20
6.119519799075238
 30
0.0
 11
1.672962913437386
 21
6.057019799075238
 31
0.0
 12
1.860462913437386
 22
6.088269799075238
 32
0.0
 13
1.860462913437386
 23
6.088269799075238
 33
0.0
  0
MTEXT
  5
669
330
616
100
AcDbEntity
  8
Dimension
 62
     0
100
AcDbMText
 10
0.9046917146069766
 20
6.088269799075238
 30
0.0
 40
0.125
 41
0.0
 71
     5
 72
     1
  1
\A1;0.12 [3.2mm]
 73
     1
 44
1.0
1001
ACAD
1000
MTEXTBEGIN
1070
    73
1070
     1
1070
    44
1040
1.0
1070
    74
1070
     0
1000
MTEXTEND
  0
POINT
  5
66A
330
616
100
AcDbEntity
  8
Defpoints
 62
     0
100
AcDbPoint
 10
1.860462913437386
 20
6.086560371191767
 30
0.0
  0
POINT
  5
66B
330
616
100
AcDbEntity
  8
Defpoints
 62
     0
100
AcDbPoint
 10
1.985244446536743
 20
6.086560371191767
 30
0.0
  0
POINT
  5
66C
330
616
100
AcDbEntity
  8
Defpoints
 62
     0
100
AcDbPoint
 10
1.985244446536743
 20
6.088269799075238
 30
0.0
  0
ENDBLK
  5
622
330
616
100
AcDbEntity
  8
0
100
AcDbBlockEnd
  0
ENDSEC
  0
SECTION
  2
ENTITIES
  0
LINE
  5
DF
330
1F
100
AcDbEntity
  8
Object
100
AcDbLine
 10
3.164359628698203
 20
4.416078819870085
 30
0.0
 11
3.162359628698204
 21
4.408078819870084
 31
0.0
  0
LINE
  5
E0
330
1F
100
AcDbEntity
  8
Object
100
AcDbLine
 10
3.162359628698204
 20
4.408078819870084
 30
0.0
 11
3.157359628698204
 21
4.403078819870085
 31
0.0
  0
LINE
  5
E1
330
1F
100
AcDbEntity
  8
Object
100
AcDbLine
 10
3.157359628698204
 20
4.403078819870085
 30
0.0
 11
3.149359628698203
 21
4.401078819870084
 31
0.0
  0
LINE
  5
E2
330
1F
100
AcDbEntity
  8
Object
100
AcDbLine
 10
3.164359628698203
 20
4.416078819870085
 30
0.0
 11
3.164359628698203
 21
4.511078819870085
 31
0.0
  0
LINE
  5
E3
330
1F
100
AcDbEntity
  8
Object
100
AcDbLine
 10
2.604359628698205
 20
4.401078819870084
 30
0.0
 11
3.149359628698203
 21
4.401078819870084
 31
0.0
  0
LINE
  5
E4
330
1F
100
AcDbEntity
  8
Object
100
AcDbLine
 10
15.1493596286982
 20
8.324078819870084
 30
0.0
 11
15.1633596286982
 21
8.301078819870085
 31
0.0
  0
LINE
  5
E5
330
1F
100
AcDbEntity
  8
Object
100
AcDbLine
 10
15.1633596286982
 20
8.301078819870085
 30
0.0
 11
15.1663596286982
 21
8.275078819870085
 31
0.0
  0
LINE
  5
E6
330
1F
100
AcDbEntity
  8
Object
100
AcDbLine
 10
15.1493596286982
 20
8.324078819870084
 30
0.0
 11
15.1283596286982
 21
8.339078819870085
 31
0.0
  0
LINE
  5
E7
330
1F
100
AcDbEntity
  8
Object
100
AcDbLine
 10
15.1283596286982
 20
8.339078819870085
 30
0.0
 11
15.1023596286982
 21
8.344078819870084
 31
0.0
  0
LINE
  5
E8
330
1F
100
AcDbEntity
  8
Object
100
AcDbLine
 10
15.0473596286982
 20
8.832078819870083
 30
0.0
 11
15.0633596286982
 21
8.807078819870085
 31
0.0
  0
LINE
  5
E9
330
1F
100
AcDbEntity
  8
Object
100
AcDbLine
 10
15.0633596286982
 20
8.807078819870085
 30
0.0
 11
15.0663596286982
 21
8.778078819870085
 31
0.0
  0
LINE
  5
EA
330
1F
100
AcDbEntity
  8
Object
100
AcDbLine
 10
15.0363596286982
 20
8.198078819870085
 30
0.0
 11
15.0353596286982
 21
8.206078819870086
 31
0.0
  0
LINE
  5
EB
330
1F
100
AcDbEntity
  8
Object
100
AcDbLine
 10
15.0353596286982
 20
8.206078819870086
 30
0.0
 11
15.0303596286982
 21
8.213078819870084
 31
0.0
  0
LINE
  5
EC
330
1F
100
AcDbEntity
  8
Object
100
AcDbLine
 10
15.0363596286982
 20
8.198078819870085
 30
0.0
 11
15.0293596286982
 21
8.108078819870083
 31
0.0
  0
LINE
  5
ED
330
1F
100
AcDbEntity
  8
Object
100
AcDbLine
 10
15.0243596286982
 20
8.218078819870084
 30
0.0
 11
15.0303596286982
 21
8.213078819870084
 31
0.0
  0
LINE
  5
EE
330
1F
100
AcDbEntity
  8
Object
100
AcDbLine
 10
15.0473596286982
 20
8.832078819870083
 30
0.0
 11
15.0233596286982
 21
8.849078819870085
 31
0.0
  0
LINE
  5
EF
330
1F
100
AcDbEntity
  8
Object
100
AcDbLine
 10
15.0203596286982
 20
8.001078819870084
 30
0.0
 11
15.0213596286982
 21
7.993078819870085
 31
0.0
  0
LINE
  5
F0
330
1F
100
AcDbEntity
  8
Object
100
AcDbLine
 10
15.0293596286982
 20
8.108078819870083
 30
0.0
 11
15.0263596286982
 21
8.098078819870085
 31
0.0
  0
LINE
  5
F1
330
1F
100
AcDbEntity
  8
Object
100
AcDbLine
 10
15.0423596286982
 20
8.511078819870085
 30
0.0
 11
15.0353596286982
 21
8.490078819870085
 31
0.0
  0
LINE
  5
F2
330
1F
100
AcDbEntity
  8
Object
100
AcDbLine
 10
15.0353596286982
 20
8.490078819870085
 30
0.0
 11
15.0183596286982
 21
8.475078819870084
 31
0.0
  0
LINE
  5
F3
330
1F
100
AcDbEntity
  8
Object
100
AcDbLine
 10
15.0163596286982
 20
8.219078819870084
 30
0.0
 11
15.0243596286982
 21
8.218078819870084
 31
0.0
  0
LINE
  5
F4
330
1F
100
AcDbEntity
  8
Object
100
AcDbLine
 10
15.0263596286982
 20
8.098078819870085
 30
0.0
 11
15.0193596286982
 21
8.092078819870085
 31
0.0
  0
LINE
  5
F5
330
1F
100
AcDbEntity
  8
Object
100
AcDbLine
 10
15.0203596286982
 20
8.001078819870084
 30
0.0
 11
15.0163596286982
 21
8.008078819870085
 31
0.0
  0
LINE
  5
F6
330
1F
100
AcDbEntity
  8
Object
100
AcDbLine
 10
15.0163596286982
 20
8.008078819870085
 30
0.0
 11
15.0093596286982
 21
8.013078819870084
 31
0.0
  0
LINE
  5
F7
330
1F
100
AcDbEntity
  8
Object
100
AcDbLine
 10
15.0193596286982
 20
8.092078819870085
 30
0.0
 11
15.0103596286982
 21
8.089078819870085
 31
0.0
  0
LINE
  5
F8
330
1F
100
AcDbEntity
  8
Object
100
AcDbLine
 10
15.0013596286982
 20
8.014078819870086
 30
0.0
 11
15.0093596286982
 21
8.013078819870084
 31
0.0
  0
LINE
  5
F9
330
1F
100
AcDbEntity
  8
Object
100
AcDbLine
 10
14.9963596286982
 20
8.469078819870084
 30
0.0
 11
15.0183596286982
 21
8.475078819870084
 31
0.0
  0
LINE
  5
FA
330
1F
100
AcDbEntity
  8
Object
100
AcDbLine
 10
15.0233596286982
 20
8.849078819870085
 30
0.0
 11
14.9933596286982
 21
8.854078819870085
 31
0.0
  0
LINE
  5
FB
330
1F
100
AcDbEntity
  8
Object
100
AcDbLine
 10
14.9963596286982
 20
8.469078819870084
 30
0.0
 11
14.9933596286982
 21
8.469078819870084
 31
0.0
  0
LINE
  5
FC
330
1F
100
AcDbEntity
  8
Object
100
AcDbLine
 10
14.9933596286982
 20
8.469078819870084
 30
0.0
 11
14.9703596286982
 21
8.475078819870084
 31
0.0
  0
LINE
  5
FD
330
1F
100
AcDbEntity
  8
Object
100
AcDbLine
 10
14.9703596286982
 20
8.475078819870084
 30
0.0
 11
14.9533596286982
 21
8.492078819870084
 31
0.0
  0
LINE
  5
FE
330
1F
100
AcDbEntity
  8
Object
100
AcDbLine
 10
14.9533596286982
 20
5.216078819870084
 30
0.0
 11
15.1663596286982
 21
8.275078819870085
 31
0.0
  0
LINE
  5
FF
330
1F
100
AcDbEntity
  8
Object
100
AcDbLine
 10
14.9533596286982
 20
8.492078819870084
 30
0.0
 11
14.9473596286982
 21
8.515078819870083
 31
0.0
  0
LINE
  5
100
330
1F
100
AcDbEntity
  8
Object
100
AcDbLine
 10
14.9473596286982
 20
8.515078819870083
 30
0.0
 11
14.9473596286982
 21
8.680078819870084
 31
0.0
  0
LINE
  5
101
330
1F
100
AcDbEntity
  8
Object
100
AcDbLine
 10
15.0423596286982
 20
8.511078819870085
 30
0.0
 11
15.0663596286982
 21
8.778078819870085
 31
0.0
  0
LINE
  5
102
330
1F
100
AcDbEntity
  8
Object
100
AcDbLine
 10
14.9473596286982
 20
8.680078819870084
 30
0.0
 11
14.9443596286982
 21
8.690078819870084
 31
0.0
  0
LINE
  5
103
330
1F
100
AcDbEntity
  8
Object
100
AcDbLine
 10
14.9443596286982
 20
8.690078819870084
 30
0.0
 11
14.9383596286982
 21
8.698078819870085
 31
0.0
  0
LINE
  5
104
330
1F
100
AcDbEntity
  8
Object
100
AcDbLine
 10
14.9933596286982
 20
8.854078819870085
 30
0.0
 11
14.9253596286982
 21
8.843078819870084
 31
0.0
  0
LINE
  5
105
330
1F
100
AcDbEntity
  8
Object
100
AcDbLine
 10
14.9383596286982
 20
8.698078819870085
 30
0.0
 11
14.9293596286982
 21
8.703078819870086
 31
0.0
  0
LINE
  5
106
330
1F
100
AcDbEntity
  8
Object
100
AcDbLine
 10
14.9293596286982
 20
8.703078819870086
 30
0.0
 11
14.9183596286982
 21
8.704078819870083
 31
0.0
  0
LINE
  5
107
330
1F
100
AcDbEntity
  8
Object
100
AcDbLine
 10
14.9253596286982
 20
8.843078819870084
 30
0.0
 11
14.8613596286982
 21
8.818078819870084
 31
0.0
  0
LINE
  5
108
330
1F
100
AcDbEntity
  8
Object
100
AcDbLine
 10
14.9093596286982
 20
8.701078819870083
 30
0.0
 11
14.9183596286982
 21
8.704078819870083
 31
0.0
  0
LINE
  5
109
330
1F
100
AcDbEntity
  8
Object
100
AcDbLine
 10
15.1023596286982
 20
8.344078819870084
 30
0.0
 11
14.8373596286982
 21
8.344078819870084
 31
0.0
  0
LINE
  5
10A
330
1F
100
AcDbEntity
  8
Object
100
AcDbLine
 10
14.9403596286982
 20
5.135078819870084
 30
0.0
 11
14.9533596286982
 21
5.216078819870084
 31
0.0
  0
LINE
  5
10B
330
1F
100
AcDbEntity
  8
Object
100
AcDbLine
 10
15.0213596286982
 20
7.993078819870085
 30
0.0
 11
14.8283596286982
 21
5.224078819870085
 31
0.0
  0
LINE
  5
10C
330
1F
100
AcDbEntity
  8
Object
100
AcDbLine
 10
14.8283596286982
 20
5.224078819870085
 30
0.0
 11
14.8173596286982
 21
5.157078819870084
 31
0.0
  0
LINE
  5
10D
330
1F
100
AcDbEntity
  8
Object
100
AcDbLine
 10
14.9143596286982
 20
5.058078819870084
 30
0.0
 11
14.9403596286982
 21
5.135078819870084
 31
0.0
  0
LINE
  5
10E
330
1F
100
AcDbEntity
  8
Object
100
AcDbLine
 10
14.8703596286982
 20
8.670078819870084
 30
0.0
 11
14.9093596286982
 21
8.701078819870083
 31
0.0
  0
LINE
  5
10F
330
1F
100
AcDbEntity
  8
Object
100
AcDbLine
 10
14.8613596286982
 20
8.818078819870084
 30
0.0
 11
14.8043596286982
 21
8.779078819870084
 31
0.0
  0
LINE
  5
110
330
1F
100
AcDbEntity
  8
Object
100
AcDbLine
 10
14.8763596286982
 20
4.985078819870084
 30
0.0
 11
14.9143596286982
 21
5.058078819870084
 31
0.0
  0
LINE
  5
111
330
1F
100
AcDbEntity
  8
Object
100
AcDbLine
 10
14.8173596286982
 20
5.157078819870084
 30
0.0
 11
14.7933596286982
 21
5.093078819870084
 31
0.0
  0
LINE
  5
112
330
1F
100
AcDbEntity
  8
Object
100
AcDbLine
 10
15.0103596286982
 20
8.089078819870085
 30
0.0
 11
14.7753596286982
 21
8.089078819870085
 31
0.0
  0
LINE
  5
113
330
1F
100
AcDbEntity
  8
Object
100
AcDbLine
 10
14.7933596286982
 20
5.093078819870084
 30
0.0
 11
14.7583596286982
 21
5.034078819870084
 31
0.0
  0
LINE
  5
114
330
1F
100
AcDbEntity
  8
Object
100
AcDbLine
 10
14.8273596286982
 20
4.921078819870084
 30
0.0
 11
14.8763596286982
 21
4.985078819870084
 31
0.0
  0
LINE
  5
115
330
1F
100
AcDbEntity
  8
Object
100
AcDbLine
 10
14.8043596286982
 20
8.779078819870084
 30
0.0
 11
14.7573596286982
 21
8.729078819870085
 31
0.0
  0
LINE
  5
116
330
1F
100
AcDbEntity
  8
Object
100
AcDbLine
 10
14.8413596286982
 20
8.631078819870085
 30
0.0
 11
14.8703596286982
 21
8.670078819870084
 31
0.0
  0
LINE
  5
117
330
1F
100
AcDbEntity
  8
Object
100
AcDbLine
 10
14.8193596286982
 20
8.354078819870085
 30
0.0
 11
14.8273596286982
 21
8.347078819870084
 31
0.0
  0
LINE
  5
118
330
1F
100
AcDbEntity
  8
Object
100
AcDbLine
 10
14.8273596286982
 20
8.347078819870084
 30
0.0
 11
14.8373596286982
 21
8.344078819870084
 31
0.0
  0
LINE
  5
119
330
1F
100
AcDbEntity
  8
Object
100
AcDbLine
 10
14.7573596286982
 20
8.219078819870084
 30
0.0
 11
15.0163596286982
 21
8.219078819870084
 31
0.0
  0
LINE
  5
11A
330
1F
100
AcDbEntity
  8
Object
100
AcDbLine
 10
14.7373596286982
 20
8.014078819870086
 30
0.0
 11
15.0013596286982
 21
8.014078819870086
 31
0.0
  0
LINE
  5
11B
330
1F
100
AcDbEntity
  8
Object
100
AcDbLine
 10
14.7323596286982
 20
8.109078819870084
 30
0.0
 11
14.7723596286982
 21
8.109078819870084
 31
0.0
  0
LINE
  5
11C
330
1F
100
AcDbEntity
  8
Object
100
AcDbLine
 10
14.7723596286982
 20
8.109078819870084
 30
0.0
 11
14.7753596286982
 21
8.089078819870085
 31
0.0
  0
LINE
  5
11D
330
1F
100
AcDbEntity
  8
Object
100
AcDbLine
 10
14.7323596286982
 20
8.224078819870085
 30
0.0
 11
14.7573596286982
 21
8.219078819870084
 31
0.0
  0
LINE
  5
11E
330
1F
100
AcDbEntity
  8
Object
100
AcDbLine
 10
14.8233596286982
 20
8.585078819870084
 30
0.0
 11
14.8413596286982
 21
8.631078819870085
 31
0.0
  0
LINE
  5
11F
330
1F
100
AcDbEntity
  8
Object
100
AcDbLine
 10
14.7573596286982
 20
8.729078819870085
 30
0.0
 11
14.7213596286982
 21
8.670078819870084
 31
0.0
  0
LINE
  5
120
330
1F
100
AcDbEntity
  8
Object
100
AcDbLine
 10
14.7323596286982
 20
8.109078819870084
 30
0.0
 11
14.7143596286982
 21
8.099078819870085
 31
0.0
  0
LINE
  5
121
330
1F
100
AcDbEntity
  8
Object
100
AcDbLine
 10
14.7143596286982
 20
8.020078819870084
 30
0.0
 11
14.7373596286982
 21
8.014078819870086
 31
0.0
  0
LINE
  5
122
330
1F
100
AcDbEntity
  8
Object
100
AcDbLine
 10
14.7583596286982
 20
5.034078819870084
 30
0.0
 11
14.7133596286982
 21
4.983078819870085
 31
0.0
  0
LINE
  5
123
330
1F
100
AcDbEntity
  8
Object
100
AcDbLine
 10
14.7673596286982
 20
4.865078819870085
 30
0.0
 11
14.8273596286982
 21
4.921078819870084
 31
0.0
  0
LINE
  5
124
330
1F
100
AcDbEntity
  8
Object
100
AcDbLine
 10
14.7113596286982
 20
8.238078819870084
 30
0.0
 11
14.7323596286982
 21
8.224078819870085
 31
0.0
  0
LINE
  5
125
330
1F
100
AcDbEntity
  8
Object
100
AcDbLine
 10
14.7213596286982
 20
8.670078819870084
 30
0.0
 11
14.6993596286982
 21
8.605078819870085
 31
0.0
  0
LINE
  5
126
330
1F
100
AcDbEntity
  8
Object
100
AcDbLine
 10
14.8173596286982
 20
8.537078819870085
 30
0.0
 11
14.8233596286982
 21
8.585078819870084
 31
0.0
  0
LINE
  5
127
330
1F
100
AcDbEntity
  8
Object
100
AcDbLine
 10
14.6983596286982
 20
8.037078819870085
 30
0.0
 11
14.7143596286982
 21
8.020078819870084
 31
0.0
  0
LINE
  5
128
330
1F
100
AcDbEntity
  8
Object
100
AcDbLine
 10
14.7143596286982
 20
8.099078819870085
 30
0.0
 11
14.6983596286982
 21
8.083078819870085
 31
0.0
  0
LINE
  5
129
330
1F
100
AcDbEntity
  8
Object
100
AcDbLine
 10
14.6973596286982
 20
8.259078819870085
 30
0.0
 11
14.7113596286982
 21
8.238078819870084
 31
0.0
  0
LINE
  5
12A
330
1F
100
AcDbEntity
  8
Object
100
AcDbLine
 10
14.6993596286982
 20
8.605078819870085
 30
0.0
 11
14.6923596286982
 21
8.537078819870085
 31
0.0
  0
LINE
  5
12B
330
1F
100
AcDbEntity
  8
Object
100
AcDbLine
 10
14.6923596286982
 20
8.284078819870085
 30
0.0
 11
14.6973596286982
 21
8.259078819870085
 31
0.0
  0
LINE
  5
12C
330
1F
100
AcDbEntity
  8
Object
100
AcDbLine
 10
14.8173596286982
 20
8.364078819870083
 30
0.0
 11
14.8173596286982
 21
8.537078819870085
 31
0.0
  0
LINE
  5
12D
330
1F
100
AcDbEntity
  8
Object
100
AcDbLine
 10
14.6923596286982
 20
8.537078819870085
 30
0.0
 11
14.6923596286982
 21
8.284078819870085
 31
0.0
  0
LINE
  5
12E
330
1F
100
AcDbEntity
  8
Object
100
AcDbLine
 10
14.8193596286982
 20
8.354078819870085
 30
0.0
 11
14.8173596286982
 21
8.364078819870083
 31
0.0
  0
LINE
  5
12F
330
1F
100
AcDbEntity
  8
Object
100
AcDbLine
 10
14.6983596286982
 20
8.037078819870085
 30
0.0
 11
14.6923596286982
 21
8.060078819870085
 31
0.0
  0
LINE
  5
130
330
1F
100
AcDbEntity
  8
Object
100
AcDbLine
 10
14.6923596286982
 20
8.060078819870085
 30
0.0
 11
14.6983596286982
 21
8.083078819870085
 31
0.0
  0
LINE
  5
131
330
1F
100
AcDbEntity
  8
Object
100
AcDbLine
 10
14.7133596286982
 20
4.983078819870085
 30
0.0
 11
14.6583596286982
 21
4.941078819870084
 31
0.0
  0
LINE
  5
132
330
1F
100
AcDbEntity
  8
Object
100
AcDbLine
 10
14.7673596286982
 20
4.865078819870085
 30
0.0
 11
14.6993596286982
 21
4.820078819870085
 31
0.0
  0
LINE
  5
133
330
1F
100
AcDbEntity
  8
Object
100
AcDbLine
 10
14.6993596286982
 20
4.820078819870085
 30
0.0
 11
14.6243596286982
 21
4.787078819870084
 31
0.0
  0
LINE
  5
134
330
1F
100
AcDbEntity
  8
Object
100
AcDbLine
 10
14.6583596286982
 20
4.941078819870084
 30
0.0
 11
14.5973596286982
 21
4.910078819870085
 31
0.0
  0
LINE
  5
135
330
1F
100
AcDbEntity
  8
Object
100
AcDbLine
 10
14.5973596286982
 20
4.910078819870085
 30
0.0
 11
14.5323596286982
 21
4.891078819870084
 31
0.0
  0
LINE
  5
136
330
1F
100
AcDbEntity
  8
Object
100
AcDbLine
 10
14.6243596286982
 20
4.787078819870084
 30
0.0
 11
14.5453596286982
 21
4.767078819870084
 31
0.0
  0
LINE
  5
137
330
1F
100
AcDbEntity
  8
Object
100
AcDbLine
 10
14.5453596286982
 20
4.767078819870084
 30
0.0
 11
14.4643596286982
 21
4.760078819870084
 31
0.0
  0
LINE
  5
138
330
1F
100
AcDbEntity
  8
Object
100
AcDbLine
 10
14.5323596286982
 20
4.891078819870084
 30
0.0
 11
14.4643596286982
 21
4.885078819870084
 31
0.0
  0
LINE
  5
139
330
1F
100
AcDbEntity
  8
Object
100
AcDbLine
 10
14.2763596286982
 20
4.524078819870084
 30
0.0
 11
14.2823596286982
 21
4.518078819870084
 31
0.0
  0
LINE
  5
13A
330
1F
100
AcDbEntity
  8
Object
100
AcDbLine
 10
14.2823596286982
 20
4.518078819870084
 30
0.0
 11
14.2843596286982
 21
4.511078819870085
 31
0.0
  0
LINE
  5
13B
330
1F
100
AcDbEntity
  8
Object
100
AcDbLine
 10
14.2843596286982
 20
4.416078819870085
 30
0.0
 11
14.2823596286982
 21
4.408078819870084
 31
0.0
  0
LINE
  5
13C
330
1F
100
AcDbEntity
  8
Object
100
AcDbLine
 10
14.2823596286982
 20
4.408078819870084
 30
0.0
 11
14.2763596286982
 21
4.403078819870085
 31
0.0
  0
LINE
  5
13D
330
1F
100
AcDbEntity
  8
Object
100
AcDbLine
 10
14.2763596286982
 20
4.524078819870084
 30
0.0
 11
14.2693596286982
 21
4.526078819870084
 31
0.0
  0
LINE
  5
13E
330
1F
100
AcDbEntity
  8
Object
100
AcDbLine
 10
14.2843596286982
 20
4.416078819870085
 30
0.0
 11
14.2843596286982
 21
4.511078819870085
 31
0.0
  0
LINE
  5
13F
330
1F
100
AcDbEntity
  8
Object
100
AcDbLine
 10
14.2693596286982
 20
4.401078819870084
 30
0.0
 11
14.2763596286982
 21
4.403078819870085
 31
0.0
  0
LINE
  5
140
330
1F
100
AcDbEntity
  8
Object
100
AcDbLine
 10
14.0693596286982
 20
4.760078819870084
 30
0.0
 11
14.4643596286982
 21
4.760078819870084
 31
0.0
  0
LINE
  5
141
330
1F
100
AcDbEntity
  8
Object
100
AcDbLine
 10
14.2693596286982
 20
4.526078819870084
 30
0.0
 11
14.0693596286982
 21
4.526078819870084
 31
0.0
  0
LINE
  5
142
330
1F
100
AcDbEntity
  8
Object
100
AcDbLine
 10
13.9343596286982
 20
4.750078819870084
 30
0.0
 11
13.9343596286982
 21
4.536078819870084
 31
0.0
  0
LINE
  5
143
330
1F
100
AcDbEntity
  8
Object
100
AcDbLine
 10
14.0593596286982
 20
4.750078819870084
 30
0.0
 11
14.0593596286982
 21
4.536078819870084
 31
0.0
  0
LINE
  5
144
330
1F
100
AcDbEntity
  8
Object
100
AcDbLine
 10
14.0593596286982
 20
4.536078819870084
 30
0.0
 11
14.0603596286982
 21
4.531078819870084
 31
0.0
  0
LINE
  5
145
330
1F
100
AcDbEntity
  8
Object
100
AcDbLine
 10
14.0593596286982
 20
4.750078819870084
 30
0.0
 11
14.0603596286982
 21
4.755078819870084
 31
0.0
  0
LINE
  5
146
330
1F
100
AcDbEntity
  8
Object
100
AcDbLine
 10
14.0603596286982
 20
4.755078819870084
 30
0.0
 11
14.0643596286982
 21
4.759078819870085
 31
0.0
  0
LINE
  5
147
330
1F
100
AcDbEntity
  8
Object
100
AcDbLine
 10
14.0643596286982
 20
4.527078819870084
 30
0.0
 11
14.0603596286982
 21
4.531078819870084
 31
0.0
  0
LINE
  5
148
330
1F
100
AcDbEntity
  8
Object
100
AcDbLine
 10
13.9343596286982
 20
4.536078819870084
 30
0.0
 11
13.9333596286982
 21
4.531078819870084
 31
0.0
  0
LINE
  5
149
330
1F
100
AcDbEntity
  8
Object
100
AcDbLine
 10
13.9343596286982
 20
4.750078819870084
 30
0.0
 11
13.9333596286982
 21
4.755078819870084
 31
0.0
  0
LINE
  5
14A
330
1F
100
AcDbEntity
  8
Object
100
AcDbLine
 10
13.9333596286982
 20
4.755078819870084
 30
0.0
 11
13.9293596286982
 21
4.759078819870085
 31
0.0
  0
LINE
  5
14B
330
1F
100
AcDbEntity
  8
Object
100
AcDbLine
 10
13.9333596286982
 20
4.531078819870084
 30
0.0
 11
13.9293596286982
 21
4.527078819870084
 31
0.0
  0
LINE
  5
14C
330
1F
100
AcDbEntity
  8
Object
100
AcDbLine
 10
14.0643596286982
 20
4.759078819870085
 30
0.0
 11
14.0693596286982
 21
4.760078819870084
 31
0.0
  0
LINE
  5
14D
330
1F
100
AcDbEntity
  8
Object
100
AcDbLine
 10
13.9293596286982
 20
4.527078819870084
 30
0.0
 11
13.9243596286982
 21
4.526078819870084
 31
0.0
  0
LINE
  5
14E
330
1F
100
AcDbEntity
  8
Object
100
AcDbLine
 10
14.0693596286982
 20
4.526078819870084
 30
0.0
 11
14.0643596286982
 21
4.527078819870084
 31
0.0
  0
LINE
  5
14F
330
1F
100
AcDbEntity
  8
Object
100
AcDbLine
 10
13.9243596286982
 20
4.760078819870084
 30
0.0
 11
13.9293596286982
 21
4.759078819870085
 31
0.0
  0
LINE
  5
150
330
1F
100
AcDbEntity
  8
Object
100
AcDbLine
 10
13.7243596286982
 20
4.401078819870084
 30
0.0
 11
14.2693596286982
 21
4.401078819870084
 31
0.0
  0
LINE
  5
151
330
1F
100
AcDbEntity
  8
Object
100
AcDbLine
 10
13.9243596286982
 20
4.526078819870084
 30
0.0
 11
13.7243596286982
 21
4.526078819870084
 31
0.0
  0
LINE
  5
152
330
1F
100
AcDbEntity
  8
Object
100
AcDbLine
 10
13.7243596286982
 20
4.526078819870084
 30
0.0
 11
13.7163596286982
 21
4.524078819870084
 31
0.0
  0
LINE
  5
153
330
1F
100
AcDbEntity
  8
Object
100
AcDbLine
 10
13.7093596286982
 20
4.511078819870085
 30
0.0
 11
13.7113596286982
 21
4.518078819870084
 31
0.0
  0
LINE
  5
154
330
1F
100
AcDbEntity
  8
Object
100
AcDbLine
 10
13.7113596286982
 20
4.518078819870084
 30
0.0
 11
13.7163596286982
 21
4.524078819870084
 31
0.0
  0
LINE
  5
155
330
1F
100
AcDbEntity
  8
Object
100
AcDbLine
 10
13.7163596286982
 20
4.403078819870085
 30
0.0
 11
13.7113596286982
 21
4.408078819870084
 31
0.0
  0
LINE
  5
156
330
1F
100
AcDbEntity
  8
Object
100
AcDbLine
 10
13.7113596286982
 20
4.408078819870084
 30
0.0
 11
13.7093596286982
 21
4.416078819870085
 31
0.0
  0
LINE
  5
157
330
1F
100
AcDbEntity
  8
Object
100
AcDbLine
 10
13.7163596286982
 20
4.403078819870085
 30
0.0
 11
13.7243596286982
 21
4.401078819870084
 31
0.0
  0
LINE
  5
158
330
1F
100
AcDbEntity
  8
Object
100
AcDbLine
 10
13.7093596286982
 20
4.511078819870085
 30
0.0
 11
13.7093596286982
 21
4.416078819870085
 31
0.0
  0
LINE
  5
159
330
1F
100
AcDbEntity
  8
Object
100
AcDbLine
 10
13.4013596286982
 20
4.524078819870084
 30
0.0
 11
13.4073596286982
 21
4.518078819870084
 31
0.0
  0
LINE
  5
15A
330
1F
100
AcDbEntity
  8
Object
100
AcDbLine
 10
13.4073596286982
 20
4.518078819870084
 30
0.0
 11
13.4093596286982
 21
4.511078819870085
 31
0.0
  0
LINE
  5
15B
330
1F
100
AcDbEntity
  8
Object
100
AcDbLine
 10
13.4093596286982
 20
4.416078819870085
 30
0.0
 11
13.4073596286982
 21
4.408078819870084
 31
0.0
  0
LINE
  5
15C
330
1F
100
AcDbEntity
  8
Object
100
AcDbLine
 10
13.4073596286982
 20
4.408078819870084
 30
0.0
 11
13.4013596286982
 21
4.403078819870085
 31
0.0
  0
LINE
  5
15D
330
1F
100
AcDbEntity
  8
Object
100
AcDbLine
 10
13.4013596286982
 20
4.524078819870084
 30
0.0
 11
13.3943596286982
 21
4.526078819870084
 31
0.0
  0
LINE
  5
15E
330
1F
100
AcDbEntity
  8
Object
100
AcDbLine
 10
13.4093596286982
 20
4.416078819870085
 30
0.0
 11
13.4093596286982
 21
4.511078819870085
 31
0.0
  0
LINE
  5
15F
330
1F
100
AcDbEntity
  8
Object
100
AcDbLine
 10
13.3943596286982
 20
4.401078819870084
 30
0.0
 11
13.4013596286982
 21
4.403078819870085
 31
0.0
  0
LINE
  5
160
330
1F
100
AcDbEntity
  8
Object
100
AcDbLine
 10
13.1943596286982
 20
4.760078819870084
 30
0.0
 11
13.9243596286982
 21
4.760078819870084
 31
0.0
  0
LINE
  5
161
330
1F
100
AcDbEntity
  8
Object
100
AcDbLine
 10
13.3943596286982
 20
4.526078819870084
 30
0.0
 11
13.1943596286982
 21
4.526078819870084
 31
0.0
  0
LINE
  5
162
330
1F
100
AcDbEntity
  8
Object
100
AcDbLine
 10
13.1853596286982
 20
4.531078819870084
 30
0.0
 11
13.1893596286982
 21
4.527078819870084
 31
0.0
  0
LINE
  5
163
330
1F
100
AcDbEntity
  8
Object
100
AcDbLine
 10
13.1893596286982
 20
4.527078819870084
 30
0.0
 11
13.1943596286982
 21
4.526078819870084
 31
0.0
  0
LINE
  5
164
330
1F
100
AcDbEntity
  8
Object
100
AcDbLine
 10
13.3943596286982
 20
4.401078819870084
 30
0.0
 11
13.1343596286982
 21
4.401078819870084
 31
0.0
  0
LINE
  5
165
330
1F
100
AcDbEntity
  8
Object
100
AcDbLine
 10
13.1343596286982
 20
4.401078819870084
 30
0.0
 11
13.1053596286982
 21
4.407078819870084
 31
0.0
  0
LINE
  5
166
330
1F
100
AcDbEntity
  8
Object
100
AcDbLine
 10
13.1053596286982
 20
4.407078819870084
 30
0.0
 11
13.0813596286982
 21
4.423078819870084
 31
0.0
  0
LINE
  5
167
330
1F
100
AcDbEntity
  8
Object
100
AcDbLine
 10
13.0813596286982
 20
4.423078819870084
 30
0.0
 11
13.0653596286982
 21
4.447078819870085
 31
0.0
  0
LINE
  5
168
330
1F
100
AcDbEntity
  8
Object
100
AcDbLine
 10
13.0593596286982
 20
4.750078819870084
 30
0.0
 11
13.0593596286982
 21
4.476078819870084
 31
0.0
  0
LINE
  5
169
330
1F
100
AcDbEntity
  8
Object
100
AcDbLine
 10
13.1853596286982
 20
4.531078819870084
 30
0.0
 11
13.1843596286982
 21
4.536078819870084
 31
0.0
  0
LINE
  5
16A
330
1F
100
AcDbEntity
  8
Object
100
AcDbLine
 10
13.0593596286982
 20
4.476078819870084
 30
0.0
 11
13.0653596286982
 21
4.447078819870085
 31
0.0
  0
LINE
  5
16B
330
1F
100
AcDbEntity
  8
Object
100
AcDbLine
 10
13.1843596286982
 20
4.536078819870084
 30
0.0
 11
13.1843596286982
 21
4.750078819870084
 31
0.0
  0
LINE
  5
16C
330
1F
100
AcDbEntity
  8
Object
100
AcDbLine
 10
13.1893596286982
 20
4.759078819870085
 30
0.0
 11
13.1853596286982
 21
4.755078819870084
 31
0.0
  0
LINE
  5
16D
330
1F
100
AcDbEntity
  8
Object
100
AcDbLine
 10
13.1853596286982
 20
4.755078819870084
 30
0.0
 11
13.1843596286982
 21
4.750078819870084
 31
0.0
  0
LINE
  5
16E
330
1F
100
AcDbEntity
  8
Object
100
AcDbLine
 10
13.0593596286982
 20
4.750078819870084
 30
0.0
 11
13.0583596286982
 21
4.755078819870084
 31
0.0
  0
LINE
  5
16F
330
1F
100
AcDbEntity
  8
Object
100
AcDbLine
 10
13.0583596286982
 20
4.755078819870084
 30
0.0
 11
13.0543596286982
 21
4.759078819870085
 31
0.0
  0
LINE
  5
170
330
1F
100
AcDbEntity
  8
Object
100
AcDbLine
 10
13.1893596286982
 20
4.759078819870085
 30
0.0
 11
13.1943596286982
 21
4.760078819870084
 31
0.0
  0
LINE
  5
171
330
1F
100
AcDbEntity
  8
Object
100
AcDbLine
 10
13.0493596286982
 20
4.760078819870084
 30
0.0
 11
13.0543596286982
 21
4.759078819870085
 31
0.0
  0
LINE
  5
172
330
1F
100
AcDbEntity
  8
Object
100
AcDbLine
 10
10.6893596286982
 20
4.524078819870084
 30
0.0
 11
10.6953596286982
 21
4.518078819870084
 31
0.0
  0
LINE
  5
173
330
1F
100
AcDbEntity
  8
Object
100
AcDbLine
 10
10.6953596286982
 20
4.518078819870084
 30
0.0
 11
10.6973596286982
 21
4.511078819870085
 31
0.0
  0
LINE
  5
174
330
1F
100
AcDbEntity
  8
Object
100
AcDbLine
 10
10.6973596286982
 20
4.416078819870085
 30
0.0
 11
10.6953596286982
 21
4.408078819870084
 31
0.0
  0
LINE
  5
175
330
1F
100
AcDbEntity
  8
Object
100
AcDbLine
 10
10.6953596286982
 20
4.408078819870084
 30
0.0
 11
10.6893596286982
 21
4.403078819870085
 31
0.0
  0
LINE
  5
176
330
1F
100
AcDbEntity
  8
Object
100
AcDbLine
 10
10.6893596286982
 20
4.524078819870084
 30
0.0
 11
10.6823596286982
 21
4.526078819870084
 31
0.0
  0
LINE
  5
177
330
1F
100
AcDbEntity
  8
Object
100
AcDbLine
 10
10.6823596286982
 20
4.401078819870084
 30
0.0
 11
10.6893596286982
 21
4.403078819870085
 31
0.0
  0
LINE
  5
178
330
1F
100
AcDbEntity
  8
Object
100
AcDbLine
 10
10.6323596286982
 20
4.760078819870084
 30
0.0
 11
13.0493596286982
 21
4.760078819870084
 31
0.0
  0
LINE
  5
179
330
1F
100
AcDbEntity
  8
Object
100
AcDbLine
 10
10.6823596286982
 20
4.526078819870084
 30
0.0
 11
10.6323596286982
 21
4.526078819870084
 31
0.0
  0
LINE
  5
17A
330
1F
100
AcDbEntity
  8
Object
100
AcDbLine
 10
10.6973596286982
 20
4.416078819870085
 30
0.0
 11
10.6973596286982
 21
4.511078819870085
 31
0.0
  0
LINE
  5
17B
330
1F
100
AcDbEntity
  8
Object
100
AcDbLine
 10
10.6323596286982
 20
4.526078819870084
 30
0.0
 11
10.6273596286982
 21
4.527078819870084
 31
0.0
  0
LINE
  5
17C
330
1F
100
AcDbEntity
  8
Object
100
AcDbLine
 10
10.6233596286982
 20
4.755078819870084
 30
0.0
 11
10.6223596286982
 21
4.750078819870084
 31
0.0
  0
LINE
  5
17D
330
1F
100
AcDbEntity
  8
Object
100
AcDbLine
 10
10.6223596286982
 20
4.750078819870084
 30
0.0
 11
10.6223596286982
 21
4.536078819870084
 31
0.0
  0
LINE
  5
17E
330
1F
100
AcDbEntity
  8
Object
100
AcDbLine
 10
10.6223596286982
 20
4.536078819870084
 30
0.0
 11
10.6233596286982
 21
4.531078819870084
 31
0.0
  0
LINE
  5
17F
330
1F
100
AcDbEntity
  8
Object
100
AcDbLine
 10
10.4973596286982
 20
4.536078819870084
 30
0.0
 11
10.4973596286982
 21
4.750078819870084
 31
0.0
  0
LINE
  5
180
330
1F
100
AcDbEntity
  8
Object
100
AcDbLine
 10
10.4973596286982
 20
4.750078819870084
 30
0.0
 11
10.4953596286982
 21
4.755078819870084
 31
0.0
  0
LINE
  5
181
330
1F
100
AcDbEntity
  8
Object
100
AcDbLine
 10
10.4973596286982
 20
4.536078819870084
 30
0.0
 11
10.4953596286982
 21
4.531078819870084
 31
0.0
  0
LINE
  5
182
330
1F
100
AcDbEntity
  8
Object
100
AcDbLine
 10
10.6233596286982
 20
4.755078819870084
 30
0.0
 11
10.6273596286982
 21
4.759078819870085
 31
0.0
  0
LINE
  5
183
330
1F
100
AcDbEntity
  8
Object
100
AcDbLine
 10
10.6273596286982
 20
4.527078819870084
 30
0.0
 11
10.6233596286982
 21
4.531078819870084
 31
0.0
  0
LINE
  5
184
330
1F
100
AcDbEntity
  8
Object
100
AcDbLine
 10
10.4953596286982
 20
4.531078819870084
 30
0.0
 11
10.4923596286982
 21
4.527078819870084
 31
0.0
  0
LINE
  5
185
330
1F
100
AcDbEntity
  8
Object
100
AcDbLine
 10
10.4923596286982
 20
4.759078819870085
 30
0.0
 11
10.4953596286982
 21
4.755078819870084
 31
0.0
  0
LINE
  5
186
330
1F
100
AcDbEntity
  8
Object
100
AcDbLine
 10
10.6273596286982
 20
4.759078819870085
 30
0.0
 11
10.6323596286982
 21
4.760078819870084
 31
0.0
  0
LINE
  5
187
330
1F
100
AcDbEntity
  8
Object
100
AcDbLine
 10
10.4873596286982
 20
4.760078819870084
 30
0.0
 11
10.4923596286982
 21
4.759078819870085
 31
0.0
  0
LINE
  5
188
330
1F
100
AcDbEntity
  8
Object
100
AcDbLine
 10
10.4373596286982
 20
4.401078819870084
 30
0.0
 11
10.6823596286982
 21
4.401078819870084
 31
0.0
  0
LINE
  5
189
330
1F
100
AcDbEntity
  8
Object
100
AcDbLine
 10
10.4923596286982
 20
4.527078819870084
 30
0.0
 11
10.4873596286982
 21
4.526078819870084
 31
0.0
  0
LINE
  5
18A
330
1F
100
AcDbEntity
  8
Object
100
AcDbLine
 10
10.4223596286982
 20
4.511078819870085
 30
0.0
 11
10.4243596286982
 21
4.518078819870084
 31
0.0
  0
LINE
  5
18B
330
1F
100
AcDbEntity
  8
Object
100
AcDbLine
 10
10.4243596286982
 20
4.518078819870084
 30
0.0
 11
10.4293596286982
 21
4.524078819870084
 31
0.0
  0
LINE
  5
18C
330
1F
100
AcDbEntity
  8
Object
100
AcDbLine
 10
10.4293596286982
 20
4.524078819870084
 30
0.0
 11
10.4373596286982
 21
4.526078819870084
 31
0.0
  0
LINE
  5
18D
330
1F
100
AcDbEntity
  8
Object
100
AcDbLine
 10
10.4373596286982
 20
4.526078819870084
 30
0.0
 11
10.4873596286982
 21
4.526078819870084
 31
0.0
  0
LINE
  5
18E
330
1F
100
AcDbEntity
  8
Object
100
AcDbLine
 10
10.4373596286982
 20
4.401078819870084
 30
0.0
 11
10.4293596286982
 21
4.403078819870085
 31
0.0
  0
LINE
  5
18F
330
1F
100
AcDbEntity
  8
Object
100
AcDbLine
 10
10.4293596286982
 20
4.403078819870085
 30
0.0
 11
10.4243596286982
 21
4.408078819870084
 31
0.0
  0
LINE
  5
190
330
1F
100
AcDbEntity
  8
Object
100
AcDbLine
 10
10.4243596286982
 20
4.408078819870084
 30
0.0
 11
10.4223596286982
 21
4.416078819870085
 31
0.0
  0
LINE
  5
191
330
1F
100
AcDbEntity
  8
Object
100
AcDbLine
 10
10.4223596286982
 20
4.416078819870085
 30
0.0
 11
10.4223596286982
 21
4.511078819870085
 31
0.0
  0
LINE
  5
192
330
1F
100
AcDbEntity
  8
Object
100
AcDbLine
 10
9.814359628698204
 20
4.524078819870084
 30
0.0
 11
9.819359628698205
 21
4.518078819870084
 31
0.0
  0
LINE
  5
193
330
1F
100
AcDbEntity
  8
Object
100
AcDbLine
 10
9.819359628698205
 20
4.518078819870084
 30
0.0
 11
9.821359628698203
 21
4.511078819870085
 31
0.0
  0
LINE
  5
194
330
1F
100
AcDbEntity
  8
Object
100
AcDbLine
 10
9.821359628698203
 20
4.416078819870085
 30
0.0
 11
9.819359628698205
 21
4.408078819870084
 31
0.0
  0
LINE
  5
195
330
1F
100
AcDbEntity
  8
Object
100
AcDbLine
 10
9.819359628698205
 20
4.408078819870084
 30
0.0
 11
9.814359628698204
 21
4.403078819870085
 31
0.0
  0
LINE
  5
196
330
1F
100
AcDbEntity
  8
Object
100
AcDbLine
 10
9.814359628698204
 20
4.524078819870084
 30
0.0
 11
9.806359628698203
 21
4.526078819870084
 31
0.0
  0
LINE
  5
197
330
1F
100
AcDbEntity
  8
Object
100
AcDbLine
 10
9.806359628698203
 20
4.401078819870084
 30
0.0
 11
9.814359628698204
 21
4.403078819870085
 31
0.0
  0
LINE
  5
198
330
1F
100
AcDbEntity
  8
Object
100
AcDbLine
 10
9.756359628698204
 20
4.760078819870084
 30
0.0
 11
10.4873596286982
 21
4.760078819870084
 31
0.0
  0
LINE
  5
199
330
1F
100
AcDbEntity
  8
Object
100
AcDbLine
 10
9.806359628698203
 20
4.526078819870084
 30
0.0
 11
9.756359628698204
 21
4.526078819870084
 31
0.0
  0
LINE
  5
19A
330
1F
100
AcDbEntity
  8
Object
100
AcDbLine
 10
9.821359628698203
 20
4.416078819870085
 30
0.0
 11
9.821359628698203
 21
4.511078819870085
 31
0.0
  0
LINE
  5
19B
330
1F
100
AcDbEntity
  8
Object
100
AcDbLine
 10
9.756359628698204
 20
4.526078819870084
 30
0.0
 11
9.751359628698203
 21
4.527078819870084
 31
0.0
  0
LINE
  5
19C
330
1F
100
AcDbEntity
  8
Object
100
AcDbLine
 10
9.747359628698204
 20
4.755078819870084
 30
0.0
 11
9.746359628698204
 21
4.750078819870084
 31
0.0
  0
LINE
  5
19D
330
1F
100
AcDbEntity
  8
Object
100
AcDbLine
 10
9.746359628698204
 20
4.750078819870084
 30
0.0
 11
9.746359628698204
 21
4.536078819870084
 31
0.0
  0
LINE
  5
19E
330
1F
100
AcDbEntity
  8
Object
100
AcDbLine
 10
9.621359628698204
 20
4.536078819870084
 30
0.0
 11
9.621359628698204
 21
4.750078819870084
 31
0.0
  0
LINE
  5
19F
330
1F
100
AcDbEntity
  8
Object
100
AcDbLine
 10
9.621359628698204
 20
4.750078819870084
 30
0.0
 11
9.620359628698203
 21
4.755078819870084
 31
0.0
  0
LINE
  5
1A0
330
1F
100
AcDbEntity
  8
Object
100
AcDbLine
 10
9.621359628698204
 20
4.536078819870084
 30
0.0
 11
9.620359628698203
 21
4.531078819870084
 31
0.0
  0
LINE
  5
1A1
330
1F
100
AcDbEntity
  8
Object
100
AcDbLine
 10
9.746359628698204
 20
4.536078819870084
 30
0.0
 11
9.747359628698204
 21
4.531078819870084
 31
0.0
  0
LINE
  5
1A2
330
1F
100
AcDbEntity
  8
Object
100
AcDbLine
 10
9.747359628698204
 20
4.531078819870084
 30
0.0
 11
9.751359628698203
 21
4.527078819870084
 31
0.0
  0
LINE
  5
1A3
330
1F
100
AcDbEntity
  8
Object
100
AcDbLine
 10
9.620359628698203
 20
4.531078819870084
 30
0.0
 11
9.616359628698203
 21
4.527078819870084
 31
0.0
  0
LINE
  5
1A4
330
1F
100
AcDbEntity
  8
Object
100
AcDbLine
 10
9.616359628698203
 20
4.759078819870085
 30
0.0
 11
9.620359628698203
 21
4.755078819870084
 31
0.0
  0
LINE
  5
1A5
330
1F
100
AcDbEntity
  8
Object
100
AcDbLine
 10
9.747359628698204
 20
4.755078819870084
 30
0.0
 11
9.751359628698203
 21
4.759078819870085
 31
0.0
  0
LINE
  5
1A6
330
1F
100
AcDbEntity
  8
Object
100
AcDbLine
 10
9.751359628698203
 20
4.759078819870085
 30
0.0
 11
9.756359628698204
 21
4.760078819870084
 31
0.0
  0
LINE
  5
1A7
330
1F
100
AcDbEntity
  8
Object
100
AcDbLine
 10
9.611359628698204
 20
4.760078819870084
 30
0.0
 11
9.616359628698203
 21
4.759078819870085
 31
0.0
  0
LINE
  5
1A8
330
1F
100
AcDbEntity
  8
Object
100
AcDbLine
 10
9.616359628698203
 20
4.527078819870084
 30
0.0
 11
9.611359628698204
 21
4.526078819870084
 31
0.0
  0
LINE
  5
1A9
330
1F
100
AcDbEntity
  8
Object
100
AcDbLine
 10
9.561359628698204
 20
4.401078819870084
 30
0.0
 11
9.806359628698203
 21
4.401078819870084
 31
0.0
  0
LINE
  5
1AA
330
1F
100
AcDbEntity
  8
Object
100
AcDbLine
 10
9.546359628698203
 20
4.511078819870085
 30
0.0
 11
9.548359628698204
 21
4.518078819870084
 31
0.0
  0
LINE
  5
1AB
330
1F
100
AcDbEntity
  8
Object
100
AcDbLine
 10
9.548359628698204
 20
4.518078819870084
 30
0.0
 11
9.554359628698204
 21
4.524078819870084
 31
0.0
  0
LINE
  5
1AC
330
1F
100
AcDbEntity
  8
Object
100
AcDbLine
 10
9.554359628698204
 20
4.524078819870084
 30
0.0
 11
9.561359628698204
 21
4.526078819870084
 31
0.0
  0
LINE
  5
1AD
330
1F
100
AcDbEntity
  8
Object
100
AcDbLine
 10
9.561359628698204
 20
4.526078819870084
 30
0.0
 11
9.611359628698204
 21
4.526078819870084
 31
0.0
  0
LINE
  5
1AE
330
1F
100
AcDbEntity
  8
Object
100
AcDbLine
 10
9.561359628698204
 20
4.401078819870084
 30
0.0
 11
9.554359628698204
 21
4.403078819870085
 31
0.0
  0
LINE
  5
1AF
330
1F
100
AcDbEntity
  8
Object
100
AcDbLine
 10
9.554359628698204
 20
4.403078819870085
 30
0.0
 11
9.548359628698204
 21
4.408078819870084
 31
0.0
  0
LINE
  5
1B0
330
1F
100
AcDbEntity
  8
Object
100
AcDbLine
 10
9.548359628698204
 20
4.408078819870084
 30
0.0
 11
9.546359628698203
 21
4.416078819870085
 31
0.0
  0
LINE
  5
1B1
330
1F
100
AcDbEntity
  8
Object
100
AcDbLine
 10
9.546359628698203
 20
4.416078819870085
 30
0.0
 11
9.546359628698203
 21
4.511078819870085
 31
0.0
  0
LINE
  5
1B2
330
1F
100
AcDbEntity
  8
Object
100
AcDbLine
 10
8.947359628698203
 20
4.760078819870084
 30
0.0
 11
9.611359628698204
 21
4.760078819870084
 31
0.0
  0
LINE
  5
1B3
330
1F
100
AcDbEntity
  8
Object
100
AcDbLine
 10
8.937359628698203
 20
4.476078819870084
 30
0.0
 11
8.937359628698203
 21
4.750078819870084
 31
0.0
  0
LINE
  5
1B4
330
1F
100
AcDbEntity
  8
Object
100
AcDbLine
 10
8.812359628698203
 20
4.750078819870084
 30
0.0
 11
8.812359628698203
 21
4.536078819870084
 31
0.0
  0
LINE
  5
1B5
330
1F
100
AcDbEntity
  8
Object
100
AcDbLine
 10
8.942359628698204
 20
4.759078819870085
 30
0.0
 11
8.938359628698204
 21
4.755078819870084
 31
0.0
  0
LINE
  5
1B6
330
1F
100
AcDbEntity
  8
Object
100
AcDbLine
 10
8.938359628698204
 20
4.755078819870084
 30
0.0
 11
8.937359628698203
 21
4.750078819870084
 31
0.0
  0
LINE
  5
1B7
330
1F
100
AcDbEntity
  8
Object
100
AcDbLine
 10
8.812359628698203
 20
4.536078819870084
 30
0.0
 11
8.810359628698204
 21
4.531078819870084
 31
0.0
  0
LINE
  5
1B8
330
1F
100
AcDbEntity
  8
Object
100
AcDbLine
 10
8.931359628698203
 20
4.447078819870085
 30
0.0
 11
8.937359628698203
 21
4.476078819870084
 31
0.0
  0
LINE
  5
1B9
330
1F
100
AcDbEntity
  8
Object
100
AcDbLine
 10
8.810359628698204
 20
4.755078819870084
 30
0.0
 11
8.812359628698203
 21
4.750078819870084
 31
0.0
  0
LINE
  5
1BA
330
1F
100
AcDbEntity
  8
Object
100
AcDbLine
 10
8.931359628698203
 20
4.447078819870085
 30
0.0
 11
8.915359628698203
 21
4.423078819870084
 31
0.0
  0
LINE
  5
1BB
330
1F
100
AcDbEntity
  8
Object
100
AcDbLine
 10
8.915359628698203
 20
4.423078819870084
 30
0.0
 11
8.890359628698204
 21
4.407078819870084
 31
0.0
  0
LINE
  5
1BC
330
1F
100
AcDbEntity
  8
Object
100
AcDbLine
 10
8.890359628698204
 20
4.407078819870084
 30
0.0
 11
8.862359628698204
 21
4.401078819870084
 31
0.0
  0
LINE
  5
1BD
330
1F
100
AcDbEntity
  8
Object
100
AcDbLine
 10
8.807359628698204
 20
4.759078819870085
 30
0.0
 11
8.810359628698204
 21
4.755078819870084
 31
0.0
  0
LINE
  5
1BE
330
1F
100
AcDbEntity
  8
Object
100
AcDbLine
 10
8.810359628698204
 20
4.531078819870084
 30
0.0
 11
8.807359628698204
 21
4.527078819870084
 31
0.0
  0
LINE
  5
1BF
330
1F
100
AcDbEntity
  8
Object
100
AcDbLine
 10
8.942359628698204
 20
4.759078819870085
 30
0.0
 11
8.947359628698203
 21
4.760078819870084
 31
0.0
  0
LINE
  5
1C0
330
1F
100
AcDbEntity
  8
Object
100
AcDbLine
 10
8.802359628698203
 20
4.760078819870084
 30
0.0
 11
8.807359628698204
 21
4.759078819870085
 31
0.0
  0
LINE
  5
1C1
330
1F
100
AcDbEntity
  8
Object
100
AcDbLine
 10
8.807359628698204
 20
4.527078819870084
 30
0.0
 11
8.802359628698203
 21
4.526078819870084
 31
0.0
  0
LINE
  5
1C2
330
1F
100
AcDbEntity
  8
Object
100
AcDbLine
 10
8.802359628698203
 20
4.526078819870084
 30
0.0
 11
8.602359628698204
 21
4.526078819870084
 31
0.0
  0
LINE
  5
1C3
330
1F
100
AcDbEntity
  8
Object
100
AcDbLine
 10
8.602359628698204
 20
4.401078819870084
 30
0.0
 11
8.862359628698204
 21
4.401078819870084
 31
0.0
  0
LINE
  5
1C4
330
1F
100
AcDbEntity
  8
Object
100
AcDbLine
 10
8.587359628698203
 20
4.511078819870085
 30
0.0
 11
8.589359628698204
 21
4.518078819870084
 31
0.0
  0
LINE
  5
1C5
330
1F
100
AcDbEntity
  8
Object
100
AcDbLine
 10
8.589359628698204
 20
4.518078819870084
 30
0.0
 11
8.594359628698203
 21
4.524078819870084
 31
0.0
  0
LINE
  5
1C6
330
1F
100
AcDbEntity
  8
Object
100
AcDbLine
 10
8.594359628698203
 20
4.524078819870084
 30
0.0
 11
8.602359628698204
 21
4.526078819870084
 31
0.0
  0
LINE
  5
1C7
330
1F
100
AcDbEntity
  8
Object
100
AcDbLine
 10
8.602359628698204
 20
4.401078819870084
 30
0.0
 11
8.594359628698203
 21
4.403078819870085
 31
0.0
  0
LINE
  5
1C8
330
1F
100
AcDbEntity
  8
Object
100
AcDbLine
 10
8.594359628698203
 20
4.403078819870085
 30
0.0
 11
8.589359628698204
 21
4.408078819870084
 31
0.0
  0
LINE
  5
1C9
330
1F
100
AcDbEntity
  8
Object
100
AcDbLine
 10
8.589359628698204
 20
4.408078819870084
 30
0.0
 11
8.587359628698203
 21
4.416078819870085
 31
0.0
  0
LINE
  5
1CA
330
1F
100
AcDbEntity
  8
Object
100
AcDbLine
 10
8.587359628698203
 20
4.416078819870085
 30
0.0
 11
8.587359628698203
 21
4.511078819870085
 31
0.0
  0
LINE
  5
1CB
330
1F
100
AcDbEntity
  8
Object
100
AcDbLine
 10
8.279359628698204
 20
4.524078819870084
 30
0.0
 11
8.285359628698204
 21
4.518078819870084
 31
0.0
  0
LINE
  5
1CC
330
1F
100
AcDbEntity
  8
Object
100
AcDbLine
 10
8.285359628698204
 20
4.518078819870084
 30
0.0
 11
8.287359628698204
 21
4.511078819870085
 31
0.0
  0
LINE
  5
1CD
330
1F
100
AcDbEntity
  8
Object
100
AcDbLine
 10
8.287359628698204
 20
4.416078819870085
 30
0.0
 11
8.285359628698204
 21
4.408078819870084
 31
0.0
  0
LINE
  5
1CE
330
1F
100
AcDbEntity
  8
Object
100
AcDbLine
 10
8.285359628698204
 20
4.408078819870084
 30
0.0
 11
8.279359628698204
 21
4.403078819870085
 31
0.0
  0
LINE
  5
1CF
330
1F
100
AcDbEntity
  8
Object
100
AcDbLine
 10
8.279359628698204
 20
4.524078819870084
 30
0.0
 11
8.272359628698204
 21
4.526078819870084
 31
0.0
  0
LINE
  5
1D0
330
1F
100
AcDbEntity
  8
Object
100
AcDbLine
 10
8.287359628698204
 20
4.416078819870085
 30
0.0
 11
8.287359628698204
 21
4.511078819870085
 31
0.0
  0
LINE
  5
1D1
330
1F
100
AcDbEntity
  8
Object
100
AcDbLine
 10
8.272359628698204
 20
4.401078819870084
 30
0.0
 11
8.279359628698204
 21
4.403078819870085
 31
0.0
  0
LINE
  5
1D2
330
1F
100
AcDbEntity
  8
Object
100
AcDbLine
 10
8.272359628698204
 20
4.526078819870084
 30
0.0
 11
8.072359628698205
 21
4.526078819870084
 31
0.0
  0
LINE
  5
1D3
330
1F
100
AcDbEntity
  8
Object
100
AcDbLine
 10
8.063359628698204
 20
4.531078819870084
 30
0.0
 11
8.067359628698204
 21
4.527078819870084
 31
0.0
  0
LINE
  5
1D4
330
1F
100
AcDbEntity
  8
Object
100
AcDbLine
 10
8.067359628698204
 20
4.527078819870084
 30
0.0
 11
8.072359628698205
 21
4.526078819870084
 31
0.0
  0
LINE
  5
1D5
330
1F
100
AcDbEntity
  8
Object
100
AcDbLine
 10
8.272359628698204
 20
4.401078819870084
 30
0.0
 11
8.012359628698202
 21
4.401078819870084
 31
0.0
  0
LINE
  5
1D6
330
1F
100
AcDbEntity
  8
Object
100
AcDbLine
 10
8.012359628698202
 20
4.401078819870084
 30
0.0
 11
7.983359628698202
 21
4.407078819870084
 31
0.0
  0
LINE
  5
1D7
330
1F
100
AcDbEntity
  8
Object
100
AcDbLine
 10
7.983359628698202
 20
4.407078819870084
 30
0.0
 11
7.959359628698203
 21
4.423078819870084
 31
0.0
  0
LINE
  5
1D8
330
1F
100
AcDbEntity
  8
Object
100
AcDbLine
 10
7.959359628698203
 20
4.423078819870084
 30
0.0
 11
7.942359628698204
 21
4.447078819870085
 31
0.0
  0
LINE
  5
1D9
330
1F
100
AcDbEntity
  8
Object
100
AcDbLine
 10
8.063359628698204
 20
4.755078819870084
 30
0.0
 11
8.062359628698203
 21
4.750078819870084
 31
0.0
  0
LINE
  5
1DA
330
1F
100
AcDbEntity
  8
Object
100
AcDbLine
 10
8.062359628698203
 20
4.750078819870084
 30
0.0
 11
8.062359628698203
 21
4.536078819870084
 31
0.0
  0
LINE
  5
1DB
330
1F
100
AcDbEntity
  8
Object
100
AcDbLine
 10
7.937359628698203
 20
4.476078819870084
 30
0.0
 11
7.942359628698204
 21
4.447078819870085
 31
0.0
  0
LINE
  5
1DC
330
1F
100
AcDbEntity
  8
Object
100
AcDbLine
 10
8.063359628698204
 20
4.531078819870084
 30
0.0
 11
8.062359628698203
 21
4.536078819870084
 31
0.0
  0
LINE
  5
1DD
330
1F
100
AcDbEntity
  8
Object
100
AcDbLine
 10
7.937359628698203
 20
4.750078819870084
 30
0.0
 11
7.937359628698203
 21
4.476078819870084
 31
0.0
  0
LINE
  5
1DE
330
1F
100
AcDbEntity
  8
Object
100
AcDbLine
 10
8.063359628698204
 20
4.755078819870084
 30
0.0
 11
8.067359628698204
 21
4.759078819870085
 31
0.0
  0
LINE
  5
1DF
330
1F
100
AcDbEntity
  8
Object
100
AcDbLine
 10
7.937359628698203
 20
4.750078819870084
 30
0.0
 11
7.935359628698204
 21
4.755078819870084
 31
0.0
  0
LINE
  5
1E0
330
1F
100
AcDbEntity
  8
Object
100
AcDbLine
 10
7.935359628698204
 20
4.755078819870084
 30
0.0
 11
7.932359628698204
 21
4.759078819870085
 31
0.0
  0
LINE
  5
1E1
330
1F
100
AcDbEntity
  8
Object
100
AcDbLine
 10
8.067359628698204
 20
4.759078819870085
 30
0.0
 11
8.072359628698205
 21
4.760078819870084
 31
0.0
  0
LINE
  5
1E2
330
1F
100
AcDbEntity
  8
Object
100
AcDbLine
 10
7.927359628698203
 20
4.760078819870084
 30
0.0
 11
7.932359628698204
 21
4.759078819870085
 31
0.0
  0
LINE
  5
1E3
330
1F
100
AcDbEntity
  8
Object
100
AcDbLine
 10
7.320359628698204
 20
4.524078819870084
 30
0.0
 11
7.325359628698205
 21
4.518078819870084
 31
0.0
  0
LINE
  5
1E4
330
1F
100
AcDbEntity
  8
Object
100
AcDbLine
 10
7.325359628698205
 20
4.518078819870084
 30
0.0
 11
7.327359628698204
 21
4.511078819870085
 31
0.0
  0
LINE
  5
1E5
330
1F
100
AcDbEntity
  8
Object
100
AcDbLine
 10
7.327359628698204
 20
4.416078819870085
 30
0.0
 11
7.325359628698205
 21
4.408078819870084
 31
0.0
  0
LINE
  5
1E6
330
1F
100
AcDbEntity
  8
Object
100
AcDbLine
 10
7.325359628698205
 20
4.408078819870084
 30
0.0
 11
7.320359628698204
 21
4.403078819870085
 31
0.0
  0
LINE
  5
1E7
330
1F
100
AcDbEntity
  8
Object
100
AcDbLine
 10
7.320359628698204
 20
4.524078819870084
 30
0.0
 11
7.312359628698203
 21
4.526078819870084
 31
0.0
  0
LINE
  5
1E8
330
1F
100
AcDbEntity
  8
Object
100
AcDbLine
 10
7.312359628698203
 20
4.401078819870084
 30
0.0
 11
7.320359628698204
 21
4.403078819870085
 31
0.0
  0
LINE
  5
1E9
330
1F
100
AcDbEntity
  8
Object
100
AcDbLine
 10
7.312359628698203
 20
4.526078819870084
 30
0.0
 11
7.262359628698202
 21
4.526078819870084
 31
0.0
  0
LINE
  5
1EA
330
1F
100
AcDbEntity
  8
Object
100
AcDbLine
 10
7.327359628698204
 20
4.416078819870085
 30
0.0
 11
7.327359628698204
 21
4.511078819870085
 31
0.0
  0
LINE
  5
1EB
330
1F
100
AcDbEntity
  8
Object
100
AcDbLine
 10
7.262359628698202
 20
4.526078819870084
 30
0.0
 11
7.257359628698203
 21
4.527078819870084
 31
0.0
  0
LINE
  5
1EC
330
1F
100
AcDbEntity
  8
Object
100
AcDbLine
 10
7.252359628698204
 20
4.750078819870084
 30
0.0
 11
7.252359628698204
 21
4.536078819870084
 31
0.0
  0
LINE
  5
1ED
330
1F
100
AcDbEntity
  8
Object
100
AcDbLine
 10
7.252359628698204
 20
4.536078819870084
 30
0.0
 11
7.254359628698203
 21
4.531078819870084
 31
0.0
  0
LINE
  5
1EE
330
1F
100
AcDbEntity
  8
Object
100
AcDbLine
 10
7.127359628698204
 20
4.750078819870084
 30
0.0
 11
7.127359628698204
 21
4.536078819870084
 31
0.0
  0
LINE
  5
1EF
330
1F
100
AcDbEntity
  8
Object
100
AcDbLine
 10
7.257359628698203
 20
4.759078819870085
 30
0.0
 11
7.254359628698203
 21
4.755078819870084
 31
0.0
  0
LINE
  5
1F0
330
1F
100
AcDbEntity
  8
Object
100
AcDbLine
 10
7.254359628698203
 20
4.755078819870084
 30
0.0
 11
7.252359628698204
 21
4.750078819870084
 31
0.0
  0
LINE
  5
1F1
330
1F
100
AcDbEntity
  8
Object
100
AcDbLine
 10
7.257359628698203
 20
4.527078819870084
 30
0.0
 11
7.254359628698203
 21
4.531078819870084
 31
0.0
  0
LINE
  5
1F2
330
1F
100
AcDbEntity
  8
Object
100
AcDbLine
 10
7.127359628698204
 20
4.536078819870084
 30
0.0
 11
7.126359628698203
 21
4.531078819870084
 31
0.0
  0
LINE
  5
1F3
330
1F
100
AcDbEntity
  8
Object
100
AcDbLine
 10
7.127359628698204
 20
4.750078819870084
 30
0.0
 11
7.126359628698203
 21
4.755078819870084
 31
0.0
  0
LINE
  5
1F4
330
1F
100
AcDbEntity
  8
Object
100
AcDbLine
 10
7.126359628698203
 20
4.755078819870084
 30
0.0
 11
7.122359628698204
 21
4.759078819870085
 31
0.0
  0
LINE
  5
1F5
330
1F
100
AcDbEntity
  8
Object
100
AcDbLine
 10
7.126359628698203
 20
4.531078819870084
 30
0.0
 11
7.122359628698204
 21
4.527078819870084
 31
0.0
  0
LINE
  5
1F6
330
1F
100
AcDbEntity
  8
Object
100
AcDbLine
 10
7.257359628698203
 20
4.759078819870085
 30
0.0
 11
7.262359628698202
 21
4.760078819870084
 31
0.0
  0
LINE
  5
1F7
330
1F
100
AcDbEntity
  8
Object
100
AcDbLine
 10
7.117359628698203
 20
4.760078819870084
 30
0.0
 11
7.122359628698204
 21
4.759078819870085
 31
0.0
  0
LINE
  5
1F8
330
1F
100
AcDbEntity
  8
Object
100
AcDbLine
 10
7.067359628698204
 20
4.401078819870084
 30
0.0
 11
7.312359628698203
 21
4.401078819870084
 31
0.0
  0
LINE
  5
1F9
330
1F
100
AcDbEntity
  8
Object
100
AcDbLine
 10
7.122359628698204
 20
4.527078819870084
 30
0.0
 11
7.117359628698203
 21
4.526078819870084
 31
0.0
  0
LINE
  5
1FA
330
1F
100
AcDbEntity
  8
Object
100
AcDbLine
 10
7.052359628698203
 20
4.511078819870085
 30
0.0
 11
7.054359628698204
 21
4.518078819870084
 31
0.0
  0
LINE
  5
1FB
330
1F
100
AcDbEntity
  8
Object
100
AcDbLine
 10
7.054359628698204
 20
4.518078819870084
 30
0.0
 11
7.060359628698204
 21
4.524078819870084
 31
0.0
  0
LINE
  5
1FC
330
1F
100
AcDbEntity
  8
Object
100
AcDbLine
 10
7.060359628698204
 20
4.524078819870084
 30
0.0
 11
7.067359628698204
 21
4.526078819870084
 31
0.0
  0
LINE
  5
1FD
330
1F
100
AcDbEntity
  8
Object
100
AcDbLine
 10
7.067359628698204
 20
4.526078819870084
 30
0.0
 11
7.117359628698203
 21
4.526078819870084
 31
0.0
  0
LINE
  5
1FE
330
1F
100
AcDbEntity
  8
Object
100
AcDbLine
 10
7.067359628698204
 20
4.401078819870084
 30
0.0
 11
7.060359628698204
 21
4.403078819870085
 31
0.0
  0
LINE
  5
1FF
330
1F
100
AcDbEntity
  8
Object
100
AcDbLine
 10
7.060359628698204
 20
4.403078819870085
 30
0.0
 11
7.054359628698204
 21
4.408078819870084
 31
0.0
  0
LINE
  5
200
330
1F
100
AcDbEntity
  8
Object
100
AcDbLine
 10
7.054359628698204
 20
4.408078819870084
 30
0.0
 11
7.052359628698203
 21
4.416078819870085
 31
0.0
  0
LINE
  5
201
330
1F
100
AcDbEntity
  8
Object
100
AcDbLine
 10
7.052359628698203
 20
4.416078819870085
 30
0.0
 11
7.052359628698203
 21
4.511078819870085
 31
0.0
  0
LINE
  5
202
330
1F
100
AcDbEntity
  8
Object
100
AcDbLine
 10
6.444359628698205
 20
4.524078819870084
 30
0.0
 11
6.450359628698205
 21
4.518078819870084
 31
0.0
  0
LINE
  5
203
330
1F
100
AcDbEntity
  8
Object
100
AcDbLine
 10
6.450359628698205
 20
4.518078819870084
 30
0.0
 11
6.452359628698204
 21
4.511078819870085
 31
0.0
  0
LINE
  5
204
330
1F
100
AcDbEntity
  8
Object
100
AcDbLine
 10
6.452359628698204
 20
4.416078819870085
 30
0.0
 11
6.450359628698205
 21
4.408078819870084
 31
0.0
  0
LINE
  5
205
330
1F
100
AcDbEntity
  8
Object
100
AcDbLine
 10
6.450359628698205
 20
4.408078819870084
 30
0.0
 11
6.444359628698205
 21
4.403078819870085
 31
0.0
  0
LINE
  5
206
330
1F
100
AcDbEntity
  8
Object
100
AcDbLine
 10
6.444359628698205
 20
4.524078819870084
 30
0.0
 11
6.437359628698203
 21
4.526078819870084
 31
0.0
  0
LINE
  5
207
330
1F
100
AcDbEntity
  8
Object
100
AcDbLine
 10
6.437359628698203
 20
4.401078819870084
 30
0.0
 11
6.444359628698205
 21
4.403078819870085
 31
0.0
  0
LINE
  5
208
330
1F
100
AcDbEntity
  8
Object
100
AcDbLine
 10
6.437359628698203
 20
4.526078819870084
 30
0.0
 11
6.387359628698202
 21
4.526078819870084
 31
0.0
  0
LINE
  5
209
330
1F
100
AcDbEntity
  8
Object
100
AcDbLine
 10
6.452359628698204
 20
4.416078819870085
 30
0.0
 11
6.452359628698204
 21
4.511078819870085
 31
0.0
  0
LINE
  5
20A
330
1F
100
AcDbEntity
  8
Object
100
AcDbLine
 10
6.387359628698202
 20
4.526078819870084
 30
0.0
 11
6.382359628698203
 21
4.527078819870084
 31
0.0
  0
LINE
  5
20B
330
1F
100
AcDbEntity
  8
Object
100
AcDbLine
 10
6.377359628698204
 20
4.536078819870084
 30
0.0
 11
6.377359628698204
 21
4.750078819870084
 31
0.0
  0
LINE
  5
20C
330
1F
100
AcDbEntity
  8
Object
100
AcDbLine
 10
6.252359628698204
 20
4.750078819870084
 30
0.0
 11
6.252359628698204
 21
4.536078819870084
 31
0.0
  0
LINE
  5
20D
330
1F
100
AcDbEntity
  8
Object
100
AcDbLine
 10
6.382359628698203
 20
4.759078819870085
 30
0.0
 11
6.378359628698204
 21
4.755078819870084
 31
0.0
  0
LINE
  5
20E
330
1F
100
AcDbEntity
  8
Object
100
AcDbLine
 10
6.378359628698204
 20
4.755078819870084
 30
0.0
 11
6.377359628698204
 21
4.750078819870084
 31
0.0
  0
LINE
  5
20F
330
1F
100
AcDbEntity
  8
Object
100
AcDbLine
 10
6.252359628698204
 20
4.536078819870084
 30
0.0
 11
6.250359628698204
 21
4.531078819870084
 31
0.0
  0
LINE
  5
210
330
1F
100
AcDbEntity
  8
Object
100
AcDbLine
 10
6.377359628698204
 20
4.536078819870084
 30
0.0
 11
6.378359628698204
 21
4.531078819870084
 31
0.0
  0
LINE
  5
211
330
1F
100
AcDbEntity
  8
Object
100
AcDbLine
 10
6.378359628698204
 20
4.531078819870084
 30
0.0
 11
6.382359628698203
 21
4.527078819870084
 31
0.0
  0
LINE
  5
212
330
1F
100
AcDbEntity
  8
Object
100
AcDbLine
 10
6.252359628698204
 20
4.750078819870084
 30
0.0
 11
6.250359628698204
 21
4.755078819870084
 31
0.0
  0
LINE
  5
213
330
1F
100
AcDbEntity
  8
Object
100
AcDbLine
 10
6.250359628698204
 20
4.755078819870084
 30
0.0
 11
6.247359628698204
 21
4.759078819870085
 31
0.0
  0
LINE
  5
214
330
1F
100
AcDbEntity
  8
Object
100
AcDbLine
 10
6.250359628698204
 20
4.531078819870084
 30
0.0
 11
6.247359628698204
 21
4.527078819870084
 31
0.0
  0
LINE
  5
215
330
1F
100
AcDbEntity
  8
Object
100
AcDbLine
 10
6.382359628698203
 20
4.759078819870085
 30
0.0
 11
6.387359628698202
 21
4.760078819870084
 31
0.0
  0
LINE
  5
216
330
1F
100
AcDbEntity
  8
Object
100
AcDbLine
 10
6.242359628698203
 20
4.760078819870084
 30
0.0
 11
6.247359628698204
 21
4.759078819870085
 31
0.0
  0
LINE
  5
217
330
1F
100
AcDbEntity
  8
Object
100
AcDbLine
 10
6.247359628698204
 20
4.527078819870084
 30
0.0
 11
6.242359628698203
 21
4.526078819870084
 31
0.0
  0
LINE
  5
218
330
1F
100
AcDbEntity
  8
Object
100
AcDbLine
 10
6.192359628698204
 20
4.401078819870084
 30
0.0
 11
6.437359628698203
 21
4.401078819870084
 31
0.0
  0
LINE
  5
219
330
1F
100
AcDbEntity
  8
Object
100
AcDbLine
 10
6.177359628698203
 20
4.511078819870085
 30
0.0
 11
6.179359628698204
 21
4.518078819870084
 31
0.0
  0
LINE
  5
21A
330
1F
100
AcDbEntity
  8
Object
100
AcDbLine
 10
6.179359628698204
 20
4.518078819870084
 30
0.0
 11
6.184359628698203
 21
4.524078819870084
 31
0.0
  0
LINE
  5
21B
330
1F
100
AcDbEntity
  8
Object
100
AcDbLine
 10
6.184359628698203
 20
4.524078819870084
 30
0.0
 11
6.192359628698204
 21
4.526078819870084
 31
0.0
  0
LINE
  5
21C
330
1F
100
AcDbEntity
  8
Object
100
AcDbLine
 10
6.192359628698204
 20
4.526078819870084
 30
0.0
 11
6.242359628698203
 21
4.526078819870084
 31
0.0
  0
LINE
  5
21D
330
1F
100
AcDbEntity
  8
Object
100
AcDbLine
 10
6.192359628698204
 20
4.401078819870084
 30
0.0
 11
6.184359628698203
 21
4.403078819870085
 31
0.0
  0
LINE
  5
21E
330
1F
100
AcDbEntity
  8
Object
100
AcDbLine
 10
6.184359628698203
 20
4.403078819870085
 30
0.0
 11
6.179359628698204
 21
4.408078819870084
 31
0.0
  0
LINE
  5
21F
330
1F
100
AcDbEntity
  8
Object
100
AcDbLine
 10
6.179359628698204
 20
4.408078819870084
 30
0.0
 11
6.177359628698203
 21
4.416078819870085
 31
0.0
  0
LINE
  5
220
330
1F
100
AcDbEntity
  8
Object
100
AcDbLine
 10
6.177359628698203
 20
4.416078819870085
 30
0.0
 11
6.177359628698203
 21
4.511078819870085
 31
0.0
  0
LINE
  5
221
330
1F
100
AcDbEntity
  8
Object
100
AcDbLine
 10
3.816359628698204
 20
4.755078819870084
 30
0.0
 11
3.814359628698204
 21
4.750078819870084
 31
0.0
  0
LINE
  5
222
330
1F
100
AcDbEntity
  8
Object
100
AcDbLine
 10
3.814359628698204
 20
4.750078819870084
 30
0.0
 11
3.814359628698204
 21
4.476078819870084
 31
0.0
  0
LINE
  5
223
330
1F
100
AcDbEntity
  8
Object
100
AcDbLine
 10
3.689359628698204
 20
4.536078819870084
 30
0.0
 11
3.689359628698204
 21
4.750078819870084
 31
0.0
  0
LINE
  5
224
330
1F
100
AcDbEntity
  8
Object
100
AcDbLine
 10
3.689359628698204
 20
4.750078819870084
 30
0.0
 11
3.688359628698204
 21
4.755078819870084
 31
0.0
  0
LINE
  5
225
330
1F
100
AcDbEntity
  8
Object
100
AcDbLine
 10
3.689359628698204
 20
4.536078819870084
 30
0.0
 11
3.688359628698204
 21
4.531078819870084
 31
0.0
  0
LINE
  5
226
330
1F
100
AcDbEntity
  8
Object
100
AcDbLine
 10
3.814359628698204
 20
4.476078819870084
 30
0.0
 11
3.809359628698203
 21
4.447078819870085
 31
0.0
  0
LINE
  5
227
330
1F
100
AcDbEntity
  8
Object
100
AcDbLine
 10
3.809359628698203
 20
4.447078819870085
 30
0.0
 11
3.792359628698203
 21
4.423078819870084
 31
0.0
  0
LINE
  5
228
330
1F
100
AcDbEntity
  8
Object
100
AcDbLine
 10
3.792359628698203
 20
4.423078819870084
 30
0.0
 11
3.768359628698203
 21
4.407078819870084
 31
0.0
  0
LINE
  5
229
330
1F
100
AcDbEntity
  8
Object
100
AcDbLine
 10
3.768359628698203
 20
4.407078819870084
 30
0.0
 11
3.739359628698203
 21
4.401078819870084
 31
0.0
  0
LINE
  5
22A
330
1F
100
AcDbEntity
  8
Object
100
AcDbLine
 10
3.684359628698203
 20
4.759078819870085
 30
0.0
 11
3.688359628698204
 21
4.755078819870084
 31
0.0
  0
LINE
  5
22B
330
1F
100
AcDbEntity
  8
Object
100
AcDbLine
 10
3.816359628698204
 20
4.755078819870084
 30
0.0
 11
3.819359628698205
 21
4.759078819870085
 31
0.0
  0
LINE
  5
22C
330
1F
100
AcDbEntity
  8
Object
100
AcDbLine
 10
3.688359628698204
 20
4.531078819870084
 30
0.0
 11
3.684359628698203
 21
4.527078819870084
 31
0.0
  0
LINE
  5
22D
330
1F
100
AcDbEntity
  8
Object
100
AcDbLine
 10
3.819359628698205
 20
4.759078819870085
 30
0.0
 11
3.824359628698204
 21
4.760078819870084
 31
0.0
  0
LINE
  5
22E
330
1F
100
AcDbEntity
  8
Object
100
AcDbLine
 10
3.679359628698204
 20
4.760078819870084
 30
0.0
 11
3.684359628698203
 21
4.759078819870085
 31
0.0
  0
LINE
  5
22F
330
1F
100
AcDbEntity
  8
Object
100
AcDbLine
 10
3.684359628698203
 20
4.527078819870084
 30
0.0
 11
3.679359628698204
 21
4.526078819870084
 31
0.0
  0
LINE
  5
230
330
1F
100
AcDbEntity
  8
Object
100
AcDbLine
 10
3.679359628698204
 20
4.526078819870084
 30
0.0
 11
3.479359628698205
 21
4.526078819870084
 31
0.0
  0
LINE
  5
231
330
1F
100
AcDbEntity
  8
Object
100
AcDbLine
 10
3.479359628698205
 20
4.401078819870084
 30
0.0
 11
3.739359628698203
 21
4.401078819870084
 31
0.0
  0
LINE
  5
232
330
1F
100
AcDbEntity
  8
Object
100
AcDbLine
 10
3.464359628698204
 20
4.511078819870085
 30
0.0
 11
3.466359628698203
 21
4.518078819870084
 31
0.0
  0
LINE
  5
233
330
1F
100
AcDbEntity
  8
Object
100
AcDbLine
 10
3.466359628698203
 20
4.518078819870084
 30
0.0
 11
3.472359628698203
 21
4.524078819870084
 31
0.0
  0
LINE
  5
234
330
1F
100
AcDbEntity
  8
Object
100
AcDbLine
 10
3.472359628698203
 20
4.524078819870084
 30
0.0
 11
3.479359628698205
 21
4.526078819870084
 31
0.0
  0
LINE
  5
235
330
1F
100
AcDbEntity
  8
Object
100
AcDbLine
 10
3.464359628698204
 20
4.511078819870085
 30
0.0
 11
3.464359628698204
 21
4.416078819870085
 31
0.0
  0
LINE
  5
236
330
1F
100
AcDbEntity
  8
Object
100
AcDbLine
 10
3.479359628698205
 20
4.401078819870084
 30
0.0
 11
3.472359628698203
 21
4.403078819870085
 31
0.0
  0
LINE
  5
237
330
1F
100
AcDbEntity
  8
Object
100
AcDbLine
 10
3.472359628698203
 20
4.403078819870085
 30
0.0
 11
3.466359628698203
 21
4.408078819870084
 31
0.0
  0
LINE
  5
238
330
1F
100
AcDbEntity
  8
Object
100
AcDbLine
 10
3.466359628698203
 20
4.408078819870084
 30
0.0
 11
3.464359628698204
 21
4.416078819870085
 31
0.0
  0
LINE
  5
239
330
1F
100
AcDbEntity
  8
Object
100
AcDbLine
 10
3.157359628698204
 20
4.524078819870084
 30
0.0
 11
3.162359628698204
 21
4.518078819870084
 31
0.0
  0
LINE
  5
23A
330
1F
100
AcDbEntity
  8
Object
100
AcDbLine
 10
3.162359628698204
 20
4.518078819870084
 30
0.0
 11
3.164359628698203
 21
4.511078819870085
 31
0.0
  0
LINE
  5
23B
330
1F
100
AcDbEntity
  8
Object
100
AcDbLine
 10
3.164359628698203
 20
4.416078819870085
 30
0.0
 11
3.162359628698204
 21
4.408078819870084
 31
0.0
  0
LINE
  5
23C
330
1F
100
AcDbEntity
  8
Object
100
AcDbLine
 10
3.162359628698204
 20
4.408078819870084
 30
0.0
 11
3.157359628698204
 21
4.403078819870085
 31
0.0
  0
LINE
  5
23D
330
1F
100
AcDbEntity
  8
Object
100
AcDbLine
 10
3.157359628698204
 20
4.524078819870084
 30
0.0
 11
3.149359628698203
 21
4.526078819870084
 31
0.0
  0
LINE
  5
23E
330
1F
100
AcDbEntity
  8
Object
100
AcDbLine
 10
3.164359628698203
 20
4.416078819870085
 30
0.0
 11
3.164359628698203
 21
4.511078819870085
 31
0.0
  0
LINE
  5
23F
330
1F
100
AcDbEntity
  8
Object
100
AcDbLine
 10
3.149359628698203
 20
4.401078819870084
 30
0.0
 11
3.157359628698204
 21
4.403078819870085
 31
0.0
  0
LINE
  5
240
330
1F
100
AcDbEntity
  8
Object
100
AcDbLine
 10
3.149359628698203
 20
4.526078819870084
 30
0.0
 11
2.949359628698204
 21
4.526078819870084
 31
0.0
  0
LINE
  5
241
330
1F
100
AcDbEntity
  8
Object
100
AcDbLine
 10
2.814359628698204
 20
4.750078819870084
 30
0.0
 11
2.814359628698204
 21
4.536078819870084
 31
0.0
  0
LINE
  5
242
330
1F
100
AcDbEntity
  8
Object
100
AcDbLine
 10
2.939359628698204
 20
4.750078819870084
 30
0.0
 11
2.939359628698204
 21
4.536078819870084
 31
0.0
  0
LINE
  5
243
330
1F
100
AcDbEntity
  8
Object
100
AcDbLine
 10
2.939359628698204
 20
4.536078819870084
 30
0.0
 11
2.941359628698204
 21
4.531078819870084
 31
0.0
  0
LINE
  5
244
330
1F
100
AcDbEntity
  8
Object
100
AcDbLine
 10
2.941359628698204
 20
4.531078819870084
 30
0.0
 11
2.944359628698205
 21
4.527078819870084
 31
0.0
  0
LINE
  5
245
330
1F
100
AcDbEntity
  8
Object
100
AcDbLine
 10
2.814359628698204
 20
4.536078819870084
 30
0.0
 11
2.813359628698204
 21
4.531078819870084
 31
0.0
  0
LINE
  5
246
330
1F
100
AcDbEntity
  8
Object
100
AcDbLine
 10
2.813359628698204
 20
4.755078819870084
 30
0.0
 11
2.814359628698204
 21
4.750078819870084
 31
0.0
  0
LINE
  5
247
330
1F
100
AcDbEntity
  8
Object
100
AcDbLine
 10
2.939359628698204
 20
4.750078819870084
 30
0.0
 11
2.941359628698204
 21
4.755078819870084
 31
0.0
  0
LINE
  5
248
330
1F
100
AcDbEntity
  8
Object
100
AcDbLine
 10
2.949359628698204
 20
4.760078819870084
 30
0.0
 11
2.944359628698205
 21
4.759078819870085
 31
0.0
  0
LINE
  5
249
330
1F
100
AcDbEntity
  8
Object
100
AcDbLine
 10
2.944359628698205
 20
4.759078819870085
 30
0.0
 11
2.941359628698204
 21
4.755078819870084
 31
0.0
  0
LINE
  5
24A
330
1F
100
AcDbEntity
  8
Object
100
AcDbLine
 10
2.813359628698204
 20
4.531078819870084
 30
0.0
 11
2.809359628698203
 21
4.527078819870084
 31
0.0
  0
LINE
  5
24B
330
1F
100
AcDbEntity
  8
Object
100
AcDbLine
 10
2.809359628698203
 20
4.759078819870085
 30
0.0
 11
2.813359628698204
 21
4.755078819870084
 31
0.0
  0
LINE
  5
24C
330
1F
100
AcDbEntity
  8
Object
100
AcDbLine
 10
2.809359628698203
 20
4.527078819870084
 30
0.0
 11
2.804359628698204
 21
4.526078819870084
 31
0.0
  0
LINE
  5
24D
330
1F
100
AcDbEntity
  8
Object
100
AcDbLine
 10
2.949359628698204
 20
4.526078819870084
 30
0.0
 11
2.944359628698205
 21
4.527078819870084
 31
0.0
  0
LINE
  5
24E
330
1F
100
AcDbEntity
  8
Object
100
AcDbLine
 10
2.804359628698204
 20
4.760078819870084
 30
0.0
 11
2.809359628698203
 21
4.759078819870085
 31
0.0
  0
LINE
  5
24F
330
1F
100
AcDbEntity
  8
Object
100
AcDbLine
 10
2.604359628698205
 20
4.401078819870084
 30
0.0
 11
3.149359628698203
 21
4.401078819870084
 31
0.0
  0
LINE
  5
250
330
1F
100
AcDbEntity
  8
Object
100
AcDbLine
 10
2.804359628698204
 20
4.526078819870084
 30
0.0
 11
2.604359628698205
 21
4.526078819870084
 31
0.0
  0
LINE
  5
251
330
1F
100
AcDbEntity
  8
Object
100
AcDbLine
 10
2.604359628698205
 20
4.526078819870084
 30
0.0
 11
2.597359628698203
 21
4.524078819870084
 31
0.0
  0
LINE
  5
252
330
1F
100
AcDbEntity
  8
Object
100
AcDbLine
 10
2.589359628698204
 20
4.511078819870085
 30
0.0
 11
2.591359628698203
 21
4.518078819870084
 31
0.0
  0
LINE
  5
253
330
1F
100
AcDbEntity
  8
Object
100
AcDbLine
 10
2.591359628698203
 20
4.518078819870084
 30
0.0
 11
2.597359628698203
 21
4.524078819870084
 31
0.0
  0
LINE
  5
254
330
1F
100
AcDbEntity
  8
Object
100
AcDbLine
 10
2.597359628698203
 20
4.403078819870085
 30
0.0
 11
2.591359628698203
 21
4.408078819870084
 31
0.0
  0
LINE
  5
255
330
1F
100
AcDbEntity
  8
Object
100
AcDbLine
 10
2.591359628698203
 20
4.408078819870084
 30
0.0
 11
2.589359628698204
 21
4.416078819870085
 31
0.0
  0
LINE
  5
256
330
1F
100
AcDbEntity
  8
Object
100
AcDbLine
 10
2.597359628698203
 20
4.403078819870085
 30
0.0
 11
2.604359628698205
 21
4.401078819870084
 31
0.0
  0
LINE
  5
257
330
1F
100
AcDbEntity
  8
Object
100
AcDbLine
 10
2.589359628698204
 20
4.511078819870085
 30
0.0
 11
2.589359628698204
 21
4.416078819870085
 31
0.0
  0
LINE
  5
258
330
1F
100
AcDbEntity
  8
Object
100
AcDbLine
 10
8.072359628698205
 20
4.760078819870084
 30
0.0
 11
8.802359628698203
 21
4.760078819870084
 31
0.0
  0
LINE
  5
259
330
1F
100
AcDbEntity
  8
Object
100
AcDbLine
 10
14.4643596286982
 20
4.885078819870084
 30
0.0
 11
2.410359628698204
 21
4.885078819870084
 31
0.0
  0
LINE
  5
25A
330
1F
100
AcDbEntity
  8
Object
100
AcDbLine
 10
7.262359628698202
 20
4.760078819870084
 30
0.0
 11
7.927359628698203
 21
4.760078819870084
 31
0.0
  0
LINE
  5
25B
330
1F
100
AcDbEntity
  8
Object
100
AcDbLine
 10
6.387359628698202
 20
4.760078819870084
 30
0.0
 11
7.117359628698203
 21
4.760078819870084
 31
0.0
  0
LINE
  5
25C
330
1F
100
AcDbEntity
  8
Object
100
AcDbLine
 10
3.824359628698204
 20
4.760078819870084
 30
0.0
 11
6.242359628698203
 21
4.760078819870084
 31
0.0
  0
LINE
  5
25D
330
1F
100
AcDbEntity
  8
Object
100
AcDbLine
 10
2.949359628698204
 20
4.760078819870084
 30
0.0
 11
3.679359628698204
 21
4.760078819870084
 31
0.0
  0
LINE
  5
25E
330
1F
100
AcDbEntity
  8
Object
100
AcDbLine
 10
2.804359628698204
 20
4.760078819870084
 30
0.0
 11
2.410359628698204
 21
4.760078819870084
 31
0.0
  0
LINE
  5
25F
330
1F
100
AcDbEntity
  8
Object
100
AcDbLine
 10
2.410359628698204
 20
4.760078819870084
 30
0.0
 11
2.328359628698203
 21
4.767078819870084
 31
0.0
  0
LINE
  5
260
330
1F
100
AcDbEntity
  8
Object
100
AcDbLine
 10
2.410359628698204
 20
4.885078819870084
 30
0.0
 11
2.341359628698203
 21
4.891078819870084
 31
0.0
  0
LINE
  5
261
330
1F
100
AcDbEntity
  8
Object
100
AcDbLine
 10
2.341359628698203
 20
4.891078819870084
 30
0.0
 11
2.276359628698203
 21
4.910078819870085
 31
0.0
  0
LINE
  5
262
330
1F
100
AcDbEntity
  8
Object
100
AcDbLine
 10
2.249359628698204
 20
4.787078819870084
 30
0.0
 11
2.328359628698203
 21
4.767078819870084
 31
0.0
  0
LINE
  5
263
330
1F
100
AcDbEntity
  8
Object
100
AcDbLine
 10
2.176359628698204
 20
8.083078819870085
 30
0.0
 11
2.182359628698204
 21
8.060078819870085
 31
0.0
  0
LINE
  5
264
330
1F
100
AcDbEntity
  8
Object
100
AcDbLine
 10
2.182359628698204
 20
8.060078819870085
 30
0.0
 11
2.176359628698204
 21
8.037078819870085
 31
0.0
  0
LINE
  5
265
330
1F
100
AcDbEntity
  8
Object
100
AcDbLine
 10
2.175359628698203
 20
4.820078819870085
 30
0.0
 11
2.249359628698204
 21
4.787078819870084
 31
0.0
  0
LINE
  5
266
330
1F
100
AcDbEntity
  8
Object
100
AcDbLine
 10
2.276359628698203
 20
4.910078819870085
 30
0.0
 11
2.215359628698204
 21
4.941078819870084
 31
0.0
  0
LINE
  5
267
330
1F
100
AcDbEntity
  8
Object
100
AcDbLine
 10
2.182359628698204
 20
8.284078819870085
 30
0.0
 11
2.177359628698203
 21
8.259078819870085
 31
0.0
  0
LINE
  5
268
330
1F
100
AcDbEntity
  8
Object
100
AcDbLine
 10
2.177359628698203
 20
8.259078819870085
 30
0.0
 11
2.163359628698204
 21
8.238078819870084
 31
0.0
  0
LINE
  5
269
330
1F
100
AcDbEntity
  8
Object
100
AcDbLine
 10
2.159359628698204
 20
8.020078819870084
 30
0.0
 11
2.176359628698204
 21
8.037078819870085
 31
0.0
  0
LINE
  5
26A
330
1F
100
AcDbEntity
  8
Object
100
AcDbLine
 10
2.176359628698204
 20
8.083078819870085
 30
0.0
 11
2.159359628698204
 21
8.099078819870085
 31
0.0
  0
LINE
  5
26B
330
1F
100
AcDbEntity
  8
Object
100
AcDbLine
 10
2.142359628698203
 20
8.224078819870085
 30
0.0
 11
2.163359628698204
 21
8.238078819870084
 31
0.0
  0
LINE
  5
26C
330
1F
100
AcDbEntity
  8
Object
100
AcDbLine
 10
2.136359628698205
 20
8.014078819870086
 30
0.0
 11
2.159359628698204
 21
8.020078819870084
 31
0.0
  0
LINE
  5
26D
330
1F
100
AcDbEntity
  8
Object
100
AcDbLine
 10
2.117359628698203
 20
8.219078819870084
 30
0.0
 11
2.142359628698203
 21
8.224078819870085
 31
0.0
  0
LINE
  5
26E
330
1F
100
AcDbEntity
  8
Object
100
AcDbLine
 10
2.215359628698204
 20
4.941078819870084
 30
0.0
 11
2.161359628698203
 21
4.983078819870085
 31
0.0
  0
LINE
  5
26F
330
1F
100
AcDbEntity
  8
Object
100
AcDbLine
 10
2.106359628698204
 20
4.865078819870085
 30
0.0
 11
2.175359628698203
 21
4.820078819870085
 31
0.0
  0
LINE
  5
270
330
1F
100
AcDbEntity
  8
Object
100
AcDbLine
 10
2.159359628698204
 20
8.099078819870085
 30
0.0
 11
2.142359628698203
 21
8.109078819870084
 31
0.0
  0
LINE
  5
271
330
1F
100
AcDbEntity
  8
Object
100
AcDbLine
 10
2.098359628698204
 20
8.089078819870085
 30
0.0
 11
2.102359628698204
 21
8.109078819870084
 31
0.0
  0
LINE
  5
272
330
1F
100
AcDbEntity
  8
Object
100
AcDbLine
 10
2.102359628698204
 20
8.109078819870084
 30
0.0
 11
2.142359628698203
 21
8.109078819870084
 31
0.0
  0
LINE
  5
273
330
1F
100
AcDbEntity
  8
Object
100
AcDbLine
 10
2.182359628698204
 20
8.537078819870085
 30
0.0
 11
2.174359628698203
 21
8.605078819870085
 31
0.0
  0
LINE
  5
274
330
1F
100
AcDbEntity
  8
Object
100
AcDbLine
 10
2.057359628698204
 20
8.537078819870085
 30
0.0
 11
2.057359628698204
 21
8.364078819870083
 31
0.0
  0
LINE
  5
275
330
1F
100
AcDbEntity
  8
Object
100
AcDbLine
 10
2.182359628698204
 20
8.284078819870085
 30
0.0
 11
2.182359628698204
 21
8.537078819870085
 31
0.0
  0
LINE
  5
276
330
1F
100
AcDbEntity
  8
Object
100
AcDbLine
 10
2.057359628698204
 20
8.364078819870083
 30
0.0
 11
2.054359628698204
 21
8.354078819870085
 31
0.0
  0
LINE
  5
277
330
1F
100
AcDbEntity
  8
Object
100
AcDbLine
 10
2.050359628698203
 20
8.585078819870084
 30
0.0
 11
2.057359628698204
 21
8.537078819870085
 31
0.0
  0
LINE
  5
278
330
1F
100
AcDbEntity
  8
Object
100
AcDbLine
 10
2.174359628698203
 20
8.605078819870085
 30
0.0
 11
2.152359628698203
 21
8.670078819870084
 31
0.0
  0
LINE
  5
279
330
1F
100
AcDbEntity
  8
Object
100
AcDbLine
 10
2.054359628698204
 20
8.354078819870085
 30
0.0
 11
2.047359628698202
 21
8.347078819870084
 31
0.0
  0
LINE
  5
27A
330
1F
100
AcDbEntity
  8
Object
100
AcDbLine
 10
2.161359628698203
 20
4.983078819870085
 30
0.0
 11
2.115359628698204
 21
5.034078819870084
 31
0.0
  0
LINE
  5
27B
330
1F
100
AcDbEntity
  8
Object
100
AcDbLine
 10
2.047359628698202
 20
4.921078819870084
 30
0.0
 11
2.106359628698204
 21
4.865078819870085
 31
0.0
  0
LINE
  5
27C
330
1F
100
AcDbEntity
  8
Object
100
AcDbLine
 10
2.047359628698202
 20
8.347078819870084
 30
0.0
 11
2.037359628698204
 21
8.344078819870084
 31
0.0
  0
LINE
  5
27D
330
1F
100
AcDbEntity
  8
Object
100
AcDbLine
 10
2.152359628698203
 20
8.670078819870084
 30
0.0
 11
2.117359628698203
 21
8.729078819870085
 31
0.0
  0
LINE
  5
27E
330
1F
100
AcDbEntity
  8
Object
100
AcDbLine
 10
2.050359628698203
 20
8.585078819870084
 30
0.0
 11
2.032359628698204
 21
8.631078819870085
 31
0.0
  0
LINE
  5
27F
330
1F
100
AcDbEntity
  8
Object
100
AcDbLine
 10
2.032359628698204
 20
8.631078819870085
 30
0.0
 11
2.003359628698204
 21
8.670078819870084
 31
0.0
  0
LINE
  5
280
330
1F
100
AcDbEntity
  8
Object
100
AcDbLine
 10
2.117359628698203
 20
8.729078819870085
 30
0.0
 11
2.069359628698205
 21
8.779078819870084
 31
0.0
  0
LINE
  5
281
330
1F
100
AcDbEntity
  8
Object
100
AcDbLine
 10
2.115359628698204
 20
5.034078819870084
 30
0.0
 11
2.080359628698204
 21
5.093078819870084
 31
0.0
  0
LINE
  5
282
330
1F
100
AcDbEntity
  8
Object
100
AcDbLine
 10
1.997359628698204
 20
4.985078819870084
 30
0.0
 11
2.047359628698202
 21
4.921078819870084
 31
0.0
  0
LINE
  5
283
330
1F
100
AcDbEntity
  8
Object
100
AcDbLine
 10
2.069359628698205
 20
8.779078819870084
 30
0.0
 11
2.012359628698202
 21
8.818078819870084
 31
0.0
  0
LINE
  5
284
330
1F
100
AcDbEntity
  8
Object
100
AcDbLine
 10
1.965359628698204
 20
8.701078819870083
 30
0.0
 11
2.003359628698204
 21
8.670078819870084
 31
0.0
  0
LINE
  5
285
330
1F
100
AcDbEntity
  8
Object
100
AcDbLine
 10
1.959359628698203
 20
5.058078819870084
 30
0.0
 11
1.997359628698204
 21
4.985078819870084
 31
0.0
  0
LINE
  5
286
330
1F
100
AcDbEntity
  8
Object
100
AcDbLine
 10
2.080359628698204
 20
5.093078819870084
 30
0.0
 11
2.057359628698204
 21
5.157078819870084
 31
0.0
  0
LINE
  5
287
330
1F
100
AcDbEntity
  8
Object
100
AcDbLine
 10
1.955359628698204
 20
8.704078819870083
 30
0.0
 11
1.965359628698204
 21
8.701078819870083
 31
0.0
  0
LINE
  5
288
330
1F
100
AcDbEntity
  8
Object
100
AcDbLine
 10
2.012359628698202
 20
8.818078819870084
 30
0.0
 11
1.948359628698204
 21
8.843078819870084
 31
0.0
  0
LINE
  5
289
330
1F
100
AcDbEntity
  8
Object
100
AcDbLine
 10
1.955359628698204
 20
8.704078819870083
 30
0.0
 11
1.944359628698205
 21
8.703078819870086
 31
0.0
  0
LINE
  5
28A
330
1F
100
AcDbEntity
  8
Object
100
AcDbLine
 10
1.944359628698205
 20
8.703078819870086
 30
0.0
 11
1.935359628698204
 21
8.698078819870085
 31
0.0
  0
LINE
  5
28B
330
1F
100
AcDbEntity
  8
Object
100
AcDbLine
 10
2.057359628698204
 20
5.157078819870084
 30
0.0
 11
2.045359628698204
 21
5.224078819870085
 31
0.0
  0
LINE
  5
28C
330
1F
100
AcDbEntity
  8
Object
100
AcDbLine
 10
1.959359628698203
 20
5.058078819870084
 30
0.0
 11
1.933359628698203
 21
5.135078819870084
 31
0.0
  0
LINE
  5
28D
330
1F
100
AcDbEntity
  8
Object
100
AcDbLine
 10
1.933359628698203
 20
5.135078819870084
 30
0.0
 11
1.921359628698203
 21
5.216078819870084
 31
0.0
  0
LINE
  5
28E
330
1F
100
AcDbEntity
  8
Object
100
AcDbLine
 10
1.927359628698203
 20
8.515078819870083
 30
0.0
 11
1.920359628698204
 21
8.492078819870084
 31
0.0
  0
LINE
  5
28F
330
1F
100
AcDbEntity
  8
Object
100
AcDbLine
 10
1.920359628698204
 20
8.492078819870084
 30
0.0
 11
1.904359628698204
 21
8.475078819870084
 31
0.0
  0
LINE
  5
290
330
1F
100
AcDbEntity
  8
Object
100
AcDbLine
 10
1.904359628698204
 20
8.475078819870084
 30
0.0
 11
1.881359628698204
 21
8.469078819870084
 31
0.0
  0
LINE
  5
291
330
1F
100
AcDbEntity
  8
Object
100
AcDbLine
 10
1.948359628698204
 20
8.843078819870084
 30
0.0
 11
1.880359628698204
 21
8.854078819870085
 31
0.0
  0
LINE
  5
292
330
1F
100
AcDbEntity
  8
Object
100
AcDbLine
 10
1.877359628698204
 20
8.469078819870084
 30
0.0
 11
1.881359628698204
 21
8.469078819870084
 31
0.0
  0
LINE
  5
293
330
1F
100
AcDbEntity
  8
Object
100
AcDbLine
 10
1.872359628698204
 20
8.014078819870086
 30
0.0
 11
2.136359628698205
 21
8.014078819870086
 31
0.0
  0
LINE
  5
294
330
1F
100
AcDbEntity
  8
Object
100
AcDbLine
 10
2.098359628698204
 20
8.089078819870085
 30
0.0
 11
1.864359628698203
 21
8.089078819870085
 31
0.0
  0
LINE
  5
295
330
1F
100
AcDbEntity
  8
Object
100
AcDbLine
 10
1.864359628698203
 20
8.013078819870084
 30
0.0
 11
1.872359628698204
 21
8.014078819870086
 31
0.0
  0
LINE
  5
296
330
1F
100
AcDbEntity
  8
Object
100
AcDbLine
 10
1.857359628698205
 20
8.219078819870084
 30
0.0
 11
2.117359628698203
 21
8.219078819870084
 31
0.0
  0
LINE
  5
297
330
1F
100
AcDbEntity
  8
Object
100
AcDbLine
 10
1.855359628698204
 20
8.475078819870084
 30
0.0
 11
1.877359628698204
 21
8.469078819870084
 31
0.0
  0
LINE
  5
298
330
1F
100
AcDbEntity
  8
Object
100
AcDbLine
 10
1.857359628698205
 20
8.008078819870085
 30
0.0
 11
1.864359628698203
 21
8.013078819870084
 31
0.0
  0
LINE
  5
299
330
1F
100
AcDbEntity
  8
Object
100
AcDbLine
 10
1.864359628698203
 20
8.089078819870085
 30
0.0
 11
1.854359628698205
 21
8.092078819870085
 31
0.0
  0
LINE
  5
29A
330
1F
100
AcDbEntity
  8
Object
100
AcDbLine
 10
2.045359628698204
 20
5.224078819870085
 30
0.0
 11
1.852359628698204
 21
7.993078819870085
 31
0.0
  0
LINE
  5
29B
330
1F
100
AcDbEntity
  8
Object
100
AcDbLine
 10
1.854359628698205
 20
8.092078819870085
 30
0.0
 11
1.847359628698203
 21
8.098078819870085
 31
0.0
  0
LINE
  5
29C
330
1F
100
AcDbEntity
  8
Object
100
AcDbLine
 10
1.857359628698205
 20
8.008078819870085
 30
0.0
 11
1.853359628698203
 21
8.001078819870084
 31
0.0
  0
LINE
  5
29D
330
1F
100
AcDbEntity
  8
Object
100
AcDbLine
 10
1.853359628698203
 20
8.001078819870084
 30
0.0
 11
1.852359628698204
 21
7.993078819870085
 31
0.0
  0
LINE
  5
29E
330
1F
100
AcDbEntity
  8
Object
100
AcDbLine
 10
1.847359628698203
 20
8.098078819870085
 30
0.0
 11
1.844359628698203
 21
8.108078819870083
 31
0.0
  0
LINE
  5
29F
330
1F
100
AcDbEntity
  8
Object
100
AcDbLine
 10
1.838359628698203
 20
8.490078819870085
 30
0.0
 11
1.855359628698204
 21
8.475078819870084
 31
0.0
  0
LINE
  5
2A0
330
1F
100
AcDbEntity
  8
Object
100
AcDbLine
 10
1.927359628698203
 20
8.515078819870083
 30
0.0
 11
1.927359628698203
 21
8.680078819870084
 31
0.0
  0
LINE
  5
2A1
330
1F
100
AcDbEntity
  8
Object
100
AcDbLine
 10
1.831359628698203
 20
8.511078819870085
 30
0.0
 11
1.838359628698203
 21
8.490078819870085
 31
0.0
  0
LINE
  5
2A2
330
1F
100
AcDbEntity
  8
Object
100
AcDbLine
 10
1.851359628698205
 20
8.849078819870085
 30
0.0
 11
1.826359628698202
 21
8.832078819870083
 31
0.0
  0
LINE
  5
2A3
330
1F
100
AcDbEntity
  8
Object
100
AcDbLine
 10
1.927359628698203
 20
8.680078819870084
 30
0.0
 11
1.929359628698204
 21
8.690078819870084
 31
0.0
  0
LINE
  5
2A4
330
1F
100
AcDbEntity
  8
Object
100
AcDbLine
 10
1.807359628698204
 20
8.778078819870085
 30
0.0
 11
1.811359628698204
 21
8.807078819870085
 31
0.0
  0
LINE
  5
2A5
330
1F
100
AcDbEntity
  8
Object
100
AcDbLine
 10
1.811359628698204
 20
8.807078819870085
 30
0.0
 11
1.826359628698202
 21
8.832078819870083
 31
0.0
  0
LINE
  5
2A6
330
1F
100
AcDbEntity
  8
Object
100
AcDbLine
 10
1.880359628698204
 20
8.854078819870085
 30
0.0
 11
1.851359628698205
 21
8.849078819870085
 31
0.0
  0
LINE
  5
2A7
330
1F
100
AcDbEntity
  8
Object
100
AcDbLine
 10
1.929359628698204
 20
8.690078819870084
 30
0.0
 11
1.935359628698204
 21
8.698078819870085
 31
0.0
  0
LINE
  5
2A8
330
1F
100
AcDbEntity
  8
Object
100
AcDbLine
 10
1.807359628698204
 20
8.778078819870085
 30
0.0
 11
1.831359628698203
 21
8.511078819870085
 31
0.0
  0
LINE
  5
2A9
330
1F
100
AcDbEntity
  8
Object
100
AcDbLine
 10
2.037359628698204
 20
8.344078819870084
 30
0.0
 11
1.772359628698204
 21
8.344078819870084
 31
0.0
  0
LINE
  5
2AA
330
1F
100
AcDbEntity
  8
Object
100
AcDbLine
 10
1.857359628698205
 20
8.219078819870084
 30
0.0
 11
1.849359628698204
 21
8.218078819870084
 31
0.0
  0
LINE
  5
2AB
330
1F
100
AcDbEntity
  8
Object
100
AcDbLine
 10
1.849359628698204
 20
8.218078819870084
 30
0.0
 11
1.843359628698204
 21
8.213078819870084
 31
0.0
  0
LINE
  5
2AC
330
1F
100
AcDbEntity
  8
Object
100
AcDbLine
 10
1.843359628698204
 20
8.213078819870084
 30
0.0
 11
1.839359628698204
 21
8.206078819870086
 31
0.0
  0
LINE
  5
2AD
330
1F
100
AcDbEntity
  8
Object
100
AcDbLine
 10
1.839359628698204
 20
8.206078819870086
 30
0.0
 11
1.838359628698203
 21
8.198078819870085
 31
0.0
  0
LINE
  5
2AE
330
1F
100
AcDbEntity
  8
Object
100
AcDbLine
 10
1.838359628698203
 20
8.198078819870085
 30
0.0
 11
1.844359628698203
 21
8.108078819870083
 31
0.0
  0
LINE
  5
2AF
330
1F
100
AcDbEntity
  8
Object
100
AcDbLine
 10
1.707359628698203
 20
8.275078819870085
 30
0.0
 11
1.710359628698203
 21
8.301078819870085
 31
0.0
  0
LINE
  5
2B0
330
1F
100
AcDbEntity
  8
Object
100
AcDbLine
 10
1.710359628698203
 20
8.301078819870085
 30
0.0
 11
1.724359628698204
 21
8.324078819870084
 31
0.0
  0
LINE
  5
2B1
330
1F
100
AcDbEntity
  8
Object
100
AcDbLine
 10
1.724359628698204
 20
8.324078819870084
 30
0.0
 11
1.746359628698204
 21
8.339078819870085
 31
0.0
  0
LINE
  5
2B2
330
1F
100
AcDbEntity
  8
Object
100
AcDbLine
 10
1.746359628698204
 20
8.339078819870085
 30
0.0
 11
1.772359628698204
 21
8.344078819870084
 31
0.0
  0
LINE
  5
2B3
330
1F
100
AcDbEntity
  8
Object
100
AcDbLine
 10
1.707359628698203
 20
8.275078819870085
 30
0.0
 11
1.921359628698203
 21
5.216078819870084
 31
0.0
  0
LINE
  5
2B4
330
1F
100
AcDbEntity
  8
Object
100
AcDbLine
 10
7.127359628698204
 20
4.750078819870084
 30
0.0
 11
7.126359628698203
 21
4.755078819870084
 31
0.0
  0
LINE
  5
2B5
330
1F
100
AcDbEntity
  8
Object
100
AcDbLine
 10
7.126359628698203
 20
4.755078819870084
 30
0.0
 11
7.122359628698204
 21
4.759078819870085
 31
0.0
  0
LINE
  5
2B6
330
1F
100
AcDbEntity
  8
Object
100
AcDbLine
 10
7.122359628698204
 20
4.759078819870085
 30
0.0
 11
7.117359628698203
 21
4.760078819870084
 31
0.0
  0
LINE
  5
2B7
330
1F
100
AcDbEntity
  8
Object
100
AcDbLine
 10
7.127359628698204
 20
4.536078819870084
 30
0.0
 11
7.126359628698203
 21
4.531078819870084
 31
0.0
  0
LINE
  5
2B8
330
1F
100
AcDbEntity
  8
Object
100
AcDbLine
 10
7.126359628698203
 20
4.531078819870084
 30
0.0
 11
7.122359628698204
 21
4.527078819870084
 31
0.0
  0
LINE
  5
2B9
330
1F
100
AcDbEntity
  8
Object
100
AcDbLine
 10
7.122359628698204
 20
4.527078819870084
 30
0.0
 11
7.117359628698203
 21
4.526078819870084
 31
0.0
  0
LINE
  5
2BA
330
1F
100
AcDbEntity
  8
Object
100
AcDbLine
 10
7.262359628698202
 20
4.526078819870084
 30
0.0
 11
7.257359628698203
 21
4.527078819870084
 31
0.0
  0
LINE
  5
2BB
330
1F
100
AcDbEntity
  8
Object
100
AcDbLine
 10
7.257359628698203
 20
4.527078819870084
 30
0.0
 11
7.254359628698203
 21
4.531078819870084
 31
0.0
  0
LINE
  5
2BC
330
1F
100
AcDbEntity
  8
Object
100
AcDbLine
 10
7.254359628698203
 20
4.531078819870084
 30
0.0
 11
7.252359628698204
 21
4.536078819870084
 31
0.0
  0
LINE
  5
2BD
330
1F
100
AcDbEntity
  8
Object
100
AcDbLine
 10
8.012359628698202
 20
4.401078819870084
 30
0.0
 11
7.983359628698202
 21
4.407078819870084
 31
0.0
  0
LINE
  5
2BE
330
1F
100
AcDbEntity
  8
Object
100
AcDbLine
 10
7.983359628698202
 20
4.407078819870084
 30
0.0
 11
7.959359628698203
 21
4.423078819870084
 31
0.0
  0
LINE
  5
2BF
330
1F
100
AcDbEntity
  8
Object
100
AcDbLine
 10
7.959359628698203
 20
4.423078819870084
 30
0.0
 11
7.942359628698204
 21
4.447078819870085
 31
0.0
  0
LINE
  5
2C0
330
1F
100
AcDbEntity
  8
Object
100
AcDbLine
 10
7.942359628698204
 20
4.447078819870085
 30
0.0
 11
7.937359628698203
 21
4.476078819870084
 31
0.0
  0
LINE
  5
2C1
330
1F
100
AcDbEntity
  8
Object
100
AcDbLine
 10
8.072359628698205
 20
4.760078819870084
 30
0.0
 11
8.067359628698204
 21
4.759078819870085
 31
0.0
  0
LINE
  5
2C2
330
1F
100
AcDbEntity
  8
Object
100
AcDbLine
 10
8.067359628698204
 20
4.759078819870085
 30
0.0
 11
8.063359628698204
 21
4.755078819870084
 31
0.0
  0
LINE
  5
2C3
330
1F
100
AcDbEntity
  8
Object
100
AcDbLine
 10
8.063359628698204
 20
4.755078819870084
 30
0.0
 11
8.062359628698203
 21
4.750078819870084
 31
0.0
  0
LINE
  5
2C4
330
1F
100
AcDbEntity
  8
Object
100
AcDbLine
 10
8.802359628698203
 20
4.526078819870084
 30
0.0
 11
8.602359628698204
 21
4.526078819870084
 31
0.0
  0
LINE
  5
2C5
330
1F
100
AcDbEntity
  8
Object
100
AcDbLine
 10
9.611359628698204
 20
4.526078819870084
 30
0.0
 11
9.561359628698204
 21
4.526078819870084
 31
0.0
  0
LINE
  5
2C6
330
1F
100
AcDbEntity
  8
Object
100
AcDbLine
 10
10.4373596286982
 20
4.401078819870084
 30
0.0
 11
10.4293596286982
 21
4.403078819870085
 31
0.0
  0
LINE
  5
2C7
330
1F
100
AcDbEntity
  8
Object
100
AcDbLine
 10
10.4293596286982
 20
4.403078819870085
 30
0.0
 11
10.4243596286982
 21
4.408078819870084
 31
0.0
  0
LINE
  5
2C8
330
1F
100
AcDbEntity
  8
Object
100
AcDbLine
 10
10.4243596286982
 20
4.408078819870084
 30
0.0
 11
10.4223596286982
 21
4.416078819870085
 31
0.0
  0
LINE
  5
2C9
330
1F
100
AcDbEntity
  8
Object
100
AcDbLine
 10
13.1943596286982
 20
4.526078819870084
 30
0.0
 11
13.1893596286982
 21
4.527078819870084
 31
0.0
  0
LINE
  5
2CA
330
1F
100
AcDbEntity
  8
Object
100
AcDbLine
 10
13.1893596286982
 20
4.527078819870084
 30
0.0
 11
13.1853596286982
 21
4.531078819870084
 31
0.0
  0
LINE
  5
2CB
330
1F
100
AcDbEntity
  8
Object
100
AcDbLine
 10
13.1853596286982
 20
4.531078819870084
 30
0.0
 11
13.1843596286982
 21
4.536078819870084
 31
0.0
  0
LINE
  5
2CC
330
1F
100
AcDbEntity
  8
Object
100
AcDbLine
 10
2.142359628698203
 20
8.109078819870084
 30
0.0
 11
2.102359628698204
 21
8.109078819870084
 31
0.0
  0
LINE
  5
2CD
330
1F
100
AcDbEntity
  8
Object
100
AcDbLine
 10
1.880359628698204
 20
8.854078819870085
 30
0.0
 11
1.851359628698205
 21
8.849078819870085
 31
0.0
  0
LINE
  5
2CE
330
1F
100
AcDbEntity
  8
Object
100
AcDbLine
 10
1.851359628698205
 20
8.849078819870085
 30
0.0
 11
1.826359628698202
 21
8.832078819870083
 31
0.0
  0
LINE
  5
2CF
330
1F
100
AcDbEntity
  8
Object
100
AcDbLine
 10
1.826359628698202
 20
8.832078819870083
 30
0.0
 11
1.811359628698204
 21
8.807078819870085
 31
0.0
  0
LINE
  5
2D0
330
1F
100
AcDbEntity
  8
Object
100
AcDbLine
 10
1.811359628698204
 20
8.807078819870085
 30
0.0
 11
1.807359628698204
 21
8.778078819870085
 31
0.0
  0
LINE
  5
2D1
330
1F
100
AcDbEntity
  8
Object
100
AcDbLine
 10
3.689359628698204
 20
4.536078819870084
 30
0.0
 11
3.688359628698204
 21
4.531078819870084
 31
0.0
  0
LINE
  5
2D2
330
1F
100
AcDbEntity
  8
Object
100
AcDbLine
 10
3.688359628698204
 20
4.531078819870084
 30
0.0
 11
3.684359628698203
 21
4.527078819870084
 31
0.0
  0
LINE
  5
2D3
330
1F
100
AcDbEntity
  8
Object
100
AcDbLine
 10
3.684359628698203
 20
4.527078819870084
 30
0.0
 11
3.679359628698204
 21
4.526078819870084
 31
0.0
  0
LINE
  5
2D4
330
1F
100
AcDbEntity
  8
Object
100
AcDbLine
 10
3.479359628698205
 20
4.401078819870084
 30
0.0
 11
3.739359628698203
 21
4.401078819870084
 31
0.0
  0
LINE
  5
2D5
330
1F
100
AcDbEntity
  8
Object
100
AcDbLine
 10
6.242359628698203
 20
4.526078819870084
 30
0.0
 11
6.192359628698204
 21
4.526078819870084
 31
0.0
  0
LINE
  5
2D6
330
1F
100
AcDbEntity
  8
Object
100
AcDbLine
 10
7.067359628698204
 20
4.526078819870084
 30
0.0
 11
7.060359628698204
 21
4.524078819870084
 31
0.0
  0
LINE
  5
2D7
330
1F
100
AcDbEntity
  8
Object
100
AcDbLine
 10
7.060359628698204
 20
4.524078819870084
 30
0.0
 11
7.054359628698204
 21
4.518078819870084
 31
0.0
  0
LINE
  5
2D8
330
1F
100
AcDbEntity
  8
Object
100
AcDbLine
 10
7.054359628698204
 20
4.518078819870084
 30
0.0
 11
7.052359628698203
 21
4.511078819870085
 31
0.0
  0
LINE
  5
2D9
330
1F
100
AcDbEntity
  8
Object
100
AcDbLine
 10
10.6973596286982
 20
4.416078819870085
 30
0.0
 11
10.6953596286982
 21
4.408078819870084
 31
0.0
  0
LINE
  5
2DA
330
1F
100
AcDbEntity
  8
Object
100
AcDbLine
 10
10.6953596286982
 20
4.408078819870084
 30
0.0
 11
10.6893596286982
 21
4.403078819870085
 31
0.0
  0
LINE
  5
2DB
330
1F
100
AcDbEntity
  8
Object
100
AcDbLine
 10
10.6893596286982
 20
4.403078819870085
 30
0.0
 11
10.6823596286982
 21
4.401078819870084
 31
0.0
  0
LINE
  5
2DC
330
1F
100
AcDbEntity
  8
Object
100
AcDbLine
 10
13.1843596286982
 20
4.536078819870084
 30
0.0
 11
13.1843596286982
 21
4.750078819870084
 31
0.0
  0
LINE
  5
2DD
330
1F
100
AcDbEntity
  8
Object
100
AcDbLine
 10
13.7243596286982
 20
4.401078819870084
 30
0.0
 11
14.2693596286982
 21
4.401078819870084
 31
0.0
  0
LINE
  5
2DE
330
1F
100
AcDbEntity
  8
Object
100
AcDbLine
 10
14.9933596286982
 20
8.469078819870084
 30
0.0
 11
14.9703596286982
 21
8.475078819870084
 31
0.0
  0
LINE
  5
2DF
330
1F
100
AcDbEntity
  8
Object
100
AcDbLine
 10
14.9703596286982
 20
8.475078819870084
 30
0.0
 11
14.9533596286982
 21
8.492078819870084
 31
0.0
  0
LINE
  5
2E0
330
1F
100
AcDbEntity
  8
Object
100
AcDbLine
 10
14.9533596286982
 20
8.492078819870084
 30
0.0
 11
14.9473596286982
 21
8.515078819870083
 31
0.0
  0
LINE
  5
2E1
330
1F
100
AcDbEntity
  8
Object
100
AcDbLine
 10
15.0423596286982
 20
8.511078819870085
 30
0.0
 11
15.0353596286982
 21
8.490078819870085
 31
0.0
  0
LINE
  5
2E2
330
1F
100
AcDbEntity
  8
Object
100
AcDbLine
 10
15.0353596286982
 20
8.490078819870085
 30
0.0
 11
15.0183596286982
 21
8.475078819870084
 31
0.0
  0
LINE
  5
2E3
330
1F
100
AcDbEntity
  8
Object
100
AcDbLine
 10
15.0183596286982
 20
8.475078819870084
 30
0.0
 11
14.9963596286982
 21
8.469078819870084
 31
0.0
  0
LINE
  5
2E4
330
1F
100
AcDbEntity
  8
Object
100
AcDbLine
 10
15.0363596286982
 20
8.198078819870085
 30
0.0
 11
15.0293596286982
 21
8.108078819870083
 31
0.0
  0
LINE
  5
2E5
330
1F
100
AcDbEntity
  8
Object
100
AcDbLine
 10
15.0213596286982
 20
7.993078819870085
 30
0.0
 11
14.8283596286982
 21
5.224078819870085
 31
0.0
  0
LINE
  5
2E6
330
1F
100
AcDbEntity
  8
Object
100
AcDbLine
 10
1.872359628698204
 20
8.014078819870086
 30
0.0
 11
1.864359628698203
 21
8.013078819870084
 31
0.0
  0
LINE
  5
2E7
330
1F
100
AcDbEntity
  8
Object
100
AcDbLine
 10
1.864359628698203
 20
8.013078819870084
 30
0.0
 11
1.857359628698205
 21
8.008078819870085
 31
0.0
  0
LINE
  5
2E8
330
1F
100
AcDbEntity
  8
Object
100
AcDbLine
 10
1.857359628698205
 20
8.008078819870085
 30
0.0
 11
1.853359628698203
 21
8.001078819870084
 31
0.0
  0
LINE
  5
2E9
330
1F
100
AcDbEntity
  8
Object
100
AcDbLine
 10
1.853359628698203
 20
8.001078819870084
 30
0.0
 11
1.852359628698204
 21
7.993078819870085
 31
0.0
  0
LINE
  5
2EA
330
1F
100
AcDbEntity
  8
Object
100
AcDbLine
 10
1.857359628698205
 20
8.219078819870084
 30
0.0
 11
1.849359628698204
 21
8.218078819870084
 31
0.0
  0
LINE
  5
2EB
330
1F
100
AcDbEntity
  8
Object
100
AcDbLine
 10
1.849359628698204
 20
8.218078819870084
 30
0.0
 11
1.843359628698204
 21
8.213078819870084
 31
0.0
  0
LINE
  5
2EC
330
1F
100
AcDbEntity
  8
Object
100
AcDbLine
 10
1.843359628698204
 20
8.213078819870084
 30
0.0
 11
1.839359628698204
 21
8.206078819870086
 31
0.0
  0
LINE
  5
2ED
330
1F
100
AcDbEntity
  8
Object
100
AcDbLine
 10
1.839359628698204
 20
8.206078819870086
 30
0.0
 11
1.838359628698203
 21
8.198078819870085
 31
0.0
  0
LINE
  5
2EE
330
1F
100
AcDbEntity
  8
Object
100
AcDbLine
 10
1.877359628698204
 20
8.469078819870084
 30
0.0
 11
1.855359628698204
 21
8.475078819870084
 31
0.0
  0
LINE
  5
2EF
330
1F
100
AcDbEntity
  8
Object
100
AcDbLine
 10
1.855359628698204
 20
8.475078819870084
 30
0.0
 11
1.838359628698203
 21
8.490078819870085
 31
0.0
  0
LINE
  5
2F0
330
1F
100
AcDbEntity
  8
Object
100
AcDbLine
 10
1.838359628698203
 20
8.490078819870085
 30
0.0
 11
1.831359628698203
 21
8.511078819870085
 31
0.0
  0
LINE
  5
2F1
330
1F
100
AcDbEntity
  8
Object
100
AcDbLine
 10
2.410359628698204
 20
4.760078819870084
 30
0.0
 11
2.328359628698203
 21
4.767078819870084
 31
0.0
  0
LINE
  5
2F2
330
1F
100
AcDbEntity
  8
Object
100
AcDbLine
 10
2.328359628698203
 20
4.767078819870084
 30
0.0
 11
2.249359628698204
 21
4.787078819870084
 31
0.0
  0
LINE
  5
2F3
330
1F
100
AcDbEntity
  8
Object
100
AcDbLine
 10
2.249359628698204
 20
4.787078819870084
 30
0.0
 11
2.175359628698203
 21
4.820078819870085
 31
0.0
  0
LINE
  5
2F4
330
1F
100
AcDbEntity
  8
Object
100
AcDbLine
 10
2.175359628698203
 20
4.820078819870085
 30
0.0
 11
2.106359628698204
 21
4.865078819870085
 31
0.0
  0
LINE
  5
2F5
330
1F
100
AcDbEntity
  8
Object
100
AcDbLine
 10
2.106359628698204
 20
4.865078819870085
 30
0.0
 11
2.047359628698202
 21
4.921078819870084
 31
0.0
  0
LINE
  5
2F6
330
1F
100
AcDbEntity
  8
Object
100
AcDbLine
 10
2.047359628698202
 20
4.921078819870084
 30
0.0
 11
1.997359628698204
 21
4.985078819870084
 31
0.0
  0
LINE
  5
2F7
330
1F
100
AcDbEntity
  8
Object
100
AcDbLine
 10
1.997359628698204
 20
4.985078819870084
 30
0.0
 11
1.959359628698203
 21
5.058078819870084
 31
0.0
  0
LINE
  5
2F8
330
1F
100
AcDbEntity
  8
Object
100
AcDbLine
 10
1.959359628698203
 20
5.058078819870084
 30
0.0
 11
1.933359628698203
 21
5.135078819870084
 31
0.0
  0
LINE
  5
2F9
330
1F
100
AcDbEntity
  8
Object
100
AcDbLine
 10
1.933359628698203
 20
5.135078819870084
 30
0.0
 11
1.921359628698203
 21
5.216078819870084
 31
0.0
  0
LINE
  5
2FA
330
1F
100
AcDbEntity
  8
Object
100
AcDbLine
 10
3.164359628698203
 20
4.511078819870085
 30
0.0
 11
3.162359628698204
 21
4.518078819870084
 31
0.0
  0
LINE
  5
2FB
330
1F
100
AcDbEntity
  8
Object
100
AcDbLine
 10
3.162359628698204
 20
4.518078819870084
 30
0.0
 11
3.157359628698204
 21
4.524078819870084
 31
0.0
  0
LINE
  5
2FC
330
1F
100
AcDbEntity
  8
Object
100
AcDbLine
 10
3.157359628698204
 20
4.524078819870084
 30
0.0
 11
3.149359628698203
 21
4.526078819870084
 31
0.0
  0
LINE
  5
2FD
330
1F
100
AcDbEntity
  8
Object
100
AcDbLine
 10
2.949359628698204
 20
4.526078819870084
 30
0.0
 11
2.944359628698205
 21
4.527078819870084
 31
0.0
  0
LINE
  5
2FE
330
1F
100
AcDbEntity
  8
Object
100
AcDbLine
 10
2.944359628698205
 20
4.527078819870084
 30
0.0
 11
2.941359628698204
 21
4.531078819870084
 31
0.0
  0
LINE
  5
2FF
330
1F
100
AcDbEntity
  8
Object
100
AcDbLine
 10
2.941359628698204
 20
4.531078819870084
 30
0.0
 11
2.939359628698204
 21
4.536078819870084
 31
0.0
  0
LINE
  5
300
330
1F
100
AcDbEntity
  8
Object
100
AcDbLine
 10
7.262359628698202
 20
4.760078819870084
 30
0.0
 11
7.257359628698203
 21
4.759078819870085
 31
0.0
  0
LINE
  5
301
330
1F
100
AcDbEntity
  8
Object
100
AcDbLine
 10
7.257359628698203
 20
4.759078819870085
 30
0.0
 11
7.254359628698203
 21
4.755078819870084
 31
0.0
  0
LINE
  5
302
330
1F
100
AcDbEntity
  8
Object
100
AcDbLine
 10
7.254359628698203
 20
4.755078819870084
 30
0.0
 11
7.252359628698204
 21
4.750078819870084
 31
0.0
  0
LINE
  5
303
330
1F
100
AcDbEntity
  8
Object
100
AcDbLine
 10
8.012359628698202
 20
4.401078819870084
 30
0.0
 11
8.272359628698204
 21
4.401078819870084
 31
0.0
  0
LINE
  5
304
330
1F
100
AcDbEntity
  8
Object
100
AcDbLine
 10
8.062359628698203
 20
4.536078819870084
 30
0.0
 11
8.062359628698203
 21
4.750078819870084
 31
0.0
  0
LINE
  5
305
330
1F
100
AcDbEntity
  8
Object
100
AcDbLine
 10
8.812359628698203
 20
4.536078819870084
 30
0.0
 11
8.810359628698204
 21
4.531078819870084
 31
0.0
  0
LINE
  5
306
330
1F
100
AcDbEntity
  8
Object
100
AcDbLine
 10
8.810359628698204
 20
4.531078819870084
 30
0.0
 11
8.807359628698204
 21
4.527078819870084
 31
0.0
  0
LINE
  5
307
330
1F
100
AcDbEntity
  8
Object
100
AcDbLine
 10
8.807359628698204
 20
4.527078819870084
 30
0.0
 11
8.802359628698203
 21
4.526078819870084
 31
0.0
  0
LINE
  5
308
330
1F
100
AcDbEntity
  8
Object
100
AcDbLine
 10
8.587359628698203
 20
4.511078819870085
 30
0.0
 11
8.587359628698203
 21
4.416078819870085
 31
0.0
  0
LINE
  5
309
330
1F
100
AcDbEntity
  8
Object
100
AcDbLine
 10
10.6973596286982
 20
4.416078819870085
 30
0.0
 11
10.6973596286982
 21
4.511078819870085
 31
0.0
  0
LINE
  5
30A
330
1F
100
AcDbEntity
  8
Object
100
AcDbLine
 10
1.857359628698205
 20
8.219078819870084
 30
0.0
 11
2.117359628698203
 21
8.219078819870084
 31
0.0
  0
LINE
  5
30B
330
1F
100
AcDbEntity
  8
Object
100
AcDbLine
 10
2.057359628698204
 20
8.364078819870083
 30
0.0
 11
2.054359628698204
 21
8.354078819870085
 31
0.0
  0
LINE
  5
30C
330
1F
100
AcDbEntity
  8
Object
100
AcDbLine
 10
2.054359628698204
 20
8.354078819870085
 30
0.0
 11
2.047359628698202
 21
8.347078819870084
 31
0.0
  0
LINE
  5
30D
330
1F
100
AcDbEntity
  8
Object
100
AcDbLine
 10
2.047359628698202
 20
8.347078819870084
 30
0.0
 11
2.037359628698204
 21
8.344078819870084
 31
0.0
  0
LINE
  5
30E
330
1F
100
AcDbEntity
  8
Object
100
AcDbLine
 10
2.814359628698204
 20
4.750078819870084
 30
0.0
 11
2.813359628698204
 21
4.755078819870084
 31
0.0
  0
LINE
  5
30F
330
1F
100
AcDbEntity
  8
Object
100
AcDbLine
 10
2.813359628698204
 20
4.755078819870084
 30
0.0
 11
2.809359628698203
 21
4.759078819870085
 31
0.0
  0
LINE
  5
310
330
1F
100
AcDbEntity
  8
Object
100
AcDbLine
 10
2.809359628698203
 20
4.759078819870085
 30
0.0
 11
2.804359628698204
 21
4.760078819870084
 31
0.0
  0
LINE
  5
311
330
1F
100
AcDbEntity
  8
Object
100
AcDbLine
 10
6.437359628698203
 20
4.526078819870084
 30
0.0
 11
6.387359628698202
 21
4.526078819870084
 31
0.0
  0
LINE
  5
312
330
1F
100
AcDbEntity
  8
Object
100
AcDbLine
 10
9.821359628698203
 20
4.416078819870085
 30
0.0
 11
9.821359628698203
 21
4.511078819870085
 31
0.0
  0
LINE
  5
313
330
1F
100
AcDbEntity
  8
Object
100
AcDbLine
 10
9.756359628698204
 20
4.526078819870084
 30
0.0
 11
9.751359628698203
 21
4.527078819870084
 31
0.0
  0
LINE
  5
314
330
1F
100
AcDbEntity
  8
Object
100
AcDbLine
 10
9.751359628698203
 20
4.527078819870084
 30
0.0
 11
9.747359628698204
 21
4.531078819870084
 31
0.0
  0
LINE
  5
315
330
1F
100
AcDbEntity
  8
Object
100
AcDbLine
 10
9.747359628698204
 20
4.531078819870084
 30
0.0
 11
9.746359628698204
 21
4.536078819870084
 31
0.0
  0
LINE
  5
316
330
1F
100
AcDbEntity
  8
Object
100
AcDbLine
 10
10.4223596286982
 20
4.511078819870085
 30
0.0
 11
10.4223596286982
 21
4.416078819870085
 31
0.0
  0
LINE
  5
317
330
1F
100
AcDbEntity
  8
Object
100
AcDbLine
 10
10.6323596286982
 20
4.760078819870084
 30
0.0
 11
10.6273596286982
 21
4.759078819870085
 31
0.0
  0
LINE
  5
318
330
1F
100
AcDbEntity
  8
Object
100
AcDbLine
 10
10.6273596286982
 20
4.759078819870085
 30
0.0
 11
10.6233596286982
 21
4.755078819870084
 31
0.0
  0
LINE
  5
319
330
1F
100
AcDbEntity
  8
Object
100
AcDbLine
 10
10.6233596286982
 20
4.755078819870084
 30
0.0
 11
10.6223596286982
 21
4.750078819870084
 31
0.0
  0
LINE
  5
31A
330
1F
100
AcDbEntity
  8
Object
100
AcDbLine
 10
13.4093596286982
 20
4.416078819870085
 30
0.0
 11
13.4073596286982
 21
4.408078819870084
 31
0.0
  0
LINE
  5
31B
330
1F
100
AcDbEntity
  8
Object
100
AcDbLine
 10
13.4073596286982
 20
4.408078819870084
 30
0.0
 11
13.4013596286982
 21
4.403078819870085
 31
0.0
  0
LINE
  5
31C
330
1F
100
AcDbEntity
  8
Object
100
AcDbLine
 10
13.4013596286982
 20
4.403078819870085
 30
0.0
 11
13.3943596286982
 21
4.401078819870084
 31
0.0
  0
LINE
  5
31D
330
1F
100
AcDbEntity
  8
Object
100
AcDbLine
 10
13.1943596286982
 20
4.760078819870084
 30
0.0
 11
13.9243596286982
 21
4.760078819870084
 31
0.0
  0
LINE
  5
31E
330
1F
100
AcDbEntity
  8
Object
100
AcDbLine
 10
14.8283596286982
 20
5.224078819870085
 30
0.0
 11
14.8173596286982
 21
5.157078819870084
 31
0.0
  0
LINE
  5
31F
330
1F
100
AcDbEntity
  8
Object
100
AcDbLine
 10
14.8173596286982
 20
5.157078819870084
 30
0.0
 11
14.7933596286982
 21
5.093078819870084
 31
0.0
  0
LINE
  5
320
330
1F
100
AcDbEntity
  8
Object
100
AcDbLine
 10
14.7933596286982
 20
5.093078819870084
 30
0.0
 11
14.7583596286982
 21
5.034078819870084
 31
0.0
  0
LINE
  5
321
330
1F
100
AcDbEntity
  8
Object
100
AcDbLine
 10
14.7583596286982
 20
5.034078819870084
 30
0.0
 11
14.7133596286982
 21
4.983078819870085
 31
0.0
  0
LINE
  5
322
330
1F
100
AcDbEntity
  8
Object
100
AcDbLine
 10
14.7133596286982
 20
4.983078819870085
 30
0.0
 11
14.6583596286982
 21
4.941078819870084
 31
0.0
  0
LINE
  5
323
330
1F
100
AcDbEntity
  8
Object
100
AcDbLine
 10
14.6583596286982
 20
4.941078819870084
 30
0.0
 11
14.5973596286982
 21
4.910078819870085
 31
0.0
  0
LINE
  5
324
330
1F
100
AcDbEntity
  8
Object
100
AcDbLine
 10
14.5973596286982
 20
4.910078819870085
 30
0.0
 11
14.5323596286982
 21
4.891078819870084
 31
0.0
  0
LINE
  5
325
330
1F
100
AcDbEntity
  8
Object
100
AcDbLine
 10
14.5323596286982
 20
4.891078819870084
 30
0.0
 11
14.4643596286982
 21
4.885078819870084
 31
0.0
  0
LINE
  5
326
330
1F
100
AcDbEntity
  8
Object
100
AcDbLine
 10
2.182359628698204
 20
8.537078819870085
 30
0.0
 11
2.174359628698203
 21
8.605078819870085
 31
0.0
  0
LINE
  5
327
330
1F
100
AcDbEntity
  8
Object
100
AcDbLine
 10
2.174359628698203
 20
8.605078819870085
 30
0.0
 11
2.152359628698203
 21
8.670078819870084
 31
0.0
  0
LINE
  5
328
330
1F
100
AcDbEntity
  8
Object
100
AcDbLine
 10
2.152359628698203
 20
8.670078819870084
 30
0.0
 11
2.117359628698203
 21
8.729078819870085
 31
0.0
  0
LINE
  5
329
330
1F
100
AcDbEntity
  8
Object
100
AcDbLine
 10
2.117359628698203
 20
8.729078819870085
 30
0.0
 11
2.069359628698205
 21
8.779078819870084
 31
0.0
  0
LINE
  5
32A
330
1F
100
AcDbEntity
  8
Object
100
AcDbLine
 10
2.069359628698205
 20
8.779078819870084
 30
0.0
 11
2.012359628698202
 21
8.818078819870084
 31
0.0
  0
LINE
  5
32B
330
1F
100
AcDbEntity
  8
Object
100
AcDbLine
 10
2.012359628698202
 20
8.818078819870084
 30
0.0
 11
1.948359628698204
 21
8.843078819870084
 31
0.0
  0
LINE
  5
32C
330
1F
100
AcDbEntity
  8
Object
100
AcDbLine
 10
1.948359628698204
 20
8.843078819870084
 30
0.0
 11
1.880359628698204
 21
8.854078819870085
 31
0.0
  0
LINE
  5
32D
330
1F
100
AcDbEntity
  8
Object
100
AcDbLine
 10
1.877359628698204
 20
8.469078819870084
 30
0.0
 11
1.881359628698204
 21
8.469078819870084
 31
0.0
  0
LINE
  5
32E
330
1F
100
AcDbEntity
  8
Object
100
AcDbLine
 10
2.814359628698204
 20
4.536078819870084
 30
0.0
 11
2.813359628698204
 21
4.531078819870084
 31
0.0
  0
LINE
  5
32F
330
1F
100
AcDbEntity
  8
Object
100
AcDbLine
 10
2.813359628698204
 20
4.531078819870084
 30
0.0
 11
2.809359628698203
 21
4.527078819870084
 31
0.0
  0
LINE
  5
330
330
1F
100
AcDbEntity
  8
Object
100
AcDbLine
 10
2.809359628698203
 20
4.527078819870084
 30
0.0
 11
2.804359628698204
 21
4.526078819870084
 31
0.0
  0
LINE
  5
331
330
1F
100
AcDbEntity
  8
Object
100
AcDbLine
 10
3.814359628698204
 20
4.476078819870084
 30
0.0
 11
3.814359628698204
 21
4.750078819870084
 31
0.0
  0
LINE
  5
332
330
1F
100
AcDbEntity
  8
Object
100
AcDbLine
 10
6.177359628698203
 20
4.511078819870085
 30
0.0
 11
6.177359628698203
 21
4.416078819870085
 31
0.0
  0
LINE
  5
333
330
1F
100
AcDbEntity
  8
Object
100
AcDbLine
 10
7.067359628698204
 20
4.401078819870084
 30
0.0
 11
7.060359628698204
 21
4.403078819870085
 31
0.0
  0
LINE
  5
334
330
1F
100
AcDbEntity
  8
Object
100
AcDbLine
 10
7.060359628698204
 20
4.403078819870085
 30
0.0
 11
7.054359628698204
 21
4.408078819870084
 31
0.0
  0
LINE
  5
335
330
1F
100
AcDbEntity
  8
Object
100
AcDbLine
 10
7.054359628698204
 20
4.408078819870084
 30
0.0
 11
7.052359628698203
 21
4.416078819870085
 31
0.0
  0
LINE
  5
336
330
1F
100
AcDbEntity
  8
Object
100
AcDbLine
 10
7.262359628698202
 20
4.760078819870084
 30
0.0
 11
7.927359628698203
 21
4.760078819870084
 31
0.0
  0
LINE
  5
337
330
1F
100
AcDbEntity
  8
Object
100
AcDbLine
 10
7.937359628698203
 20
4.750078819870084
 30
0.0
 11
7.937359628698203
 21
4.476078819870084
 31
0.0
  0
LINE
  5
338
330
1F
100
AcDbEntity
  8
Object
100
AcDbLine
 10
9.621359628698204
 20
4.536078819870084
 30
0.0
 11
9.620359628698203
 21
4.531078819870084
 31
0.0
  0
LINE
  5
339
330
1F
100
AcDbEntity
  8
Object
100
AcDbLine
 10
9.620359628698203
 20
4.531078819870084
 30
0.0
 11
9.616359628698203
 21
4.527078819870084
 31
0.0
  0
LINE
  5
33A
330
1F
100
AcDbEntity
  8
Object
100
AcDbLine
 10
9.616359628698203
 20
4.527078819870084
 30
0.0
 11
9.611359628698204
 21
4.526078819870084
 31
0.0
  0
LINE
  5
33B
330
1F
100
AcDbEntity
  8
Object
100
AcDbLine
 10
9.561359628698204
 20
4.526078819870084
 30
0.0
 11
9.554359628698204
 21
4.524078819870084
 31
0.0
  0
LINE
  5
33C
330
1F
100
AcDbEntity
  8
Object
100
AcDbLine
 10
9.554359628698204
 20
4.524078819870084
 30
0.0
 11
9.548359628698204
 21
4.518078819870084
 31
0.0
  0
LINE
  5
33D
330
1F
100
AcDbEntity
  8
Object
100
AcDbLine
 10
9.548359628698204
 20
4.518078819870084
 30
0.0
 11
9.546359628698203
 21
4.511078819870085
 31
0.0
  0
LINE
  5
33E
330
1F
100
AcDbEntity
  8
Object
100
AcDbLine
 10
9.561359628698204
 20
4.401078819870084
 30
0.0
 11
9.806359628698203
 21
4.401078819870084
 31
0.0
  0
LINE
  5
33F
330
1F
100
AcDbEntity
  8
Object
100
AcDbLine
 10
13.4093596286982
 20
4.416078819870085
 30
0.0
 11
13.4093596286982
 21
4.511078819870085
 31
0.0
  0
LINE
  5
340
330
1F
100
AcDbEntity
  8
Object
100
AcDbLine
 10
14.2843596286982
 20
4.416078819870085
 30
0.0
 11
14.2823596286982
 21
4.408078819870084
 31
0.0
  0
LINE
  5
341
330
1F
100
AcDbEntity
  8
Object
100
AcDbLine
 10
14.2823596286982
 20
4.408078819870084
 30
0.0
 11
14.2763596286982
 21
4.403078819870085
 31
0.0
  0
LINE
  5
342
330
1F
100
AcDbEntity
  8
Object
100
AcDbLine
 10
14.2763596286982
 20
4.403078819870085
 30
0.0
 11
14.2693596286982
 21
4.401078819870084
 31
0.0
  0
LINE
  5
343
330
1F
100
AcDbEntity
  8
Object
100
AcDbLine
 10
14.0693596286982
 20
4.526078819870084
 30
0.0
 11
14.0643596286982
 21
4.527078819870084
 31
0.0
  0
LINE
  5
344
330
1F
100
AcDbEntity
  8
Object
100
AcDbLine
 10
14.0643596286982
 20
4.527078819870084
 30
0.0
 11
14.0603596286982
 21
4.531078819870084
 31
0.0
  0
LINE
  5
345
330
1F
100
AcDbEntity
  8
Object
100
AcDbLine
 10
14.0603596286982
 20
4.531078819870084
 30
0.0
 11
14.0593596286982
 21
4.536078819870084
 31
0.0
  0
LINE
  5
346
330
1F
100
AcDbEntity
  8
Object
100
AcDbLine
 10
14.0693596286982
 20
4.760078819870084
 30
0.0
 11
14.4643596286982
 21
4.760078819870084
 31
0.0
  0
LINE
  5
347
330
1F
100
AcDbEntity
  8
Object
100
AcDbLine
 10
15.0663596286982
 20
8.778078819870085
 30
0.0
 11
15.0633596286982
 21
8.807078819870085
 31
0.0
  0
LINE
  5
348
330
1F
100
AcDbEntity
  8
Object
100
AcDbLine
 10
15.0633596286982
 20
8.807078819870085
 30
0.0
 11
15.0473596286982
 21
8.832078819870083
 31
0.0
  0
LINE
  5
349
330
1F
100
AcDbEntity
  8
Object
100
AcDbLine
 10
15.0473596286982
 20
8.832078819870083
 30
0.0
 11
15.0233596286982
 21
8.849078819870085
 31
0.0
  0
LINE
  5
34A
330
1F
100
AcDbEntity
  8
Object
100
AcDbLine
 10
15.0233596286982
 20
8.849078819870085
 30
0.0
 11
14.9933596286982
 21
8.854078819870085
 31
0.0
  0
LINE
  5
34B
330
1F
100
AcDbEntity
  8
Object
100
AcDbLine
 10
14.7373596286982
 20
8.014078819870086
 30
0.0
 11
15.0013596286982
 21
8.014078819870086
 31
0.0
  0
LINE
  5
34C
330
1F
100
AcDbEntity
  8
Object
100
AcDbLine
 10
1.927359628698203
 20
8.515078819870083
 30
0.0
 11
1.927359628698203
 21
8.680078819870084
 31
0.0
  0
LINE
  5
34D
330
1F
100
AcDbEntity
  8
Object
100
AcDbLine
 10
7.937359628698203
 20
4.750078819870084
 30
0.0
 11
7.935359628698204
 21
4.755078819870084
 31
0.0
  0
LINE
  5
34E
330
1F
100
AcDbEntity
  8
Object
100
AcDbLine
 10
7.935359628698204
 20
4.755078819870084
 30
0.0
 11
7.932359628698204
 21
4.759078819870085
 31
0.0
  0
LINE
  5
34F
330
1F
100
AcDbEntity
  8
Object
100
AcDbLine
 10
7.932359628698204
 20
4.759078819870085
 30
0.0
 11
7.927359628698203
 21
4.760078819870084
 31
0.0
  0
LINE
  5
350
330
1F
100
AcDbEntity
  8
Object
100
AcDbLine
 10
8.602359628698204
 20
4.526078819870084
 30
0.0
 11
8.594359628698203
 21
4.524078819870084
 31
0.0
  0
LINE
  5
351
330
1F
100
AcDbEntity
  8
Object
100
AcDbLine
 10
8.594359628698203
 20
4.524078819870084
 30
0.0
 11
8.589359628698204
 21
4.518078819870084
 31
0.0
  0
LINE
  5
352
330
1F
100
AcDbEntity
  8
Object
100
AcDbLine
 10
8.589359628698204
 20
4.518078819870084
 30
0.0
 11
8.587359628698203
 21
4.511078819870085
 31
0.0
  0
LINE
  5
353
330
1F
100
AcDbEntity
  8
Object
100
AcDbLine
 10
8.947359628698203
 20
4.760078819870084
 30
0.0
 11
9.611359628698204
 21
4.760078819870084
 31
0.0
  0
LINE
  5
354
330
1F
100
AcDbEntity
  8
Object
100
AcDbLine
 10
9.621359628698204
 20
4.750078819870084
 30
0.0
 11
9.621359628698204
 21
4.536078819870084
 31
0.0
  0
LINE
  5
355
330
1F
100
AcDbEntity
  8
Object
100
AcDbLine
 10
14.0693596286982
 20
4.760078819870084
 30
0.0
 11
14.0643596286982
 21
4.759078819870085
 31
0.0
  0
LINE
  5
356
330
1F
100
AcDbEntity
  8
Object
100
AcDbLine
 10
14.0643596286982
 20
4.759078819870085
 30
0.0
 11
14.0603596286982
 21
4.755078819870084
 31
0.0
  0
LINE
  5
357
330
1F
100
AcDbEntity
  8
Object
100
AcDbLine
 10
14.0603596286982
 20
4.755078819870084
 30
0.0
 11
14.0593596286982
 21
4.750078819870084
 31
0.0
  0
LINE
  5
358
330
1F
100
AcDbEntity
  8
Object
100
AcDbLine
 10
14.9473596286982
 20
8.680078819870084
 30
0.0
 11
14.9473596286982
 21
8.515078819870083
 31
0.0
  0
LINE
  5
359
330
1F
100
AcDbEntity
  8
Object
100
AcDbLine
 10
14.6923596286982
 20
8.537078819870085
 30
0.0
 11
14.6923596286982
 21
8.284078819870085
 31
0.0
  0
LINE
  5
35A
330
1F
100
AcDbEntity
  8
Object
100
AcDbLine
 10
14.7143596286982
 20
8.020078819870084
 30
0.0
 11
14.7373596286982
 21
8.014078819870086
 31
0.0
  0
LINE
  5
35B
330
1F
100
AcDbEntity
  8
Object
100
AcDbLine
 10
14.7143596286982
 20
8.099078819870085
 30
0.0
 11
14.6983596286982
 21
8.083078819870085
 31
0.0
  0
LINE
  5
35C
330
1F
100
AcDbEntity
  8
Object
100
AcDbLine
 10
14.6983596286982
 20
8.037078819870085
 30
0.0
 11
14.7143596286982
 21
8.020078819870084
 31
0.0
  0
LINE
  5
35D
330
1F
100
AcDbEntity
  8
Object
100
AcDbLine
 10
14.6983596286982
 20
8.083078819870085
 30
0.0
 11
14.6923596286982
 21
8.060078819870085
 31
0.0
  0
LINE
  5
35E
330
1F
100
AcDbEntity
  8
Object
100
AcDbLine
 10
14.6923596286982
 20
8.060078819870085
 30
0.0
 11
14.6983596286982
 21
8.037078819870085
 31
0.0
  0
LINE
  5
35F
330
1F
100
AcDbEntity
  8
Object
100
AcDbLine
 10
2.182359628698204
 20
8.284078819870085
 30
0.0
 11
2.177359628698203
 21
8.259078819870085
 31
0.0
  0
LINE
  5
360
330
1F
100
AcDbEntity
  8
Object
100
AcDbLine
 10
2.177359628698203
 20
8.259078819870085
 30
0.0
 11
2.163359628698204
 21
8.238078819870084
 31
0.0
  0
LINE
  5
361
330
1F
100
AcDbEntity
  8
Object
100
AcDbLine
 10
2.163359628698204
 20
8.238078819870084
 30
0.0
 11
2.142359628698203
 21
8.224078819870085
 31
0.0
  0
LINE
  5
362
330
1F
100
AcDbEntity
  8
Object
100
AcDbLine
 10
2.142359628698203
 20
8.224078819870085
 30
0.0
 11
2.117359628698203
 21
8.219078819870084
 31
0.0
  0
LINE
  5
363
330
1F
100
AcDbEntity
  8
Object
100
AcDbLine
 10
2.037359628698204
 20
8.344078819870084
 30
0.0
 11
1.772359628698204
 21
8.344078819870084
 31
0.0
  0
LINE
  5
364
330
1F
100
AcDbEntity
  8
Object
100
AcDbLine
 10
3.149359628698203
 20
4.526078819870084
 30
0.0
 11
2.949359628698204
 21
4.526078819870084
 31
0.0
  0
LINE
  5
365
330
1F
100
AcDbEntity
  8
Object
100
AcDbLine
 10
3.814359628698204
 20
4.476078819870084
 30
0.0
 11
3.809359628698203
 21
4.447078819870085
 31
0.0
  0
LINE
  5
366
330
1F
100
AcDbEntity
  8
Object
100
AcDbLine
 10
3.809359628698203
 20
4.447078819870085
 30
0.0
 11
3.792359628698203
 21
4.423078819870084
 31
0.0
  0
LINE
  5
367
330
1F
100
AcDbEntity
  8
Object
100
AcDbLine
 10
3.792359628698203
 20
4.423078819870084
 30
0.0
 11
3.768359628698203
 21
4.407078819870084
 31
0.0
  0
LINE
  5
368
330
1F
100
AcDbEntity
  8
Object
100
AcDbLine
 10
3.768359628698203
 20
4.407078819870084
 30
0.0
 11
3.739359628698203
 21
4.401078819870084
 31
0.0
  0
LINE
  5
369
330
1F
100
AcDbEntity
  8
Object
100
AcDbLine
 10
3.824359628698204
 20
4.760078819870084
 30
0.0
 11
6.242359628698203
 21
4.760078819870084
 31
0.0
  0
LINE
  5
36A
330
1F
100
AcDbEntity
  8
Object
100
AcDbLine
 10
6.192359628698204
 20
4.401078819870084
 30
0.0
 11
6.437359628698203
 21
4.401078819870084
 31
0.0
  0
LINE
  5
36B
330
1F
100
AcDbEntity
  8
Object
100
AcDbLine
 10
7.052359628698203
 20
4.511078819870085
 30
0.0
 11
7.052359628698203
 21
4.416078819870085
 31
0.0
  0
LINE
  5
36C
330
1F
100
AcDbEntity
  8
Object
100
AcDbLine
 10
7.327359628698204
 20
4.416078819870085
 30
0.0
 11
7.325359628698205
 21
4.408078819870084
 31
0.0
  0
LINE
  5
36D
330
1F
100
AcDbEntity
  8
Object
100
AcDbLine
 10
7.325359628698205
 20
4.408078819870084
 30
0.0
 11
7.320359628698204
 21
4.403078819870085
 31
0.0
  0
LINE
  5
36E
330
1F
100
AcDbEntity
  8
Object
100
AcDbLine
 10
7.320359628698204
 20
4.403078819870085
 30
0.0
 11
7.312359628698203
 21
4.401078819870084
 31
0.0
  0
LINE
  5
36F
330
1F
100
AcDbEntity
  8
Object
100
AcDbLine
 10
8.287359628698204
 20
4.416078819870085
 30
0.0
 11
8.287359628698204
 21
4.511078819870085
 31
0.0
  0
LINE
  5
370
330
1F
100
AcDbEntity
  8
Object
100
AcDbLine
 10
8.947359628698203
 20
4.760078819870084
 30
0.0
 11
8.942359628698204
 21
4.759078819870085
 31
0.0
  0
LINE
  5
371
330
1F
100
AcDbEntity
  8
Object
100
AcDbLine
 10
8.942359628698204
 20
4.759078819870085
 30
0.0
 11
8.938359628698204
 21
4.755078819870084
 31
0.0
  0
LINE
  5
372
330
1F
100
AcDbEntity
  8
Object
100
AcDbLine
 10
8.938359628698204
 20
4.755078819870084
 30
0.0
 11
8.937359628698203
 21
4.750078819870084
 31
0.0
  0
LINE
  5
373
330
1F
100
AcDbEntity
  8
Object
100
AcDbLine
 10
13.1343596286982
 20
4.401078819870084
 30
0.0
 11
13.1053596286982
 21
4.407078819870084
 31
0.0
  0
LINE
  5
374
330
1F
100
AcDbEntity
  8
Object
100
AcDbLine
 10
13.1053596286982
 20
4.407078819870084
 30
0.0
 11
13.0813596286982
 21
4.423078819870084
 31
0.0
  0
LINE
  5
375
330
1F
100
AcDbEntity
  8
Object
100
AcDbLine
 10
13.0813596286982
 20
4.423078819870084
 30
0.0
 11
13.0653596286982
 21
4.447078819870085
 31
0.0
  0
LINE
  5
376
330
1F
100
AcDbEntity
  8
Object
100
AcDbLine
 10
13.0653596286982
 20
4.447078819870085
 30
0.0
 11
13.0593596286982
 21
4.476078819870084
 31
0.0
  0
LINE
  5
377
330
1F
100
AcDbEntity
  8
Object
100
AcDbLine
 10
13.7243596286982
 20
4.401078819870084
 30
0.0
 11
13.7163596286982
 21
4.403078819870085
 31
0.0
  0
LINE
  5
378
330
1F
100
AcDbEntity
  8
Object
100
AcDbLine
 10
13.7163596286982
 20
4.403078819870085
 30
0.0
 11
13.7113596286982
 21
4.408078819870084
 31
0.0
  0
LINE
  5
379
330
1F
100
AcDbEntity
  8
Object
100
AcDbLine
 10
13.7113596286982
 20
4.408078819870084
 30
0.0
 11
13.7093596286982
 21
4.416078819870085
 31
0.0
  0
LINE
  5
37A
330
1F
100
AcDbEntity
  8
Object
100
AcDbLine
 10
14.2843596286982
 20
4.511078819870085
 30
0.0
 11
14.2823596286982
 21
4.518078819870084
 31
0.0
  0
LINE
  5
37B
330
1F
100
AcDbEntity
  8
Object
100
AcDbLine
 10
14.2823596286982
 20
4.518078819870084
 30
0.0
 11
14.2763596286982
 21
4.524078819870084
 31
0.0
  0
LINE
  5
37C
330
1F
100
AcDbEntity
  8
Object
100
AcDbLine
 10
14.2763596286982
 20
4.524078819870084
 30
0.0
 11
14.2693596286982
 21
4.526078819870084
 31
0.0
  0
LINE
  5
37D
330
1F
100
AcDbEntity
  8
Object
100
AcDbLine
 10
14.0593596286982
 20
4.536078819870084
 30
0.0
 11
14.0593596286982
 21
4.750078819870084
 31
0.0
  0
LINE
  5
37E
330
1F
100
AcDbEntity
  8
Object
100
AcDbLine
 10
14.8173596286982
 20
8.364078819870083
 30
0.0
 11
14.8173596286982
 21
8.537078819870085
 31
0.0
  0
LINE
  5
37F
330
1F
100
AcDbEntity
  8
Object
100
AcDbLine
 10
2.410359628698204
 20
4.760078819870084
 30
0.0
 11
2.804359628698204
 21
4.760078819870084
 31
0.0
  0
LINE
  5
380
330
1F
100
AcDbEntity
  8
Object
100
AcDbLine
 10
2.939359628698204
 20
4.536078819870084
 30
0.0
 11
2.939359628698204
 21
4.750078819870084
 31
0.0
  0
LINE
  5
381
330
1F
100
AcDbEntity
  8
Object
100
AcDbLine
 10
6.387359628698202
 20
4.526078819870084
 30
0.0
 11
6.382359628698203
 21
4.527078819870084
 31
0.0
  0
LINE
  5
382
330
1F
100
AcDbEntity
  8
Object
100
AcDbLine
 10
6.382359628698203
 20
4.527078819870084
 30
0.0
 11
6.378359628698204
 21
4.531078819870084
 31
0.0
  0
LINE
  5
383
330
1F
100
AcDbEntity
  8
Object
100
AcDbLine
 10
6.378359628698204
 20
4.531078819870084
 30
0.0
 11
6.377359628698204
 21
4.536078819870084
 31
0.0
  0
LINE
  5
384
330
1F
100
AcDbEntity
  8
Object
100
AcDbLine
 10
14.2843596286982
 20
4.416078819870085
 30
0.0
 11
14.2843596286982
 21
4.511078819870085
 31
0.0
  0
LINE
  5
385
330
1F
100
AcDbEntity
  8
Object
100
AcDbLine
 10
2.410359628698204
 20
4.885078819870084
 30
0.0
 11
2.341359628698203
 21
4.891078819870084
 31
0.0
  0
LINE
  5
386
330
1F
100
AcDbEntity
  8
Object
100
AcDbLine
 10
2.341359628698203
 20
4.891078819870084
 30
0.0
 11
2.276359628698203
 21
4.910078819870085
 31
0.0
  0
LINE
  5
387
330
1F
100
AcDbEntity
  8
Object
100
AcDbLine
 10
2.276359628698203
 20
4.910078819870085
 30
0.0
 11
2.215359628698204
 21
4.941078819870084
 31
0.0
  0
LINE
  5
388
330
1F
100
AcDbEntity
  8
Object
100
AcDbLine
 10
2.215359628698204
 20
4.941078819870084
 30
0.0
 11
2.161359628698203
 21
4.983078819870085
 31
0.0
  0
LINE
  5
389
330
1F
100
AcDbEntity
  8
Object
100
AcDbLine
 10
2.161359628698203
 20
4.983078819870085
 30
0.0
 11
2.115359628698204
 21
5.034078819870084
 31
0.0
  0
LINE
  5
38A
330
1F
100
AcDbEntity
  8
Object
100
AcDbLine
 10
2.115359628698204
 20
5.034078819870084
 30
0.0
 11
2.080359628698204
 21
5.093078819870084
 31
0.0
  0
LINE
  5
38B
330
1F
100
AcDbEntity
  8
Object
100
AcDbLine
 10
2.080359628698204
 20
5.093078819870084
 30
0.0
 11
2.057359628698204
 21
5.157078819870084
 31
0.0
  0
LINE
  5
38C
330
1F
100
AcDbEntity
  8
Object
100
AcDbLine
 10
2.057359628698204
 20
5.157078819870084
 30
0.0
 11
2.045359628698204
 21
5.224078819870085
 31
0.0
  0
LINE
  5
38D
330
1F
100
AcDbEntity
  8
Object
100
AcDbLine
 10
2.045359628698204
 20
5.224078819870085
 30
0.0
 11
1.852359628698204
 21
7.993078819870085
 31
0.0
  0
LINE
  5
38E
330
1F
100
AcDbEntity
  8
Object
100
AcDbLine
 10
1.872359628698204
 20
8.014078819870086
 30
0.0
 11
2.136359628698205
 21
8.014078819870086
 31
0.0
  0
LINE
  5
38F
330
1F
100
AcDbEntity
  8
Object
100
AcDbLine
 10
2.098359628698204
 20
8.089078819870085
 30
0.0
 11
1.864359628698203
 21
8.089078819870085
 31
0.0
  0
LINE
  5
390
330
1F
100
AcDbEntity
  8
Object
100
AcDbLine
 10
2.814359628698204
 20
4.750078819870084
 30
0.0
 11
2.814359628698204
 21
4.536078819870084
 31
0.0
  0
LINE
  5
391
330
1F
100
AcDbEntity
  8
Object
100
AcDbLine
 10
2.804359628698204
 20
4.526078819870084
 30
0.0
 11
2.604359628698205
 21
4.526078819870084
 31
0.0
  0
LINE
  5
392
330
1F
100
AcDbEntity
  8
Object
100
AcDbLine
 10
6.387359628698202
 20
4.760078819870084
 30
0.0
 11
6.382359628698203
 21
4.759078819870085
 31
0.0
  0
LINE
  5
393
330
1F
100
AcDbEntity
  8
Object
100
AcDbLine
 10
6.382359628698203
 20
4.759078819870085
 30
0.0
 11
6.378359628698204
 21
4.755078819870084
 31
0.0
  0
LINE
  5
394
330
1F
100
AcDbEntity
  8
Object
100
AcDbLine
 10
6.378359628698204
 20
4.755078819870084
 30
0.0
 11
6.377359628698204
 21
4.750078819870084
 31
0.0
  0
LINE
  5
395
330
1F
100
AcDbEntity
  8
Object
100
AcDbLine
 10
8.812359628698203
 20
4.750078819870084
 30
0.0
 11
8.810359628698204
 21
4.755078819870084
 31
0.0
  0
LINE
  5
396
330
1F
100
AcDbEntity
  8
Object
100
AcDbLine
 10
8.810359628698204
 20
4.755078819870084
 30
0.0
 11
8.807359628698204
 21
4.759078819870085
 31
0.0
  0
LINE
  5
397
330
1F
100
AcDbEntity
  8
Object
100
AcDbLine
 10
8.807359628698204
 20
4.759078819870085
 30
0.0
 11
8.802359628698203
 21
4.760078819870084
 31
0.0
  0
LINE
  5
398
330
1F
100
AcDbEntity
  8
Object
100
AcDbLine
 10
8.602359628698204
 20
4.401078819870084
 30
0.0
 11
8.594359628698203
 21
4.403078819870085
 31
0.0
  0
LINE
  5
399
330
1F
100
AcDbEntity
  8
Object
100
AcDbLine
 10
8.594359628698203
 20
4.403078819870085
 30
0.0
 11
8.589359628698204
 21
4.408078819870084
 31
0.0
  0
LINE
  5
39A
330
1F
100
AcDbEntity
  8
Object
100
AcDbLine
 10
8.589359628698204
 20
4.408078819870084
 30
0.0
 11
8.587359628698203
 21
4.416078819870085
 31
0.0
  0
LINE
  5
39B
330
1F
100
AcDbEntity
  8
Object
100
AcDbLine
 10
9.621359628698204
 20
4.750078819870084
 30
0.0
 11
9.620359628698203
 21
4.755078819870084
 31
0.0
  0
LINE
  5
39C
330
1F
100
AcDbEntity
  8
Object
100
AcDbLine
 10
9.620359628698203
 20
4.755078819870084
 30
0.0
 11
9.616359628698203
 21
4.759078819870085
 31
0.0
  0
LINE
  5
39D
330
1F
100
AcDbEntity
  8
Object
100
AcDbLine
 10
9.616359628698203
 20
4.759078819870085
 30
0.0
 11
9.611359628698204
 21
4.760078819870084
 31
0.0
  0
LINE
  5
39E
330
1F
100
AcDbEntity
  8
Object
100
AcDbLine
 10
10.6323596286982
 20
4.760078819870084
 30
0.0
 11
13.0493596286982
 21
4.760078819870084
 31
0.0
  0
LINE
  5
39F
330
1F
100
AcDbEntity
  8
Object
100
AcDbLine
 10
13.4093596286982
 20
4.511078819870085
 30
0.0
 11
13.4073596286982
 21
4.518078819870084
 31
0.0
  0
LINE
  5
3A0
330
1F
100
AcDbEntity
  8
Object
100
AcDbLine
 10
13.4073596286982
 20
4.518078819870084
 30
0.0
 11
13.4013596286982
 21
4.524078819870084
 31
0.0
  0
LINE
  5
3A1
330
1F
100
AcDbEntity
  8
Object
100
AcDbLine
 10
13.4013596286982
 20
4.524078819870084
 30
0.0
 11
13.3943596286982
 21
4.526078819870084
 31
0.0
  0
LINE
  5
3A2
330
1F
100
AcDbEntity
  8
Object
100
AcDbLine
 10
15.1023596286982
 20
8.344078819870084
 30
0.0
 11
14.8373596286982
 21
8.344078819870084
 31
0.0
  0
LINE
  5
3A3
330
1F
100
AcDbEntity
  8
Object
100
AcDbLine
 10
14.9093596286982
 20
8.701078819870083
 30
0.0
 11
14.8703596286982
 21
8.670078819870084
 31
0.0
  0
LINE
  5
3A4
330
1F
100
AcDbEntity
  8
Object
100
AcDbLine
 10
14.8703596286982
 20
8.670078819870084
 30
0.0
 11
14.8413596286982
 21
8.631078819870085
 31
0.0
  0
LINE
  5
3A5
330
1F
100
AcDbEntity
  8
Object
100
AcDbLine
 10
14.8413596286982
 20
8.631078819870085
 30
0.0
 11
14.8233596286982
 21
8.585078819870084
 31
0.0
  0
LINE
  5
3A6
330
1F
100
AcDbEntity
  8
Object
100
AcDbLine
 10
14.8233596286982
 20
8.585078819870084
 30
0.0
 11
14.8173596286982
 21
8.537078819870085
 31
0.0
  0
LINE
  5
3A7
330
1F
100
AcDbEntity
  8
Object
100
AcDbLine
 10
14.9933596286982
 20
8.854078819870085
 30
0.0
 11
14.9253596286982
 21
8.843078819870084
 31
0.0
  0
LINE
  5
3A8
330
1F
100
AcDbEntity
  8
Object
100
AcDbLine
 10
14.9253596286982
 20
8.843078819870084
 30
0.0
 11
14.8613596286982
 21
8.818078819870084
 31
0.0
  0
LINE
  5
3A9
330
1F
100
AcDbEntity
  8
Object
100
AcDbLine
 10
14.8613596286982
 20
8.818078819870084
 30
0.0
 11
14.8043596286982
 21
8.779078819870084
 31
0.0
  0
LINE
  5
3AA
330
1F
100
AcDbEntity
  8
Object
100
AcDbLine
 10
14.8043596286982
 20
8.779078819870084
 30
0.0
 11
14.7573596286982
 21
8.729078819870085
 31
0.0
  0
LINE
  5
3AB
330
1F
100
AcDbEntity
  8
Object
100
AcDbLine
 10
14.7573596286982
 20
8.729078819870085
 30
0.0
 11
14.7213596286982
 21
8.670078819870084
 31
0.0
  0
LINE
  5
3AC
330
1F
100
AcDbEntity
  8
Object
100
AcDbLine
 10
14.7213596286982
 20
8.670078819870084
 30
0.0
 11
14.6993596286982
 21
8.605078819870085
 31
0.0
  0
LINE
  5
3AD
330
1F
100
AcDbEntity
  8
Object
100
AcDbLine
 10
14.6993596286982
 20
8.605078819870085
 30
0.0
 11
14.6923596286982
 21
8.537078819870085
 31
0.0
  0
LINE
  5
3AE
330
1F
100
AcDbEntity
  8
Object
100
AcDbLine
 10
15.0293596286982
 20
8.108078819870083
 30
0.0
 11
15.0263596286982
 21
8.098078819870085
 31
0.0
  0
LINE
  5
3AF
330
1F
100
AcDbEntity
  8
Object
100
AcDbLine
 10
15.0263596286982
 20
8.098078819870085
 30
0.0
 11
15.0193596286982
 21
8.092078819870085
 31
0.0
  0
LINE
  5
3B0
330
1F
100
AcDbEntity
  8
Object
100
AcDbLine
 10
15.0193596286982
 20
8.092078819870085
 30
0.0
 11
15.0103596286982
 21
8.089078819870085
 31
0.0
  0
LINE
  5
3B1
330
1F
100
AcDbEntity
  8
Object
100
AcDbLine
 10
2.182359628698204
 20
8.284078819870085
 30
0.0
 11
2.182359628698204
 21
8.537078819870085
 31
0.0
  0
LINE
  5
3B2
330
1F
100
AcDbEntity
  8
Object
100
AcDbLine
 10
2.589359628698204
 20
4.511078819870085
 30
0.0
 11
2.589359628698204
 21
4.416078819870085
 31
0.0
  0
LINE
  5
3B3
330
1F
100
AcDbEntity
  8
Object
100
AcDbLine
 10
3.824359628698204
 20
4.760078819870084
 30
0.0
 11
3.819359628698205
 21
4.759078819870085
 31
0.0
  0
LINE
  5
3B4
330
1F
100
AcDbEntity
  8
Object
100
AcDbLine
 10
3.819359628698205
 20
4.759078819870085
 30
0.0
 11
3.816359628698204
 21
4.755078819870084
 31
0.0
  0
LINE
  5
3B5
330
1F
100
AcDbEntity
  8
Object
100
AcDbLine
 10
3.816359628698204
 20
4.755078819870084
 30
0.0
 11
3.814359628698204
 21
4.750078819870084
 31
0.0
  0
LINE
  5
3B6
330
1F
100
AcDbEntity
  8
Object
100
AcDbLine
 10
6.192359628698204
 20
4.401078819870084
 30
0.0
 11
6.184359628698203
 21
4.403078819870085
 31
0.0
  0
LINE
  5
3B7
330
1F
100
AcDbEntity
  8
Object
100
AcDbLine
 10
6.184359628698203
 20
4.403078819870085
 30
0.0
 11
6.179359628698204
 21
4.408078819870084
 31
0.0
  0
LINE
  5
3B8
330
1F
100
AcDbEntity
  8
Object
100
AcDbLine
 10
6.179359628698204
 20
4.408078819870084
 30
0.0
 11
6.177359628698203
 21
4.416078819870085
 31
0.0
  0
LINE
  5
3B9
330
1F
100
AcDbEntity
  8
Object
100
AcDbLine
 10
6.452359628698204
 20
4.416078819870085
 30
0.0
 11
6.452359628698204
 21
4.511078819870085
 31
0.0
  0
LINE
  5
3BA
330
1F
100
AcDbEntity
  8
Object
100
AcDbLine
 10
7.067359628698204
 20
4.401078819870084
 30
0.0
 11
7.312359628698203
 21
4.401078819870084
 31
0.0
  0
LINE
  5
3BB
330
1F
100
AcDbEntity
  8
Object
100
AcDbLine
 10
8.287359628698204
 20
4.416078819870085
 30
0.0
 11
8.285359628698204
 21
4.408078819870084
 31
0.0
  0
LINE
  5
3BC
330
1F
100
AcDbEntity
  8
Object
100
AcDbLine
 10
8.285359628698204
 20
4.408078819870084
 30
0.0
 11
8.279359628698204
 21
4.403078819870085
 31
0.0
  0
LINE
  5
3BD
330
1F
100
AcDbEntity
  8
Object
100
AcDbLine
 10
8.279359628698204
 20
4.403078819870085
 30
0.0
 11
8.272359628698204
 21
4.401078819870084
 31
0.0
  0
LINE
  5
3BE
330
1F
100
AcDbEntity
  8
Object
100
AcDbLine
 10
8.272359628698204
 20
4.526078819870084
 30
0.0
 11
8.072359628698205
 21
4.526078819870084
 31
0.0
  0
LINE
  5
3BF
330
1F
100
AcDbEntity
  8
Object
100
AcDbLine
 10
10.4973596286982
 20
4.750078819870084
 30
0.0
 11
10.4953596286982
 21
4.755078819870084
 31
0.0
  0
LINE
  5
3C0
330
1F
100
AcDbEntity
  8
Object
100
AcDbLine
 10
10.4953596286982
 20
4.755078819870084
 30
0.0
 11
10.4923596286982
 21
4.759078819870085
 31
0.0
  0
LINE
  5
3C1
330
1F
100
AcDbEntity
  8
Object
100
AcDbLine
 10
10.4923596286982
 20
4.759078819870085
 30
0.0
 11
10.4873596286982
 21
4.760078819870084
 31
0.0
  0
LINE
  5
3C2
330
1F
100
AcDbEntity
  8
Object
100
AcDbLine
 10
10.4373596286982
 20
4.526078819870084
 30
0.0
 11
10.4293596286982
 21
4.524078819870084
 31
0.0
  0
LINE
  5
3C3
330
1F
100
AcDbEntity
  8
Object
100
AcDbLine
 10
10.4293596286982
 20
4.524078819870084
 30
0.0
 11
10.4243596286982
 21
4.518078819870084
 31
0.0
  0
LINE
  5
3C4
330
1F
100
AcDbEntity
  8
Object
100
AcDbLine
 10
10.4243596286982
 20
4.518078819870084
 30
0.0
 11
10.4223596286982
 21
4.511078819870085
 31
0.0
  0
LINE
  5
3C5
330
1F
100
AcDbEntity
  8
Object
100
AcDbLine
 10
10.4373596286982
 20
4.401078819870084
 30
0.0
 11
10.6823596286982
 21
4.401078819870084
 31
0.0
  0
LINE
  5
3C6
330
1F
100
AcDbEntity
  8
Object
100
AcDbLine
 10
14.9533596286982
 20
5.216078819870084
 30
0.0
 11
15.1663596286982
 21
8.275078819870085
 31
0.0
  0
LINE
  5
3C7
330
1F
100
AcDbEntity
  8
Object
100
AcDbLine
 10
14.7573596286982
 20
8.219078819870084
 30
0.0
 11
14.7323596286982
 21
8.224078819870085
 31
0.0
  0
LINE
  5
3C8
330
1F
100
AcDbEntity
  8
Object
100
AcDbLine
 10
14.7323596286982
 20
8.224078819870085
 30
0.0
 11
14.7113596286982
 21
8.238078819870084
 31
0.0
  0
LINE
  5
3C9
330
1F
100
AcDbEntity
  8
Object
100
AcDbLine
 10
14.7113596286982
 20
8.238078819870084
 30
0.0
 11
14.6973596286982
 21
8.259078819870085
 31
0.0
  0
LINE
  5
3CA
330
1F
100
AcDbEntity
  8
Object
100
AcDbLine
 10
14.6973596286982
 20
8.259078819870085
 30
0.0
 11
14.6923596286982
 21
8.284078819870085
 31
0.0
  0
LINE
  5
3CB
330
1F
100
AcDbEntity
  8
Object
100
AcDbLine
 10
14.7573596286982
 20
8.219078819870084
 30
0.0
 11
15.0163596286982
 21
8.219078819870084
 31
0.0
  0
LINE
  5
3CC
330
1F
100
AcDbEntity
  8
Object
100
AcDbLine
 10
15.0363596286982
 20
8.198078819870085
 30
0.0
 11
15.0353596286982
 21
8.206078819870086
 31
0.0
  0
LINE
  5
3CD
330
1F
100
AcDbEntity
  8
Object
100
AcDbLine
 10
15.0353596286982
 20
8.206078819870086
 30
0.0
 11
15.0303596286982
 21
8.213078819870084
 31
0.0
  0
LINE
  5
3CE
330
1F
100
AcDbEntity
  8
Object
100
AcDbLine
 10
15.0303596286982
 20
8.213078819870084
 30
0.0
 11
15.0243596286982
 21
8.218078819870084
 31
0.0
  0
LINE
  5
3CF
330
1F
100
AcDbEntity
  8
Object
100
AcDbLine
 10
15.0243596286982
 20
8.218078819870084
 30
0.0
 11
15.0163596286982
 21
8.219078819870084
 31
0.0
  0
LINE
  5
3D0
330
1F
100
AcDbEntity
  8
Object
100
AcDbLine
 10
15.0103596286982
 20
8.089078819870085
 30
0.0
 11
14.7753596286982
 21
8.089078819870085
 31
0.0
  0
LINE
  5
3D1
330
1F
100
AcDbEntity
  8
Object
100
AcDbLine
 10
2.949359628698204
 20
4.760078819870084
 30
0.0
 11
3.679359628698204
 21
4.760078819870084
 31
0.0
  0
LINE
  5
3D2
330
1F
100
AcDbEntity
  8
Object
100
AcDbLine
 10
7.327359628698204
 20
4.416078819870085
 30
0.0
 11
7.327359628698204
 21
4.511078819870085
 31
0.0
  0
LINE
  5
3D3
330
1F
100
AcDbEntity
  8
Object
100
AcDbLine
 10
10.6823596286982
 20
4.526078819870084
 30
0.0
 11
10.6323596286982
 21
4.526078819870084
 31
0.0
  0
LINE
  5
3D4
330
1F
100
AcDbEntity
  8
Object
100
AcDbLine
 10
13.9343596286982
 20
4.750078819870084
 30
0.0
 11
13.9333596286982
 21
4.755078819870084
 31
0.0
  0
LINE
  5
3D5
330
1F
100
AcDbEntity
  8
Object
100
AcDbLine
 10
13.9333596286982
 20
4.755078819870084
 30
0.0
 11
13.9293596286982
 21
4.759078819870085
 31
0.0
  0
LINE
  5
3D6
330
1F
100
AcDbEntity
  8
Object
100
AcDbLine
 10
13.9293596286982
 20
4.759078819870085
 30
0.0
 11
13.9243596286982
 21
4.760078819870084
 31
0.0
  0
LINE
  5
3D7
330
1F
100
AcDbEntity
  8
Object
100
AcDbLine
 10
14.7753596286982
 20
8.089078819870085
 30
0.0
 11
14.7723596286982
 21
8.109078819870084
 31
0.0
  0
LINE
  5
3D8
330
1F
100
AcDbEntity
  8
Object
100
AcDbLine
 10
14.4643596286982
 20
4.885078819870084
 30
0.0
 11
2.410359628698204
 21
4.885078819870084
 31
0.0
  0
LINE
  5
3D9
330
1F
100
AcDbEntity
  8
Object
100
AcDbLine
 10
7.312359628698203
 20
4.526078819870084
 30
0.0
 11
7.262359628698202
 21
4.526078819870084
 31
0.0
  0
LINE
  5
3DA
330
1F
100
AcDbEntity
  8
Object
100
AcDbLine
 10
8.287359628698204
 20
4.511078819870085
 30
0.0
 11
8.285359628698204
 21
4.518078819870084
 31
0.0
  0
LINE
  5
3DB
330
1F
100
AcDbEntity
  8
Object
100
AcDbLine
 10
8.285359628698204
 20
4.518078819870084
 30
0.0
 11
8.279359628698204
 21
4.524078819870084
 31
0.0
  0
LINE
  5
3DC
330
1F
100
AcDbEntity
  8
Object
100
AcDbLine
 10
8.279359628698204
 20
4.524078819870084
 30
0.0
 11
8.272359628698204
 21
4.526078819870084
 31
0.0
  0
LINE
  5
3DD
330
1F
100
AcDbEntity
  8
Object
100
AcDbLine
 10
8.072359628698205
 20
4.760078819870084
 30
0.0
 11
8.802359628698203
 21
4.760078819870084
 31
0.0
  0
LINE
  5
3DE
330
1F
100
AcDbEntity
  8
Object
100
AcDbLine
 10
8.937359628698203
 20
4.476078819870084
 30
0.0
 11
8.931359628698203
 21
4.447078819870085
 31
0.0
  0
LINE
  5
3DF
330
1F
100
AcDbEntity
  8
Object
100
AcDbLine
 10
8.931359628698203
 20
4.447078819870085
 30
0.0
 11
8.915359628698203
 21
4.423078819870084
 31
0.0
  0
LINE
  5
3E0
330
1F
100
AcDbEntity
  8
Object
100
AcDbLine
 10
8.915359628698203
 20
4.423078819870084
 30
0.0
 11
8.890359628698204
 21
4.407078819870084
 31
0.0
  0
LINE
  5
3E1
330
1F
100
AcDbEntity
  8
Object
100
AcDbLine
 10
8.890359628698204
 20
4.407078819870084
 30
0.0
 11
8.862359628698204
 21
4.401078819870084
 31
0.0
  0
LINE
  5
3E2
330
1F
100
AcDbEntity
  8
Object
100
AcDbLine
 10
10.4973596286982
 20
4.750078819870084
 30
0.0
 11
10.4973596286982
 21
4.536078819870084
 31
0.0
  0
LINE
  5
3E3
330
1F
100
AcDbEntity
  8
Object
100
AcDbLine
 10
10.6323596286982
 20
4.526078819870084
 30
0.0
 11
10.6273596286982
 21
4.527078819870084
 31
0.0
  0
LINE
  5
3E4
330
1F
100
AcDbEntity
  8
Object
100
AcDbLine
 10
10.6273596286982
 20
4.527078819870084
 30
0.0
 11
10.6233596286982
 21
4.531078819870084
 31
0.0
  0
LINE
  5
3E5
330
1F
100
AcDbEntity
  8
Object
100
AcDbLine
 10
10.6233596286982
 20
4.531078819870084
 30
0.0
 11
10.6223596286982
 21
4.536078819870084
 31
0.0
  0
LINE
  5
3E6
330
1F
100
AcDbEntity
  8
Object
100
AcDbLine
 10
13.7243596286982
 20
4.526078819870084
 30
0.0
 11
13.7163596286982
 21
4.524078819870084
 31
0.0
  0
LINE
  5
3E7
330
1F
100
AcDbEntity
  8
Object
100
AcDbLine
 10
13.7163596286982
 20
4.524078819870084
 30
0.0
 11
13.7113596286982
 21
4.518078819870084
 31
0.0
  0
LINE
  5
3E8
330
1F
100
AcDbEntity
  8
Object
100
AcDbLine
 10
13.7113596286982
 20
4.518078819870084
 30
0.0
 11
13.7093596286982
 21
4.511078819870085
 31
0.0
  0
LINE
  5
3E9
330
1F
100
AcDbEntity
  8
Object
100
AcDbLine
 10
13.7093596286982
 20
4.511078819870085
 30
0.0
 11
13.7093596286982
 21
4.416078819870085
 31
0.0
  0
LINE
  5
3EA
330
1F
100
AcDbEntity
  8
Object
100
AcDbLine
 10
14.7323596286982
 20
8.109078819870084
 30
0.0
 11
14.7143596286982
 21
8.099078819870085
 31
0.0
  0
LINE
  5
3EB
330
1F
100
AcDbEntity
  8
Object
100
AcDbLine
 10
2.604359628698205
 20
4.526078819870084
 30
0.0
 11
2.597359628698203
 21
4.524078819870084
 31
0.0
  0
LINE
  5
3EC
330
1F
100
AcDbEntity
  8
Object
100
AcDbLine
 10
2.597359628698203
 20
4.524078819870084
 30
0.0
 11
2.591359628698203
 21
4.518078819870084
 31
0.0
  0
LINE
  5
3ED
330
1F
100
AcDbEntity
  8
Object
100
AcDbLine
 10
2.591359628698203
 20
4.518078819870084
 30
0.0
 11
2.589359628698204
 21
4.511078819870085
 31
0.0
  0
LINE
  5
3EE
330
1F
100
AcDbEntity
  8
Object
100
AcDbLine
 10
2.949359628698204
 20
4.760078819870084
 30
0.0
 11
2.944359628698205
 21
4.759078819870085
 31
0.0
  0
LINE
  5
3EF
330
1F
100
AcDbEntity
  8
Object
100
AcDbLine
 10
2.944359628698205
 20
4.759078819870085
 30
0.0
 11
2.941359628698204
 21
4.755078819870084
 31
0.0
  0
LINE
  5
3F0
330
1F
100
AcDbEntity
  8
Object
100
AcDbLine
 10
2.941359628698204
 20
4.755078819870084
 30
0.0
 11
2.939359628698204
 21
4.750078819870084
 31
0.0
  0
LINE
  5
3F1
330
1F
100
AcDbEntity
  8
Object
100
AcDbLine
 10
3.479359628698205
 20
4.526078819870084
 30
0.0
 11
3.472359628698203
 21
4.524078819870084
 31
0.0
  0
LINE
  5
3F2
330
1F
100
AcDbEntity
  8
Object
100
AcDbLine
 10
3.472359628698203
 20
4.524078819870084
 30
0.0
 11
3.466359628698203
 21
4.518078819870084
 31
0.0
  0
LINE
  5
3F3
330
1F
100
AcDbEntity
  8
Object
100
AcDbLine
 10
3.466359628698203
 20
4.518078819870084
 30
0.0
 11
3.464359628698204
 21
4.511078819870085
 31
0.0
  0
LINE
  5
3F4
330
1F
100
AcDbEntity
  8
Object
100
AcDbLine
 10
6.252359628698204
 20
4.750078819870084
 30
0.0
 11
6.250359628698204
 21
4.755078819870084
 31
0.0
  0
LINE
  5
3F5
330
1F
100
AcDbEntity
  8
Object
100
AcDbLine
 10
6.250359628698204
 20
4.755078819870084
 30
0.0
 11
6.247359628698204
 21
4.759078819870085
 31
0.0
  0
LINE
  5
3F6
330
1F
100
AcDbEntity
  8
Object
100
AcDbLine
 10
6.247359628698204
 20
4.759078819870085
 30
0.0
 11
6.242359628698203
 21
4.760078819870084
 31
0.0
  0
LINE
  5
3F7
330
1F
100
AcDbEntity
  8
Object
100
AcDbLine
 10
6.252359628698204
 20
4.536078819870084
 30
0.0
 11
6.250359628698204
 21
4.531078819870084
 31
0.0
  0
LINE
  5
3F8
330
1F
100
AcDbEntity
  8
Object
100
AcDbLine
 10
6.250359628698204
 20
4.531078819870084
 30
0.0
 11
6.247359628698204
 21
4.527078819870084
 31
0.0
  0
LINE
  5
3F9
330
1F
100
AcDbEntity
  8
Object
100
AcDbLine
 10
6.247359628698204
 20
4.527078819870084
 30
0.0
 11
6.242359628698203
 21
4.526078819870084
 31
0.0
  0
LINE
  5
3FA
330
1F
100
AcDbEntity
  8
Object
100
AcDbLine
 10
6.452359628698204
 20
4.416078819870085
 30
0.0
 11
6.450359628698205
 21
4.408078819870084
 31
0.0
  0
LINE
  5
3FB
330
1F
100
AcDbEntity
  8
Object
100
AcDbLine
 10
6.450359628698205
 20
4.408078819870084
 30
0.0
 11
6.444359628698205
 21
4.403078819870085
 31
0.0
  0
LINE
  5
3FC
330
1F
100
AcDbEntity
  8
Object
100
AcDbLine
 10
6.444359628698205
 20
4.403078819870085
 30
0.0
 11
6.437359628698203
 21
4.401078819870084
 31
0.0
  0
LINE
  5
3FD
330
1F
100
AcDbEntity
  8
Object
100
AcDbLine
 10
6.377359628698204
 20
4.536078819870084
 30
0.0
 11
6.377359628698204
 21
4.750078819870084
 31
0.0
  0
LINE
  5
3FE
330
1F
100
AcDbEntity
  8
Object
100
AcDbLine
 10
13.1343596286982
 20
4.401078819870084
 30
0.0
 11
13.3943596286982
 21
4.401078819870084
 31
0.0
  0
LINE
  5
3FF
330
1F
100
AcDbEntity
  8
Object
100
AcDbLine
 10
13.1943596286982
 20
4.760078819870084
 30
0.0
 11
13.1893596286982
 21
4.759078819870085
 31
0.0
  0
LINE
  5
400
330
1F
100
AcDbEntity
  8
Object
100
AcDbLine
 10
13.1893596286982
 20
4.759078819870085
 30
0.0
 11
13.1853596286982
 21
4.755078819870084
 31
0.0
  0
LINE
  5
401
330
1F
100
AcDbEntity
  8
Object
100
AcDbLine
 10
13.1853596286982
 20
4.755078819870084
 30
0.0
 11
13.1843596286982
 21
4.750078819870084
 31
0.0
  0
LINE
  5
402
330
1F
100
AcDbEntity
  8
Object
100
AcDbLine
 10
14.8373596286982
 20
8.344078819870084
 30
0.0
 11
14.8273596286982
 21
8.347078819870084
 31
0.0
  0
LINE
  5
403
330
1F
100
AcDbEntity
  8
Object
100
AcDbLine
 10
14.8273596286982
 20
8.347078819870084
 30
0.0
 11
14.8193596286982
 21
8.354078819870085
 31
0.0
  0
LINE
  5
404
330
1F
100
AcDbEntity
  8
Object
100
AcDbLine
 10
14.8193596286982
 20
8.354078819870085
 30
0.0
 11
14.8173596286982
 21
8.364078819870083
 31
0.0
  0
LINE
  5
405
330
1F
100
AcDbEntity
  8
Object
100
AcDbLine
 10
14.9473596286982
 20
8.680078819870084
 30
0.0
 11
14.9443596286982
 21
8.690078819870084
 31
0.0
  0
LINE
  5
406
330
1F
100
AcDbEntity
  8
Object
100
AcDbLine
 10
14.9443596286982
 20
8.690078819870084
 30
0.0
 11
14.9383596286982
 21
8.698078819870085
 31
0.0
  0
LINE
  5
407
330
1F
100
AcDbEntity
  8
Object
100
AcDbLine
 10
14.9383596286982
 20
8.698078819870085
 30
0.0
 11
14.9293596286982
 21
8.703078819870086
 31
0.0
  0
LINE
  5
408
330
1F
100
AcDbEntity
  8
Object
100
AcDbLine
 10
14.9293596286982
 20
8.703078819870086
 30
0.0
 11
14.9183596286982
 21
8.704078819870083
 31
0.0
  0
LINE
  5
409
330
1F
100
AcDbEntity
  8
Object
100
AcDbLine
 10
14.9183596286982
 20
8.704078819870083
 30
0.0
 11
14.9093596286982
 21
8.701078819870083
 31
0.0
  0
LINE
  5
40A
330
1F
100
AcDbEntity
  8
Object
100
AcDbLine
 10
15.0423596286982
 20
8.511078819870085
 30
0.0
 11
15.0663596286982
 21
8.778078819870085
 31
0.0
  0
LINE
  5
40B
330
1F
100
AcDbEntity
  8
Object
100
AcDbLine
 10
2.176359628698204
 20
8.083078819870085
 30
0.0
 11
2.182359628698204
 21
8.060078819870085
 31
0.0
  0
LINE
  5
40C
330
1F
100
AcDbEntity
  8
Object
100
AcDbLine
 10
2.182359628698204
 20
8.060078819870085
 30
0.0
 11
2.176359628698204
 21
8.037078819870085
 31
0.0
  0
LINE
  5
40D
330
1F
100
AcDbEntity
  8
Object
100
AcDbLine
 10
2.176359628698204
 20
8.037078819870085
 30
0.0
 11
2.159359628698204
 21
8.020078819870084
 31
0.0
  0
LINE
  5
40E
330
1F
100
AcDbEntity
  8
Object
100
AcDbLine
 10
2.176359628698204
 20
8.083078819870085
 30
0.0
 11
2.159359628698204
 21
8.099078819870085
 31
0.0
  0
LINE
  5
40F
330
1F
100
AcDbEntity
  8
Object
100
AcDbLine
 10
2.136359628698205
 20
8.014078819870086
 30
0.0
 11
2.159359628698204
 21
8.020078819870084
 31
0.0
  0
LINE
  5
410
330
1F
100
AcDbEntity
  8
Object
100
AcDbLine
 10
1.927359628698203
 20
8.515078819870083
 30
0.0
 11
1.920359628698204
 21
8.492078819870084
 31
0.0
  0
LINE
  5
411
330
1F
100
AcDbEntity
  8
Object
100
AcDbLine
 10
1.920359628698204
 20
8.492078819870084
 30
0.0
 11
1.904359628698204
 21
8.475078819870084
 31
0.0
  0
LINE
  5
412
330
1F
100
AcDbEntity
  8
Object
100
AcDbLine
 10
1.904359628698204
 20
8.475078819870084
 30
0.0
 11
1.881359628698204
 21
8.469078819870084
 31
0.0
  0
LINE
  5
413
330
1F
100
AcDbEntity
  8
Object
100
AcDbLine
 10
1.965359628698204
 20
8.701078819870083
 30
0.0
 11
1.955359628698204
 21
8.704078819870083
 31
0.0
  0
LINE
  5
414
330
1F
100
AcDbEntity
  8
Object
100
AcDbLine
 10
1.955359628698204
 20
8.704078819870083
 30
0.0
 11
1.944359628698205
 21
8.703078819870086
 31
0.0
  0
LINE
  5
415
330
1F
100
AcDbEntity
  8
Object
100
AcDbLine
 10
1.944359628698205
 20
8.703078819870086
 30
0.0
 11
1.935359628698204
 21
8.698078819870085
 31
0.0
  0
LINE
  5
416
330
1F
100
AcDbEntity
  8
Object
100
AcDbLine
 10
1.935359628698204
 20
8.698078819870085
 30
0.0
 11
1.929359628698204
 21
8.690078819870084
 31
0.0
  0
LINE
  5
417
330
1F
100
AcDbEntity
  8
Object
100
AcDbLine
 10
1.929359628698204
 20
8.690078819870084
 30
0.0
 11
1.927359628698203
 21
8.680078819870084
 31
0.0
  0
LINE
  5
418
330
1F
100
AcDbEntity
  8
Object
100
AcDbLine
 10
2.604359628698205
 20
4.401078819870084
 30
0.0
 11
2.597359628698203
 21
4.403078819870085
 31
0.0
  0
LINE
  5
419
330
1F
100
AcDbEntity
  8
Object
100
AcDbLine
 10
2.597359628698203
 20
4.403078819870085
 30
0.0
 11
2.591359628698203
 21
4.408078819870084
 31
0.0
  0
LINE
  5
41A
330
1F
100
AcDbEntity
  8
Object
100
AcDbLine
 10
2.591359628698203
 20
4.408078819870084
 30
0.0
 11
2.589359628698204
 21
4.416078819870085
 31
0.0
  0
LINE
  5
41B
330
1F
100
AcDbEntity
  8
Object
100
AcDbLine
 10
3.689359628698204
 20
4.750078819870084
 30
0.0
 11
3.689359628698204
 21
4.536078819870084
 31
0.0
  0
LINE
  5
41C
330
1F
100
AcDbEntity
  8
Object
100
AcDbLine
 10
3.479359628698205
 20
4.401078819870084
 30
0.0
 11
3.472359628698203
 21
4.403078819870085
 31
0.0
  0
LINE
  5
41D
330
1F
100
AcDbEntity
  8
Object
100
AcDbLine
 10
3.472359628698203
 20
4.403078819870085
 30
0.0
 11
3.466359628698203
 21
4.408078819870084
 31
0.0
  0
LINE
  5
41E
330
1F
100
AcDbEntity
  8
Object
100
AcDbLine
 10
3.466359628698203
 20
4.408078819870084
 30
0.0
 11
3.464359628698204
 21
4.416078819870085
 31
0.0
  0
LINE
  5
41F
330
1F
100
AcDbEntity
  8
Object
100
AcDbLine
 10
6.387359628698202
 20
4.760078819870084
 30
0.0
 11
7.117359628698203
 21
4.760078819870084
 31
0.0
  0
LINE
  5
420
330
1F
100
AcDbEntity
  8
Object
100
AcDbLine
 10
7.127359628698204
 20
4.750078819870084
 30
0.0
 11
7.127359628698204
 21
4.536078819870084
 31
0.0
  0
LINE
  5
421
330
1F
100
AcDbEntity
  8
Object
100
AcDbLine
 10
8.602359628698204
 20
4.401078819870084
 30
0.0
 11
8.862359628698204
 21
4.401078819870084
 31
0.0
  0
LINE
  5
422
330
1F
100
AcDbEntity
  8
Object
100
AcDbLine
 10
9.546359628698203
 20
4.511078819870085
 30
0.0
 11
9.546359628698203
 21
4.416078819870085
 31
0.0
  0
LINE
  5
423
330
1F
100
AcDbEntity
  8
Object
100
AcDbLine
 10
9.806359628698203
 20
4.526078819870084
 30
0.0
 11
9.756359628698204
 21
4.526078819870084
 31
0.0
  0
LINE
  5
424
330
1F
100
AcDbEntity
  8
Object
100
AcDbLine
 10
10.4973596286982
 20
4.536078819870084
 30
0.0
 11
10.4953596286982
 21
4.531078819870084
 31
0.0
  0
LINE
  5
425
330
1F
100
AcDbEntity
  8
Object
100
AcDbLine
 10
10.4953596286982
 20
4.531078819870084
 30
0.0
 11
10.4923596286982
 21
4.527078819870084
 31
0.0
  0
LINE
  5
426
330
1F
100
AcDbEntity
  8
Object
100
AcDbLine
 10
10.4923596286982
 20
4.527078819870084
 30
0.0
 11
10.4873596286982
 21
4.526078819870084
 31
0.0
  0
LINE
  5
427
330
1F
100
AcDbEntity
  8
Object
100
AcDbLine
 10
10.6223596286982
 20
4.536078819870084
 30
0.0
 11
10.6223596286982
 21
4.750078819870084
 31
0.0
  0
LINE
  5
428
330
1F
100
AcDbEntity
  8
Object
100
AcDbLine
 10
14.9533596286982
 20
5.216078819870084
 30
0.0
 11
14.9403596286982
 21
5.135078819870084
 31
0.0
  0
LINE
  5
429
330
1F
100
AcDbEntity
  8
Object
100
AcDbLine
 10
14.9403596286982
 20
5.135078819870084
 30
0.0
 11
14.9143596286982
 21
5.058078819870084
 31
0.0
  0
LINE
  5
42A
330
1F
100
AcDbEntity
  8
Object
100
AcDbLine
 10
14.9143596286982
 20
5.058078819870084
 30
0.0
 11
14.8763596286982
 21
4.985078819870084
 31
0.0
  0
LINE
  5
42B
330
1F
100
AcDbEntity
  8
Object
100
AcDbLine
 10
14.8763596286982
 20
4.985078819870084
 30
0.0
 11
14.8273596286982
 21
4.921078819870084
 31
0.0
  0
LINE
  5
42C
330
1F
100
AcDbEntity
  8
Object
100
AcDbLine
 10
14.8273596286982
 20
4.921078819870084
 30
0.0
 11
14.7673596286982
 21
4.865078819870085
 31
0.0
  0
LINE
  5
42D
330
1F
100
AcDbEntity
  8
Object
100
AcDbLine
 10
14.7673596286982
 20
4.865078819870085
 30
0.0
 11
14.6993596286982
 21
4.820078819870085
 31
0.0
  0
LINE
  5
42E
330
1F
100
AcDbEntity
  8
Object
100
AcDbLine
 10
14.6993596286982
 20
4.820078819870085
 30
0.0
 11
14.6243596286982
 21
4.787078819870084
 31
0.0
  0
LINE
  5
42F
330
1F
100
AcDbEntity
  8
Object
100
AcDbLine
 10
14.6243596286982
 20
4.787078819870084
 30
0.0
 11
14.5453596286982
 21
4.767078819870084
 31
0.0
  0
LINE
  5
430
330
1F
100
AcDbEntity
  8
Object
100
AcDbLine
 10
14.5453596286982
 20
4.767078819870084
 30
0.0
 11
14.4643596286982
 21
4.760078819870084
 31
0.0
  0
LINE
  5
431
330
1F
100
AcDbEntity
  8
Object
100
AcDbLine
 10
2.159359628698204
 20
8.099078819870085
 30
0.0
 11
2.142359628698203
 21
8.109078819870084
 31
0.0
  0
LINE
  5
432
330
1F
100
AcDbEntity
  8
Object
100
AcDbLine
 10
1.844359628698203
 20
8.108078819870083
 30
0.0
 11
1.838359628698203
 21
8.198078819870085
 31
0.0
  0
LINE
  5
433
330
1F
100
AcDbEntity
  8
Object
100
AcDbLine
 10
1.772359628698204
 20
8.344078819870084
 30
0.0
 11
1.746359628698204
 21
8.339078819870085
 31
0.0
  0
LINE
  5
434
330
1F
100
AcDbEntity
  8
Object
100
AcDbLine
 10
1.746359628698204
 20
8.339078819870085
 30
0.0
 11
1.724359628698204
 21
8.324078819870084
 31
0.0
  0
LINE
  5
435
330
1F
100
AcDbEntity
  8
Object
100
AcDbLine
 10
1.724359628698204
 20
8.324078819870084
 30
0.0
 11
1.710359628698203
 21
8.301078819870085
 31
0.0
  0
LINE
  5
436
330
1F
100
AcDbEntity
  8
Object
100
AcDbLine
 10
1.710359628698203
 20
8.301078819870085
 30
0.0
 11
1.707359628698203
 21
8.275078819870085
 31
0.0
  0
LINE
  5
437
330
1F
100
AcDbEntity
  8
Object
100
AcDbLine
 10
3.464359628698204
 20
4.511078819870085
 30
0.0
 11
3.464359628698204
 21
4.416078819870085
 31
0.0
  0
LINE
  5
438
330
1F
100
AcDbEntity
  8
Object
100
AcDbLine
 10
7.117359628698203
 20
4.526078819870084
 30
0.0
 11
7.067359628698204
 21
4.526078819870084
 31
0.0
  0
LINE
  5
439
330
1F
100
AcDbEntity
  8
Object
100
AcDbLine
 10
7.327359628698204
 20
4.511078819870085
 30
0.0
 11
7.325359628698205
 21
4.518078819870084
 31
0.0
  0
LINE
  5
43A
330
1F
100
AcDbEntity
  8
Object
100
AcDbLine
 10
7.325359628698205
 20
4.518078819870084
 30
0.0
 11
7.320359628698204
 21
4.524078819870084
 31
0.0
  0
LINE
  5
43B
330
1F
100
AcDbEntity
  8
Object
100
AcDbLine
 10
7.320359628698204
 20
4.524078819870084
 30
0.0
 11
7.312359628698203
 21
4.526078819870084
 31
0.0
  0
LINE
  5
43C
330
1F
100
AcDbEntity
  8
Object
100
AcDbLine
 10
7.252359628698204
 20
4.536078819870084
 30
0.0
 11
7.252359628698204
 21
4.750078819870084
 31
0.0
  0
LINE
  5
43D
330
1F
100
AcDbEntity
  8
Object
100
AcDbLine
 10
8.072359628698205
 20
4.526078819870084
 30
0.0
 11
8.067359628698204
 21
4.527078819870084
 31
0.0
  0
LINE
  5
43E
330
1F
100
AcDbEntity
  8
Object
100
AcDbLine
 10
8.067359628698204
 20
4.527078819870084
 30
0.0
 11
8.063359628698204
 21
4.531078819870084
 31
0.0
  0
LINE
  5
43F
330
1F
100
AcDbEntity
  8
Object
100
AcDbLine
 10
8.063359628698204
 20
4.531078819870084
 30
0.0
 11
8.062359628698203
 21
4.536078819870084
 31
0.0
  0
LINE
  5
440
330
1F
100
AcDbEntity
  8
Object
100
AcDbLine
 10
8.812359628698203
 20
4.750078819870084
 30
0.0
 11
8.812359628698203
 21
4.536078819870084
 31
0.0
  0
LINE
  5
441
330
1F
100
AcDbEntity
  8
Object
100
AcDbLine
 10
9.756359628698204
 20
4.760078819870084
 30
0.0
 11
10.4873596286982
 21
4.760078819870084
 31
0.0
  0
LINE
  5
442
330
1F
100
AcDbEntity
  8
Object
100
AcDbLine
 10
10.4873596286982
 20
4.526078819870084
 30
0.0
 11
10.4373596286982
 21
4.526078819870084
 31
0.0
  0
LINE
  5
443
330
1F
100
AcDbEntity
  8
Object
100
AcDbLine
 10
13.9243596286982
 20
4.526078819870084
 30
0.0
 11
13.7243596286982
 21
4.526078819870084
 31
0.0
  0
LINE
  5
444
330
1F
100
AcDbEntity
  8
Object
100
AcDbLine
 10
1.807359628698204
 20
8.778078819870085
 30
0.0
 11
1.831359628698203
 21
8.511078819870085
 31
0.0
  0
LINE
  5
445
330
1F
100
AcDbEntity
  8
Object
100
AcDbLine
 10
2.057359628698204
 20
8.537078819870085
 30
0.0
 11
2.050359628698203
 21
8.585078819870084
 31
0.0
  0
LINE
  5
446
330
1F
100
AcDbEntity
  8
Object
100
AcDbLine
 10
2.050359628698203
 20
8.585078819870084
 30
0.0
 11
2.032359628698204
 21
8.631078819870085
 31
0.0
  0
LINE
  5
447
330
1F
100
AcDbEntity
  8
Object
100
AcDbLine
 10
2.032359628698204
 20
8.631078819870085
 30
0.0
 11
2.003359628698204
 21
8.670078819870084
 31
0.0
  0
LINE
  5
448
330
1F
100
AcDbEntity
  8
Object
100
AcDbLine
 10
2.003359628698204
 20
8.670078819870084
 30
0.0
 11
1.965359628698204
 21
8.701078819870083
 31
0.0
  0
LINE
  5
449
330
1F
100
AcDbEntity
  8
Object
100
AcDbLine
 10
3.689359628698204
 20
4.750078819870084
 30
0.0
 11
3.688359628698204
 21
4.755078819870084
 31
0.0
  0
LINE
  5
44A
330
1F
100
AcDbEntity
  8
Object
100
AcDbLine
 10
3.688359628698204
 20
4.755078819870084
 30
0.0
 11
3.684359628698203
 21
4.759078819870085
 31
0.0
  0
LINE
  5
44B
330
1F
100
AcDbEntity
  8
Object
100
AcDbLine
 10
3.684359628698203
 20
4.759078819870085
 30
0.0
 11
3.679359628698204
 21
4.760078819870084
 31
0.0
  0
LINE
  5
44C
330
1F
100
AcDbEntity
  8
Object
100
AcDbLine
 10
3.679359628698204
 20
4.526078819870084
 30
0.0
 11
3.479359628698205
 21
4.526078819870084
 31
0.0
  0
LINE
  5
44D
330
1F
100
AcDbEntity
  8
Object
100
AcDbLine
 10
6.252359628698204
 20
4.750078819870084
 30
0.0
 11
6.252359628698204
 21
4.536078819870084
 31
0.0
  0
LINE
  5
44E
330
1F
100
AcDbEntity
  8
Object
100
AcDbLine
 10
6.192359628698204
 20
4.526078819870084
 30
0.0
 11
6.184359628698203
 21
4.524078819870084
 31
0.0
  0
LINE
  5
44F
330
1F
100
AcDbEntity
  8
Object
100
AcDbLine
 10
6.184359628698203
 20
4.524078819870084
 30
0.0
 11
6.179359628698204
 21
4.518078819870084
 31
0.0
  0
LINE
  5
450
330
1F
100
AcDbEntity
  8
Object
100
AcDbLine
 10
6.179359628698204
 20
4.518078819870084
 30
0.0
 11
6.177359628698203
 21
4.511078819870085
 31
0.0
  0
LINE
  5
451
330
1F
100
AcDbEntity
  8
Object
100
AcDbLine
 10
6.452359628698204
 20
4.511078819870085
 30
0.0
 11
6.450359628698205
 21
4.518078819870084
 31
0.0
  0
LINE
  5
452
330
1F
100
AcDbEntity
  8
Object
100
AcDbLine
 10
6.450359628698205
 20
4.518078819870084
 30
0.0
 11
6.444359628698205
 21
4.524078819870084
 31
0.0
  0
LINE
  5
453
330
1F
100
AcDbEntity
  8
Object
100
AcDbLine
 10
6.444359628698205
 20
4.524078819870084
 30
0.0
 11
6.437359628698203
 21
4.526078819870084
 31
0.0
  0
LINE
  5
454
330
1F
100
AcDbEntity
  8
Object
100
AcDbLine
 10
9.821359628698203
 20
4.416078819870085
 30
0.0
 11
9.819359628698205
 21
4.408078819870084
 31
0.0
  0
LINE
  5
455
330
1F
100
AcDbEntity
  8
Object
100
AcDbLine
 10
9.819359628698205
 20
4.408078819870084
 30
0.0
 11
9.814359628698204
 21
4.403078819870085
 31
0.0
  0
LINE
  5
456
330
1F
100
AcDbEntity
  8
Object
100
AcDbLine
 10
9.814359628698204
 20
4.403078819870085
 30
0.0
 11
9.806359628698203
 21
4.401078819870084
 31
0.0
  0
LINE
  5
457
330
1F
100
AcDbEntity
  8
Object
100
AcDbLine
 10
13.0593596286982
 20
4.750078819870084
 30
0.0
 11
13.0593596286982
 21
4.476078819870084
 31
0.0
  0
LINE
  5
458
330
1F
100
AcDbEntity
  8
Object
100
AcDbLine
 10
13.9343596286982
 20
4.750078819870084
 30
0.0
 11
13.9343596286982
 21
4.536078819870084
 31
0.0
  0
LINE
  5
459
330
1F
100
AcDbEntity
  8
Object
100
AcDbLine
 10
13.9343596286982
 20
4.536078819870084
 30
0.0
 11
13.9333596286982
 21
4.531078819870084
 31
0.0
  0
LINE
  5
45A
330
1F
100
AcDbEntity
  8
Object
100
AcDbLine
 10
13.9333596286982
 20
4.531078819870084
 30
0.0
 11
13.9293596286982
 21
4.527078819870084
 31
0.0
  0
LINE
  5
45B
330
1F
100
AcDbEntity
  8
Object
100
AcDbLine
 10
13.9293596286982
 20
4.527078819870084
 30
0.0
 11
13.9243596286982
 21
4.526078819870084
 31
0.0
  0
LINE
  5
45C
102
{ACAD_REACTORS
330
5A0
102
}
330
1F
100
AcDbEntity
  8
Object
100
AcDbLine
 10
15.1663596286982
 20
8.275078819870085
 30
0.0
 11
15.1633596286982
 21
8.301078819870085
 31
0.0
  0
LINE
  5
45D
330
1F
100
AcDbEntity
  8
Object
100
AcDbLine
 10
15.1633596286982
 20
8.301078819870085
 30
0.0
 11
15.1493596286982
 21
8.324078819870084
 31
0.0
  0
LINE
  5
45E
330
1F
100
AcDbEntity
  8
Object
100
AcDbLine
 10
15.1493596286982
 20
8.324078819870084
 30
0.0
 11
15.1283596286982
 21
8.339078819870085
 31
0.0
  0
LINE
  5
45F
330
1F
100
AcDbEntity
  8
Object
100
AcDbLine
 10
15.1283596286982
 20
8.339078819870085
 30
0.0
 11
15.1023596286982
 21
8.344078819870084
 31
0.0
  0
LINE
  5
460
330
1F
100
AcDbEntity
  8
Object
100
AcDbLine
 10
14.9933596286982
 20
8.469078819870084
 30
0.0
 11
14.9963596286982
 21
8.469078819870084
 31
0.0
  0
LINE
  5
461
330
1F
100
AcDbEntity
  8
Object
100
AcDbLine
 10
15.0213596286982
 20
7.993078819870085
 30
0.0
 11
15.0203596286982
 21
8.001078819870084
 31
0.0
  0
LINE
  5
462
330
1F
100
AcDbEntity
  8
Object
100
AcDbLine
 10
15.0203596286982
 20
8.001078819870084
 30
0.0
 11
15.0163596286982
 21
8.008078819870085
 31
0.0
  0
LINE
  5
463
330
1F
100
AcDbEntity
  8
Object
100
AcDbLine
 10
15.0163596286982
 20
8.008078819870085
 30
0.0
 11
15.0093596286982
 21
8.013078819870084
 31
0.0
  0
LINE
  5
464
330
1F
100
AcDbEntity
  8
Object
100
AcDbLine
 10
15.0093596286982
 20
8.013078819870084
 30
0.0
 11
15.0013596286982
 21
8.014078819870086
 31
0.0
  0
LINE
  5
465
330
1F
100
AcDbEntity
  8
Object
100
AcDbLine
 10
2.102359628698204
 20
8.109078819870084
 30
0.0
 11
2.098359628698204
 21
8.089078819870085
 31
0.0
  0
LINE
  5
466
330
1F
100
AcDbEntity
  8
Object
100
AcDbLine
 10
1.864359628698203
 20
8.089078819870085
 30
0.0
 11
1.854359628698205
 21
8.092078819870085
 31
0.0
  0
LINE
  5
467
330
1F
100
AcDbEntity
  8
Object
100
AcDbLine
 10
1.854359628698205
 20
8.092078819870085
 30
0.0
 11
1.847359628698203
 21
8.098078819870085
 31
0.0
  0
LINE
  5
468
330
1F
100
AcDbEntity
  8
Object
100
AcDbLine
 10
1.847359628698203
 20
8.098078819870085
 30
0.0
 11
1.844359628698203
 21
8.108078819870083
 31
0.0
  0
LINE
  5
469
102
{ACAD_REACTORS
330
5A0
102
}
330
1F
100
AcDbEntity
  8
Object
100
AcDbLine
 10
1.707359628698203
 20
8.275078819870085
 30
0.0
 11
1.921359628698203
 21
5.216078819870084
 31
0.0
  0
LINE
  5
46A
330
1F
100
AcDbEntity
  8
Object
100
AcDbLine
 10
8.937359628698203
 20
4.476078819870084
 30
0.0
 11
8.937359628698203
 21
4.750078819870084
 31
0.0
  0
LINE
  5
46B
330
1F
100
AcDbEntity
  8
Object
100
AcDbLine
 10
9.561359628698204
 20
4.401078819870084
 30
0.0
 11
9.554359628698204
 21
4.403078819870085
 31
0.0
  0
LINE
  5
46C
330
1F
100
AcDbEntity
  8
Object
100
AcDbLine
 10
9.554359628698204
 20
4.403078819870085
 30
0.0
 11
9.548359628698204
 21
4.408078819870084
 31
0.0
  0
LINE
  5
46D
330
1F
100
AcDbEntity
  8
Object
100
AcDbLine
 10
9.548359628698204
 20
4.408078819870084
 30
0.0
 11
9.546359628698203
 21
4.416078819870085
 31
0.0
  0
LINE
  5
46E
330
1F
100
AcDbEntity
  8
Object
100
AcDbLine
 10
9.821359628698203
 20
4.511078819870085
 30
0.0
 11
9.819359628698205
 21
4.518078819870084
 31
0.0
  0
LINE
  5
46F
330
1F
100
AcDbEntity
  8
Object
100
AcDbLine
 10
9.819359628698205
 20
4.518078819870084
 30
0.0
 11
9.814359628698204
 21
4.524078819870084
 31
0.0
  0
LINE
  5
470
330
1F
100
AcDbEntity
  8
Object
100
AcDbLine
 10
9.814359628698204
 20
4.524078819870084
 30
0.0
 11
9.806359628698203
 21
4.526078819870084
 31
0.0
  0
LINE
  5
471
330
1F
100
AcDbEntity
  8
Object
100
AcDbLine
 10
9.746359628698204
 20
4.536078819870084
 30
0.0
 11
9.746359628698204
 21
4.750078819870084
 31
0.0
  0
LINE
  5
472
330
1F
100
AcDbEntity
  8
Object
100
AcDbLine
 10
9.756359628698204
 20
4.760078819870084
 30
0.0
 11
9.751359628698203
 21
4.759078819870085
 31
0.0
  0
LINE
  5
473
330
1F
100
AcDbEntity
  8
Object
100
AcDbLine
 10
9.751359628698203
 20
4.759078819870085
 30
0.0
 11
9.747359628698204
 21
4.755078819870084
 31
0.0
  0
LINE
  5
474
330
1F
100
AcDbEntity
  8
Object
100
AcDbLine
 10
9.747359628698204
 20
4.755078819870084
 30
0.0
 11
9.746359628698204
 21
4.750078819870084
 31
0.0
  0
LINE
  5
475
330
1F
100
AcDbEntity
  8
Object
100
AcDbLine
 10
10.6973596286982
 20
4.511078819870085
 30
0.0
 11
10.6953596286982
 21
4.518078819870084
 31
0.0
  0
LINE
  5
476
330
1F
100
AcDbEntity
  8
Object
100
AcDbLine
 10
10.6953596286982
 20
4.518078819870084
 30
0.0
 11
10.6893596286982
 21
4.524078819870084
 31
0.0
  0
LINE
  5
477
330
1F
100
AcDbEntity
  8
Object
100
AcDbLine
 10
10.6893596286982
 20
4.524078819870084
 30
0.0
 11
10.6823596286982
 21
4.526078819870084
 31
0.0
  0
LINE
  5
478
330
1F
100
AcDbEntity
  8
Object
100
AcDbLine
 10
13.0593596286982
 20
4.750078819870084
 30
0.0
 11
13.0583596286982
 21
4.755078819870084
 31
0.0
  0
LINE
  5
479
330
1F
100
AcDbEntity
  8
Object
100
AcDbLine
 10
13.0583596286982
 20
4.755078819870084
 30
0.0
 11
13.0543596286982
 21
4.759078819870085
 31
0.0
  0
LINE
  5
47A
330
1F
100
AcDbEntity
  8
Object
100
AcDbLine
 10
13.0543596286982
 20
4.759078819870085
 30
0.0
 11
13.0493596286982
 21
4.760078819870084
 31
0.0
  0
LINE
  5
47B
330
1F
100
AcDbEntity
  8
Object
100
AcDbLine
 10
13.3943596286982
 20
4.526078819870084
 30
0.0
 11
13.1943596286982
 21
4.526078819870084
 31
0.0
  0
LINE
  5
47C
330
1F
100
AcDbEntity
  8
Object
100
AcDbLine
 10
14.2693596286982
 20
4.526078819870084
 30
0.0
 11
14.0693596286982
 21
4.526078819870084
 31
0.0
  0
LINE
  5
47D
330
1F
100
AcDbEntity
  8
Object
100
AcDbLine
 10
14.7723596286982
 20
8.109078819870084
 30
0.0
 11
14.7323596286982
 21
8.109078819870084
 31
0.0
  0
LINE
  5
47E
330
1F
100
AcDbEntity
  8
Object
100
AcDbLine
 10
2.057359628698204
 20
8.537078819870085
 30
0.0
 11
2.057359628698204
 21
8.364078819870083
 31
0.0
  0
TEXT
  5
53A
330
1F
100
AcDbEntity
  8
Title Block
100
AcDbText
 10
12.77669501265555
 20
2.672489851525506
 30
0.0
 40
0.05
  1
FILENAME:
100
AcDbText
  0
TEXT
  5
53B
330
1F
100
AcDbEntity
  8
Title Block
100
AcDbText
 10
12.76928502872825
 20
2.076224967549324
 30
0.0
 40
0.35
  1
PANDUIT
100
AcDbText
  0
TEXT
  5
53C
330
1F
100
AcDbEntity
  8
Title Block
100
AcDbText
 10
14.72182039882138
 20
2.061410940562984
 30
0.0
 40
0.125
  1
CORP. TINLEY PARK, IL
100
AcDbText
  0
TEXT
  5
53D
330
1F
100
AcDbEntity
  8
Title Block
100
AcDbText
 10
12.78039997670862
 20
1.916974097093918
 30
0.0
 40
0.05
  1
TITLE:
100
AcDbText
  0
MTEXT
  5
53E
330
1F
100
AcDbEntity
  8
Title Block
100
AcDbMText
 10
14.0
 20
1.372215793536346
 30
0.0
 40
0.075
 41
2.5
 71
     5
 72
     5
  1
UNLESS OTHERWISE SPECIFIED,\PDIMENSIONAL TOLERANCES ARE:       
 73
     1
 44
1.0
1001
ACAD
1000
MTEXTBEGIN
1070
    73
1070
     1
1070
    44
1040
1.0
1070
    74
1070
     0
1000
MTEXTEND
  0
MTEXT
  5
53F
330
1F
100
AcDbEntity
  8
Title Block
100
AcDbMText
 10
13.39237986661002
 20
1.13148770848363
 30
0.0
 40
0.075
 41
2.5
 71
     5
 72
     5
  1
(.X)\P(.XX)
 73
     1
 44
1.0
1001
ACAD
1000
MTEXTBEGIN
1070
    73
1070
     1
1070
    44
1040
1.0
1070
    74
1070
     0
1000
MTEXTEND
  0
MTEXT
  5
540
330
1F
100
AcDbEntity
  8
Title Block
100
AcDbMText
 10
14.40014005312412
 20
1.13148770848363
 30
0.0
 40
0.075
 41
2.5
 71
     5
 72
     5
  1
(.XXX)\PANGLES:
 73
     1
 44
1.0
1001
ACAD
1000
MTEXTBEGIN
1070
    73
1070
     1
1070
    44
1040
1.0
1070
    74
1070
     0
1000
MTEXTEND
  0
MTEXT
  5
541
330
1F
100
AcDbEntity
  8
Title Block
100
AcDbMText
 10
16.0
 20
1.249999999999998
 30
0.0
 40
0.06
 41
1.5
 71
     5
 72
     5
  1
UNLESS OTHERWISE SPECIFIED,\PALL DIMENSIONS ARE GIVEN IN INCHES, THIRD ANGLE PROJECTION
 73
     1
 44
1.0
1001
ACAD
1000
MTEXTBEGIN
1070
    73
1070
     1
1070
    44
1040
1.0
1070
    74
1070
     0
1000
MTEXTEND
  0
TEXT
  5
542
330
1F
100
AcDbEntity
  8
Title Block
100
AcDbText
 10
12.76076445430619
 20
0.9281373372752295
 30
0.0
 40
0.05
  1
DRAWN BY:
100
AcDbText
  0
TEXT
  5
543
330
1F
100
AcDbEntity
  8
Title Block
100
AcDbText
 10
12.76446947418044
 20
0.681143186563501
 30
0.0
 40
0.05
  1
DATE:
100
AcDbText
  0
TEXT
  5
544
330
1F
100
AcDbEntity
  8
Title Block
100
AcDbText
 10
12.7681744382335
 20
0.430445533831795
 30
0.0
 40
0.05
  1
CHECKED BY:
100
AcDbText
  0
TEXT
  5
545
330
1F
100
AcDbEntity
  8
Title Block
100
AcDbText
 10
13.52028959313307
 20
0.9281373372752295
 30
0.0
 40
0.05
  1
MATERIAL:
100
AcDbText
  0
TEXT
  5
546
330
1F
100
AcDbEntity
  8
Title Block
100
AcDbText
 10
15.26534493878154
 20
0.9281373372752295
 30
0.0
 40
0.05
  1
SCALE:
100
AcDbText
  0
TEXT
  5
547
330
1F
100
AcDbEntity
  8
Title Block
100
AcDbText
 10
15.26534493878154
 20
0.6725952630489989
 30
0.0
 40
0.05
  1
DRAWING NUMBER:
100
AcDbText
  0
TEXT
  5
548
330
1F
100
AcDbEntity
  8
Title Block
100
AcDbText
 10
16.34942622928998
 20
0.6762987650689798
 30
0.0
 40
0.05
  1
DRAWING
100
AcDbText
  0
TEXT
  5
549
330
1F
100
AcDbEntity
  8
Title Block
100
AcDbText
 10
16.42723125590086
 20
0.2811642688682008
 30
0.0
 40
0.05
  1
SIZE
100
AcDbText
  0
TEXT
  5
54A
330
1F
100
AcDbEntity
  8
Title Block
100
AcDbText
 10
16.40622108086223
 20
0.3826699445861035
 30
0.0
 40
0.25
  1
B
100
AcDbText
  0
MTEXT
  5
54B
330
1F
100
AcDbEntity
  8
Title Block
100
AcDbMText
 10
6.375000000000003
 20
0.3749999999999982
 30
0.0
 40
0.05
 41
0.25
 71
     5
 72
     5
  1
REV
 73
     1
 44
1.0
1001
ACAD
1000
MTEXTBEGIN
1070
    73
1070
     1
1070
    44
1040
1.0
1070
    74
1070
     0
1000
MTEXTEND
  0
MTEXT
  5
54C
330
1F
100
AcDbEntity
  8
Title Block
100
AcDbMText
 10
6.750000000000003
 20
0.3749999999999982
 30
0.0
 40
0.05
 41
0.5
 71
     5
 72
     5
  1
DATE
 73
     1
 44
1.0
1001
ACAD
1000
MTEXTBEGIN
1070
    73
1070
     1
1070
    44
1040
1.0
1070
    74
1070
     0
1000
MTEXTEND
  0
MTEXT
  5
54D
330
1F
100
AcDbEntity
  8
Title Block
100
AcDbMText
 10
7.190000000000003
 20
0.3749999999999982
 30
0.0
 40
0.05
 41
0.38
 71
     5
 72
     5
  1
BY
 73
     1
 44
1.0
1001
ACAD
1000
MTEXTBEGIN
1070
    73
1070
     1
1070
    44
1040
1.0
1070
    74
1070
     0
1000
MTEXTEND
  0
MTEXT
  5
54E
330
1F
100
AcDbEntity
  8
Title Block
100
AcDbMText
 10
7.565000000000003
 20
0.3749999999999982
 30
0.0
 40
0.05
 41
0.38
 71
     5
 72
     5
  1
CHK
 73
     1
 44
1.0
1001
ACAD
1000
MTEXTBEGIN
1070
    73
1070
     1
1070
    44
1040
1.0
1070
    74
1070
     0
1000
MTEXTEND
  0
MTEXT
  5
54F
330
1F
100
AcDbEntity
  8
Title Block
100
AcDbMText
 10
9.125000000000003
 20
0.3749999999999982
 30
0.0
 40
0.05
 41
2.75
 71
     5
 72
     5
  1
DESCRIPTION
 73
     1
 44
1.0
1001
ACAD
1000
MTEXTBEGIN
1070
    73
1070
     1
1070
    44
1040
1.0
1070
    74
1070
     0
1000
MTEXTEND
  0
MTEXT
  5
550
330
1F
100
AcDbEntity
  8
Title Block
100
AcDbMText
 10
11.065
 20
0.3749999999999982
 30
0.0
 40
0.05
 41
1.129999999999999
 71
     5
 72
     5
  1
ECN   -   R
 73
     1
 44
1.0
1001
ACAD
1000
MTEXTBEGIN
1070
    73
1070
     1
1070
    44
1040
1.0
1070
    74
1070
     0
1000
MTEXTEND
  0
MTEXT
  5
551
330
1F
100
AcDbEntity
  8
Title Block
100
AcDbMText
 10
11.815
 20
0.3749999999999982
 30
0.0
 40
0.05
 41
0.38
 71
     5
 72
     5
  1
CUST
 73
     1
 44
1.0
1001
ACAD
1000
MTEXTBEGIN
1070
    73
1070
     1
1070
    44
1040
1.0
1070
    74
1070
     0
1000
MTEXTEND
  0
MTEXT
  5
552
330
1F
100
AcDbEntity
  8
Title Block
100
AcDbMText
 10
12.19
 20
0.3749999999999982
 30
0.0
 40
0.05
 41
0.38
 71
     5
 72
     5
  1
SUP
 73
     1
 44
1.0
1001
ACAD
1000
MTEXTBEGIN
1070
    73
1070
     1
1070
    44
1040
1.0
1070
    74
1070
     0
1000
MTEXTEND
  0
LINE
  5
553
330
1F
100
AcDbEntity
  8
Title Block
100
AcDbLine
 10
16.75
 20
2.749999999999997
 30
0.0
 11
6.250000000000003
 21
2.749999999999999
 31
0.0
  0
LINE
  5
554
330
1F
100
AcDbEntity
  8
Title Block
100
AcDbLine
 10
12.75
 20
2.749999999999998
 30
0.0
 11
12.75
 21
0.2499999999999982
 31
0.0
  0
LINE
  5
555
330
1F
100
AcDbEntity
  8
Title Block
100
AcDbLine
 10
16.75
 20
2.499999999999997
 30
0.0
 11
6.250000000000003
 21
2.499999999999999
 31
0.0
  0
LINE
  5
556
330
1F
100
AcDbEntity
  8
Title Block
100
AcDbLine
 10
12.75
 20
2.249999999999998
 30
0.0
 11
6.250000000000003
 21
2.249999999999999
 31
0.0
  0
LINE
  5
557
330
1F
100
AcDbEntity
  8
Title Block
100
AcDbLine
 10
16.75
 20
1.999999999999997
 30
0.0
 11
6.250000000000003
 21
1.999999999999999
 31
0.0
  0
LINE
  5
558
330
1F
100
AcDbEntity
  8
Title Block
100
AcDbLine
 10
12.75
 20
1.749999999999998
 30
0.0
 11
6.250000000000003
 21
1.749999999999999
 31
0.0
  0
LINE
  5
559
330
1F
100
AcDbEntity
  8
Title Block
100
AcDbLine
 10
16.75
 20
1.499999999999997
 30
0.0
 11
6.250000000000003
 21
1.499999999999999
 31
0.0
  0
LINE
  5
55A
330
1F
100
AcDbEntity
  8
Title Block
100
AcDbLine
 10
12.75
 20
1.249999999999998
 30
0.0
 11
6.250000000000003
 21
1.249999999999999
 31
0.0
  0
LINE
  5
55B
330
1F
100
AcDbEntity
  8
Title Block
100
AcDbLine
 10
16.75
 20
0.9999999999999978
 30
0.0
 11
6.250000000000003
 21
0.9999999999999991
 31
0.0
  0
LINE
  5
55C
330
1F
100
AcDbEntity
  8
Title Block
100
AcDbLine
 10
13.5
 20
0.7499999999999983
 30
0.0
 11
6.250000000000003
 21
0.7499999999999992
 31
0.0
  0
LINE
  5
55D
330
1F
100
AcDbEntity
  8
Title Block
100
AcDbLine
 10
13.5
 20
0.4999999999999983
 30
0.0
 11
6.250000000000003
 21
0.4999999999999992
 31
0.0
  0
LINE
  5
55E
330
1F
100
AcDbEntity
  8
Title Block
100
AcDbLine
 10
6.250000000000003
 20
0.2499999999999982
 30
0.0
 11
6.250000000000003
 21
2.749999999999999
 31
0.0
  0
LINE
  5
55F
330
1F
100
AcDbEntity
  8
Title Block
100
AcDbLine
 10
6.500000000000003
 20
0.2499999999999982
 30
0.0
 11
6.500000000000003
 21
2.75
 31
0.0
  0
LINE
  5
560
330
1F
100
AcDbEntity
  8
Title Block
100
AcDbLine
 10
7.000000000000003
 20
0.2499999999999982
 30
0.0
 11
7.000000000000003
 21
2.75
 31
0.0
  0
LINE
  5
561
330
1F
100
AcDbEntity
  8
Title Block
100
AcDbLine
 10
7.375000000000003
 20
0.2499999999999982
 30
0.0
 11
7.375000000000003
 21
2.75
 31
0.0
  0
LINE
  5
562
330
1F
100
AcDbEntity
  8
Title Block
100
AcDbLine
 10
7.750000000000003
 20
0.2499999999999982
 30
0.0
 11
7.750000000000003
 21
2.75
 31
0.0
  0
LINE
  5
563
330
1F
100
AcDbEntity
  8
Title Block
100
AcDbLine
 10
12.375
 20
2.749999999999998
 30
0.0
 11
12.375
 21
0.2499999999999982
 31
0.0
  0
LINE
  5
564
330
1F
100
AcDbEntity
  8
Title Block
100
AcDbLine
 10
12.0
 20
2.749999999999998
 30
0.0
 11
12.0
 21
0.2499999999999982
 31
0.0
  0
LINE
  5
565
330
1F
100
AcDbEntity
  8
Title Block
100
AcDbLine
 10
11.625
 20
2.749999999999998
 30
0.0
 11
11.625
 21
0.2499999999999982
 31
0.0
  0
LINE
  5
566
330
1F
100
AcDbEntity
  8
Title Block
100
AcDbLine
 10
11.25
 20
2.749999999999998
 30
0.0
 11
11.25
 21
0.4999999999999984
 31
0.0
  0
LINE
  5
567
330
1F
100
AcDbEntity
  8
Title Block
100
AcDbLine
 10
10.5
 20
2.749999999999998
 30
0.0
 11
10.5
 21
0.2499999999999982
 31
0.0
  0
LINE
  5
568
330
1F
100
AcDbEntity
  8
Title Block
100
AcDbLine
 10
15.25
 20
0.7499999999999983
 30
0.0
 11
15.25
 21
1.499999999999997
 31
0.0
  0
LINE
  5
569
330
1F
100
AcDbEntity
  8
Title Block
100
AcDbLine
 10
15.25
 20
0.7499999999999983
 30
0.0
 11
15.25
 21
0.2499999999999982
 31
0.0
  0
LINE
  5
56A
330
1F
100
AcDbEntity
  8
Title Block
100
AcDbLine
 10
15.25
 20
0.7499999999999983
 30
0.0
 11
16.75
 21
0.7499999999999983
 31
0.0
  0
LINE
  5
56B
330
1F
100
AcDbEntity
  8
Title Block
100
AcDbLine
 10
13.5
 20
0.4999999999999983
 30
0.0
 11
13.5
 21
0.2499999999999982
 31
0.0
  0
LINE
  5
56C
330
1F
100
AcDbEntity
  8
Title Block
100
AcDbLine
 10
13.5
 20
0.4999999999999983
 30
0.0
 11
13.5
 21
0.9999999999999982
 31
0.0
  0
LINE
  5
56D
330
1F
100
AcDbEntity
  8
Title Block
100
AcDbLine
 10
16.25
 20
0.7499999999999983
 30
0.0
 11
16.25
 21
0.2499999999999982
 31
0.0
  0
LWPOLYLINE
  5
56E
330
1F
100
AcDbEntity
  8
Title Block
100
AcDbPolyline
 90
        5
 70
     0
 43
0.01
 10
16.75
 20
0.2499999999999982
 10
16.75
 20
10.75
 10
0.2500000000000035
 20
10.75
 10
0.25
 20
0.25
 10
16.75
 20
0.2499999999999982
  0
POINT
  5
56F
330
1F
100
AcDbEntity
  8
Title Block
100
AcDbPoint
 10
17.0
 20
-0.0000000000000018
 30
0.0
  0
POINT
  5
570
330
1F
100
AcDbEntity
  8
Title Block
100
AcDbPoint
 10
0.0
 20
0.0
 30
0.0
  0
POINT
  5
571
330
1F
100
AcDbEntity
  8
Title Block
100
AcDbPoint
 10
0.0000000000000036
 20
11.0
 30
0.0
  0
POINT
  5
572
330
1F
100
AcDbEntity
  8
Title Block
100
AcDbPoint
 10
17.0
 20
11.0
 30
0.0
  0
MTEXT
  5
573
330
1F
100
AcDbEntity
  8
Text
100
AcDbMText
 10
6.376628153647693
 20
0.6232951697642469
 30
0.0
 40
0.09
 41
0.25
 71
     5
 72
     5
  1
R
 73
     1
 44
1.0
1001
ACAD
1000
MTEXTBEGIN
1070
    73
1070
     1
1070
    44
1040
1.0
1070
    74
1070
     0
1000
MTEXTEND
  0
MTEXT
  5
574
330
1F
100
AcDbEntity
  8
Text
100
AcDbMText
 10
6.751628153647693
 20
0.6232951697642469
 30
0.0
 40
0.07
 41
0.5
 71
     5
 72
     5
  1
5-12-05
 73
     1
 44
1.0
1001
ACAD
1000
MTEXTBEGIN
1070
    73
1070
     1
1070
    44
1040
1.0
1070
    74
1070
     0
1000
MTEXTEND
  0
MTEXT
  5
575
330
1F
100
AcDbEntity
  8
Text
100
AcDbMText
 10
7.189128153647693
 20
0.6232951697642469
 30
0.0
 40
0.09
 41
0.375
 71
     5
 72
     5
  1
MSO
 73
     1
 44
1.0
1001
ACAD
1000
MTEXTBEGIN
1070
    73
1070
     1
1070
    44
1040
1.0
1070
    74
1070
     0
1000
MTEXTEND
  0
MTEXT
  5
576
330
1F
100
AcDbEntity
  8
Text
100
AcDbMText
 10
7.564128153647693
 20
0.6232951697642469
 30
0.0
 40
0.07
 41
0.375
 71
     5
 72
     5
  1
DJWA
 73
     1
 44
1.0
1001
ACAD
1000
MTEXTBEGIN
1070
    73
1070
     1
1070
    44
1040
1.0
1070
    74
1070
     0
1000
MTEXTEND
  0
MTEXT
  5
577
330
1F
100
AcDbEntity
  8
Text
100
AcDbMText
 10
9.126628153647693
 20
0.6232951697642464
 30
0.0
 40
0.09
 41
2.75
 71
     5
 72
     5
  1
DRAWING RELEASED
 73
     1
 44
1.0
1001
ACAD
1000
MTEXTBEGIN
1070
    73
1070
     1
1070
    44
1040
1.0
1070
    74
1070
     0
1000
MTEXTEND
  0
MTEXT
  5
57A
330
1F
100
AcDbEntity
  8
Text
100
AcDbMText
 10
13.47662815364769
 20
0.8482951697642459
 30
0.0
 40
0.09
 41
0.75
 71
     6
 72
     5
  1
MSO
 73
     1
 44
1.0
1001
ACAD
1000
MTEXTBEGIN
1070
    73
1070
     1
1070
    44
1040
1.0
1070
    74
1070
     0
1000
MTEXTEND
  0
MTEXT
  5
57B
330
1F
100
AcDbEntity
  8
Text
100
AcDbMText
 10
13.47662815364769
 20
0.5982951697642458
 30
0.0
 40
0.09
 41
0.75
 71
     6
 72
     5
  1
5-12-05
 73
     1
 44
1.0
1001
ACAD
1000
MTEXTBEGIN
1070
    73
1070
     1
1070
    44
1040
1.0
1070
    74
1070
     0
1000
MTEXTEND
  0
MTEXT
  5
57C
330
1F
100
AcDbEntity
  8
Text
100
AcDbMText
 10
13.47662815364769
 20
0.348295169764246
 30
0.0
 40
0.09
 41
0.75
 71
     6
 72
     5
  1
DJWA
 73
     1
 44
1.0
1001
ACAD
1000
MTEXTBEGIN
1070
    73
1070
     1
1070
    44
1040
1.0
1070
    74
1070
     0
1000
MTEXTEND
  0
MTEXT
  5
57D
330
1F
100
AcDbEntity
  8
Text
100
AcDbMText
 10
14.75162815364769
 20
2.623295169764245
 30
0.0
 40
0.09
 41
4.0
 71
     5
 72
     5
  1
FR12X4.dwg
 73
     1
 44
1.0
1001
ACAD
1000
MTEXTBEGIN
1070
    73
1070
     1
1070
    44
1040
1.0
1070
    74
1070
     0
1000
MTEXTEND
  0
MTEXT
  5
57E
330
1F
100
AcDbEntity
  8
Text
100
AcDbMText
 10
14.75162815364769
 20
1.748295169764245
 30
0.0
 40
0.09
 41
4.0
 71
     5
 72
     5
  1
FIBERRUNNER 12x4 CHANNEL\P(FR12X4**2, FR12X4**6)\PMARKETING DRAWING
 73
     1
 44
1.0
1001
ACAD
1000
MTEXTBEGIN
1070
    73
1070
     1
1070
    44
1040
1.0
1070
    74
1070
     0
1000
MTEXTEND
  0
MTEXT
  5
57F
330
1F
100
AcDbEntity
  8
Text
100
AcDbMText
 10
16.00162815364769
 20
0.8732951697642457
 30
0.0
 40
0.12
 41
1.5
 71
     5
 72
     5
  1
FULL
 73
     1
 44
1.0
1001
ACAD
1000
MTEXTBEGIN
1070
    73
1070
     1
1070
    44
1040
1.0
1070
    74
1070
     0
1000
MTEXTEND
  0
MTEXT
  5
580
330
1F
100
AcDbEntity
  8
Text
100
AcDbMText
 10
15.75162815364769
 20
0.498295169764246
 30
0.0
 40
0.12
 41
1.0
 71
     5
 72
     5
  1
36897-1040
 73
     1
 44
1.0
1001
ACAD
1000
MTEXTBEGIN
1070
    73
1070
     1
1070
    44
1040
1.0
1070
    74
1070
     0
1000
MTEXTEND
  0
DIMENSION
  5
586
102
{ACAD_XDICTIONARY
360
595
102
}
102
{ACAD_REACTORS
330
5A0
102
}
330
1F
100
AcDbEntity
  8
Dimension
100
AcDbDimension
  2
*D1
 10
15.1663596286982
 20
9.777998336378875
 30
0.0
 11
8.436859628698204
 21
9.777998336378875
 31
0.0
 70
   160
 71
     5
 42
13.459
  3
Standard
100
AcDbAlignedDimension
 13
1.707359628698203
 23
8.275078819870085
 33
0.0
 14
15.1663596286982
 24
8.275078819870085
 34
0.0
100
AcDbRotatedDimension
  0
DIMENSION
  5
5A1
330
1F
100
AcDbEntity
  8
Dimension
100
AcDbDimension
  2
*D2
 10
16.00787268456283
 20
8.849078819870085
 30
0.0
 11
16.00787268456282
 21
6.628578819870087
 31
0.0
 70
    32
 71
     5
 42
4.441
  3
Standard
100
AcDbAlignedDimension
 13
14.2823596286982
 23
4.408078819870084
 33
0.0
 14
15.0233596286982
 24
8.849078819870085
 34
0.0
 50
90.0
100
AcDbRotatedDimension
  0
TEXT
  5
602
330
1F
100
AcDbEntity
  8
Text
100
AcDbText
 10
7.919677107657555
 20
3.746205458508221
 30
0.0
 40
0.125
  1
FRONT VIEW
100
AcDbText
  0
DIMENSION
  5
615
330
1F
100
AcDbEntity
  8
Dimension
100
AcDbDimension
  2
*D3
 10
1.985244446536743
 20
6.088269799075238
 30
0.0
 11
0.9046917146069766
 21
6.088269799075238
 31
0.0
 70
   160
 71
     5
 42
0.1247815330993576
  3
Standard
100
AcDbAlignedDimension
 13
1.860462913437386
 23
6.086560371191767
 33
0.0
 14
1.985244446536743
 24
6.086560371191767
 34
0.0
100
AcDbRotatedDimension
1001
ACAD
1000
DSTYLE
1002
{
1070
    76
1070
     1
1070
    75
1070
     1
1002
}
  0
MTEXT
  5
695
330
1F
100
AcDbEntity
  8
Text
100
AcDbMText
 10
6.376628153647693
 20
0.8732951697642468
 30
0.0
 40
0.09
 41
0.25
 71
     5
 72
     5
  1
1
 73
     1
 44
1.0
1001
ACAD
1000
MTEXTBEGIN
1070
    73
1070
     1
1070
    44
1040
1.0
1070
    74
1070
     0
1000
MTEXTEND
  0
MTEXT
  5
696
330
1F
100
AcDbEntity
  8
Text
100
AcDbMText
 10
6.751628153647693
 20
0.8732951697642468
 30
0.0
 40
0.07
 41
0.5
 71
     5
 72
     5
  1
6-6-07
 73
     1
 44
1.0
1001
ACAD
1000
MTEXTBEGIN
1070
    73
1070
     1
1070
    44
1040
1.0
1070
    74
1070
     0
1000
MTEXTEND
  0
MTEXT
  5
697
330
1F
100
AcDbEntity
  8
Text
100
AcDbMText
 10
7.189128153647693
 20
0.8732951697642468
 30
0.0
 40
0.09
 41
0.375
 71
     5
 72
     5
  1
DTP
 73
     1
 44
1.0
1001
ACAD
1000
MTEXTBEGIN
1070
    73
1070
     1
1070
    44
1040
1.0
1070
    74
1070
     0
1000
MTEXTEND
  0
MTEXT
  5
698
330
1F
100
AcDbEntity
  8
Text
100
AcDbMText
 10
7.564128153647693
 20
0.8732951697642468
 30
0.0
 40
0.07
 41
0.375
 71
     5
 72
     5
  1
DJWA
 73
     1
 44
1.0
1001
ACAD
1000
MTEXTBEGIN
1070
    73
1070
     1
1070
    44
1040
1.0
1070
    74
1070
     0
1000
MTEXTEND
  0
MTEXT
  5
699
330
1F
100
AcDbEntity
  8
Text
100
AcDbMText
 10
7.776628153647694
 20
0.8732951697642462
 30
0.0
 40
0.07
 41
2.75
 71
     4
 72
     5
  1
B. REVISED DIMENSION\PA. REVISED PART NUMBER
 73
     1
 44
1.0
1001
ACAD
1000
MTEXTBEGIN
1070
    73
1070
     1
1070
    44
1040
1.0
1070
    74
1070
     0
1000
MTEXTEND
  0
MTEXT
  5
69A
330
1F
100
AcDbEntity
  8
Text
100
AcDbMText
 10
6.376628153647693
 20
1.123295169764246
 30
0.0
 40
0.09
 41
0.25
 71
     5
 72
     5
  1
-
 73
     1
 44
1.0
1001
ACAD
1000
MTEXTBEGIN
1070
    73
1070
     1
1070
    44
1040
1.0
1070
    74
1070
     0
1000
MTEXTEND
  0
MTEXT
  5
69B
330
1F
100
AcDbEntity
  8
Text
100
AcDbMText
 10
6.751628153647693
 20
1.123295169764246
 30
0.0
 40
0.07
 41
0.5
 71
     5
 72
     5
  1
--------
 73
     1
 44
1.0
1001
ACAD
1000
MTEXTBEGIN
1070
    73
1070
     1
1070
    44
1040
1.0
1070
    74
1070
     0
1000
MTEXTEND
  0
MTEXT
  5
69C
330
1F
100
AcDbEntity
  8
Text
100
AcDbMText
 10
7.189128153647693
 20
1.123295169764246
 30
0.0
 40
0.09
 41
0.375
 71
     5
 72
     5
  1
---
 73
     1
 44
1.0
1001
ACAD
1000
MTEXTBEGIN
1070
    73
1070
     1
1070
    44
1040
1.0
1070
    74
1070
     0
1000
MTEXTEND
  0
MTEXT
  5
69D
330
1F
100
AcDbEntity
  8
Text
100
AcDbMText
 10
7.564128153647693
 20
1.123295169764246
 30
0.0
 40
0.07
 41
0.375
 71
     5
 72
     5
  1
----
 73
     1
 44
1.0
1001
ACAD
1000
MTEXTBEGIN
1070
    73
1070
     1
1070
    44
1040
1.0
1070
    74
1070
     0
1000
MTEXTEND
  0
MTEXT
  5
69E
330
1F
100
AcDbEntity
  8
Text
100
AcDbMText
 10
7.776628153647694
 20
1.123295169764246
 30
0.0
 40
0.07
 41
2.75
 71
     4
 72
     5
  1
C. ADDED DIMENSION
 73
     1
 44
1.0
1001
ACAD
1000
MTEXTBEGIN
1070
    73
1070
     1
1070
    44
1040
1.0
1070
    74
1070
     0
1000
MTEXTEND
  0
LINE
  5
69F
330
1F
100
AcDbEntity
  8
Text
100
AcDbLine
 10
12.79087596944883
 20
1.527114730598569
 30
0.0
 11
12.94087596944883
 21
1.7869223517339
 31
0.0
  0
LINE
  5
6A0
330
1F
100
AcDbEntity
  8
Text
100
AcDbLine
 10
12.94087596944883
 20
1.7869223517339
 30
0.0
 11
13.09087596944883
 21
1.527114730598568
 31
0.0
  0
LINE
  5
6A1
330
1F
100
AcDbEntity
  8
Text
100
AcDbLine
 10
13.09087596944883
 20
1.527114730598568
 30
0.0
 11
12.79087596944883
 21
1.527114730598569
 31
0.0
  0
TEXT
  5
6A2
330
1F
100
AcDbEntity
  8
Text
100
AcDbText
 10
12.90211333046363
 20
1.579624892495064
 30
0.0
 40
0.09
  1
A
100
AcDbText
  0
LINE
  5
6A3
330
1F
100
AcDbEntity
  8
Text
100
AcDbLine
 10
16.20093457495494
 20
6.789034327012984
 30
0.0
 11
16.35093457495494
 21
7.048841948148316
 31
0.0
  0
LINE
  5
6A4
330
1F
100
AcDbEntity
  8
Text
100
AcDbLine
 10
16.35093457495494
 20
7.048841948148316
 30
0.0
 11
16.50093457495494
 21
6.789034327012984
 31
0.0
  0
LINE
  5
6A5
330
1F
100
AcDbEntity
  8
Text
100
AcDbLine
 10
16.50093457495494
 20
6.789034327012984
 30
0.0
 11
16.20093457495494
 21
6.789034327012984
 31
0.0
  0
TEXT
  5
6A6
330
1F
100
AcDbEntity
  8
Text
100
AcDbText
 10
16.3149414754264
 20
6.836260402344438
 30
0.0
 40
0.09
  1
B
100
AcDbText
  0
LINE
  5
6A7
330
1F
100
AcDbEntity
  8
Text
100
AcDbLine
 10
0.7225658762078382
 20
6.27394488837347
 30
0.0
 11
0.8725658762078385
 21
6.533752509508802
 31
0.0
  0
LINE
  5
6A8
330
1F
100
AcDbEntity
  8
Text
100
AcDbLine
 10
0.8725658762078385
 20
6.533752509508802
 30
0.0
 11
1.022565876207837
 21
6.27394488837347
 31
0.0
  0
LINE
  5
6A9
330
1F
100
AcDbEntity
  8
Text
100
AcDbLine
 10
1.022565876207837
 20
6.27394488837347
 30
0.0
 11
0.7225658762078382
 21
6.27394488837347
 31
0.0
  0
TEXT
  5
6AA
330
1F
100
AcDbEntity
  8
Text
100
AcDbText
 10
0.8325983008049071
 20
6.325929386607287
 30
0.0
 40
0.09
  1
C
100
AcDbText
  0
VIEWPORT
  5
6C1
102
{ACAD_XDICTIONARY
360
6ED
102
}
330
5D
100
AcDbEntity
 67
     1
  8
0
100
AcDbViewport
 10
5.249999639556163
 20
3.999999883606677
 30
0.0
 40
13.51843462426743
 41
8.992999745766947
 68
     1
 69
     1
 12
5.249999639556163
 22
3.999999883606677
 13
0.0
 23
0.0
 14
0.5
 24
0.5
 15
0.5
 25
0.5
 16
0.0
 26
0.0
 36
1.0
 17
0.0
 27
0.0
 37
0.0
 42
50.0
 43
0.0
 44
0.0
 45
8.992999745766947
 50
0.0
 51
0.0
 72
  1000
 90
    32800
  1

281
     0
 71
     1
 74
     0
110
0.0
120
0.0
130
0.0
111
1.0
121
0.0
131
0.0
112
0.0
122
1.0
132
0.0
 79
     0
146
0.0
  0
VIEWPORT
  5
6C3
102
{ACAD_XDICTIONARY
360
6EF
102
}
330
5D
100
AcDbEntity
 67
     1
  8
Text
100
AcDbViewport
 10
5.24999976158142
 20
3.99999976158142
 30
0.0
 40
8.399999618530271
 41
6.399999618530272
 68
     2
 69
     2
 12
8.500051927677745
 22
5.500000051457137
 13
0.0
 23
0.0
 14
0.5
 24
0.5
 15
0.5
 25
0.5
 16
0.0
 26
0.0
 36
1.0
 17
0.0
 27
0.0
 37
0.0
 42
50.0
 43
0.0
 44
0.0
 45
13.09966437372934
 50
0.0
 51
0.0
 72
  1000
 90
    32864
  1

281
     0
 71
     1
 74
     0
110
0.0
120
0.0
130
0.0
111
1.0
121
0.0
131
0.0
112
0.0
122
1.0
132
0.0
 79
     0
146
0.0
  0
ENDSEC
  0
SECTION
  2
OBJECTS
  0
DICTIONARY
  5
C
330
0
100
AcDbDictionary
281
     1
  3
ACAD_COLOR
350
73
  3
ACAD_GROUP
350
D
  3
ACAD_LAYOUT
350
1A
  3
ACAD_MATERIAL
350
72
  3
ACAD_MLINESTYLE
350
17
  3
ACAD_PLOTSETTINGS
350
19
  3
ACAD_PLOTSTYLENAME
350
E
  3
ACAD_TABLESTYLE
350
86
  3
ACDBHEADERROUNDTRIPXREC
350
6E4
  3
AcDbVariableDictionary
350
66
  0
DICTIONARY
  5
6B8
330
2
100
AcDbDictionary
280
     1
281
     1
  3
ACAD_LAYERSTATES
360
6B9
  0
DICTIONARY
  5
582
330
1F
100
AcDbDictionary
280
     1
281
     1
  3
ACAD_SORTENTS
360
583
  0
DICTIONARY
  5
6E9
330
6B1
100
AcDbDictionary
280
     1
281
     1
  3
ACAD_XREC_ROUNDTRIP
360
6EA
  0
DICTIONARY
  5
6EB
330
6B4
100
AcDbDictionary
280
     1
281
     1
  3
ACAD_XREC_ROUNDTRIP
360
6EC
  0
DICTIONARY
  5
595
330
586
100
AcDbDictionary
280
     1
281
     1
  3
ACAD_DIMASSOC
360
5A0
  0
DICTIONARY
  5
6ED
330
6C1
100
AcDbDictionary
280
     1
281
     1
  3
ACAD_XREC_ROUNDTRIP
360
6EE
  0
DICTIONARY
  5
6EF
330
6C3
100
AcDbDictionary
280
     1
281
     1
  3
ACAD_XREC_ROUNDTRIP
360
6F0
  0
DICTIONARY
  5
73
102
{ACAD_REACTORS
330
C
102
}
330
C
100
AcDbDictionary
281
     1
  0
DICTIONARY
  5
D
102
{ACAD_REACTORS
330
C
102
}
330
C
100
AcDbDictionary
281
     1
  0
DICTIONARY
  5
1A
102
{ACAD_REACTORS
330
C
102
}
330
C
100
AcDbDictionary
281
     1
  3
Layout1
350
59
  3
Layout2
350
5E
  3
Model
350
22
  0
DICTIONARY
  5
72
102
{ACAD_REACTORS
330
C
102
}
330
C
100
AcDbDictionary
281
     1
  0
DICTIONARY
  5
17
102
{ACAD_REACTORS
330
C
102
}
330
C
100
AcDbDictionary
281
     1
  3
Standard
350
18
  0
DICTIONARY
  5
19
102
{ACAD_REACTORS
330
C
102
}
330
C
100
AcDbDictionary
281
     1
  0
ACDBDICTIONARYWDFLT
  5
E
102
{ACAD_REACTORS
330
C
102
}
330
C
100
AcDbDictionary
281
     1
  3
Normal
350
F
100
AcDbDictionaryWithDefault
340
F
  0
DICTIONARY
  5
86
102
{ACAD_REACTORS
330
C
102
}
330
C
100
AcDbDictionary
281
     1
  3
Standard
350
87
  0
DICTIONARY
  5
6E4
102
{ACAD_REACTORS
330
C
102
}
330
C
100
AcDbDictionary
281
     1
  0
DICTIONARY
  5
66
102
{ACAD_REACTORS
330
C
102
}
330
C
100
AcDbDictionary
281
     1
  3
CTABLESTYLE
350
585
  3
DIMASSOC
350
67
  3
HIDETEXT
350
6B
  3
PROJECTNAME
350
6E2
  0
DICTIONARY
  5
6B9
102
{ACAD_REACTORS
330
6B8
102
}
330
6B8
100
AcDbDictionary
281
     1
  0
SORTENTSTABLE
  5
583
102
{ACAD_REACTORS
330
582
102
}
330
582
100
AcDbSortentsTable
330
1F
331
2C1
  5
309
331
1D5
  5
21D
331
15F
  5
1A7
331
120
  5
168
331
196
  5
1DE
331
20C
  5
254
331
24B
  5
293
331
282
  5
2CA
331
253
  5
29B
331
1DD
  5
225
331
128
  5
170
331
167
  5
1AF
331
19E
  5
1E6
331
214
  5
25C
331
28A
  5
2D2
331
2C9
  5
311
331
292
  5
2DA
331
1A6
  5
1EE
331
21C
  5
264
331
E1
  5
129
331
E9
  5
131
331
2F2
  5
33A
331
331
  5
379
331
368
  5
3B0
331
553
  5
F8
331
425
  5
46D
331
370
  5
3B8
331
2FA
  5
342
331
339
  5
381
331
3AF
  5
3F7
331
3E6
  5
42E
331
45C
  5
55F
331
55B
  5
100
331
42D
  5
475
331
341
  5
389
331
302
  5
34A
331
378
  5
3C0
331
3B7
  5
3FF
331
3EE
  5
436
331
464
  5
567
331
563
  5
108
331
3BF
  5
407
331
30A
  5
352
331
380
  5
3C8
331
3F6
  5
43E
331
435
  5
47D
331
46C
  5
56F
331
474
  5
577
331
3FE
  5
446
331
130
  5
178
331
F1
  5
139
331
224
  5
26C
331
56D
  5
112
331
1AE
  5
1F6
331
F9
  5
141
331
138
  5
180
331
16F
  5
1B7
331
1E5
  5
22D
331
25B
  5
2A3
331
29A
  5
2E2
331
22C
  5
274
331
575
  5
11A
331
177
  5
1BF
331
101
  5
149
331
140
  5
188
331
1B6
  5
1FE
331
1ED
  5
235
331
263
  5
2AB
331
2A2
  5
2EA
331
57D
  5
122
331
1F5
  5
23D
331
148
  5
190
331
109
  5
151
331
17F
  5
1C7
331
1BE
  5
206
331
234
  5
27C
331
26B
  5
2B3
331
2AA
  5
2F2
331
2B2
  5
2FA
331
1C6
  5
20E
331
187
  5
1CF
331
1FD
  5
245
331
23C
  5
284
331
273
  5
2BB
331
312
  5
35A
331
2D3
  5
31B
331
349
  5
391
331
388
  5
3D0
331
43D
  5
540
331
390
  5
3D8
331
31A
  5
362
331
2DB
  5
323
331
351
  5
399
331
3C7
  5
40F
331
406
  5
44E
331
47C
  5
57F
331
53C
  5
E1
331
40E
  5
456
331
398
  5
3E0
331
2E3
  5
32B
331
322
  5
36A
331
359
  5
3A1
331
3CF
  5
417
331
445
  5
548
331
544
  5
E9
331
416
  5
45E
331
361
  5
3A9
331
2EB
  5
333
331
32A
  5
372
331
3A0
  5
3E8
331
3D7
  5
41F
331
44D
  5
550
331
54C
  5
F1
331
3DF
  5
427
331
41E
  5
466
331
455
  5
558
331
150
  5
198
331
111
  5
159
331
244
  5
28C
331
1CE
  5
216
331
119
  5
161
331
158
  5
1A0
331
18F
  5
1D7
331
205
  5
24D
331
27B
  5
2C3
331
2BA
  5
302
331
24C
  5
294
331
197
  5
1DF
331
121
  5
169
331
160
  5
1A8
331
1D6
  5
21E
331
20D
  5
255
331
283
  5
2CB
331
2C2
  5
30A
331
254
  5
29C
331
19F
  5
1E7
331
129
  5
171
331
1DE
  5
226
331
215
  5
25D
331
28B
  5
2D3
331
2CA
  5
312
331
21D
  5
265
331
1A7
  5
1EF
331
293
  5
2DB
331
E2
  5
12A
331
EA
  5
132
331
332
  5
37A
331
2F3
  5
33B
331
369
  5
3B1
331
3A8
  5
3F0
331
554
  5
F9
331
3B0
  5
3F8
331
33A
  5
382
331
2FB
  5
343
331
371
  5
3B9
331
3E7
  5
42F
331
426
  5
46E
331
45D
  5
560
331
55C
  5
101
331
42E
  5
476
331
3B8
  5
400
331
303
  5
34B
331
342
  5
38A
331
379
  5
3C1
331
3EF
  5
437
331
465
  5
568
331
436
  5
47E
331
381
  5
3C9
331
30B
  5
353
331
3F7
  5
43F
331
46D
  5
570
331
564
  5
109
331
3FF
  5
447
331
475
  5
578
331
131
  5
179
331
F2
  5
13A
331
168
  5
1B0
331
29B
  5
2E3
331
56E
  5
113
331
1E6
  5
22E
331
139
  5
181
331
FA
  5
142
331
170
  5
1B8
331
1AF
  5
1F7
331
225
  5
26D
331
25C
  5
2A4
331
264
  5
2AC
331
576
  5
11B
331
1B7
  5
1FF
331
141
  5
189
331
102
  5
14A
331
178
  5
1C0
331
1EE
  5
236
331
22D
  5
275
331
2A3
  5
2EB
331
235
  5
27D
331
57E
  5
123
331
1BF
  5
207
331
10A
  5
152
331
149
  5
191
331
180
  5
1C8
331
1F6
  5
23E
331
26C
  5
2B4
331
2AB
  5
2F3
331
23D
  5
285
331
1C7
  5
20F
331
1FE
  5
246
331
274
  5
2BC
331
2B3
  5
2FB
331
389
  5
3D1
331
2D4
  5
31C
331
313
  5
35B
331
34A
  5
392
331
3C0
  5
408
331
407
  5
44F
331
31B
  5
363
331
2DC
  5
324
331
352
  5
39A
331
391
  5
3D9
331
3C8
  5
410
331
43E
  5
541
331
47D
  5
580
331
53D
  5
E2
331
3D0
  5
418
331
323
  5
36B
331
2E4
  5
32C
331
35A
  5
3A2
331
399
  5
3E1
331
40F
  5
457
331
446
  5
549
331
44E
  5
551
331
3A1
  5
3E9
331
32B
  5
373
331
2EC
  5
334
331
362
  5
3AA
331
3D8
  5
420
331
417
  5
45F
331
545
  5
EA
331
54D
  5
F2
331
41F
  5
467
331
456
  5
559
331
188
  5
1D0
331
112
  5
15A
331
151
  5
199
331
206
  5
24E
331
159
  5
1A1
331
11A
  5
162
331
190
  5
1D8
331
1CF
  5
217
331
245
  5
28D
331
27C
  5
2C4
331
2BB
  5
303
331
2C3
  5
30B
331
1D7
  5
21F
331
161
  5
1A9
331
122
  5
16A
331
198
  5
1E0
331
20E
  5
256
331
24D
  5
295
331
284
  5
2CC
331
255
  5
29D
331
1A0
  5
1E8
331
12A
  5
172
331
1DF
  5
227
331
216
  5
25E
331
28C
  5
2D4
331
2CB
  5
313
331
294
  5
2DC
331
21E
  5
266
331
E3
  5
12B
331
EB
  5
133
331
3A9
  5
3F1
331
2F4
  5
33C
331
333
  5
37B
331
36A
  5
3B2
331
3E0
  5
428
331
555
  5
FA
331
427
  5
46F
331
372
  5
3BA
331
2FC
  5
344
331
33B
  5
383
331
3B1
  5
3F9
331
3E8
  5
430
331
45E
  5
561
331
55D
  5
102
331
3F0
  5
438
331
343
  5
38B
331
304
  5
34C
331
37A
  5
3C2
331
3B9
  5
401
331
42F
  5
477
331
466
  5
569
331
565
  5
10A
331
3F8
  5
440
331
30C
  5
354
331
382
  5
3CA
331
437
  5
53A
331
46E
  5
571
331
476
  5
579
331
1A8
  5
1F0
331
132
  5
17A
331
F3
  5
13B
331
169
  5
1B1
331
226
  5
26E
331
56F
  5
114
331
1B0
  5
1F8
331
FB
  5
143
331
13A
  5
182
331
171
  5
1B9
331
1E7
  5
22F
331
25D
  5
2A5
331
29C
  5
2E4
331
22E
  5
276
331
577
  5
11C
331
142
  5
18A
331
103
  5
14B
331
179
  5
1C1
331
1B8
  5
200
331
1EF
  5
237
331
265
  5
2AD
331
2A4
  5
2EC
331
2AC
  5
2F4
331
57F
  5
124
331
1F7
  5
23F
331
14A
  5
192
331
10B
  5
153
331
181
  5
1C9
331
1C0
  5
208
331
236
  5
27E
331
26D
  5
2B5
331
275
  5
2BD
331
1FF
  5
247
331
23E
  5
286
331
2B4
  5
2FC
331
38A
  5
3D2
331
314
  5
35C
331
2D5
  5
31D
331
34B
  5
393
331
3C1
  5
409
331
400
  5
448
331
43F
  5
542
331
392
  5
3DA
331
31C
  5
364
331
2DD
  5
325
331
353
  5
39B
331
3C9
  5
411
331
408
  5
450
331
47E
  5
581
331
53E
  5
E3
331
410
  5
458
331
39A
  5
3E2
331
2E5
  5
32D
331
324
  5
36C
331
35B
  5
3A3
331
3D1
  5
419
331
447
  5
54A
331
546
  5
EB
331
418
  5
460
331
32C
  5
374
331
2ED
  5
335
331
363
  5
3AB
331
3A2
  5
3EA
331
3D9
  5
421
331
44F
  5
552
331
54E
  5
F3
331
457
  5
55A
331
1C8
  5
210
331
152
  5
19A
331
113
  5
15B
331
189
  5
1D1
331
246
  5
28E
331
1D0
  5
218
331
11B
  5
163
331
15A
  5
1A2
331
191
  5
1D9
331
207
  5
24F
331
27D
  5
2C5
331
2BC
  5
304
331
24E
  5
296
331
199
  5
1E1
331
123
  5
16B
331
162
  5
1AA
331
1D8
  5
220
331
20F
  5
257
331
285
  5
2CD
331
2C4
  5
30C
331
217
  5
25F
331
1A1
  5
1E9
331
12B
  5
173
331
256
  5
29E
331
28D
  5
2D5
331
2CC
  5
314
331
21F
  5
267
331
295
  5
2DD
331
E4
  5
12C
331
EC
  5
134
331
3E1
  5
429
331
334
  5
37C
331
2F5
  5
33D
331
36B
  5
3B3
331
3AA
  5
3F2
331
420
  5
468
331
45F
  5
562
331
3B2
  5
3FA
331
33C
  5
384
331
2FD
  5
345
331
373
  5
3BB
331
3E9
  5
431
331
428
  5
470
331
556
  5
FB
331
55E
  5
103
331
430
  5
478
331
3BA
  5
402
331
305
  5
34D
331
344
  5
38C
331
37B
  5
3C3
331
3F1
  5
439
331
467
  5
56A
331
3F9
  5
441
331
383
  5
3CB
331
30D
  5
355
331
46F
  5
572
331
566
  5
10B
331
477
  5
57A
331
568
  5
10D
331
133
  5
17B
331
F4
  5
13C
331
16A
  5
1B2
331
1A9
  5
1F1
331
1E0
  5
228
331
29D
  5
2E5
331
570
  5
115
331
1B1
  5
1F9
331
13B
  5
183
331
FC
  5
144
331
172
  5
1BA
331
1E8
  5
230
331
227
  5
26F
331
25E
  5
2A6
331
266
  5
2AE
331
1B9
  5
201
331
143
  5
18B
331
104
  5
14C
331
17A
  5
1C2
331
1F0
  5
238
331
22F
  5
277
331
2A5
  5
2ED
331
237
  5
27F
331
580
  5
125
331
1C1
  5
209
331
10C
  5
154
331
14B
  5
193
331
182
  5
1CA
331
1F8
  5
240
331
26E
  5
2B6
331
2AD
  5
2F5
331
23F
  5
287
331
276
  5
2BE
331
2B5
  5
2FD
331
401
  5
449
331
38B
  5
3D3
331
2D6
  5
31E
331
315
  5
35D
331
34C
  5
394
331
3C2
  5
40A
331
438
  5
53B
331
409
  5
451
331
31D
  5
365
331
2DE
  5
326
331
354
  5
39C
331
393
  5
3DB
331
3CA
  5
412
331
440
  5
543
331
53F
  5
E4
331
39B
  5
3E3
331
325
  5
36D
331
2E6
  5
32E
331
35C
  5
3A4
331
3D2
  5
41A
331
411
  5
459
331
448
  5
54B
331
547
  5
EC
331
450
  5
553
331
3A3
  5
3EB
331
32D
  5
375
331
2EE
  5
336
331
364
  5
3AC
331
3DA
  5
422
331
419
  5
461
331
54F
  5
F4
331
153
  5
19B
331
114
  5
15C
331
18A
  5
1D2
331
1C9
  5
211
331
200
  5
248
331
2BD
  5
305
331
208
  5
250
331
15B
  5
1A3
331
11C
  5
164
331
192
  5
1DA
331
1D1
  5
219
331
247
  5
28F
331
27E
  5
2C6
331
286
  5
2CE
331
1D9
  5
221
331
163
  5
1AB
331
124
  5
16C
331
19A
  5
1E2
331
210
  5
258
331
24F
  5
297
331
2C5
  5
30D
331
257
  5
29F
331
1A2
  5
1EA
331
12C
  5
174
331
218
  5
260
331
28E
  5
2D6
331
2CD
  5
315
331
296
  5
2DE
331
E5
  5
12D
331
ED
  5
135
331
421
  5
469
331
3AB
  5
3F3
331
2F6
  5
33E
331
335
  5
37D
331
36C
  5
3B4
331
3E2
  5
42A
331
458
  5
55B
331
557
  5
FC
331
429
  5
471
331
33D
  5
385
331
2FE
  5
346
331
374
  5
3BC
331
3B3
  5
3FB
331
3EA
  5
432
331
460
  5
563
331
55F
  5
104
331
3F2
  5
43A
331
345
  5
38D
331
306
  5
34E
331
37C
  5
3C4
331
3BB
  5
403
331
431
  5
479
331
468
  5
56B
331
567
  5
10C
331
3FA
  5
442
331
30E
  5
356
331
384
  5
3CC
331
470
  5
573
331
220
  5
268
331
1E1
  5
229
331
1AA
  5
1F2
331
F5
  5
13D
331
134
  5
17C
331
16B
  5
1B3
331
569
  5
10E
331
228
  5
270
331
1E9
  5
231
331
25F
  5
2A7
331
29E
  5
2E6
331
1B2
  5
1FA
331
FD
  5
145
331
13C
  5
184
331
173
  5
1BB
331
571
  5
116
331
230
  5
278
331
144
  5
18C
331
105
  5
14D
331
17B
  5
1C3
331
1BA
  5
202
331
1F1
  5
239
331
267
  5
2AF
331
2A6
  5
2EE
331
2AE
  5
2F6
331
1C2
  5
20A
331
14C
  5
194
331
10D
  5
155
331
183
  5
1CB
331
1F9
  5
241
331
238
  5
280
331
26F
  5
2B7
331
277
  5
2BF
331
2B6
  5
2FE
331
478
  5
57B
331
38C
  5
3D4
331
316
  5
35E
331
2D7
  5
31F
331
34D
  5
395
331
3C3
  5
40B
331
402
  5
44A
331
439
  5
53C
331
40A
  5
452
331
394
  5
3DC
331
2DF
  5
327
331
31E
  5
366
331
355
  5
39D
331
3CB
  5
413
331
441
  5
544
331
540
  5
E5
331
412
  5
45A
331
39C
  5
3E4
331
2E7
  5
32F
331
326
  5
36E
331
35D
  5
3A5
331
3D3
  5
41B
331
449
  5
54C
331
548
  5
ED
331
41A
  5
462
331
32E
  5
376
331
2EF
  5
337
331
365
  5
3AD
331
3A4
  5
3EC
331
3DB
  5
423
331
451
  5
554
331
1CA
  5
212
331
154
  5
19C
331
115
  5
15D
331
18B
  5
1D3
331
201
  5
249
331
240
  5
288
331
248
  5
290
331
1D2
  5
21A
331
11D
  5
165
331
15C
  5
1A4
331
193
  5
1DB
331
209
  5
251
331
27F
  5
2C7
331
2BE
  5
306
331
250
  5
298
331
164
  5
1AC
331
125
  5
16D
331
19B
  5
1E3
331
1DA
  5
222
331
211
  5
259
331
287
  5
2CF
331
2C6
  5
30E
331
2CE
  5
316
331
219
  5
261
331
1A3
  5
1EB
331
12D
  5
175
331
28F
  5
2D7
331
297
  5
2DF
331
E6
  5
12E
331
EE
  5
136
331
550
  5
F5
331
3AC
  5
3F4
331
336
  5
37E
331
2F7
  5
33F
331
36D
  5
3B5
331
3E3
  5
42B
331
422
  5
46A
331
459
  5
55C
331
558
  5
FD
331
461
  5
564
331
3B4
  5
3FC
331
33E
  5
386
331
2FF
  5
347
331
375
  5
3BD
331
3EB
  5
433
331
42A
  5
472
331
432
  5
47A
331
3BC
  5
404
331
307
  5
34F
331
346
  5
38E
331
37D
  5
3C5
331
3F3
  5
43B
331
469
  5
56C
331
560
  5
105
331
3FB
  5
443
331
385
  5
3CD
331
30F
  5
357
331
471
  5
574
331
221
  5
269
331
1E2
  5
22A
331
258
  5
2A0
331
135
  5
17D
331
F6
  5
13E
331
16C
  5
1B4
331
1AB
  5
1F3
331
56A
  5
10F
331
29F
  5
2E7
331
1EA
  5
232
331
229
  5
271
331
260
  5
2A8
331
1B3
  5
1FB
331
13D
  5
185
331
FE
  5
146
331
174
  5
1BC
331
572
  5
117
331
231
  5
279
331
1F2
  5
23A
331
268
  5
2B0
331
2A7
  5
2EF
331
1BB
  5
203
331
106
  5
14E
331
145
  5
18D
331
17C
  5
1C4
331
57A
  5
11F
331
239
  5
281
331
1C3
  5
20B
331
10E
  5
156
331
14D
  5
195
331
184
  5
1CC
331
1FA
  5
242
331
270
  5
2B8
331
2AF
  5
2F7
331
2B7
  5
2FF
331
2D0
  5
318
331
403
  5
44B
331
34E
  5
396
331
2D8
  5
320
331
317
  5
35F
331
38D
  5
3D5
331
3C4
  5
40C
331
43A
  5
53D
331
479
  5
57C
331
40B
  5
453
331
31F
  5
367
331
2E0
  5
328
331
356
  5
39E
331
395
  5
3DD
331
3CC
  5
414
331
442
  5
545
331
541
  5
E6
331
39D
  5
3E5
331
327
  5
36F
331
2E8
  5
330
331
35E
  5
3A6
331
3D4
  5
41C
331
413
  5
45B
331
44A
  5
54D
331
549
  5
EE
331
41B
  5
463
331
3A5
  5
3ED
331
32F
  5
377
331
366
  5
3AE
331
3DC
  5
424
331
452
  5
555
331
241
  5
289
331
155
  5
19D
331
116
  5
15E
331
18C
  5
1D4
331
1CB
  5
213
331
202
  5
24A
331
278
  5
2C0
331
2BF
  5
307
331
1D3
  5
21B
331
15D
  5
1A5
331
11E
  5
166
331
194
  5
1DC
331
20A
  5
252
331
249
  5
291
331
280
  5
2C8
331
288
  5
2D0
331
1DB
  5
223
331
165
  5
1AD
331
126
  5
16E
331
19C
  5
1E4
331
212
  5
25A
331
251
  5
299
331
2C7
  5
30F
331
290
  5
2D8
331
1A4
  5
1EC
331
12E
  5
176
331
21A
  5
262
331
2CF
  5
317
331
DF
  5
127
331
E7
  5
12F
331
EF
  5
137
331
2F0
  5
338
331
551
  5
F6
331
423
  5
46B
331
3AD
  5
3F5
331
2F8
  5
340
331
337
  5
37F
331
36E
  5
3B6
331
3E4
  5
42C
331
45A
  5
55D
331
559
  5
FE
331
42B
  5
473
331
33F
  5
387
331
300
  5
348
331
376
  5
3BE
331
3B5
  5
3FD
331
3EC
  5
434
331
462
  5
565
331
561
  5
106
331
3BD
  5
405
331
347
  5
38F
331
308
  5
350
331
37E
  5
3C6
331
3F4
  5
43C
331
433
  5
47B
331
46A
  5
56D
331
472
  5
575
331
3FC
  5
444
331
386
  5
3CE
331
222
  5
26A
331
1E3
  5
22B
331
259
  5
2A1
331
298
  5
2E0
331
1AC
  5
1F4
331
F7
  5
13F
331
136
  5
17E
331
16D
  5
1B5
331
56B
  5
110
331
22A
  5
272
331
1EB
  5
233
331
261
  5
2A9
331
2A0
  5
2E8
331
175
  5
1BD
331
FF
  5
147
331
13E
  5
186
331
1B4
  5
1FC
331
573
  5
118
331
232
  5
27A
331
1F3
  5
23B
331
269
  5
2B1
331
2A8
  5
2F0
331
146
  5
18E
331
107
  5
14F
331
17D
  5
1C5
331
1BC
  5
204
331
57B
  5
120
331
2B0
  5
2F8
331
1C4
  5
20C
331
14E
  5
196
331
10F
  5
157
331
185
  5
1CD
331
1FB
  5
243
331
23A
  5
282
331
271
  5
2B9
331
310
  5
358
331
2D1
  5
319
331
47A
  5
57D
331
38E
  5
3D6
331
318
  5
360
331
2D9
  5
321
331
34F
  5
397
331
3C5
  5
40D
331
404
  5
44C
331
43B
  5
53E
331
53A
  5
DF
331
40C
  5
454
331
396
  5
3DE
331
2E1
  5
329
331
320
  5
368
331
357
  5
39F
331
3CD
  5
415
331
443
  5
546
331
542
  5
E7
331
414
  5
45C
331
35F
  5
3A7
331
2E9
  5
331
331
328
  5
370
331
39E
  5
3E6
331
3D5
  5
41D
331
44B
  5
54E
331
54A
  5
EF
331
41C
  5
464
331
367
  5
3AF
331
3A6
  5
3EE
331
3DD
  5
425
331
453
  5
556
331
242
  5
28A
331
1CC
  5
214
331
117
  5
15F
331
156
  5
19E
331
18D
  5
1D5
331
203
  5
24B
331
279
  5
2C1
331
2B8
  5
300
331
24A
  5
292
331
1D4
  5
21C
331
11F
  5
167
331
15E
  5
1A6
331
195
  5
1DD
331
20B
  5
253
331
281
  5
2C9
331
2C0
  5
308
331
252
  5
29A
331
166
  5
1AE
331
127
  5
16F
331
19D
  5
1E5
331
1DC
  5
224
331
213
  5
25B
331
289
  5
2D1
331
2C8
  5
310
331
21B
  5
263
331
1A5
  5
1ED
331
12F
  5
177
331
291
  5
2D9
331
E0
  5
128
331
E8
  5
130
331
330
  5
378
331
2F1
  5
339
331
552
  5
F7
331
3AE
  5
3F6
331
338
  5
380
331
2F9
  5
341
331
36F
  5
3B7
331
3E5
  5
42D
331
424
  5
46C
331
45B
  5
55E
331
55A
  5
FF
331
42C
  5
474
331
3B6
  5
3FE
331
301
  5
349
331
340
  5
388
331
377
  5
3BF
331
3ED
  5
435
331
463
  5
566
331
434
  5
47C
331
3BE
  5
406
331
309
  5
351
331
37F
  5
3C7
331
3F5
  5
43D
331
46B
  5
56E
331
562
  5
107
331
3FD
  5
445
331
387
  5
3CF
331
473
  5
576
331
F0
  5
138
331
1E4
  5
22C
331
223
  5
26B
331
25A
  5
2A2
331
299
  5
2E1
331
137
  5
17F
331
F8
  5
140
331
16E
  5
1B6
331
1AD
  5
1F5
331
56C
  5
111
331
2A1
  5
2E9
331
1EC
  5
234
331
22B
  5
273
331
262
  5
2AA
331
1B5
  5
1FD
331
13F
  5
187
331
100
  5
148
331
176
  5
1BE
331
574
  5
119
331
233
  5
27B
331
1F4
  5
23C
331
26A
  5
2B2
331
2A9
  5
2F1
331
1BD
  5
205
331
108
  5
150
331
147
  5
18F
331
17E
  5
1C6
331
57C
  5
121
331
23B
  5
283
331
186
  5
1CE
331
14F
  5
197
331
1C5
  5
20D
331
1FC
  5
244
331
272
  5
2BA
331
2B1
  5
2F9
331
2D2
  5
31A
331
311
  5
359
331
348
  5
390
331
405
  5
44D
331
350
  5
398
331
2DA
  5
322
331
319
  5
361
331
38F
  5
3D7
331
3C6
  5
40E
331
43C
  5
53F
331
47B
  5
57E
331
53B
  5
E0
331
3CE
  5
416
331
321
  5
369
331
2E2
  5
32A
331
358
  5
3A0
331
397
  5
3DF
331
40D
  5
455
331
444
  5
547
331
543
  5
E8
331
39F
  5
3E7
331
329
  5
371
331
2EA
  5
332
331
360
  5
3A8
331
3D6
  5
41E
331
415
  5
45D
331
44C
  5
54F
331
54B
  5
F0
331
41D
  5
465
331
3A7
  5
3EF
331
3DE
  5
426
331
454
  5
557
331
110
  5
158
331
243
  5
28B
331
157
  5
19F
331
118
  5
160
331
18E
  5
1D6
331
1CD
  5
215
331
204
  5
24C
331
27A
  5
2C2
331
2B9
  5
301
  0
XRECORD
  5
6EA
102
{ACAD_REACTORS
330
6E9
102
}
330
6E9
100
AcDbXrecord
280
     1
102
SHADEPLOT
 70
     0
  0
XRECORD
  5
6EC
102
{ACAD_REACTORS
330
6EB
102
}
330
6EB
100
AcDbXrecord
280
     1
102
SHADEPLOT
 70
     0
  0
DIMASSOC
  5
5A0
102
{ACAD_REACTORS
330
595
102
}
330
595
100
AcDbDimAssoc
330
586
 90
        3
 70
     0
 71
     0
  1
AcDbOsnapPointRef
 72
    13
331
469
 73
     2
 91
        0
 40
0.0
 10
0.0
 20
0.0
 30
2.000000000000000E+50
 75
     0
  1
AcDbOsnapPointRef
 72
    13
331
45C
 73
     2
 91
        0
 40
0.0
 10
0.0
 20
0.0
 30
2.000000000000000E+50
 75
     0
  0
XRECORD
  5
6EE
102
{ACAD_REACTORS
330
6ED
102
}
330
6ED
100
AcDbXrecord
280
     1
102
SHADEPLOT
 70
     0
  0
XRECORD
  5
6F0
102
{ACAD_REACTORS
330
6EF
102
}
330
6EF
100
AcDbXrecord
280
     1
102
SHADEPLOT
 70
     0
  0
LAYOUT
  5
59
102
{ACAD_XDICTIONARY
360
6BB
102
}
102
{ACAD_REACTORS
330
1A
102
}
330
1A
100
AcDbPlotSettings
  1

  2
none_device
  4
Letter_(8.50_x_11.00_Inches)
  6

 40
6.349999904632568
 41
6.349999904632568
 42
6.350006103515625
 43
6.350006103515625
 44
215.8999938964844
 45
279.3999938964844
 46
0.0
 47
0.0
 48
0.0
 49
0.0
140
0.0
141
0.0
142
1.0
143
1.0
 70
   688
 72
     0
 73
     1
 74
     5
  7

 75
    16
147
1.0
148
0.0
149
0.0
100
AcDbLayout
  1
Layout1
 70
     1
 71
     1
 10
-0.2500002402958907
 20
-0.2499999962453767
 11
10.74999951940821
 21
8.249999763458731
 12
0.0
 22
0.0
 32
0.0
 14
1.049999952316284
 24
0.7999999523162842
 34
0.0
 15
9.449999570846555
 25
7.199999570846556
 35
0.0
146
0.0
 13
0.0
 23
0.0
 33
0.0
 16
1.0
 26
0.0
 36
0.0
 17
0.0
 27
1.0
 37
0.0
 76
     0
330
58
331
6B1
1001
ACAD_PSEXT
1000
None
1000
None
1000
Not applicable
1000
The layout will not be plotted unless a new plotter configuration name is selected.
1070
     0
  0
LAYOUT
  5
5E
102
{ACAD_XDICTIONARY
360
6C8
102
}
102
{ACAD_REACTORS
330
1A
102
}
330
1A
100
AcDbPlotSettings
  1

  2
none_device
  4
Letter_(8.50_x_11.00_Inches)
  6

 40
6.349999904632568
 41
6.349999904632568
 42
6.350006103515625
 43
6.350006103515625
 44
215.8999938964844
 45
279.3999938964844
 46
0.0
 47
0.0
 48
0.0
 49
0.0
140
0.0
141
0.0
142
1.0
143
1.0
 70
   688
 72
     0
 73
     1
 74
     5
  7

 75
    16
147
1.0
148
0.0
149
0.0
100
AcDbLayout
  1
Layout2
 70
     1
 71
     2
 10
-0.2500002402958907
 20
-0.2499999962453767
 11
10.74999951940821
 21
8.249999763458731
 12
0.0
 22
0.0
 32
0.0
 14
1.049999952316284
 24
0.7999999523162842
 34
0.0
 15
9.449999570846555
 25
7.199999570846556
 35
0.0
146
0.0
 13
0.0
 23
0.0
 33
0.0
 16
1.0
 26
0.0
 36
0.0
 17
0.0
 27
1.0
 37
0.0
 76
     0
330
5D
331
6C1
1001
ACAD_PSEXT
1000
None
1000
None
1000
Not applicable
1000
The layout will not be plotted unless a new plotter configuration name is selected.
1070
     0
  0
LAYOUT
  5
22
102
{ACAD_XDICTIONARY
360
6E5
102
}
102
{ACAD_REACTORS
330
1A
102
}
330
1A
100
AcDbPlotSettings
  1

  2
none_device
  4
ANSI_A_(8.50_x_11.00_Inches)
  6

 40
6.349999904632568
 41
19.04999923706055
 42
6.350006103515625
 43
19.04998779296875
 44
215.8999938964844
 45
279.3999938964844
 46
0.0
 47
0.0
 48
0.0
 49
0.0
140
0.0
141
0.0
142
1.0
143
2.584895464708373
 70
 11952
 72
     0
 73
     1
 74
     0
  7

 75
     0
147
0.3868628397755418
148
0.0
149
0.0
100
AcDbLayout
  1
Model
 70
     1
 71
     0
 10
0.0
 20
0.0
 11
12.0
 21
9.0
 12
0.0
 22
0.0
 32
0.0
 14
0.0
 24
0.0
 34
0.0
 15
0.0
 25
0.0
 35
0.0
146
0.0
 13
0.0
 23
0.0
 33
0.0
 16
1.0
 26
0.0
 36
0.0
 17
0.0
 27
1.0
 37
0.0
 76
     0
330
1F
  0
MLINESTYLE
  5
18
102
{ACAD_REACTORS
330
17
102
}
330
17
100
AcDbMlineStyle
  2
STANDARD
 70
     0
  3

 62
   256
 51
90.0
 52
90.0
 71
     2
 49
0.5
 62
   256
  6
BYLAYER
 49
-0.5
 62
   256
  6
BYLAYER
  0
ACDBPLACEHOLDER
  5
F
102
{ACAD_REACTORS
330
E
102
}
330
E
  0
TABLESTYLE
  5
87
102
{ACAD_REACTORS
330
86
102
}
330
86
100
AcDbTableStyle
  3
Standard
 70
     0
 71
     0
 40
0.06
 41
0.06
280
     0
281
     0
  7
Standard
140
0.18
170
     2
 62
     0
 63
     7
283
     0
274
    -2
284
     1
 64
     0
275
    -2
285
     1
 65
     0
276
    -2
286
     1
 66
     0
277
    -2
287
     1
 67
     0
278
    -2
288
     1
 68
     0
279
    -2
289
     1
 69
     0
  7
Standard
140
0.25
170
     5
 62
     0
 63
     7
283
     0
274
    -2
284
     1
 64
     0
275
    -2
285
     1
 65
     0
276
    -2
286
     1
 66
     0
277
    -2
287
     1
 67
     0
278
    -2
288
     1
 68
     0
279
    -2
289
     1
 69
     0
  7
Standard
140
0.18
170
     5
 62
     0
 63
     7
283
     0
274
    -2
284
     1
 64
     0
275
    -2
285
     1
 65
     0
276
    -2
286
     1
 66
     0
277
    -2
287
     1
 67
     0
278
    -2
288
     1
 68
     0
279
    -2
289
     1
 69
     0
  0
DICTIONARYVAR
  5
585
102
{ACAD_REACTORS
330
66
102
}
330
66
100
DictionaryVariables
280
     0
  1
STANDARD
  0
DICTIONARYVAR
  5
67
102
{ACAD_REACTORS
330
66
102
}
330
66
100
DictionaryVariables
280
     0
  1
2
  0
DICTIONARYVAR
  5
6B
102
{ACAD_REACTORS
330
66
102
}
330
66
100
DictionaryVariables
280
     0
  1
1
  0
DICTIONARYVAR
  5
6E2
102
{ACAD_REACTORS
330
66
102
}
330
66
100
DictionaryVariables
280
     0
  1

  0
DICTIONARY
  5
6BB
330
59
100
AcDbDictionary
280
     1
281
     1
  3
ACAD_XREC_ROUNDTRIP
360
6E7
  3
ADSK_XREC_LAYOUTTHUMBNAIL
360
6BC
  0
DICTIONARY
  5
6C8
330
5E
100
AcDbDictionary
280
     1
281
     1
  3
ACAD_XREC_ROUNDTRIP
360
6E8
  3
ADSK_XREC_LAYOUTTHUMBNAIL
360
6C9
  0
DICTIONARY
  5
6E5
330
22
100
AcDbDictionary
280
     1
281
     1
  3
ACAD_XREC_ROUNDTRIP
360
6E6
  0
XRECORD
  5
6E7
102
{ACAD_REACTORS
330
6BB
102
}
330
6BB
100
AcDbXrecord
280
     1
102
SHADEPLOT
 70
     0
102
SHADEPLOTRESLEVEL
 70
     2
102
SHADEPLOTCUSTOMDPI
 70
   300
  0
XRECORD
  5
6BC
102
{ACAD_REACTORS
330
6BB
102
}
330
6BB
100
AcDbXrecord
280
     1
310
28000000B40000008A00000001000800000000000861000000000000000000000001000000000000FFFFFF0000000000FFFFFF000000000000000000000000000000000000000000000000000000000000000000330000006600000099000000CC000000FF00000000330000333300006633000099330000CC330000FF3300
310
0000660000336600006666000099660000CC660000FF66000000990000339900006699000099990000CC990000FF99000000CC000033CC000066CC000099CC0000CCCC0000FFCC000000FF000033FF000066FF000099FF0000CCFF0000FFFF000000003300330033006600330099003300CC003300FF003300003333003333
310
33006633330099333300CC333300FF33330000663300336633006666330099663300CC663300FF66330000993300339933006699330099993300CC993300FF99330000CC330033CC330066CC330099CC3300CCCC3300FFCC330000FF330033FF330066FF330099FF3300CCFF3300FFFF330000006600330066006600660099
310
006600CC006600FF00660000336600333366006633660099336600CC336600FF33660000666600336666006666660099666600CC666600FF66660000996600339966006699660099996600CC996600FF99660000CC660033CC660066CC660099CC6600CCCC6600FFCC660000FF660033FF660066FF660099FF6600CCFF6600
310
FFFF660000009900330099006600990099009900CC009900FF00990000339900333399006633990099339900CC339900FF33990000669900336699006666990099669900CC669900FF66990000999900339999006699990099999900CC999900FF99990000CC990033CC990066CC990099CC9900CCCC9900FFCC990000FF99
310
0033FF990066FF990099FF9900CCFF9900FFFF99000000CC003300CC006600CC009900CC00CC00CC00FF00CC000033CC003333CC006633CC009933CC00CC33CC00FF33CC000066CC003366CC006666CC009966CC00CC66CC00FF66CC000099CC003399CC006699CC009999CC00CC99CC00FF99CC0000CCCC0033CCCC0066CC
310
CC0099CCCC00CCCCCC00FFCCCC0000FFCC0033FFCC0066FFCC0099FFCC00CCFFCC00FFFFCC000000FF003300FF006600FF009900FF00CC00FF00FF00FF000033FF003333FF006633FF009933FF00CC33FF00FF33FF000066FF003366FF006666FF009966FF00CC66FF00FF66FF000099FF003399FF006699FF009999FF00CC
310
99FF00FF99FF0000CCFF0033CCFF0066CCFF0099CCFF00CCCCFF00FFCCFF0000FFFF0033FFFF0066FFFF0099FFFF00CCFFFF00FFFFFF00000000000D0D0D001A1A1A00282828003535350043434300505050005D5D5D006B6B6B00787878008686860093939300A1A1A100AEAEAE00BBBBBB00C9C9C900D6D6D600E4E4E400
310
F1F1F100FFFFFF0000000000000000000000000000000000000000000000000000000000000000000000000000000000E2E2E2E2E2E2E2E2E2E2E2E2E2E2E2E2E2E2E2E2E2E2E2E2E2E2E2E2E2E2E2E2E2E2E2E2E2E2E2E2E2E2E2E2E2E2E2E2E2E2E2E2E2E2E2E2E2E2E2E2E2E2E2E2E2E2E2E2E2E2E2E2E2E2E2E2E2E2E2
310
E2E2E2E2E2E2E2E2E2E2E2E2E2E2E2E2E2E2E2E2E2E2E2E2E2E2E2E2E2E2E2E2E2E2E2E2E2E2E2E2E2E2E2E2E2E2E2E2E2E2E2E2E2E2E2E2E2E2E2E2E2E2E2E2E2E2E2E2E2E2E2E2E2E2E2E2E2E2E2E2E2E2E2E2E2E2E2E2E2E2E2E2E2E2E2E2E2E2E2E2E2E2F5F5F5F5F5F5F5F5F5F5F5F5F5F5F5F5F5F5F5F5F5F5F5F5F5
310
F5F5F5F5F5F5F5F5F5F5F5F5F5F5F5F5F5F5F5F5F5F5F5F5F5F5F5F5F5F5F5F5F5F5F5F5F5F5F5F5F5F5F5F5F5F5F5F5F5F5F5F5F5F5F5F5F5F5F5F5F5F5F5F5F5F5F5F5F5F5F5F5F5F5F5F5F5F5F5F5F5F5F5F5F5F5F5F5F5F5F5F5F5F5F5F5F5F5F5F5F5F5F5F5F5F5F5F5F5F5F5F5F5F5F5F5F5F5F5F5F5F5F5F5F5F5F5
310
F5F5F5F5F5F5F5F5F5F5F5F5F5F5F5F5F5F5F5F5F5F5F5F5F5E2E2E2F5F5F5F5F5F5F5F5F5F5F5F5F5F5F5F5F5F5F5F5F5F5F5F5F5F5F5F5F5F5F5F5F5F5F5F5F5F5F5F5F5F5F5F5F5F5F5F5F5F5F5F5F5F5F5F5F5F5F5F5F5F5F5F5F5F5F5F5F5F5F5F5F5F5F5F5F5F5F5F5F5F5F5F5F5F5F5F5F5F5F5F5F5F5F5F5F5F5F5
310
F5F5F5F5F5F5F5F5F5F5F5F5F5F5F5F5F5F5F5F5F5F5F5F5F5F5F5F5F5F5F5F5F5F5F5F5F5F5F5F5F5F5F5F5F5F5F5F5F5F5F5F5F5F5F5F5F5F5F5F5F5F5F5F5F5F5F5F5F5F5F5F5F5F5F5F5F5F5E2E2E2F5F5F5F5F5F5F5F5F5F5F5F5F5F5F5F5F5F5F5F5F5F5F5F5F5F5F5F5F5F5F5F5F5F5F5F5F5F5F5F5F5F5F5F5F5F5
310
F5F5F5F5F5F5F5F5F5F5F5F5F5F5F5F5F5F5F5F5F5F5F5F5F5F5F5F5F5F5F5F5F5F5F5F5F5F5F5F5F5F5F5F5F5F5F5F5F5F5F5F5F5F5F5F5F5F5F5F5F5F5F5F5F5F5F5F5F5F5F5F5F5F5F5F5F5F5F5F5F5F5F5F5F5F5F5F5F5F5F5F5F5F5F5F5F5F5F5F5F5F5F5F5F5F5F5F5F5F5F5F5F5F5F5F5F5F5F5F5F5F5F5F5F5F5F5
310
F5F5F5F5E2E2E2F5F5F5E2E2E2E2E2E2E2E2F5F5F5F5F5F5F5F5F5E2E2E2E2E2E2E2E2E2E2E2E2E2E2E2E2F5F5F5F5F5F5F5F5E2E2E2E2E2E2E2E2E2E2E2E2E2E2E2E2F5F5F5F5F5F5F5F5F5E2E2E2E2E2E2E2E2E2E2E2E2E2E2E2F5F5F5F5F5F5F5F5F5E2E2E2E2E2E2E2E2E2E2E2E2E2E2E2F5F5F5F5F5F5F5F5F5E2E2E2
310
E2E2E2E2E2E2E2E2E2E2E2E2E2F5F5F5F5F5F5F5F5E2E2E2E2E2E2E2E2E2E2E2E2E2E2E2E2F5F5F5F5F5F5F5F5F5E2E2E2E2E2E2E2E2F5F5F5E2E2E2F5F5F5E2F5F5F5F5F5F5F5F5F5F5F5F5F5F5F5F5F5F5F5F5F5F5F5F5F5F5F5F5F5F5F5F5F5F5F5F5F5F5F5F5F5F5F5F5F5F5F5F5F5F5F5F5F5F5F5F5F5F5F5F5F5F5F5
310
F5F5F5F5F5F5F5F5F5F5F5F5F5F5F5F5F5F5F5F5F5F5F5F5F5F5F5F5F5F5F5F5F5F5F5F5F5F5F5F5F5F5F5F5F5F5F5F5F5F5F5F5F5F5F5F5F5F5F5F5F5F5F5F5F5F5F5F5F5F5F5F5F5F5F5F5F5F5F5F5F5F5F5F5F5F5F5F5F5F5F5F5F5F5F5F5F5F5F5F5F5F5F5F5F5F5E2F5F5F5E2E2E2F5F5F5E2F5F5F5F5F5F5F5F5F5F5
310
F5F5F5F5F5F5F5F5F5F5F5F5F5F5F5F5F5F5F5F5F5F5F5F5F5F5F5F5F5F5F5F5F5F5F5F5F5F5F5F5F5F5F5F5F5F5F5F5F5F5F5F5F5F5F5F5F5F5F5F5F5F5F5F5F5F5F5F5F5F5F5F5F5F5F5F5F5F5F5F5F5F5F5F5F5F5F5F5F5F5F5F5F5F5F5F5F5F5F5F5F5F5F5F5F5F5F5F5F5F5F5F5F5F5F5F5F5F5F5F5F5F5F5F5F5F5F5
310
F5F5F5F5F5F5F5F5F5F5F5F5F5F5F5F5F5F5F5F5F5F5F5F5F5F5F5F5F5F5F5F5E2F5F5F5E2E2E2F5F5F5E2F5F5F5F5F5F5F5F5F5F5F5F5F5F5F5F5F5F5F5F5F5F5F5F5F5F5F5F5F5F5F5F5F5F5F5F5F5F5F5F5F5F5F5F5F5F5F5F5F5F5F5F5F5F5F5F5F5F5F5F5F5F5F5F5F5F5F5F5F5F5F5F5F5F5F5F5F5F5F5F5F5F5F5F5
310
F5F5F5F5F5F5F5F5F5F5F5F5F5F5F5F5F5F5F5F5F5F5F5F5F5F5F5F5F5F5F5F5F5F5F5F5F5F5F5F5F5F5F5F5F5F5F5F5F5F5F5F5F5F5F5F5F5F5F5F5F5F5F5F5F5F5F5F5F5F5F5F5F5F5F5F5F5F5F5F5F5F5F5F5F5E2F5F5F5E2E2E2F5F5F5E2F5F5F5F5F5F5F5F5F5F5F5F5F5F5F5F5F5F5F5F5F5F5F5F5F5F5F5F5F5F5F5
310
F5F5F5F5F5F5F5F5F5F5F5F5F5F5F5F5F5F5F5F5F5F5F5F5F5F5F5F5F5F5F5F5F5F5F5F5F5F5F5F5F5F5F5F5F5F5F5F5F5F5F5F5F5F5F5F5F5F5F5F5F5F5F5F5F5F5F5F5F5F5F5F5F5F5F5F5F5F5F5F5F5F5F5F5F5F5F5F5F5F5F5F5F5F5F5F5F5F5F5F5F5F5F5F5F5F5F5F5F5F5F5F5F5F5F5F5F5F5F5F5F5F5F5F5F5F5F5
310
F5F5F5F5F5F5F5F5F5F5F5E2F5F5F5E2E2E2F5F5F5E2F5F5F5F5F5F5F5F5F5F5F5F5F5F5F5F5F5F5F5F5F5F5F5F5F5F5F5F5F5F5F5F5F5F5F5F5F5F5F5F5F5F5F5F5F5F5F5F5F5F5F5F5F5F5F5F5F5F5F5F5F5F5F5F5F5F5F5F5F5F5F5F5F5F5F5F5F5F5F5F5F5F5F5F5F5F5F5F5F5F5F5F5F5F5F5F5F5F5F5F5F5F5F5F5F5
310
F5F5F5F5F5F5F5F5F5F5F5F5F5F5F5F5F5F5F5F5F5F5F5F5F5F5F5F5F5F5F5F5F5F5F5F5F5F5F5F5F5F5F5F5F5F5F5F5F5F5F5F5F5F5F5F5F5F5F5F5F5F5F5F5E2F5F5F5E2E2E2F5F5F5E2F5F5F5F5F5F5F5F5F5F5F5F5F5F5F5F5F5F5F5F5F5F5F5F5F5F5F5F5F5F5F5F5F5F5F5F5F5F5F5F5F5F5F5F5F5F5F5F5F5F5F5F5
310
F5F5F5F5F5F5F5F5F5F5F5F5F5F5F5F5F5F5F5F5F5F5F5F5F5F5F5F5F5F5F5F5F5F5F5F5F5F5F5F5F5F5F5F5F5F5F5F5F5F5F5F5F5F5F5F5F5F5F5F5F5F5F5F5F5F5F5F5F5F5F5F5F5F5F5F5F5F5F5F5F5F5F5F5F5F5F5F5F5F5F5F5F5F5F5F5F5F5F5F5F5F5F5F5F5F5F5F5F5F5F5F5F5F5F5F5F5E2F5F5F5E2E2E2F5F5F5
310
E2F5F5F5F5F5F5F5F5F5F5F5F5F5F5F5F5F5F5F5F5F5F5F5F5F5F5F5F5F5F5F5F5F5F5F5F5F5F5F5F5F5F5F5F5F5F5F5F5F5F5F5F5F5F5F5F5F5F5F5F5F5F5F5F5F5F5F5F5F5F5F5F5F5F5F5F5F5F5F5F5F5F5F5F5F5F5F5F5F5F5F5F5F5F5F5F5F5F5F5F5F5F5F5F5F5F5F5F5F5F5F5F5F5F5F5F5F5F5F5F5F5F5F5F5F5F5
310
F5F5F5F5F5F5F5F5F5F5F5F5F5F5F5F5F5F5F5F5F5F5F5F5F5F5F5F5F5F5F5F5F5F5F5F5F5F5F5F5F5F5F5E2F5F5F5E2E2E2F5F5F5E2F5F5F5F5F5F5F5F5F5F5F5F5F5F5F5F5F5F5F5F5F5F5F5F5F5F5F5F5F5F5F5F5F5F5F5F5F5F5F5F5F5F5F5F5F5F5F5F5F5F5F5F5F5F5F5F5F5F5F5F5F5F5F5F5F5F5F5F5F5F5F5F5F5
310
F5F5F5F5F5F5F5F5F5F5F5F5F5F5F5F5F5F5F5F5F5F5F5F5F5F5F5F5F5F5F5F5F5F5F5F5F5F5F5F5F5F5F5F5F5F5F5F5F5F5F5F5F5F5F5F5F5F5F5F5F5F5F5F5F5F5F5F5F5F5F5F5F5F5F5F5F5F5F5F5F5F5F5F5F5F5F5F5F5F5F5F5F5F5F5F5E2F5F5F5E2E2E2F5F5F5F5F5F5F5F5F5F5F5F5F5F5F5F5F5F5F5F5F5F5F5F5
310
F5F5F5F5F5F5F5F5F5F5F5F5F5F5F5F5F5F5F5F5F5F5F5F5F5F5F5F5F5F5F5F5F5F5F5F5F5F5F5F5F5F5F5F5F5F5F5F5F5F5F5F5F5F5F5F5F5F5F5F5F5F5F5F5F5F5F5F5F5F5F5F5F5F5F5F5F5F5F5F5F5F5F5F5F5F5F5F5F5F5F5F5F5F5F5F5F5F5F5F5F5F5F5F5F5F5F5F5F5F5F5F5F5F5F5F5F5F5F5F5F5F5F5F5F5F5F5
310
F5F5F5F5F5F5F5F5F5F5F5F5F5F5F5F5F5F5F5F5F5F5F5F5F5F5E2E2E2F5F5F5F5F5F5F5F5F5F5F5F5F5F5F5F5F5F5F5F5F5F5F5F5F5F5F5F5F5F5F5F5F5F5F5F5F5F5F5F5F5F5F5F5F5F5F5F5F5F5F5F5F5F5F5F5F5F5F5F5F5F5F5F5F5F5F5F5F5F5F5F5F5F5F5F5F5F5F5F5F5F5F5F5F5F5F5F5F5F5F5F5F5F5F5F5F5F5
310
F5F5F5F5F5F5F5F5F5F5F5F5F5F5F5F5F5F5F5F5F5F5F5F5F5F5F5F5F5F5F5F5F5F5F5F5F5F5F5F5F5F5F5F5F5F5F5F5F5F5F5F5F5F5F5F5F5F5F5F5F5F5F5F5F5F5F5F5F5F5F5F5F5F5F5F5F5F5F5E2E2E2F5F5F5F5F5F5F5F5F5F5F5F5F5F5F5F5F5F5F5F5F5F5F5F5F5F5F5F5F5F5F5F5F5F5F5F5F5F5F5F5F5F5F5F5F5
310
F5F5F5F5F5F5F5F5F5F5F5F5F5F5F5F5F5F5F5F5F5F5F5F5F5F5F5F5F5F5F5F5F5F5F5F5F5F5F5F5F5F5F5F5F5F5F5F5F5F5F5F5F5F5F5F5F5F5F5F5F5F5F5F5F5F5F5F5F5F5F5F5F5F5F5F5F5F5F5F5F5F5F5F5F5F5F5F5F5F5F5F5F5F5F5F5F5F5F5F5F5F5F5F5F5F5F5F5F5F5F5F5F5F5F5F5F5F5F5F5F5F5F5F5F5F5F5
310
F5F5F5F5F5E2E2E2F5F5F5F5F5F5F5F5F5F5F5F5F5F5F5F5F5F5F5F5F5F5F5F5F5F5F5F5F5F5F5F5F5F5F5F5F5F5F5F5F5F5F5F5F5F5F5F5F5F5F5F5F5F5F5F5F5F5F5F5F5F5F5F5F5F5F5F5F5F5F5F5F5F5F5F5F5F5F5F5F5F5F5F5F5F5F5F5F5F5F5F5F5F5F5F5F5F5F5F5F5F5F5F5F5F5F5F5F5F5F5F5F5F5F5F5F5F5F5
310
F5F5F5F5F5F5F5F5F5F5F5F5F5F5F5F5F5F5F5F5F5F5F5F5F5F5F5F5F5F5F5F5F5F5F5F5F5F5F5F5F5F5F5F5F5F5F5F5F5F5F5F5F5F5F5F5F5F5E2E2E2F5F5F5F5F5F5F5F5F5F5F5F5F5F5F5F5F5F5F5F5BEBEBEBEBEBEBEBEBEBEBEBEBEBEBEBEBEBEBEBEBEBEBEBEBEBEBEBEBEBEBEBEBEBEBEBEBEBEBEBEBEBEBEBEBEBE
310
BEBEBEBEBEBEBEBEBEBEBEBEBEBEBEBEBEBEBEBEBEBEBEBEBEBEBEBEBEBEBEBEBEBEBEBEBEBEBEBEBEBEBEBEBEBEBEBEBEBEBEBEBEBEBEBEBEBEBEBEBEBEBEBEBEBEBEBEBEBEBEBEBEBEBEBEBEBEBEBEBEBEBEBEBEBEBEBEBEBEBEF5F5F5F5F5F5F5F5F5F5F5F5F5F5F5F5F5F5F5F5E2E2E2F5F5F5F5F5F5F5F5F5F5F5F5F5
310
F5F5F5F5F5F5F5BEF5F5F5F5F5F5F5F5F5F5F5F5F5F5F5F5F5F5F5F5F5F5F5F5F5F5F5F5F5F5F5F5F5F5F5F5F5F5F5F5F5F5F5F5F5F5F5F5F5F5F5F5F5F5F5F5F5F5F5F5F5F5F5F5F5F5F5F5F5F5F5F5F5F5F5F5F5F5F5F5F5F5F5F5F5F5F5F5F5F5F5F5F5F5F5F5F5F5F5F5F5F5F5F5F5F5F5F5F5F5F5F5F5F5F5F5F5F5F5
310
F5F5F5F5F5F5F5F5F5F5F5F5F5F5F5F5BEF5F5F5F5F5F5F5F5F5F5F5F5F5F5F5F5F5F5F5F5E2E2E2F5F5F5F5F5F5F5F5F5F5F5F5F5F5F5F5F5F5F5F5BEF5F5F5F5F5F5F5F5F5F5F5F5F5F5F5F5F5F5F5F5F5F5F5F5F5F5F5F5F5F5F5F5F5F5F5F5F5F5F5F5F5F5F5F5F5F5F5F5F5F5F5F5F5F5F5F5F5F5F5F5F5F5F5F5F5F5
310
F5F5F5F5F5F5F5F5F5F5F5F5F5F5F5F5F5F5F5F5F5F5F5F5F5F5F5F5F5F5F5F5F5F5F5F5F5F5F5F5F5F5F5F5F5F5F5F5F5F5F5F5F5F5F5F5F5F5F5F5F5F5F5F5F5F5F5F5F5BEF5F5F5F5F5F5F5F5F5F5F5F5F5F5F5F5F5F5F5F5E2E2E2F5F5F5F5F5F5F5F5F5F5F5F5F5F5F5F5F5F5F5F5BEF5F5F5F5F5F5F5F5F5F5F5F5F5
310
F5F5F5F5F5F5F5F5F5F5F5F5F5F5F5F5F5F5F5F5F5F5F5F5F5F5F5F5F5F5F5F5F5F5F5F5F5F5F5F5F5F5F5F5F5F5F5F5F5F5F5F5F5F5F5F5F5F5F5F5F5F5F5F5F5F5F5F5F5F5F5F5F5F5F5F5F5F5F5F5F5F5F5F5F5F5F5F5F5F5F5F5F5F5F5F5F5F5F5F5F5F5F5F5F5F5F5F5F5F5F5F5F5F5F5F5F5F5F5F5F5F5BEF5F5F5F5
310
F5F5F5F5F5F5F5F5F5F5F5F5F5F5F5F5E2E2E2F5F5F5F5F5F5F5F5F5F5F5F5F5F5F5F5F5F5F5F5BEF5F5F5F5F5F5F5F5F5F5F5F5F5F5F5F5F5F5F5F5F5F5F5F5F5F5F5F5F5F5F5F5F5F5F5F5F5F5F5F5F5F5F5F5F5F5F5F5F5F5F5F5F5F5F5F5F5F5F5F5F5F5F5F5F5F5F5F5F5F5F5F5F5F5F5F5F5F5F5F5F5F5F5F5F5F5F5
310
F5F5F5F5F5F5F5F5F5F5F5F5F5F5F5F5F5F5F5F5F5F5F5F5F5F5F5F5F5F5F5F5F5F5F5F5F5F5F5F5F5F5F5F5F5F5F5F5BEF5F5F5F5F5F5F5F5F5F5F5F5F5F5F5F5F5F5F5F5E2E2E2F5F5F5E2F5F5F5F5F5F5F5F5F5F5F5F5F5F5F5F5BEF5F5F5F5F5F5F5F5F5F5F5F5F5F5F5F5F5F5F5F5F5F5F5F5F5F5F5F5F5F5F5F5F5F5
310
F5F5F5F5F5F5F5F5F5F5F5F5F5F5F5F5F5F5F5F5F5F5F5F5F5F5F5F5F5F5F5F5F5F5F5F5F5F5F5F5F5F5F5F5F5F5F5F5F5F5F5F5F5F5F5F5F5F5F5F5F5F5F5F5F5F5F5F5F5F5F5F5F5F5F5F5F5F5F5F5F5F5F5F5F5F5F5F5F5F5F5F5F5F5F5F5F5F5F5F5F5BEF5F5F5F5F5F5F5F5F5F5F5F5F5F5F5F5E2F5F5F5E2E2E2F5F5
310
F5E2F5F5F5F5F5F5F5F5F5F5F5F5F5F5F5F5BEF5F5F5F5F5F5F5F5F5F5F5F5F5F5F5F5F5F5F5F5F5F5F5F5F5F5F5F5F5F5F5F5F5F5F5F5F5F5F5F5F5F5F5F5F5F5F5F5F5F5F5F5F5F5F5F5F5F5F5F5F5F5F5F5F5F5F5F5F5F5F5F5F5F5F5F5F5F5F5F5F5F5F5F5F5F5F5F5F5F5F5F5F5F5F5F5F5F5F5F5F5F5F5F5F5F5F5F5
310
F5F5F5F5F5F5F5F5F5F5F5F5F5F5F5F5F5F5F5F5F5F5F5F5F5F5F5BEF5F5F5F5F5F5F5F5F5F5F5F5F5F5F5F5E2F5F5F5E2E2E2F5F5F5E2F5F5F5F5F5F5F5F5F5F5F5F5F5F5F5F5BEF5F5F5F5F5F5F5F5F5F5F5F5F5F5F5F5F5F5F5F5F5F5F5F5F5F5F5F5F5F5F5F5F5F5F5F5F5F5F5F5F5F5F5F5F5F5F5F5F5F5F5F5F5F5F5
310
F5F5F5F5F5F5F5F5F5F5F5F5F5F5F5F5F5F5F5F5F5F5F5F5F5F5F5F5F5F5F5F5F5F5F5F5F5F5F5F5F5F5F5F5F5F5F5F5F5F5F5F5F5F5F5F5F5F5F5F5F5F5F5F5F5F5F5F5F5F5F5F5F5F5F5F5F5F5F5F5BEF5F5F5F5F5F5F5F5F5F5F5F5F5F5F5F5E2F5F5F5E2E2E2F5F5F5E2F5F5F5F5F5F5F5F5F5F5F5F5F5F5F5F5BEF5F5
310
F5F5F5F5F5F5F5F5F5F5F5F5F5F5F5F5F5F5F5F5F5F5F5F5F5F5F5F5F5F5F5F5F5F5F5F5F5F5F5F5F5F5F5F5F5F5F5F5F5F5F5F5F5F5F5F5F5F5F5F5F5F5F5F5F5F5F5F5F5F5F5F5F5F5F5F5F5F5F5F5F5F5F5F5F5F5F5F5F5F5F5F5F5F5F5F5F5F5F5F5F5F5F5F5F5F5F5F5F5F5F5F5F5F5F5F5F5F5F5F5F5F5F5F5F5F5F5
310
F5F5F5F5F5F5BEF5F5F5F5F5F5F5F5F5F5F5F5F5F5F5F5E2F5F5F5E2E2E2F5F5F5E2F5F5F5F5F5F5F5F5F5F5F5F5F5F5F5F5BE28F5F5F5F5F5F5F5F5F5F5F5F5F5F5F5F5F5F5F5F5F5F5F5F5F5F5F5F5F5F5F5F5F5F5F5F5F5F5F5F5F5F5F5F5F5F5F5F5F5F5F5F5F5F5F5F5F5F5F5F5F5F5F5F5F5F5F5F5F5F5F5F5F5F5F5
310
F5F5F5F5F5F5F5F5F5F5F5F5F5F5F5F5F5F5F5F5F5F5F5F5F5F5F5F5F5F5F5F5F5F5F5F5F5F5F5F5F5F5F5F5F5F5F5F5F5F5F5F5F5F5F5F5F5F528BEF5F5F5F5F5F5F5F5F5F5F5F5F5F5F5F5E2F5F5F5E2E2E2F5F5F5E2F5F5F5F5F5F5F5F5F5F5F5F5F5F5F5F5BEF5F5F5F5F5F5F5F5F5F5F5F5F5F5F5F5F5F5F5F5F5F5F5
310
F5F5F5F5F5F5F5F5F5F5F5F5F5F5F5F5F5F5F5F5F5F5F5F5F5F5F5F5F5F5F5F5F5F5F5F5F5F5F5F5F5F5F5F5F5F5F5F5F5F5F5F5F5F5F5F5F5F5F5F5F5F5F5F5F5F5F5F5F5F5F5F5F5F5F5F5F5F5F5F5F5F5F5F5F5F5F5F5F5F5F5F5F5F5F5F5F5F5F5F5F5F5F5F5F5F5F5F5F5F5F5F5BEF5F5F5F5F5F5F5F5F5F5F5F5F5F5
310
F5F5E2F5F5F5E2E2E2F5F5F5E2F5F5F5F5F5F5F5F5F5F5F5F5F5F5F5F5BEF5F52828282828282828282828282828282828282828282828282828282828282828282828282828282828282828282828282828282828282828282828282828282828282828282828282828282828282828282828282828282828282828282828
310
28282828282828BEBEBE2828282828282828282828282828282828282828282828282828F5F5BEF5F5F5F5F5F5F5F5F5F5F5F5F5F5F5F5E2F5F5F5E2E2E2F5F5F5E2F5F5F5F5F5F5F5F5F5F5F5F5F5F5F5F5BEF5F528F5F5F5F5F5F5F5F5F5F5F5F5F5F5F5F5F5F5F5F5F5F5F5F5F5F5F5F5F5F5F5F5F5F5F5F5F5F5F5F5F5
310
F5F5F5F5F528F528F5F5F528F5F528F5F528F5F5F5F5F5F5F5F5F5F5F5F5F5F5F5F5F5F5F5F5F528F5F5F5F5F5F5F5F528F5F528F5F528F5F5282828F5F5F528F5F5F5F5F5F5F5F5F5F5F5F5F5BEBEBEBEBEBEBE28F5282828F5F5BEF5F5F5F5F5F5F5F5F5F5F5F5F5F5F5F5E2F5F5F5E2E2E2F5F5F5E2F5F5F5F5F5F5F5F5
310
F5F5F5F5F5F5F5F5BEF5F528F5F5F5F5F5F5F5F5F5F5F5F5F5F5F5F5F5F5F5F5F5F5F5F5F5F5F5F5F5F5F5F5F5F5F5F5F5F5F5F5F5F5F5F5F5F5282828BEBEBE28BEBE28BEBE28282828BEBEBEBEBEBEBEBEBEBEBEBEBEBE2828282828BEBEBEBE2828BE2828BE282828282828282828BEBEBEBE28F5F5F5F5F5F5F5F5F5F5
310
F5F5F5BEBEBEBEBEBEBE28F5282828F5F5BEF5F5F5F5F5F5F5F5F5F5F5F5F5F5F5F5E2F5F5F5E2E2E2F5F5F5E2F5F5F5F5F5F5F5F5F5F5F5F5F5F5F5F5BEF5F528F5F5F5F5F5F5F5F5F5F5F5F5F5F5F5F5F5F5F5F5F5F5F5F5F5F5F5F5F5F5F5F5F5F5F5F5F5F5F5F5F5F5F5F5F5F528F528F5F5F528F5F528F5F528F5F5F5
310
F5F5F5F5F5F5F5F5F5F5F5F5F5F5F5F5F5F528F5F5F5F5F528F5F528F5F528F5F528F5F528F5F5F5F5F528F5F5F5F5F5F5F5F5F5F5F5F5F52828282828F5F52828282828F5F5BEF5F5F5F5F5F5F5F5F5F5F5F5F5F5F5F5E2F5F5F5E2E2E2F5F5F5E2F5F5F5F5F5F5F5F5F5F5F5F5F5F5F5F5BEF5F528F5F5F5F5F5F5F5F5F5
310
F5F5F5F5F5F5F5F5F5F5F5F5F5F5F5F5F5F5F5F5F5F5F5F5F5F5F5F5F5F5F5F5F5F5F5F5F5282828BEBE2828BEBE28BEBEBEBEBEBEBEBEBEBEBEBE28282828282828282828282828282828282828282828282828282828282828282828BEBE28F5F5F5F5F5F5F5F5F5F5F5F5F528282828BEBEBE2828282828F5F5BEF5F5F5
310
F5F5F5F5F5F5F5F5F5F5F5F5F5E2F5F5F5E2E2E2F5F5F5E2F5F5F5F5F5F5F5F5F5F5F5F5F5F5F5F5BEF5F528F5F5F5F5F5F5F5F5F5F5F5F5F5F5F5F5F5F5F5F5F5F5F5F5F5F5F5F5F5F5F5F5F5F5F5F5F5F5F5F5F5F5F5F5F5F528BE28F5F5F528F5F528F5F5BEBEBEBEBEBEBEBEBEF5F5F5F5F5F5F5F5F5F5F5F5F528F5F5
310
F5F5F528F5F528F5F528F5F528F5F5282828F5F5F5282828F5F5F5F5F5F5F5F5F5F5F52828F5F5BEBEBEF5F5F5F528F5F5BEF5F5F5F5F5F5F5F5F5F5F5F5F5F5F5F5E2F5F5F5E2E2E2F5F5F5E2F5F5F5F5F5F5F5F5F5F5F5F5F5F5F5F5BEF5F528F5F5F5F5F5F5F5F5F5F5F5F5F5F5F5F5F5F5F5F5F5F5F5F5F5F5F5F5F5F5
310
F5F5F5F5F5F5F5F5F5F5F5F5F5F5F5F528BE28BEBE2828BE2828BE28BEBEBEBEBEBEBEBE28282828282828282828282828282828282828282828282828282828282828282828282828282828282828282828282828282828282828282828282828282828F5F5BEF5F5F5F5F5F5F5F5F5F5F5F5F5F5F5F5E2F5F5F5E2E2E2F5
310
F5F5E2F5F5F5F5F5F5F5F5F5F5F5F5F5F5F5F5BEF5F528F5F5F5F5F5F5F5F5F5F5F5F5F5F5F5F5F5F5F5F5F5F5F5F5F5F5F5F5F5F5F5F5F5F5F5F5F5F5F5F5F5F5F5F5F5F528F528F5F5F528F5F528F5F528F5F5F5F5F5F5F5F5F5F5F5F5F5F5F5F5F5F5F5F5F528F5F5F5F5F528F5F528F5F528F5F528F5F528F5F5F52828
310
F5F5F5F5F5F52828F5F5F5F5F5F5282828282828282828282828F5F5BEF5F5F5F5F5F5F5F5F5F5F5F5F5F5F5F5E2F5F5F5E2E2E2F5F5F5E2F5F5F5F5F5F5F5F5F5F5F5F5F5F5F5F5BEF5F528F5F5F5F5F5F5F5F5F5F5F5F5F5F5F5F5F5F5F5F5F5F5F5F5F5F5F5F5F5F5F5F5F5F5F5F5F5F5F5F5F5F5F5F5F5F52828282828
310
282828282828282828282828282828282828282828282828282828282828282828282828282828282828282828282828F5F528282828282828282828282828282828F5282828282828282828282828F5F5BEF5F5F5F5F5F5F5F5F5F5F5F5F5F5F5F5E2F5F5F5E2E2E2F5F5F5E2F5F5F5F5F5F5F5F5F5F5F5F5F5F5F5F5BEF5
310
F528F5F5F5F5F5F5F5F5F5F5F5F5F5F5F5F5F5F5F5F5F5F5F5F5F5F5F5F5F5F5F5F5F5F5F5F5F5F5F5F5F5F5F5F5F5F528F528F5F5F528F5F528F5F528F5F5F5F5F5F5F5F5F5F5F5F5F5F5F5F5F5F5F5F5F528F5F5F5F5F528F5F528F5F528F5F528F5F528F5F528282828282828282828282828F5F5F5F528F5F5F5F5F5F5
310
F5F5F5F528F5F5BEF5F5F5F5F5F5F5F5F5F5F5F5F5F5F5F5E2F5F5F5E2E2E2F5F5F5E2F5F5F5F5F5F5F5F5F5F5F5F5F5F5F5F5BEF5F528F5F5F5F5F5F5F5F5F5F5F5F5F5F5F5F5F5F5F5F5F5F5F5F5F5F5F5F5F5F5F5F5F5F5F5F5F5F5F5F5F5F5F5F5F5F52828282828282828282828282828282828282828282828282828
310
282828282828282828282828282828282828282828282828282828282828BE2828282828BEBEBEBEBEBEBEBEBEBEBE2828282828282828282828F5F5BEF5F5F5F5F5F5F5F5F5F5F5F5F5F5F5F5E2F5F5F5E2E2E2F5F5F5F5F5F5F5F5F5F5F5F5F5F5F5F5F5F5F5F5BEF5F528F5F5F5F5F5F5F5F5F5F5F5F5F5F5F5F5F5F5F5
310
F5F5F5F5F5F5F5F5F5F5F5F5F5F5F5F5F5F5F5F5F5F5F5F5F5F5F528F528F5F5F528F5F528F5F528F5F5F5F5F5F5F5F5F5F5F5F5F5F5F5F5F5F5F5F5F528F5F5F5F5F528F5F528F5F528F5F528F5F528F5F5BEBEBEF5F5F5F5BEBEBEBEBEBEBEBEBEBEBEF5F5F5F5F5F5F5F5F5F528F5F5BEF5F5F5F5F5F5F5F5F5F5F5F5F5
310
F5F5F5F5F5F5F5E2E2E2F5F5F5F5F5F5F5F5F5F5F5F5F5F5F5F5F5F5F5F5BEF5F528F5F5F5F5F5F5F5F5F5F5F5F5F5F5F5F5F5F5F5F5F5F5F5F5F5F5F5F5F5F5F5F5F5F5F5F5F5F5F5F5F5F5F5F5F5F52828282828282828282828282828282828282828282828282828282828282828282828282828282828282828282828
310
282828282828F5F5F5BEBEF5F5F5BEBEBEBEBEBEBEBEBEBEBEBEBEBEF5F5F5F5F5F5F5F528F5F5BEF5F5F5F5F5F5F5F5F5F5F5F5F5F5F5F5F5F5F5F5E2E2E2F5F5F5F5F5F5F5F5F5F5F5F5F5F5F5F5F5F5F5F5BEF5F528F5F5F5F5F5F5F5F5F5F5F5F5F5F5F5F5F5F5F5F5F5F5F5F5F5F5F5F5F5F5F5F5F5F5F5F5F5F5F5F5
310
F5F5F5F5F5F528F528F5F5F528F5F528F5F528F5F5F5F5F5F5F5F5F5F5F5F5F5F5F5F5F5F5F5F5F528F5F5F5F5F528F5F528F5F528F5F528F5F52828F5F5BEF5F5F5F5F5F5F5F5F5F5F5F5F5F5F5F5F5F5F5F5F5F5F5F5F5F528F5F5BEF5F5F5F5F5F5F5F5F5F5F5F5F5F5F5F5F5F5F5F5E2E2E2F5F5F5F5F5F5F5F5F5F5F5
310
F5F5F5F5F5F5F5F5F5BEF5F528F5F5F5F5F5F5F5F5F5F5F5F5F5F5F5F5F5F5F5F5F5F5F5F5F5F5F5F5F5F5F5F5F5F5F5F5F5F5F5F5F5F5F5F5F5F52828282828282828282828282828282828282828282828282828282828282828282828282828282828282828282828282828282828282828282828282828282828282828
310
28282828282828282828282828282828F5F5BEF5F5F5F5F5F5F5F5F5F5F5F5F5F5F5F5F5F5F5F5E2E2E2F5F5F5F5F5F5F5F5F5F5F5F5F5F5F5F5F5F5F5F5BEF5F528F5F5F5F5F5F5F5F5F5F5F5F5F5F5F5F5F5F5F5F5F5F5F5F5F5F5F5F5F5F5F5F5F5F5F5F5F5F5F5F5F5F5F5F5F5F528F528F5F5F528F5F528F5F528F5F5
310
F5F5F5F5F5F5F5F5F5F5F5F5F5F5F5F5F5F5F528F5F5F5F5F528F5F528F5F528F5F528F5F528282828282828282828282828282828F5F5F5F5F5F5F5F5F5F5F5F5F5F5F528F5F5BEF5F5F5F5F5F5F5F5F5F5F5F5F5F5F5F5F5F5F5F5E2E2E2F5F5F5F5F5F5F5F5F5F5F5F5F5F5F5F5F5F5F5F5BEF5F528F5F5F5F5F5F5F5F5
310
F5F5F5F5F5F5F5F5F5F5F5F5F5F5F5F5F5F5F5F5F5F5F5F5F5F5F5F5F5F5F5F5F5F5F5F5F5F52828282828282828282828282828282828282828282828282828282828282828282828282828282828282828282828282828282828282828282828282828282828282828F5F5F5F5F5F5F5F5F5F5F5F5F5F5F528F5F5BEF5F5
310
F5F5F5F5F5F5F5F5F5F5F5F5F5F5F5F5F5F5E2E2E2F5F5F5F5F5F5F5F5F5F5F5F5F5F5F5F5F5F5F5F5BEF5F528F5F5F5F5F5F5F5F5F5F5F5F5F5F5F5F5F5F5F5F5F5F5F5F5F5F5F5F5F5F5F5F5F5F5F5F5F5F5F5F5F5F5F5F5F5F528F528F5F5F528F5F528F5F528F5F5F5F5F5F5F5F5F5F5F5F5F5F5F5F5F5F5F5F5F528F5
310
F5F5F5F528F5F528F5F528F5F528F5F528282828282828282828282828282828F5F5F5F5F5F5F5F5F5F5F5F5F5F5F528F5F5BEF5F5F5F5F5F5F5F5F5F5F5F5F5F5F5F5F5F5F5F5E2E2E2F5F5F5F5F5F5F5F5F5F5F5F5F5F5F5F5F5F5F5F5BEF5F528F5F5F5F5F5F5F5F5F5F5F5F5F5F5F5F5F5F5F5F5F5F5F5F5F5F5F5F5F5
310
F5F5F5F5F5F5F5F5F5F5F5F5F5F5F5F5F52828282828282828282828282828282828282828282828282828282828282828282828282828282828282828282828282828282828282828282828282828282828BEBEBEBEBE2828282828282828282828282828F5F5BEF5F5F5F5F5F5F5F5F5F5F5F5F5F5F5F5F5F5F5F5E2E2E2
310
F5F5F5F5F5F5F5F5F5F5F5F5F5F5F5F5F5F5F5F5BEF5F528F5F5F5F5F5F5F5F5F5F5F5F5F5F5F5F5F5F5F5F5F5F5F5F5F5F5F5F5F5F5F5F5F5F5F5F5F5F5F5F5F5F5F5F5F5F528F528F5F5F528F5F528F5F528F5F5F5F5F5F5F5F5F5F5F5F5F5F5F5F5F5F5F5F5F528F5F5F5F5F528F5F528F5F528F5F528F5F528F5F5F5F5
310
F5F5F5F5F5F5F5F5F5F5F5F5F5F5F5F5F5F5F5F5F5F5F5F5F5F528F5F5BEF5F5F5F5F5F5F5F5F5F5F5F5F5F5F5F5F5F5F5F5E2E2E2F5F5F5E2F5F5F5F5F5F5F5F5F5F5F5F5F5F5F5F5BEF5F528F5F5F5F5F5F5F5F5F5F5F5F5F5F5F5F5F5F5F5F5F5F5F5F5F5F5F5F5F5F5F5F5F5F5F5F5F5F5F5F5F5F5F5F5F5F528282828
310
2828282828282828282828282828282828282828282828282828282828282828282828282828282828282828282828282828282828282828282828282828282828282828282828282828282828282828F5F5BEF5F5F5F5F5F5F5F5F5F5F5F5F5F5F5F5E2F5F5F5E2E2E2F5F5F5E2F5F5F5F5F5F5F5F5F5F5F5F5F5F5F5F5BE
310
F5F528F5F5F5F5F5F5F5F5F5F5F5F5F5F5F5F5F5F5F5F5F5F5F5F5F5F5F5F5F5F5F5F5F5F5F5F5F5F5F5F5F5F5F5F5F5F5F5F5F5F5F5F5F5F5F5F5F5F5F5F5F5F5F5F5F5F5F5F5F5F5F5F5F5F5F5F5F5F5F5F5F5F5F5F5F5F5F5F5F5F5F5F5F5F5F5F5F5F5F5F5F5F5F5F5F5F5F5F5F5F5F5F5F5F5F5F5F5F5F5F5F5F5F5F5
310
F5F5F5F5F528F5F5BEF5F5F5F5F5F5F5F5F5F5F5F5F5F5F5F5E2F5F5F5E2E2E2F5F5F5E2F5F5F5F5F5F5F5F5F5F5F5F5F5F5F5F5BEF5F528F5F5F5F5F5F5F5F5F5F5F5F5F5F5F5F5F5F5F5F5F5F5F5F5F5F5F5F5F5F5F5F5F5F5F5F5F5F5F5F5F5F5F5F5F5F5F5F5F5F5F5F5F5F5F5F5F5F5F5F5F5F5F5F5F5F5F5F5F5F5F5
310
F5F5F5F5F5F5F5F5F5F5F5F5F5F5F5F5F5F5F5F5F5F5F5F5F5F5F5F5F5F5F5F5F5F5F5F5F5F5F5F5F5F5F5F5F5F5F5F5F5F5F5F5F5F5F5F5F5F528F5F5BEF5F5F5F5F5F5F5F5F5F5F5F5F5F5F5F5E2F5F5F5E2E2E2F5F5F5E2F5F5F5F5F5F5F5F5F5F5F5F5F5F5F5F5BEF5F528F5F5F5F5F5F5F5F5F5F5F5F5F5F5F5F5F5F5
310
F5F5F5F5F5F5F5F5F5F5F5F5F5F5F5F5F5F5F5F5F5F5F5F5F5F5F5F5F5F5F5F5F5F5F5F5F5F5F5F5F5F5F5F5F5F5F5F5F5F5F5F5F5F5F5F5F5F5F5F5F5F5F5F5F5F5F5F5F5F5F5F5F5F5F5F5F5F5F5F5F5F5F5F5F5F5F5F5F5F5F5F5F5F5F5F5F5F5F5F5F5F5F5F5F5F5F5F5F5F5F528F5F5BEF5F5F5F5F5F5F5F5F5F5F5F5
310
F5F5F5F5E2F5F5F5E2E2E2F5F5F5E2F5F5F5F5F5F5F5F5F5F5F5F5F5F5F5F5BEF5F528F5F5F5F5F5F5F5F5F5F5F5F5F5F5F5F5F5F5F5F5F5F5F5F5F5F5F5F5F5F5F5F5F5F5F5F5F5F5F5F5F5F5F5F5F5F5F5F5F5F5F5F5F5F5F5F5F5F5F5F5F5F5F5F5F5F5F5F5F5F5F5F5F5F5F5F5F5F5F5F5F5F5F5F5F5F5F5F5F5F5F5F5
310
F5F5F5F5F5F5F5F5F5F5F5F5F5F5F5F5F5F5F5F5F5F5F5F5F5F5F5F5F5F5F5F5F5F5F5F5F528F5F5BEF5F5F5F5F5F5F5F5F5F5F5F5F5F5F5F5E2F5F5F5E2E2E2F5F5F5E2F5F5F5F5F5F5F5F5F5F5F5F5F5F5F5F5BEF5F528F5F5F5F5F5F5F5F5F5F5F5F5F5F5F5F5F5F5F5F5F5F5F5F5F5F5F5F5F5F5F5F5F5F5F5F5F5F5F5
310
F5F5F5F5F5F5F5F5F5F5F5F5F5F5F5F5F5F5F5F5F5F5F5F5F5F5F5F5F5F5F5F5F5F5F5F5F5F5F5F5F5F5F5F5F5F5F5F5F5F5F5F5F5F5F5F5F5F5F5F5F5F5F5F5F5F5F5F5F5F5F5F5F5F5F5F5F5F5F5F5F5F5F5F5F5F5F5F5F5F528F5F5BEF5F5F5F5F5F5F5F5F5F5F5F5F5F5F5F5E2F5F5F5E2E2E2F5F5F5E2F5F5F5F5F5F5
310
F5F5F5F5F5F5F5F5F5F5BEF5F528F5F5F5F5F5F5F5F5F5F5F5F5F5F5F5F5F5F5F5F5F5F5F5F5F5F5F5F5F5F5F5F5F5F5F5F5F5F5F5F5F5F5F5F5F5F5F5F5F5F5F5F5F5F5F5F5F5F5F5F5F5F5F5F5F5F5F5F5F5F5F5F5F5F5F5F5F5F5F5F5F5F5F5F5F5F5F5F5F5F5F5F5F5F5F5F5F5F5F5F5F5F5F5F5F5F5F5F5F5F5F5F5F5
310
F5F5F5F5F5F5F5F5F5F5F5F5F5F5F5F528F5F5BEF5F5F5F5F5F5F5F5F5F5F5F5F5F5F5F5E2F5F5F5E2E2E2F5F5F5E2F5F5F5F5F5F5F5F5F5F5F5F5F5F5F5F5BEF5F528F5F5F5F5F5F5F5F5F5F5F5F5F5F5F5F5F5F5F5F5F5F5F5F5F5F5F5F5F5F5F5F5F5F5F5F5F5F5F5F5F5F5F5F5F5F5F5F5F5F5F5F5F5F5F5F5F5F5F5BE
310
BEBEBEBEBEBEBEBEF5F5F5F5F5F5F5F5F5F5F5F5F5F5F5F5F5F5F5F5F5F5F5F5F5F5F5F5F5F5F5F5F5F5F5F5F5F5F5F5F5F5F5F5F5F5F5F5F5F5F5F5F5F5F5F5F5F5F5F5F528F5F5BEF5F5F5F5F5F5F5F5F5F5F5F5F5F5F5F5E2F5F5F5E2E2E2F5F5F5E2F5F5F5F5F5F5F5F5F5F5F5F5F5F5F5F5BEF5F528F5F5F5F5F5F5F5
310
F5F5F5F5F5F5F5F5F5F5F5F5F5F5F5F5F5F5F5F5F5F5F5F5F5F5F5F5F5F5F5F5F5F5F5F5F5F5F5F5F5F5F5F5F5F5F5F5F5F5F5F5BEBEBEBEBEBEBEBEBEF5F5F5F5F5F5F5F5F5F5F5F5F5F5F5F5F5F5F5F5F5F5F5F5F5F5F5F5F5F5F5F5F5F5F5F5F5F5F5F5F5F5F5F5F5F5F5F5F5F5F5F5F5F5F5F5F5F5F5F5F528F5F5BEF5
310
F5F5F5F5F5F5F5F5F5F5F5F5F5F5F5E2F5F5F5E2E2E2F5F5F5E2F5F5F5F5F5F5F5F5F5F5F5F5F5F5F5F5BEF5F528F5F5F5F5F5F5F5F5F5F5F5F5F5F5F5F5F5F5F5F5F5F5F5F5F5F5F5F5F5F5F5F5F5F5F5F5F5F5F5F5F5F5F5F5F5F5F5F5F5F5F5F5F5F5F5F5F5F5F5F5F5F5F5F5F5F5F5F5F5F5F5F5F5F5F5F5F5F5F5F5F5
310
F5F5F5F5F5F5F5F5F5F5F5F5F5F5F5F5F5F5F5F5F5F5F5F5F5F5F5F5F5F5F5F5F5F5F5F5F5F5F5F5F5F5F5F5F5F5F5F528F5F5BEF5F5F5F5F5F5F5F5F5F5F5F5F5F5F5F5E2F5F5F5E2E2E2F5F5F5E2F5F5F5F5F5F5F5F5F5F5F5F5F5F5F5F5BEF5F528F5F5F5F5F5F5F5F5F5F5F5F5F5F5F5F5F5F5F5F5F5F5F5F5F5F5F5F5
310
F5F5F5F5F5F5F5F5F5F5F5F5F5F5F5F5F5F5F5F5F5F5F5F5F5F5F5F5F5F5F5F5F5F5F5F5F5F5F5F5F5F5F5F5F5F5F5F5F5F5F5F5F5F5F5F5F5F5F5F5F5F5F5F5F5F5F5F5F5F5F5F5F5F5F5F5F5F5F5F5F5F5F5F5F5F5F5F5F5F5F5F5F5F5F5F5F5F5F5F5F528F5F5BEF5F5F5F5F5F5F5F5F5F5F5F5F5F5F5F5E2F5F5F5E2E2
310
E2F5F5F5E2F5F5F5F5F5F5F5F5F5F5F5F5F5F5F5F5BEF5F528F5F5F5F5F5F5F5F5F5F5F5F5F5F5F5F5F5F5F5F5F5F5F5F5F5F5F5F5F5F5F5F5F5F5F5F5F5F5F5F5F5F5F5F5F5F5F5F5F5F5F5F5F5F5F5F5F5F5F5F5F5F5F5F5F5F5F5F5F5F5F5F5F5F5F5F5F5F5F5F5F5F5F5F5F5F5F5F5F5F5F5F5F5F5F5F5F5F5F5F5F5F5
310
F5F5F5F5F5F5F5F5F5F5F5F5F5F5F5F5F5F5F5F5F5F5F5F5F5F5F528F5F5BEF5F5F5F5F5F5F5F5F5F5F5F5F5F5F5F5E2F5F5F5E2E2E2F5F5F5E2F5F5F5F5F5F5F5F5F5F5F5F5F5F5F5F5BEF5F528F5F5F5F5F5F5F5F5F5F5F5F5F5F5F5F5F50F0F0F0F0F0FF50F0F0FF5F5F5F5F5F5F5F5F5F5F5F5F5F5F5F5F5F5F50F0F0F
310
F5F5F5F50F0F0FF5F5F5F50F0F0FF5F50F0F0FF5F5F5F50F0F0FF5F5F5F50F0F0FF5F5F5F5F5F5F5F5F5F5F5F5F5F5F5F5F5F5F50F0F0FF50F0F0F0F0FC3C3C3C3C3C3C3C3C3C3C3C3C3C3C3C3F5F5F528F5F5BEF5F5F5F5F5F5F5F5F5F5F5F5F5F5F5F5E2F5F5F5E2E2E2F5F5F5E2F5F5F5F5F5F5F5F5F5F5F5F5F5F5F5F5
310
BEF5F528F5F5F5F5F5F5F5F5F5F5F5F5F5F5F5F5F50F0F0F0F0F0FF50F0F0F0FF5F5F5F5F5F5F5F5F5F5F5F5F5F5F5F5F5F50F0F0FF5F5F5F50F0F0FF5F5F5F50F0F0FF5F50F0F0FF5F5F5F50F0F0FF5F5F5F50F0F0FF5F5F5F5F5F5F5F5F5F5F5F5F5F5F5F5F5F50F0F0F0FF50F0F0F0F0F0FF5F5F5F5F5F5F5F5F5F5F5F5
310
F5C3F5F5F5F528F5F5BEF5F5F5F5F5F5F5F5F5F5F5F5F5F5F5F5E2F5F5F5E2E2E2F5F5F5E2F5F5F5F5F5F5F5F5F5F5F5F5F5F5F5F5BEF5F528F5F5F5F5F5F5F5F5F5F5F5F5F5F5F5F5F5F5F50F0FF5F5F5F5F50F0FF5F5F5F5F5F5F5F5F5F5F5F5F5F5F5F5F5F50F0FF5F5F5F5F50F0FF5F5F5F5F50F0FF5F5F5F50F0FF5F5
310
F5F5F50F0FF5F5F5F5F50F0FF5F5F5F5F5F5F5F5F5F5F5F5F5F5F5F5F5F50F0FF5F5F5F5F50F0FF5F5F5F5F5F5F5F5F5F5F5F5F5F5C3C3F5F5F5F528F5F5BEF5F5F5F5F5F5F5F5F5F5F5F5F5F5F5F5E2F5F5F5E2E2E2F5F5F5E2F5F5F5F5F5F5F5F5F5F5F5F5F5F5F5F5BEF5F528F5F5F5F5F5F5F5F5F5F5F5F5F5F50F0F0F
310
0F0F0F0F0F0F0F0F0F0F0F0F0F0F0F0F0F0F0F0F0F0F0F0F0F0F0F0F0F0F0F0F0F0F0F0F0F0F0F0F0F0F0F0F0F0F0F0F0F0F0F0F0F0F0F0F0F0F0F0F0F0F0F0F0F0F0F0F0F0F0F0F0F0F0F0F0F0F0F0F0F0F0F0F0F0F0F0F0F0F0F0F0F0F0F0F0FF5F5F5F5F5F5F5F5F5F5C3F5F5F5F528F5F5BEF5F5F5F5F5F5F5F5F5F5F5
310
F5F5F5F5F5E2F5F5F5E2E2E2F5F5F5E2F5F5F5F5F5F5F5F5F5F5F5F5F5F5F5F5BEF5F528F5F5F5F5F5F5F5F5F5F5F5F5F50F0F0F0F0F0F0F0F0F0F0F0F0F0F0F0F0F0F0F0F0F0F0F0F0F0F0F0F0F0F0F0F0F0F0F0F0F0F0F0F0F0F0F0F0F0F0F0F0F0F0F0F0F0F0F0F0F0F0F0F0F0F0F0F0F0F0F0F0F0F0F0F0F0F0F0F0F0F
310
0F0F0F0F0F0F0F0F0F0F0F0F0F0F0F0F0F0F0F0F0F0F0F0FF5F5F5F5F5F5F5F5F5C3F5F5F5F528F5F5BEF5F5F5F5F5F5F5F5F5F5F5F5F5F5F5F5E2F5F5F5E2E2E2F5F5F5F5F5F5F5F5F5F5F5F5F5F5F5F5F5F5F5F5BEF5F528F5F5F5F5F5F5F5F5F5F5F5F50F0F0FF5F5F5F5F5F5F5F5F5F5F5F5F5F5F5F5F5F5F5F5F5F5F5
310
F5F5F5F5F5F5F5F5F5F5F5F5F5F5F5F5F5F5F5F5F5F5F5F5F5F5F5F5F5F5F5F5F5F5F5F5F5F5F5F5F5F5F5F5F5F5F5F5F5F5F5F5F5F5F5F5F5F5F5F5F5F5F5F5F5F5F5F5F5F5F5F5F5F5F50F0F0FF5F5F5F5F5F5F5F5C3F5F5F5F528F5F5BEF5F5F5F5F5F5F5F5F5F5F5F5F5F5F5F5F5F5F5F5E2E2E2F5F5F5F5F5F5F5F5F5
310
F5F5F5F5F5F5F5F5F5F5F5BEF5F528F5F5F5F5F5F5F5F5F5F5F5F50F0FF5F5F5F5F5F5F5F5F5F5F5F5F5F5F5F5F5F5F5F5F5F5F5F5F5F5F5F5F5F5F5F5F5F5F5F5F5F5F5F5F5F5F5F5F5F5F5F5F5F5F5F5F5F5F5F5F5F5F5F5F5F5F5F5F5F5F5F5F5F5F5F5F5F5F5F5F5F5F5F5F5F5F5F5F5F5F5F5F5F5F5F5F5F5F5F5F5F5
310
F5F50F0FF5F5F5F5F5F5F5F5C3F5F5F5F528F5F5BEF5F5F5F5F5F5F5F5F5F5F5F5F5F5F5F5F5F5F5F5E2E2E2F5F5F5F5F5F5F5F5F5F5F5F5F5F5F5F5F5F5F5F5BEF5F528F5F5F5F5F5F5F5F5F5F5F5F50F0FF5F5F5F5F5F5F5F5F5F5F5F5F5F5F5F5F5F5F5F5F5F5F5F5F5F5F5F5F5F5F5F5F5F5F5F5F5F5F5F5F5F5F5F5F5
310
F5F5F5F5F5F5F5F5F5F5F5F5F5F5F5F5F5F5F5F5F5F5F5F5F5F5F5F5F5F5F5F5F5F5F5F5F5F5F5F5F5F5F5F5F5F5F5F5F5F5F5F5F5F5F50F0FF5F5F5F5F5F5F5F5C3F5F5F5F528F5F5BEF5F5F5F5F5F5F5F5F5F5F5F5F5F5F5F5F5F5F5F5E2E2E2F5F5F5F5F5F5F5F5F5F5F5F5F5F5F5F5F5F5F5F5BEF5F528F5F5F5F5F5F5
310
F5F5F5F5F5F50F0FF5F5F5F5F5F5F5F5F5F5F5F5F5F5F5F5F5F5F5F5F5F5F5F5F5F5F5F5F5F5F5F5F5F5F5F5F5F5F5F5F5F5F5F5F5F5F5F5F5F5F5F5F5F5F5F5F5F5F5F5F5F5F5F5F5F5F5F5F5F5F5F5F5F5F5F5F5F5F5F5F5F5F5F5F5F5F5F5F5F5F5F5F5F5F5F5F5F5F5F50F0FF5F5F5F5F5F5F5F5C3F5F5F5F528F5F5BE
310
F5F5F5F5F5F5F5F5F5F5F5F5F5F5F5F5F5F5F5F5E2E2E2F5F5F5F5F5F5F5F5F5F5F5F5F5F5F5F5F5F5F5F5BEF5F528F5F5F5F5F5F5F5F5F5F5F5F50F0FF5F5F5F5F5F5F5F5F5F5F5F5F5F5F5F5F5F5F5F5F5F5F5F5F5F5F5F5F5F5F5F5F5F5F5F5F5F5F5F5F5F5F5F5F5F5F5F5F5F5F5F5F5F5F5F5F5F5F5F5F5F5F5F5F5F5
310
F5F5F5F5F5F5F5F5F5F5F5F5F5F5F5F5F5F5F5F5F5F5F5F5F5F5F5F5F5F5F5F5F5F50F0FF5F5F5F5F5F5F5F5C3F5F5F5F528F5F5BEF5F5F5F5F5F5F5F5F5F5F5F5F5F5F5F5F5F5F5F5E2E2E2F5F5F5F5F5F5F5F5F5F5F5F5F5F5F5F5F5F5F5F5BEF5F528F5F5F5F5F5F5F5F5F5F5F5F50F0FF5F5F5F5F5F5F5F5F5F5F5F5F5
310
F5F5F5F5F5F5F5F5F5F5F5F5F5F5F5F5F5F5F5F5F5F5F5F5F5F5F5F5F5F5F5F5F5F5F5F5F5F5F5F5F5F5F5F5F5F5F5F5F5F5F5F5F5F5F5F5F5F5F5F5F5F5F5F5F5F5F5F5F5F5F5F5F5F5F5F5F5F5F5F5F5F5F5F5F5F5F50F0FF5F5F5F5F5F5F5F5C3F5F5F5F528F5F5BEF5F5F5F5F5F5F5F5F5F5F5F5F5F5F5F5F5F5F5F5E2
310
E2E2F5F5F5F5F5F5F5F5F5F5F5F5F5F5F5F5F5F5F5F5BEF5F528F5F5F5F5F5F5F5F5F5F5F5F50F0FF5F5F5F5F5F5F5F5F5F5F5F5F5F5F5F5F5F5F5F5F5F5F5F5F5F5F5F5F5F5F5F5F5F5F5F5F5F5F5F5F5F5F5F5F5F5F5F5F5F5F5F5F5F5F5F5F5F5F5F5F5F5F5F5F5F5F5F5F5F5F5F5F5F5F5F5F5F5F5F5F5F5F5F5F5F5F5
310
F5F5F5F5F5F5F5F5F5F5F5F5F50F0FF5F5F5F5F5F5F5F5C3F5F5F5F528F5F5BEF5F5F5F5F5F5F5F5F5F5F5F5F5F5F5F5F5F5F5F5E2E2E2F5F5F5F5F5F5F5F5F5F5F5F5F5F5F5F5F5F5F5F5BEF5F528F5F5F5F5F5F5F5F5F5F5F5F50F0FF5F5F5F5F5F5F5F5F5F5F5F5F5F5F5F5F5F5F5F5F5F5F5F5F5F5F5F5F5F5F5F5F5F5
310
F5F5F5F5F5F5F5F5F5F5F5F5F5F5F5F5F5F5F5F5F5F5F5F5F5F5F5F5F5F5F5F5F5F5F5F5F5F5F5F5F5F5F5F5F5F5F5F5F5F5F5F5F5F5F5F5F5F5F5F5F5F5F5F5F5F50F0FF5F5F5F5F5F5F5F5C3F5F5F5F528F5F5BEF5F5F5F5F5F5F5F5F5F5F5F5F5F5F5F5F5F5F5F5E2E2E2F5F5F5F5F5F5F5F5F5F5F5F5F5F5F5F5F5F5F5
310
F5BEF5F528C3C3C3C3C3C3C3C3F5F5C30F0FF5C3F5F5F5F5F5F5F5F5F5F5F5F5F5F5F5F5F5F5F5F5F5F5F5F5F5F5F5F5F5F5F5F5F5F5F5F5F5F5F5F5F5F5F5F5F5F5F5F5F5F5F5F5F5F5F5F5F5F5F5F5F5F5F5F5F5F5F5F5F5F5F5F5F5F5F5F5F5F5F5F5F5F5F5F5F5F5F5F5F5F5F5F5F5F5F5F5F5F5F5F50FF5F5F5F5F5F5
310
F5F5C3F5F5F5F528F5F5BEF5F5F5F5F5F5F5F5F5F5F5F5F5F5F5F5F5F5F5F5E2E2E2F5F5F5E2F5F5F5F5F5F5F5F5F5F5F5F5F5F5F5F5BEF5F528F5F5F5F5F5F5F5F5C3C3C3C3C3C3C3C3F5F5F5F5F5F5F5F5F5F5F5F5F5F5F5F5F5F5F5F5F5F5F5F5F5F5F5F5F5F5F5F5F5F5F5F5F5F5F5F5F5F5F5F5F5F5F5F5F5F5F5F5F5
310
F5F5F5F5F5F5F5F5F5F5F5F5F5F5F5F5F5F5F5F5F5F5F5F5F5F5F5F5F5F5F5F5F5F5F5F5F5F5F5F5F5F5F5F5F5F50F0FF5F5F5F5F5F5F5C3F5F5F5F528F5F5BEF5F5F5F5F5F5F5F5F5F5F5F5F5F5F5F5E2F5F5F5E2E2E2F5F5F5E2F5F5F5F5F5F5F5F5F5F5F5F5F5F5F5F5BEF5F528F5F5BEBEBEBEF5F5F5F5F50F0FF5F5F5
310
F5F5F5F5F5F5F5F5F5F5F5F5F5F5F5F5F5F5F5F5F5F5F5F5F5F5F5F5F5F5F5F5F5F5F5F5F5F5F5F5F5F5F5F5F5F5F5F5F5F5F5F5F5F5F5F5F5F5F5F5F5F5F5F5F5F5F5F5F5F5F5F5F5F5F5F5F5F5F5F5F5F5F5F5F5F5F5F5F5F5F5F5F5F5F5F5F5F5F50F0FF5F5F5F5F5F5F5C3F5F5F5F528F5F5BEF5F5F5F5F5F5F5F5F5F5
310
F5F5F5F5F5F5E2F5F5F5E2E2E2F5F5F5E2F5F5F5F5F5F5F5F5F5F5F5F5F5F5F5F5BEF5F528F5F5F5BEBEF5F5F5F5F5F50F0FF5F5F5F5F5F5F5F5F5F5F5F5F5F5F5F5F5F5F5F5F5F5F5F5F5F5F5F5F5F5F5F5F5F5F5F5F5F5F5F5F5F5F5F5F5F5F5F5F5F5F5F5F5F5F5F5F5F5F5F5F5F5F5F5F5F5F5F5F5F5F5F5F5F5F5F5F5
310
F5F5F5F5F5F5F5F5F5F5F5F5F5F5F5F5F5F5F5F5F5F5F5F5F50F0FF5F5F5F5F5F5F5C3F5F5F5F528F5F5BEF5F5F5F5F5F5F5F5F5F5F5F5F5F5F5F5E2F5F5F5E2E2E2F5F5F5E2F5F5F5F5F5F5F5F5F5F5F5F5F5F5F5F5BEF5F528F5F5F5BEF5F5F5F5F5F5F50F0FF5F5F5F5F5F5F5F5F5F5F5F5F5F5F5F5F5F5F5F5F5F5F5F5
310
F5F5F5F5F5F5F5F5F5F5F5F5F5F5F5F5F5F5F5F5F5F5F5F5F5F5F5F5F5F5F5F5F5F5F5F5F5F5F5F5F5F5F5F5F5F5F5F5F5F5F5F5F5F5F5F5F5F5F5F5F5F5F5F5F5F5F5F5F5F5F5F5F5F5F5F5F5F50F0FF5F5C3C3C3C3C3C3C3C3C3F528F5F5BEF5F5F5F5F5F5F5F5F5F5F5F5F5F5F5F5E2F5F5F5E2E2E2F5F5F5E2F5F5F5F5
310
F5F5F5F5F5F5F5F5F5F5F5F5BEF5F528F5F5F5F5F5F5F5F5F5F5F50F0FF5F5F5F5F5F5F5F5F5F5F5F5F5F5F5F5F5F5F5F5F5F5F5F5F5F5F5F5F5F5F5F5F5F5F5F5F5F5F5F5F5F5F5F5F5F5F5F5F5F5F5F5F5F5F5F5F5F5F5F5F5F5F5F5F5F5F5F5F5F5F5F5F5F5F5F5F5F5F5F5F5F5F5F5F5F5F5F5F5F5F5F5F5F5F5F5F5F5
310
F5F5F5F50F0FF5F5C3C3C3C3C3C3C3C3C3F528F5F5BEF5F5F5F5F5F5F5F5F5F5F5F5F5F5F5F5E2F5F5F5E2E2E2F5F5F5E2F5F5F5F5F5F5F5F5F5F5F5F5F5F5F5F5BEF5F528F5F5F5F5F5F5F5F5F5F5F50F0FF5F5F5F5F5F5F5F5F5F5F5F5F5F5F5F5F5F5F5F5F5F5F5F5F5F5F5F5F5F5F5F5F5F5F5F5F5F5F5F5F5F5F5F5F5
310
F5F5F5F5F5F5F5F5F5F5F5F5F5F5F5F5F5F5F5F5F5F5F5F5F5F5F5F5F5F5F5F5F5F5F5F5F5F5F5F5F5F5F5F5F5F5F5F5F5F5F5F5F5F5F5F5F50F0FF5F5F5F5F5F5F5C3F5BEBEBE28F5F5BEF5F5F5F5F5F5F5F5F5F5F5F5F5F5F5F5E2F5F5F5E2E2E2F5F5F5E2F5F5F5F5F5F5F5F5F5F5F5F5F5F5F5F5BEF5F528F5F5F5F5F5
310
F5F5F5F5F5F50F0FF5F5F5F5F5F5F5F5F5F5F5F5F5F5F5F5F5F5F5F5F5F5F5F5F5F5F5F5F5F5F5F5F5F5F5F5F5F5F5F5F5F5F5F5F5F5F5F5F5F5F5F5F5F5F5F5F5F5F5F5F5F5F5F5F5F5F5F5F5F5F5F5F5F5F5F5F5F5F5F5F5F5F5F5F5F5F5F5F5F5F5F5F5F5F5F5F5F5F5F5F5F50F0FF5F5F5F5F5F5F5C3F5BEBEBE28F5F5
310
BEF5F5F5F5F5F5F5F5F5F5F5F5F5F5F5F5E2F5F5F5E2E2E2F5F5F5E2F5F5F5F5F5F5F5F5F5F5F5F5F5F5F5F5BEF5F528F5F5F5F5F5F5F5F5F5F5F50F0FF5F5F5F5F5F5F5F5F5F5F5F5F5F5F5F5F5F5F5F5F5F5F5F5F5F5F5F5F5F5F5F5F5F5F5F5F5F5F5F5F5F5F5F5F5F5F5F5F5F5F5F5F5F5F5F5F5F5F5F5F5F5F5F5F5F5
310
F5F5F5F5F5F5F5F5F5F5F5F5F5F5F5F5F5F5F5F5F5F5F5F5F5F5F5F5F5F5F5F5F5F5F5F50F0FF5F5F5F5F5F5F5C3F5F5BEF528F5F5BEF5F5F5F5F5F5F5F5F5F5F5F5F5F5F5F5E2F5F5F5E2E2E2F5F5F5E2F5F5F5F5F5F5F5F5F5F5F5F5F5F5F5F5BEF5F528F5F5F5F5F5F5F5F5F5F5F50F0FF5F5F5F5F5F5F5F5F5F5F5F5F5
310
F5F5F5F5F5F5F5F5F5F5F5F5F5F5F5F5F5F5F5F5F5F5F5F5F5F5F5F5F5F5F5F5F5F5F5F5F5F5F5F5F5F5F5F5F5F5F5F5F5F5F5F5F5F5F5F5F5F5F5F5F5F5F5F5F5F5F5F5F5F5F5F5F5F5F5F5F5F5F5F5F5F5F5F5F5F5F5F5F50F0FF5F5F5F5F5F5F5C3F5F5F5F528F5F5BEF5F5F5F5F5F5F5F5F5F5F5F5F5F5F5F5E2F5F5F5
310
E2E2E2F5F5F5E2F5F5F5F5F5F5F5F5F5F5F5F5F5F5F5F5BEF5F528F5F5F5F5F5F5F5F5F5F5F50FF5F5F5F5F5F5F5F5F5F5F5F5F5F5F5F5F5F5F5F5F5F5F5F5F5F5F5F5F5F5F5F5F5F5F5F5F5F5F5F5F5F5F5F5F5F5F5F5F5F5F5F5F5F5F5F5F5F5F5F5F5F5F5F5F5F5F5F5F5F5F5F5F5F5F5F5F5F5F5F5F5F5F5F5F5F5F5F5
310
F5F5F5F5F5F5F5F5F5F5F5F5F5F5F5F50FF5F5F5F5F5F5F5C3F5F5F5F528F5F5BEF5F5F5F5F5F5F5F5F5F5F5F5F5F5F5F5E2F5F5F5E2E2E2F5F5F5E2F5F5F5F5F5F5F5F5F5F5F5F5F5F5F5F5BEF5F528F5F5F5F5F5F5F5F5F5F5F50FF5F5F5F5F5F5F5F5F5F5F5F5F5F5F5F5F5F5F5F5F5F5F5F5F5F5F5F5F5F5F5F5F5F5F5
310
F5F5F5F5F5F5F5F5F5F5F5F5F5F5F5F5F5F5F5F5F5F5F5F5F5F5F5F5F5F5F5F5F5F5F5F5F5F5F5F5F5F5F5F5F5F5F5F5F5F5F5F5F5F5F5F5F5F5F5F5F5F5F5F5F5F5F5F5F50FF5F5F5F5F5F5F5C3F5F5F5F528F5F5BEF5F5F5F5F5F5F5F5F5F5F5F5F5F5F5F5E2F5F5F5E2E2E2F5F5F5E2F5F5F5F5F5F5F5F5F5F5F5F5F5F5
310
F5F5BEF5F528F5F5F5F5F5F5F5F5F5F50F0FF5F5F5F5F5F5F5F5F5F5F5F5F5F5F5F5F5F5F5F5F5F5F5F5F5F5F5F5F5F5F5F5F5F5F5F5F5F5F5F5F5F5F5F5F5F5F5F5F5F5F5F5F5F5F5F5F5F5F5F5F5F5F5F5F5F5F5F5F5F5F5F5F5F5F5F5F5F5F5F5F5F5F5F5F5F5F5F5F5F5F5F5F5F5F5F5F5F5F5F5F5F5F5F50FF5F5F5F5
310
F5F5F5C3F5F5F5F528F5F5BEF5F5F5F5F5F5F5F5F5F5F5F5F5F5F5F5E2F5F5F5E2E2E2F5F5F5E2F5F5F5F5F5F5F5F5F5F5F5F5F5F5F5F5BEF5F528F5F5F5F5F5F5F5F5F5F50F0FF5F5F5F5F5F5F5F5F5F5F5F5F5F5F5F5F5F5F5F5F5F5F5F5F5F5F5F5F5F5F5F5F5F5F5F5F5F5F5F5F5F5F5F5F5F5F5F5F5F5F5F5F5F5F5F5
310
F5F5F5F5F5F5F5F5F5F5F5F5F5F5F5F5F5F5F5F5F5F5F5F5F5F5F5F5F5F5F5F5F5F5F5F5F5F5F5F5F5F5F5F5F5F5F5F50F0FF5F5F5F5F5F5C3F5F5F5F528F5F5BEF5F5F5F5F5F5F5F5F5F5F5F5F5F5F5F5E2F5F5F5E2E2E2F5F5F5E2F5F5F5F5F5F5F5F5F5F5F5F5F5F5F5F5BEF5F528F5F5F5F5F5F5F5F5F5F50F0FF5F5F5
310
F5F5F5F5F5F5F5F5F5F5F5F5F5F5F5F5F5F5F5F5F5F5F5F5F5F5F5F5F5F5F5F5F5F5F5F5F5F5F5F5F5F5F5F5F5F5F5F5F5F5F5F5F5F5F5F5F5F5F5F5F5F5F5F5F5F5F5F5F5F5F5F5F5F5F5F5F5F5F5F5F5F5F5F5F5F5F5F5F5F5F5F5F5F5F5F5F5F5F5F5F50F0FF5F5F5F5F5F5C3F5F5F5F528F5F5BEF5F5F5F5F5F5F5F5F5
310
F5F5F5F5F5F5F5E2F5F5F5E2E2E2F5F5F5E2F5F5F5F5F5F5F5F5F5F5F5F5F5F5F5F5BEF5F528F5F5F5F5F5F5F5F5F5F50F0FF5F5F5F5F5F5F5F5F5F5F5F5F5F5F5F5F5F5F5F5F5F5F5F5F5F5F5F5F5F5F5F5F5F5F5F5F5F5F5F5F5F5F5F5F5F5F5F5F5F5F5F5F5F5F5F5F5F5F5F5F5F5F5F5F5F5F5F5F5F5F5F5F5F5F5F5F5
310
F5F5F5F5F5F5F5F5F5F5F5F5F5F5F5F5F5F5F5F5F5F5F5F5F5F5F50F0FF5F5F5F5F5F5C3F5F5F5F528F5F5BEF5F5F5F5F5F5F5F5F5F5F5F5F5F5F5F5E2F5F5F5E2E2E2F5F5F5E2F5F5F5F5F5F5F5F5F5F5F5F5F5F5F5F5BEF5F528F5F5F5F5F5F5F5F5F5F50F0F0F0F0FF5F5F5F5F5F5F5F5F5F5F5F5F5F5F5F5F5F5F5F5F5
310
F5F5F5F5F5F5F5F5F5F5F5F5F5F5F5F5F5F5F5F5F5F5F5F5F5F5F5F5F5F5F5F5F5F5F5F5F5F5F5F5F5F5F5F5F5F5F5F5F5F5F5F5F5F5F5F5F5F5F5F5F5F5F5F5F5F5F5F5F5F5F5F5F5F5F5F5F50F0F0F0F0FF5F5F5F5F5F5C3F5F5F5F528F5F5BEF5F5F5F5F5F5F5F5F5F5F5F5F5F5F5F5E2F5F5F5E2E2E2F5F5F5E2F5F5F5
310
F5F5F5F5F5F5F5F5F5F5F5F5F5BEF5F528F5F5F5F5F5F5F5F5F5F50F0F0F0F0FF5F5F5F5F5F5F5F5F5F5F5F5F5F5F5F5F5F5F5F5F5F5F5F5F5F5F5F5F5F5F5F5F5F5F5F5F5F5F5F5F5F5F5F5F5F5F5F5F5F5F5F5F5F5F5F5F5F5F5F5F5F5F5F5F5F5F5F5F5F5F5F5F5F5F5F5F5F5F5F5F5F5F5F5F5F5F5F5F5F5F5F5F5F5F5
310
F5F5F50F0F0F0F0FF5F5F5F5F5F5C3F5F5F5F528F5F5BEF5F5F5F5F5F5F5F5F5F5F5F5F5F5F5F5E2F5F5F5E2E2E2F5F5F5F5F5F5F5F5F5F5F5F5F5F5F5F5F5F5F5F5BEF5F528F5F5F5F5F5F5F5F5F5F5C30F0F0F0FF5F5F5F5F5F5F5F5F5F5F5F5F5F5F5F5F5F5F5F5F5F5F5F5F5F5F5F5F5F5F5F5F5F5F5F5F5F5F5F5F5F5
310
F5F5F5F5F5F5F5F5F5F5F5F5F5F5F5F5F5F5F5F5F5F5F5F5F5F5F5F5F5F5F5F5F5F5F5F5F5F5F5F5F5F5F5F5F5F5F5F5F5F5F5F5F5F5F5F50F0F0F0FC3F5F5F5F5F5F5C3F5F5F5F528F5F5BEF5F5F5F5F5F5F5F5F5F5F5F5F5F5F5F5F5F5F5F5E2E2E2F5F5F5F5F5F5F5F5F5F5F5F5F5F5F5F5F5F5F5F5BEF5F528F5F5F5F5
310
F5F5F5F5F5F5C30F0F0F0FF5F5F5F5F5F5F5F5F5F5F5F5F5F5F5F5F5F5F5F5F5F5F5F5F5F5F5F5F5F5F5F5F5F5F5F5F5F5F5F5F5F5F5F5F5F5F5F5F5F5F5F5F5F5F5F5F5F5F5F5F5F5F5F5F5F5F5F5F5F5F5F5F5F5F5F5F5F5F5F5F5F5F5F5F5F5F5F5F5F5F5F5F5F5F5F5F5F50F0F0F0FC3F5F5F5F5F5F5C3F5F5F5F528F5
310
F5BEF5F5F5F5F5F5F5F5F5F5F5F5F5F5F5F5F5F5F5F5E2E2E2F5F5F5F5F5F5F5F5F5F5F5F5F5F5F5F5F5F5F5F5BEF5F528F5F5F5F5F5F5F5F5F5F5C30F0F0F0FF5F5F5F5F5F5F5F5F5F5F5F5F5F5F5F5F5F5F5F5F5F5F5F5F5F5F5F5F5F5F5F5F5F5F5F5F5F5F5F5F5F5F5F5F5F5F5F5F5F5F5F5F5F5F5F5F5F5F5F5F5F5F5
310
F5F5F5F5F5F5F5F5F5F5F5F5F5F5F5F5F5F5F5F5F5F5F5F5F5F5F5F5F5F5F5F5F5F5F50F0F0F0FC3F5F5F5F5F5F5C3F5F5F5F528F5F5BEF5F5F5F5F5F5F5F5F5F5F5F5F5F5F5F5F5F5F5F5E2E2E2F5F5F5F5F5F5F5F5F5F5F5F5F5F5F5F5F5F5F5F5BEF5F528F5F5F5F5F5F5F5F5F5F5C30F0F0F0FF5F5F5F5F5F5F5F5F5F5
310
F5F5F5F5F5F5F5F5F5F5F5F5F5F5F5F5F5F5F5F5F5F5F5F5F5F5F5F5F5F5F5F5F5F5F5F5F5F5F5F5F5F5F5F5F5F5F5F5F5F5F5F5F5F5F5F5F5F5F5F5F5F5F5F5F5F5F5F5F5F5F5F5F5F5F5F5F5F5F5F5F5F5F5F5F5F5F5F50F0F0F0FC3F5F5F5F5F5C3C3F5F5F5F528F5F5BEF5F5F5F5F5F5F5F5F5F5F5F5F5F5F5F5F5F5F5
310
F5E2E2E2F5F5F5F5F5F5F5F5F5F5F5F5F5F5F5F5F5F5F5F5BEF5F528F5F5F5F5F5F5F5F5F5F5C30F0F0FF5F5F5F5F5F5F5F5F5F5F5F5F5F5F5F5F5F5F5F5F5F5F5F5F5F5F5F5F5F5F5F5F5F5F5F5F5F5F5F5F5F5F5F5F5F5F5F5F5F5F5F5F5F5F5F5F5F5F5F5F5F5F5F5F5F5F5F5F5F5F5F5F5F5F5F5F5F5F5F5F5F5F5F5F5
310
F5F5F5F5F5F5F5F5F5F5F5F5F5F5F50F0FC3C3C3C3C3C3C3C3C3C3F5F5F528F5F5BEF5F5F5F5F5F5F5F5F5F5F5F5F5F5F5F5F5F5F5F5E2E2E2F5F5F5F5F5F5F5F5F5F5F5F5F5F5F5F5F5F5F5F5BEF5F528F5F5F5F5F5F5F5F5F5F5C3F5F5F5F5F5F5F5F5F5F5F5F5F5F5F5F5F5F5F5F5F5F5F5F5F5F5F5F5F5F5F5F5F5F5F5
310
F5F5F5F5F5F5F5F5F5F5F5F5F5F5F5F5F5F5F5F5F5F5F5F5F5F5F5F5F5F5F5F5F5F5F5F5F5F5F5F5F5F5F5F5F5F5F5F5F5F5F5F5F5F5F5F5F5F5F5F5F5F5F5F5F5F5F5F5F5F5F5C3F5F5F5F5F5F5F5F5F5F5F528F5F5BEF5F5F5F5F5F5F5F5F5F5F5F5F5F5F5F5F5F5F5F5E2E2E2F5F5F5F5F5F5F5F5F5F5F5F5F5F5F5F5F5
310
F5F5F5BEF5F528F5F5F5F5F5F5F5F5F5F5C3F5F5F5F5F5F5F5F5F5F5F5F5F5F5F5F5F5F5F5F5F5F5F5F5F5F5F5F5F5F5F5F5F5F5F5F5F5F5F5F5F5F5F5F5F5F5F5F5F5F5F5F5F5F5F5F5F5F5F5F5F5F5F5F5F5F5F5F5F5F5F5F5F5F5F5F5F5F5F5F5F5F5F5F5F5F5F5F5F5F5F5F5F5F5F5F5F5F5F5F5F5F5F5F5F5F5C3F5F5
310
F5F5F5F5F5F5F5F5F528F5F5BEF5F5F5F5F5F5F5F5F5F5F5F5F5F5F5F5F5F5F5F5E2E2E2F5F5F5F5F5F5F5F5F5F5F5F5F5F5F5F5F5F5F5F5BEF5F528F5F5F5F5F5F5F5F5F5F5C3F5F5F5F5F5F5F5F5F5F5F5F5F5F5F5F5F5F5F5F5F5F5F5F5F5F5F5F5F5F5F5F5F5F5F5F5F5F5F5F5F5F5F5F5F5F5F5F5F5F5F5F5F5F5F5F5
310
F5F5F5F5F5F5F5F5F5F5F5F5F5F5F5F5F5F5F5F5F5F5F5F5F5F5F5F5F5F5F5F5F5F5F5F5F5F5F5F5F5F5F5F5F5F5F5F5F5F5C3F5F5F5F5F5F5F5F5F5F5F528F5F5BEF5F5F5F5F5F5F5F5F5F5F5F5F5F5F5F5F5F5F5F5E2E2E2F5F5F5F5F5F5F5F5F5F5F5F5F5F5F5F5F5F5F5F5BEF5F528F5F5F5F5F5F5F5F5F5F5C3F5F5F5
310
F5F5F5F5F5F5F5F5F5F5F5F5F5F5F5F5F5F5F5F5F5F5F5F5F5F5F5F5F5F5F5F5F5F5F5F5F5F5F5F5F5F5F5F5F5F5F5F5F5F5F5F5F5F5F5F5F5F5F5F5F5F5F5F5F5F5F5F5F5F5F5F5F5F5F5F5F5F5F5F5F5F5F5F5F5F5F5F5F5F5F5F5F5F5F5F5F5F5F5F5F5F5F5C3F5F5F5F5F5F5F5F5F5F5F528F5F5BEF5F5F5F5F5F5F5F5
310
F5F5F5F5F5F5F5F5F5F5F5F5E2E2E2F5F5F5E2F5F5F5F5F5F5F5F5F5F5F5F5F5F5F5F5BEF5F528F5F5F5F5F5F5F5F5F5F5C3F5F5F5F5F5F5F5F5F5F5F5F5F5F5F5F5F5F5F5F5F5F5F5F5F5F5F5F5F5F5F5F5F5F5F5F5F5F5F5F5F5F5F5F5F5F5F5F5F5F5F5F5F5F5F5F5F5F5F5F5F5F5F5F5F5F5F5F5F5F5F5F5F5F5F5F5F5
310
F5F5F5F5F5F5F5F5F5F5F5F5F5F5F5F5F5F5F5F5F5F5F5F5F5F5F5F5F5C3F5F5F5F5F5F5F5F5F5F5F528F5F5BEF5F5F5F5F5F5F5F5F5F5F5F5F5F5F5F5E2F5F5F5E2E2E2F5F5F5E2F5F5F5F5F5F5F5F5F5F5F5F5F5F5F5F5BEF5F528F5F5F5F5F5F5F5F5F5F5C3F5F5F5F5F5F5F5F5F5F5F5F5F5F5F5F5F5F5F5F5F5F5F5F5
310
F5F5F5F5F5F5F5F5F5F5F5F5F5F5F5F5F5F5F5F5F5F5F5F5F5F5F5F5F5F5F5F5F5F5F5F5F5F5F5F5F5F5F5F5F5F5F5F5F5F5F5F5F5F5F5F5F5F5F5F5F5F5F5F5F5F5F5F5F5F5F5F5F5F5F5F5F5F5F5F5F5F5C3F5F5F5F5F5F5F5F5F5F5F528F5F5BEF5F5F5F5F5F5F5F5F5F5F5F5F5F5F5F5E2F5F5F5E2E2E2F5F5F5E2F5F5
310
F5F5F5F5F5F5F5F5F5F5F5F5F5F5BEF5F528F5F5F5F5F5F5F5F5F5F5C3C3C3C3C3C3C3C3C3C3C3C3C3C3C3C3C3C3C3C3C3C3C3C3C3C3C3C3C3C3C3C3C3C3C3C3C3C3C3C3C3C3C3C3C3C3C3C3C3C3C3C3C3C3C3C3C3C3C3C3C3C3C3C3C3C3C3C3C3C3C3C3C3C3C3C3C3C3C3C3C3C3C3C3C3C3C3C3C3C3C3C3C3C3C3C3C3C3C3
310
C3C3C3C3C3C3C3C3C3F5F5F5F5F5F5F5F5F5F5F528F5F5BEF5F5F5F5F5F5F5F5F5F5F5F5F5F5F5F5E2F5F5F5E2E2E2F5F5F5E2F5F5F5F5F5F5F5F5F5F5F5F5F5F5F5F5BEF5F528F5F5F5F5F5F5F5F5F5F5C3C3C3F5F5F5F5F5F5F5F5F5F5F5F5F5F5F5F5F5F5F5F5F5F5F5F5F5F5F5F5F5F5F5F5F5F5F5F5F5F5F5F5F5F5F5
310
F5F5F5F5F5F5F5F5F5F5F5F5F5F5F5F5F5F5F5F5F5F5F5F5F5F5F5F5F5F5F5F5F5F5F5F5F5F5F5F5F5F5F5F5F5F5F5F5F5F5F5F5F5F5F5F5F5F5F5C3C3C3F5F5F5F5F5F5F5F5F5F5F528F5F5BEF5F5F5F5F5F5F5F5F5F5F5F5F5F5F5F5E2F5F5F5E2E2E2F5F5F5E2F5F5F5F5F5F5F5F5F5F5F5F5F5F5F5F5BEF5F528F5F5F5
310
F5F5F5F5F5F5F5F5F5F5F5F5F5F5F5F5F5F5F5F5F5F5F5F5F5F5F5F5F5F5F5F5F5F5F5F5F5F5F5F5F5F5F5F5F5F5F5F5F5F5F5F5F5F5F5F5F5F5F5F5F5F5F5F5F5F5F5F5F5F5F5F5F5F5F5F5F5F5F5F5F5F5F5F5F5F5F5F5F5F5F5F5F5F5F5F5F5F5F5F5F5F5F5F5F5F5F5F5F5F5F5F5F5F5F5F5F5F5F5F5F5F5F5F5F5F528
310
F5F5BEF5F5F5F5F5F5F5F5F5F5F5F5F5F5F5F5E2F5F5F5E2E2E2F5F5F5E2F5F5F5F5F5F5F5F5F5F5F5F5F5F5F5F5BEF5F528F5F5F5F5F5F5F5F5F5F5F5F5F5F5F5F5F5F5F5F5F5F5F5F5F5F5F5F5F5F5F5F5F5F5F5F5F5F5F5F5F5F5F5F5F5F5F5F5F5F5F5F5F5F5F5F5F5F5F5F5F5F5F5F5F5F5F5F5F5F5F5F5F5F5F5F5F5
310
F5F5F5F5F5F5F5F5F5F5F5F5F5F5F5F5F5F5F5F5F5F5F5F5F5F5F5F5F5F5F5F5F5F5F5F5F5F5F5F5F5F5F5F5F5F5F5F5F5F5F5F528F5F5BEF5F5F5F5F5F5F5F5F5F5F5F5F5F5F5F5E2F5F5F5E2E2E2F5F5F5E2F5F5F5F5F5F5F5F5F5F5F5F5F5F5F5F5BEF5F528F5F5F5F5F5F5F5F5F5F5F5F5F5F5F5F5F5F5F5F5F5F5F5F5
310
F5F5F5F5F5F5F5F5F5F5F5F5F5F5F5F5F5F5F5F5F5F5F5F5F5F5F5F5F5F5F5F5F5F5F5F5F5F5F5F5F5F5F5F5F5F5F5F5F5F5F5F5F5F5F5F5F5F5F5F5F5F5F5F5F5F5F5F5F5F5F5F5F5F5F5F5F5F5F5F5F5F5F5F5F5F5F5F5F5F5F5F5F5F5F5F5F5F5F5F5F5F5F5F5F528F5F5BEF5F5F5F5F5F5F5F5F5F5F5F5F5F5F5F5E2F5
310
F5F5E2E2E2F5F5F5E2F5F5F5F5F5F5F5F5F5F5F5F5F5F5F5F5BEF5F528F5F5F5F5F5F5F5F5F5F5F5F5F5F5F5F5F5F5F5F5F5F5F5F5F5F5F5F5F5F5F5F5F5F5F5F5F5F5F5F5F5F5F5F5F5F5F5F5F5F5F5F5F5F5F5F5F5F5F5F5F5F5F5F5F5F5F5F5F5F5F5F5F5F5F5F5F5F5F5F5F5F5F5F5F5F5F5F5F5F5F5F5F5F5F5F5F5F5
310
F5F5F5F5F5F5F5F5F5F5F5F5F5F5F5F5F5F5F5F5F5F5F5F5F5F5F5F5F5F5F528F5F5BEF5F5F5F5F5F5F5F5F5F5F5F5F5F5F5F5E2F5F5F5E2E2E2F5F5F5E2F5F5F5F5F5F5F5F5F5F5F5F5F5F5F5F5BEF5F528F5F5F5F5F5F5F5F5F5F5F5F5F5F5F5F5F5F5F5F5F5F5F5F5F5F5F5F5F5F5F5F5F5F5F5F5F5F5F5F5F5F5F5F5F5
310
F5F5F5F5F5F5F5F5F5F5F5F5F5F5F5F5F5F5F5F5F5F5F5F5F5F5F5F5F5F5F5F5F5F5F5F5F5F5F5F5F5F5F5F5F5F5F5F5F5F5F5F5F5F5F5F5F5F5F5F5F5F5F5F5F5F5F5F5F5F5F5F5F5F5F5F5F5F5F5F5F5F5F5F528F5F5BEF5F5F5F5F5F5F5F5F5F5F5F5F5F5F5F5E2F5F5F5E2E2E2F5F5F5E2F5F5F5F5F5F5F5F5F5F5F5F5
310
F5F5F5F5BEF5F528F5F5F5F5F5F5F5F5F5F5F5F5F5F5F5F5F5F5F5F5F5F5F5F5F5F5F5F5F5F5F5F5F5F5F5F5F5F5F5F5F5F5F5F5F5F5F5F5F5F5F5F5F5F5F5F5F5F5F5F5F5F5F5F5F5F5F5F5F5F5F5F5F5F5F5F5F5F5F5F5F5F5F5F5F5F5F5F5F5F5F5F5F5F5F5F5F5F5F5F5F5F5F5F5F5F5F5F5F5F5F5F5F5F5F5F5F5F5F5
310
F5F5F5F5F5F5F5F5F5F528F5F5BEF5F5F5F5F5F5F5F5F5F5F5F5F5F5F5F5E2F5F5F5E2E2E2F5F5F5E2F5F5F5F5F5F5F5F5F5F5F5F5F5F5F5F5BEF5F528282828282828282828282828282828282828282828282828282828282828282828282828282828282828282828282828282828282828282828282828282828282828
310
28282828282828282828282828282828282828282828282828282828282828282828282828282828282828282828282828282828282828282828282828282828F5F5BEF5F5F5F5F5F5F5F5F5F5F5F5F5F5F5F5E2F5F5F5E2E2E2F5F5F5E2F5F5F5F5F5F5F5F5F5F5F5F5F5F5F5F5BEF5F5F5F5F5F5F5F5F5F5F5F5F5F5F5F5
310
F5F5F5F5F5F5F5F5F5F5F5F5F5F5F5F5F5F5F5F5F5F5F5F5F5F5F5F5F5F5F5F5F5F5F5F5F5F5F5F5F5F5F5F5F5F5F5F5F5F5F5F5F5F5F5F5F5F5F5F5F5F5F5F5F5F5F5F5F5F5F5F5F5F5F5F5F5F5F5F5F5F5F5F5F5F5F5F5F5F5F5F5F5F5F5F5F5F5F5F5F5F5F5F5F5F5F5F5F5F5F5F5F5F5F5F5F5F5F5BEF5F5F5F5F5F5F5
310
F5F5F5F5F5F5F5F5F5E2F5F5F5E2E2E2F5F5F5E2F5F5F5F5F5F5F5F5F5F5F5F5F5F5F5F5BE28F5F5F5F5F5F5F5F5F5F5F5F5F5F5F5F5F5F5F5F5F5F5F5F5F5F5F5F5F5F5F5F5F5F5F5F5F5F5F5F5F5F5F5F5F5F5F5F5F5F5F5F5F5F5F5F5F5F5F5F5F5F5F5F5F5F5F5F5F5F5F5F5F5F5F5F5F5F5F5F5F5F5F5F5F5F5F5F5F5
310
F5F5F5F5F5F5F5F5F5F5F5F5F5F5F5F5F5F5F5F5F5F5F5F5F5F5F5F5F5F5F5F5F5F5F5F5F5F5F5F5F5F5F5F528BEF5F5F5F5F5F5F5F5F5F5F5F5F5F5F5F5E2F5F5F5E2E2E2F5F5F5E2F5F5F5F5F5F5F5F5F5F5F5F5F5F5F5F5BEF5F5F5F5F5F5F5F5F5F5F5F5F5F5F5F5F5F5F5F5F5F5F5F5F5F5F5F5F5F5F5F5F5F5F5F5F5
310
F5F5F5F5F5F5F5F5F5F5F5F5F5F5F5F5F5F5F5F5F5F5F5F5F5F5F5F5F5F5F5F5F5F5F5F5F5F5F5F5F5F5F5F5F5F5F5F5F5F5F5F5F5F5F5F5F5F5F5F5F5F5F5F5F5F5F5F5F5F5F5F5F5F5F5F5F5F5F5F5F5F5F5F5F5F5F5F5F5F5F5F5F5F5F5F5F5F5BEF5F5F5F5F5F5F5F5F5F5F5F5F5F5F5F5E2F5F5F5E2E2E2F5F5F5E2F5
310
F5F5F5F5F5F5F5F5F5F5F5F5F5F5F5BEF5F5F5F5F5F5F5F5F5F5F5F5F5F5F5F5F5F5F5F5F5F5F5F5F5F5F5F5F5F5F5F5F5F5F5F5F5F5F5F5F5F5F5F5F5F5F5F5F5F5F5F5F5F5F5F5F5F5F5F5F5F5F5F5F5F5F5F5F5F5F5F5F5F5F5F5F5F5F5F5F5F5F5F5F5F5F5F5F5F5F5F5F5F5F5F5F5F5F5F5F5F5F5F5F5F5F5F5F5F5F5
310
F5F5F5F5F5F5F5F5F5F5F5F5F5F5F5F5F5F5F5F5F5F5F5F5BEF5F5F5F5F5F5F5F5F5F5F5F5F5F5F5F5E2F5F5F5E2E2E2F5F5F5E2F5F5F5F5F5F5F5F5F5F5F5F5F5F5F5F5BEF5F5F5F5F5F5F5F5F5F5F5F5F5F5F5F5F5F5F5F5F5F5F5F5F5F5F5F5F5F5F5F5F5F5F5F5F5F5F5F5F5F5F5F5F5F5F5F5F5F5F5F5F5F5F5F5F5F5
310
F5F5F5F5F5F5F5F5F5F5F5F5F5F5F5F5F5F5F5F5F5F5F5F5F5F5F5F5F5F5F5F5F5F5F5F5F5F5F5F5F5F5F5F5F5F5F5F5F5F5F5F5F5F5F5F5F5F5F5F5F5F5F5F5F5F5F5F5F5F5F5F5F5F5F5F5F5BEF5F5F5F5F5F5F5F5F5F5F5F5F5F5F5F5E2F5F5F5E2E2E2F5F5F5E2F5F5F5F5F5F5F5F5F5F5F5F5F5F5F5F5BEF5F5F5F5F5
310
F5F5F5F5F5F5F5F5F5F5F5F5F5F5F5F5F5F5F5F5F5F5F5F5F5F5F5F5F5F5F5F5F5F5F5F5F5F5F5F5F5F5F5F5F5F5F5F5F5F5F5F5F5F5F5F5F5F5F5F5F5F5F5F5F5F5F5F5F5F5F5F5F5F5F5F5F5F5F5F5F5F5F5F5F5F5F5F5F5F5F5F5F5F5F5F5F5F5F5F5F5F5F5F5F5F5F5F5F5F5F5F5F5F5F5F5F5F5F5F5F5F5F5F5F5F5F5
310
F5F5F5BEF5F5F5F5F5F5F5F5F5F5F5F5F5F5F5F5E2F5F5F5E2E2E2F5F5F5F5F5F5F5F5F5F5F5F5F5F5F5F5F5F5F5F5BEF5F5F5F5F5F5F5F5F5F5F5F5F5F5F5F5F5F5F5F5F5F5F5F5F5F5F5F5F5F5F5F5F5F5F5F5F5F5F5F5F5F5F5F5F5F5F5F5F5F5F5F5F5F5F5F5F5F5F5F5F5F5F5F5F5F5F5F5F5F5F5F5F5F5F5F5F5F5F5
310
F5F5F5F5F5F5F5F5F5F5F5F5F5F5F5F5F5F5F5F5F5F5F5F5F5F5F5F5F5F5F5F5F5F5F5F5F5F5F5F5F5F5F5F5F5F5F5F5F5F5F5F5F5F5F5F5BEF5F5F5F5F5F5F5F5F5F5F5F5F5F5F5F5F5F5F5F5E2E2E2F5F5F5F5F5F5F5F5F5F5F5F5F5F5F5F5F5F5F5F5BEF5F5F5F5F5F5F5F5F5F5F5F5F5F5F5F5F5F5F5F5F5F5F5F5F5F5
310
F5F5F5F5F5F5F5F5F5F5F5F5F5F5F5F5F5F5F5F5F5F5F5F5F5F5F5F5F5F5F5F5F5F5F5F5F5F5F5F5F5F5F5F5F5F5F5F5F5F5F5F5F5F5F5F5F5F5F5F5F5F5F5F5F5F5F5F5F5F5F5F5F5F5F5F5F5F5F5F5F5F5F5F5F5F5F5F5F5F5F5F5F5F5F5F5F5F5F5F5F5F5F5F5F5F5F5F5F5BEF5F5F5F5F5F5F5F5F5F5F5F5F5F5F5F5F5
310
F5F5F5E2E2E2F5F5F5F5F5F5F5F5F5F5F5F5F5F5F5F5F5F5F5F5BEF5F5F5F5F5F5F5F5F5F5F5F5F5F5F5F5F5F5F5F5F5F5F5F5F5F5F5F5F5F5F5F5F5F5F5F5F5F5F5F5F5F5F5F5F5F5F5F5F5F5F5F5F5F5F5F5F5F5F5F5F5F5F5F5F5F5F5F5F5F5F5F5F5F5F5F5F5F5F5F5F5F5F5F5F5F5F5F5F5F5F5F5F5F5F5F5F5F5F5F5
310
F5F5F5F5F5F5F5F5F5F5F5F5F5F5F5F5F5F5F5F5F5F5F5F5F5F5F5F5F5F5F5F5F5F5F5BEF5F5F5F5F5F5F5F5F5F5F5F5F5F5F5F5F5F5F5F5E2E2E2F5F5F5F5F5F5F5F5F5F5F5F5F5F5F5F5F5F5F5F5BEF5F5F5F5F5F5F5F5F5F5F5F5F5F5F5F5F5F5F5F5F5F5F5F5F5F5F5F5F5F5F5F5F5F5F5F5F5F5F5F5F5F5F5F5F5F5F5
310
F5F5F5F5F5F5F5F5F5F5F5F5F5F5F5F5F5F5F5F5F5F5F5F5F5F5F5F5F5F5F5F5F5F5F5F5F5F5F5F5F5F5F5F5F5F5F5F5F5F5F5F5F5F5F5F5F5F5F5F5F5F5F5F5F5F5F5F5F5F5F5F5F5F5F5F5F5F5F5F5F5F5F5F5F5F5F5F5BEF5F5F5F5F5F5F5F5F5F5F5F5F5F5F5F5F5F5F5F5E2E2E2F5F5F5F5F5F5F5F5F5F5F5F5F5F5F5
310
F5F5F5F5F5BEBEBEBEBEBEBEBEBEBEBEBEBEBEBEBEBEBEBEBEBEBEBEBEBEBEBEBEBEBEBEBEBEBEBEBEBEBEBEBEBEBEBEBEBEBEBEBEBEBEBEBEBEBEBEBEBEBEBEBEBEBEBEBEBEBEBEBEBEBEBEBEBEBEBEBEBEBEBEBEBEBEBEBEBEBEBEBEBEBEBEBEBEBEBEBEBEBEBEBEBEBEBEBEBEBEBEBEBEBEBEBEBEBEBEBEBEBEBEBEBEBE
310
BEBEBEBEBEBEBEBEBEBEBEBEBEBEBEF5F5F5F5F5F5F5F5F5F5F5F5F5F5F5F5F5F5F5F5E2E2E2F5F5F5F5F5F5F5F5F5F5F5F5F5F5F5F5F5F5F5F5F5F5F5F5F5F5F5F5F5F5F5F5F5F5F5F5F5F5F5F5F5F5F5F5F5F5F5F5F5F5F5F5F5F5F5F5F5F5F5F5F5F5F5F5F5F5F5F5F5F5F5F5F5F5F5F5F5F5F5F5F5F5F5F5F5F5F5F5F5
310
F5F5F5F5F5F5F5F5F5F5F5F5F5F5F5F5F5F5F5F5F5F5F5F5F5F5F5F5F5F5F5F5F5F5F5F5F5F5F5F5F5F5F5F5F5F5F5F5F5F5F5F5F5F5F5F5F5F5F5F5F5F5F5F5F5F5F5F5F5F5F5F5F5F5F5F5F5F5F5F5F5F5F5F5F5F5F5F5E2E2E2F5F5F5F5F5F5F5F5F5F5F5F5F5F5F5F5F5F5F5F5F5F5F5F5F5F5F5F5F5F5F5F5F5F5F5F5
310
F5F5F5F5F5F5F5F5F5F5F5F5F5F5F5F5F5F5F5F5F5F5F5F5F5F5F5F5F5F5F5F5F5F5F5F5F5F5F5F5F5F5F5F5F5F5F5F5F5F5F5F5F5F5F5F5F5F5F5F5F5F5F5F5F5F5F5F5F5F5F5F5F5F5F5F5F5F5F5F5F5F5F5F5F5F5F5F5F5F5F5F5F5F5F5F5F5F5F5F5F5F5F5F5F5F5F5F5F5F5F5F5F5F5F5F5F5F5F5F5F5F5F5F5F5F5F5
310
F5F5F5F5F5F5F5F5F5F5F5F5F5F5E2E2E2F5F5F5F5F5F5F5F5F5F5F5F5F5F5F5F5F5F5F5F5F5F5F5F5F5F5F5F5F5F5F5F5F5F5F5F5F5F5F5F5F5F5F5F5F5F5F5F5F5F5F5F5F5F5F5F5F5F5F5F5F5F5F5F5F5F5F5F5F5F5F5F5F5F5F5F5F5F5F5F5F5F5F5F5F5F5F5F5F5F5F5F5F5F5F5F5F5F5F5F5F5F5F5F5F5F5F5F5F5F5
310
F5F5F5F5F5F5F5F5F5F5F5F5F5F5F5F5F5F5F5F5F5F5F5F5F5F5F5F5F5F5F5F5F5F5F5F5F5F5F5F5F5F5F5F5F5F5F5F5F5F5F5F5F5F5F5F5F5F5F5F5F5F5F5F5F5F5F5E2E2E2F5F5F5F5F5F5F5F5F5F5F5F5F5F5F5F5F5F5F5F5F5F5F5F5F5F5F5F5F5F5F5F5F5F5F5F5F5F5F5F5F5F5F5F5F5F5F5F5F5F5F5F5F5F5F5F5F5
310
F5F5F5F5F5F5F5F5F5F5F5F5F5F5F5F5F5F5F5F5F5F5F5F5F5F5F5F5F5F5F5F5F5F5F5F5F5F5F5F5F5F5F5F5F5F5F5F5F5F5F5F5F5F5F5F5F5F5F5F5F5F5F5F5F5F5F5F5F5F5F5F5F5F5F5F5F5F5F5F5F5F5F5F5F5F5F5F5F5F5F5F5F5F5F5F5F5F5F5F5F5F5F5F5F5F5F5F5F5F5F5F5F5F5F5F5F5F5F5F5E2E2E2F5F5F5E2
310
F5F5F5F5F5F5F5F5F5F5F5F5F5F5F5F5F5F5F5F5F5F5F5F5F5F5F5F5F5F5F5F5F5F5F5F5F5F5F5F5F5F5F5F5F5F5F5F5F5F5F5F5F5F5F5F5F5F5F5F5F5F5F5F5F5F5F5F5F5F5F5F5F5F5F5F5F5F5F5F5F5F5F5F5F5F5F5F5F5F5F5F5F5F5F5F5F5F5F5F5F5F5F5F5F5F5F5F5F5F5F5F5F5F5F5F5F5F5F5F5F5F5F5F5F5F5F5
310
F5F5F5F5F5F5F5F5F5F5F5F5F5F5F5F5F5F5F5F5F5F5F5F5F5F5F5F5F5F5F5F5F5F5F5F5F5F5F5F5F5F5E2F5F5F5E2E2E2F5F5F5E2F5F5F5F5F5F5F5F5F5F5F5F5F5F5F5F5F5F5F5F5F5F5F5F5F5F5F5F5F5F5F5F5F5F5F5F5F5F5F5F5F5F5F5F5F5F5F5F5F5F5F5F5F5F5F5F5F5F5F5F5F5F5F5F5F5F5F5F5F5F5F5F5F5F5
310
F5F5F5F5F5F5F5F5F5F5F5F5F5F5F5F5F5F5F5F5F5F5F5F5F5F5F5F5F5F5F5F5F5F5F5F5F5F5F5F5F5F5F5F5F5F5F5F5F5F5F5F5F5F5F5F5F5F5F5F5F5F5F5F5F5F5F5F5F5F5F5F5F5F5F5F5F5F5F5F5F5F5F5F5F5F5F5F5F5F5F5F5F5F5F5E2F5F5F5E2E2E2F5F5F5E2F5F5F5F5F5F5F5F5F5F5F5F5F5F5F5F5F5F5F5F5F5
310
F5F5F5F5F5F5F5F5F5F5F5F5F5F5F5F5F5F5F5F5F5F5F5F5F5F5F5F5F5F5F5F5F5F5F5F5F5F5F5F5F5F5F5F5F5F5F5F5F5F5F5F5F5F5F5F5F5F5F5F5F5F5F5F5F5F5F5F5F5F5F5F5F5F5F5F5F5F5F5F5F5F5F5F5F5F5F5F5F5F5F5F5F5F5F5F5F5F5F5F5F5F5F5F5F5F5F5F5F5F5F5F5F5F5F5F5F5F5F5F5F5F5F5F5F5F5F5
310
F5F5F5F5F5F5F5F5F5F5F5F5F5F5F5F5F5F5F5F5F5E2F5F5F5E2E2E2F5F5F5E2F5F5F5F5F5F5F5F5F5F5F5F5F5F5F5F5F5F5F5F5F5F5F5F5F5F5F5F5F5F5F5F5F5F5F5F5F5F5F5F5F5F5F5F5F5F5F5F5F5F5F5F5F5F5F5F5F5F5F5F5F5F5F5F5F5F5F5F5F5F5F5F5F5F5F5F5F5F5F5F5F5F5F5F5F5F5F5F5F5F5F5F5F5F5F5
310
F5F5F5F5F5F5F5F5F5F5F5F5F5F5F5F5F5F5F5F5F5F5F5F5F5F5F5F5F5F5F5F5F5F5F5F5F5F5F5F5F5F5F5F5F5F5F5F5F5F5F5F5F5F5F5F5F5F5F5F5F5F5F5F5F5F5F5F5F5F5F5F5F5F5E2F5F5F5E2E2E2F5F5F5E2F5F5F5F5F5F5F5F5F5F5F5F5F5F5F5F5F5F5F5F5F5F5F5F5F5F5F5F5F5F5F5F5F5F5F5F5F5F5F5F5F5F5
310
F5F5F5F5F5F5F5F5F5F5F5F5F5F5F5F5F5F5F5F5F5F5F5F5F5F5F5F5F5F5F5F5F5F5F5F5F5F5F5F5F5F5F5F5F5F5F5F5F5F5F5F5F5F5F5F5F5F5F5F5F5F5F5F5F5F5F5F5F5F5F5F5F5F5F5F5F5F5F5F5F5F5F5F5F5F5F5F5F5F5F5F5F5F5F5F5F5F5F5F5F5F5F5F5F5F5F5F5F5F5F5F5F5F5F5F5F5F5F5F5F5F5F5F5F5F5F5
310
E2F5F5F5E2E2E2F5F5F5E2F5F5F5F5F5F5F5F5F5F5F5F5F5F5F5F5F5F5F5F5F5F5F5F5F5F5F5F5F5F5F5F5F5F5F5F5F5F5F5F5F5F5F5F5F5F5F5F5F5F5F5F5F5F5F5F5F5F5F5F5F5F5F5F5F5F5F5F5F5F5F5F5F5F5F5F5F5F5F5F5F5F5F5F5F5F5F5F5F5F5F5F5F5F5F5F5F5F5F5F5F5F5F5F5F5F5F5F5F5F5F5F5F5F5F5F5
310
F5F5F5F5F5F5F5F5F5F5F5F5F5F5F5F5F5F5F5F5F5F5F5F5F5F5F5F5F5F5F5F5F5F5F5F5F5F5F5F5F5F5F5F5F5F5F5F5F5F5F5F5F5E2F5F5F5E2E2E2F5F5F5E2F5F5F5F5F5F5F5F5F5F5F5F5F5F5F5F5F5F5F5F5F5F5F5F5F5F5F5F5F5F5F5F5F5F5F5F5F5F5F5F5F5F5F5F5F5F5F5F5F5F5F5F5F5F5F5F5F5F5F5F5F5F5F5
310
F5F5F5F5F5F5F5F5F5F5F5F5F5F5F5F5F5F5F5F5F5F5F5F5F5F5F5F5F5F5F5F5F5F5F5F5F5F5F5F5F5F5F5F5F5F5F5F5F5F5F5F5F5F5F5F5F5F5F5F5F5F5F5F5F5F5F5F5F5F5F5F5F5F5F5F5F5F5F5F5F5F5F5F5F5F5F5F5F5F5F5F5F5F5F5F5F5F5F5F5F5F5F5F5F5F5E2F5F5F5E2E2E2F5F5F5E2F5F5F5F5F5F5F5F5F5F5
310
F5F5F5F5F5F5F5F5F5F5F5F5F5F5F5F5F5F5F5F5F5F5F5F5F5F5F5F5F5F5F5F5F5F5F5F5F5F5F5F5F5F5F5F5F5F5F5F5F5F5F5F5F5F5F5F5F5F5F5F5F5F5F5F5F5F5F5F5F5F5F5F5F5F5F5F5F5F5F5F5F5F5F5F5F5F5F5F5F5F5F5F5F5F5F5F5F5F5F5F5F5F5F5F5F5F5F5F5F5F5F5F5F5F5F5F5F5F5F5F5F5F5F5F5F5F5F5
310
F5F5F5F5F5F5F5F5F5F5F5F5F5F5F5F5F5F5F5F5F5F5F5F5F5F5F5F5F5F5F5F5E2F5F5F5E2E2E2F5F5F5E2E2E2E2E2E2E2E2F5F5F5F5F5F5F5F5F5E2E2E2E2E2E2E2E2E2E2E2E2E2E2E2E2F5F5F5F5F5F5F5F5E2E2E2E2E2E2E2E2E2E2E2E2E2E2E2E2F5F5F5F5F5F5F5F5F5E2E2E2E2E2E2E2E2E2E2E2E2E2E2E2F5F5F5F5
310
F5F5F5F5F5E2E2E2E2E2E2E2E2E2E2E2E2E2E2E2F5F5F5F5F5F5F5F5F5E2E2E2E2E2E2E2E2E2E2E2E2E2E2E2E2F5F5F5F5F5F5F5F5E2E2E2E2E2E2E2E2E2E2E2E2E2E2E2E2F5F5F5F5F5F5F5F5F5E2E2E2E2E2E2E2E2F5F5F5E2E2E2F5F5F5F5F5F5F5F5F5F5F5F5F5F5F5F5F5F5F5F5F5F5F5F5F5F5F5F5F5F5F5F5F5F5F5
310
F5F5F5F5F5F5F5F5F5F5F5F5F5F5F5F5F5F5F5F5F5F5F5F5F5F5F5F5F5F5F5F5F5F5F5F5F5F5F5F5F5F5F5F5F5F5F5F5F5F5F5F5F5F5F5F5F5F5F5F5F5F5F5F5F5F5F5F5F5F5F5F5F5F5F5F5F5F5F5F5F5F5F5F5F5F5F5F5F5F5F5F5F5F5F5F5F5F5F5F5F5F5F5F5F5F5F5F5F5F5F5F5F5F5F5F5F5F5F5F5F5F5F5F5F5F5F5
310
F5F5F5F5F5F5F5F5F5F5F5F5F5F5F5E2E2E2F5F5F5F5F5F5F5F5F5F5F5F5F5F5F5F5F5F5F5F5F5F5F5F5F5F5F5F5F5F5F5F5F5F5F5F5F5F5F5F5F5F5F5F5F5F5F5F5F5F5F5F5F5F5F5F5F5F5F5F5F5F5F5F5F5F5F5F5F5F5F5F5F5F5F5F5F5F5F5F5F5F5F5F5F5F5F5F5F5F5F5F5F5F5F5F5F5F5F5F5F5F5F5F5F5F5F5F5F5
310
F5F5F5F5F5F5F5F5F5F5F5F5F5F5F5F5F5F5F5F5F5F5F5F5F5F5F5F5F5F5F5F5F5F5F5F5F5F5F5F5F5F5F5F5F5F5F5F5F5F5F5F5F5F5F5F5F5F5F5F5F5F5F5F5F5F5F5F5E2EFE2F5F5F5F5F5F5F5F5F5F5F5F5F5F5F5F5F5F5F5F5F5F5F5F5F5F5F5F5F5F5F5F5F5F5F5F5F5F5F5F5F5F5F5F5F5F5F5F5F5F5F5F5F5F5F5F5
310
F5F5F5F5F5F5F5F5F5F5F5F5F5F5F5F5F5F5F5F5F5F5F5F5F5F5F5F5F5F5F5F5F5F5F5F5F5F5F5F5F5F5F5F5F5F5F5F5F5F5F5F5F5F5F5F5F5F5F5F5F5F5F5F5F5F5F5F5F5F5F5F5F5F5F5F5F5F5F5F5F5F5F5F5F5F5F5F5F5F5F5F5F5F5F5F5F5F5F5F5F5F5F5F5F5F5F5F5F5F5F5F5F5F5F5F5F5F5F5F5F5E2EF
  0
XRECORD
  5
6E8
102
{ACAD_REACTORS
330
6C8
102
}
330
6C8
100
AcDbXrecord
280
     1
102
SHADEPLOT
 70
     0
102
SHADEPLOTRESLEVEL
 70
     2
102
SHADEPLOTCUSTOMDPI
 70
   300
  0
XRECORD
  5
6C9
102
{ACAD_REACTORS
330
6C8
102
}
330
6C8
100
AcDbXrecord
280
     1
310
28000000B40000008A00000001000800000000000861000000000000000000000001000000000000FFFFFF0000000000FFFFFF000000000000000000000000000000000000000000000000000000000000000000330000006600000099000000CC000000FF00000000330000333300006633000099330000CC330000FF3300
310
0000660000336600006666000099660000CC660000FF66000000990000339900006699000099990000CC990000FF99000000CC000033CC000066CC000099CC0000CCCC0000FFCC000000FF000033FF000066FF000099FF0000CCFF0000FFFF000000003300330033006600330099003300CC003300FF003300003333003333
310
33006633330099333300CC333300FF33330000663300336633006666330099663300CC663300FF66330000993300339933006699330099993300CC993300FF99330000CC330033CC330066CC330099CC3300CCCC3300FFCC330000FF330033FF330066FF330099FF3300CCFF3300FFFF330000006600330066006600660099
310
006600CC006600FF00660000336600333366006633660099336600CC336600FF33660000666600336666006666660099666600CC666600FF66660000996600339966006699660099996600CC996600FF99660000CC660033CC660066CC660099CC6600CCCC6600FFCC660000FF660033FF660066FF660099FF6600CCFF6600
310
FFFF660000009900330099006600990099009900CC009900FF00990000339900333399006633990099339900CC339900FF33990000669900336699006666990099669900CC669900FF66990000999900339999006699990099999900CC999900FF99990000CC990033CC990066CC990099CC9900CCCC9900FFCC990000FF99
310
0033FF990066FF990099FF9900CCFF9900FFFF99000000CC003300CC006600CC009900CC00CC00CC00FF00CC000033CC003333CC006633CC009933CC00CC33CC00FF33CC000066CC003366CC006666CC009966CC00CC66CC00FF66CC000099CC003399CC006699CC009999CC00CC99CC00FF99CC0000CCCC0033CCCC0066CC
310
CC0099CCCC00CCCCCC00FFCCCC0000FFCC0033FFCC0066FFCC0099FFCC00CCFFCC00FFFFCC000000FF003300FF006600FF009900FF00CC00FF00FF00FF000033FF003333FF006633FF009933FF00CC33FF00FF33FF000066FF003366FF006666FF009966FF00CC66FF00FF66FF000099FF003399FF006699FF009999FF00CC
310
99FF00FF99FF0000CCFF0033CCFF0066CCFF0099CCFF00CCCCFF00FFCCFF0000FFFF0033FFFF0066FFFF0099FFFF00CCFFFF00FFFFFF00000000000D0D0D001A1A1A00282828003535350043434300505050005D5D5D006B6B6B00787878008686860093939300A1A1A100AEAEAE00BBBBBB00C9C9C900D6D6D600E4E4E400
310
F1F1F100FFFFFF0000000000000000000000000000000000000000000000000000000000000000000000000000000000E2E2E2E2E2E2E2E2E2E2E2E2E2E2E2E2E2E2E2E2E2E2E2E2E2E2E2E2E2E2E2E2E2E2E2E2E2E2E2E2E2E2E2E2E2E2E2E2E2E2E2E2E2E2E2E2E2E2E2E2E2E2E2E2E2E2E2E2E2E2E2E2E2E2E2E2E2E2E2
310
E2E2E2E2E2E2E2E2E2E2E2E2E2E2E2E2E2E2E2E2E2E2E2E2E2E2E2E2E2E2E2E2E2E2E2E2E2E2E2E2E2E2E2E2E2E2E2E2E2E2E2E2E2E2E2E2E2E2E2E2E2E2E2E2E2E2E2E2E2E2E2E2E2E2E2E2E2E2E2E2E2E2E2E2E2E2E2E2E2E2E2E2E2E2E2E2E2E2E2E2E2E2F5F5F5F5F5F5F5F5F5F5F5F5F5F5F5F5F5F5F5F5F5F5F5F5F5
310
F5F5F5F5F5F5F5F5F5F5F5F5F5F5F5F5F5F5F5F5F5F5F5F5F5F5F5F5F5F5F5F5F5F5F5F5F5F5F5F5F5F5F5F5F5F5F5F5F5F5F5F5F5F5F5F5F5F5F5F5F5F5F5F5F5F5F5F5F5F5F5F5F5F5F5F5F5F5F5F5F5F5F5F5F5F5F5F5F5F5F5F5F5F5F5F5F5F5F5F5F5F5F5F5F5F5F5F5F5F5F5F5F5F5F5F5F5F5F5F5F5F5F5F5F5F5F5
310
F5F5F5F5F5F5F5F5F5F5F5F5F5F5F5F5F5F5F5F5F5F5F5F5F5E2E2E2F5F5F5F5F5F5F5F5F5F5F5F5F5F5F5F5F5F5F5F5F5F5F5F5F5F5F5F5F5F5F5F5F5F5F5F5F5F5F5F5F5F5F5F5F5F5F5F5F5F5F5F5F5F5F5F5F5F5F5F5F5F5F5F5F5F5F5F5F5F5F5F5F5F5F5F5F5F5F5F5F5F5F5F5F5F5F5F5F5F5F5F5F5F5F5F5F5F5F5
310
F5F5F5F5F5F5F5F5F5F5F5F5F5F5F5F5F5F5F5F5F5F5F5F5F5F5F5F5F5F5F5F5F5F5F5F5F5F5F5F5F5F5F5F5F5F5F5F5F5F5F5F5F5F5F5F5F5F5F5F5F5F5F5F5F5F5F5F5F5F5F5F5F5F5F5F5F5F5E2E2E2F5F5F5F5F5F5F5F5F5F5F5F5F5F5F5F5F5F5F5F5F5F5F5F5F5F5F5F5F5F5F5F5F5F5F5F5F5F5F5F5F5F5F5F5F5F5
310
F5F5F5F5F5F5F5F5F5F5F5F5F5F5F5F5F5F5F5F5F5F5F5F5F5F5F5F5F5F5F5F5F5F5F5F5F5F5F5F5F5F5F5F5F5F5F5F5F5F5F5F5F5F5F5F5F5F5F5F5F5F5F5F5F5F5F5F5F5F5F5F5F5F5F5F5F5F5F5F5F5F5F5F5F5F5F5F5F5F5F5F5F5F5F5F5F5F5F5F5F5F5F5F5F5F5F5F5F5F5F5F5F5F5F5F5F5F5F5F5F5F5F5F5F5F5F5
310
F5F5F5F5E2E2E2F5F5F5E2E2E2E2E2E2E2E2F5F5F5F5F5F5F5F5F5E2E2E2E2E2E2E2E2E2E2E2E2E2E2E2E2F5F5F5F5F5F5F5F5E2E2E2E2E2E2E2E2E2E2E2E2E2E2E2E2F5F5F5F5F5F5F5F5F5E2E2E2E2E2E2E2E2E2E2E2E2E2E2E2F5F5F5F5F5F5F5F5F5E2E2E2E2E2E2E2E2E2E2E2E2E2E2E2F5F5F5F5F5F5F5F5F5E2E2E2
310
E2E2E2E2E2E2E2E2E2E2E2E2E2F5F5F5F5F5F5F5F5E2E2E2E2E2E2E2E2E2E2E2E2E2E2E2E2F5F5F5F5F5F5F5F5F5E2E2E2E2E2E2E2E2F5F5F5E2E2E2F5F5F5E2F5F5F5F5F5F5F5F5F5F5F5F5F5F5F5F5F5F5F5F5F5F5F5F5F5F5F5F5F5F5F5F5F5F5F5F5F5F5F5F5F5F5F5F5F5F5F5F5F5F5F5F5F5F5F5F5F5F5F5F5F5F5F5
310
F5F5F5F5F5F5F5F5F5F5F5F5F5F5F5F5F5F5F5F5F5F5F5F5F5F5F5F5F5F5F5F5F5F5F5F5F5F5F5F5F5F5F5F5F5F5F5F5F5F5F5F5F5F5F5F5F5F5F5F5F5F5F5F5F5F5F5F5F5F5F5F5F5F5F5F5F5F5F5F5F5F5F5F5F5F5F5F5F5F5F5F5F5F5F5F5F5F5F5F5F5F5F5F5F5F5E2F5F5F5E2E2E2F5F5F5E2F5F5F5F5F5F5F5F5F5F5
310
F5F5F5F5F5F5F5F5F5F5F5F5F5F5F5F5F5F5F5F5F5F5F5F5F5F5F5F5F5F5F5F5F5F5F5F5F5F5F5F5F5F5F5F5F5F5F5F5F5F5F5F5F5F5F5F5F5F5F5F5F5F5F5F5F5F5F5F5F5F5F5F5F5F5F5F5F5F5F5F5F5F5F5F5F5F5F5F5F5F5F5F5F5F5F5F5F5F5F5F5F5F5F5F5F5F5F5F5F5F5F5F5F5F5F5F5F5F5F5F5F5F5F5F5F5F5F5
310
F5F5F5F5F5F5F5F5F5F5F5F5F5F5F5F5F5F5F5F5F5F5F5F5F5F5F5F5F5F5F5F5E2F5F5F5E2E2E2F5F5F5E2F5F5F5F5F5F5F5F5F5F5F5F5F5F5F5F5F5F5F5F5F5F5F5F5F5F5F5F5F5F5F5F5F5F5F5F5F5F5F5F5F5F5F5F5F5F5F5F5F5F5F5F5F5F5F5F5F5F5F5F5F5F5F5F5F5F5F5F5F5F5F5F5F5F5F5F5F5F5F5F5F5F5F5F5
310
F5F5F5F5F5F5F5F5F5F5F5F5F5F5F5F5F5F5F5F5F5F5F5F5F5F5F5F5F5F5F5F5F5F5F5F5F5F5F5F5F5F5F5F5F5F5F5F5F5F5F5F5F5F5F5F5F5F5F5F5F5F5F5F5F5F5F5F5F5F5F5F5F5F5F5F5F5F5F5F5F5F5F5F5F5E2F5F5F5E2E2E2F5F5F5E2F5F5F5F5F5F5F5F5F5F5F5F5F5F5F5F5F5F5F5F5F5F5F5F5F5F5F5F5F5F5F5
310
F5F5F5F5F5F5F5F5F5F5F5F5F5F5F5F5F5F5F5F5F5F5F5F5F5F5F5F5F5F5F5F5F5F5F5F5F5F5F5F5F5F5F5F5F5F5F5F5F5F5F5F5F5F5F5F5F5F5F5F5F5F5F5F5F5F5F5F5F5F5F5F5F5F5F5F5F5F5F5F5F5F5F5F5F5F5F5F5F5F5F5F5F5F5F5F5F5F5F5F5F5F5F5F5F5F5F5F5F5F5F5F5F5F5F5F5F5F5F5F5F5F5F5F5F5F5F5
310
F5F5F5F5F5F5F5F5F5F5F5E2F5F5F5E2E2E2F5F5F5E2F5F5F5F5F5F5F5F5F5F5F5F5F5F5F5F5F5F5F5F5F5F5F5F5F5F5F5F5F5F5F5F5F5F5F5F5F5F5F5F5F5F5F5F5F5F5F5F5F5F5F5F5F5F5F5F5F5F5F5F5F5F5F5F5F5F5F5F5F5F5F5F5F5F5F5F5F5F5F5F5F5F5F5F5F5F5F5F5F5F5F5F5F5F5F5F5F5F5F5F5F5F5F5F5F5
310
F5F5F5F5F5F5F5F5F5F5F5F5F5F5F5F5F5F5F5F5F5F5F5F5F5F5F5F5F5F5F5F5F5F5F5F5F5F5F5F5F5F5F5F5F5F5F5F5F5F5F5F5F5F5F5F5F5F5F5F5F5F5F5F5E2F5F5F5E2E2E2F5F5F5E2F5F5F5F5F5F5F5F5F5F5F5F5F5F5F5F5F5F5F5F5F5F5F5F5F5F5F5F5F5F5F5F5F5F5F5F5F5F5F5F5F5F5F5F5F5F5F5F5F5F5F5F5
310
F5F5F5F5F5F5F5F5F5F5F5F5F5F5F5F5F5F5F5F5F5F5F5F5F5F5F5F5F5F5F5F5F5F5F5F5F5F5F5F5F5F5F5F5F5F5F5F5F5F5F5F5F5F5F5F5F5F5F5F5F5F5F5F5F5F5F5F5F5F5F5F5F5F5F5F5F5F5F5F5F5F5F5F5F5F5F5F5F5F5F5F5F5F5F5F5F5F5F5F5F5F5F5F5F5F5F5F5F5F5F5F5F5F5F5F5F5E2F5F5F5E2E2E2F5F5F5
310
E2F5F5F5F5F5F5F5F5F5F5F5F5F5F5F5F5F5F5F5F5F5F5F5F5F5F5F5F5F5F5F5F5F5F5F5F5F5F5F5F5F5F5F5F5F5F5F5F5F5F5F5F5F5F5F5F5F5F5F5F5F5F5F5F5F5F5F5F5F5F5F5F5F5F5F5F5F5F5F5F5F5F5F5F5F5F5F5F5F5F5F5F5F5F5F5F5F5F5F5F5F5F5F5F5F5F5F5F5F5F5F5F5F5F5F5F5F5F5F5F5F5F5F5F5F5F5
310
F5F5F5F5F5F5F5F5F5F5F5F5F5F5F5F5F5F5F5F5F5F5F5F5F5F5F5F5F5F5F5F5F5F5F5F5F5F5F5F5F5F5F5E2F5F5F5E2E2E2F5F5F5E2F5F5F5F5F5F5F5F5F5F5F5F5F5F5F5F5F5F5F5F5F5F5F5F5F5F5F5F5F5F5F5F5F5F5F5F5F5F5F5F5F5F5F5F5F5F5F5F5F5F5F5F5F5F5F5F5F5F5F5F5F5F5F5F5F5F5F5F5F5F5F5F5F5
310
F5F5F5F5F5F5F5F5F5F5F5F5F5F5F5F5F5F5F5F5F5F5F5F5F5F5F5F5F5F5F5F5F5F5F5F5F5F5F5F5F5F5F5F5F5F5F5F5F5F5F5F5F5F5F5F5F5F5F5F5F5F5F5F5F5F5F5F5F5F5F5F5F5F5F5F5F5F5F5F5F5F5F5F5F5F5F5F5F5F5F5F5F5F5F5F5E2F5F5F5E2E2E2F5F5F5F5F5F5F5F5F5F5F5F5F5F5F5F5F5F5F5F5F5F5F5F5
310
F5F5F5F5F5F5F5F5F5F5F5F5F5F5F5F5F5F5F5F5F5F5F5F5F5F5F5F5F5F5F5F5F5F5F5F5F5F5F5F5F5F5F5F5F5F5F5F5F5F5F5F5F5F5F5F5F5F5F5F5F5F5F5F5F5F5F5F5F5F5F5F5F5F5F5F5F5F5F5F5F5F5F5F5F5F5F5F5F5F5F5F5F5F5F5F5F5F5F5F5F5F5F5F5F5F5F5F5F5F5F5F5F5F5F5F5F5F5F5F5F5F5F5F5F5F5F5
310
F5F5F5F5F5F5F5F5F5F5F5F5F5F5F5F5F5F5F5F5F5F5F5F5F5F5E2E2E2F5F5F5F5F5F5F5F5F5F5F5F5F5F5F5F5F5F5F5F5F5F5F5F5F5F5F5F5F5F5F5F5F5F5F5F5F5F5F5F5F5F5F5F5F5F5F5F5F5F5F5F5F5F5F5F5F5F5F5F5F5F5F5F5F5F5F5F5F5F5F5F5F5F5F5F5F5F5F5F5F5F5F5F5F5F5F5F5F5F5F5F5F5F5F5F5F5F5
310
F5F5F5F5F5F5F5F5F5F5F5F5F5F5F5F5F5F5F5F5F5F5F5F5F5F5F5F5F5F5F5F5F5F5F5F5F5F5F5F5F5F5F5F5F5F5F5F5F5F5F5F5F5F5F5F5F5F5F5F5F5F5F5F5F5F5F5F5F5F5F5F5F5F5F5F5F5F5F5E2E2E2F5F5F5F5F5F5F5F5F5F5F5F5F5F5F5F5F5F5F5F5F5F5F5F5F5F5F5F5F5F5F5F5F5F5F5F5F5F5F5F5F5F5F5F5F5
310
F5F5F5F5F5F5F5F5F5F5F5F5F5F5F5F5F5F5F5F5F5F5F5F5F5F5F5F5F5F5F5F5F5F5F5F5F5F5F5F5F5F5F5F5F5F5F5F5F5F5F5F5F5F5F5F5F5F5F5F5F5F5F5F5F5F5F5F5F5F5F5F5F5F5F5F5F5F5F5F5F5F5F5F5F5F5F5F5F5F5F5F5F5F5F5F5F5F5F5F5F5F5F5F5F5F5F5F5F5F5F5F5F5F5F5F5F5F5F5F5F5F5F5F5F5F5F5
310
F5F5F5F5F5E2E2E2F5F5F5F5F5F5F5F5F5F5F5F5F5F5F5F5F5F5F5F5F5F5F5F5F5F5F5F5F5F5F5F5F5F5F5F5F5F5F5F5F5F5F5F5F5F5F5F5F5F5F5F5F5F5F5F5F5F5F5F5F5F5F5F5F5F5F5F5F5F5F5F5F5F5F5F5F5F5F5F5F5F5F5F5F5F5F5F5F5F5F5F5F5F5F5F5F5F5F5F5F5F5F5F5F5F5F5F5F5F5F5F5F5F5F5F5F5F5F5
310
F5F5F5F5F5F5F5F5F5F5F5F5F5F5F5F5F5F5F5F5F5F5F5F5F5F5F5F5F5F5F5F5F5F5F5F5F5F5F5F5F5F5F5F5F5F5F5F5F5F5F5F5F5F5F5F5F5F5E2E2E2F5F5F5F5F5F5F5F5F5F5F5F5F5F5F5F5F5F5F5F5BEBEBEBEBEBEBEBEBEBEBEBEBEBEBEBEBEBEBEBEBEBEBEBEBEBEBEBEBEBEBEBEBEBEBEBEBEBEBEBEBEBEBEBEBEBE
310
BEBEBEBEBEBEBEBEBEBEBEBEBEBEBEBEBEBEBEBEBEBEBEBEBEBEBEBEBEBEBEBEBEBEBEBEBEBEBEBEBEBEBEBEBEBEBEBEBEBEBEBEBEBEBEBEBEBEBEBEBEBEBEBEBEBEBEBEBEBEBEBEBEBEBEBEBEBEBEBEBEBEBEBEBEBEBEBEBEBEBEF5F5F5F5F5F5F5F5F5F5F5F5F5F5F5F5F5F5F5F5E2E2E2F5F5F5F5F5F5F5F5F5F5F5F5F5
310
F5F5F5F5F5F5F5BEF5F5F5F5F5F5F5F5F5F5F5F5F5F5F5F5F5F5F5F5F5F5F5F5F5F5F5F5F5F5F5F5F5F5F5F5F5F5F5F5F5F5F5F5F5F5F5F5F5F5F5F5F5F5F5F5F5F5F5F5F5F5F5F5F5F5F5F5F5F5F5F5F5F5F5F5F5F5F5F5F5F5F5F5F5F5F5F5F5F5F5F5F5F5F5F5F5F5F5F5F5F5F5F5F5F5F5F5F5F5F5F5F5F5F5F5F5F5F5
310
F5F5F5F5F5F5F5F5F5F5F5F5F5F5F5F5BEF5F5F5F5F5F5F5F5F5F5F5F5F5F5F5F5F5F5F5F5E2E2E2F5F5F5F5F5F5F5F5F5F5F5F5F5F5F5F5F5F5F5F5BEF5F5F5F5F5F5F5F5F5F5F5F5F5F5F5F5F5F5F5F5F5F5F5F5F5F5F5F5F5F5F5F5F5F5F5F5F5F5F5F5F5F5F5F5F5F5F5F5F5F5F5F5F5F5F5F5F5F5F5F5F5F5F5F5F5F5
310
F5F5F5F5F5F5F5F5F5F5F5F5F5F5F5F5F5F5F5F5F5F5F5F5F5F5F5F5F5F5F5F5F5F5F5F5F5F5F5F5F5F5F5F5F5F5F5F5F5F5F5F5F5F5F5F5F5F5F5F5F5F5F5F5F5F5F5F5F5BEF5F5F5F5F5F5F5F5F5F5F5F5F5F5F5F5F5F5F5F5E2E2E2F5F5F5F5F5F5F5F5F5F5F5F5F5F5F5F5F5F5F5F5BEF5F5F5F5F5F5F5F5F5F5F5F5F5
310
F5F5F5F5F5F5F5F5F5F5F5F5F5F5F5F5F5F5F5F5F5F5F5F5F5F5F5F5F5F5F5F5F5F5F5F5F5F5F5F5F5F5F5F5F5F5F5F5F5F5F5F5F5F5F5F5F5F5F5F5F5F5F5F5F5F5F5F5F5F5F5F5F5F5F5F5F5F5F5F5F5F5F5F5F5F5F5F5F5F5F5F5F5F5F5F5F5F5F5F5F5F5F5F5F5F5F5F5F5F5F5F5F5F5F5F5F5F5F5F5F5F5BEF5F5F5F5
310
F5F5F5F5F5F5F5F5F5F5F5F5F5F5F5F5E2E2E2F5F5F5F5F5F5F5F5F5F5F5F5F5F5F5F5F5F5F5F5BEF5F5F5F5F5F5F5F5F5F5F5F5F5F5F5F5F5F5F5F5F5F5F5F5F5F5F5F5F5F5F5F5F5F5F5F5F5F5F5F5F5F5F5F5F5F5F5F5F5F5F5F5F5F5F5F5F5F5F5F5F5F5F5F5F5F5F5F5F5F5F5F5F5F5F5F5F5F5F5F5F5F5F5F5F5F5F5
310
F5F5F5F5F5F5F5F5F5F5F5F5F5F5F5F5F5F5F5F5F5F5F5F5F5F5F5F5F5F5F5F5F5F5F5F5F5F5F5F5F5F5F5F5F5F5F5F5BEF5F5F5F5F5F5F5F5F5F5F5F5F5F5F5F5F5F5F5F5E2E2E2F5F5F5E2F5F5F5F5F5F5F5F5F5F5F5F5F5F5F5F5BEF5F5F5F5F5F5F5F5F5F5F5F5F5F5F5F5F5F5F5F5F5F5F5F5F5F5F5F5F5F5F5F5F5F5
310
F5F5F5F5F5F5F5F5F5F5F5F5F5F5F5F5F5F5F5F5F5F5F5F5F5F5F5F5F5F5F5F5F5F5F5F5F5F5F5F5F5F5F5F5F5F5F5F5F5F5F5F5F5F5F5F5F5F5F5F5F5F5F5F5F5F5F5F5F5F5F5F5F5F5F5F5F5F5F5F5F5F5F5F5F5F5F5F5F5F5F5F5F5F5F5F5F5F5F5F5F5BEF5F5F5F5F5F5F5F5F5F5F5F5F5F5F5F5E2F5F5F5E2E2E2F5F5
310
F5E2F5F5F5F5F5F5F5F5F5F5F5F5F5F5F5F5BEF5F5F5F5F5F5F5F5F5F5F5F5F5F5F5F5F5F5F5F5F5F5F5F5F5F5F5F5F5F5F5F5F5F5F5F5F5F5F5F5F5F5F5F5F5F5F5F5F5F5F5F5F5F5F5F5F5F5F5F5F5F5F5F5F5F5F5F5F5F5F5F5F5F5F5F5F5F5F5F5F5F5F5F5F5F5F5F5F5F5F5F5F5F5F5F5F5F5F5F5F5F5F5F5F5F5F5F5
310
F5F5F5F5F5F5F5F5F5F5F5F5F5F5F5F5F5F5F5F5F5F5F5F5F5F5F5BEF5F5F5F5F5F5F5F5F5F5F5F5F5F5F5F5E2F5F5F5E2E2E2F5F5F5E2F5F5F5F5F5F5F5F5F5F5F5F5F5F5F5F5BEF5F5F5F5F5F5F5F5F5F5F5F5F5F5F5F5F5F5F5F5F5F5F5F5F5F5F5F5F5F5F5F5F5F5F5F5F5F5F5F5F5F5F5F5F5F5F5F5F5F5F5F5F5F5F5
310
F5F5F5F5F5F5F5F5F5F5F5F5F5F5F5F5F5F5F5F5F5F5F5F5F5F5F5F5F5F5F5F5F5F5F5F5F5F5F5F5F5F5F5F5F5F5F5F5F5F5F5F5F5F5F5F5F5F5F5F5F5F5F5F5F5F5F5F5F5F5F5F5F5F5F5F5F5F5F5F5BEF5F5F5F5F5F5F5F5F5F5F5F5F5F5F5F5E2F5F5F5E2E2E2F5F5F5E2F5F5F5F5F5F5F5F5F5F5F5F5F5F5F5F5BEF5F5
310
F5F5F5F5F5F5F5F5F5F5F5F5F5F5F5F5F5F5F5F5F5F5F5F5F5F5F5F5F5F5F5F5F5F5F5F5F5F5F5F5F5F5F5F5F5F5F5F5F5F5F5F5F5F5F5F5F5F5F5F5F5F5F5F5F5F5F5F5F5F5F5F5F5F5F5F5F5F5F5F5F5F5F5F5F5F5F5F5F5F5F5F5F5F5F5F5F5F5F5F5F5F5F5F5F5F5F5F5F5F5F5F5F5F5F5F5F5F5F5F5F5F5F5F5F5F5F5
310
F5F5F5F5F5F5BEF5F5F5F5F5F5F5F5F5F5F5F5F5F5F5F5E2F5F5F5E2E2E2F5F5F5E2F5F5F5F5F5F5F5F5F5F5F5F5F5F5F5F5BE28F5F5F5F5F5F5F5F5F5F5F5F5F5F5F5F5F5F5F5F5F5F5F5F5F5F5F5F5F5F5F5F5F5F5F5F5F5F5F5F5F5F5F5F5F5F5F5F5F5F5F5F5F5F5F5F5F5F5F5F5F5F5F5F5F5F5F5F5F5F5F5F5F5F5F5
310
F5F5F5F5F5F5F5F5F5F5F5F5F5F5F5F5F5F5F5F5F5F5F5F5F5F5F5F5F5F5F5F5F5F5F5F5F5F5F5F5F5F5F5F5F5F5F5F5F5F5F5F5F5F5F5F5F5F528BEF5F5F5F5F5F5F5F5F5F5F5F5F5F5F5F5E2F5F5F5E2E2E2F5F5F5E2F5F5F5F5F5F5F5F5F5F5F5F5F5F5F5F5BEF5F5F5F5F5F5F5F5F5F5F5F5F5F5F5F5F5F5F5F5F5F5F5
310
F5F5F5F5F5F5F5F5F5F5F5F5F5F5F5F5F5F5F5F5F5F5F5F5F5F5F5F5F5F5F5F5F5F5F5F5F5F5F5F5F5F5F5F5F5F5F5F5F5F5F5F5F5F5F5F5F5F5F5F5F5F5F5F5F5F5F5F5F5F5F5F5F5F5F5F5F5F5F5F5F5F5F5F5F5F5F5F5F5F5F5F5F5F5F5F5F5F5F5F5F5F5F5F5F5F5F5F5F5F5F5F5BEF5F5F5F5F5F5F5F5F5F5F5F5F5F5
310
F5F5E2F5F5F5E2E2E2F5F5F5E2F5F5F5F5F5F5F5F5F5F5F5F5F5F5F5F5BEF5F52828282828282828282828282828282828282828282828282828282828282828282828282828282828282828282828282828282828282828282828282828282828282828282828282828282828282828282828282828282828282828282828
310
28282828282828BEBEBE2828282828282828282828282828282828282828282828282828F5F5BEF5F5F5F5F5F5F5F5F5F5F5F5F5F5F5F5E2F5F5F5E2E2E2F5F5F5E2F5F5F5F5F5F5F5F5F5F5F5F5F5F5F5F5BEF5F528F5F5F5F5F5F5F5F5F5F5F5F5F5F5F5F5F5F5F5F5F5F5F5F5F5F5F5F5F5F5F5F5F5F5F5F5F5F5F5F5F5
310
F5F5F5F5F528F528F5F5F528F5F528F5F528F5F5F5F5F5F5F5F5F5F5F5F5F5F5F5F5F5F5F5F5F528F5F5F5F5F5F5F5F528F5F528F5F528F5F5282828F5F5F528F5F5F5F5F5F5F5F5F5F5F5F5F5BEBEBEBEBEBEBE28F5282828F5F5BEF5F5F5F5F5F5F5F5F5F5F5F5F5F5F5F5E2F5F5F5E2E2E2F5F5F5E2F5F5F5F5F5F5F5F5
310
F5F5F5F5F5F5F5F5BEF5F528F5F5F5F5F5F5F5F5F5F5F5F5F5F5F5F5F5F5F5F5F5F5F5F5F5F5F5F5F5F5F5F5F5F5F5F5F5F5F5F5F5F5F5F5F5F5282828BEBEBE28BEBE28BEBE28282828BEBEBEBEBEBEBEBEBEBEBEBEBEBE2828282828BEBEBEBE2828BE2828BE282828282828282828BEBEBEBE28F5F5F5F5F5F5F5F5F5F5
310
F5F5F5BEBEBEBEBEBEBE28F5282828F5F5BEF5F5F5F5F5F5F5F5F5F5F5F5F5F5F5F5E2F5F5F5E2E2E2F5F5F5E2F5F5F5F5F5F5F5F5F5F5F5F5F5F5F5F5BEF5F528F5F5F5F5F5F5F5F5F5F5F5F5F5F5F5F5F5F5F5F5F5F5F5F5F5F5F5F5F5F5F5F5F5F5F5F5F5F5F5F5F5F5F5F5F5F528F528F5F5F528F5F528F5F528F5F5F5
310
F5F5F5F5F5F5F5F5F5F5F5F5F5F5F5F5F5F528F5F5F5F5F528F5F528F5F528F5F528F5F528F5F5F5F5F528F5F5F5F5F5F5F5F5F5F5F5F5F52828282828F5F52828282828F5F5BEF5F5F5F5F5F5F5F5F5F5F5F5F5F5F5F5E2F5F5F5E2E2E2F5F5F5E2F5F5F5F5F5F5F5F5F5F5F5F5F5F5F5F5BEF5F528F5F5F5F5F5F5F5F5F5
310
F5F5F5F5F5F5F5F5F5F5F5F5F5F5F5F5F5F5F5F5F5F5F5F5F5F5F5F5F5F5F5F5F5F5F5F5F5282828BEBE2828BEBE28BEBEBEBEBEBEBEBEBEBEBEBE28282828282828282828282828282828282828282828282828282828282828282828BEBE28F5F5F5F5F5F5F5F5F5F5F5F5F528282828BEBEBE2828282828F5F5BEF5F5F5
310
F5F5F5F5F5F5F5F5F5F5F5F5F5E2F5F5F5E2E2E2F5F5F5E2F5F5F5F5F5F5F5F5F5F5F5F5F5F5F5F5BEF5F528F5F5F5F5F5F5F5F5F5F5F5F5F5F5F5F5F5F5F5F5F5F5F5F5F5F5F5F5F5F5F5F5F5F5F5F5F5F5F5F5F5F5F5F5F5F528BE28F5F5F528F5F528F5F5BEBEBEBEBEBEBEBEBEF5F5F5F5F5F5F5F5F5F5F5F5F528F5F5
310
F5F5F528F5F528F5F528F5F528F5F5282828F5F5F5282828F5F5F5F5F5F5F5F5F5F5F52828F5F5BEBEBEF5F5F5F528F5F5BEF5F5F5F5F5F5F5F5F5F5F5F5F5F5F5F5E2F5F5F5E2E2E2F5F5F5E2F5F5F5F5F5F5F5F5F5F5F5F5F5F5F5F5BEF5F528F5F5F5F5F5F5F5F5F5F5F5F5F5F5F5F5F5F5F5F5F5F5F5F5F5F5F5F5F5F5
310
F5F5F5F5F5F5F5F5F5F5F5F5F5F5F5F528BE28BEBE2828BE2828BE28BEBEBEBEBEBEBEBE28282828282828282828282828282828282828282828282828282828282828282828282828282828282828282828282828282828282828282828282828282828F5F5BEF5F5F5F5F5F5F5F5F5F5F5F5F5F5F5F5E2F5F5F5E2E2E2F5
310
F5F5E2F5F5F5F5F5F5F5F5F5F5F5F5F5F5F5F5BEF5F528F5F5F5F5F5F5F5F5F5F5F5F5F5F5F5F5F5F5F5F5F5F5F5F5F5F5F5F5F5F5F5F5F5F5F5F5F5F5F5F5F5F5F5F5F5F528F528F5F5F528F5F528F5F528F5F5F5F5F5F5F5F5F5F5F5F5F5F5F5F5F5F5F5F5F528F5F5F5F5F528F5F528F5F528F5F528F5F528F5F5F52828
310
F5F5F5F5F5F52828F5F5F5F5F5F5282828282828282828282828F5F5BEF5F5F5F5F5F5F5F5F5F5F5F5F5F5F5F5E2F5F5F5E2E2E2F5F5F5E2F5F5F5F5F5F5F5F5F5F5F5F5F5F5F5F5BEF5F528F5F5F5F5F5F5F5F5F5F5F5F5F5F5F5F5F5F5F5F5F5F5F5F5F5F5F5F5F5F5F5F5F5F5F5F5F5F5F5F5F5F5F5F5F5F52828282828
310
282828282828282828282828282828282828282828282828282828282828282828282828282828282828282828282828F5F528282828282828282828282828282828F5282828282828282828282828F5F5BEF5F5F5F5F5F5F5F5F5F5F5F5F5F5F5F5E2F5F5F5E2E2E2F5F5F5E2F5F5F5F5F5F5F5F5F5F5F5F5F5F5F5F5BEF5
310
F528F5F5F5F5F5F5F5F5F5F5F5F5F5F5F5F5F5F5F5F5F5F5F5F5F5F5F5F5F5F5F5F5F5F5F5F5F5F5F5F5F5F5F5F5F5F528F528F5F5F528F5F528F5F528F5F5F5F5F5F5F5F5F5F5F5F5F5F5F5F5F5F5F5F5F528F5F5F5F5F528F5F528F5F528F5F528F5F528F5F528282828282828282828282828F5F5F5F528F5F5F5F5F5F5
310
F5F5F5F528F5F5BEF5F5F5F5F5F5F5F5F5F5F5F5F5F5F5F5E2F5F5F5E2E2E2F5F5F5E2F5F5F5F5F5F5F5F5F5F5F5F5F5F5F5F5BEF5F528F5F5F5F5F5F5F5F5F5F5F5F5F5F5F5F5F5F5F5F5F5F5F5F5F5F5F5F5F5F5F5F5F5F5F5F5F5F5F5F5F5F5F5F5F5F52828282828282828282828282828282828282828282828282828
310
282828282828282828282828282828282828282828282828282828282828BE2828282828BEBEBEBEBEBEBEBEBEBEBE2828282828282828282828F5F5BEF5F5F5F5F5F5F5F5F5F5F5F5F5F5F5F5E2F5F5F5E2E2E2F5F5F5F5F5F5F5F5F5F5F5F5F5F5F5F5F5F5F5F5BEF5F528F5F5F5F5F5F5F5F5F5F5F5F5F5F5F5F5F5F5F5
310
F5F5F5F5F5F5F5F5F5F5F5F5F5F5F5F5F5F5F5F5F5F5F5F5F5F5F528F528F5F5F528F5F528F5F528F5F5F5F5F5F5F5F5F5F5F5F5F5F5F5F5F5F5F5F5F528F5F5F5F5F528F5F528F5F528F5F528F5F528F5F5BEBEBEF5F5F5F5BEBEBEBEBEBEBEBEBEBEBEF5F5F5F5F5F5F5F5F5F528F5F5BEF5F5F5F5F5F5F5F5F5F5F5F5F5
310
F5F5F5F5F5F5F5E2E2E2F5F5F5F5F5F5F5F5F5F5F5F5F5F5F5F5F5F5F5F5BEF5F528F5F5F5F5F5F5F5F5F5F5F5F5F5F5F5F5F5F5F5F5F5F5F5F5F5F5F5F5F5F5F5F5F5F5F5F5F5F5F5F5F5F5F5F5F5F52828282828282828282828282828282828282828282828282828282828282828282828282828282828282828282828
310
282828282828F5F5F5BEBEF5F5F5BEBEBEBEBEBEBEBEBEBEBEBEBEBEF5F5F5F5F5F5F5F528F5F5BEF5F5F5F5F5F5F5F5F5F5F5F5F5F5F5F5F5F5F5F5E2E2E2F5F5F5F5F5F5F5F5F5F5F5F5F5F5F5F5F5F5F5F5BEF5F528F5F5F5F5F5F5F5F5F5F5F5F5F5F5F5F5F5F5F5F5F5F5F5F5F5F5F5F5F5F5F5F5F5F5F5F5F5F5F5F5
310
F5F5F5F5F5F528F528F5F5F528F5F528F5F528F5F5F5F5F5F5F5F5F5F5F5F5F5F5F5F5F5F5F5F5F528F5F5F5F5F528F5F528F5F528F5F528F5F52828F5F5BEF5F5F5F5F5F5F5F5F5F5F5F5F5F5F5F5F5F5F5F5F5F5F5F5F5F528F5F5BEF5F5F5F5F5F5F5F5F5F5F5F5F5F5F5F5F5F5F5F5E2E2E2F5F5F5F5F5F5F5F5F5F5F5
310
F5F5F5F5F5F5F5F5F5BEF5F528F5F5F5F5F5F5F5F5F5F5F5F5F5F5F5F5F5F5F5F5F5F5F5F5F5F5F5F5F5F5F5F5F5F5F5F5F5F5F5F5F5F5F5F5F5F52828282828282828282828282828282828282828282828282828282828282828282828282828282828282828282828282828282828282828282828282828282828282828
310
28282828282828282828282828282828F5F5BEF5F5F5F5F5F5F5F5F5F5F5F5F5F5F5F5F5F5F5F5E2E2E2F5F5F5F5F5F5F5F5F5F5F5F5F5F5F5F5F5F5F5F5BEF5F528F5F5F5F5F5F5F5F5F5F5F5F5F5F5F5F5F5F5F5F5F5F5F5F5F5F5F5F5F5F5F5F5F5F5F5F5F5F5F5F5F5F5F5F5F5F528F528F5F5F528F5F528F5F528F5F5
310
F5F5F5F5F5F5F5F5F5F5F5F5F5F5F5F5F5F5F528F5F5F5F5F528F5F528F5F528F5F528F5F528282828282828282828282828282828F5F5F5F5F5F5F5F5F5F5F5F5F5F5F528F5F5BEF5F5F5F5F5F5F5F5F5F5F5F5F5F5F5F5F5F5F5F5E2E2E2F5F5F5F5F5F5F5F5F5F5F5F5F5F5F5F5F5F5F5F5BEF5F528F5F5F5F5F5F5F5F5
310
F5F5F5F5F5F5F5F5F5F5F5F5F5F5F5F5F5F5F5F5F5F5F5F5F5F5F5F5F5F5F5F5F5F5F5F5F5F52828282828282828282828282828282828282828282828282828282828282828282828282828282828282828282828282828282828282828282828282828282828282828F5F5F5F5F5F5F5F5F5F5F5F5F5F5F528F5F5BEF5F5
310
F5F5F5F5F5F5F5F5F5F5F5F5F5F5F5F5F5F5E2E2E2F5F5F5F5F5F5F5F5F5F5F5F5F5F5F5F5F5F5F5F5BEF5F528F5F5F5F5F5F5F5F5F5F5F5F5F5F5F5F5F5F5F5F5F5F5F5F5F5F5F5F5F5F5F5F5F5F5F5F5F5F5F5F5F5F5F5F5F5F528F528F5F5F528F5F528F5F528F5F5F5F5F5F5F5F5F5F5F5F5F5F5F5F5F5F5F5F5F528F5
310
F5F5F5F528F5F528F5F528F5F528F5F528282828282828282828282828282828F5F5F5F5F5F5F5F5F5F5F5F5F5F5F528F5F5BEF5F5F5F5F5F5F5F5F5F5F5F5F5F5F5F5F5F5F5F5E2E2E2F5F5F5F5F5F5F5F5F5F5F5F5F5F5F5F5F5F5F5F5BEF5F528F5F5F5F5F5F5F5F5F5F5F5F5F5F5F5F5F5F5F5F5F5F5F5F5F5F5F5F5F5
310
F5F5F5F5F5F5F5F5F5F5F5F5F5F5F5F5F52828282828282828282828282828282828282828282828282828282828282828282828282828282828282828282828282828282828282828282828282828282828BEBEBEBEBE2828282828282828282828282828F5F5BEF5F5F5F5F5F5F5F5F5F5F5F5F5F5F5F5F5F5F5F5E2E2E2
310
F5F5F5F5F5F5F5F5F5F5F5F5F5F5F5F5F5F5F5F5BEF5F528F5F5F5F5F5F5F5F5F5F5F5F5F5F5F5F5F5F5F5F5F5F5F5F5F5F5F5F5F5F5F5F5F5F5F5F5F5F5F5F5F5F5F5F5F5F528F528F5F5F528F5F528F5F528F5F5F5F5F5F5F5F5F5F5F5F5F5F5F5F5F5F5F5F5F528F5F5F5F5F528F5F528F5F528F5F528F5F528F5F5F5F5
310
F5F5F5F5F5F5F5F5F5F5F5F5F5F5F5F5F5F5F5F5F5F5F5F5F5F528F5F5BEF5F5F5F5F5F5F5F5F5F5F5F5F5F5F5F5F5F5F5F5E2E2E2F5F5F5E2F5F5F5F5F5F5F5F5F5F5F5F5F5F5F5F5BEF5F528F5F5F5F5F5F5F5F5F5F5F5F5F5F5F5F5F5F5F5F5F5F5F5F5F5F5F5F5F5F5F5F5F5F5F5F5F5F5F5F5F5F5F5F5F5F528282828
310
2828282828282828282828282828282828282828282828282828282828282828282828282828282828282828282828282828282828282828282828282828282828282828282828282828282828282828F5F5BEF5F5F5F5F5F5F5F5F5F5F5F5F5F5F5F5E2F5F5F5E2E2E2F5F5F5E2F5F5F5F5F5F5F5F5F5F5F5F5F5F5F5F5BE
310
F5F528F5F5F5F5F5F5F5F5F5F5F5F5F5F5F5F5F5F5F5F5F5F5F5F5F5F5F5F5F5F5F5F5F5F5F5F5F5F5F5F5F5F5F5F5F5F5F5F5F5F5F5F5F5F5F5F5F5F5F5F5F5F5F5F5F5F5F5F5F5F5F5F5F5F5F5F5F5F5F5F5F5F5F5F5F5F5F5F5F5F5F5F5F5F5F5F5F5F5F5F5F5F5F5F5F5F5F5F5F5F5F5F5F5F5F5F5F5F5F5F5F5F5F5F5
310
F5F5F5F5F528F5F5BEF5F5F5F5F5F5F5F5F5F5F5F5F5F5F5F5E2F5F5F5E2E2E2F5F5F5E2F5F5F5F5F5F5F5F5F5F5F5F5F5F5F5F5BEF5F528F5F5F5F5F5F5F5F5F5F5F5F5F5F5F5F5F5F5F5F5F5F5F5F5F5F5F5F5F5F5F5F5F5F5F5F5F5F5F5F5F5F5F5F5F5F5F5F5F5F5F5F5F5F5F5F5F5F5F5F5F5F5F5F5F5F5F5F5F5F5F5
310
F5F5F5F5F5F5F5F5F5F5F5F5F5F5F5F5F5F5F5F5F5F5F5F5F5F5F5F5F5F5F5F5F5F5F5F5F5F5F5F5F5F5F5F5F5F5F5F5F5F5F5F5F5F5F5F5F5F528F5F5BEF5F5F5F5F5F5F5F5F5F5F5F5F5F5F5F5E2F5F5F5E2E2E2F5F5F5E2F5F5F5F5F5F5F5F5F5F5F5F5F5F5F5F5BEF5F528F5F5F5F5F5F5F5F5F5F5F5F5F5F5F5F5F5F5
310
F5F5F5F5F5F5F5F5F5F5F5F5F5F5F5F5F5F5F5F5F5F5F5F5F5F5F5F5F5F5F5F5F5F5F5F5F5F5F5F5F5F5F5F5F5F5F5F5F5F5F5F5F5F5F5F5F5F5F5F5F5F5F5F5F5F5F5F5F5F5F5F5F5F5F5F5F5F5F5F5F5F5F5F5F5F5F5F5F5F5F5F5F5F5F5F5F5F5F5F5F5F5F5F5F5F5F5F5F5F5F528F5F5BEF5F5F5F5F5F5F5F5F5F5F5F5
310
F5F5F5F5E2F5F5F5E2E2E2F5F5F5E2F5F5F5F5F5F5F5F5F5F5F5F5F5F5F5F5BEF5F528F5F5F5F5F5F5F5F5F5F5F5F5F5F5F5F5F5F5F5F5F5F5F5F5F5F5F5F5F5F5F5F5F5F5F5F5F5F5F5F5F5F5F5F5F5F5F5F5F5F5F5F5F5F5F5F5F5F5F5F5F5F5F5F5F5F5F5F5F5F5F5F5F5F5F5F5F5F5F5F5F5F5F5F5F5F5F5F5F5F5F5F5
310
F5F5F5F5F5F5F5F5F5F5F5F5F5F5F5F5F5F5F5F5F5F5F5F5F5F5F5F5F5F5F5F5F5F5F5F5F528F5F5BEF5F5F5F5F5F5F5F5F5F5F5F5F5F5F5F5E2F5F5F5E2E2E2F5F5F5E2F5F5F5F5F5F5F5F5F5F5F5F5F5F5F5F5BEF5F528F5F5F5F5F5F5F5F5F5F5F5F5F5F5F5F5F5F5F5F5F5F5F5F5F5F5F5F5F5F5F5F5F5F5F5F5F5F5F5
310
F5F5F5F5F5F5F5F5F5F5F5F5F5F5F5F5F5F5F5F5F5F5F5F5F5F5F5F5F5F5F5F5F5F5F5F5F5F5F5F5F5F5F5F5F5F5F5F5F5F5F5F5F5F5F5F5F5F5F5F5F5F5F5F5F5F5F5F5F5F5F5F5F5F5F5F5F5F5F5F5F5F5F5F5F5F5F5F5F5F528F5F5BEF5F5F5F5F5F5F5F5F5F5F5F5F5F5F5F5E2F5F5F5E2E2E2F5F5F5E2F5F5F5F5F5F5
310
F5F5F5F5F5F5F5F5F5F5BEF5F528F5F5F5F5F5F5F5F5F5F5F5F5F5F5F5F5F5F5F5F5F5F5F5F5F5F5F5F5F5F5F5F5F5F5F5F5F5F5F5F5F5F5F5F5F5F5F5F5F5F5F5F5F5F5F5F5F5F5F5F5F5F5F5F5F5F5F5F5F5F5F5F5F5F5F5F5F5F5F5F5F5F5F5F5F5F5F5F5F5F5F5F5F5F5F5F5F5F5F5F5F5F5F5F5F5F5F5F5F5F5F5F5F5
310
F5F5F5F5F5F5F5F5F5F5F5F5F5F5F5F528F5F5BEF5F5F5F5F5F5F5F5F5F5F5F5F5F5F5F5E2F5F5F5E2E2E2F5F5F5E2F5F5F5F5F5F5F5F5F5F5F5F5F5F5F5F5BEF5F528F5F5F5F5F5F5F5F5F5F5F5F5F5F5F5F5F5F5F5F5F5F5F5F5F5F5F5F5F5F5F5F5F5F5F5F5F5F5F5F5F5F5F5F5F5F5F5F5F5F5F5F5F5F5F5F5F5F5F5BE
310
BEBEBEBEBEBEBEBEF5F5F5F5F5F5F5F5F5F5F5F5F5F5F5F5F5F5F5F5F5F5F5F5F5F5F5F5F5F5F5F5F5F5F5F5F5F5F5F5F5F5F5F5F5F5F5F5F5F5F5F5F5F5F5F5F5F5F5F5F528F5F5BEF5F5F5F5F5F5F5F5F5F5F5F5F5F5F5F5E2F5F5F5E2E2E2F5F5F5E2F5F5F5F5F5F5F5F5F5F5F5F5F5F5F5F5BEF5F528F5F5F5F5F5F5F5
310
F5F5F5F5F5F5F5F5F5F5F5F5F5F5F5F5F5F5F5F5F5F5F5F5F5F5F5F5F5F5F5F5F5F5F5F5F5F5F5F5F5F5F5F5F5F5F5F5F5F5F5F5BEBEBEBEBEBEBEBEBEF5F5F5F5F5F5F5F5F5F5F5F5F5F5F5F5F5F5F5F5F5F5F5F5F5F5F5F5F5F5F5F5F5F5F5F5F5F5F5F5F5F5F5F5F5F5F5F5F5F5F5F5F5F5F5F5F5F5F5F5F528F5F5BEF5
310
F5F5F5F5F5F5F5F5F5F5F5F5F5F5F5E2F5F5F5E2E2E2F5F5F5E2F5F5F5F5F5F5F5F5F5F5F5F5F5F5F5F5BEF5F528F5F5F5F5F5F5F5F5F5F5F5F5F5F5F5F5F5F5F5F5F5F5F5F5F5F5F5F5F5F5F5F5F5F5F5F5F5F5F5F5F5F5F5F5F5F5F5F5F5F5F5F5F5F5F5F5F5F5F5F5F5F5F5F5F5F5F5F5F5F5F5F5F5F5F5F5F5F5F5F5F5
310
F5F5F5F5F5F5F5F5F5F5F5F5F5F5F5F5F5F5F5F5F5F5F5F5F5F5F5F5F5F5F5F5F5F5F5F5F5F5F5F5F5F5F5F5F5F5F5F528F5F5BEF5F5F5F5F5F5F5F5F5F5F5F5F5F5F5F5E2F5F5F5E2E2E2F5F5F5E2F5F5F5F5F5F5F5F5F5F5F5F5F5F5F5F5BEF5F528F5F5F5F5F5F5F5F5F5F5F5F5F5F5F5F5F5F5F5F5F5F5F5F5F5F5F5F5
310
F5F5F5F5F5F5F5F5F5F5F5F5F5F5F5F5F5F5F5F5F5F5F5F5F5F5F5F5F5F5F5F5F5F5F5F5F5F5F5F5F5F5F5F5F5F5F5F5F5F5F5F5F5F5F5F5F5F5F5F5F5F5F5F5F5F5F5F5F5F5F5F5F5F5F5F5F5F5F5F5F5F5F5F5F5F5F5F5F5F5F5F5F5F5F5F5F5F5F5F5F528F5F5BEF5F5F5F5F5F5F5F5F5F5F5F5F5F5F5F5E2F5F5F5E2E2
310
E2F5F5F5E2F5F5F5F5F5F5F5F5F5F5F5F5F5F5F5F5BEF5F528F5F5F5F5F5F5F5F5F5F5F5F5F5F5F5F5F5F5F5F5F5F5F5F5F5F5F5F5F5F5F5F5F5F5F5F5F5F5F5F5F5F5F5F5F5F5F5F5F5F5F5F5F5F5F5F5F5F5F5F5F5F5F5F5F5F5F5F5F5F5F5F5F5F5F5F5F5F5F5F5F5F5F5F5F5F5F5F5F5F5F5F5F5F5F5F5F5F5F5F5F5F5
310
F5F5F5F5F5F5F5F5F5F5F5F5F5F5F5F5F5F5F5F5F5F5F5F5F5F5F528F5F5BEF5F5F5F5F5F5F5F5F5F5F5F5F5F5F5F5E2F5F5F5E2E2E2F5F5F5E2F5F5F5F5F5F5F5F5F5F5F5F5F5F5F5F5BEF5F528F5F5F5F5F5F5F5F5F5F5F5F5F5F5F5F5F50F0F0F0F0F0FF50F0F0FF5F5F5F5F5F5F5F5F5F5F5F5F5F5F5F5F5F5F50F0F0F
310
F5F5F5F50F0F0FF5F5F5F50F0F0FF5F50F0F0FF5F5F5F50F0F0FF5F5F5F50F0F0FF5F5F5F5F5F5F5F5F5F5F5F5F5F5F5F5F5F5F50F0F0FF50F0F0F0F0FC3C3C3C3C3C3C3C3C3C3C3C3C3C3C3C3F5F5F528F5F5BEF5F5F5F5F5F5F5F5F5F5F5F5F5F5F5F5E2F5F5F5E2E2E2F5F5F5E2F5F5F5F5F5F5F5F5F5F5F5F5F5F5F5F5
310
BEF5F528F5F5F5F5F5F5F5F5F5F5F5F5F5F5F5F5F50F0F0F0F0F0FF50F0F0F0FF5F5F5F5F5F5F5F5F5F5F5F5F5F5F5F5F5F50F0F0FF5F5F5F50F0F0FF5F5F5F50F0F0FF5F50F0F0FF5F5F5F50F0F0FF5F5F5F50F0F0FF5F5F5F5F5F5F5F5F5F5F5F5F5F5F5F5F5F50F0F0F0FF50F0F0F0F0F0FF5F5F5F5F5F5F5F5F5F5F5F5
310
F5C3F5F5F5F528F5F5BEF5F5F5F5F5F5F5F5F5F5F5F5F5F5F5F5E2F5F5F5E2E2E2F5F5F5E2F5F5F5F5F5F5F5F5F5F5F5F5F5F5F5F5BEF5F528F5F5F5F5F5F5F5F5F5F5F5F5F5F5F5F5F5F5F50F0FF5F5F5F5F50F0FF5F5F5F5F5F5F5F5F5F5F5F5F5F5F5F5F5F50F0FF5F5F5F5F50F0FF5F5F5F5F50F0FF5F5F5F50F0FF5F5
310
F5F5F50F0FF5F5F5F5F50F0FF5F5F5F5F5F5F5F5F5F5F5F5F5F5F5F5F5F50F0FF5F5F5F5F50F0FF5F5F5F5F5F5F5F5F5F5F5F5F5F5C3C3F5F5F5F528F5F5BEF5F5F5F5F5F5F5F5F5F5F5F5F5F5F5F5E2F5F5F5E2E2E2F5F5F5E2F5F5F5F5F5F5F5F5F5F5F5F5F5F5F5F5BEF5F528F5F5F5F5F5F5F5F5F5F5F5F5F5F50F0F0F
310
0F0F0F0F0F0F0F0F0F0F0F0F0F0F0F0F0F0F0F0F0F0F0F0F0F0F0F0F0F0F0F0F0F0F0F0F0F0F0F0F0F0F0F0F0F0F0F0F0F0F0F0F0F0F0F0F0F0F0F0F0F0F0F0F0F0F0F0F0F0F0F0F0F0F0F0F0F0F0F0F0F0F0F0F0F0F0F0F0F0F0F0F0F0F0F0F0FF5F5F5F5F5F5F5F5F5F5C3F5F5F5F528F5F5BEF5F5F5F5F5F5F5F5F5F5F5
310
F5F5F5F5F5E2F5F5F5E2E2E2F5F5F5E2F5F5F5F5F5F5F5F5F5F5F5F5F5F5F5F5BEF5F528F5F5F5F5F5F5F5F5F5F5F5F5F50F0F0F0F0F0F0F0F0F0F0F0F0F0F0F0F0F0F0F0F0F0F0F0F0F0F0F0F0F0F0F0F0F0F0F0F0F0F0F0F0F0F0F0F0F0F0F0F0F0F0F0F0F0F0F0F0F0F0F0F0F0F0F0F0F0F0F0F0F0F0F0F0F0F0F0F0F0F
310
0F0F0F0F0F0F0F0F0F0F0F0F0F0F0F0F0F0F0F0F0F0F0F0FF5F5F5F5F5F5F5F5F5C3F5F5F5F528F5F5BEF5F5F5F5F5F5F5F5F5F5F5F5F5F5F5F5E2F5F5F5E2E2E2F5F5F5F5F5F5F5F5F5F5F5F5F5F5F5F5F5F5F5F5BEF5F528F5F5F5F5F5F5F5F5F5F5F5F50F0F0FF5F5F5F5F5F5F5F5F5F5F5F5F5F5F5F5F5F5F5F5F5F5F5
310
F5F5F5F5F5F5F5F5F5F5F5F5F5F5F5F5F5F5F5F5F5F5F5F5F5F5F5F5F5F5F5F5F5F5F5F5F5F5F5F5F5F5F5F5F5F5F5F5F5F5F5F5F5F5F5F5F5F5F5F5F5F5F5F5F5F5F5F5F5F5F5F5F5F5F50F0F0FF5F5F5F5F5F5F5F5C3F5F5F5F528F5F5BEF5F5F5F5F5F5F5F5F5F5F5F5F5F5F5F5F5F5F5F5E2E2E2F5F5F5F5F5F5F5F5F5
310
F5F5F5F5F5F5F5F5F5F5F5BEF5F528F5F5F5F5F5F5F5F5F5F5F5F50F0FF5F5F5F5F5F5F5F5F5F5F5F5F5F5F5F5F5F5F5F5F5F5F5F5F5F5F5F5F5F5F5F5F5F5F5F5F5F5F5F5F5F5F5F5F5F5F5F5F5F5F5F5F5F5F5F5F5F5F5F5F5F5F5F5F5F5F5F5F5F5F5F5F5F5F5F5F5F5F5F5F5F5F5F5F5F5F5F5F5F5F5F5F5F5F5F5F5F5
310
F5F50F0FF5F5F5F5F5F5F5F5C3F5F5F5F528F5F5BEF5F5F5F5F5F5F5F5F5F5F5F5F5F5F5F5F5F5F5F5E2E2E2F5F5F5F5F5F5F5F5F5F5F5F5F5F5F5F5F5F5F5F5BEF5F528F5F5F5F5F5F5F5F5F5F5F5F50F0FF5F5F5F5F5F5F5F5F5F5F5F5F5F5F5F5F5F5F5F5F5F5F5F5F5F5F5F5F5F5F5F5F5F5F5F5F5F5F5F5F5F5F5F5F5
310
F5F5F5F5F5F5F5F5F5F5F5F5F5F5F5F5F5F5F5F5F5F5F5F5F5F5F5F5F5F5F5F5F5F5F5F5F5F5F5F5F5F5F5F5F5F5F5F5F5F5F5F5F5F5F50F0FF5F5F5F5F5F5F5F5C3F5F5F5F528F5F5BEF5F5F5F5F5F5F5F5F5F5F5F5F5F5F5F5F5F5F5F5E2E2E2F5F5F5F5F5F5F5F5F5F5F5F5F5F5F5F5F5F5F5F5BEF5F528F5F5F5F5F5F5
310
F5F5F5F5F5F50F0FF5F5F5F5F5F5F5F5F5F5F5F5F5F5F5F5F5F5F5F5F5F5F5F5F5F5F5F5F5F5F5F5F5F5F5F5F5F5F5F5F5F5F5F5F5F5F5F5F5F5F5F5F5F5F5F5F5F5F5F5F5F5F5F5F5F5F5F5F5F5F5F5F5F5F5F5F5F5F5F5F5F5F5F5F5F5F5F5F5F5F5F5F5F5F5F5F5F5F5F50F0FF5F5F5F5F5F5F5F5C3F5F5F5F528F5F5BE
310
F5F5F5F5F5F5F5F5F5F5F5F5F5F5F5F5F5F5F5F5E2E2E2F5F5F5F5F5F5F5F5F5F5F5F5F5F5F5F5F5F5F5F5BEF5F528F5F5F5F5F5F5F5F5F5F5F5F50F0FF5F5F5F5F5F5F5F5F5F5F5F5F5F5F5F5F5F5F5F5F5F5F5F5F5F5F5F5F5F5F5F5F5F5F5F5F5F5F5F5F5F5F5F5F5F5F5F5F5F5F5F5F5F5F5F5F5F5F5F5F5F5F5F5F5F5
310
F5F5F5F5F5F5F5F5F5F5F5F5F5F5F5F5F5F5F5F5F5F5F5F5F5F5F5F5F5F5F5F5F5F50F0FF5F5F5F5F5F5F5F5C3F5F5F5F528F5F5BEF5F5F5F5F5F5F5F5F5F5F5F5F5F5F5F5F5F5F5F5E2E2E2F5F5F5F5F5F5F5F5F5F5F5F5F5F5F5F5F5F5F5F5BEF5F528F5F5F5F5F5F5F5F5F5F5F5F50F0FF5F5F5F5F5F5F5F5F5F5F5F5F5
310
F5F5F5F5F5F5F5F5F5F5F5F5F5F5F5F5F5F5F5F5F5F5F5F5F5F5F5F5F5F5F5F5F5F5F5F5F5F5F5F5F5F5F5F5F5F5F5F5F5F5F5F5F5F5F5F5F5F5F5F5F5F5F5F5F5F5F5F5F5F5F5F5F5F5F5F5F5F5F5F5F5F5F5F5F5F5F50F0FF5F5F5F5F5F5F5F5C3F5F5F5F528F5F5BEF5F5F5F5F5F5F5F5F5F5F5F5F5F5F5F5F5F5F5F5E2
310
E2E2F5F5F5F5F5F5F5F5F5F5F5F5F5F5F5F5F5F5F5F5BEF5F528F5F5F5F5F5F5F5F5F5F5F5F50F0FF5F5F5F5F5F5F5F5F5F5F5F5F5F5F5F5F5F5F5F5F5F5F5F5F5F5F5F5F5F5F5F5F5F5F5F5F5F5F5F5F5F5F5F5F5F5F5F5F5F5F5F5F5F5F5F5F5F5F5F5F5F5F5F5F5F5F5F5F5F5F5F5F5F5F5F5F5F5F5F5F5F5F5F5F5F5F5
310
F5F5F5F5F5F5F5F5F5F5F5F5F50F0FF5F5F5F5F5F5F5F5C3F5F5F5F528F5F5BEF5F5F5F5F5F5F5F5F5F5F5F5F5F5F5F5F5F5F5F5E2E2E2F5F5F5F5F5F5F5F5F5F5F5F5F5F5F5F5F5F5F5F5BEF5F528F5F5F5F5F5F5F5F5F5F5F5F50F0FF5F5F5F5F5F5F5F5F5F5F5F5F5F5F5F5F5F5F5F5F5F5F5F5F5F5F5F5F5F5F5F5F5F5
310
F5F5F5F5F5F5F5F5F5F5F5F5F5F5F5F5F5F5F5F5F5F5F5F5F5F5F5F5F5F5F5F5F5F5F5F5F5F5F5F5F5F5F5F5F5F5F5F5F5F5F5F5F5F5F5F5F5F5F5F5F5F5F5F5F5F50F0FF5F5F5F5F5F5F5F5C3F5F5F5F528F5F5BEF5F5F5F5F5F5F5F5F5F5F5F5F5F5F5F5F5F5F5F5E2E2E2F5F5F5F5F5F5F5F5F5F5F5F5F5F5F5F5F5F5F5
310
F5BEF5F528C3C3C3C3C3C3C3C3F5F5C30F0FF5C3F5F5F5F5F5F5F5F5F5F5F5F5F5F5F5F5F5F5F5F5F5F5F5F5F5F5F5F5F5F5F5F5F5F5F5F5F5F5F5F5F5F5F5F5F5F5F5F5F5F5F5F5F5F5F5F5F5F5F5F5F5F5F5F5F5F5F5F5F5F5F5F5F5F5F5F5F5F5F5F5F5F5F5F5F5F5F5F5F5F5F5F5F5F5F5F5F5F5F5F50FF5F5F5F5F5F5
310
F5F5C3F5F5F5F528F5F5BEF5F5F5F5F5F5F5F5F5F5F5F5F5F5F5F5F5F5F5F5E2E2E2F5F5F5E2F5F5F5F5F5F5F5F5F5F5F5F5F5F5F5F5BEF5F528F5F5F5F5F5F5F5F5C3C3C3C3C3C3C3C3F5F5F5F5F5F5F5F5F5F5F5F5F5F5F5F5F5F5F5F5F5F5F5F5F5F5F5F5F5F5F5F5F5F5F5F5F5F5F5F5F5F5F5F5F5F5F5F5F5F5F5F5F5
310
F5F5F5F5F5F5F5F5F5F5F5F5F5F5F5F5F5F5F5F5F5F5F5F5F5F5F5F5F5F5F5F5F5F5F5F5F5F5F5F5F5F5F5F5F5F50F0FF5F5F5F5F5F5F5C3F5F5F5F528F5F5BEF5F5F5F5F5F5F5F5F5F5F5F5F5F5F5F5E2F5F5F5E2E2E2F5F5F5E2F5F5F5F5F5F5F5F5F5F5F5F5F5F5F5F5BEF5F528F5F5BEBEBEBEF5F5F5F5F50F0FF5F5F5
310
F5F5F5F5F5F5F5F5F5F5F5F5F5F5F5F5F5F5F5F5F5F5F5F5F5F5F5F5F5F5F5F5F5F5F5F5F5F5F5F5F5F5F5F5F5F5F5F5F5F5F5F5F5F5F5F5F5F5F5F5F5F5F5F5F5F5F5F5F5F5F5F5F5F5F5F5F5F5F5F5F5F5F5F5F5F5F5F5F5F5F5F5F5F5F5F5F5F5F50F0FF5F5F5F5F5F5F5C3F5F5F5F528F5F5BEF5F5F5F5F5F5F5F5F5F5
310
F5F5F5F5F5F5E2F5F5F5E2E2E2F5F5F5E2F5F5F5F5F5F5F5F5F5F5F5F5F5F5F5F5BEF5F528F5F5F5BEBEF5F5F5F5F5F50F0FF5F5F5F5F5F5F5F5F5F5F5F5F5F5F5F5F5F5F5F5F5F5F5F5F5F5F5F5F5F5F5F5F5F5F5F5F5F5F5F5F5F5F5F5F5F5F5F5F5F5F5F5F5F5F5F5F5F5F5F5F5F5F5F5F5F5F5F5F5F5F5F5F5F5F5F5F5
310
F5F5F5F5F5F5F5F5F5F5F5F5F5F5F5F5F5F5F5F5F5F5F5F5F50F0FF5F5F5F5F5F5F5C3F5F5F5F528F5F5BEF5F5F5F5F5F5F5F5F5F5F5F5F5F5F5F5E2F5F5F5E2E2E2F5F5F5E2F5F5F5F5F5F5F5F5F5F5F5F5F5F5F5F5BEF5F528F5F5F5BEF5F5F5F5F5F5F50F0FF5F5F5F5F5F5F5F5F5F5F5F5F5F5F5F5F5F5F5F5F5F5F5F5
310
F5F5F5F5F5F5F5F5F5F5F5F5F5F5F5F5F5F5F5F5F5F5F5F5F5F5F5F5F5F5F5F5F5F5F5F5F5F5F5F5F5F5F5F5F5F5F5F5F5F5F5F5F5F5F5F5F5F5F5F5F5F5F5F5F5F5F5F5F5F5F5F5F5F5F5F5F5F50F0FF5F5C3C3C3C3C3C3C3C3C3F528F5F5BEF5F5F5F5F5F5F5F5F5F5F5F5F5F5F5F5E2F5F5F5E2E2E2F5F5F5E2F5F5F5F5
310
F5F5F5F5F5F5F5F5F5F5F5F5BEF5F528F5F5F5F5F5F5F5F5F5F5F50F0FF5F5F5F5F5F5F5F5F5F5F5F5F5F5F5F5F5F5F5F5F5F5F5F5F5F5F5F5F5F5F5F5F5F5F5F5F5F5F5F5F5F5F5F5F5F5F5F5F5F5F5F5F5F5F5F5F5F5F5F5F5F5F5F5F5F5F5F5F5F5F5F5F5F5F5F5F5F5F5F5F5F5F5F5F5F5F5F5F5F5F5F5F5F5F5F5F5F5
310
F5F5F5F50F0FF5F5C3C3C3C3C3C3C3C3C3F528F5F5BEF5F5F5F5F5F5F5F5F5F5F5F5F5F5F5F5E2F5F5F5E2E2E2F5F5F5E2F5F5F5F5F5F5F5F5F5F5F5F5F5F5F5F5BEF5F528F5F5F5F5F5F5F5F5F5F5F50F0FF5F5F5F5F5F5F5F5F5F5F5F5F5F5F5F5F5F5F5F5F5F5F5F5F5F5F5F5F5F5F5F5F5F5F5F5F5F5F5F5F5F5F5F5F5
310
F5F5F5F5F5F5F5F5F5F5F5F5F5F5F5F5F5F5F5F5F5F5F5F5F5F5F5F5F5F5F5F5F5F5F5F5F5F5F5F5F5F5F5F5F5F5F5F5F5F5F5F5F5F5F5F5F50F0FF5F5F5F5F5F5F5C3F5BEBEBE28F5F5BEF5F5F5F5F5F5F5F5F5F5F5F5F5F5F5F5E2F5F5F5E2E2E2F5F5F5E2F5F5F5F5F5F5F5F5F5F5F5F5F5F5F5F5BEF5F528F5F5F5F5F5
310
F5F5F5F5F5F50F0FF5F5F5F5F5F5F5F5F5F5F5F5F5F5F5F5F5F5F5F5F5F5F5F5F5F5F5F5F5F5F5F5F5F5F5F5F5F5F5F5F5F5F5F5F5F5F5F5F5F5F5F5F5F5F5F5F5F5F5F5F5F5F5F5F5F5F5F5F5F5F5F5F5F5F5F5F5F5F5F5F5F5F5F5F5F5F5F5F5F5F5F5F5F5F5F5F5F5F5F5F5F50F0FF5F5F5F5F5F5F5C3F5BEBEBE28F5F5
310
BEF5F5F5F5F5F5F5F5F5F5F5F5F5F5F5F5E2F5F5F5E2E2E2F5F5F5E2F5F5F5F5F5F5F5F5F5F5F5F5F5F5F5F5BEF5F528F5F5F5F5F5F5F5F5F5F5F50F0FF5F5F5F5F5F5F5F5F5F5F5F5F5F5F5F5F5F5F5F5F5F5F5F5F5F5F5F5F5F5F5F5F5F5F5F5F5F5F5F5F5F5F5F5F5F5F5F5F5F5F5F5F5F5F5F5F5F5F5F5F5F5F5F5F5F5
310
F5F5F5F5F5F5F5F5F5F5F5F5F5F5F5F5F5F5F5F5F5F5F5F5F5F5F5F5F5F5F5F5F5F5F5F50F0FF5F5F5F5F5F5F5C3F5F5BEF528F5F5BEF5F5F5F5F5F5F5F5F5F5F5F5F5F5F5F5E2F5F5F5E2E2E2F5F5F5E2F5F5F5F5F5F5F5F5F5F5F5F5F5F5F5F5BEF5F528F5F5F5F5F5F5F5F5F5F5F50F0FF5F5F5F5F5F5F5F5F5F5F5F5F5
310
F5F5F5F5F5F5F5F5F5F5F5F5F5F5F5F5F5F5F5F5F5F5F5F5F5F5F5F5F5F5F5F5F5F5F5F5F5F5F5F5F5F5F5F5F5F5F5F5F5F5F5F5F5F5F5F5F5F5F5F5F5F5F5F5F5F5F5F5F5F5F5F5F5F5F5F5F5F5F5F5F5F5F5F5F5F5F5F5F50F0FF5F5F5F5F5F5F5C3F5F5F5F528F5F5BEF5F5F5F5F5F5F5F5F5F5F5F5F5F5F5F5E2F5F5F5
310
E2E2E2F5F5F5E2F5F5F5F5F5F5F5F5F5F5F5F5F5F5F5F5BEF5F528F5F5F5F5F5F5F5F5F5F5F50FF5F5F5F5F5F5F5F5F5F5F5F5F5F5F5F5F5F5F5F5F5F5F5F5F5F5F5F5F5F5F5F5F5F5F5F5F5F5F5F5F5F5F5F5F5F5F5F5F5F5F5F5F5F5F5F5F5F5F5F5F5F5F5F5F5F5F5F5F5F5F5F5F5F5F5F5F5F5F5F5F5F5F5F5F5F5F5F5
310
F5F5F5F5F5F5F5F5F5F5F5F5F5F5F5F50FF5F5F5F5F5F5F5C3F5F5F5F528F5F5BEF5F5F5F5F5F5F5F5F5F5F5F5F5F5F5F5E2F5F5F5E2E2E2F5F5F5E2F5F5F5F5F5F5F5F5F5F5F5F5F5F5F5F5BEF5F528F5F5F5F5F5F5F5F5F5F5F50FF5F5F5F5F5F5F5F5F5F5F5F5F5F5F5F5F5F5F5F5F5F5F5F5F5F5F5F5F5F5F5F5F5F5F5
310
F5F5F5F5F5F5F5F5F5F5F5F5F5F5F5F5F5F5F5F5F5F5F5F5F5F5F5F5F5F5F5F5F5F5F5F5F5F5F5F5F5F5F5F5F5F5F5F5F5F5F5F5F5F5F5F5F5F5F5F5F5F5F5F5F5F5F5F5F50FF5F5F5F5F5F5F5C3F5F5F5F528F5F5BEF5F5F5F5F5F5F5F5F5F5F5F5F5F5F5F5E2F5F5F5E2E2E2F5F5F5E2F5F5F5F5F5F5F5F5F5F5F5F5F5F5
310
F5F5BEF5F528F5F5F5F5F5F5F5F5F5F50F0FF5F5F5F5F5F5F5F5F5F5F5F5F5F5F5F5F5F5F5F5F5F5F5F5F5F5F5F5F5F5F5F5F5F5F5F5F5F5F5F5F5F5F5F5F5F5F5F5F5F5F5F5F5F5F5F5F5F5F5F5F5F5F5F5F5F5F5F5F5F5F5F5F5F5F5F5F5F5F5F5F5F5F5F5F5F5F5F5F5F5F5F5F5F5F5F5F5F5F5F5F5F5F5F50FF5F5F5F5
310
F5F5F5C3F5F5F5F528F5F5BEF5F5F5F5F5F5F5F5F5F5F5F5F5F5F5F5E2F5F5F5E2E2E2F5F5F5E2F5F5F5F5F5F5F5F5F5F5F5F5F5F5F5F5BEF5F528F5F5F5F5F5F5F5F5F5F50F0FF5F5F5F5F5F5F5F5F5F5F5F5F5F5F5F5F5F5F5F5F5F5F5F5F5F5F5F5F5F5F5F5F5F5F5F5F5F5F5F5F5F5F5F5F5F5F5F5F5F5F5F5F5F5F5F5
310
F5F5F5F5F5F5F5F5F5F5F5F5F5F5F5F5F5F5F5F5F5F5F5F5F5F5F5F5F5F5F5F5F5F5F5F5F5F5F5F5F5F5F5F5F5F5F5F50F0FF5F5F5F5F5F5C3F5F5F5F528F5F5BEF5F5F5F5F5F5F5F5F5F5F5F5F5F5F5F5E2F5F5F5E2E2E2F5F5F5E2F5F5F5F5F5F5F5F5F5F5F5F5F5F5F5F5BEF5F528F5F5F5F5F5F5F5F5F5F50F0FF5F5F5
310
F5F5F5F5F5F5F5F5F5F5F5F5F5F5F5F5F5F5F5F5F5F5F5F5F5F5F5F5F5F5F5F5F5F5F5F5F5F5F5F5F5F5F5F5F5F5F5F5F5F5F5F5F5F5F5F5F5F5F5F5F5F5F5F5F5F5F5F5F5F5F5F5F5F5F5F5F5F5F5F5F5F5F5F5F5F5F5F5F5F5F5F5F5F5F5F5F5F5F5F5F50F0FF5F5F5F5F5F5C3F5F5F5F528F5F5BEF5F5F5F5F5F5F5F5F5
310
F5F5F5F5F5F5F5E2F5F5F5E2E2E2F5F5F5E2F5F5F5F5F5F5F5F5F5F5F5F5F5F5F5F5BEF5F528F5F5F5F5F5F5F5F5F5F50F0FF5F5F5F5F5F5F5F5F5F5F5F5F5F5F5F5F5F5F5F5F5F5F5F5F5F5F5F5F5F5F5F5F5F5F5F5F5F5F5F5F5F5F5F5F5F5F5F5F5F5F5F5F5F5F5F5F5F5F5F5F5F5F5F5F5F5F5F5F5F5F5F5F5F5F5F5F5
310
F5F5F5F5F5F5F5F5F5F5F5F5F5F5F5F5F5F5F5F5F5F5F5F5F5F5F50F0FF5F5F5F5F5F5C3F5F5F5F528F5F5BEF5F5F5F5F5F5F5F5F5F5F5F5F5F5F5F5E2F5F5F5E2E2E2F5F5F5E2F5F5F5F5F5F5F5F5F5F5F5F5F5F5F5F5BEF5F528F5F5F5F5F5F5F5F5F5F50F0F0F0F0FF5F5F5F5F5F5F5F5F5F5F5F5F5F5F5F5F5F5F5F5F5
310
F5F5F5F5F5F5F5F5F5F5F5F5F5F5F5F5F5F5F5F5F5F5F5F5F5F5F5F5F5F5F5F5F5F5F5F5F5F5F5F5F5F5F5F5F5F5F5F5F5F5F5F5F5F5F5F5F5F5F5F5F5F5F5F5F5F5F5F5F5F5F5F5F5F5F5F5F50F0F0F0F0FF5F5F5F5F5F5C3F5F5F5F528F5F5BEF5F5F5F5F5F5F5F5F5F5F5F5F5F5F5F5E2F5F5F5E2E2E2F5F5F5E2F5F5F5
310
F5F5F5F5F5F5F5F5F5F5F5F5F5BEF5F528F5F5F5F5F5F5F5F5F5F50F0F0F0F0FF5F5F5F5F5F5F5F5F5F5F5F5F5F5F5F5F5F5F5F5F5F5F5F5F5F5F5F5F5F5F5F5F5F5F5F5F5F5F5F5F5F5F5F5F5F5F5F5F5F5F5F5F5F5F5F5F5F5F5F5F5F5F5F5F5F5F5F5F5F5F5F5F5F5F5F5F5F5F5F5F5F5F5F5F5F5F5F5F5F5F5F5F5F5F5
310
F5F5F50F0F0F0F0FF5F5F5F5F5F5C3F5F5F5F528F5F5BEF5F5F5F5F5F5F5F5F5F5F5F5F5F5F5F5E2F5F5F5E2E2E2F5F5F5F5F5F5F5F5F5F5F5F5F5F5F5F5F5F5F5F5BEF5F528F5F5F5F5F5F5F5F5F5F5C30F0F0F0FF5F5F5F5F5F5F5F5F5F5F5F5F5F5F5F5F5F5F5F5F5F5F5F5F5F5F5F5F5F5F5F5F5F5F5F5F5F5F5F5F5F5
310
F5F5F5F5F5F5F5F5F5F5F5F5F5F5F5F5F5F5F5F5F5F5F5F5F5F5F5F5F5F5F5F5F5F5F5F5F5F5F5F5F5F5F5F5F5F5F5F5F5F5F5F5F5F5F5F50F0F0F0FC3F5F5F5F5F5F5C3F5F5F5F528F5F5BEF5F5F5F5F5F5F5F5F5F5F5F5F5F5F5F5F5F5F5F5E2E2E2F5F5F5F5F5F5F5F5F5F5F5F5F5F5F5F5F5F5F5F5BEF5F528F5F5F5F5
310
F5F5F5F5F5F5C30F0F0F0FF5F5F5F5F5F5F5F5F5F5F5F5F5F5F5F5F5F5F5F5F5F5F5F5F5F5F5F5F5F5F5F5F5F5F5F5F5F5F5F5F5F5F5F5F5F5F5F5F5F5F5F5F5F5F5F5F5F5F5F5F5F5F5F5F5F5F5F5F5F5F5F5F5F5F5F5F5F5F5F5F5F5F5F5F5F5F5F5F5F5F5F5F5F5F5F5F5F50F0F0F0FC3F5F5F5F5F5F5C3F5F5F5F528F5
310
F5BEF5F5F5F5F5F5F5F5F5F5F5F5F5F5F5F5F5F5F5F5E2E2E2F5F5F5F5F5F5F5F5F5F5F5F5F5F5F5F5F5F5F5F5BEF5F528F5F5F5F5F5F5F5F5F5F5C30F0F0F0FF5F5F5F5F5F5F5F5F5F5F5F5F5F5F5F5F5F5F5F5F5F5F5F5F5F5F5F5F5F5F5F5F5F5F5F5F5F5F5F5F5F5F5F5F5F5F5F5F5F5F5F5F5F5F5F5F5F5F5F5F5F5F5
310
F5F5F5F5F5F5F5F5F5F5F5F5F5F5F5F5F5F5F5F5F5F5F5F5F5F5F5F5F5F5F5F5F5F5F50F0F0F0FC3F5F5F5F5F5F5C3F5F5F5F528F5F5BEF5F5F5F5F5F5F5F5F5F5F5F5F5F5F5F5F5F5F5F5E2E2E2F5F5F5F5F5F5F5F5F5F5F5F5F5F5F5F5F5F5F5F5BEF5F528F5F5F5F5F5F5F5F5F5F5C30F0F0F0FF5F5F5F5F5F5F5F5F5F5
310
F5F5F5F5F5F5F5F5F5F5F5F5F5F5F5F5F5F5F5F5F5F5F5F5F5F5F5F5F5F5F5F5F5F5F5F5F5F5F5F5F5F5F5F5F5F5F5F5F5F5F5F5F5F5F5F5F5F5F5F5F5F5F5F5F5F5F5F5F5F5F5F5F5F5F5F5F5F5F5F5F5F5F5F5F5F5F5F50F0F0F0FC3F5F5F5F5F5C3C3F5F5F5F528F5F5BEF5F5F5F5F5F5F5F5F5F5F5F5F5F5F5F5F5F5F5
310
F5E2E2E2F5F5F5F5F5F5F5F5F5F5F5F5F5F5F5F5F5F5F5F5BEF5F528F5F5F5F5F5F5F5F5F5F5C30F0F0FF5F5F5F5F5F5F5F5F5F5F5F5F5F5F5F5F5F5F5F5F5F5F5F5F5F5F5F5F5F5F5F5F5F5F5F5F5F5F5F5F5F5F5F5F5F5F5F5F5F5F5F5F5F5F5F5F5F5F5F5F5F5F5F5F5F5F5F5F5F5F5F5F5F5F5F5F5F5F5F5F5F5F5F5F5
310
F5F5F5F5F5F5F5F5F5F5F5F5F5F5F50F0FC3C3C3C3C3C3C3C3C3C3F5F5F528F5F5BEF5F5F5F5F5F5F5F5F5F5F5F5F5F5F5F5F5F5F5F5E2E2E2F5F5F5F5F5F5F5F5F5F5F5F5F5F5F5F5F5F5F5F5BEF5F528F5F5F5F5F5F5F5F5F5F5C3F5F5F5F5F5F5F5F5F5F5F5F5F5F5F5F5F5F5F5F5F5F5F5F5F5F5F5F5F5F5F5F5F5F5F5
310
F5F5F5F5F5F5F5F5F5F5F5F5F5F5F5F5F5F5F5F5F5F5F5F5F5F5F5F5F5F5F5F5F5F5F5F5F5F5F5F5F5F5F5F5F5F5F5F5F5F5F5F5F5F5F5F5F5F5F5F5F5F5F5F5F5F5F5F5F5F5F5C3F5F5F5F5F5F5F5F5F5F5F528F5F5BEF5F5F5F5F5F5F5F5F5F5F5F5F5F5F5F5F5F5F5F5E2E2E2F5F5F5F5F5F5F5F5F5F5F5F5F5F5F5F5F5
310
F5F5F5BEF5F528F5F5F5F5F5F5F5F5F5F5C3F5F5F5F5F5F5F5F5F5F5F5F5F5F5F5F5F5F5F5F5F5F5F5F5F5F5F5F5F5F5F5F5F5F5F5F5F5F5F5F5F5F5F5F5F5F5F5F5F5F5F5F5F5F5F5F5F5F5F5F5F5F5F5F5F5F5F5F5F5F5F5F5F5F5F5F5F5F5F5F5F5F5F5F5F5F5F5F5F5F5F5F5F5F5F5F5F5F5F5F5F5F5F5F5F5F5C3F5F5
310
F5F5F5F5F5F5F5F5F528F5F5BEF5F5F5F5F5F5F5F5F5F5F5F5F5F5F5F5F5F5F5F5E2E2E2F5F5F5F5F5F5F5F5F5F5F5F5F5F5F5F5F5F5F5F5BEF5F528F5F5F5F5F5F5F5F5F5F5C3F5F5F5F5F5F5F5F5F5F5F5F5F5F5F5F5F5F5F5F5F5F5F5F5F5F5F5F5F5F5F5F5F5F5F5F5F5F5F5F5F5F5F5F5F5F5F5F5F5F5F5F5F5F5F5F5
310
F5F5F5F5F5F5F5F5F5F5F5F5F5F5F5F5F5F5F5F5F5F5F5F5F5F5F5F5F5F5F5F5F5F5F5F5F5F5F5F5F5F5F5F5F5F5F5F5F5F5C3F5F5F5F5F5F5F5F5F5F5F528F5F5BEF5F5F5F5F5F5F5F5F5F5F5F5F5F5F5F5F5F5F5F5E2E2E2F5F5F5F5F5F5F5F5F5F5F5F5F5F5F5F5F5F5F5F5BEF5F528F5F5F5F5F5F5F5F5F5F5C3F5F5F5
310
F5F5F5F5F5F5F5F5F5F5F5F5F5F5F5F5F5F5F5F5F5F5F5F5F5F5F5F5F5F5F5F5F5F5F5F5F5F5F5F5F5F5F5F5F5F5F5F5F5F5F5F5F5F5F5F5F5F5F5F5F5F5F5F5F5F5F5F5F5F5F5F5F5F5F5F5F5F5F5F5F5F5F5F5F5F5F5F5F5F5F5F5F5F5F5F5F5F5F5F5F5F5F5C3F5F5F5F5F5F5F5F5F5F5F528F5F5BEF5F5F5F5F5F5F5F5
310
F5F5F5F5F5F5F5F5F5F5F5F5E2E2E2F5F5F5E2F5F5F5F5F5F5F5F5F5F5F5F5F5F5F5F5BEF5F528F5F5F5F5F5F5F5F5F5F5C3F5F5F5F5F5F5F5F5F5F5F5F5F5F5F5F5F5F5F5F5F5F5F5F5F5F5F5F5F5F5F5F5F5F5F5F5F5F5F5F5F5F5F5F5F5F5F5F5F5F5F5F5F5F5F5F5F5F5F5F5F5F5F5F5F5F5F5F5F5F5F5F5F5F5F5F5F5
310
F5F5F5F5F5F5F5F5F5F5F5F5F5F5F5F5F5F5F5F5F5F5F5F5F5F5F5F5F5C3F5F5F5F5F5F5F5F5F5F5F528F5F5BEF5F5F5F5F5F5F5F5F5F5F5F5F5F5F5F5E2F5F5F5E2E2E2F5F5F5E2F5F5F5F5F5F5F5F5F5F5F5F5F5F5F5F5BEF5F528F5F5F5F5F5F5F5F5F5F5C3F5F5F5F5F5F5F5F5F5F5F5F5F5F5F5F5F5F5F5F5F5F5F5F5
310
F5F5F5F5F5F5F5F5F5F5F5F5F5F5F5F5F5F5F5F5F5F5F5F5F5F5F5F5F5F5F5F5F5F5F5F5F5F5F5F5F5F5F5F5F5F5F5F5F5F5F5F5F5F5F5F5F5F5F5F5F5F5F5F5F5F5F5F5F5F5F5F5F5F5F5F5F5F5F5F5F5F5C3F5F5F5F5F5F5F5F5F5F5F528F5F5BEF5F5F5F5F5F5F5F5F5F5F5F5F5F5F5F5E2F5F5F5E2E2E2F5F5F5E2F5F5
310
F5F5F5F5F5F5F5F5F5F5F5F5F5F5BEF5F528F5F5F5F5F5F5F5F5F5F5C3C3C3C3C3C3C3C3C3C3C3C3C3C3C3C3C3C3C3C3C3C3C3C3C3C3C3C3C3C3C3C3C3C3C3C3C3C3C3C3C3C3C3C3C3C3C3C3C3C3C3C3C3C3C3C3C3C3C3C3C3C3C3C3C3C3C3C3C3C3C3C3C3C3C3C3C3C3C3C3C3C3C3C3C3C3C3C3C3C3C3C3C3C3C3C3C3C3C3
310
C3C3C3C3C3C3C3C3C3F5F5F5F5F5F5F5F5F5F5F528F5F5BEF5F5F5F5F5F5F5F5F5F5F5F5F5F5F5F5E2F5F5F5E2E2E2F5F5F5E2F5F5F5F5F5F5F5F5F5F5F5F5F5F5F5F5BEF5F528F5F5F5F5F5F5F5F5F5F5C3C3C3F5F5F5F5F5F5F5F5F5F5F5F5F5F5F5F5F5F5F5F5F5F5F5F5F5F5F5F5F5F5F5F5F5F5F5F5F5F5F5F5F5F5F5
310
F5F5F5F5F5F5F5F5F5F5F5F5F5F5F5F5F5F5F5F5F5F5F5F5F5F5F5F5F5F5F5F5F5F5F5F5F5F5F5F5F5F5F5F5F5F5F5F5F5F5F5F5F5F5F5F5F5F5F5C3C3C3F5F5F5F5F5F5F5F5F5F5F528F5F5BEF5F5F5F5F5F5F5F5F5F5F5F5F5F5F5F5E2F5F5F5E2E2E2F5F5F5E2F5F5F5F5F5F5F5F5F5F5F5F5F5F5F5F5BEF5F528F5F5F5
310
F5F5F5F5F5F5F5F5F5F5F5F5F5F5F5F5F5F5F5F5F5F5F5F5F5F5F5F5F5F5F5F5F5F5F5F5F5F5F5F5F5F5F5F5F5F5F5F5F5F5F5F5F5F5F5F5F5F5F5F5F5F5F5F5F5F5F5F5F5F5F5F5F5F5F5F5F5F5F5F5F5F5F5F5F5F5F5F5F5F5F5F5F5F5F5F5F5F5F5F5F5F5F5F5F5F5F5F5F5F5F5F5F5F5F5F5F5F5F5F5F5F5F5F5F5F528
310
F5F5BEF5F5F5F5F5F5F5F5F5F5F5F5F5F5F5F5E2F5F5F5E2E2E2F5F5F5E2F5F5F5F5F5F5F5F5F5F5F5F5F5F5F5F5BEF5F528F5F5F5F5F5F5F5F5F5F5F5F5F5F5F5F5F5F5F5F5F5F5F5F5F5F5F5F5F5F5F5F5F5F5F5F5F5F5F5F5F5F5F5F5F5F5F5F5F5F5F5F5F5F5F5F5F5F5F5F5F5F5F5F5F5F5F5F5F5F5F5F5F5F5F5F5F5
310
F5F5F5F5F5F5F5F5F5F5F5F5F5F5F5F5F5F5F5F5F5F5F5F5F5F5F5F5F5F5F5F5F5F5F5F5F5F5F5F5F5F5F5F5F5F5F5F5F5F5F5F528F5F5BEF5F5F5F5F5F5F5F5F5F5F5F5F5F5F5F5E2F5F5F5E2E2E2F5F5F5E2F5F5F5F5F5F5F5F5F5F5F5F5F5F5F5F5BEF5F528F5F5F5F5F5F5F5F5F5F5F5F5F5F5F5F5F5F5F5F5F5F5F5F5
310
F5F5F5F5F5F5F5F5F5F5F5F5F5F5F5F5F5F5F5F5F5F5F5F5F5F5F5F5F5F5F5F5F5F5F5F5F5F5F5F5F5F5F5F5F5F5F5F5F5F5F5F5F5F5F5F5F5F5F5F5F5F5F5F5F5F5F5F5F5F5F5F5F5F5F5F5F5F5F5F5F5F5F5F5F5F5F5F5F5F5F5F5F5F5F5F5F5F5F5F5F5F5F5F5F528F5F5BEF5F5F5F5F5F5F5F5F5F5F5F5F5F5F5F5E2F5
310
F5F5E2E2E2F5F5F5E2F5F5F5F5F5F5F5F5F5F5F5F5F5F5F5F5BEF5F528F5F5F5F5F5F5F5F5F5F5F5F5F5F5F5F5F5F5F5F5F5F5F5F5F5F5F5F5F5F5F5F5F5F5F5F5F5F5F5F5F5F5F5F5F5F5F5F5F5F5F5F5F5F5F5F5F5F5F5F5F5F5F5F5F5F5F5F5F5F5F5F5F5F5F5F5F5F5F5F5F5F5F5F5F5F5F5F5F5F5F5F5F5F5F5F5F5F5
310
F5F5F5F5F5F5F5F5F5F5F5F5F5F5F5F5F5F5F5F5F5F5F5F5F5F5F5F5F5F5F528F5F5BEF5F5F5F5F5F5F5F5F5F5F5F5F5F5F5F5E2F5F5F5E2E2E2F5F5F5E2F5F5F5F5F5F5F5F5F5F5F5F5F5F5F5F5BEF5F528F5F5F5F5F5F5F5F5F5F5F5F5F5F5F5F5F5F5F5F5F5F5F5F5F5F5F5F5F5F5F5F5F5F5F5F5F5F5F5F5F5F5F5F5F5
310
F5F5F5F5F5F5F5F5F5F5F5F5F5F5F5F5F5F5F5F5F5F5F5F5F5F5F5F5F5F5F5F5F5F5F5F5F5F5F5F5F5F5F5F5F5F5F5F5F5F5F5F5F5F5F5F5F5F5F5F5F5F5F5F5F5F5F5F5F5F5F5F5F5F5F5F5F5F5F5F5F5F5F5F528F5F5BEF5F5F5F5F5F5F5F5F5F5F5F5F5F5F5F5E2F5F5F5E2E2E2F5F5F5E2F5F5F5F5F5F5F5F5F5F5F5F5
310
F5F5F5F5BEF5F528F5F5F5F5F5F5F5F5F5F5F5F5F5F5F5F5F5F5F5F5F5F5F5F5F5F5F5F5F5F5F5F5F5F5F5F5F5F5F5F5F5F5F5F5F5F5F5F5F5F5F5F5F5F5F5F5F5F5F5F5F5F5F5F5F5F5F5F5F5F5F5F5F5F5F5F5F5F5F5F5F5F5F5F5F5F5F5F5F5F5F5F5F5F5F5F5F5F5F5F5F5F5F5F5F5F5F5F5F5F5F5F5F5F5F5F5F5F5F5
310
F5F5F5F5F5F5F5F5F5F528F5F5BEF5F5F5F5F5F5F5F5F5F5F5F5F5F5F5F5E2F5F5F5E2E2E2F5F5F5E2F5F5F5F5F5F5F5F5F5F5F5F5F5F5F5F5BEF5F528282828282828282828282828282828282828282828282828282828282828282828282828282828282828282828282828282828282828282828282828282828282828
310
28282828282828282828282828282828282828282828282828282828282828282828282828282828282828282828282828282828282828282828282828282828F5F5BEF5F5F5F5F5F5F5F5F5F5F5F5F5F5F5F5E2F5F5F5E2E2E2F5F5F5E2F5F5F5F5F5F5F5F5F5F5F5F5F5F5F5F5BEF5F5F5F5F5F5F5F5F5F5F5F5F5F5F5F5
310
F5F5F5F5F5F5F5F5F5F5F5F5F5F5F5F5F5F5F5F5F5F5F5F5F5F5F5F5F5F5F5F5F5F5F5F5F5F5F5F5F5F5F5F5F5F5F5F5F5F5F5F5F5F5F5F5F5F5F5F5F5F5F5F5F5F5F5F5F5F5F5F5F5F5F5F5F5F5F5F5F5F5F5F5F5F5F5F5F5F5F5F5F5F5F5F5F5F5F5F5F5F5F5F5F5F5F5F5F5F5F5F5F5F5F5F5F5F5F5BEF5F5F5F5F5F5F5
310
F5F5F5F5F5F5F5F5F5E2F5F5F5E2E2E2F5F5F5E2F5F5F5F5F5F5F5F5F5F5F5F5F5F5F5F5BE28F5F5F5F5F5F5F5F5F5F5F5F5F5F5F5F5F5F5F5F5F5F5F5F5F5F5F5F5F5F5F5F5F5F5F5F5F5F5F5F5F5F5F5F5F5F5F5F5F5F5F5F5F5F5F5F5F5F5F5F5F5F5F5F5F5F5F5F5F5F5F5F5F5F5F5F5F5F5F5F5F5F5F5F5F5F5F5F5F5
310
F5F5F5F5F5F5F5F5F5F5F5F5F5F5F5F5F5F5F5F5F5F5F5F5F5F5F5F5F5F5F5F5F5F5F5F5F5F5F5F5F5F5F5F528BEF5F5F5F5F5F5F5F5F5F5F5F5F5F5F5F5E2F5F5F5E2E2E2F5F5F5E2F5F5F5F5F5F5F5F5F5F5F5F5F5F5F5F5BEF5F5F5F5F5F5F5F5F5F5F5F5F5F5F5F5F5F5F5F5F5F5F5F5F5F5F5F5F5F5F5F5F5F5F5F5F5
310
F5F5F5F5F5F5F5F5F5F5F5F5F5F5F5F5F5F5F5F5F5F5F5F5F5F5F5F5F5F5F5F5F5F5F5F5F5F5F5F5F5F5F5F5F5F5F5F5F5F5F5F5F5F5F5F5F5F5F5F5F5F5F5F5F5F5F5F5F5F5F5F5F5F5F5F5F5F5F5F5F5F5F5F5F5F5F5F5F5F5F5F5F5F5F5F5F5F5BEF5F5F5F5F5F5F5F5F5F5F5F5F5F5F5F5E2F5F5F5E2E2E2F5F5F5E2F5
310
F5F5F5F5F5F5F5F5F5F5F5F5F5F5F5BEF5F5F5F5F5F5F5F5F5F5F5F5F5F5F5F5F5F5F5F5F5F5F5F5F5F5F5F5F5F5F5F5F5F5F5F5F5F5F5F5F5F5F5F5F5F5F5F5F5F5F5F5F5F5F5F5F5F5F5F5F5F5F5F5F5F5F5F5F5F5F5F5F5F5F5F5F5F5F5F5F5F5F5F5F5F5F5F5F5F5F5F5F5F5F5F5F5F5F5F5F5F5F5F5F5F5F5F5F5F5F5
310
F5F5F5F5F5F5F5F5F5F5F5F5F5F5F5F5F5F5F5F5F5F5F5F5BEF5F5F5F5F5F5F5F5F5F5F5F5F5F5F5F5E2F5F5F5E2E2E2F5F5F5E2F5F5F5F5F5F5F5F5F5F5F5F5F5F5F5F5BEF5F5F5F5F5F5F5F5F5F5F5F5F5F5F5F5F5F5F5F5F5F5F5F5F5F5F5F5F5F5F5F5F5F5F5F5F5F5F5F5F5F5F5F5F5F5F5F5F5F5F5F5F5F5F5F5F5F5
310
F5F5F5F5F5F5F5F5F5F5F5F5F5F5F5F5F5F5F5F5F5F5F5F5F5F5F5F5F5F5F5F5F5F5F5F5F5F5F5F5F5F5F5F5F5F5F5F5F5F5F5F5F5F5F5F5F5F5F5F5F5F5F5F5F5F5F5F5F5F5F5F5F5F5F5F5F5BEF5F5F5F5F5F5F5F5F5F5F5F5F5F5F5F5E2F5F5F5E2E2E2F5F5F5E2F5F5F5F5F5F5F5F5F5F5F5F5F5F5F5F5BEF5F5F5F5F5
310
F5F5F5F5F5F5F5F5F5F5F5F5F5F5F5F5F5F5F5F5F5F5F5F5F5F5F5F5F5F5F5F5F5F5F5F5F5F5F5F5F5F5F5F5F5F5F5F5F5F5F5F5F5F5F5F5F5F5F5F5F5F5F5F5F5F5F5F5F5F5F5F5F5F5F5F5F5F5F5F5F5F5F5F5F5F5F5F5F5F5F5F5F5F5F5F5F5F5F5F5F5F5F5F5F5F5F5F5F5F5F5F5F5F5F5F5F5F5F5F5F5F5F5F5F5F5F5
310
F5F5F5BEF5F5F5F5F5F5F5F5F5F5F5F5F5F5F5F5E2F5F5F5E2E2E2F5F5F5F5F5F5F5F5F5F5F5F5F5F5F5F5F5F5F5F5BEF5F5F5F5F5F5F5F5F5F5F5F5F5F5F5F5F5F5F5F5F5F5F5F5F5F5F5F5F5F5F5F5F5F5F5F5F5F5F5F5F5F5F5F5F5F5F5F5F5F5F5F5F5F5F5F5F5F5F5F5F5F5F5F5F5F5F5F5F5F5F5F5F5F5F5F5F5F5F5
310
F5F5F5F5F5F5F5F5F5F5F5F5F5F5F5F5F5F5F5F5F5F5F5F5F5F5F5F5F5F5F5F5F5F5F5F5F5F5F5F5F5F5F5F5F5F5F5F5F5F5F5F5F5F5F5F5BEF5F5F5F5F5F5F5F5F5F5F5F5F5F5F5F5F5F5F5F5E2E2E2F5F5F5F5F5F5F5F5F5F5F5F5F5F5F5F5F5F5F5F5BEF5F5F5F5F5F5F5F5F5F5F5F5F5F5F5F5F5F5F5F5F5F5F5F5F5F5
310
F5F5F5F5F5F5F5F5F5F5F5F5F5F5F5F5F5F5F5F5F5F5F5F5F5F5F5F5F5F5F5F5F5F5F5F5F5F5F5F5F5F5F5F5F5F5F5F5F5F5F5F5F5F5F5F5F5F5F5F5F5F5F5F5F5F5F5F5F5F5F5F5F5F5F5F5F5F5F5F5F5F5F5F5F5F5F5F5F5F5F5F5F5F5F5F5F5F5F5F5F5F5F5F5F5F5F5F5F5BEF5F5F5F5F5F5F5F5F5F5F5F5F5F5F5F5F5
310
F5F5F5E2E2E2F5F5F5F5F5F5F5F5F5F5F5F5F5F5F5F5F5F5F5F5BEF5F5F5F5F5F5F5F5F5F5F5F5F5F5F5F5F5F5F5F5F5F5F5F5F5F5F5F5F5F5F5F5F5F5F5F5F5F5F5F5F5F5F5F5F5F5F5F5F5F5F5F5F5F5F5F5F5F5F5F5F5F5F5F5F5F5F5F5F5F5F5F5F5F5F5F5F5F5F5F5F5F5F5F5F5F5F5F5F5F5F5F5F5F5F5F5F5F5F5F5
310
F5F5F5F5F5F5F5F5F5F5F5F5F5F5F5F5F5F5F5F5F5F5F5F5F5F5F5F5F5F5F5F5F5F5F5BEF5F5F5F5F5F5F5F5F5F5F5F5F5F5F5F5F5F5F5F5E2E2E2F5F5F5F5F5F5F5F5F5F5F5F5F5F5F5F5F5F5F5F5BEF5F5F5F5F5F5F5F5F5F5F5F5F5F5F5F5F5F5F5F5F5F5F5F5F5F5F5F5F5F5F5F5F5F5F5F5F5F5F5F5F5F5F5F5F5F5F5
310
F5F5F5F5F5F5F5F5F5F5F5F5F5F5F5F5F5F5F5F5F5F5F5F5F5F5F5F5F5F5F5F5F5F5F5F5F5F5F5F5F5F5F5F5F5F5F5F5F5F5F5F5F5F5F5F5F5F5F5F5F5F5F5F5F5F5F5F5F5F5F5F5F5F5F5F5F5F5F5F5F5F5F5F5F5F5F5F5BEF5F5F5F5F5F5F5F5F5F5F5F5F5F5F5F5F5F5F5F5E2E2E2F5F5F5F5F5F5F5F5F5F5F5F5F5F5F5
310
F5F5F5F5F5BEBEBEBEBEBEBEBEBEBEBEBEBEBEBEBEBEBEBEBEBEBEBEBEBEBEBEBEBEBEBEBEBEBEBEBEBEBEBEBEBEBEBEBEBEBEBEBEBEBEBEBEBEBEBEBEBEBEBEBEBEBEBEBEBEBEBEBEBEBEBEBEBEBEBEBEBEBEBEBEBEBEBEBEBEBEBEBEBEBEBEBEBEBEBEBEBEBEBEBEBEBEBEBEBEBEBEBEBEBEBEBEBEBEBEBEBEBEBEBEBEBE
310
BEBEBEBEBEBEBEBEBEBEBEBEBEBEBEF5F5F5F5F5F5F5F5F5F5F5F5F5F5F5F5F5F5F5F5E2E2E2F5F5F5F5F5F5F5F5F5F5F5F5F5F5F5F5F5F5F5F5F5F5F5F5F5F5F5F5F5F5F5F5F5F5F5F5F5F5F5F5F5F5F5F5F5F5F5F5F5F5F5F5F5F5F5F5F5F5F5F5F5F5F5F5F5F5F5F5F5F5F5F5F5F5F5F5F5F5F5F5F5F5F5F5F5F5F5F5F5
310
F5F5F5F5F5F5F5F5F5F5F5F5F5F5F5F5F5F5F5F5F5F5F5F5F5F5F5F5F5F5F5F5F5F5F5F5F5F5F5F5F5F5F5F5F5F5F5F5F5F5F5F5F5F5F5F5F5F5F5F5F5F5F5F5F5F5F5F5F5F5F5F5F5F5F5F5F5F5F5F5F5F5F5F5F5F5F5F5E2E2E2F5F5F5F5F5F5F5F5F5F5F5F5F5F5F5F5F5F5F5F5F5F5F5F5F5F5F5F5F5F5F5F5F5F5F5F5
310
F5F5F5F5F5F5F5F5F5F5F5F5F5F5F5F5F5F5F5F5F5F5F5F5F5F5F5F5F5F5F5F5F5F5F5F5F5F5F5F5F5F5F5F5F5F5F5F5F5F5F5F5F5F5F5F5F5F5F5F5F5F5F5F5F5F5F5F5F5F5F5F5F5F5F5F5F5F5F5F5F5F5F5F5F5F5F5F5F5F5F5F5F5F5F5F5F5F5F5F5F5F5F5F5F5F5F5F5F5F5F5F5F5F5F5F5F5F5F5F5F5F5F5F5F5F5F5
310
F5F5F5F5F5F5F5F5F5F5F5F5F5F5E2E2E2F5F5F5F5F5F5F5F5F5F5F5F5F5F5F5F5F5F5F5F5F5F5F5F5F5F5F5F5F5F5F5F5F5F5F5F5F5F5F5F5F5F5F5F5F5F5F5F5F5F5F5F5F5F5F5F5F5F5F5F5F5F5F5F5F5F5F5F5F5F5F5F5F5F5F5F5F5F5F5F5F5F5F5F5F5F5F5F5F5F5F5F5F5F5F5F5F5F5F5F5F5F5F5F5F5F5F5F5F5F5
310
F5F5F5F5F5F5F5F5F5F5F5F5F5F5F5F5F5F5F5F5F5F5F5F5F5F5F5F5F5F5F5F5F5F5F5F5F5F5F5F5F5F5F5F5F5F5F5F5F5F5F5F5F5F5F5F5F5F5F5F5F5F5F5F5F5F5F5E2E2E2F5F5F5F5F5F5F5F5F5F5F5F5F5F5F5F5F5F5F5F5F5F5F5F5F5F5F5F5F5F5F5F5F5F5F5F5F5F5F5F5F5F5F5F5F5F5F5F5F5F5F5F5F5F5F5F5F5
310
F5F5F5F5F5F5F5F5F5F5F5F5F5F5F5F5F5F5F5F5F5F5F5F5F5F5F5F5F5F5F5F5F5F5F5F5F5F5F5F5F5F5F5F5F5F5F5F5F5F5F5F5F5F5F5F5F5F5F5F5F5F5F5F5F5F5F5F5F5F5F5F5F5F5F5F5F5F5F5F5F5F5F5F5F5F5F5F5F5F5F5F5F5F5F5F5F5F5F5F5F5F5F5F5F5F5F5F5F5F5F5F5F5F5F5F5F5F5F5F5E2E2E2F5F5F5E2
310
F5F5F5F5F5F5F5F5F5F5F5F5F5F5F5F5F5F5F5F5F5F5F5F5F5F5F5F5F5F5F5F5F5F5F5F5F5F5F5F5F5F5F5F5F5F5F5F5F5F5F5F5F5F5F5F5F5F5F5F5F5F5F5F5F5F5F5F5F5F5F5F5F5F5F5F5F5F5F5F5F5F5F5F5F5F5F5F5F5F5F5F5F5F5F5F5F5F5F5F5F5F5F5F5F5F5F5F5F5F5F5F5F5F5F5F5F5F5F5F5F5F5F5F5F5F5F5
310
F5F5F5F5F5F5F5F5F5F5F5F5F5F5F5F5F5F5F5F5F5F5F5F5F5F5F5F5F5F5F5F5F5F5F5F5F5F5F5F5F5F5E2F5F5F5E2E2E2F5F5F5E2F5F5F5F5F5F5F5F5F5F5F5F5F5F5F5F5F5F5F5F5F5F5F5F5F5F5F5F5F5F5F5F5F5F5F5F5F5F5F5F5F5F5F5F5F5F5F5F5F5F5F5F5F5F5F5F5F5F5F5F5F5F5F5F5F5F5F5F5F5F5F5F5F5F5
310
F5F5F5F5F5F5F5F5F5F5F5F5F5F5F5F5F5F5F5F5F5F5F5F5F5F5F5F5F5F5F5F5F5F5F5F5F5F5F5F5F5F5F5F5F5F5F5F5F5F5F5F5F5F5F5F5F5F5F5F5F5F5F5F5F5F5F5F5F5F5F5F5F5F5F5F5F5F5F5F5F5F5F5F5F5F5F5F5F5F5F5F5F5F5F5E2F5F5F5E2E2E2F5F5F5E2F5F5F5F5F5F5F5F5F5F5F5F5F5F5F5F5F5F5F5F5F5
310
F5F5F5F5F5F5F5F5F5F5F5F5F5F5F5F5F5F5F5F5F5F5F5F5F5F5F5F5F5F5F5F5F5F5F5F5F5F5F5F5F5F5F5F5F5F5F5F5F5F5F5F5F5F5F5F5F5F5F5F5F5F5F5F5F5F5F5F5F5F5F5F5F5F5F5F5F5F5F5F5F5F5F5F5F5F5F5F5F5F5F5F5F5F5F5F5F5F5F5F5F5F5F5F5F5F5F5F5F5F5F5F5F5F5F5F5F5F5F5F5F5F5F5F5F5F5F5
310
F5F5F5F5F5F5F5F5F5F5F5F5F5F5F5F5F5F5F5F5F5E2F5F5F5E2E2E2F5F5F5E2F5F5F5F5F5F5F5F5F5F5F5F5F5F5F5F5F5F5F5F5F5F5F5F5F5F5F5F5F5F5F5F5F5F5F5F5F5F5F5F5F5F5F5F5F5F5F5F5F5F5F5F5F5F5F5F5F5F5F5F5F5F5F5F5F5F5F5F5F5F5F5F5F5F5F5F5F5F5F5F5F5F5F5F5F5F5F5F5F5F5F5F5F5F5F5
310
F5F5F5F5F5F5F5F5F5F5F5F5F5F5F5F5F5F5F5F5F5F5F5F5F5F5F5F5F5F5F5F5F5F5F5F5F5F5F5F5F5F5F5F5F5F5F5F5F5F5F5F5F5F5F5F5F5F5F5F5F5F5F5F5F5F5F5F5F5F5F5F5F5F5E2F5F5F5E2E2E2F5F5F5E2F5F5F5F5F5F5F5F5F5F5F5F5F5F5F5F5F5F5F5F5F5F5F5F5F5F5F5F5F5F5F5F5F5F5F5F5F5F5F5F5F5F5
310
F5F5F5F5F5F5F5F5F5F5F5F5F5F5F5F5F5F5F5F5F5F5F5F5F5F5F5F5F5F5F5F5F5F5F5F5F5F5F5F5F5F5F5F5F5F5F5F5F5F5F5F5F5F5F5F5F5F5F5F5F5F5F5F5F5F5F5F5F5F5F5F5F5F5F5F5F5F5F5F5F5F5F5F5F5F5F5F5F5F5F5F5F5F5F5F5F5F5F5F5F5F5F5F5F5F5F5F5F5F5F5F5F5F5F5F5F5F5F5F5F5F5F5F5F5F5F5
310
E2F5F5F5E2E2E2F5F5F5E2F5F5F5F5F5F5F5F5F5F5F5F5F5F5F5F5F5F5F5F5F5F5F5F5F5F5F5F5F5F5F5F5F5F5F5F5F5F5F5F5F5F5F5F5F5F5F5F5F5F5F5F5F5F5F5F5F5F5F5F5F5F5F5F5F5F5F5F5F5F5F5F5F5F5F5F5F5F5F5F5F5F5F5F5F5F5F5F5F5F5F5F5F5F5F5F5F5F5F5F5F5F5F5F5F5F5F5F5F5F5F5F5F5F5F5F5
310
F5F5F5F5F5F5F5F5F5F5F5F5F5F5F5F5F5F5F5F5F5F5F5F5F5F5F5F5F5F5F5F5F5F5F5F5F5F5F5F5F5F5F5F5F5F5F5F5F5F5F5F5F5E2F5F5F5E2E2E2F5F5F5E2F5F5F5F5F5F5F5F5F5F5F5F5F5F5F5F5F5F5F5F5F5F5F5F5F5F5F5F5F5F5F5F5F5F5F5F5F5F5F5F5F5F5F5F5F5F5F5F5F5F5F5F5F5F5F5F5F5F5F5F5F5F5F5
310
F5F5F5F5F5F5F5F5F5F5F5F5F5F5F5F5F5F5F5F5F5F5F5F5F5F5F5F5F5F5F5F5F5F5F5F5F5F5F5F5F5F5F5F5F5F5F5F5F5F5F5F5F5F5F5F5F5F5F5F5F5F5F5F5F5F5F5F5F5F5F5F5F5F5F5F5F5F5F5F5F5F5F5F5F5F5F5F5F5F5F5F5F5F5F5F5F5F5F5F5F5F5F5F5F5F5E2F5F5F5E2E2E2F5F5F5E2F5F5F5F5F5F5F5F5F5F5
310
F5F5F5F5F5F5F5F5F5F5F5F5F5F5F5F5F5F5F5F5F5F5F5F5F5F5F5F5F5F5F5F5F5F5F5F5F5F5F5F5F5F5F5F5F5F5F5F5F5F5F5F5F5F5F5F5F5F5F5F5F5F5F5F5F5F5F5F5F5F5F5F5F5F5F5F5F5F5F5F5F5F5F5F5F5F5F5F5F5F5F5F5F5F5F5F5F5F5F5F5F5F5F5F5F5F5F5F5F5F5F5F5F5F5F5F5F5F5F5F5F5F5F5F5F5F5F5
310
F5F5F5F5F5F5F5F5F5F5F5F5F5F5F5F5F5F5F5F5F5F5F5F5F5F5F5F5F5F5F5F5E2F5F5F5E2E2E2F5F5F5E2E2E2E2E2E2E2E2F5F5F5F5F5F5F5F5F5E2E2E2E2E2E2E2E2E2E2E2E2E2E2E2E2F5F5F5F5F5F5F5F5E2E2E2E2E2E2E2E2E2E2E2E2E2E2E2E2F5F5F5F5F5F5F5F5F5E2E2E2E2E2E2E2E2E2E2E2E2E2E2E2F5F5F5F5
310
F5F5F5F5F5E2E2E2E2E2E2E2E2E2E2E2E2E2E2E2F5F5F5F5F5F5F5F5F5E2E2E2E2E2E2E2E2E2E2E2E2E2E2E2E2F5F5F5F5F5F5F5F5E2E2E2E2E2E2E2E2E2E2E2E2E2E2E2E2F5F5F5F5F5F5F5F5F5E2E2E2E2E2E2E2E2F5F5F5E2E2E2F5F5F5F5F5F5F5F5F5F5F5F5F5F5F5F5F5F5F5F5F5F5F5F5F5F5F5F5F5F5F5F5F5F5F5
310
F5F5F5F5F5F5F5F5F5F5F5F5F5F5F5F5F5F5F5F5F5F5F5F5F5F5F5F5F5F5F5F5F5F5F5F5F5F5F5F5F5F5F5F5F5F5F5F5F5F5F5F5F5F5F5F5F5F5F5F5F5F5F5F5F5F5F5F5F5F5F5F5F5F5F5F5F5F5F5F5F5F5F5F5F5F5F5F5F5F5F5F5F5F5F5F5F5F5F5F5F5F5F5F5F5F5F5F5F5F5F5F5F5F5F5F5F5F5F5F5F5F5F5F5F5F5F5
310
F5F5F5F5F5F5F5F5F5F5F5F5F5F5F5E2E2E2F5F5F5F5F5F5F5F5F5F5F5F5F5F5F5F5F5F5F5F5F5F5F5F5F5F5F5F5F5F5F5F5F5F5F5F5F5F5F5F5F5F5F5F5F5F5F5F5F5F5F5F5F5F5F5F5F5F5F5F5F5F5F5F5F5F5F5F5F5F5F5F5F5F5F5F5F5F5F5F5F5F5F5F5F5F5F5F5F5F5F5F5F5F5F5F5F5F5F5F5F5F5F5F5F5F5F5F5F5
310
F5F5F5F5F5F5F5F5F5F5F5F5F5F5F5F5F5F5F5F5F5F5F5F5F5F5F5F5F5F5F5F5F5F5F5F5F5F5F5F5F5F5F5F5F5F5F5F5F5F5F5F5F5F5F5F5F5F5F5F5F5F5F5F5F5F5F5F5E2EFE2F5F5F5F5F5F5F5F5F5F5F5F5F5F5F5F5F5F5F5F5F5F5F5F5F5F5F5F5F5F5F5F5F5F5F5F5F5F5F5F5F5F5F5F5F5F5F5F5F5F5F5F5F5F5F5F5
310
F5F5F5F5F5F5F5F5F5F5F5F5F5F5F5F5F5F5F5F5F5F5F5F5F5F5F5F5F5F5F5F5F5F5F5F5F5F5F5F5F5F5F5F5F5F5F5F5F5F5F5F5F5F5F5F5F5F5F5F5F5F5F5F5F5F5F5F5F5F5F5F5F5F5F5F5F5F5F5F5F5F5F5F5F5F5F5F5F5F5F5F5F5F5F5F5F5F5F5F5F5F5F5F5F5F5F5F5F5F5F5F5F5F5F5F5F5F5F5F5F5E2EF
  0
XRECORD
  5
6E6
102
{ACAD_REACTORS
330
6E5
102
}
330
6E5
100
AcDbXrecord
280
     1
102
SHADEPLOT
 70
     0
102
SHADEPLOTRESLEVEL
 70
     2
102
SHADEPLOTCUSTOMDPI
 70
   300
  0
ENDSEC
  0
EOF
