  0
SECTION
  2
HEADER
  9
$ACADVER
  1
AC1015
  9
$ACADMAINTVER
 70
    20
  9
$DWGCODEPAGE
  3
ANSI_1252
  9
$INSBASE
 10
0.0
 20
0.0
 30
0.0
  9
$EXTMIN
 10
-0.075
 20
-0.075
 30
0.0
  9
$EXTMAX
 10
22.075
 20
17.075
 30
0.0
  9
$LIMMIN
 10
0.0
 20
0.0
  9
$LIMMAX
 10
12.0
 20
9.0
  9
$ORTHOMODE
 70
     0
  9
$REGENMODE
 70
     1
  9
$FILLMODE
 70
     1
  9
$QTEXTMODE
 70
     0
  9
$MIRRTEXT
 70
     1
  9
$LTSCALE
 40
1.0
  9
$ATTMODE
 70
     1
  9
$TEXTSIZE
 40
0.125
  9
$TRACEWID
 40
0.05
  9
$TEXTSTYLE
  7
STANDARD
  9
$CLAYER
  8
0
  9
$CELTYPE
  6
BYLAYER
  9
$CECOLOR
 62
   256
  9
$CELTSCALE
 40
1.0
  9
$DISPSILH
 70
     0
  9
$DIMSCALE
 40
1.0
  9
$DIMASZ
 40
0.125
  9
$DIMEXO
 40
0.0625
  9
$DIMDLI
 40
0.38
  9
$DIMRND
 40
0.0
  9
$DIMDLE
 40
0.0
  9
$DIMEXE
 40
0.125
  9
$DIMTP
 40
0.0
  9
$DIMTM
 40
0.0
  9
$DIMTXT
 40
0.09
  9
$DIMCEN
 40
0.09
  9
$DIMTSZ
 40
0.0
  9
$DIMTOL
 70
     0
  9
$DIMLIM
 70
     0
  9
$DIMTIH
 70
     1
  9
$DIMTOH
 70
     1
  9
$DIMSE1
 70
     0
  9
$DIMSE2
 70
     0
  9
$DIMTAD
 70
     0
  9
$DIMZIN
 70
     0
  9
$DIMBLK
  1

  9
$DIMASO
 70
     1
  9
$DIMSHO
 70
     1
  9
$DIMPOST
  1

  9
$DIMAPOST
  1
mm
  9
$DIMALT
 70
     1
  9
$DIMALTD
 70
     1
  9
$DIMALTF
 40
25.4
  9
$DIMLFAC
 40
1.0
  9
$DIMTOFL
 70
     0
  9
$DIMTVP
 40
0.0
  9
$DIMTIX
 70
     0
  9
$DIMSOXD
 70
     0
  9
$DIMSAH
 70
     0
  9
$DIMBLK1
  1

  9
$DIMBLK2
  1

  9
$DIMSTYLE
  2
STANDARD
  9
$DIMCLRD
 70
     0
  9
$DIMCLRE
 70
     0
  9
$DIMCLRT
 70
     0
  9
$DIMTFAC
 40
1.0
  9
$DIMGAP
 40
0.09
  9
$DIMJUST
 70
     0
  9
$DIMSD1
 70
     0
  9
$DIMSD2
 70
     0
  9
$DIMTOLJ
 70
     1
  9
$DIMTZIN
 70
     0
  9
$DIMALTZ
 70
     0
  9
$DIMALTTZ
 70
     0
  9
$DIMUPT
 70
     0
  9
$DIMDEC
 70
     2
  9
$DIMTDEC
 70
     2
  9
$DIMALTU
 70
     2
  9
$DIMALTTD
 70
     1
  9
$DIMTXSTY
  7
STANDARD
  9
$DIMAUNIT
 70
     0
  9
$DIMADEC
 70
     0
  9
$DIMALTRND
 40
0.0
  9
$DIMAZIN
 70
     0
  9
$DIMDSEP
 70
    46
  9
$DIMATFIT
 70
     3
  9
$DIMFRAC
 70
     0
  9
$DIMLDRBLK
  1

  9
$DIMLUNIT
 70
     2
  9
$DIMLWD
 70
    -2
  9
$DIMLWE
 70
    -2
  9
$DIMTMOVE
 70
     0
  9
$LUNITS
 70
     2
  9
$LUPREC
 70
     2
  9
$SKETCHINC
 40
0.1
  9
$FILLETRAD
 40
0.5
  9
$AUNITS
 70
     0
  9
$AUPREC
 70
     0
  9
$MENU
  1
.
  9
$ELEVATION
 40
0.0
  9
$PELEVATION
 40
0.0
  9
$THICKNESS
 40
0.0
  9
$LIMCHECK
 70
     0
  9
$CHAMFERA
 40
0.5
  9
$CHAMFERB
 40
0.5
  9
$CHAMFERC
 40
1.0
  9
$CHAMFERD
 40
0.0
  9
$SKPOLY
 70
     0
  9
$TDCREATE
 40
2451681.555436007
  9
$TDUCREATE
 40
2451681.763769340
  9
$TDUPDATE
 40
2454294.570457975
  9
$TDUUPDATE
 40
2454294.778791308
  9
$TDINDWG
 40
0.2087542940
  9
$TDUSRTIMER
 40
0.2087542940
  9
$USRTIMER
 70
     1
  9
$ANGBASE
 50
0.0
  9
$ANGDIR
 70
     0
  9
$PDMODE
 70
     2
  9
$PDSIZE
 40
0.075
  9
$PLINEWID
 40
0.0
  9
$SPLFRAME
 70
     0
  9
$SPLINETYPE
 70
     6
  9
$SPLINESEGS
 70
     8
  9
$HANDSEED
  5
56F
  9
$SURFTAB1
 70
     6
  9
$SURFTAB2
 70
     6
  9
$SURFTYPE
 70
     6
  9
$SURFU
 70
     6
  9
$SURFV
 70
     6
  9
$UCSBASE
  2

  9
$UCSNAME
  2

  9
$UCSORG
 10
0.0
 20
0.0
 30
0.0
  9
$UCSXDIR
 10
1.0
 20
0.0
 30
0.0
  9
$UCSYDIR
 10
0.0
 20
1.0
 30
0.0
  9
$UCSORTHOREF
  2

  9
$UCSORTHOVIEW
 70
     0
  9
$UCSORGTOP
 10
0.0
 20
0.0
 30
0.0
  9
$UCSORGBOTTOM
 10
0.0
 20
0.0
 30
0.0
  9
$UCSORGLEFT
 10
0.0
 20
0.0
 30
0.0
  9
$UCSORGRIGHT
 10
0.0
 20
0.0
 30
0.0
  9
$UCSORGFRONT
 10
0.0
 20
0.0
 30
0.0
  9
$UCSORGBACK
 10
0.0
 20
0.0
 30
0.0
  9
$PUCSBASE
  2

  9
$PUCSNAME
  2

  9
$PUCSORG
 10
0.0
 20
0.0
 30
0.0
  9
$PUCSXDIR
 10
1.0
 20
0.0
 30
0.0
  9
$PUCSYDIR
 10
0.0
 20
1.0
 30
0.0
  9
$PUCSORTHOREF
  2

  9
$PUCSORTHOVIEW
 70
     0
  9
$PUCSORGTOP
 10
0.0
 20
0.0
 30
0.0
  9
$PUCSORGBOTTOM
 10
0.0
 20
0.0
 30
0.0
  9
$PUCSORGLEFT
 10
0.0
 20
0.0
 30
0.0
  9
$PUCSORGRIGHT
 10
0.0
 20
0.0
 30
0.0
  9
$PUCSORGFRONT
 10
0.0
 20
0.0
 30
0.0
  9
$PUCSORGBACK
 10
0.0
 20
0.0
 30
0.0
  9
$USERI1
 70
     0
  9
$USERI2
 70
     0
  9
$USERI3
 70
     0
  9
$USERI4
 70
     0
  9
$USERI5
 70
     0
  9
$USERR1
 40
0.0
  9
$USERR2
 40
0.0
  9
$USERR3
 40
0.0
  9
$USERR4
 40
0.0
  9
$USERR5
 40
0.0
  9
$WORLDVIEW
 70
     1
  9
$SHADEDGE
 70
     3
  9
$SHADEDIF
 70
    70
  9
$TILEMODE
 70
     1
  9
$MAXACTVP
 70
    48
  9
$PINSBASE
 10
0.0
 20
0.0
 30
0.0
  9
$PLIMCHECK
 70
     0
  9
$PEXTMIN
 10
1.000000000000000E+20
 20
1.000000000000000E+20
 30
1.000000000000000E+20
  9
$PEXTMAX
 10
-1.000000000000000E+20
 20
-1.000000000000000E+20
 30
-1.000000000000000E+20
  9
$PLIMMIN
 10
0.0
 20
0.0
  9
$PLIMMAX
 10
12.0
 20
9.0
  9
$UNITMODE
 70
     0
  9
$VISRETAIN
 70
     1
  9
$PLINEGEN
 70
     0
  9
$PSLTSCALE
 70
     1
  9
$TREEDEPTH
 70
  3020
  9
$CMLSTYLE
  2
STANDARD
  9
$CMLJUST
 70
     0
  9
$CMLSCALE
 40
1.0
  9
$PROXYGRAPHICS
 70
     1
  9
$MEASUREMENT
 70
     0
  9
$CELWEIGHT
370
    -1
  9
$ENDCAPS
280
     0
  9
$JOINSTYLE
280
     0
  9
$LWDISPLAY
290
     0
  9
$INSUNITS
 70
     0
  9
$HYPERLINKBASE
  1

  9
$STYLESHEET
  1

  9
$XEDIT
290
     1
  9
$CEPSNTYPE
380
     0
  9
$PSTYLEMODE
290
     1
  9
$FINGERPRINTGUID
  2
{71EC7F31-AA06-4ECF-8D30-7E7FC2EDBC33}
  9
$VERSIONGUID
  2
{3D4A20C3-B602-4A87-B2B8-87A02EEBF85C}
  9
$EXTNAMES
290
     1
  9
$PSVPSCALE
 40
0.0
  9
$OLESTARTUP
290
     0
  0
ENDSEC
  0
SECTION
  2
CLASSES
  0
CLASS
  1
ACDBDICTIONARYWDFLT
  2
AcDbDictionaryWithDefault
  3
ObjectDBX Classes
 90
        0
280
     0
281
     0
  0
CLASS
  1
TABLESTYLE
  2
AcDbTableStyle
  3
ObjectDBX Classes
 90
     2047
280
     0
281
     0
  0
CLASS
  1
DICTIONARYVAR
  2
AcDbDictionaryVar
  3
ObjectDBX Classes
 90
        0
280
     0
281
     0
  0
CLASS
  1
SORTENTSTABLE
  2
AcDbSortentsTable
  3
ObjectDBX Classes
 90
        0
280
     0
281
     0
  0
CLASS
  1
ACDBPLACEHOLDER
  2
AcDbPlaceHolder
  3
ObjectDBX Classes
 90
        0
280
     0
281
     0
  0
CLASS
  1
LAYOUT
  2
AcDbLayout
  3
ObjectDBX Classes
 90
        0
280
     0
281
     0
  0
ENDSEC
  0
SECTION
  2
TABLES
  0
TABLE
  2
VPORT
  5
8
330
0
100
AcDbSymbolTable
 70
     2
  0
VPORT
  5
569
330
8
100
AcDbSymbolTableRecord
100
AcDbViewportTableRecord
  2
*Active
 70
     0
 10
0.0
 20
0.0
 11
1.0
 21
1.0
 12
11.00000010314714
 22
9.103929070580019
 13
0.0
 23
0.0
 14
0.5
 24
0.5
 15
0.5
 25
0.5
 16
0.0
 26
0.0
 36
1.0
 17
0.0
 27
0.0
 37
0.0
 40
18.4699008689387
 41
1.499364675984752
 42
50.0
 43
0.0
 44
0.0
 50
0.0
 51
0.0
 71
     0
 72
   100
 73
     1
 74
     1
 75
     0
 76
     0
 77
     0
 78
     0
281
     0
 65
     1
110
0.0
120
0.0
130
0.0
111
1.0
121
0.0
131
0.0
112
0.0
122
1.0
132
0.0
 79
     0
146
0.0
  0
ENDTAB
  0
TABLE
  2
LTYPE
  5
5
330
0
100
AcDbSymbolTable
 70
     1
  0
LTYPE
  5
12
330
5
100
AcDbSymbolTableRecord
100
AcDbLinetypeTableRecord
  2
BYBLOCK
 70
     0
  3

 72
    65
 73
     0
 40
0.0
  0
LTYPE
  5
13
330
5
100
AcDbSymbolTableRecord
100
AcDbLinetypeTableRecord
  2
BYLAYER
 70
     0
  3

 72
    65
 73
     0
 40
0.0
  0
LTYPE
  5
14
330
5
100
AcDbSymbolTableRecord
100
AcDbLinetypeTableRecord
  2
CONTINUOUS
 70
     0
  3
Solid line
 72
    65
 73
     0
 40
0.0
  0
ENDTAB
  0
TABLE
  2
LAYER
  5
2
102
{ACAD_XDICTIONARY
360
154
102
}
330
0
100
AcDbSymbolTable
 70
     6
  0
LAYER
  5
E
330
2
100
AcDbSymbolTableRecord
100
AcDbLayerTableRecord
  2
0
 70
     0
 62
     7
  6
CONTINUOUS
370
    -3
390
10B
  0
LAYER
  5
20
330
2
100
AcDbSymbolTableRecord
100
AcDbLayerTableRecord
  2
Title Block
 70
     0
 62
     3
  6
CONTINUOUS
370
    -3
390
10B
  0
LAYER
  5
21
330
2
100
AcDbSymbolTableRecord
100
AcDbLayerTableRecord
  2
Dimension
 70
     0
 62
     6
  6
CONTINUOUS
370
    -3
390
10B
  0
LAYER
  5
22
330
2
100
AcDbSymbolTableRecord
100
AcDbLayerTableRecord
  2
Text
 70
     0
 62
     1
  6
CONTINUOUS
370
    -3
390
10B
  0
LAYER
  5
23
330
2
100
AcDbSymbolTableRecord
100
AcDbLayerTableRecord
  2
Object
 70
     0
 62
     5
  6
CONTINUOUS
370
    -3
390
10B
  0
LAYER
  5
179
330
2
100
AcDbSymbolTableRecord
100
AcDbLayerTableRecord
  2
Defpoints
 70
     0
 62
     7
  6
CONTINUOUS
290
     0
370
    -3
390
10B
  0
ENDTAB
  0
TABLE
  2
STYLE
  5
3
330
0
100
AcDbSymbolTable
 70
     1
  0
STYLE
  5
F
330
3
100
AcDbSymbolTableRecord
100
AcDbTextStyleTableRecord
  2
STANDARD
 70
     0
 40
0.0
 41
1.0
 50
0.0
 71
     0
 42
0.125
  3
technic_.ttf
  4

1001
ACAD
1000
Technic
1071
      514
  0
ENDTAB
  0
TABLE
  2
VIEW
  5
6
330
0
100
AcDbSymbolTable
 70
     0
  0
ENDTAB
  0
TABLE
  2
UCS
  5
7
330
0
100
AcDbSymbolTable
 70
     0
  0
ENDTAB
  0
TABLE
  2
APPID
  5
9
330
0
100
AcDbSymbolTable
 70
     4
  0
APPID
  5
10
330
9
100
AcDbSymbolTableRecord
100
AcDbRegAppTableRecord
  2
ACAD
 70
     0
  0
APPID
  5
149
330
9
100
AcDbSymbolTableRecord
100
AcDbRegAppTableRecord
  2
DCO15
 70
     0
  0
APPID
  5
153
330
9
100
AcDbSymbolTableRecord
100
AcDbRegAppTableRecord
  2
AcAecLayerStandard
 70
     0
  0
APPID
  5
1A9
330
9
100
AcDbSymbolTableRecord
100
AcDbRegAppTableRecord
  2
ACAD_DSTYLE_DIMTEXT_FILL
 70
     0
  0
ENDTAB
  0
TABLE
  2
DIMSTYLE
  5
A
330
0
100
AcDbSymbolTable
 70
     1
100
AcDbDimStyleTable
 71
     1
340
1D
  0
DIMSTYLE
105
1D
102
{ACAD_REACTORS
330
512
330
520
330
52E
102
}
330
A
100
AcDbSymbolTableRecord
100
AcDbDimStyleTableRecord
  2
STANDARD
 70
     0
  4
mm
 41
0.125
 44
0.125
140
0.09
170
     1
171
     1
271
     2
272
     2
274
     1
340
F
  0
ENDTAB
  0
TABLE
  2
BLOCK_RECORD
  5
1
330
0
100
AcDbSymbolTable
 70
     3
  0
BLOCK_RECORD
  5
18
102
{ACAD_XDICTIONARY
360
50B
102
}
330
1
100
AcDbSymbolTableRecord
100
AcDbBlockTableRecord
  2
*MODEL_SPACE
340
112
  0
BLOCK_RECORD
  5
15
330
1
100
AcDbSymbolTableRecord
100
AcDbBlockTableRecord
  2
*PAPER_SPACE
340
113
  0
BLOCK_RECORD
  5
513
330
1
100
AcDbSymbolTableRecord
100
AcDbBlockTableRecord
  2
*D0
340
0
  0
BLOCK_RECORD
  5
521
330
1
100
AcDbSymbolTableRecord
100
AcDbBlockTableRecord
  2
*D1
340
0
  0
BLOCK_RECORD
  5
52F
330
1
100
AcDbSymbolTableRecord
100
AcDbBlockTableRecord
  2
*D2
340
0
  0
ENDTAB
  0
ENDSEC
  0
SECTION
  2
BLOCKS
  0
BLOCK
  5
19
330
18
100
AcDbEntity
  8
0
100
AcDbBlockBegin
  2
*MODEL_SPACE
 70
     0
 10
0.0
 20
0.0
 30
0.0
  3
*MODEL_SPACE
  1

  0
ENDBLK
  5
1A
330
18
100
AcDbEntity
  8
0
100
AcDbBlockEnd
  0
BLOCK
  5
16
330
15
100
AcDbEntity
 67
     1
  8
0
100
AcDbBlockBegin
  2
*PAPER_SPACE
 70
     0
 10
0.0
 20
0.0
 30
0.0
  3
*PAPER_SPACE
  1

  0
ENDBLK
  5
17
330
15
100
AcDbEntity
 67
     1
  8
0
100
AcDbBlockEnd
  0
BLOCK
  5
51E
330
513
100
AcDbEntity
  8
0
100
AcDbBlockBegin
  2
*D0
 70
     1
 10
0.0
 20
0.0
 30
0.0
  3
*D0
  1

  0
LINE
  5
54D
330
513
100
AcDbEntity
  8
Dimension
 62
     0
370
    -2
100
AcDbLine
 10
4.487753304725895
 20
5.393137456006932
 30
0.0
 11
4.487753304725895
 21
6.479972724219607
 31
0.0
  0
LINE
  5
54E
330
513
100
AcDbEntity
  8
Dimension
 62
     0
370
    -2
100
AcDbLine
 10
6.658253304725896
 20
5.380637456006933
 30
0.0
 11
6.658253304725896
 21
6.479972724219607
 31
0.0
  0
LINE
  5
54F
330
513
100
AcDbEntity
  8
Dimension
 62
     0
370
    -2
100
AcDbLine
 10
4.612753304725895
 20
6.354972724219607
 30
0.0
 11
5.107740146831159
 21
6.354972724219607
 31
0.0
  0
LINE
  5
550
330
513
100
AcDbEntity
  8
Dimension
 62
     0
370
    -2
100
AcDbLine
 10
6.533253304725896
 20
6.354972724219607
 30
0.0
 11
6.038266462620632
 21
6.354972724219607
 31
0.0
  0
SOLID
  5
551
330
513
100
AcDbEntity
  8
Dimension
 62
     0
100
AcDbTrace
 10
4.612753304725895
 20
6.37580605755294
 30
0.0
 11
4.612753304725895
 21
6.334139390886273
 31
0.0
 12
4.487753304725895
 22
6.354972724219607
 32
0.0
 13
4.487753304725895
 23
6.354972724219607
 33
0.0
  0
SOLID
  5
552
330
513
100
AcDbEntity
  8
Dimension
 62
     0
100
AcDbTrace
 10
6.533253304725896
 20
6.37580605755294
 30
0.0
 11
6.533253304725896
 21
6.334139390886273
 31
0.0
 12
6.658253304725896
 22
6.354972724219607
 32
0.0
 13
6.658253304725896
 23
6.354972724219607
 33
0.0
  0
MTEXT
  5
553
330
513
100
AcDbEntity
  8
Dimension
 62
     0
100
AcDbMText
 10
5.573003304725896
 20
6.354972724219607
 30
0.0
 40
0.09
 41
0.0
 71
     5
 72
     1
  1
\A1;2.17 [55.1mm]
 73
     1
 44
1.0
1001
ACAD
1000
MTEXTBEGIN
1070
    73
1070
     1
1070
    44
1040
1.0
1070
    74
1070
     0
1000
MTEXTEND
  0
POINT
  5
554
330
513
100
AcDbEntity
  8
Defpoints
 62
     0
100
AcDbPoint
 10
4.487753304725895
 20
5.330637456006932
 30
0.0
  0
POINT
  5
555
330
513
100
AcDbEntity
  8
Defpoints
 62
     0
100
AcDbPoint
 10
6.658253304725896
 20
5.318137456006933
 30
0.0
  0
POINT
  5
556
330
513
100
AcDbEntity
  8
Defpoints
 62
     0
100
AcDbPoint
 10
6.658253304725896
 20
6.354972724219607
 30
0.0
  0
ENDBLK
  5
51F
330
513
100
AcDbEntity
  8
0
100
AcDbBlockEnd
  0
BLOCK
  5
52C
330
521
100
AcDbEntity
  8
0
100
AcDbBlockBegin
  2
*D1
 70
     1
 10
0.0
 20
0.0
 30
0.0
  3
*D1
  1

  0
LINE
  5
522
330
521
100
AcDbEntity
  8
Dimension
 62
     0
370
    -2
100
AcDbLine
 10
6.513753304725895
 20
5.838137456006933
 30
0.0
 11
7.490842116003818
 21
5.838137456006933
 31
0.0
  0
LINE
  5
523
330
521
100
AcDbEntity
  8
Dimension
 62
     0
370
    -2
100
AcDbLine
 10
6.690753304725896
 20
3.918137456006933
 30
0.0
 11
7.490842116003818
 21
3.918137456006932
 31
0.0
  0
LINE
  5
524
330
521
100
AcDbEntity
  8
Dimension
 62
     0
370
    -2
100
AcDbLine
 10
7.365842116003818
 20
5.713137456006933
 30
0.0
 11
7.365842116003818
 21
5.031163771796406
 31
0.0
  0
LINE
  5
525
330
521
100
AcDbEntity
  8
Dimension
 62
     0
370
    -2
100
AcDbLine
 10
7.365842116003818
 20
4.043137456006933
 30
0.0
 11
7.365842116003818
 21
4.725111140217459
 31
0.0
  0
SOLID
  5
526
330
521
100
AcDbEntity
  8
Dimension
 62
     0
100
AcDbTrace
 10
7.345008782670485
 20
5.713137456006933
 30
0.0
 11
7.386675449337151
 21
5.713137456006933
 31
0.0
 12
7.365842116003818
 22
5.838137456006933
 32
0.0
 13
7.365842116003818
 23
5.838137456006933
 33
0.0
  0
SOLID
  5
527
330
521
100
AcDbEntity
  8
Dimension
 62
     0
100
AcDbTrace
 10
7.345008782670485
 20
4.043137456006933
 30
0.0
 11
7.386675449337151
 21
4.043137456006933
 31
0.0
 12
7.365842116003818
 22
3.918137456006932
 32
0.0
 13
7.365842116003818
 23
3.918137456006932
 33
0.0
  0
MTEXT
  5
528
330
521
100
AcDbEntity
  8
Dimension
 62
     0
100
AcDbMText
 10
7.365842116003817
 20
4.878137456006934
 30
0.0
 40
0.09
 41
0.0
 71
     5
 72
     1
  1
\A1;1.92 [48.8mm]
 73
     1
 44
1.0
1001
ACAD
1000
MTEXTBEGIN
1070
    73
1070
     1
1070
    44
1040
1.0
1070
    74
1070
     0
1000
MTEXTEND
  0
POINT
  5
529
330
521
100
AcDbEntity
  8
Defpoints
 62
     0
100
AcDbPoint
 10
6.451253304725895
 20
5.838137456006933
 30
0.0
  0
POINT
  5
52A
330
521
100
AcDbEntity
  8
Defpoints
 62
     0
100
AcDbPoint
 10
6.628253304725896
 20
3.918137456006933
 30
0.0
  0
POINT
  5
52B
330
521
100
AcDbEntity
  8
Defpoints
 62
     0
100
AcDbPoint
 10
7.365842116003818
 20
3.918137456006932
 30
0.0
  0
ENDBLK
  5
52D
330
521
100
AcDbEntity
  8
0
100
AcDbBlockEnd
  0
BLOCK
  5
53A
330
52F
100
AcDbEntity
  8
0
100
AcDbBlockBegin
  2
*D2
 70
     1
 10
0.0
 20
0.0
 30
0.0
  3
*D2
  1

  0
LINE
  5
545
330
52F
100
AcDbEntity
  8
Dimension
 62
     0
370
    -2
100
AcDbLine
 10
4.690253304725896
 20
4.655137456006933
 30
0.0
 11
4.815253304725896
 21
4.655137456006933
 31
0.0
  0
LINE
  5
546
330
52F
100
AcDbEntity
  8
Dimension
 62
     0
370
    -2
100
AcDbLine
 10
4.360253304725897
 20
4.655137456006933
 30
0.0
 11
4.235253304725897
 21
4.655137456006933
 31
0.0
  0
SOLID
  5
547
330
52F
100
AcDbEntity
  8
Dimension
 62
     0
100
AcDbTrace
 10
4.690253304725896
 20
4.675970789340266
 30
0.0
 11
4.690253304725896
 21
4.6343041226736
 31
0.0
 12
4.565253304725896
 22
4.655137456006933
 32
0.0
 13
4.565253304725896
 23
4.655137456006933
 33
0.0
  0
SOLID
  5
548
330
52F
100
AcDbEntity
  8
Dimension
 62
     0
100
AcDbTrace
 10
4.360253304725897
 20
4.675970789340266
 30
0.0
 11
4.360253304725897
 21
4.6343041226736
 31
0.0
 12
4.485253304725897
 22
4.655137456006933
 32
0.0
 13
4.485253304725897
 23
4.655137456006933
 33
0.0
  0
MTEXT
  5
549
330
52F
100
AcDbEntity
  8
Dimension
 62
     0
100
AcDbMText
 10
3.777753304725897
 20
4.655137456006933
 30
0.0
 40
0.09
 41
0.0
 71
     5
 72
     1
  1
\A1;0.08 [2.0mm]
 73
     1
 44
1.0
1001
ACAD
1000
MTEXTBEGIN
1070
    73
1070
     1
1070
    44
1040
1.0
1070
    74
1070
     0
1000
MTEXTEND
  0
POINT
  5
54A
330
52F
100
AcDbEntity
  8
Defpoints
 62
     0
100
AcDbPoint
 10
4.565253304725896
 20
4.655137456006933
 30
0.0
  0
POINT
  5
54B
330
52F
100
AcDbEntity
  8
Defpoints
 62
     0
100
AcDbPoint
 10
4.485253304725897
 20
4.655137456006933
 30
0.0
  0
POINT
  5
54C
330
52F
100
AcDbEntity
  8
Defpoints
 62
     0
100
AcDbPoint
 10
4.485253304725897
 20
4.655137456006933
 30
0.0
  0
ENDBLK
  5
53B
330
52F
100
AcDbEntity
  8
0
100
AcDbBlockEnd
  0
ENDSEC
  0
SECTION
  2
ENTITIES
  0
TEXT
  5
51
330
18
100
AcDbEntity
  8
Title Block
100
AcDbText
 10
17.77669501265554
 20
2.672489851525508
 30
0.0
 40
0.05
  1
FILENAME:
100
AcDbText
  0
TEXT
  5
52
330
18
100
AcDbEntity
  8
Title Block
100
AcDbText
 10
17.76928502872825
 20
2.076224967549325
 30
0.0
 40
0.35
  1
PANDUIT
100
AcDbText
  0
TEXT
  5
53
330
18
100
AcDbEntity
  8
Title Block
100
AcDbText
 10
19.72182039882138
 20
2.061410940562986
 30
0.0
 40
0.125
  1
CORP. TINLEY PARK, IL
100
AcDbText
  0
TEXT
  5
54
330
18
100
AcDbEntity
  8
Title Block
100
AcDbText
 10
17.78039997670861
 20
1.91697409709392
 30
0.0
 40
0.05
  1
TITLE:
100
AcDbText
  0
MTEXT
  5
57
330
18
100
AcDbEntity
  8
Title Block
100
AcDbMText
 10
19.0
 20
1.372215793536348
 30
0.0
 40
0.075
 41
2.5
 71
     5
 72
     5
  1
UNLESS OTHERWISE SPECIFIED,\PDIMENSIONAL TOLERANCES ARE:       
 73
     1
 44
1.0
1001
ACAD
1000
MTEXTBEGIN
1070
    73
1070
     1
1070
    44
1040
1.0
1070
    74
1070
     0
1000
MTEXTEND
  0
MTEXT
  5
58
330
18
100
AcDbEntity
  8
Title Block
100
AcDbMText
 10
18.39237986661001
 20
1.131487708483632
 30
0.0
 40
0.075
 41
2.5
 71
     5
 72
     5
  1
(.X)\P(.XX)
 73
     1
 44
1.0
1001
ACAD
1000
MTEXTBEGIN
1070
    73
1070
     1
1070
    44
1040
1.0
1070
    74
1070
     0
1000
MTEXTEND
  0
MTEXT
  5
59
330
18
100
AcDbEntity
  8
Title Block
100
AcDbMText
 10
19.40014005312411
 20
1.131487708483632
 30
0.0
 40
0.075
 41
2.5
 71
     5
 72
     5
  1
(.XXX)\PANGLES:
 73
     1
 44
1.0
1001
ACAD
1000
MTEXTBEGIN
1070
    73
1070
     1
1070
    44
1040
1.0
1070
    74
1070
     0
1000
MTEXTEND
  0
MTEXT
  5
5A
330
18
100
AcDbEntity
  8
Title Block
100
AcDbMText
 10
21.0
 20
1.25
 30
0.0
 40
0.06
 41
1.5
 71
     5
 72
     5
  1
UNLESS OTHERWISE SPECIFIED,\PALL DIMENSIONS ARE GIVEN IN INCHES, THIRD ANGLE PROJECTION
 73
     1
 44
1.0
1001
ACAD
1000
MTEXTBEGIN
1070
    73
1070
     1
1070
    44
1040
1.0
1070
    74
1070
     0
1000
MTEXTEND
  0
TEXT
  5
5E
330
18
100
AcDbEntity
  8
Title Block
100
AcDbText
 10
17.76076445430618
 20
0.9281373372752312
 30
0.0
 40
0.05
  1
DRAWN BY:
100
AcDbText
  0
TEXT
  5
5F
330
18
100
AcDbEntity
  8
Title Block
100
AcDbText
 10
17.76446947418043
 20
0.6811431865635028
 30
0.0
 40
0.05
  1
DATE:
100
AcDbText
  0
TEXT
  5
60
330
18
100
AcDbEntity
  8
Title Block
100
AcDbText
 10
17.76817443823349
 20
0.4304455338317968
 30
0.0
 40
0.05
  1
CHECKED BY:
100
AcDbText
  0
TEXT
  5
62
330
18
100
AcDbEntity
  8
Title Block
100
AcDbText
 10
18.52028959313306
 20
0.9281373372752312
 30
0.0
 40
0.05
  1
MATERIAL:
100
AcDbText
  0
TEXT
  5
63
330
18
100
AcDbEntity
  8
Title Block
100
AcDbText
 10
20.26534493878154
 20
0.9281373372752312
 30
0.0
 40
0.05
  1
SCALE:
100
AcDbText
  0
TEXT
  5
64
330
18
100
AcDbEntity
  8
Title Block
100
AcDbText
 10
20.26534493878154
 20
0.6725952630490007
 30
0.0
 40
0.05
  1
DRAWING NUMBER:
100
AcDbText
  0
TEXT
  5
65
330
18
100
AcDbEntity
  8
Title Block
100
AcDbText
 10
21.34942622928997
 20
0.6762987650689816
 30
0.0
 40
0.05
  1
DRAWING
100
AcDbText
  0
TEXT
  5
66
330
18
100
AcDbEntity
  8
Title Block
100
AcDbText
 10
21.42723125590085
 20
0.2811642688682026
 30
0.0
 40
0.05
  1
SIZE
100
AcDbText
  0
TEXT
  5
67
330
18
100
AcDbEntity
  8
Title Block
100
AcDbText
 10
21.39373130657865
 20
0.3826699445861052
 30
0.0
 40
0.25
  1
C
100
AcDbText
  0
MTEXT
  5
68
330
18
100
AcDbEntity
  8
Title Block
100
AcDbMText
 10
11.37499999999999
 20
0.375
 30
0.0
 40
0.05
 41
0.25
 71
     5
 72
     5
  1
REV
 73
     1
 44
1.0
1001
ACAD
1000
MTEXTBEGIN
1070
    73
1070
     1
1070
    44
1040
1.0
1070
    74
1070
     0
1000
MTEXTEND
  0
MTEXT
  5
69
330
18
100
AcDbEntity
  8
Title Block
100
AcDbMText
 10
11.74999999999999
 20
0.375
 30
0.0
 40
0.05
 41
0.5
 71
     5
 72
     5
  1
DATE
 73
     1
 44
1.0
1001
ACAD
1000
MTEXTBEGIN
1070
    73
1070
     1
1070
    44
1040
1.0
1070
    74
1070
     0
1000
MTEXTEND
  0
MTEXT
  5
6A
330
18
100
AcDbEntity
  8
Title Block
100
AcDbMText
 10
12.18999999999999
 20
0.375
 30
0.0
 40
0.05
 41
0.38
 71
     5
 72
     5
  1
BY
 73
     1
 44
1.0
1001
ACAD
1000
MTEXTBEGIN
1070
    73
1070
     1
1070
    44
1040
1.0
1070
    74
1070
     0
1000
MTEXTEND
  0
MTEXT
  5
6B
330
18
100
AcDbEntity
  8
Title Block
100
AcDbMText
 10
12.56499999999999
 20
0.375
 30
0.0
 40
0.05
 41
0.38
 71
     5
 72
     5
  1
CHK
 73
     1
 44
1.0
1001
ACAD
1000
MTEXTBEGIN
1070
    73
1070
     1
1070
    44
1040
1.0
1070
    74
1070
     0
1000
MTEXTEND
  0
MTEXT
  5
6C
330
18
100
AcDbEntity
  8
Title Block
100
AcDbMText
 10
14.12499999999999
 20
0.375
 30
0.0
 40
0.05
 41
2.75
 71
     5
 72
     5
  1
DESCRIPTION
 73
     1
 44
1.0
1001
ACAD
1000
MTEXTBEGIN
1070
    73
1070
     1
1070
    44
1040
1.0
1070
    74
1070
     0
1000
MTEXTEND
  0
MTEXT
  5
6D
330
18
100
AcDbEntity
  8
Title Block
100
AcDbMText
 10
16.065
 20
0.375
 30
0.0
 40
0.05
 41
1.129999999999999
 71
     5
 72
     5
  1
ECN   -   R
 73
     1
 44
1.0
1001
ACAD
1000
MTEXTBEGIN
1070
    73
1070
     1
1070
    44
1040
1.0
1070
    74
1070
     0
1000
MTEXTEND
  0
MTEXT
  5
6E
330
18
100
AcDbEntity
  8
Title Block
100
AcDbMText
 10
16.81499999999999
 20
0.375
 30
0.0
 40
0.05
 41
0.38
 71
     5
 72
     5
  1
CUST
 73
     1
 44
1.0
1001
ACAD
1000
MTEXTBEGIN
1070
    73
1070
     1
1070
    44
1040
1.0
1070
    74
1070
     0
1000
MTEXTEND
  0
MTEXT
  5
6F
330
18
100
AcDbEntity
  8
Title Block
100
AcDbMText
 10
17.19
 20
0.375
 30
0.0
 40
0.05
 41
0.38
 71
     5
 72
     5
  1
SUP
 73
     1
 44
1.0
1001
ACAD
1000
MTEXTBEGIN
1070
    73
1070
     1
1070
    44
1040
1.0
1070
    74
1070
     0
1000
MTEXTEND
  0
LINE
  5
A5
330
18
100
AcDbEntity
  8
Title Block
100
AcDbLine
 10
21.75
 20
2.749999999999999
 30
0.0
 11
11.25
 21
2.75
 31
0.0
  0
LINE
  5
A6
330
18
100
AcDbEntity
  8
Title Block
100
AcDbLine
 10
17.74999999999999
 20
2.75
 30
0.0
 11
17.74999999999999
 21
0.25
 31
0.0
  0
LINE
  5
A7
330
18
100
AcDbEntity
  8
Title Block
100
AcDbLine
 10
21.75
 20
2.499999999999999
 30
0.0
 11
11.25
 21
2.5
 31
0.0
  0
LINE
  5
A8
330
18
100
AcDbEntity
  8
Title Block
100
AcDbLine
 10
17.74999999999999
 20
2.25
 30
0.0
 11
11.25
 21
2.25
 31
0.0
  0
LINE
  5
A9
330
18
100
AcDbEntity
  8
Title Block
100
AcDbLine
 10
21.75
 20
1.999999999999999
 30
0.0
 11
11.25
 21
2.0
 31
0.0
  0
LINE
  5
AA
330
18
100
AcDbEntity
  8
Title Block
100
AcDbLine
 10
17.74999999999999
 20
1.75
 30
0.0
 11
11.25
 21
1.75
 31
0.0
  0
LINE
  5
AB
330
18
100
AcDbEntity
  8
Title Block
100
AcDbLine
 10
21.75
 20
1.499999999999999
 30
0.0
 11
11.25
 21
1.5
 31
0.0
  0
LINE
  5
AC
330
18
100
AcDbEntity
  8
Title Block
100
AcDbLine
 10
17.74999999999999
 20
1.25
 30
0.0
 11
11.25
 21
1.25
 31
0.0
  0
LINE
  5
AD
330
18
100
AcDbEntity
  8
Title Block
100
AcDbLine
 10
21.75
 20
0.9999999999999996
 30
0.0
 11
11.25
 21
1.0
 31
0.0
  0
LINE
  5
AE
330
18
100
AcDbEntity
  8
Title Block
100
AcDbLine
 10
18.49999999999999
 20
0.75
 30
0.0
 11
11.25
 21
0.7500000000000009
 31
0.0
  0
LINE
  5
AF
330
18
100
AcDbEntity
  8
Title Block
100
AcDbLine
 10
18.49999999999999
 20
0.5
 30
0.0
 11
11.25
 21
0.5000000000000009
 31
0.0
  0
LINE
  5
B6
330
18
100
AcDbEntity
  8
Title Block
100
AcDbLine
 10
11.25
 20
0.25
 30
0.0
 11
11.25
 21
2.75
 31
0.0
  0
LINE
  5
BC
330
18
100
AcDbEntity
  8
Title Block
100
AcDbLine
 10
11.49999999999999
 20
0.25
 30
0.0
 11
11.49999999999999
 21
2.750000000000001
 31
0.0
  0
LINE
  5
BD
330
18
100
AcDbEntity
  8
Title Block
100
AcDbLine
 10
11.99999999999999
 20
0.25
 30
0.0
 11
11.99999999999999
 21
2.750000000000001
 31
0.0
  0
LINE
  5
C0
330
18
100
AcDbEntity
  8
Title Block
100
AcDbLine
 10
12.375
 20
0.25
 30
0.0
 11
12.375
 21
2.750000000000001
 31
0.0
  0
LINE
  5
C1
330
18
100
AcDbEntity
  8
Title Block
100
AcDbLine
 10
12.74999999999999
 20
0.25
 30
0.0
 11
12.74999999999999
 21
2.750000000000001
 31
0.0
  0
LINE
  5
C2
330
18
100
AcDbEntity
  8
Title Block
100
AcDbLine
 10
17.375
 20
2.75
 30
0.0
 11
17.375
 21
0.25
 31
0.0
  0
LINE
  5
C3
330
18
100
AcDbEntity
  8
Title Block
100
AcDbLine
 10
17.0
 20
2.75
 30
0.0
 11
17.0
 21
0.25
 31
0.0
  0
LINE
  5
C4
330
18
100
AcDbEntity
  8
Title Block
100
AcDbLine
 10
16.62499999999999
 20
2.75
 30
0.0
 11
16.62499999999999
 21
0.25
 31
0.0
  0
LINE
  5
C5
330
18
100
AcDbEntity
  8
Title Block
100
AcDbLine
 10
16.25
 20
2.75
 30
0.0
 11
16.25
 21
0.5000000000000002
 31
0.0
  0
LINE
  5
C6
330
18
100
AcDbEntity
  8
Title Block
100
AcDbLine
 10
15.5
 20
2.75
 30
0.0
 11
15.5
 21
0.25
 31
0.0
  0
LINE
  5
C7
330
18
100
AcDbEntity
  8
Title Block
100
AcDbLine
 10
20.25
 20
0.75
 30
0.0
 11
20.25
 21
1.499999999999999
 31
0.0
  0
LINE
  5
C8
330
18
100
AcDbEntity
  8
Title Block
100
AcDbLine
 10
20.25
 20
0.75
 30
0.0
 11
20.25
 21
0.25
 31
0.0
  0
LINE
  5
C9
330
18
100
AcDbEntity
  8
Title Block
100
AcDbLine
 10
20.25
 20
0.75
 30
0.0
 11
21.75
 21
0.75
 31
0.0
  0
LINE
  5
CA
330
18
100
AcDbEntity
  8
Title Block
100
AcDbLine
 10
18.49999999999999
 20
0.5
 30
0.0
 11
18.49999999999999
 21
0.25
 31
0.0
  0
LINE
  5
CB
330
18
100
AcDbEntity
  8
Title Block
100
AcDbLine
 10
18.49999999999999
 20
0.5
 30
0.0
 11
18.49999999999999
 21
1.0
 31
0.0
  0
LINE
  5
CD
330
18
100
AcDbEntity
  8
Title Block
100
AcDbLine
 10
21.25
 20
0.75
 30
0.0
 11
21.25
 21
0.25
 31
0.0
  0
LWPOLYLINE
  5
F8
330
18
100
AcDbEntity
  8
Title Block
100
AcDbPolyline
 90
        4
 70
     1
 43
0.01
 10
21.75
 20
16.75
 10
21.75
 20
0.25
 10
0.25
 20
0.25
 10
0.250000000000001
 20
16.75
  0
POINT
  5
FC
330
18
100
AcDbEntity
  8
Title Block
100
AcDbPoint
 10
22.0
 20
0.0
 30
0.0
  0
POINT
  5
FF
330
18
100
AcDbEntity
  8
Title Block
100
AcDbPoint
 10
22.0
 20
17.0
 30
0.0
  0
POINT
  5
102
330
18
100
AcDbEntity
  8
Title Block
100
AcDbPoint
 10
0.000000000000001
 20
17.0
 30
0.0
  0
POINT
  5
105
330
18
100
AcDbEntity
  8
Title Block
100
AcDbPoint
 10
0.0
 20
0.0
 30
0.0
  0
MTEXT
  5
12C
330
18
100
AcDbEntity
  8
Text
100
AcDbMText
 10
11.37324893148254
 20
0.6275685908585027
 30
0.0
 40
0.09
 41
0.25
 71
     5
 72
     5
  1
R
 73
     1
 44
1.0
1001
ACAD
1000
MTEXTBEGIN
1070
    73
1070
     1
1070
    44
1040
1.0
1070
    74
1070
     0
1000
MTEXTEND
  0
MTEXT
  5
12D
330
18
100
AcDbEntity
  8
Text
100
AcDbMText
 10
11.74824893148254
 20
0.6275685908585027
 30
0.0
 40
0.07
 41
0.5
 71
     5
 72
     5
  1
7-10-07
 73
     1
 44
1.0
1001
ACAD
1000
MTEXTBEGIN
1070
    73
1070
     1
1070
    44
1040
1.0
1070
    74
1070
     0
1000
MTEXTEND
  0
MTEXT
  5
12E
330
18
100
AcDbEntity
  8
Text
100
AcDbMText
 10
12.18574893148254
 20
0.6275685908585027
 30
0.0
 40
0.09
 41
0.375
 71
     5
 72
     5
  1
DTP
 73
     1
 44
1.0
1001
ACAD
1000
MTEXTBEGIN
1070
    73
1070
     1
1070
    44
1040
1.0
1070
    74
1070
     0
1000
MTEXTEND
  0
MTEXT
  5
130
330
18
100
AcDbEntity
  8
Text
100
AcDbMText
 10
14.12324893148254
 20
0.6275685908585023
 30
0.0
 40
0.09
 41
2.75
 71
     5
 72
     5
  1
DRAWING RELEASED
 73
     1
 44
1.0
1001
ACAD
1000
MTEXTBEGIN
1070
    73
1070
     1
1070
    44
1040
1.0
1070
    74
1070
     0
1000
MTEXTEND
  0
MTEXT
  5
133
330
18
100
AcDbEntity
  8
Text
100
AcDbMText
 10
18.47324893148254
 20
0.8525685908585018
 30
0.0
 40
0.09
 41
0.75
 71
     6
 72
     5
  1
DTP
 73
     1
 44
1.0
1001
ACAD
1000
MTEXTBEGIN
1070
    73
1070
     1
1070
    44
1040
1.0
1070
    74
1070
     0
1000
MTEXTEND
  0
MTEXT
  5
134
330
18
100
AcDbEntity
  8
Text
100
AcDbMText
 10
18.47324893148254
 20
0.6025685908585017
 30
0.0
 40
0.09
 41
0.75
 71
     6
 72
     5
  1
7-10-07
 73
     1
 44
1.0
1001
ACAD
1000
MTEXTBEGIN
1070
    73
1070
     1
1070
    44
1040
1.0
1070
    74
1070
     0
1000
MTEXTEND
  0
MTEXT
  5
135
330
18
100
AcDbEntity
  8
Text
100
AcDbMText
 10
18.47324893148254
 20
0.3525685908585019
 30
0.0
 40
0.09
 41
0.75
 71
     6
 72
     5
  1
DJWA
 73
     1
 44
1.0
1001
ACAD
1000
MTEXTBEGIN
1070
    73
1070
     1
1070
    44
1040
1.0
1070
    74
1070
     0
1000
MTEXTEND
  0
MTEXT
  5
136
330
18
100
AcDbEntity
  8
Text
100
AcDbMText
 10
19.74824893148254
 20
2.627568590858501
 30
0.0
 40
0.09
 41
4.0
 71
     5
 72
     5
  1
HS2X2.dwg
 73
     1
 44
1.0
1001
ACAD
1000
MTEXTBEGIN
1070
    73
1070
     1
1070
    44
1040
1.0
1070
    74
1070
     0
1000
MTEXTEND
  0
MTEXT
  5
137
330
18
100
AcDbEntity
  8
Text
100
AcDbMText
 10
19.74824893148254
 20
1.752568590858501
 30
0.0
 40
0.09
 41
4.0
 71
     5
 72
     5
  1
FIBERRUNNER 2x2 HINGED CHANNEL\P(HS2X2**2, HS2X2**6)\PMARKETING DRAWING
 73
     1
 44
1.0
1001
ACAD
1000
MTEXTBEGIN
1070
    73
1070
     1
1070
    44
1040
1.0
1070
    74
1070
     0
1000
MTEXTEND
  0
MTEXT
  5
138
330
18
100
AcDbEntity
  8
Text
100
AcDbMText
 10
20.99824893148254
 20
0.8775685908585016
 30
0.0
 40
0.12
 41
1.5
 71
     5
 72
     5
  1
FULL
 73
     1
 44
1.0
1001
ACAD
1000
MTEXTBEGIN
1070
    73
1070
     1
1070
    44
1040
1.0
1070
    74
1070
     0
1000
MTEXTEND
  0
MTEXT
  5
139
330
18
100
AcDbEntity
  8
Text
100
AcDbMText
 10
20.74824893148254
 20
0.5025685908585018
 30
0.0
 40
0.12
 41
1.0
 71
     5
 72
     5
  1
36897-1229
 73
     1
 44
1.0
1001
ACAD
1000
MTEXTBEGIN
1070
    73
1070
     1
1070
    44
1040
1.0
1070
    74
1070
     0
1000
MTEXTEND
  0
TEXT
  5
2AB
330
18
100
AcDbEntity
  8
Text
100
AcDbText
 10
5.167514664970667
 20
8.322174924171768
 30
0.0
 40
0.125
  1
TOP VIEW
100
AcDbText
  0
TEXT
  5
2AC
330
18
100
AcDbEntity
  8
Text
100
AcDbText
 10
5.048062624497156
 20
3.494787269441694
 30
0.0
 40
0.125
  1
FRONT VIEW
100
AcDbText
  0
TEXT
  5
2AD
330
18
100
AcDbEntity
  8
Text
100
AcDbText
 10
14.5504442485238
 20
3.621258696785083
 30
0.0
 40
0.125
  1
RIGHT SIDE VIEW
100
AcDbText
  0
MTEXT
  5
2BE
330
18
100
AcDbEntity
  8
Text
100
AcDbMText
 10
12.5604002814227
 20
0.626249074032665
 30
0.0
 40
0.07
 41
0.375
 71
     5
 72
     5
  1
DJWA
 73
     1
 44
1.0
1001
ACAD
1000
MTEXTBEGIN
1070
    73
1070
     1
1070
    44
1040
1.0
1070
    74
1070
     0
1000
MTEXTEND
  0
LINE
  5
2CD
330
18
100
AcDbEntity
  8
Object
100
AcDbLine
 10
18.6972533047259
 20
3.918137456006933
 30
0.0
 11
11.69725330472589
 21
3.918137456006933
 31
0.0
  0
LINE
  5
2CE
330
18
100
AcDbEntity
  8
Object
100
AcDbLine
 10
11.69725330472589
 20
3.918137456006933
 30
0.0
 11
11.69725330472589
 21
3.922137456006932
 31
0.0
  0
LINE
  5
2CF
330
18
100
AcDbEntity
  8
Object
100
AcDbLine
 10
11.69725330472589
 20
5.497137456006933
 30
0.0
 11
11.69725330472589
 21
5.463137456006933
 31
0.0
  0
LINE
  5
2D0
330
18
100
AcDbEntity
  8
Object
100
AcDbLine
 10
11.69725330472589
 20
5.838137456006933
 30
0.0
 11
11.69725330472589
 21
5.834137456006933
 31
0.0
  0
LINE
  5
2D1
330
18
100
AcDbEntity
  8
Object
100
AcDbLine
 10
11.69725330472589
 20
5.834137456006933
 30
0.0
 11
11.69725330472589
 21
5.819137456006933
 31
0.0
  0
LINE
  5
2D2
330
18
100
AcDbEntity
  8
Object
100
AcDbLine
 10
11.69725330472589
 20
5.819137456006933
 30
0.0
 11
11.69725330472589
 21
5.794137456006933
 31
0.0
  0
LINE
  5
2D3
330
18
100
AcDbEntity
  8
Object
100
AcDbLine
 10
11.69725330472589
 20
5.794137456006933
 30
0.0
 11
11.69725330472589
 21
5.762137456006933
 31
0.0
  0
LINE
  5
2D4
330
18
100
AcDbEntity
  8
Object
100
AcDbLine
 10
11.69725330472589
 20
5.762137456006933
 30
0.0
 11
11.69725330472589
 21
5.726137456006933
 31
0.0
  0
LINE
  5
2D5
330
18
100
AcDbEntity
  8
Object
100
AcDbLine
 10
11.69725330472589
 20
5.726137456006933
 30
0.0
 11
11.69725330472589
 21
5.591137456006933
 31
0.0
  0
LINE
  5
2D6
330
18
100
AcDbEntity
  8
Object
100
AcDbLine
 10
11.69725330472589
 20
5.528137456006933
 30
0.0
 11
11.69725330472589
 21
5.557137456006933
 31
0.0
  0
LINE
  5
2D7
330
18
100
AcDbEntity
  8
Object
100
AcDbLine
 10
11.69725330472589
 20
5.557137456006933
 30
0.0
 11
11.69725330472589
 21
5.591137456006933
 31
0.0
  0
LINE
  5
2D8
330
18
100
AcDbEntity
  8
Object
100
AcDbLine
 10
11.69725330472589
 20
5.528137456006933
 30
0.0
 11
11.69725330472589
 21
5.508137456006933
 31
0.0
  0
LINE
  5
2D9
330
18
100
AcDbEntity
  8
Object
100
AcDbLine
 10
11.69725330472589
 20
5.508137456006933
 30
0.0
 11
11.69725330472589
 21
5.501137456006933
 31
0.0
  0
LINE
  5
2DA
330
18
100
AcDbEntity
  8
Object
100
AcDbLine
 10
11.69725330472589
 20
5.501137456006933
 30
0.0
 11
11.69725330472589
 21
5.497137456006933
 31
0.0
  0
LINE
  5
2DB
330
18
100
AcDbEntity
  8
Object
100
AcDbLine
 10
11.69725330472589
 20
5.463137456006933
 30
0.0
 11
11.69725330472589
 21
5.441137456006933
 31
0.0
  0
LINE
  5
2DC
330
18
100
AcDbEntity
  8
Object
100
AcDbLine
 10
11.69725330472589
 20
5.441137456006933
 30
0.0
 11
11.69725330472589
 21
5.375137456006933
 31
0.0
  0
LINE
  5
2DD
330
18
100
AcDbEntity
  8
Object
100
AcDbLine
 10
11.69725330472589
 20
5.375137456006933
 30
0.0
 11
11.69725330472589
 21
5.363137456006933
 31
0.0
  0
LINE
  5
2DE
330
18
100
AcDbEntity
  8
Object
100
AcDbLine
 10
11.69725330472589
 20
5.363137456006933
 30
0.0
 11
11.69725330472589
 21
5.343137456006933
 31
0.0
  0
LINE
  5
2DF
330
18
100
AcDbEntity
  8
Object
100
AcDbLine
 10
11.69725330472589
 20
5.343137456006933
 30
0.0
 11
11.69725330472589
 21
5.318137456006933
 31
0.0
  0
LINE
  5
2E0
330
18
100
AcDbEntity
  8
Object
100
AcDbLine
 10
11.69725330472589
 20
5.318137456006933
 30
0.0
 11
11.69725330472589
 21
3.948137456006933
 31
0.0
  0
LINE
  5
2E1
330
18
100
AcDbEntity
  8
Object
100
AcDbLine
 10
11.69725330472589
 20
3.948137456006933
 30
0.0
 11
11.69725330472589
 21
3.933137456006933
 31
0.0
  0
LINE
  5
2E2
330
18
100
AcDbEntity
  8
Object
100
AcDbLine
 10
11.69725330472589
 20
3.933137456006933
 30
0.0
 11
11.69725330472589
 21
3.922137456006932
 31
0.0
  0
LINE
  5
2E3
330
18
100
AcDbEntity
  8
Object
100
AcDbLine
 10
11.69725330472589
 20
3.922137456006932
 30
0.0
 11
11.69725330472589
 21
3.933137456006933
 31
0.0
  0
LINE
  5
2E4
330
18
100
AcDbEntity
  8
Object
100
AcDbLine
 10
11.69725330472589
 20
3.933137456006933
 30
0.0
 11
11.69725330472589
 21
3.948137456006933
 31
0.0
  0
LINE
  5
2E5
330
18
100
AcDbEntity
  8
Object
100
AcDbLine
 10
11.69725330472589
 20
3.948137456006933
 30
0.0
 11
18.6972533047259
 21
3.948137456006933
 31
0.0
  0
LINE
  5
2E6
330
18
100
AcDbEntity
  8
Object
100
AcDbLine
 10
11.69725330472589
 20
3.922137456006932
 30
0.0
 11
11.69725330472589
 21
3.918137456006933
 31
0.0
  0
LINE
  5
2E7
330
18
100
AcDbEntity
  8
Object
100
AcDbLine
 10
11.69725330472589
 20
3.918137456006933
 30
0.0
 11
18.6972533047259
 21
3.918137456006933
 31
0.0
  0
LINE
  5
2E8
330
18
100
AcDbEntity
  8
Object
100
AcDbLine
 10
11.69725330472589
 20
5.501137456006933
 30
0.0
 11
18.6972533047259
 21
5.501137456006933
 31
0.0
  0
LINE
  5
2E9
330
18
100
AcDbEntity
  8
Object
100
AcDbLine
 10
11.69725330472589
 20
5.375137456006933
 30
0.0
 11
11.69725330472589
 21
5.441137456006933
 31
0.0
  0
LINE
  5
2EA
330
18
100
AcDbEntity
  8
Object
100
AcDbLine
 10
11.69725330472589
 20
5.441137456006933
 30
0.0
 11
18.6972533047259
 21
5.441137456006933
 31
0.0
  0
LINE
  5
2EB
330
18
100
AcDbEntity
  8
Object
100
AcDbLine
 10
11.69725330472589
 20
5.375137456006933
 30
0.0
 11
18.6972533047259
 21
5.375137456006933
 31
0.0
  0
LINE
  5
2EC
330
18
100
AcDbEntity
  8
Object
100
AcDbLine
 10
11.69725330472589
 20
5.343137456006933
 30
0.0
 11
11.69725330472589
 21
5.363137456006933
 31
0.0
  0
LINE
  5
2ED
330
18
100
AcDbEntity
  8
Object
100
AcDbLine
 10
11.69725330472589
 20
5.363137456006933
 30
0.0
 11
11.69725330472589
 21
5.375137456006933
 31
0.0
  0
LINE
  5
2EE
330
18
100
AcDbEntity
  8
Object
100
AcDbLine
 10
11.69725330472589
 20
5.343137456006933
 30
0.0
 11
11.69725330472589
 21
5.318137456006933
 31
0.0
  0
LINE
  5
2EF
330
18
100
AcDbEntity
  8
Object
100
AcDbLine
 10
11.69725330472589
 20
5.501137456006933
 30
0.0
 11
11.69725330472589
 21
5.497137456006933
 31
0.0
  0
LINE
  5
2F0
330
18
100
AcDbEntity
  8
Object
100
AcDbLine
 10
11.69725330472589
 20
5.497137456006933
 30
0.0
 11
11.69725330472589
 21
5.463137456006933
 31
0.0
  0
LINE
  5
2F1
330
18
100
AcDbEntity
  8
Object
100
AcDbLine
 10
11.69725330472589
 20
5.463137456006933
 30
0.0
 11
11.69725330472589
 21
5.441137456006933
 31
0.0
  0
LINE
  5
2F2
330
18
100
AcDbEntity
  8
Object
100
AcDbLine
 10
11.69725330472589
 20
5.528137456006933
 30
0.0
 11
11.69725330472589
 21
5.508137456006933
 31
0.0
  0
LINE
  5
2F3
330
18
100
AcDbEntity
  8
Object
100
AcDbLine
 10
11.69725330472589
 20
5.557137456006933
 30
0.0
 11
11.69725330472589
 21
5.591137456006933
 31
0.0
  0
LINE
  5
2F4
330
18
100
AcDbEntity
  8
Object
100
AcDbLine
 10
11.69725330472589
 20
5.591137456006933
 30
0.0
 11
18.6972533047259
 21
5.591137456006933
 31
0.0
  0
LINE
  5
2F5
330
18
100
AcDbEntity
  8
Object
100
AcDbLine
 10
11.69725330472589
 20
5.557137456006933
 30
0.0
 11
11.69725330472589
 21
5.528137456006933
 31
0.0
  0
LINE
  5
2F6
330
18
100
AcDbEntity
  8
Object
100
AcDbLine
 10
11.69725330472589
 20
5.508137456006933
 30
0.0
 11
11.69725330472589
 21
5.501137456006933
 31
0.0
  0
LINE
  5
2F7
330
18
100
AcDbEntity
  8
Object
100
AcDbLine
 10
11.69725330472589
 20
5.794137456006933
 30
0.0
 11
11.69725330472589
 21
5.762137456006933
 31
0.0
  0
LINE
  5
2F8
330
18
100
AcDbEntity
  8
Object
100
AcDbLine
 10
11.69725330472589
 20
5.834137456006933
 30
0.0
 11
11.69725330472589
 21
5.819137456006933
 31
0.0
  0
LINE
  5
2F9
330
18
100
AcDbEntity
  8
Object
100
AcDbLine
 10
18.6972533047259
 20
5.838137456006934
 30
0.0
 11
11.69725330472589
 21
5.838137456006933
 31
0.0
  0
LINE
  5
2FA
330
18
100
AcDbEntity
  8
Object
100
AcDbLine
 10
11.69725330472589
 20
5.838137456006933
 30
0.0
 11
11.69725330472589
 21
5.834137456006933
 31
0.0
  0
LINE
  5
2FB
330
18
100
AcDbEntity
  8
Object
100
AcDbLine
 10
11.69725330472589
 20
5.819137456006933
 30
0.0
 11
11.69725330472589
 21
5.794137456006933
 31
0.0
  0
LINE
  5
2FC
330
18
100
AcDbEntity
  8
Object
100
AcDbLine
 10
11.69725330472589
 20
5.762137456006933
 30
0.0
 11
11.69725330472589
 21
5.726137456006933
 31
0.0
  0
LINE
  5
2FD
330
18
100
AcDbEntity
  8
Object
100
AcDbLine
 10
11.69725330472589
 20
5.726137456006933
 30
0.0
 11
18.6972533047259
 21
5.726137456006933
 31
0.0
  0
LINE
  5
2FE
330
18
100
AcDbEntity
  8
Object
100
AcDbLine
 10
11.69725330472589
 20
5.726137456006933
 30
0.0
 11
11.69725330472589
 21
5.591137456006933
 31
0.0
  0
LINE
  5
2FF
330
18
100
AcDbEntity
  8
Object
100
AcDbLine
 10
11.69725330472589
 20
3.948137456006933
 30
0.0
 11
11.69725330472589
 21
5.318137456006933
 31
0.0
  0
LINE
  5
300
330
18
100
AcDbEntity
  8
Object
100
AcDbLine
 10
11.69725330472589
 20
5.318137456006933
 30
0.0
 11
18.6972533047259
 21
5.318137456006933
 31
0.0
  0
LINE
  5
301
330
18
100
AcDbEntity
  8
Object
100
AcDbLine
 10
6.598253304725895
 20
3.998137456006933
 30
0.0
 11
4.545253304725895
 21
3.998137456006933
 31
0.0
  0
LINE
  5
302
330
18
100
AcDbEntity
  8
Object
100
AcDbLine
 10
4.515253304725895
 20
3.918137456006933
 30
0.0
 11
6.628253304725896
 21
3.918137456006933
 31
0.0
  0
LINE
  5
303
330
18
100
AcDbEntity
  8
Object
100
AcDbLine
 10
4.545253304725895
 20
3.998137456006933
 30
0.0
 11
4.545253304725895
 21
4.017137456006933
 31
0.0
  0
LINE
  5
304
330
18
100
AcDbEntity
  8
Object
100
AcDbLine
 10
6.658253304725895
 20
3.948137456006933
 30
0.0
 11
6.654253304725895
 21
3.933137456006933
 31
0.0
  0
LINE
  5
305
330
18
100
AcDbEntity
  8
Object
100
AcDbLine
 10
6.654253304725895
 20
3.933137456006933
 30
0.0
 11
6.643253304725895
 21
3.922137456006932
 31
0.0
  0
LINE
  5
306
330
18
100
AcDbEntity
  8
Object
100
AcDbLine
 10
6.643253304725895
 20
3.922137456006932
 30
0.0
 11
6.628253304725896
 21
3.918137456006933
 31
0.0
  0
LINE
  5
307
330
18
100
AcDbEntity
  8
Object
100
AcDbLine
 10
6.658253304725895
 20
3.948137456006933
 30
0.0
 11
6.658253304725895
 21
5.318137456006933
 31
0.0
  0
LINE
  5
308
330
18
100
AcDbEntity
  8
Object
100
AcDbLine
 10
6.598253304725895
 20
3.998137456006933
 30
0.0
 11
6.598253304725895
 21
4.017137456006933
 31
0.0
  0
LINE
  5
309
330
18
100
AcDbEntity
  8
Object
100
AcDbLine
 10
6.598253304725895
 20
4.017137456006933
 30
0.0
 11
6.578253304725895
 21
4.017137456006933
 31
0.0
  0
LINE
  5
30A
330
18
100
AcDbEntity
  8
Object
100
AcDbLine
 10
6.578253304725895
 20
4.017137456006933
 30
0.0
 11
6.578253304725895
 21
5.293137456006933
 31
0.0
  0
LINE
  5
30B
330
18
100
AcDbEntity
  8
Object
100
AcDbLine
 10
6.578253304725895
 20
5.293137456006933
 30
0.0
 11
6.575253304725896
 21
5.305137456006933
 31
0.0
  0
LINE
  5
30C
330
18
100
AcDbEntity
  8
Object
100
AcDbLine
 10
6.617253304725895
 20
5.375137456006933
 30
0.0
 11
6.638253304725895
 21
5.363137456006933
 31
0.0
  0
LINE
  5
30D
330
18
100
AcDbEntity
  8
Object
100
AcDbLine
 10
6.638253304725895
 20
5.363137456006933
 30
0.0
 11
6.653253304725895
 21
5.343137456006933
 31
0.0
  0
LINE
  5
30E
330
18
100
AcDbEntity
  8
Object
100
AcDbLine
 10
6.653253304725895
 20
5.343137456006933
 30
0.0
 11
6.658253304725895
 21
5.318137456006933
 31
0.0
  0
LINE
  5
30F
330
18
100
AcDbEntity
  8
Object
100
AcDbLine
 10
6.575253304725896
 20
5.305137456006933
 30
0.0
 11
6.568253304725895
 21
5.315137456006933
 31
0.0
  0
LINE
  5
310
330
18
100
AcDbEntity
  8
Object
100
AcDbLine
 10
6.568253304725895
 20
5.315137456006933
 30
0.0
 11
6.557253304725895
 21
5.322137456006933
 31
0.0
  0
LINE
  5
311
330
18
100
AcDbEntity
  8
Object
100
AcDbLine
 10
6.545253304725895
 20
5.794137456006933
 30
0.0
 11
6.562253304725896
 21
5.762137456006933
 31
0.0
  0
LINE
  5
312
330
18
100
AcDbEntity
  8
Object
100
AcDbLine
 10
6.562253304725896
 20
5.762137456006933
 30
0.0
 11
6.568253304725895
 21
5.726137456006933
 31
0.0
  0
LINE
  5
313
330
18
100
AcDbEntity
  8
Object
100
AcDbLine
 10
6.568253304725895
 20
5.591137456006933
 30
0.0
 11
6.561253304725895
 21
5.557137456006933
 31
0.0
  0
LINE
  5
314
330
18
100
AcDbEntity
  8
Object
100
AcDbLine
 10
6.561253304725895
 20
5.557137456006933
 30
0.0
 11
6.541253304725895
 21
5.528137456006933
 31
0.0
  0
LINE
  5
315
330
18
100
AcDbEntity
  8
Object
100
AcDbLine
 10
6.545253304725895
 20
5.794137456006933
 30
0.0
 11
6.519253304725896
 21
5.819137456006933
 31
0.0
  0
LINE
  5
316
330
18
100
AcDbEntity
  8
Object
100
AcDbLine
 10
6.512253304725895
 20
5.508137456006933
 30
0.0
 11
6.541253304725895
 21
5.528137456006933
 31
0.0
  0
LINE
  5
317
330
18
100
AcDbEntity
  8
Object
100
AcDbLine
 10
6.519253304725896
 20
5.819137456006933
 30
0.0
 11
6.487253304725896
 21
5.834137456006933
 31
0.0
  0
LINE
  5
318
330
18
100
AcDbEntity
  8
Object
100
AcDbLine
 10
6.478253304725895
 20
5.501137456006933
 30
0.0
 11
6.512253304725895
 21
5.508137456006933
 31
0.0
  0
LINE
  5
319
330
18
100
AcDbEntity
  8
Object
100
AcDbLine
 10
6.487253304725896
 20
5.834137456006933
 30
0.0
 11
6.451253304725895
 21
5.838137456006933
 31
0.0
  0
LINE
  5
31A
330
18
100
AcDbEntity
  8
Object
100
AcDbLine
 10
6.441253304725895
 20
5.509137456006933
 30
0.0
 11
6.478253304725895
 21
5.501137456006933
 31
0.0
  0
LINE
  5
31B
330
18
100
AcDbEntity
  8
Object
100
AcDbLine
 10
6.617253304725895
 20
5.375137456006933
 30
0.0
 11
6.426253304725896
 21
5.441137456006933
 31
0.0
  0
LINE
  5
31C
330
18
100
AcDbEntity
  8
Object
100
AcDbLine
 10
6.451253304725895
 20
5.838137456006933
 30
0.0
 11
6.416253304725895
 21
5.831137456006933
 31
0.0
  0
LINE
  5
31D
330
18
100
AcDbEntity
  8
Object
100
AcDbLine
 10
6.411253304725895
 20
5.531137456006933
 30
0.0
 11
6.441253304725895
 21
5.509137456006933
 31
0.0
  0
LINE
  5
31E
330
18
100
AcDbEntity
  8
Object
100
AcDbLine
 10
6.416253304725895
 20
5.831137456006933
 30
0.0
 11
6.409253304725895
 21
5.828137456006933
 31
0.0
  0
LINE
  5
31F
330
18
100
AcDbEntity
  8
Object
100
AcDbLine
 10
6.403253304725895
 20
5.375137456006933
 30
0.0
 11
6.557253304725895
 21
5.322137456006933
 31
0.0
  0
LINE
  5
320
330
18
100
AcDbEntity
  8
Object
100
AcDbLine
 10
6.392253304725895
 20
5.562137456006933
 30
0.0
 11
6.411253304725895
 21
5.531137456006933
 31
0.0
  0
LINE
  5
321
330
18
100
AcDbEntity
  8
Object
100
AcDbLine
 10
6.568253304725895
 20
5.591137456006933
 30
0.0
 11
6.568253304725895
 21
5.726137456006933
 31
0.0
  0
LINE
  5
322
330
18
100
AcDbEntity
  8
Object
100
AcDbLine
 10
6.383253304725895
 20
5.577137456006933
 30
0.0
 11
6.392253304725895
 21
5.562137456006933
 31
0.0
  0
LINE
  5
323
330
18
100
AcDbEntity
  8
Object
100
AcDbLine
 10
6.409253304725895
 20
5.828137456006933
 30
0.0
 11
6.355253304725895
 21
5.799137456006933
 31
0.0
  0
LINE
  5
324
330
18
100
AcDbEntity
  8
Object
100
AcDbLine
 10
6.366253304725895
 20
5.585137456006933
 30
0.0
 11
6.383253304725895
 21
5.577137456006933
 31
0.0
  0
LINE
  5
325
330
18
100
AcDbEntity
  8
Object
100
AcDbLine
 10
6.426253304725896
 20
5.441137456006933
 30
0.0
 11
6.383253304725895
 21
5.463137456006933
 31
0.0
  0
LINE
  5
326
330
18
100
AcDbEntity
  8
Object
100
AcDbLine
 10
6.351253304725895
 20
5.401137456006933
 30
0.0
 11
6.403253304725895
 21
5.375137456006933
 31
0.0
  0
LINE
  5
327
330
18
100
AcDbEntity
  8
Object
100
AcDbLine
 10
6.355253304725895
 20
5.799137456006933
 30
0.0
 11
6.310253304725895
 21
5.758137456006933
 31
0.0
  0
LINE
  5
328
330
18
100
AcDbEntity
  8
Object
100
AcDbLine
 10
6.383253304725895
 20
5.463137456006933
 30
0.0
 11
6.349253304725896
 21
5.497137456006933
 31
0.0
  0
LINE
  5
329
330
18
100
AcDbEntity
  8
Object
100
AcDbLine
 10
6.307253304725895
 20
5.438137456006933
 30
0.0
 11
6.351253304725895
 21
5.401137456006933
 31
0.0
  0
LINE
  5
32A
330
18
100
AcDbEntity
  8
Object
100
AcDbLine
 10
6.349253304725896
 20
5.584137456006933
 30
0.0
 11
6.366253304725895
 21
5.585137456006933
 31
0.0
  0
LINE
  5
32B
330
18
100
AcDbEntity
  8
Object
100
AcDbLine
 10
6.310253304725895
 20
5.758137456006933
 30
0.0
 11
6.277253304725896
 21
5.706137456006933
 31
0.0
  0
LINE
  5
32C
330
18
100
AcDbEntity
  8
Object
100
AcDbLine
 10
6.274253304725895
 20
5.486137456006933
 30
0.0
 11
6.307253304725895
 21
5.438137456006933
 31
0.0
  0
LINE
  5
32D
330
18
100
AcDbEntity
  8
Object
100
AcDbLine
 10
6.349253304725896
 20
5.497137456006933
 30
0.0
 11
6.327253304725895
 21
5.540137456006933
 31
0.0
  0
LINE
  5
32E
330
18
100
AcDbEntity
  8
Object
100
AcDbLine
 10
6.277253304725896
 20
5.706137456006933
 30
0.0
 11
6.258253304725895
 21
5.647137456006933
 31
0.0
  0
LINE
  5
32F
330
18
100
AcDbEntity
  8
Object
100
AcDbLine
 10
6.334253304725895
 20
5.574137456006933
 30
0.0
 11
6.349253304725896
 21
5.584137456006933
 31
0.0
  0
LINE
  5
330
330
18
100
AcDbEntity
  8
Object
100
AcDbLine
 10
6.327253304725895
 20
5.540137456006933
 30
0.0
 11
6.326253304725895
 21
5.558137456006933
 31
0.0
  0
LINE
  5
331
330
18
100
AcDbEntity
  8
Object
100
AcDbLine
 10
6.274253304725895
 20
5.486137456006933
 30
0.0
 11
6.254253304725895
 21
5.541137456006933
 31
0.0
  0
LINE
  5
332
330
18
100
AcDbEntity
  8
Object
100
AcDbLine
 10
6.254253304725895
 20
5.541137456006933
 30
0.0
 11
6.251253304725895
 21
5.562137456006933
 31
0.0
  0
LINE
  5
333
330
18
100
AcDbEntity
  8
Object
100
AcDbLine
 10
6.258253304725895
 20
5.647137456006933
 30
0.0
 11
6.251253304725895
 21
5.605137456006933
 31
0.0
  0
LINE
  5
334
330
18
100
AcDbEntity
  8
Object
100
AcDbLine
 10
6.251253304725895
 20
5.562137456006933
 30
0.0
 11
6.249253304725895
 21
5.583137456006933
 31
0.0
  0
LINE
  5
335
330
18
100
AcDbEntity
  8
Object
100
AcDbLine
 10
6.249253304725895
 20
5.583137456006933
 30
0.0
 11
6.251253304725895
 21
5.605137456006933
 31
0.0
  0
LINE
  5
336
330
18
100
AcDbEntity
  8
Object
100
AcDbLine
 10
6.326253304725895
 20
5.558137456006933
 30
0.0
 11
6.334253304725895
 21
5.574137456006933
 31
0.0
  0
LINE
  5
337
330
18
100
AcDbEntity
  8
Object
100
AcDbLine
 10
4.893253304725895
 20
5.583137456006933
 30
0.0
 11
4.892253304725896
 21
5.562137456006933
 31
0.0
  0
LINE
  5
338
330
18
100
AcDbEntity
  8
Object
100
AcDbLine
 10
4.892253304725896
 20
5.562137456006933
 30
0.0
 11
4.888253304725895
 21
5.541137456006933
 31
0.0
  0
LINE
  5
339
330
18
100
AcDbEntity
  8
Object
100
AcDbLine
 10
4.817253304725895
 20
5.558137456006933
 30
0.0
 11
4.816253304725895
 21
5.540137456006933
 31
0.0
  0
LINE
  5
33A
330
18
100
AcDbEntity
  8
Object
100
AcDbLine
 10
4.869253304725895
 20
5.486137456006933
 30
0.0
 11
4.888253304725895
 21
5.541137456006933
 31
0.0
  0
LINE
  5
33B
330
18
100
AcDbEntity
  8
Object
100
AcDbLine
 10
4.809253304725896
 20
5.574137456006933
 30
0.0
 11
4.817253304725895
 21
5.558137456006933
 31
0.0
  0
LINE
  5
33C
330
18
100
AcDbEntity
  8
Object
100
AcDbLine
 10
4.884253304725895
 20
5.647137456006933
 30
0.0
 11
4.892253304725896
 21
5.605137456006933
 31
0.0
  0
LINE
  5
33D
330
18
100
AcDbEntity
  8
Object
100
AcDbLine
 10
4.892253304725896
 20
5.605137456006933
 30
0.0
 11
4.893253304725895
 21
5.583137456006933
 31
0.0
  0
LINE
  5
33E
330
18
100
AcDbEntity
  8
Object
100
AcDbLine
 10
4.884253304725895
 20
5.647137456006933
 30
0.0
 11
4.866253304725895
 21
5.706137456006933
 31
0.0
  0
LINE
  5
33F
330
18
100
AcDbEntity
  8
Object
100
AcDbLine
 10
4.794253304725895
 20
5.584137456006933
 30
0.0
 11
4.809253304725896
 21
5.574137456006933
 31
0.0
  0
LINE
  5
340
330
18
100
AcDbEntity
  8
Object
100
AcDbLine
 10
4.836253304725895
 20
5.438137456006933
 30
0.0
 11
4.869253304725895
 21
5.486137456006933
 31
0.0
  0
LINE
  5
341
330
18
100
AcDbEntity
  8
Object
100
AcDbLine
 10
4.816253304725895
 20
5.540137456006933
 30
0.0
 11
4.793253304725896
 21
5.497137456006933
 31
0.0
  0
LINE
  5
342
330
18
100
AcDbEntity
  8
Object
100
AcDbLine
 10
4.776253304725895
 20
5.585137456006933
 30
0.0
 11
4.794253304725895
 21
5.584137456006933
 31
0.0
  0
LINE
  5
343
330
18
100
AcDbEntity
  8
Object
100
AcDbLine
 10
4.788253304725895
 20
5.799137456006933
 30
0.0
 11
4.833253304725895
 21
5.758137456006933
 31
0.0
  0
LINE
  5
344
330
18
100
AcDbEntity
  8
Object
100
AcDbLine
 10
4.833253304725895
 20
5.758137456006933
 30
0.0
 11
4.866253304725895
 21
5.706137456006933
 31
0.0
  0
LINE
  5
345
330
18
100
AcDbEntity
  8
Object
100
AcDbLine
 10
4.760253304725895
 20
5.577137456006933
 30
0.0
 11
4.776253304725895
 21
5.585137456006933
 31
0.0
  0
LINE
  5
346
330
18
100
AcDbEntity
  8
Object
100
AcDbLine
 10
4.793253304725896
 20
5.497137456006933
 30
0.0
 11
4.759253304725895
 21
5.463137456006933
 31
0.0
  0
LINE
  5
347
330
18
100
AcDbEntity
  8
Object
100
AcDbLine
 10
4.792253304725895
 20
5.401137456006933
 30
0.0
 11
4.836253304725895
 21
5.438137456006933
 31
0.0
  0
LINE
  5
348
330
18
100
AcDbEntity
  8
Object
100
AcDbLine
 10
4.788253304725895
 20
5.799137456006933
 30
0.0
 11
4.734253304725895
 21
5.828137456006933
 31
0.0
  0
LINE
  5
349
330
18
100
AcDbEntity
  8
Object
100
AcDbLine
 10
4.759253304725895
 20
5.463137456006933
 30
0.0
 11
4.717253304725895
 21
5.441137456006933
 31
0.0
  0
LINE
  5
34A
330
18
100
AcDbEntity
  8
Object
100
AcDbLine
 10
4.740253304725895
 20
5.375137456006933
 30
0.0
 11
4.792253304725895
 21
5.401137456006933
 31
0.0
  0
LINE
  5
34B
330
18
100
AcDbEntity
  8
Object
100
AcDbLine
 10
4.750253304725895
 20
5.562137456006933
 30
0.0
 11
4.731253304725895
 21
5.531137456006933
 31
0.0
  0
LINE
  5
34C
330
18
100
AcDbEntity
  8
Object
100
AcDbLine
 10
4.731253304725895
 20
5.531137456006933
 30
0.0
 11
4.701253304725895
 21
5.509137456006933
 31
0.0
  0
LINE
  5
34D
330
18
100
AcDbEntity
  8
Object
100
AcDbLine
 10
4.692253304725895
 20
5.838137456006933
 30
0.0
 11
4.727253304725895
 21
5.831137456006933
 31
0.0
  0
LINE
  5
34E
330
18
100
AcDbEntity
  8
Object
100
AcDbLine
 10
4.727253304725895
 20
5.831137456006933
 30
0.0
 11
4.734253304725895
 21
5.828137456006933
 31
0.0
  0
LINE
  5
34F
330
18
100
AcDbEntity
  8
Object
100
AcDbLine
 10
4.665253304725895
 20
5.501137456006933
 30
0.0
 11
4.701253304725895
 21
5.509137456006933
 31
0.0
  0
LINE
  5
350
330
18
100
AcDbEntity
  8
Object
100
AcDbLine
 10
4.692253304725895
 20
5.838137456006933
 30
0.0
 11
4.656253304725895
 21
5.834137456006933
 31
0.0
  0
LINE
  5
351
330
18
100
AcDbEntity
  8
Object
100
AcDbLine
 10
4.631253304725895
 20
5.508137456006933
 30
0.0
 11
4.665253304725895
 21
5.501137456006933
 31
0.0
  0
LINE
  5
352
330
18
100
AcDbEntity
  8
Object
100
AcDbLine
 10
4.656253304725895
 20
5.834137456006933
 30
0.0
 11
4.624253304725895
 21
5.819137456006933
 31
0.0
  0
LINE
  5
353
330
18
100
AcDbEntity
  8
Object
100
AcDbLine
 10
4.602253304725895
 20
5.528137456006933
 30
0.0
 11
4.631253304725895
 21
5.508137456006933
 31
0.0
  0
LINE
  5
354
330
18
100
AcDbEntity
  8
Object
100
AcDbLine
 10
4.624253304725895
 20
5.819137456006933
 30
0.0
 11
4.598253304725895
 21
5.794137456006933
 31
0.0
  0
LINE
  5
355
330
18
100
AcDbEntity
  8
Object
100
AcDbLine
 10
4.585253304725895
 20
5.322137456006933
 30
0.0
 11
4.740253304725895
 21
5.375137456006933
 31
0.0
  0
LINE
  5
356
330
18
100
AcDbEntity
  8
Object
100
AcDbLine
 10
4.582253304725895
 20
5.557137456006933
 30
0.0
 11
4.602253304725895
 21
5.528137456006933
 31
0.0
  0
LINE
  5
357
330
18
100
AcDbEntity
  8
Object
100
AcDbLine
 10
4.598253304725895
 20
5.794137456006933
 30
0.0
 11
4.581253304725896
 21
5.762137456006933
 31
0.0
  0
LINE
  5
358
330
18
100
AcDbEntity
  8
Object
100
AcDbLine
 10
4.575253304725896
 20
5.726137456006933
 30
0.0
 11
4.575253304725896
 21
5.591137456006933
 31
0.0
  0
LINE
  5
359
330
18
100
AcDbEntity
  8
Object
100
AcDbLine
 10
4.750253304725895
 20
5.562137456006933
 30
0.0
 11
4.760253304725895
 21
5.577137456006933
 31
0.0
  0
LINE
  5
35A
330
18
100
AcDbEntity
  8
Object
100
AcDbLine
 10
4.575253304725896
 20
5.591137456006933
 30
0.0
 11
4.582253304725895
 21
5.557137456006933
 31
0.0
  0
LINE
  5
35B
330
18
100
AcDbEntity
  8
Object
100
AcDbLine
 10
4.581253304725896
 20
5.762137456006933
 30
0.0
 11
4.575253304725896
 21
5.726137456006933
 31
0.0
  0
LINE
  5
35C
330
18
100
AcDbEntity
  8
Object
100
AcDbLine
 10
4.565253304725896
 20
5.293137456006933
 30
0.0
 11
4.565253304725896
 21
4.017137456006933
 31
0.0
  0
LINE
  5
35D
330
18
100
AcDbEntity
  8
Object
100
AcDbLine
 10
4.565253304725896
 20
4.017137456006933
 30
0.0
 11
4.545253304725895
 21
4.017137456006933
 31
0.0
  0
LINE
  5
35E
330
18
100
AcDbEntity
  8
Object
100
AcDbLine
 10
4.585253304725895
 20
5.322137456006933
 30
0.0
 11
4.575253304725896
 21
5.315137456006933
 31
0.0
  0
LINE
  5
35F
330
18
100
AcDbEntity
  8
Object
100
AcDbLine
 10
4.575253304725896
 20
5.315137456006933
 30
0.0
 11
4.568253304725895
 21
5.305137456006933
 31
0.0
  0
LINE
  5
360
330
18
100
AcDbEntity
  8
Object
100
AcDbLine
 10
4.717253304725895
 20
5.441137456006933
 30
0.0
 11
4.526253304725895
 21
5.375137456006933
 31
0.0
  0
LINE
  5
361
330
18
100
AcDbEntity
  8
Object
100
AcDbLine
 10
6.598253304725895
 20
3.998137456006933
 30
0.0
 11
4.545253304725895
 21
3.998137456006933
 31
0.0
  0
LINE
  5
362
330
18
100
AcDbEntity
  8
Object
100
AcDbLine
 10
4.515253304725895
 20
3.918137456006933
 30
0.0
 11
6.628253304725896
 21
3.918137456006933
 31
0.0
  0
LINE
  5
363
330
18
100
AcDbEntity
  8
Object
100
AcDbLine
 10
4.526253304725895
 20
5.375137456006933
 30
0.0
 11
4.505253304725895
 21
5.363137456006933
 31
0.0
  0
LINE
  5
364
330
18
100
AcDbEntity
  8
Object
100
AcDbLine
 10
4.505253304725895
 20
5.363137456006933
 30
0.0
 11
4.490253304725895
 21
5.343137456006933
 31
0.0
  0
LINE
  5
365
330
18
100
AcDbEntity
  8
Object
100
AcDbLine
 10
4.565253304725896
 20
5.293137456006933
 30
0.0
 11
4.568253304725895
 21
5.305137456006933
 31
0.0
  0
LINE
  5
366
330
18
100
AcDbEntity
  8
Object
100
AcDbLine
 10
4.490253304725895
 20
5.343137456006933
 30
0.0
 11
4.485253304725896
 21
5.318137456006933
 31
0.0
  0
LINE
  5
367
330
18
100
AcDbEntity
  8
Object
100
AcDbLine
 10
4.545253304725895
 20
3.998137456006933
 30
0.0
 11
4.545253304725895
 21
4.017137456006933
 31
0.0
  0
LINE
  5
368
330
18
100
AcDbEntity
  8
Object
100
AcDbLine
 10
4.485253304725896
 20
5.318137456006933
 30
0.0
 11
4.485253304725896
 21
3.948137456006933
 31
0.0
  0
LINE
  5
369
330
18
100
AcDbEntity
  8
Object
100
AcDbLine
 10
4.515253304725895
 20
3.918137456006933
 30
0.0
 11
4.500253304725895
 21
3.922137456006932
 31
0.0
  0
LINE
  5
36A
330
18
100
AcDbEntity
  8
Object
100
AcDbLine
 10
4.500253304725895
 20
3.922137456006932
 30
0.0
 11
4.489253304725895
 21
3.933137456006933
 31
0.0
  0
LINE
  5
36B
330
18
100
AcDbEntity
  8
Object
100
AcDbLine
 10
4.489253304725895
 20
3.933137456006933
 30
0.0
 11
4.485253304725896
 21
3.948137456006933
 31
0.0
  0
LINE
  5
36C
330
18
100
AcDbEntity
  8
Object
100
AcDbLine
 10
6.598253304725895
 20
4.017137456006933
 30
0.0
 11
6.598253304725895
 21
3.998137456006933
 31
0.0
  0
LINE
  5
36D
330
18
100
AcDbEntity
  8
Object
100
AcDbLine
 10
6.658253304725895
 20
3.948137456006933
 30
0.0
 11
6.654253304725895
 21
3.933137456006933
 31
0.0
  0
LINE
  5
36E
330
18
100
AcDbEntity
  8
Object
100
AcDbLine
 10
6.654253304725895
 20
3.933137456006933
 30
0.0
 11
6.643253304725895
 21
3.922137456006932
 31
0.0
  0
LINE
  5
36F
330
18
100
AcDbEntity
  8
Object
100
AcDbLine
 10
6.643253304725895
 20
3.922137456006932
 30
0.0
 11
6.628253304725896
 21
3.918137456006933
 31
0.0
  0
LINE
  5
370
330
18
100
AcDbEntity
  8
Object
100
AcDbLine
 10
4.515253304725895
 20
3.918137456006933
 30
0.0
 11
4.500253304725895
 21
3.922137456006932
 31
0.0
  0
LINE
  5
371
330
18
100
AcDbEntity
  8
Object
100
AcDbLine
 10
4.500253304725895
 20
3.922137456006932
 30
0.0
 11
4.489253304725895
 21
3.933137456006933
 31
0.0
  0
LINE
  5
372
330
18
100
AcDbEntity
  8
Object
100
AcDbLine
 10
4.489253304725895
 20
3.933137456006933
 30
0.0
 11
4.485253304725896
 21
3.948137456006933
 31
0.0
  0
LINE
  5
373
330
18
100
AcDbEntity
  8
Object
100
AcDbLine
 10
4.545253304725895
 20
4.017137456006933
 30
0.0
 11
4.565253304725896
 21
4.017137456006933
 31
0.0
  0
LINE
  5
374
330
18
100
AcDbEntity
  8
Object
100
AcDbLine
 10
4.892253304725896
 20
5.605137456006933
 30
0.0
 11
4.884253304725895
 21
5.647137456006933
 31
0.0
  0
LINE
  5
375
330
18
100
AcDbEntity
  8
Object
100
AcDbLine
 10
6.478253304725895
 20
5.501137456006933
 30
0.0
 11
6.441253304725895
 21
5.509137456006933
 31
0.0
  0
LINE
  5
376
330
18
100
AcDbEntity
  8
Object
100
AcDbLine
 10
6.441253304725895
 20
5.509137456006933
 30
0.0
 11
6.411253304725895
 21
5.531137456006933
 31
0.0
  0
LINE
  5
377
330
18
100
AcDbEntity
  8
Object
100
AcDbLine
 10
6.411253304725895
 20
5.531137456006933
 30
0.0
 11
6.392253304725895
 21
5.562137456006933
 31
0.0
  0
LINE
  5
378
330
18
100
AcDbEntity
  8
Object
100
AcDbLine
 10
4.892253304725896
 20
5.605137456006933
 30
0.0
 11
4.893253304725895
 21
5.583137456006933
 31
0.0
  0
LINE
  5
379
330
18
100
AcDbEntity
  8
Object
100
AcDbLine
 10
4.893253304725895
 20
5.583137456006933
 30
0.0
 11
4.892253304725896
 21
5.562137456006933
 31
0.0
  0
LINE
  5
37A
330
18
100
AcDbEntity
  8
Object
100
AcDbLine
 10
4.892253304725896
 20
5.562137456006933
 30
0.0
 11
4.888253304725895
 21
5.541137456006933
 31
0.0
  0
LINE
  5
37B
330
18
100
AcDbEntity
  8
Object
100
AcDbLine
 10
4.585253304725895
 20
5.322137456006933
 30
0.0
 11
4.575253304725896
 21
5.315137456006933
 31
0.0
  0
LINE
  5
37C
330
18
100
AcDbEntity
  8
Object
100
AcDbLine
 10
4.575253304725896
 20
5.315137456006933
 30
0.0
 11
4.568253304725895
 21
5.305137456006933
 31
0.0
  0
LINE
  5
37D
330
18
100
AcDbEntity
  8
Object
100
AcDbLine
 10
4.568253304725895
 20
5.305137456006933
 30
0.0
 11
4.565253304725896
 21
5.293137456006933
 31
0.0
  0
LINE
  5
37E
330
18
100
AcDbEntity
  8
Object
100
AcDbLine
 10
6.258253304725895
 20
5.647137456006933
 30
0.0
 11
6.251253304725895
 21
5.605137456006933
 31
0.0
  0
LINE
  5
37F
330
18
100
AcDbEntity
  8
Object
100
AcDbLine
 10
6.617253304725895
 20
5.375137456006933
 30
0.0
 11
6.426253304725896
 21
5.441137456006933
 31
0.0
  0
LINE
  5
380
330
18
100
AcDbEntity
  8
Object
100
AcDbLine
 10
4.750253304725895
 20
5.562137456006933
 30
0.0
 11
4.731253304725895
 21
5.531137456006933
 31
0.0
  0
LINE
  5
381
330
18
100
AcDbEntity
  8
Object
100
AcDbLine
 10
4.731253304725895
 20
5.531137456006933
 30
0.0
 11
4.701253304725895
 21
5.509137456006933
 31
0.0
  0
LINE
  5
382
330
18
100
AcDbEntity
  8
Object
100
AcDbLine
 10
4.701253304725895
 20
5.509137456006933
 30
0.0
 11
4.665253304725895
 21
5.501137456006933
 31
0.0
  0
LINE
  5
383
330
18
100
AcDbEntity
  8
Object
100
AcDbLine
 10
6.403253304725895
 20
5.375137456006933
 30
0.0
 11
6.351253304725895
 21
5.401137456006933
 31
0.0
  0
LINE
  5
384
330
18
100
AcDbEntity
  8
Object
100
AcDbLine
 10
6.351253304725895
 20
5.401137456006933
 30
0.0
 11
6.307253304725895
 21
5.438137456006933
 31
0.0
  0
LINE
  5
385
330
18
100
AcDbEntity
  8
Object
100
AcDbLine
 10
6.307253304725895
 20
5.438137456006933
 30
0.0
 11
6.274253304725895
 21
5.486137456006933
 31
0.0
  0
LINE
  5
386
330
18
100
AcDbEntity
  8
Object
100
AcDbLine
 10
6.274253304725895
 20
5.486137456006933
 30
0.0
 11
6.254253304725895
 21
5.541137456006933
 31
0.0
  0
LINE
  5
387
330
18
100
AcDbEntity
  8
Object
100
AcDbLine
 10
6.392253304725895
 20
5.562137456006933
 30
0.0
 11
6.383253304725895
 21
5.577137456006933
 31
0.0
  0
LINE
  5
388
330
18
100
AcDbEntity
  8
Object
100
AcDbLine
 10
6.383253304725895
 20
5.577137456006933
 30
0.0
 11
6.366253304725895
 21
5.585137456006933
 31
0.0
  0
LINE
  5
389
330
18
100
AcDbEntity
  8
Object
100
AcDbLine
 10
6.366253304725895
 20
5.585137456006933
 30
0.0
 11
6.349253304725896
 21
5.584137456006933
 31
0.0
  0
LINE
  5
38A
330
18
100
AcDbEntity
  8
Object
100
AcDbLine
 10
6.349253304725896
 20
5.584137456006933
 30
0.0
 11
6.334253304725895
 21
5.574137456006933
 31
0.0
  0
LINE
  5
38B
330
18
100
AcDbEntity
  8
Object
100
AcDbLine
 10
6.334253304725895
 20
5.574137456006933
 30
0.0
 11
6.326253304725895
 21
5.558137456006933
 31
0.0
  0
LINE
  5
38C
330
18
100
AcDbEntity
  8
Object
100
AcDbLine
 10
6.326253304725895
 20
5.558137456006933
 30
0.0
 11
6.327253304725895
 21
5.540137456006933
 31
0.0
  0
LINE
  5
38D
330
18
100
AcDbEntity
  8
Object
100
AcDbLine
 10
6.658253304725895
 20
5.318137456006933
 30
0.0
 11
6.653253304725895
 21
5.343137456006933
 31
0.0
  0
LINE
  5
38E
330
18
100
AcDbEntity
  8
Object
100
AcDbLine
 10
6.653253304725895
 20
5.343137456006933
 30
0.0
 11
6.638253304725895
 21
5.363137456006933
 31
0.0
  0
LINE
  5
38F
330
18
100
AcDbEntity
  8
Object
100
AcDbLine
 10
6.638253304725895
 20
5.363137456006933
 30
0.0
 11
6.617253304725895
 21
5.375137456006933
 31
0.0
  0
LINE
  5
390
330
18
100
AcDbEntity
  8
Object
100
AcDbLine
 10
4.888253304725895
 20
5.541137456006933
 30
0.0
 11
4.869253304725895
 21
5.486137456006933
 31
0.0
  0
LINE
  5
391
330
18
100
AcDbEntity
  8
Object
100
AcDbLine
 10
4.869253304725895
 20
5.486137456006933
 30
0.0
 11
4.836253304725895
 21
5.438137456006933
 31
0.0
  0
LINE
  5
392
330
18
100
AcDbEntity
  8
Object
100
AcDbLine
 10
4.836253304725895
 20
5.438137456006933
 30
0.0
 11
4.792253304725895
 21
5.401137456006933
 31
0.0
  0
LINE
  5
393
330
18
100
AcDbEntity
  8
Object
100
AcDbLine
 10
4.792253304725895
 20
5.401137456006933
 30
0.0
 11
4.740253304725895
 21
5.375137456006933
 31
0.0
  0
LINE
  5
394
330
18
100
AcDbEntity
  8
Object
100
AcDbLine
 10
4.816253304725895
 20
5.540137456006933
 30
0.0
 11
4.793253304725896
 21
5.497137456006933
 31
0.0
  0
LINE
  5
395
330
18
100
AcDbEntity
  8
Object
100
AcDbLine
 10
4.793253304725896
 20
5.497137456006933
 30
0.0
 11
4.759253304725895
 21
5.463137456006933
 31
0.0
  0
LINE
  5
396
330
18
100
AcDbEntity
  8
Object
100
AcDbLine
 10
4.759253304725895
 20
5.463137456006933
 30
0.0
 11
4.717253304725895
 21
5.441137456006933
 31
0.0
  0
LINE
  5
397
330
18
100
AcDbEntity
  8
Object
100
AcDbLine
 10
6.578253304725895
 20
5.293137456006933
 30
0.0
 11
6.575253304725896
 21
5.305137456006933
 31
0.0
  0
LINE
  5
398
330
18
100
AcDbEntity
  8
Object
100
AcDbLine
 10
6.575253304725896
 20
5.305137456006933
 30
0.0
 11
6.568253304725895
 21
5.315137456006933
 31
0.0
  0
LINE
  5
399
330
18
100
AcDbEntity
  8
Object
100
AcDbLine
 10
6.568253304725895
 20
5.315137456006933
 30
0.0
 11
6.557253304725895
 21
5.322137456006933
 31
0.0
  0
LINE
  5
39A
330
18
100
AcDbEntity
  8
Object
100
AcDbLine
 10
6.254253304725895
 20
5.541137456006933
 30
0.0
 11
6.251253304725895
 21
5.562137456006933
 31
0.0
  0
LINE
  5
39B
330
18
100
AcDbEntity
  8
Object
100
AcDbLine
 10
6.251253304725895
 20
5.562137456006933
 30
0.0
 11
6.249253304725895
 21
5.583137456006933
 31
0.0
  0
LINE
  5
39C
330
18
100
AcDbEntity
  8
Object
100
AcDbLine
 10
6.249253304725895
 20
5.583137456006933
 30
0.0
 11
6.251253304725895
 21
5.605137456006933
 31
0.0
  0
LINE
  5
39D
330
18
100
AcDbEntity
  8
Object
100
AcDbLine
 10
6.426253304725896
 20
5.441137456006933
 30
0.0
 11
6.383253304725895
 21
5.463137456006933
 31
0.0
  0
LINE
  5
39E
330
18
100
AcDbEntity
  8
Object
100
AcDbLine
 10
6.383253304725895
 20
5.463137456006933
 30
0.0
 11
6.349253304725896
 21
5.497137456006933
 31
0.0
  0
LINE
  5
39F
330
18
100
AcDbEntity
  8
Object
100
AcDbLine
 10
6.349253304725896
 20
5.497137456006933
 30
0.0
 11
6.327253304725895
 21
5.540137456006933
 31
0.0
  0
LINE
  5
3A0
330
18
100
AcDbEntity
  8
Object
100
AcDbLine
 10
4.816253304725895
 20
5.540137456006933
 30
0.0
 11
4.817253304725895
 21
5.558137456006933
 31
0.0
  0
LINE
  5
3A1
330
18
100
AcDbEntity
  8
Object
100
AcDbLine
 10
4.817253304725895
 20
5.558137456006933
 30
0.0
 11
4.809253304725896
 21
5.574137456006933
 31
0.0
  0
LINE
  5
3A2
330
18
100
AcDbEntity
  8
Object
100
AcDbLine
 10
4.809253304725896
 20
5.574137456006933
 30
0.0
 11
4.794253304725895
 21
5.584137456006933
 31
0.0
  0
LINE
  5
3A3
330
18
100
AcDbEntity
  8
Object
100
AcDbLine
 10
4.794253304725895
 20
5.584137456006933
 30
0.0
 11
4.776253304725895
 21
5.585137456006933
 31
0.0
  0
LINE
  5
3A4
330
18
100
AcDbEntity
  8
Object
100
AcDbLine
 10
4.776253304725895
 20
5.585137456006933
 30
0.0
 11
4.760253304725895
 21
5.577137456006933
 31
0.0
  0
LINE
  5
3A5
330
18
100
AcDbEntity
  8
Object
100
AcDbLine
 10
4.760253304725895
 20
5.577137456006933
 30
0.0
 11
4.750253304725895
 21
5.562137456006933
 31
0.0
  0
LINE
  5
3A6
330
18
100
AcDbEntity
  8
Object
100
AcDbLine
 10
6.403253304725895
 20
5.375137456006933
 30
0.0
 11
6.557253304725895
 21
5.322137456006933
 31
0.0
  0
LINE
  5
3A7
330
18
100
AcDbEntity
  8
Object
100
AcDbLine
 10
4.717253304725895
 20
5.441137456006933
 30
0.0
 11
4.526253304725895
 21
5.375137456006933
 31
0.0
  0
LINE
  5
3A8
330
18
100
AcDbEntity
  8
Object
100
AcDbLine
 10
4.734253304725895
 20
5.828137456006933
 30
0.0
 11
4.727253304725895
 21
5.831137456006933
 31
0.0
  0
LINE
  5
3A9
330
18
100
AcDbEntity
  8
Object
100
AcDbLine
 10
6.568253304725895
 20
5.591137456006933
 30
0.0
 11
6.561253304725895
 21
5.557137456006933
 31
0.0
  0
LINE
  5
3AA
330
18
100
AcDbEntity
  8
Object
100
AcDbLine
 10
6.561253304725895
 20
5.557137456006933
 30
0.0
 11
6.541253304725895
 21
5.528137456006933
 31
0.0
  0
LINE
  5
3AB
330
18
100
AcDbEntity
  8
Object
100
AcDbLine
 10
6.541253304725895
 20
5.528137456006933
 30
0.0
 11
6.512253304725895
 21
5.508137456006933
 31
0.0
  0
LINE
  5
3AC
330
18
100
AcDbEntity
  8
Object
100
AcDbLine
 10
6.512253304725895
 20
5.508137456006933
 30
0.0
 11
6.478253304725895
 21
5.501137456006933
 31
0.0
  0
LINE
  5
3AD
330
18
100
AcDbEntity
  8
Object
100
AcDbLine
 10
6.568253304725895
 20
5.726137456006933
 30
0.0
 11
6.562253304725896
 21
5.762137456006933
 31
0.0
  0
LINE
  5
3AE
330
18
100
AcDbEntity
  8
Object
100
AcDbLine
 10
6.562253304725896
 20
5.762137456006933
 30
0.0
 11
6.545253304725895
 21
5.794137456006933
 31
0.0
  0
LINE
  5
3AF
330
18
100
AcDbEntity
  8
Object
100
AcDbLine
 10
6.545253304725895
 20
5.794137456006933
 30
0.0
 11
6.519253304725896
 21
5.819137456006933
 31
0.0
  0
LINE
  5
3B0
330
18
100
AcDbEntity
  8
Object
100
AcDbLine
 10
6.519253304725896
 20
5.819137456006933
 30
0.0
 11
6.487253304725896
 21
5.834137456006933
 31
0.0
  0
LINE
  5
3B1
330
18
100
AcDbEntity
  8
Object
100
AcDbLine
 10
6.487253304725896
 20
5.834137456006933
 30
0.0
 11
6.451253304725895
 21
5.838137456006933
 31
0.0
  0
LINE
  5
3B2
330
18
100
AcDbEntity
  8
Object
100
AcDbLine
 10
6.451253304725895
 20
5.838137456006933
 30
0.0
 11
6.416253304725895
 21
5.831137456006933
 31
0.0
  0
LINE
  5
3B3
330
18
100
AcDbEntity
  8
Object
100
AcDbLine
 10
4.485253304725896
 20
5.318137456006933
 30
0.0
 11
4.485253304725896
 21
3.948137456006933
 31
0.0
  0
LINE
  5
3B4
330
18
100
AcDbEntity
  8
Object
100
AcDbLine
 10
6.578253304725895
 20
5.293137456006933
 30
0.0
 11
6.578253304725895
 21
4.017137456006933
 31
0.0
  0
LINE
  5
3B5
330
18
100
AcDbEntity
  8
Object
100
AcDbLine
 10
4.727253304725895
 20
5.831137456006933
 30
0.0
 11
4.692253304725895
 21
5.838137456006933
 31
0.0
  0
LINE
  5
3B6
330
18
100
AcDbEntity
  8
Object
100
AcDbLine
 10
4.692253304725895
 20
5.838137456006933
 30
0.0
 11
4.656253304725895
 21
5.834137456006933
 31
0.0
  0
LINE
  5
3B7
330
18
100
AcDbEntity
  8
Object
100
AcDbLine
 10
4.656253304725895
 20
5.834137456006933
 30
0.0
 11
4.624253304725895
 21
5.819137456006933
 31
0.0
  0
LINE
  5
3B8
330
18
100
AcDbEntity
  8
Object
100
AcDbLine
 10
4.624253304725895
 20
5.819137456006933
 30
0.0
 11
4.598253304725895
 21
5.794137456006933
 31
0.0
  0
LINE
  5
3B9
330
18
100
AcDbEntity
  8
Object
100
AcDbLine
 10
4.598253304725895
 20
5.794137456006933
 30
0.0
 11
4.581253304725896
 21
5.762137456006933
 31
0.0
  0
LINE
  5
3BA
330
18
100
AcDbEntity
  8
Object
100
AcDbLine
 10
4.581253304725896
 20
5.762137456006933
 30
0.0
 11
4.575253304725896
 21
5.726137456006933
 31
0.0
  0
LINE
  5
3BB
330
18
100
AcDbEntity
  8
Object
100
AcDbLine
 10
4.884253304725895
 20
5.647137456006933
 30
0.0
 11
4.866253304725895
 21
5.706137456006933
 31
0.0
  0
LINE
  5
3BC
330
18
100
AcDbEntity
  8
Object
100
AcDbLine
 10
4.866253304725895
 20
5.706137456006933
 30
0.0
 11
4.833253304725895
 21
5.758137456006933
 31
0.0
  0
LINE
  5
3BD
330
18
100
AcDbEntity
  8
Object
100
AcDbLine
 10
4.833253304725895
 20
5.758137456006933
 30
0.0
 11
4.788253304725895
 21
5.799137456006933
 31
0.0
  0
LINE
  5
3BE
330
18
100
AcDbEntity
  8
Object
100
AcDbLine
 10
4.788253304725895
 20
5.799137456006933
 30
0.0
 11
4.734253304725895
 21
5.828137456006933
 31
0.0
  0
LINE
  5
3BF
330
18
100
AcDbEntity
  8
Object
100
AcDbLine
 10
6.568253304725895
 20
5.591137456006933
 30
0.0
 11
6.568253304725895
 21
5.726137456006933
 31
0.0
  0
LINE
  5
3C0
330
18
100
AcDbEntity
  8
Object
100
AcDbLine
 10
4.526253304725895
 20
5.375137456006933
 30
0.0
 11
4.505253304725895
 21
5.363137456006933
 31
0.0
  0
LINE
  5
3C1
330
18
100
AcDbEntity
  8
Object
100
AcDbLine
 10
4.505253304725895
 20
5.363137456006933
 30
0.0
 11
4.490253304725895
 21
5.343137456006933
 31
0.0
  0
LINE
  5
3C2
330
18
100
AcDbEntity
  8
Object
100
AcDbLine
 10
4.490253304725895
 20
5.343137456006933
 30
0.0
 11
4.485253304725896
 21
5.318137456006933
 31
0.0
  0
LINE
  5
3C3
330
18
100
AcDbEntity
  8
Object
100
AcDbLine
 10
4.565253304725896
 20
4.017137456006933
 30
0.0
 11
4.565253304725896
 21
5.293137456006933
 31
0.0
  0
LINE
  5
3C4
330
18
100
AcDbEntity
  8
Object
100
AcDbLine
 10
6.409253304725895
 20
5.828137456006933
 30
0.0
 11
6.355253304725895
 21
5.799137456006933
 31
0.0
  0
LINE
  5
3C5
330
18
100
AcDbEntity
  8
Object
100
AcDbLine
 10
6.355253304725895
 20
5.799137456006933
 30
0.0
 11
6.310253304725895
 21
5.758137456006933
 31
0.0
  0
LINE
  5
3C6
330
18
100
AcDbEntity
  8
Object
100
AcDbLine
 10
6.310253304725895
 20
5.758137456006933
 30
0.0
 11
6.277253304725896
 21
5.706137456006933
 31
0.0
  0
LINE
  5
3C7
330
18
100
AcDbEntity
  8
Object
100
AcDbLine
 10
6.277253304725896
 20
5.706137456006933
 30
0.0
 11
6.258253304725895
 21
5.647137456006933
 31
0.0
  0
LINE
  5
3C8
330
18
100
AcDbEntity
  8
Object
100
AcDbLine
 10
4.575253304725896
 20
5.726137456006933
 30
0.0
 11
4.575253304725896
 21
5.591137456006933
 31
0.0
  0
LINE
  5
3C9
330
18
100
AcDbEntity
  8
Object
100
AcDbLine
 10
4.665253304725895
 20
5.501137456006933
 30
0.0
 11
4.631253304725895
 21
5.508137456006933
 31
0.0
  0
LINE
  5
3CA
330
18
100
AcDbEntity
  8
Object
100
AcDbLine
 10
4.631253304725895
 20
5.508137456006933
 30
0.0
 11
4.602253304725895
 21
5.528137456006933
 31
0.0
  0
LINE
  5
3CB
330
18
100
AcDbEntity
  8
Object
100
AcDbLine
 10
4.602253304725895
 20
5.528137456006933
 30
0.0
 11
4.582253304725895
 21
5.557137456006933
 31
0.0
  0
LINE
  5
3CC
330
18
100
AcDbEntity
  8
Object
100
AcDbLine
 10
4.582253304725895
 20
5.557137456006933
 30
0.0
 11
4.575253304725896
 21
5.591137456006933
 31
0.0
  0
LINE
  5
3CD
330
18
100
AcDbEntity
  8
Object
100
AcDbLine
 10
6.578253304725895
 20
4.017137456006933
 30
0.0
 11
6.598253304725895
 21
4.017137456006933
 31
0.0
  0
LINE
  5
3CE
330
18
100
AcDbEntity
  8
Object
100
AcDbLine
 10
6.658253304725895
 20
3.948137456006933
 30
0.0
 11
6.658253304725895
 21
5.318137456006933
 31
0.0
  0
LINE
  5
3CF
330
18
100
AcDbEntity
  8
Object
100
AcDbLine
 10
4.585253304725895
 20
5.322137456006933
 30
0.0
 11
4.740253304725895
 21
5.375137456006933
 31
0.0
  0
LINE
  5
3D0
330
18
100
AcDbEntity
  8
Object
100
AcDbLine
 10
6.416253304725895
 20
5.831137456006933
 30
0.0
 11
6.409253304725895
 21
5.828137456006933
 31
0.0
  0
LINE
  5
3D1
330
18
100
AcDbEntity
  8
Object
100
AcDbLine
 10
6.169253304725895
 20
10.85582614264567
 30
0.0
 11
6.169253304725895
 21
10.55082614264567
 31
0.0
  0
LINE
  5
3D2
330
18
100
AcDbEntity
  8
Object
100
AcDbLine
 10
6.169253304725895
 20
14.55182614264568
 30
0.0
 11
6.169253304725895
 21
14.85682614264568
 31
0.0
  0
LINE
  5
3D3
330
18
100
AcDbEntity
  8
Object
100
AcDbLine
 10
6.169253304725895
 20
14.85682614264568
 30
0.0
 11
6.161253304725895
 21
14.89382614264568
 31
0.0
  0
LINE
  5
3D4
330
18
100
AcDbEntity
  8
Object
100
AcDbLine
 10
6.161253304725895
 20
10.89282614264567
 30
0.0
 11
6.169253304725895
 21
10.85582614264567
 31
0.0
  0
LINE
  5
3D5
330
18
100
AcDbEntity
  8
Object
100
AcDbLine
 10
6.169253304725895
 20
14.55182614264568
 30
0.0
 11
6.161253304725895
 21
14.51382614264568
 31
0.0
  0
LINE
  5
3D6
330
18
100
AcDbEntity
  8
Object
100
AcDbLine
 10
6.169253304725895
 20
10.55082614264567
 30
0.0
 11
6.161253304725895
 21
10.51382614264568
 31
0.0
  0
LINE
  5
3D7
330
18
100
AcDbEntity
  8
Object
100
AcDbLine
 10
6.140253304725895
 20
14.92582614264567
 30
0.0
 11
6.161253304725895
 21
14.89382614264568
 31
0.0
  0
LINE
  5
3D8
330
18
100
AcDbEntity
  8
Object
100
AcDbLine
 10
6.140253304725895
 20
10.92482614264568
 30
0.0
 11
6.161253304725895
 21
10.89282614264567
 31
0.0
  0
LINE
  5
3D9
330
18
100
AcDbEntity
  8
Object
100
AcDbLine
 10
6.161253304725895
 20
14.51382614264568
 30
0.0
 11
6.140253304725895
 21
14.48282614264568
 31
0.0
  0
LINE
  5
3DA
330
18
100
AcDbEntity
  8
Object
100
AcDbLine
 10
6.161253304725895
 20
10.51382614264568
 30
0.0
 11
6.140253304725895
 21
10.48182614264568
 31
0.0
  0
LINE
  5
3DB
330
18
100
AcDbEntity
  8
Object
100
AcDbLine
 10
6.109253304725895
 20
14.94682614264568
 30
0.0
 11
6.140253304725895
 21
14.92582614264567
 31
0.0
  0
LINE
  5
3DC
330
18
100
AcDbEntity
  8
Object
100
AcDbLine
 10
6.140253304725895
 20
14.48282614264568
 30
0.0
 11
6.109253304725895
 21
14.46182614264567
 31
0.0
  0
LINE
  5
3DD
330
18
100
AcDbEntity
  8
Object
100
AcDbLine
 10
6.109253304725895
 20
10.94582614264568
 30
0.0
 11
6.140253304725895
 21
10.92482614264568
 31
0.0
  0
LINE
  5
3DE
330
18
100
AcDbEntity
  8
Object
100
AcDbLine
 10
6.140253304725895
 20
10.48182614264568
 30
0.0
 11
6.109253304725895
 21
10.46082614264568
 31
0.0
  0
LINE
  5
3DF
330
18
100
AcDbEntity
  8
Object
100
AcDbLine
 10
6.071253304725895
 20
14.95382614264568
 30
0.0
 11
6.109253304725895
 21
14.94682614264568
 31
0.0
  0
LINE
  5
3E0
330
18
100
AcDbEntity
  8
Object
100
AcDbLine
 10
6.071253304725895
 20
10.95382614264567
 30
0.0
 11
6.109253304725895
 21
10.94582614264568
 31
0.0
  0
LINE
  5
3E1
330
18
100
AcDbEntity
  8
Object
100
AcDbLine
 10
6.109253304725895
 20
14.46182614264567
 30
0.0
 11
6.071253304725895
 21
14.45382614264568
 31
0.0
  0
LINE
  5
3E2
330
18
100
AcDbEntity
  8
Object
100
AcDbLine
 10
6.109253304725895
 20
10.46082614264568
 30
0.0
 11
6.071253304725895
 21
10.45382614264568
 31
0.0
  0
LINE
  5
3E3
330
18
100
AcDbEntity
  8
Object
100
AcDbLine
 10
6.034253304725895
 20
14.94682614264568
 30
0.0
 11
6.071253304725895
 21
14.95382614264568
 31
0.0
  0
LINE
  5
3E4
330
18
100
AcDbEntity
  8
Object
100
AcDbLine
 10
6.034253304725895
 20
10.94582614264568
 30
0.0
 11
6.071253304725895
 21
10.95382614264567
 31
0.0
  0
LINE
  5
3E5
330
18
100
AcDbEntity
  8
Object
100
AcDbLine
 10
6.071253304725895
 20
14.45382614264568
 30
0.0
 11
6.034253304725895
 21
14.46182614264567
 31
0.0
  0
LINE
  5
3E6
330
18
100
AcDbEntity
  8
Object
100
AcDbLine
 10
6.071253304725895
 20
10.45382614264568
 30
0.0
 11
6.034253304725895
 21
10.46082614264568
 31
0.0
  0
LINE
  5
3E7
330
18
100
AcDbEntity
  8
Object
100
AcDbLine
 10
6.002253304725895
 20
14.92582614264567
 30
0.0
 11
6.034253304725895
 21
14.94682614264568
 31
0.0
  0
LINE
  5
3E8
330
18
100
AcDbEntity
  8
Object
100
AcDbLine
 10
6.034253304725895
 20
14.46182614264567
 30
0.0
 11
6.002253304725895
 21
14.48282614264568
 31
0.0
  0
LINE
  5
3E9
330
18
100
AcDbEntity
  8
Object
100
AcDbLine
 10
6.002253304725895
 20
10.92482614264568
 30
0.0
 11
6.034253304725895
 21
10.94582614264568
 31
0.0
  0
LINE
  5
3EA
330
18
100
AcDbEntity
  8
Object
100
AcDbLine
 10
6.034253304725895
 20
10.46082614264568
 30
0.0
 11
6.002253304725895
 21
10.48182614264568
 31
0.0
  0
LINE
  5
3EB
330
18
100
AcDbEntity
  8
Object
100
AcDbLine
 10
5.974253304725896
 20
14.85682614264568
 30
0.0
 11
5.981253304725895
 21
14.89382614264568
 31
0.0
  0
LINE
  5
3EC
330
18
100
AcDbEntity
  8
Object
100
AcDbLine
 10
5.981253304725895
 20
14.51382614264568
 30
0.0
 11
5.974253304725896
 21
14.55182614264568
 31
0.0
  0
LINE
  5
3ED
330
18
100
AcDbEntity
  8
Object
100
AcDbLine
 10
5.669253304725895
 20
14.85682614264568
 30
0.0
 11
5.669253304725895
 21
14.55182614264568
 31
0.0
  0
LINE
  5
3EE
330
18
100
AcDbEntity
  8
Object
100
AcDbLine
 10
5.974253304725896
 20
14.55182614264568
 30
0.0
 11
5.974253304725896
 21
14.85682614264568
 31
0.0
  0
LINE
  5
3EF
330
18
100
AcDbEntity
  8
Object
100
AcDbLine
 10
5.981253304725895
 20
10.89282614264567
 30
0.0
 11
5.974253304725896
 21
10.85582614264567
 31
0.0
  0
LINE
  5
3F0
330
18
100
AcDbEntity
  8
Object
100
AcDbLine
 10
5.974253304725896
 20
10.85582614264567
 30
0.0
 11
5.974253304725896
 21
10.55082614264567
 31
0.0
  0
LINE
  5
3F1
330
18
100
AcDbEntity
  8
Object
100
AcDbLine
 10
5.974253304725896
 20
10.55082614264567
 30
0.0
 11
5.981253304725895
 21
10.51382614264568
 31
0.0
  0
LINE
  5
3F2
330
18
100
AcDbEntity
  8
Object
100
AcDbLine
 10
5.669253304725895
 20
10.85582614264567
 30
0.0
 11
5.669253304725895
 21
10.55082614264567
 31
0.0
  0
LINE
  5
3F3
330
18
100
AcDbEntity
  8
Object
100
AcDbLine
 10
5.661253304725896
 20
14.89382614264568
 30
0.0
 11
5.669253304725895
 21
14.85682614264568
 31
0.0
  0
LINE
  5
3F4
330
18
100
AcDbEntity
  8
Object
100
AcDbLine
 10
5.669253304725895
 20
14.55182614264568
 30
0.0
 11
5.661253304725896
 21
14.51382614264568
 31
0.0
  0
LINE
  5
3F5
330
18
100
AcDbEntity
  8
Object
100
AcDbLine
 10
5.669253304725895
 20
10.55082614264567
 30
0.0
 11
5.661253304725896
 21
10.51382614264568
 31
0.0
  0
LINE
  5
3F6
330
18
100
AcDbEntity
  8
Object
100
AcDbLine
 10
6.002253304725895
 20
10.48182614264568
 30
0.0
 11
5.981253304725895
 21
10.51382614264568
 31
0.0
  0
LINE
  5
3F7
330
18
100
AcDbEntity
  8
Object
100
AcDbLine
 10
5.661253304725896
 20
10.89282614264567
 30
0.0
 11
5.669253304725895
 21
10.85582614264567
 31
0.0
  0
LINE
  5
3F8
330
18
100
AcDbEntity
  8
Object
100
AcDbLine
 10
5.640253304725895
 20
14.92582614264567
 30
0.0
 11
5.661253304725896
 21
14.89382614264568
 31
0.0
  0
LINE
  5
3F9
330
18
100
AcDbEntity
  8
Object
100
AcDbLine
 10
5.981253304725895
 20
14.89382614264568
 30
0.0
 11
6.002253304725895
 21
14.92582614264567
 31
0.0
  0
LINE
  5
3FA
330
18
100
AcDbEntity
  8
Object
100
AcDbLine
 10
5.661253304725896
 20
14.51382614264568
 30
0.0
 11
5.640253304725895
 21
14.48282614264568
 31
0.0
  0
LINE
  5
3FB
330
18
100
AcDbEntity
  8
Object
100
AcDbLine
 10
6.002253304725895
 20
14.48282614264568
 30
0.0
 11
5.981253304725895
 21
14.51382614264568
 31
0.0
  0
LINE
  5
3FC
330
18
100
AcDbEntity
  8
Object
100
AcDbLine
 10
5.981253304725895
 20
10.89282614264567
 30
0.0
 11
6.002253304725895
 21
10.92482614264568
 31
0.0
  0
LINE
  5
3FD
330
18
100
AcDbEntity
  8
Object
100
AcDbLine
 10
5.661253304725896
 20
10.51382614264568
 30
0.0
 11
5.640253304725895
 21
10.48182614264568
 31
0.0
  0
LINE
  5
3FE
330
18
100
AcDbEntity
  8
Object
100
AcDbLine
 10
5.640253304725895
 20
10.92482614264568
 30
0.0
 11
5.661253304725896
 21
10.89282614264567
 31
0.0
  0
LINE
  5
3FF
330
18
100
AcDbEntity
  8
Object
100
AcDbLine
 10
5.609253304725895
 20
14.94682614264568
 30
0.0
 11
5.640253304725895
 21
14.92582614264567
 31
0.0
  0
LINE
  5
400
330
18
100
AcDbEntity
  8
Object
100
AcDbLine
 10
5.640253304725895
 20
14.48282614264568
 30
0.0
 11
5.609253304725895
 21
14.46182614264567
 31
0.0
  0
LINE
  5
401
330
18
100
AcDbEntity
  8
Object
100
AcDbLine
 10
5.609253304725895
 20
10.94582614264568
 30
0.0
 11
5.640253304725895
 21
10.92482614264568
 31
0.0
  0
LINE
  5
402
330
18
100
AcDbEntity
  8
Object
100
AcDbLine
 10
5.640253304725895
 20
10.48182614264568
 30
0.0
 11
5.609253304725895
 21
10.46082614264568
 31
0.0
  0
LINE
  5
403
330
18
100
AcDbEntity
  8
Object
100
AcDbLine
 10
5.571253304725895
 20
14.95382614264568
 30
0.0
 11
5.609253304725895
 21
14.94682614264568
 31
0.0
  0
LINE
  5
404
330
18
100
AcDbEntity
  8
Object
100
AcDbLine
 10
5.609253304725895
 20
14.46182614264567
 30
0.0
 11
5.571253304725895
 21
14.45382614264568
 31
0.0
  0
LINE
  5
405
330
18
100
AcDbEntity
  8
Object
100
AcDbLine
 10
5.571253304725895
 20
10.95382614264567
 30
0.0
 11
5.609253304725895
 21
10.94582614264568
 31
0.0
  0
LINE
  5
406
330
18
100
AcDbEntity
  8
Object
100
AcDbLine
 10
5.609253304725895
 20
10.46082614264568
 30
0.0
 11
5.571253304725895
 21
10.45382614264568
 31
0.0
  0
LINE
  5
407
330
18
100
AcDbEntity
  8
Object
100
AcDbLine
 10
5.534253304725895
 20
14.94682614264568
 30
0.0
 11
5.571253304725895
 21
14.95382614264568
 31
0.0
  0
LINE
  5
408
330
18
100
AcDbEntity
  8
Object
100
AcDbLine
 10
5.534253304725895
 20
10.94582614264568
 30
0.0
 11
5.571253304725895
 21
10.95382614264567
 31
0.0
  0
LINE
  5
409
330
18
100
AcDbEntity
  8
Object
100
AcDbLine
 10
5.571253304725895
 20
14.45382614264568
 30
0.0
 11
5.534253304725895
 21
14.46182614264567
 31
0.0
  0
LINE
  5
40A
330
18
100
AcDbEntity
  8
Object
100
AcDbLine
 10
5.502253304725895
 20
14.92582614264567
 30
0.0
 11
5.534253304725895
 21
14.94682614264568
 31
0.0
  0
LINE
  5
40B
330
18
100
AcDbEntity
  8
Object
100
AcDbLine
 10
5.534253304725895
 20
14.46182614264567
 30
0.0
 11
5.502253304725895
 21
14.48282614264568
 31
0.0
  0
LINE
  5
40C
330
18
100
AcDbEntity
  8
Object
100
AcDbLine
 10
5.502253304725895
 20
10.92482614264568
 30
0.0
 11
5.534253304725895
 21
10.94582614264568
 31
0.0
  0
LINE
  5
40D
330
18
100
AcDbEntity
  8
Object
100
AcDbLine
 10
5.481253304725895
 20
14.89382614264568
 30
0.0
 11
5.474253304725895
 21
14.85682614264568
 31
0.0
  0
LINE
  5
40E
330
18
100
AcDbEntity
  8
Object
100
AcDbLine
 10
5.474253304725895
 20
14.85682614264568
 30
0.0
 11
5.474253304725895
 21
14.55182614264568
 31
0.0
  0
LINE
  5
40F
330
18
100
AcDbEntity
  8
Object
100
AcDbLine
 10
5.474253304725895
 20
14.55182614264568
 30
0.0
 11
5.481253304725895
 21
14.51382614264568
 31
0.0
  0
LINE
  5
410
330
18
100
AcDbEntity
  8
Object
100
AcDbLine
 10
5.169253304725895
 20
14.85682614264568
 30
0.0
 11
5.169253304725895
 21
14.55182614264568
 31
0.0
  0
LINE
  5
411
330
18
100
AcDbEntity
  8
Object
100
AcDbLine
 10
5.474253304725895
 20
10.85582614264567
 30
0.0
 11
5.481253304725895
 21
10.89282614264567
 31
0.0
  0
LINE
  5
412
330
18
100
AcDbEntity
  8
Object
100
AcDbLine
 10
5.481253304725895
 20
10.51382614264568
 30
0.0
 11
5.474253304725895
 21
10.55082614264567
 31
0.0
  0
LINE
  5
413
330
18
100
AcDbEntity
  8
Object
100
AcDbLine
 10
5.169253304725895
 20
10.85582614264567
 30
0.0
 11
5.169253304725895
 21
10.55082614264567
 31
0.0
  0
LINE
  5
414
330
18
100
AcDbEntity
  8
Object
100
AcDbLine
 10
5.474253304725895
 20
10.55082614264567
 30
0.0
 11
5.474253304725895
 21
10.85582614264567
 31
0.0
  0
LINE
  5
415
330
18
100
AcDbEntity
  8
Object
100
AcDbLine
 10
5.161253304725895
 20
14.89382614264568
 30
0.0
 11
5.169253304725895
 21
14.85682614264568
 31
0.0
  0
LINE
  5
416
330
18
100
AcDbEntity
  8
Object
100
AcDbLine
 10
5.169253304725895
 20
14.55182614264568
 30
0.0
 11
5.161253304725895
 21
14.51382614264568
 31
0.0
  0
LINE
  5
417
330
18
100
AcDbEntity
  8
Object
100
AcDbLine
 10
5.169253304725895
 20
10.55082614264567
 30
0.0
 11
5.161253304725895
 21
10.51382614264568
 31
0.0
  0
LINE
  5
418
330
18
100
AcDbEntity
  8
Object
100
AcDbLine
 10
5.161253304725895
 20
10.89282614264567
 30
0.0
 11
5.169253304725895
 21
10.85582614264567
 31
0.0
  0
LINE
  5
419
330
18
100
AcDbEntity
  8
Object
100
AcDbLine
 10
5.481253304725895
 20
14.89382614264568
 30
0.0
 11
5.502253304725895
 21
14.92582614264567
 31
0.0
  0
LINE
  5
41A
330
18
100
AcDbEntity
  8
Object
100
AcDbLine
 10
5.140253304725895
 20
14.92582614264567
 30
0.0
 11
5.161253304725895
 21
14.89382614264568
 31
0.0
  0
LINE
  5
41B
330
18
100
AcDbEntity
  8
Object
100
AcDbLine
 10
5.161253304725895
 20
14.51382614264568
 30
0.0
 11
5.140253304725895
 21
14.48282614264568
 31
0.0
  0
LINE
  5
41C
330
18
100
AcDbEntity
  8
Object
100
AcDbLine
 10
5.502253304725895
 20
14.48282614264568
 30
0.0
 11
5.481253304725895
 21
14.51382614264568
 31
0.0
  0
LINE
  5
41D
330
18
100
AcDbEntity
  8
Object
100
AcDbLine
 10
5.502253304725895
 20
10.48182614264568
 30
0.0
 11
5.481253304725895
 21
10.51382614264568
 31
0.0
  0
LINE
  5
41E
330
18
100
AcDbEntity
  8
Object
100
AcDbLine
 10
5.161253304725895
 20
10.51382614264568
 30
0.0
 11
5.140253304725895
 21
10.48182614264568
 31
0.0
  0
LINE
  5
41F
330
18
100
AcDbEntity
  8
Object
100
AcDbLine
 10
5.140253304725895
 20
10.92482614264568
 30
0.0
 11
5.161253304725895
 21
10.89282614264567
 31
0.0
  0
LINE
  5
420
330
18
100
AcDbEntity
  8
Object
100
AcDbLine
 10
5.481253304725895
 20
10.89282614264567
 30
0.0
 11
5.502253304725895
 21
10.92482614264568
 31
0.0
  0
LINE
  5
421
330
18
100
AcDbEntity
  8
Object
100
AcDbLine
 10
5.109253304725895
 20
14.94682614264568
 30
0.0
 11
5.140253304725895
 21
14.92582614264567
 31
0.0
  0
LINE
  5
422
330
18
100
AcDbEntity
  8
Object
100
AcDbLine
 10
5.109253304725895
 20
10.94582614264568
 30
0.0
 11
5.140253304725895
 21
10.92482614264568
 31
0.0
  0
LINE
  5
423
330
18
100
AcDbEntity
  8
Object
100
AcDbLine
 10
5.140253304725895
 20
14.48282614264568
 30
0.0
 11
5.109253304725895
 21
14.46182614264567
 31
0.0
  0
LINE
  5
424
330
18
100
AcDbEntity
  8
Object
100
AcDbLine
 10
5.071253304725895
 20
14.95382614264568
 30
0.0
 11
5.109253304725895
 21
14.94682614264568
 31
0.0
  0
LINE
  5
425
330
18
100
AcDbEntity
  8
Object
100
AcDbLine
 10
5.071253304725895
 20
10.95382614264567
 30
0.0
 11
5.109253304725895
 21
10.94582614264568
 31
0.0
  0
LINE
  5
426
330
18
100
AcDbEntity
  8
Object
100
AcDbLine
 10
5.109253304725895
 20
14.46182614264567
 30
0.0
 11
5.071253304725895
 21
14.45382614264568
 31
0.0
  0
LINE
  5
427
330
18
100
AcDbEntity
  8
Object
100
AcDbLine
 10
5.034253304725895
 20
14.94682614264568
 30
0.0
 11
5.071253304725895
 21
14.95382614264568
 31
0.0
  0
LINE
  5
428
330
18
100
AcDbEntity
  8
Object
100
AcDbLine
 10
5.034253304725895
 20
10.94582614264568
 30
0.0
 11
5.071253304725895
 21
10.95382614264567
 31
0.0
  0
LINE
  5
429
330
18
100
AcDbEntity
  8
Object
100
AcDbLine
 10
5.071253304725895
 20
14.45382614264568
 30
0.0
 11
5.034253304725895
 21
14.46182614264567
 31
0.0
  0
LINE
  5
42A
330
18
100
AcDbEntity
  8
Object
100
AcDbLine
 10
5.002253304725895
 20
14.92582614264567
 30
0.0
 11
5.034253304725895
 21
14.94682614264568
 31
0.0
  0
LINE
  5
42B
330
18
100
AcDbEntity
  8
Object
100
AcDbLine
 10
5.002253304725895
 20
10.92482614264568
 30
0.0
 11
5.034253304725895
 21
10.94582614264568
 31
0.0
  0
LINE
  5
42C
330
18
100
AcDbEntity
  8
Object
100
AcDbLine
 10
5.034253304725895
 20
14.46182614264567
 30
0.0
 11
5.002253304725895
 21
14.48282614264568
 31
0.0
  0
LINE
  5
42D
330
18
100
AcDbEntity
  8
Object
100
AcDbLine
 10
4.981253304725895
 20
14.89382614264568
 30
0.0
 11
5.002253304725895
 21
14.92582614264567
 31
0.0
  0
LINE
  5
42E
330
18
100
AcDbEntity
  8
Object
100
AcDbLine
 10
5.002253304725895
 20
14.48282614264568
 30
0.0
 11
4.981253304725895
 21
14.51382614264568
 31
0.0
  0
LINE
  5
42F
330
18
100
AcDbEntity
  8
Object
100
AcDbLine
 10
4.981253304725895
 20
10.89282614264567
 30
0.0
 11
5.002253304725895
 21
10.92482614264568
 31
0.0
  0
LINE
  5
430
330
18
100
AcDbEntity
  8
Object
100
AcDbLine
 10
4.974253304725895
 20
14.85682614264568
 30
0.0
 11
4.981253304725895
 21
14.89382614264568
 31
0.0
  0
LINE
  5
431
330
18
100
AcDbEntity
  8
Object
100
AcDbLine
 10
4.981253304725895
 20
14.51382614264568
 30
0.0
 11
4.974253304725895
 21
14.55182614264568
 31
0.0
  0
LINE
  5
432
330
18
100
AcDbEntity
  8
Object
100
AcDbLine
 10
4.974253304725895
 20
10.85582614264567
 30
0.0
 11
4.981253304725895
 21
10.89282614264567
 31
0.0
  0
LINE
  5
433
330
18
100
AcDbEntity
  8
Object
100
AcDbLine
 10
4.893253304725895
 20
8.702826142645676
 30
0.0
 11
6.249253304725895
 21
8.702826142645676
 31
0.0
  0
LINE
  5
434
330
18
100
AcDbEntity
  8
Object
100
AcDbLine
 10
4.974253304725895
 20
10.85582614264567
 30
0.0
 11
4.974253304725895
 21
10.55082614264567
 31
0.0
  0
LINE
  5
435
330
18
100
AcDbEntity
  8
Object
100
AcDbLine
 10
4.974253304725895
 20
10.55082614264567
 30
0.0
 11
4.981253304725895
 21
10.51382614264568
 31
0.0
  0
LINE
  5
436
330
18
100
AcDbEntity
  8
Object
100
AcDbLine
 10
4.981253304725895
 20
10.51382614264568
 30
0.0
 11
5.002253304725895
 21
10.48182614264568
 31
0.0
  0
LINE
  5
437
330
18
100
AcDbEntity
  8
Object
100
AcDbLine
 10
5.002253304725895
 20
10.48182614264568
 30
0.0
 11
5.034253304725895
 21
10.46082614264568
 31
0.0
  0
LINE
  5
438
330
18
100
AcDbEntity
  8
Object
100
AcDbLine
 10
5.034253304725895
 20
10.46082614264568
 30
0.0
 11
5.071253304725895
 21
10.45382614264568
 31
0.0
  0
LINE
  5
439
330
18
100
AcDbEntity
  8
Object
100
AcDbLine
 10
5.071253304725895
 20
10.45382614264568
 30
0.0
 11
5.109253304725895
 21
10.46082614264568
 31
0.0
  0
LINE
  5
43A
330
18
100
AcDbEntity
  8
Object
100
AcDbLine
 10
5.109253304725895
 20
10.46082614264568
 30
0.0
 11
5.140253304725895
 21
10.48182614264568
 31
0.0
  0
LINE
  5
43B
330
18
100
AcDbEntity
  8
Object
100
AcDbLine
 10
5.502253304725895
 20
10.48182614264568
 30
0.0
 11
5.534253304725895
 21
10.46082614264568
 31
0.0
  0
LINE
  5
43C
330
18
100
AcDbEntity
  8
Object
100
AcDbLine
 10
5.534253304725895
 20
10.46082614264568
 30
0.0
 11
5.571253304725895
 21
10.45382614264568
 31
0.0
  0
LINE
  5
43D
330
18
100
AcDbEntity
  8
Object
100
AcDbLine
 10
4.974253304725895
 20
14.55182614264568
 30
0.0
 11
4.974253304725895
 21
14.85682614264568
 31
0.0
  0
LINE
  5
43E
330
18
100
AcDbEntity
  8
Object
100
AcDbLine
 10
4.974253304725895
 20
10.55082614264567
 30
0.0
 11
4.974253304725895
 21
10.85582614264567
 31
0.0
  0
LINE
  5
43F
330
18
100
AcDbEntity
  8
Object
100
AcDbLine
 10
6.169253304725895
 20
14.85682614264568
 30
0.0
 11
6.169253304725895
 21
14.55182614264568
 31
0.0
  0
LINE
  5
440
330
18
100
AcDbEntity
  8
Object
100
AcDbLine
 10
6.658253304725895
 20
8.702826142645676
 30
0.0
 11
6.653253304725895
 21
8.702826142645676
 31
0.0
  0
LINE
  5
441
330
18
100
AcDbEntity
  8
Object
100
AcDbLine
 10
6.653253304725895
 20
8.702826142645676
 30
0.0
 11
6.638253304725895
 21
8.702826142645676
 31
0.0
  0
LINE
  5
442
330
18
100
AcDbEntity
  8
Object
100
AcDbLine
 10
6.638253304725895
 20
8.702826142645676
 30
0.0
 11
6.617253304725895
 21
8.702826142645676
 31
0.0
  0
LINE
  5
443
330
18
100
AcDbEntity
  8
Object
100
AcDbLine
 10
6.568253304725895
 20
8.702826142645676
 30
0.0
 11
6.562253304725896
 21
8.702826142645676
 31
0.0
  0
LINE
  5
444
330
18
100
AcDbEntity
  8
Object
100
AcDbLine
 10
6.562253304725896
 20
8.702826142645676
 30
0.0
 11
6.545253304725895
 21
8.702826142645676
 31
0.0
  0
LINE
  5
445
330
18
100
AcDbEntity
  8
Object
100
AcDbLine
 10
6.545253304725895
 20
8.702826142645676
 30
0.0
 11
6.519253304725896
 21
8.702826142645676
 31
0.0
  0
LINE
  5
446
330
18
100
AcDbEntity
  8
Object
100
AcDbLine
 10
6.519253304725896
 20
8.702826142645676
 30
0.0
 11
6.487253304725896
 21
8.702826142645676
 31
0.0
  0
LINE
  5
447
330
18
100
AcDbEntity
  8
Object
100
AcDbLine
 10
6.487253304725896
 20
8.702826142645676
 30
0.0
 11
6.451253304725895
 21
8.702826142645676
 31
0.0
  0
LINE
  5
448
330
18
100
AcDbEntity
  8
Object
100
AcDbLine
 10
6.568253304725895
 20
8.702826142645676
 30
0.0
 11
6.617253304725895
 21
8.702826142645676
 31
0.0
  0
LINE
  5
449
330
18
100
AcDbEntity
  8
Object
100
AcDbLine
 10
6.451253304725895
 20
8.702826142645676
 30
0.0
 11
6.416253304725895
 21
8.702826142645676
 31
0.0
  0
LINE
  5
44A
330
18
100
AcDbEntity
  8
Object
100
AcDbLine
 10
6.416253304725895
 20
8.702826142645676
 30
0.0
 11
6.409253304725895
 21
8.702826142645676
 31
0.0
  0
LINE
  5
44B
330
18
100
AcDbEntity
  8
Object
100
AcDbLine
 10
6.409253304725895
 20
8.702826142645676
 30
0.0
 11
6.355253304725895
 21
8.702826142645676
 31
0.0
  0
LINE
  5
44C
330
18
100
AcDbEntity
  8
Object
100
AcDbLine
 10
6.355253304725895
 20
8.702826142645676
 30
0.0
 11
6.310253304725895
 21
8.702826142645676
 31
0.0
  0
LINE
  5
44D
330
18
100
AcDbEntity
  8
Object
100
AcDbLine
 10
6.310253304725895
 20
8.702826142645676
 30
0.0
 11
6.277253304725896
 21
8.702826142645676
 31
0.0
  0
LINE
  5
44E
330
18
100
AcDbEntity
  8
Object
100
AcDbLine
 10
6.277253304725896
 20
8.702826142645676
 30
0.0
 11
6.258253304725895
 21
8.702826142645676
 31
0.0
  0
LINE
  5
44F
330
18
100
AcDbEntity
  8
Object
100
AcDbLine
 10
6.258253304725895
 20
8.702826142645676
 30
0.0
 11
6.251253304725895
 21
8.702826142645676
 31
0.0
  0
LINE
  5
450
330
18
100
AcDbEntity
  8
Object
100
AcDbLine
 10
6.251253304725895
 20
8.702826142645676
 30
0.0
 11
6.249253304725895
 21
8.702826142645676
 31
0.0
  0
LINE
  5
451
330
18
100
AcDbEntity
  8
Object
100
AcDbLine
 10
4.893253304725895
 20
8.702826142645676
 30
0.0
 11
4.892253304725896
 21
8.702826142645676
 31
0.0
  0
LINE
  5
452
330
18
100
AcDbEntity
  8
Object
100
AcDbLine
 10
4.892253304725896
 20
8.702826142645676
 30
0.0
 11
4.884253304725895
 21
8.702826142645676
 31
0.0
  0
LINE
  5
453
330
18
100
AcDbEntity
  8
Object
100
AcDbLine
 10
4.884253304725895
 20
8.702826142645676
 30
0.0
 11
4.866253304725895
 21
8.702826142645676
 31
0.0
  0
LINE
  5
454
330
18
100
AcDbEntity
  8
Object
100
AcDbLine
 10
4.866253304725895
 20
8.702826142645676
 30
0.0
 11
4.833253304725895
 21
8.702826142645676
 31
0.0
  0
LINE
  5
455
330
18
100
AcDbEntity
  8
Object
100
AcDbLine
 10
4.833253304725895
 20
8.702826142645676
 30
0.0
 11
4.788253304725895
 21
8.702826142645676
 31
0.0
  0
LINE
  5
456
330
18
100
AcDbEntity
  8
Object
100
AcDbLine
 10
4.788253304725895
 20
8.702826142645676
 30
0.0
 11
4.734253304725895
 21
8.702826142645676
 31
0.0
  0
LINE
  5
457
330
18
100
AcDbEntity
  8
Object
100
AcDbLine
 10
4.734253304725895
 20
8.702826142645676
 30
0.0
 11
4.727253304725895
 21
8.702826142645676
 31
0.0
  0
LINE
  5
458
330
18
100
AcDbEntity
  8
Object
100
AcDbLine
 10
4.727253304725895
 20
8.702826142645676
 30
0.0
 11
4.692253304725895
 21
8.702826142645676
 31
0.0
  0
LINE
  5
459
330
18
100
AcDbEntity
  8
Object
100
AcDbLine
 10
4.692253304725895
 20
8.702826142645676
 30
0.0
 11
4.656253304725895
 21
8.702826142645676
 31
0.0
  0
LINE
  5
45A
330
18
100
AcDbEntity
  8
Object
100
AcDbLine
 10
4.656253304725895
 20
8.702826142645676
 30
0.0
 11
4.624253304725895
 21
8.702826142645676
 31
0.0
  0
LINE
  5
45B
330
18
100
AcDbEntity
  8
Object
100
AcDbLine
 10
4.624253304725895
 20
8.702826142645676
 30
0.0
 11
4.598253304725895
 21
8.702826142645676
 31
0.0
  0
LINE
  5
45C
330
18
100
AcDbEntity
  8
Object
100
AcDbLine
 10
4.598253304725895
 20
8.702826142645676
 30
0.0
 11
4.581253304725896
 21
8.702826142645676
 31
0.0
  0
LINE
  5
45D
330
18
100
AcDbEntity
  8
Object
100
AcDbLine
 10
4.581253304725896
 20
8.702826142645676
 30
0.0
 11
4.575253304725896
 21
8.702826142645676
 31
0.0
  0
LINE
  5
45E
330
18
100
AcDbEntity
  8
Object
100
AcDbLine
 10
4.893253304725895
 20
8.702826142645676
 30
0.0
 11
6.249253304725895
 21
8.702826142645676
 31
0.0
  0
LINE
  5
45F
330
18
100
AcDbEntity
  8
Object
100
AcDbLine
 10
4.575253304725896
 20
8.702826142645676
 30
0.0
 11
4.526253304725895
 21
8.702826142645676
 31
0.0
  0
LINE
  5
460
330
18
100
AcDbEntity
  8
Object
100
AcDbLine
 10
4.526253304725895
 20
8.702826142645676
 30
0.0
 11
4.505253304725895
 21
8.702826142645676
 31
0.0
  0
LINE
  5
461
330
18
100
AcDbEntity
  8
Object
100
AcDbLine
 10
4.505253304725895
 20
8.702826142645676
 30
0.0
 11
4.490253304725895
 21
8.702826142645676
 31
0.0
  0
LINE
  5
462
330
18
100
AcDbEntity
  8
Object
100
AcDbLine
 10
4.490253304725895
 20
8.702826142645676
 30
0.0
 11
4.485253304725896
 21
8.702826142645676
 31
0.0
  0
LINE
  5
463
330
18
100
AcDbEntity
  8
Object
100
AcDbLine
 10
5.974253304725896
 20
14.55182614264568
 30
0.0
 11
5.974253304725896
 21
14.85682614264568
 31
0.0
  0
LINE
  5
464
330
18
100
AcDbEntity
  8
Object
100
AcDbLine
 10
5.169253304725895
 20
10.85582614264567
 30
0.0
 11
5.161253304725895
 21
10.89282614264567
 31
0.0
  0
LINE
  5
465
330
18
100
AcDbEntity
  8
Object
100
AcDbLine
 10
5.161253304725895
 20
10.89282614264567
 30
0.0
 11
5.140253304725895
 21
10.92482614264568
 31
0.0
  0
LINE
  5
466
330
18
100
AcDbEntity
  8
Object
100
AcDbLine
 10
5.140253304725895
 20
10.92482614264568
 30
0.0
 11
5.109253304725895
 21
10.94582614264568
 31
0.0
  0
LINE
  5
467
330
18
100
AcDbEntity
  8
Object
100
AcDbLine
 10
5.109253304725895
 20
10.94582614264568
 30
0.0
 11
5.071253304725895
 21
10.95382614264567
 31
0.0
  0
LINE
  5
468
330
18
100
AcDbEntity
  8
Object
100
AcDbLine
 10
5.071253304725895
 20
10.95382614264567
 30
0.0
 11
5.034253304725895
 21
10.94582614264568
 31
0.0
  0
LINE
  5
469
330
18
100
AcDbEntity
  8
Object
100
AcDbLine
 10
5.034253304725895
 20
10.94582614264568
 30
0.0
 11
5.002253304725895
 21
10.92482614264568
 31
0.0
  0
LINE
  5
46A
330
18
100
AcDbEntity
  8
Object
100
AcDbLine
 10
5.002253304725895
 20
10.92482614264568
 30
0.0
 11
4.981253304725895
 21
10.89282614264567
 31
0.0
  0
LINE
  5
46B
330
18
100
AcDbEntity
  8
Object
100
AcDbLine
 10
4.981253304725895
 20
10.89282614264567
 30
0.0
 11
4.974253304725895
 21
10.85582614264567
 31
0.0
  0
LINE
  5
46C
330
18
100
AcDbEntity
  8
Object
100
AcDbLine
 10
5.669253304725895
 20
14.85682614264568
 30
0.0
 11
5.661253304725896
 21
14.89382614264568
 31
0.0
  0
LINE
  5
46D
330
18
100
AcDbEntity
  8
Object
100
AcDbLine
 10
5.661253304725896
 20
14.89382614264568
 30
0.0
 11
5.640253304725895
 21
14.92582614264567
 31
0.0
  0
LINE
  5
46E
330
18
100
AcDbEntity
  8
Object
100
AcDbLine
 10
5.640253304725895
 20
14.92582614264567
 30
0.0
 11
5.609253304725895
 21
14.94682614264568
 31
0.0
  0
LINE
  5
46F
330
18
100
AcDbEntity
  8
Object
100
AcDbLine
 10
5.609253304725895
 20
14.94682614264568
 30
0.0
 11
5.571253304725895
 21
14.95382614264568
 31
0.0
  0
LINE
  5
470
330
18
100
AcDbEntity
  8
Object
100
AcDbLine
 10
5.571253304725895
 20
14.95382614264568
 30
0.0
 11
5.534253304725895
 21
14.94682614264568
 31
0.0
  0
LINE
  5
471
330
18
100
AcDbEntity
  8
Object
100
AcDbLine
 10
5.534253304725895
 20
14.94682614264568
 30
0.0
 11
5.502253304725895
 21
14.92582614264567
 31
0.0
  0
LINE
  5
472
330
18
100
AcDbEntity
  8
Object
100
AcDbLine
 10
5.502253304725895
 20
14.92582614264567
 30
0.0
 11
5.481253304725895
 21
14.89382614264568
 31
0.0
  0
LINE
  5
473
330
18
100
AcDbEntity
  8
Object
100
AcDbLine
 10
5.481253304725895
 20
14.89382614264568
 30
0.0
 11
5.474253304725895
 21
14.85682614264568
 31
0.0
  0
LINE
  5
474
330
18
100
AcDbEntity
  8
Object
100
AcDbLine
 10
5.474253304725895
 20
10.55082614264567
 30
0.0
 11
5.474253304725895
 21
10.85582614264567
 31
0.0
  0
LINE
  5
475
330
18
100
AcDbEntity
  8
Object
100
AcDbLine
 10
5.669253304725895
 20
14.85682614264568
 30
0.0
 11
5.669253304725895
 21
14.55182614264568
 31
0.0
  0
LINE
  5
476
330
18
100
AcDbEntity
  8
Object
100
AcDbLine
 10
5.974253304725896
 20
10.55082614264567
 30
0.0
 11
5.974253304725896
 21
10.85582614264567
 31
0.0
  0
LINE
  5
477
330
18
100
AcDbEntity
  8
Object
100
AcDbLine
 10
6.169253304725895
 20
10.55082614264567
 30
0.0
 11
6.161253304725895
 21
10.51382614264568
 31
0.0
  0
LINE
  5
478
330
18
100
AcDbEntity
  8
Object
100
AcDbLine
 10
6.161253304725895
 20
10.51382614264568
 30
0.0
 11
6.140253304725895
 21
10.48182614264568
 31
0.0
  0
LINE
  5
479
330
18
100
AcDbEntity
  8
Object
100
AcDbLine
 10
6.140253304725895
 20
10.48182614264568
 30
0.0
 11
6.109253304725895
 21
10.46082614264568
 31
0.0
  0
LINE
  5
47A
330
18
100
AcDbEntity
  8
Object
100
AcDbLine
 10
6.109253304725895
 20
10.46082614264568
 30
0.0
 11
6.071253304725895
 21
10.45382614264568
 31
0.0
  0
LINE
  5
47B
330
18
100
AcDbEntity
  8
Object
100
AcDbLine
 10
6.071253304725895
 20
10.45382614264568
 30
0.0
 11
6.034253304725895
 21
10.46082614264568
 31
0.0
  0
LINE
  5
47C
330
18
100
AcDbEntity
  8
Object
100
AcDbLine
 10
6.034253304725895
 20
10.46082614264568
 30
0.0
 11
6.002253304725895
 21
10.48182614264568
 31
0.0
  0
LINE
  5
47D
330
18
100
AcDbEntity
  8
Object
100
AcDbLine
 10
6.002253304725895
 20
10.48182614264568
 30
0.0
 11
5.981253304725895
 21
10.51382614264568
 31
0.0
  0
LINE
  5
47E
330
18
100
AcDbEntity
  8
Object
100
AcDbLine
 10
5.981253304725895
 20
10.51382614264568
 30
0.0
 11
5.974253304725896
 21
10.55082614264567
 31
0.0
  0
LINE
  5
47F
330
18
100
AcDbEntity
  8
Object
100
AcDbLine
 10
6.169253304725895
 20
14.85682614264568
 30
0.0
 11
6.161253304725895
 21
14.89382614264568
 31
0.0
  0
LINE
  5
480
330
18
100
AcDbEntity
  8
Object
100
AcDbLine
 10
6.161253304725895
 20
14.89382614264568
 30
0.0
 11
6.140253304725895
 21
14.92582614264567
 31
0.0
  0
LINE
  5
481
330
18
100
AcDbEntity
  8
Object
100
AcDbLine
 10
6.140253304725895
 20
14.92582614264567
 30
0.0
 11
6.109253304725895
 21
14.94682614264568
 31
0.0
  0
LINE
  5
482
330
18
100
AcDbEntity
  8
Object
100
AcDbLine
 10
6.109253304725895
 20
14.94682614264568
 30
0.0
 11
6.071253304725895
 21
14.95382614264568
 31
0.0
  0
LINE
  5
483
330
18
100
AcDbEntity
  8
Object
100
AcDbLine
 10
6.071253304725895
 20
14.95382614264568
 30
0.0
 11
6.034253304725895
 21
14.94682614264568
 31
0.0
  0
LINE
  5
484
330
18
100
AcDbEntity
  8
Object
100
AcDbLine
 10
6.034253304725895
 20
14.94682614264568
 30
0.0
 11
6.002253304725895
 21
14.92582614264567
 31
0.0
  0
LINE
  5
485
330
18
100
AcDbEntity
  8
Object
100
AcDbLine
 10
6.002253304725895
 20
14.92582614264567
 30
0.0
 11
5.981253304725895
 21
14.89382614264568
 31
0.0
  0
LINE
  5
486
330
18
100
AcDbEntity
  8
Object
100
AcDbLine
 10
5.981253304725895
 20
14.89382614264568
 30
0.0
 11
5.974253304725896
 21
14.85682614264568
 31
0.0
  0
LINE
  5
487
330
18
100
AcDbEntity
  8
Object
100
AcDbLine
 10
5.669253304725895
 20
14.55182614264568
 30
0.0
 11
5.661253304725896
 21
14.51382614264568
 31
0.0
  0
LINE
  5
488
330
18
100
AcDbEntity
  8
Object
100
AcDbLine
 10
5.661253304725896
 20
14.51382614264568
 30
0.0
 11
5.640253304725895
 21
14.48282614264568
 31
0.0
  0
LINE
  5
489
330
18
100
AcDbEntity
  8
Object
100
AcDbLine
 10
5.640253304725895
 20
14.48282614264568
 30
0.0
 11
5.609253304725895
 21
14.46182614264567
 31
0.0
  0
LINE
  5
48A
330
18
100
AcDbEntity
  8
Object
100
AcDbLine
 10
5.609253304725895
 20
14.46182614264567
 30
0.0
 11
5.571253304725895
 21
14.45382614264568
 31
0.0
  0
LINE
  5
48B
330
18
100
AcDbEntity
  8
Object
100
AcDbLine
 10
5.571253304725895
 20
14.45382614264568
 30
0.0
 11
5.534253304725895
 21
14.46182614264567
 31
0.0
  0
LINE
  5
48C
330
18
100
AcDbEntity
  8
Object
100
AcDbLine
 10
5.534253304725895
 20
14.46182614264567
 30
0.0
 11
5.502253304725895
 21
14.48282614264568
 31
0.0
  0
LINE
  5
48D
330
18
100
AcDbEntity
  8
Object
100
AcDbLine
 10
5.502253304725895
 20
14.48282614264568
 30
0.0
 11
5.481253304725895
 21
14.51382614264568
 31
0.0
  0
LINE
  5
48E
330
18
100
AcDbEntity
  8
Object
100
AcDbLine
 10
5.481253304725895
 20
14.51382614264568
 30
0.0
 11
5.474253304725895
 21
14.55182614264568
 31
0.0
  0
LINE
  5
48F
330
18
100
AcDbEntity
  8
Object
100
AcDbLine
 10
5.169253304725895
 20
10.85582614264567
 30
0.0
 11
5.169253304725895
 21
10.55082614264567
 31
0.0
  0
LINE
  5
490
330
18
100
AcDbEntity
  8
Object
100
AcDbLine
 10
5.169253304725895
 20
14.55182614264568
 30
0.0
 11
5.161253304725895
 21
14.51382614264568
 31
0.0
  0
LINE
  5
491
330
18
100
AcDbEntity
  8
Object
100
AcDbLine
 10
5.161253304725895
 20
14.51382614264568
 30
0.0
 11
5.140253304725895
 21
14.48282614264568
 31
0.0
  0
LINE
  5
492
330
18
100
AcDbEntity
  8
Object
100
AcDbLine
 10
5.140253304725895
 20
14.48282614264568
 30
0.0
 11
5.109253304725895
 21
14.46182614264567
 31
0.0
  0
LINE
  5
493
330
18
100
AcDbEntity
  8
Object
100
AcDbLine
 10
5.109253304725895
 20
14.46182614264567
 30
0.0
 11
5.071253304725895
 21
14.45382614264568
 31
0.0
  0
LINE
  5
494
330
18
100
AcDbEntity
  8
Object
100
AcDbLine
 10
5.071253304725895
 20
14.45382614264568
 30
0.0
 11
5.034253304725895
 21
14.46182614264567
 31
0.0
  0
LINE
  5
495
330
18
100
AcDbEntity
  8
Object
100
AcDbLine
 10
5.034253304725895
 20
14.46182614264567
 30
0.0
 11
5.002253304725895
 21
14.48282614264568
 31
0.0
  0
LINE
  5
496
330
18
100
AcDbEntity
  8
Object
100
AcDbLine
 10
5.002253304725895
 20
14.48282614264568
 30
0.0
 11
4.981253304725895
 21
14.51382614264568
 31
0.0
  0
LINE
  5
497
330
18
100
AcDbEntity
  8
Object
100
AcDbLine
 10
4.981253304725895
 20
14.51382614264568
 30
0.0
 11
4.974253304725895
 21
14.55182614264568
 31
0.0
  0
LINE
  5
498
330
18
100
AcDbEntity
  8
Object
100
AcDbLine
 10
5.474253304725895
 20
14.55182614264568
 30
0.0
 11
5.474253304725895
 21
14.85682614264568
 31
0.0
  0
LINE
  5
499
330
18
100
AcDbEntity
  8
Object
100
AcDbLine
 10
5.669253304725895
 20
10.85582614264567
 30
0.0
 11
5.669253304725895
 21
10.55082614264567
 31
0.0
  0
LINE
  5
49A
330
18
100
AcDbEntity
  8
Object
100
AcDbLine
 10
6.169253304725895
 20
10.85582614264567
 30
0.0
 11
6.161253304725895
 21
10.89282614264567
 31
0.0
  0
LINE
  5
49B
330
18
100
AcDbEntity
  8
Object
100
AcDbLine
 10
6.161253304725895
 20
10.89282614264567
 30
0.0
 11
6.140253304725895
 21
10.92482614264568
 31
0.0
  0
LINE
  5
49C
330
18
100
AcDbEntity
  8
Object
100
AcDbLine
 10
6.140253304725895
 20
10.92482614264568
 30
0.0
 11
6.109253304725895
 21
10.94582614264568
 31
0.0
  0
LINE
  5
49D
330
18
100
AcDbEntity
  8
Object
100
AcDbLine
 10
6.109253304725895
 20
10.94582614264568
 30
0.0
 11
6.071253304725895
 21
10.95382614264567
 31
0.0
  0
LINE
  5
49E
330
18
100
AcDbEntity
  8
Object
100
AcDbLine
 10
6.071253304725895
 20
10.95382614264567
 30
0.0
 11
6.034253304725895
 21
10.94582614264568
 31
0.0
  0
LINE
  5
49F
330
18
100
AcDbEntity
  8
Object
100
AcDbLine
 10
6.034253304725895
 20
10.94582614264568
 30
0.0
 11
6.002253304725895
 21
10.92482614264568
 31
0.0
  0
LINE
  5
4A0
330
18
100
AcDbEntity
  8
Object
100
AcDbLine
 10
6.002253304725895
 20
10.92482614264568
 30
0.0
 11
5.981253304725895
 21
10.89282614264567
 31
0.0
  0
LINE
  5
4A1
330
18
100
AcDbEntity
  8
Object
100
AcDbLine
 10
5.981253304725895
 20
10.89282614264567
 30
0.0
 11
5.974253304725896
 21
10.85582614264567
 31
0.0
  0
LINE
  5
4A2
330
18
100
AcDbEntity
  8
Object
100
AcDbLine
 10
5.169253304725895
 20
10.55082614264567
 30
0.0
 11
5.161253304725895
 21
10.51382614264568
 31
0.0
  0
LINE
  5
4A3
330
18
100
AcDbEntity
  8
Object
100
AcDbLine
 10
5.161253304725895
 20
10.51382614264568
 30
0.0
 11
5.140253304725895
 21
10.48182614264568
 31
0.0
  0
LINE
  5
4A4
330
18
100
AcDbEntity
  8
Object
100
AcDbLine
 10
5.140253304725895
 20
10.48182614264568
 30
0.0
 11
5.109253304725895
 21
10.46082614264568
 31
0.0
  0
LINE
  5
4A5
330
18
100
AcDbEntity
  8
Object
100
AcDbLine
 10
5.109253304725895
 20
10.46082614264568
 30
0.0
 11
5.071253304725895
 21
10.45382614264568
 31
0.0
  0
LINE
  5
4A6
330
18
100
AcDbEntity
  8
Object
100
AcDbLine
 10
5.071253304725895
 20
10.45382614264568
 30
0.0
 11
5.034253304725895
 21
10.46082614264568
 31
0.0
  0
LINE
  5
4A7
330
18
100
AcDbEntity
  8
Object
100
AcDbLine
 10
5.034253304725895
 20
10.46082614264568
 30
0.0
 11
5.002253304725895
 21
10.48182614264568
 31
0.0
  0
LINE
  5
4A8
330
18
100
AcDbEntity
  8
Object
100
AcDbLine
 10
5.002253304725895
 20
10.48182614264568
 30
0.0
 11
4.981253304725895
 21
10.51382614264568
 31
0.0
  0
LINE
  5
4A9
330
18
100
AcDbEntity
  8
Object
100
AcDbLine
 10
4.981253304725895
 20
10.51382614264568
 30
0.0
 11
4.974253304725895
 21
10.55082614264567
 31
0.0
  0
LINE
  5
4AA
330
18
100
AcDbEntity
  8
Object
100
AcDbLine
 10
5.169253304725895
 20
14.85682614264568
 30
0.0
 11
5.161253304725895
 21
14.89382614264568
 31
0.0
  0
LINE
  5
4AB
330
18
100
AcDbEntity
  8
Object
100
AcDbLine
 10
5.161253304725895
 20
14.89382614264568
 30
0.0
 11
5.140253304725895
 21
14.92582614264567
 31
0.0
  0
LINE
  5
4AC
330
18
100
AcDbEntity
  8
Object
100
AcDbLine
 10
5.140253304725895
 20
14.92582614264567
 30
0.0
 11
5.109253304725895
 21
14.94682614264568
 31
0.0
  0
LINE
  5
4AD
330
18
100
AcDbEntity
  8
Object
100
AcDbLine
 10
5.109253304725895
 20
14.94682614264568
 30
0.0
 11
5.071253304725895
 21
14.95382614264568
 31
0.0
  0
LINE
  5
4AE
330
18
100
AcDbEntity
  8
Object
100
AcDbLine
 10
5.071253304725895
 20
14.95382614264568
 30
0.0
 11
5.034253304725895
 21
14.94682614264568
 31
0.0
  0
LINE
  5
4AF
330
18
100
AcDbEntity
  8
Object
100
AcDbLine
 10
5.034253304725895
 20
14.94682614264568
 30
0.0
 11
5.002253304725895
 21
14.92582614264567
 31
0.0
  0
LINE
  5
4B0
330
18
100
AcDbEntity
  8
Object
100
AcDbLine
 10
5.002253304725895
 20
14.92582614264567
 30
0.0
 11
4.981253304725895
 21
14.89382614264568
 31
0.0
  0
LINE
  5
4B1
330
18
100
AcDbEntity
  8
Object
100
AcDbLine
 10
4.981253304725895
 20
14.89382614264568
 30
0.0
 11
4.974253304725895
 21
14.85682614264568
 31
0.0
  0
LINE
  5
4B2
330
18
100
AcDbEntity
  8
Object
100
AcDbLine
 10
5.169253304725895
 20
14.85682614264568
 30
0.0
 11
5.169253304725895
 21
14.55182614264568
 31
0.0
  0
LINE
  5
4B3
330
18
100
AcDbEntity
  8
Object
100
AcDbLine
 10
5.669253304725895
 20
10.85582614264567
 30
0.0
 11
5.661253304725896
 21
10.89282614264567
 31
0.0
  0
LINE
  5
4B4
330
18
100
AcDbEntity
  8
Object
100
AcDbLine
 10
5.661253304725896
 20
10.89282614264567
 30
0.0
 11
5.640253304725895
 21
10.92482614264568
 31
0.0
  0
LINE
  5
4B5
330
18
100
AcDbEntity
  8
Object
100
AcDbLine
 10
5.640253304725895
 20
10.92482614264568
 30
0.0
 11
5.609253304725895
 21
10.94582614264568
 31
0.0
  0
LINE
  5
4B6
330
18
100
AcDbEntity
  8
Object
100
AcDbLine
 10
5.609253304725895
 20
10.94582614264568
 30
0.0
 11
5.571253304725895
 21
10.95382614264567
 31
0.0
  0
LINE
  5
4B7
330
18
100
AcDbEntity
  8
Object
100
AcDbLine
 10
5.571253304725895
 20
10.95382614264567
 30
0.0
 11
5.534253304725895
 21
10.94582614264568
 31
0.0
  0
LINE
  5
4B8
330
18
100
AcDbEntity
  8
Object
100
AcDbLine
 10
5.534253304725895
 20
10.94582614264568
 30
0.0
 11
5.502253304725895
 21
10.92482614264568
 31
0.0
  0
LINE
  5
4B9
330
18
100
AcDbEntity
  8
Object
100
AcDbLine
 10
5.502253304725895
 20
10.92482614264568
 30
0.0
 11
5.481253304725895
 21
10.89282614264567
 31
0.0
  0
LINE
  5
4BA
330
18
100
AcDbEntity
  8
Object
100
AcDbLine
 10
5.481253304725895
 20
10.89282614264567
 30
0.0
 11
5.474253304725895
 21
10.85582614264567
 31
0.0
  0
LINE
  5
4BB
330
18
100
AcDbEntity
  8
Object
100
AcDbLine
 10
6.169253304725895
 20
10.85582614264567
 30
0.0
 11
6.169253304725895
 21
10.55082614264567
 31
0.0
  0
LINE
  5
4BC
330
18
100
AcDbEntity
  8
Object
100
AcDbLine
 10
4.974253304725895
 20
14.55182614264568
 30
0.0
 11
4.974253304725895
 21
14.85682614264568
 31
0.0
  0
LINE
  5
4BD
330
18
100
AcDbEntity
  8
Object
100
AcDbLine
 10
6.169253304725895
 20
14.55182614264568
 30
0.0
 11
6.161253304725895
 21
14.51382614264568
 31
0.0
  0
LINE
  5
4BE
330
18
100
AcDbEntity
  8
Object
100
AcDbLine
 10
6.161253304725895
 20
14.51382614264568
 30
0.0
 11
6.140253304725895
 21
14.48282614264568
 31
0.0
  0
LINE
  5
4BF
330
18
100
AcDbEntity
  8
Object
100
AcDbLine
 10
6.140253304725895
 20
14.48282614264568
 30
0.0
 11
6.109253304725895
 21
14.46182614264567
 31
0.0
  0
LINE
  5
4C0
330
18
100
AcDbEntity
  8
Object
100
AcDbLine
 10
6.109253304725895
 20
14.46182614264567
 30
0.0
 11
6.071253304725895
 21
14.45382614264568
 31
0.0
  0
LINE
  5
4C1
330
18
100
AcDbEntity
  8
Object
100
AcDbLine
 10
6.071253304725895
 20
14.45382614264568
 30
0.0
 11
6.034253304725895
 21
14.46182614264567
 31
0.0
  0
LINE
  5
4C2
330
18
100
AcDbEntity
  8
Object
100
AcDbLine
 10
6.034253304725895
 20
14.46182614264567
 30
0.0
 11
6.002253304725895
 21
14.48282614264568
 31
0.0
  0
LINE
  5
4C3
330
18
100
AcDbEntity
  8
Object
100
AcDbLine
 10
6.002253304725895
 20
14.48282614264568
 30
0.0
 11
5.981253304725895
 21
14.51382614264568
 31
0.0
  0
LINE
  5
4C4
330
18
100
AcDbEntity
  8
Object
100
AcDbLine
 10
5.981253304725895
 20
14.51382614264568
 30
0.0
 11
5.974253304725896
 21
14.55182614264568
 31
0.0
  0
LINE
  5
4C5
330
18
100
AcDbEntity
  8
Object
100
AcDbLine
 10
5.669253304725895
 20
10.55082614264567
 30
0.0
 11
5.661253304725896
 21
10.51382614264568
 31
0.0
  0
LINE
  5
4C6
330
18
100
AcDbEntity
  8
Object
100
AcDbLine
 10
5.661253304725896
 20
10.51382614264568
 30
0.0
 11
5.640253304725895
 21
10.48182614264568
 31
0.0
  0
LINE
  5
4C7
330
18
100
AcDbEntity
  8
Object
100
AcDbLine
 10
5.640253304725895
 20
10.48182614264568
 30
0.0
 11
5.609253304725895
 21
10.46082614264568
 31
0.0
  0
LINE
  5
4C8
330
18
100
AcDbEntity
  8
Object
100
AcDbLine
 10
5.609253304725895
 20
10.46082614264568
 30
0.0
 11
5.571253304725895
 21
10.45382614264568
 31
0.0
  0
LINE
  5
4C9
330
18
100
AcDbEntity
  8
Object
100
AcDbLine
 10
5.571253304725895
 20
10.45382614264568
 30
0.0
 11
5.534253304725895
 21
10.46082614264568
 31
0.0
  0
LINE
  5
4CA
330
18
100
AcDbEntity
  8
Object
100
AcDbLine
 10
5.534253304725895
 20
10.46082614264568
 30
0.0
 11
5.502253304725895
 21
10.48182614264568
 31
0.0
  0
LINE
  5
4CB
330
18
100
AcDbEntity
  8
Object
100
AcDbLine
 10
5.502253304725895
 20
10.48182614264568
 30
0.0
 11
5.481253304725895
 21
10.51382614264568
 31
0.0
  0
LINE
  5
4CC
330
18
100
AcDbEntity
  8
Object
100
AcDbLine
 10
5.481253304725895
 20
10.51382614264568
 30
0.0
 11
5.474253304725895
 21
10.55082614264567
 31
0.0
  0
LINE
  5
4CD
330
18
100
AcDbEntity
  8
Object
100
AcDbLine
 10
4.892253304725896
 20
15.70282614264567
 30
0.0
 11
4.892253304725896
 21
8.702826142645676
 31
0.0
  0
LINE
  5
4CE
330
18
100
AcDbEntity
  8
Object
100
AcDbLine
 10
4.892253304725896
 20
8.702826142645676
 30
0.0
 11
4.884253304725895
 21
8.702826142645676
 31
0.0
  0
LINE
  5
4CF
330
18
100
AcDbEntity
  8
Object
100
AcDbLine
 10
4.893253304725895
 20
15.70282614264567
 30
0.0
 11
4.893253304725895
 21
8.702826142645676
 31
0.0
  0
LINE
  5
4D0
330
18
100
AcDbEntity
  8
Object
100
AcDbLine
 10
4.893253304725895
 20
8.702826142645676
 30
0.0
 11
4.893253304725895
 21
15.70282614264567
 31
0.0
  0
LINE
  5
4D1
330
18
100
AcDbEntity
  8
Object
100
AcDbLine
 10
4.892253304725896
 20
8.702826142645676
 30
0.0
 11
4.893253304725895
 21
8.702826142645676
 31
0.0
  0
LINE
  5
4D2
330
18
100
AcDbEntity
  8
Object
100
AcDbLine
 10
6.258253304725895
 20
15.70282614264567
 30
0.0
 11
6.258253304725895
 21
8.702826142645676
 31
0.0
  0
LINE
  5
4D3
330
18
100
AcDbEntity
  8
Object
100
AcDbLine
 10
6.258253304725895
 20
8.702826142645676
 30
0.0
 11
6.251253304725895
 21
8.702826142645676
 31
0.0
  0
LINE
  5
4D4
330
18
100
AcDbEntity
  8
Object
100
AcDbLine
 10
6.617253304725895
 20
15.70282614264567
 30
0.0
 11
6.617253304725895
 21
8.702826142645676
 31
0.0
  0
LINE
  5
4D5
330
18
100
AcDbEntity
  8
Object
100
AcDbLine
 10
6.617253304725895
 20
8.702826142645676
 30
0.0
 11
6.568253304725895
 21
8.702826142645676
 31
0.0
  0
LINE
  5
4D6
330
18
100
AcDbEntity
  8
Object
100
AcDbLine
 10
6.658253304725895
 20
15.70282614264567
 30
0.0
 11
6.658253304725895
 21
8.702826142645676
 31
0.0
  0
LINE
  5
4D7
330
18
100
AcDbEntity
  8
Object
100
AcDbLine
 10
6.658253304725895
 20
8.702826142645676
 30
0.0
 11
6.653253304725895
 21
8.702826142645676
 31
0.0
  0
LINE
  5
4D8
330
18
100
AcDbEntity
  8
Object
100
AcDbLine
 10
6.653253304725895
 20
8.702826142645676
 30
0.0
 11
6.638253304725895
 21
8.702826142645676
 31
0.0
  0
LINE
  5
4D9
330
18
100
AcDbEntity
  8
Object
100
AcDbLine
 10
6.638253304725895
 20
8.702826142645676
 30
0.0
 11
6.617253304725895
 21
8.702826142645676
 31
0.0
  0
LINE
  5
4DA
330
18
100
AcDbEntity
  8
Object
100
AcDbLine
 10
6.249253304725896
 20
15.70282614264567
 30
0.0
 11
6.249253304725895
 21
8.702826142645676
 31
0.0
  0
LINE
  5
4DB
330
18
100
AcDbEntity
  8
Object
100
AcDbLine
 10
6.251253304725895
 20
15.70282614264567
 30
0.0
 11
6.251253304725895
 21
8.702826142645676
 31
0.0
  0
LINE
  5
4DC
330
18
100
AcDbEntity
  8
Object
100
AcDbLine
 10
6.251253304725895
 20
8.702826142645676
 30
0.0
 11
6.249253304725895
 21
8.702826142645676
 31
0.0
  0
LINE
  5
4DD
330
18
100
AcDbEntity
  8
Object
100
AcDbLine
 10
4.526253304725895
 20
8.702826142645676
 30
0.0
 11
4.575253304725896
 21
8.702826142645676
 31
0.0
  0
LINE
  5
4DE
330
18
100
AcDbEntity
  8
Object
100
AcDbLine
 10
4.734253304725895
 20
15.70282614264567
 30
0.0
 11
4.734253304725895
 21
8.702826142645676
 31
0.0
  0
LINE
  5
4DF
330
18
100
AcDbEntity
  8
Object
100
AcDbLine
 10
4.734253304725895
 20
8.702826142645676
 30
0.0
 11
4.727253304725895
 21
8.702826142645676
 31
0.0
  0
LINE
  5
4E0
330
18
100
AcDbEntity
  8
Object
100
AcDbLine
 10
6.568253304725895
 20
15.70282614264567
 30
0.0
 11
6.568253304725895
 21
8.702826142645676
 31
0.0
  0
LINE
  5
4E1
330
18
100
AcDbEntity
  8
Object
100
AcDbLine
 10
6.568253304725895
 20
8.702826142645676
 30
0.0
 11
6.562253304725896
 21
8.702826142645676
 31
0.0
  0
LINE
  5
4E2
330
18
100
AcDbEntity
  8
Object
100
AcDbLine
 10
6.562253304725896
 20
8.702826142645676
 30
0.0
 11
6.545253304725895
 21
8.702826142645676
 31
0.0
  0
LINE
  5
4E3
330
18
100
AcDbEntity
  8
Object
100
AcDbLine
 10
6.545253304725895
 20
8.702826142645676
 30
0.0
 11
6.519253304725896
 21
8.702826142645676
 31
0.0
  0
LINE
  5
4E4
330
18
100
AcDbEntity
  8
Object
100
AcDbLine
 10
6.519253304725896
 20
8.702826142645676
 30
0.0
 11
6.487253304725896
 21
8.702826142645676
 31
0.0
  0
LINE
  5
4E5
330
18
100
AcDbEntity
  8
Object
100
AcDbLine
 10
6.487253304725896
 20
8.702826142645676
 30
0.0
 11
6.451253304725895
 21
8.702826142645676
 31
0.0
  0
LINE
  5
4E6
330
18
100
AcDbEntity
  8
Object
100
AcDbLine
 10
6.451253304725895
 20
8.702826142645676
 30
0.0
 11
6.416253304725895
 21
8.702826142645676
 31
0.0
  0
LINE
  5
4E7
330
18
100
AcDbEntity
  8
Object
100
AcDbLine
 10
4.485253304725896
 20
15.70282614264567
 30
0.0
 11
4.485253304725896
 21
8.702826142645676
 31
0.0
  0
LINE
  5
4E8
330
18
100
AcDbEntity
  8
Object
100
AcDbLine
 10
4.727253304725895
 20
15.70282614264567
 30
0.0
 11
4.727253304725895
 21
8.702826142645676
 31
0.0
  0
LINE
  5
4E9
330
18
100
AcDbEntity
  8
Object
100
AcDbLine
 10
4.727253304725895
 20
8.702826142645676
 30
0.0
 11
4.692253304725895
 21
8.702826142645676
 31
0.0
  0
LINE
  5
4EA
330
18
100
AcDbEntity
  8
Object
100
AcDbLine
 10
4.692253304725895
 20
8.702826142645676
 30
0.0
 11
4.656253304725895
 21
8.702826142645676
 31
0.0
  0
LINE
  5
4EB
330
18
100
AcDbEntity
  8
Object
100
AcDbLine
 10
4.656253304725895
 20
8.702826142645676
 30
0.0
 11
4.624253304725895
 21
8.702826142645676
 31
0.0
  0
LINE
  5
4EC
330
18
100
AcDbEntity
  8
Object
100
AcDbLine
 10
4.624253304725895
 20
8.702826142645676
 30
0.0
 11
4.598253304725895
 21
8.702826142645676
 31
0.0
  0
LINE
  5
4ED
330
18
100
AcDbEntity
  8
Object
100
AcDbLine
 10
4.598253304725895
 20
8.702826142645676
 30
0.0
 11
4.581253304725896
 21
8.702826142645676
 31
0.0
  0
LINE
  5
4EE
330
18
100
AcDbEntity
  8
Object
100
AcDbLine
 10
4.581253304725896
 20
8.702826142645676
 30
0.0
 11
4.575253304725896
 21
8.702826142645676
 31
0.0
  0
LINE
  5
4EF
330
18
100
AcDbEntity
  8
Object
100
AcDbLine
 10
4.575253304725896
 20
8.702826142645676
 30
0.0
 11
4.575253304725896
 21
15.70282614264567
 31
0.0
  0
LINE
  5
4F0
330
18
100
AcDbEntity
  8
Object
100
AcDbLine
 10
4.884253304725895
 20
15.70282614264567
 30
0.0
 11
4.884253304725895
 21
8.702826142645676
 31
0.0
  0
LINE
  5
4F1
330
18
100
AcDbEntity
  8
Object
100
AcDbLine
 10
4.884253304725895
 20
8.702826142645676
 30
0.0
 11
4.866253304725895
 21
8.702826142645676
 31
0.0
  0
LINE
  5
4F2
330
18
100
AcDbEntity
  8
Object
100
AcDbLine
 10
4.866253304725895
 20
8.702826142645676
 30
0.0
 11
4.833253304725895
 21
8.702826142645676
 31
0.0
  0
LINE
  5
4F3
330
18
100
AcDbEntity
  8
Object
100
AcDbLine
 10
4.833253304725895
 20
8.702826142645676
 30
0.0
 11
4.788253304725895
 21
8.702826142645676
 31
0.0
  0
LINE
  5
4F4
330
18
100
AcDbEntity
  8
Object
100
AcDbLine
 10
4.788253304725895
 20
8.702826142645676
 30
0.0
 11
4.734253304725895
 21
8.702826142645676
 31
0.0
  0
LINE
  5
4F5
330
18
100
AcDbEntity
  8
Object
100
AcDbLine
 10
6.568253304725895
 20
15.70282614264567
 30
0.0
 11
6.568253304725895
 21
8.702826142645676
 31
0.0
  0
LINE
  5
4F6
330
18
100
AcDbEntity
  8
Object
100
AcDbLine
 10
4.526253304725894
 20
15.70282614264567
 30
0.0
 11
4.526253304725895
 21
8.702826142645676
 31
0.0
  0
LINE
  5
4F7
330
18
100
AcDbEntity
  8
Object
100
AcDbLine
 10
4.526253304725895
 20
8.702826142645676
 30
0.0
 11
4.505253304725895
 21
8.702826142645676
 31
0.0
  0
LINE
  5
4F8
330
18
100
AcDbEntity
  8
Object
100
AcDbLine
 10
4.505253304725895
 20
8.702826142645676
 30
0.0
 11
4.490253304725895
 21
8.702826142645676
 31
0.0
  0
LINE
  5
4F9
330
18
100
AcDbEntity
  8
Object
100
AcDbLine
 10
4.490253304725895
 20
8.702826142645676
 30
0.0
 11
4.485253304725896
 21
8.702826142645676
 31
0.0
  0
LINE
  5
4FA
330
18
100
AcDbEntity
  8
Object
100
AcDbLine
 10
4.485253304725896
 20
8.702826142645676
 30
0.0
 11
4.485253304725896
 21
15.70282614264567
 31
0.0
  0
LINE
  5
4FB
330
18
100
AcDbEntity
  8
Object
100
AcDbLine
 10
6.409253304725894
 20
15.70282614264567
 30
0.0
 11
6.409253304725895
 21
8.702826142645676
 31
0.0
  0
LINE
  5
4FC
330
18
100
AcDbEntity
  8
Object
100
AcDbLine
 10
6.409253304725895
 20
8.702826142645676
 30
0.0
 11
6.355253304725895
 21
8.702826142645676
 31
0.0
  0
LINE
  5
4FD
330
18
100
AcDbEntity
  8
Object
100
AcDbLine
 10
6.355253304725895
 20
8.702826142645676
 30
0.0
 11
6.310253304725895
 21
8.702826142645676
 31
0.0
  0
LINE
  5
4FE
330
18
100
AcDbEntity
  8
Object
100
AcDbLine
 10
6.310253304725895
 20
8.702826142645676
 30
0.0
 11
6.277253304725896
 21
8.702826142645676
 31
0.0
  0
LINE
  5
4FF
330
18
100
AcDbEntity
  8
Object
100
AcDbLine
 10
6.277253304725896
 20
8.702826142645676
 30
0.0
 11
6.258253304725895
 21
8.702826142645676
 31
0.0
  0
LINE
  5
500
330
18
100
AcDbEntity
  8
Object
100
AcDbLine
 10
4.575253304725896
 20
15.70282614264567
 30
0.0
 11
4.575253304725896
 21
8.702826142645676
 31
0.0
  0
LINE
  5
501
330
18
100
AcDbEntity
  8
Object
100
AcDbLine
 10
6.658253304725895
 20
15.70282614264567
 30
0.0
 11
6.658253304725895
 21
8.702826142645676
 31
0.0
  0
LINE
  5
502
330
18
100
AcDbEntity
  8
Object
100
AcDbLine
 10
6.416253304725894
 20
15.70282614264567
 30
0.0
 11
6.416253304725895
 21
8.702826142645676
 31
0.0
  0
LINE
  5
503
330
18
100
AcDbEntity
  8
Object
100
AcDbLine
 10
6.416253304725895
 20
8.702826142645676
 30
0.0
 11
6.409253304725895
 21
8.702826142645676
 31
0.0
  0
LINE
  5
505
330
18
100
AcDbEntity
  8
Object
100
AcDbLine
 10
18.6972533047259
 20
3.418137456006933
 30
0.0
 11
18.6972533047259
 21
4.811150157899152
 31
0.0
  0
LINE
  5
507
330
18
100
AcDbEntity
  8
Object
100
AcDbLine
 10
18.9472533047259
 20
4.878137456006933
 30
0.0
 11
18.4472533047259
 21
4.878137456006933
 31
0.0
  0
LINE
  5
508
330
18
100
AcDbEntity
  8
Object
100
AcDbLine
 10
18.9472533047259
 20
4.878137456006933
 30
0.0
 11
18.6972533047259
 21
4.945124754114712
 31
0.0
  0
LINE
  5
509
330
18
100
AcDbEntity
  8
Object
100
AcDbLine
 10
18.4472533047259
 20
4.878137456006933
 30
0.0
 11
18.6972533047259
 21
4.811150157899152
 31
0.0
  0
LINE
  5
50A
330
18
100
AcDbEntity
  8
Object
100
AcDbLine
 10
18.6972533047259
 20
4.94512475411471
 30
0.0
 11
18.6972533047259
 21
6.338137456006933
 31
0.0
  0
LINE
  5
50D
330
18
100
AcDbEntity
  8
Object
100
AcDbLine
 10
7.031753304725894
 20
15.70282614264568
 30
0.0
 11
5.638740602833674
 21
15.70282614264568
 31
0.0
  0
LINE
  5
50E
330
18
100
AcDbEntity
  8
Object
100
AcDbLine
 10
5.504766006618115
 20
15.70282614264568
 30
0.0
 11
4.111753304725894
 21
15.70282614264568
 31
0.0
  0
LINE
  5
50F
330
18
100
AcDbEntity
  8
Object
100
AcDbLine
 10
5.571753304725895
 20
15.95282614264568
 30
0.0
 11
5.571753304725895
 21
15.45282614264567
 31
0.0
  0
LINE
  5
510
330
18
100
AcDbEntity
  8
Object
100
AcDbLine
 10
5.571753304725895
 20
15.95282614264568
 30
0.0
 11
5.504766006618115
 21
15.70282614264568
 31
0.0
  0
LINE
  5
511
330
18
100
AcDbEntity
  8
Object
100
AcDbLine
 10
5.571753304725895
 20
15.45282614264567
 30
0.0
 11
5.638740602833674
 21
15.70282614264568
 31
0.0
  0
DIMENSION
  5
512
330
18
100
AcDbEntity
  8
Dimension
100
AcDbDimension
  2
*D0
 10
6.658253304725896
 20
6.354972724219607
 30
0.0
 11
5.573003304725896
 21
6.354972724219607
 31
0.0
 70
    32
 71
     5
 42
2.1705
  3
STANDARD
100
AcDbAlignedDimension
 13
4.487753304725895
 23
5.330637456006932
 33
0.0
 14
6.658253304725896
 24
5.318137456006933
 34
0.0
100
AcDbRotatedDimension
  0
DIMENSION
  5
520
330
18
100
AcDbEntity
  8
Dimension
100
AcDbDimension
  2
*D1
 10
7.365842116003818
 20
3.918137456006932
 30
0.0
 11
7.365842116003817
 21
4.878137456006934
 31
0.0
 70
    32
 71
     5
 42
1.92
  3
STANDARD
100
AcDbAlignedDimension
 13
6.451253304725895
 23
5.838137456006933
 33
0.0
 14
6.628253304725896
 24
3.918137456006933
 34
0.0
 50
90.0
100
AcDbRotatedDimension
  0
DIMENSION
  5
52E
330
18
100
AcDbEntity
  8
Dimension
100
AcDbDimension
  2
*D2
 10
4.485253304725897
 20
4.655137456006933
 30
0.0
 11
3.777753304725897
 21
4.655137456006933
 31
0.0
 70
    32
 71
     5
 42
0.0799999999999992
  3
STANDARD
100
AcDbAlignedDimension
 13
4.565253304725896
 23
4.655137456006933
 33
0.0
 14
4.485253304725897
 24
4.655137456006933
 34
0.0
100
AcDbRotatedDimension
1001
ACAD
1000
DSTYLE
1002
{
1070
    76
1070
     1
1070
    75
1070
     1
1002
}
  0
ENDSEC
  0
SECTION
  2
OBJECTS
  0
DICTIONARY
  5
C
330
0
100
AcDbDictionary
281
     1
  3
ACAD_COLOR
350
10D
  3
ACAD_GROUP
350
D
  3
ACAD_LAYOUT
350
110
  3
ACAD_MATERIAL
350
10C
  3
ACAD_MLINESTYLE
350
1B
  3
ACAD_PLOTSETTINGS
350
111
  3
ACAD_PLOTSTYLENAME
350
10A
  3
ACAD_TABLESTYLE
350
10E
  3
ACDBHEADERROUNDTRIPXREC
350
56A
  3
AcDbVariableDictionary
350
13E
  3
ASE_INDEX_DICTIONARY
350
148
  0
DICTIONARY
  5
154
330
2
100
AcDbDictionary
280
     1
281
     1
  3
ACAD_LAYERFILTERS
360
158
  3
ACLYDICTIONARY
360
157
  0
DICTIONARY
  5
50B
330
18
100
AcDbDictionary
280
     1
281
     1
  3
ACAD_SORTENTS
360
50C
  0
DICTIONARY
  5
10D
102
{ACAD_REACTORS
330
C
102
}
330
C
100
AcDbDictionary
281
     1
  0
DICTIONARY
  5
D
102
{ACAD_REACTORS
330
C
102
}
330
C
100
AcDbDictionary
281
     1
  0
DICTIONARY
  5
110
102
{ACAD_REACTORS
330
C
102
}
330
C
100
AcDbDictionary
281
     1
  3
Layout1
350
113
  3
Model
350
112
  0
DICTIONARY
  5
10C
102
{ACAD_REACTORS
330
C
102
}
330
C
100
AcDbDictionary
281
     1
  0
DICTIONARY
  5
1B
102
{ACAD_REACTORS
330
C
102
}
330
C
100
AcDbDictionary
281
     1
  3
STANDARD
350
1C
  0
DICTIONARY
  5
111
102
{ACAD_REACTORS
330
C
102
}
330
C
100
AcDbDictionary
281
     1
  0
ACDBDICTIONARYWDFLT
  5
10A
102
{ACAD_REACTORS
330
C
102
}
330
C
100
AcDbDictionary
281
     1
  3
Normal
350
10B
100
AcDbDictionaryWithDefault
340
10B
  0
DICTIONARY
  5
10E
102
{ACAD_REACTORS
330
C
102
}
330
C
100
AcDbDictionary
281
     1
  3
Standard
350
10F
  0
DICTIONARY
  5
56A
102
{ACAD_REACTORS
330
C
102
}
330
C
100
AcDbDictionary
281
     1
  0
DICTIONARY
  5
13E
102
{ACAD_REACTORS
330
C
102
}
330
C
100
AcDbDictionary
281
     1
  3
CTABLESTYLE
350
13F
  3
DIMASSOC
350
567
  3
PROJECTNAME
350
568
  0
DICTIONARY
  5
148
102
{ACAD_REACTORS
330
C
102
}
330
C
100
AcDbDictionary
281
     1
  3
ASEBlockHierarchyIndexRecord
350
14A
1001
DCO15
1040
1529148047.148
  0
DICTIONARY
  5
158
102
{ACAD_REACTORS
330
154
102
}
330
154
100
AcDbDictionary
281
     1
  0
DICTIONARY
  5
157
102
{ACAD_REACTORS
330
154
102
}
330
154
100
AcDbDictionary
281
     1
1001
ACAD
1000
<All
  0
SORTENTSTABLE
  5
50C
102
{ACAD_REACTORS
330
50B
102
}
330
50B
100
AcDbSortentsTable
330
18
331
472
  5
472
331
4E8
  5
4E8
331
2F0
  5
2F0
331
423
  5
423
331
3AD
  5
3AD
331
3E4
  5
3E4
331
337
  5
337
331
2F8
  5
2F8
331
36E
  5
36E
331
42B
  5
42B
331
3B5
  5
3B5
331
33F
  5
33F
331
300
  5
300
331
376
  5
376
331
3EC
  5
3EC
331
433
  5
433
331
3BD
  5
3BD
331
347
  5
347
331
308
  5
308
331
37E
  5
37E
331
3F4
  5
3F4
331
52
  5
52
331
C1
  5
C1
331
386
  5
386
331
3FC
  5
3FC
331
5A
  5
5A
331
C9
  5
C9
331
62
  5
62
331
4B1
  5
4B1
331
47A
  5
47A
331
43B
  5
43B
331
4F0
  5
4F0
331
4F8
  5
4F8
331
482
  5
482
331
443
  5
443
331
4B9
  5
4B9
331
500
  5
500
331
4C1
  5
4C1
331
44B
  5
44B
331
48A
  5
48A
331
508
  5
509
331
492
  5
492
331
453
  5
453
331
4C9
  5
4C9
331
2D1
  5
2D1
331
310
  5
310
331
404
  5
404
331
3C5
  5
3C5
331
34F
  5
34F
331
2D9
  5
2D9
331
318
  5
318
331
38E
  5
38E
331
40C
  5
40C
331
3CD
  5
3CD
331
357
  5
357
331
320
  5
320
331
2E1
  5
2E1
331
396
  5
396
331
3D5
  5
3D5
331
39E
  5
39E
331
328
  5
328
331
2E9
  5
2E9
331
35F
  5
35F
331
414
  5
414
331
6A
  5
6A
331
41C
  5
41C
331
3A6
  5
3A6
331
367
  5
367
331
3DD
  5
3DD
331
AA
  5
AA
331
49A
  5
49A
331
4D1
  5
4D1
331
45B
  5
45B
331
4A2
  5
4A2
331
463
  5
463
331
4D9
  5
4D9
331
4AA
  5
4AA
331
46B
  5
46B
331
4E1
  5
4E1
331
473
  5
473
331
4E9
  5
4E9
331
330
  5
330
331
2F1
  5
2F1
331
424
  5
424
331
3AE
  5
3AE
331
338
  5
338
331
2F9
  5
2F9
331
36F
  5
36F
331
3E5
  5
3E5
331
133
  5
133
331
42C
  5
42C
331
3B6
  5
3B6
331
340
  5
340
331
377
  5
377
331
301
  5
301
331
3ED
  5
3ED
331
434
  5
434
331
3BE
  5
3BE
331
3F5
  5
3F5
331
309
  5
309
331
37F
  5
37F
331
387
  5
387
331
3FD
  5
3FD
331
53
  5
53
331
C2
  5
C2
331
CA
  5
CA
331
63
  5
63
331
4F1
  5
4F1
331
4B2
  5
4B2
331
43C
  5
43C
331
47B
  5
47B
331
4BA
  5
4BA
331
444
  5
444
331
483
  5
483
331
4F9
  5
4F9
331
4C2
  5
4C2
331
48B
  5
48B
331
44C
  5
44C
331
501
  5
501
331
4CA
  5
4CA
331
509
  5
50A
331
454
  5
454
331
493
  5
493
331
348
  5
348
331
311
  5
311
331
2D2
  5
2D2
331
FC
  5
FC
331
3C6
  5
3C6
331
38F
  5
38F
331
319
  5
319
331
2DA
  5
2DA
331
350
  5
350
331
405
  5
405
331
40D
  5
40D
331
397
  5
397
331
358
  5
358
331
2E2
  5
2E2
331
321
  5
321
331
3CE
  5
3CE
331
3D6
  5
3D6
331
329
  5
329
331
2EA
  5
2EA
331
360
  5
360
331
39F
  5
39F
331
415
  5
415
331
6B
  5
6B
331
3A7
  5
3A7
331
3DE
  5
3DE
331
41D
  5
41D
331
AB
  5
AB
331
49B
  5
49B
331
45C
  5
45C
331
4D2
  5
4D2
331
4A3
  5
4A3
331
464
  5
464
331
4DA
  5
4DA
331
4AB
  5
4AB
331
4E2
  5
4E2
331
46C
  5
46C
331
474
  5
474
331
4EA
  5
4EA
331
331
  5
331
331
368
  5
368
331
2AB
  5
2AB
331
2F2
  5
2F2
331
12C
  5
12C
331
3AF
  5
3AF
331
3E6
  5
3E6
331
339
  5
339
331
2FA
  5
2FA
331
370
  5
370
331
134
  5
134
331
425
  5
425
331
3B7
  5
3B7
331
341
  5
341
331
302
  5
302
331
378
  5
378
331
3EE
  5
3EE
331
42D
  5
42D
331
3BF
  5
3BF
331
30A
  5
30A
331
380
  5
380
331
3F6
  5
3F6
331
435
  5
435
331
3FE
  5
3FE
331
54
  5
54
331
C3
  5
C3
331
CB
  5
CB
331
64
  5
64
331
4B3
  5
4B3
331
47C
  5
47C
331
43D
  5
43D
331
4F2
  5
4F2
331
4FA
  5
4FA
331
484
  5
484
331
445
  5
445
331
4BB
  5
4BB
331
4C3
  5
4C3
331
44D
  5
44D
331
48C
  5
48C
331
502
  5
502
331
50A
  5
507
331
494
  5
494
331
455
  5
455
331
4CB
  5
4CB
331
388
  5
388
331
349
  5
349
331
2D3
  5
2D3
331
312
  5
312
331
406
  5
406
331
3C7
  5
3C7
331
351
  5
351
331
31A
  5
31A
331
2DB
  5
2DB
331
390
  5
390
331
105
  5
105
331
3CF
  5
3CF
331
359
  5
359
331
322
  5
322
331
2E3
  5
2E3
331
398
  5
398
331
40E
  5
40E
331
3A0
  5
3A0
331
3D7
  5
3D7
331
32A
  5
32A
331
2EB
  5
2EB
331
361
  5
361
331
416
  5
416
331
6C
  5
6C
331
3DF
  5
3DF
331
41E
  5
41E
331
AC
  5
AC
331
49C
  5
49C
331
4D3
  5
4D3
331
45D
  5
45D
331
4A4
  5
4A4
331
465
  5
465
331
4DB
  5
4DB
331
4AC
  5
4AC
331
46D
  5
46D
331
4E3
  5
4E3
331
475
  5
475
331
4EB
  5
4EB
331
3A8
  5
3A8
331
332
  5
332
331
2AC
  5
2AC
331
2F3
  5
2F3
331
369
  5
369
331
12D
  5
12D
331
3B0
  5
3B0
331
33A
  5
33A
331
2FB
  5
2FB
331
371
  5
371
331
3E7
  5
3E7
331
135
  5
135
331
426
  5
426
331
3B8
  5
3B8
331
342
  5
342
331
379
  5
379
331
303
  5
303
331
3EF
  5
3EF
331
42E
  5
42E
331
BC
  5
BC
331
3F7
  5
3F7
331
30B
  5
30B
331
381
  5
381
331
436
  5
436
331
3FF
  5
3FF
331
C4
  5
C4
331
65
  5
65
331
4F3
  5
4F3
331
4B4
  5
4B4
331
43E
  5
43E
331
47D
  5
47D
331
4BC
  5
4BC
331
485
  5
485
331
446
  5
446
331
4FB
  5
4FB
331
4C4
  5
4C4
331
48D
  5
48D
331
44E
  5
44E
331
503
  5
503
331
495
  5
495
331
456
  5
456
331
4CC
  5
4CC
331
3C0
  5
3C0
331
389
  5
389
331
313
  5
313
331
2D4
  5
2D4
331
34A
  5
34A
331
3C8
  5
3C8
331
391
  5
391
331
31B
  5
31B
331
2DC
  5
2DC
331
352
  5
352
331
407
  5
407
331
40F
  5
40F
331
3D0
  5
3D0
331
35A
  5
35A
331
2E4
  5
2E4
331
323
  5
323
331
399
  5
399
331
3D8
  5
3D8
331
417
  5
417
331
6D
  5
6D
331
362
  5
362
331
2EC
  5
2EC
331
32B
  5
32B
331
3A1
  5
3A1
331
A5
  5
A5
331
41F
  5
41F
331
AD
  5
AD
331
49D
  5
49D
331
45E
  5
45E
331
4D4
  5
4D4
331
4A5
  5
4A5
331
466
  5
466
331
4DC
  5
4DC
331
4AD
  5
4AD
331
4E4
  5
4E4
331
46E
  5
46E
331
476
  5
476
331
4EC
  5
4EC
331
3A9
  5
3A9
331
333
  5
333
331
36A
  5
36A
331
12E
  5
12E
331
2AD
  5
2AD
331
2F4
  5
2F4
331
3E0
  5
3E0
331
427
  5
427
331
3B1
  5
3B1
331
3E8
  5
3E8
331
33B
  5
33B
331
136
  5
136
331
2FC
  5
2FC
331
372
  5
372
331
42F
  5
42F
331
3B9
  5
3B9
331
343
  5
343
331
2CD
  5
2CD
331
304
  5
304
331
37A
  5
37A
331
3F0
  5
3F0
331
BD
  5
BD
331
437
  5
437
331
30C
  5
30C
331
382
  5
382
331
3F8
  5
3F8
331
C5
  5
C5
331
5E
  5
5E
331
CD
  5
CD
331
66
  5
66
331
4F4
  5
4F4
331
47E
  5
47E
331
43F
  5
43F
331
4B5
  5
4B5
331
4FC
  5
4FC
331
486
  5
486
331
447
  5
447
331
4BD
  5
4BD
331
4C5
  5
4C5
331
44F
  5
44F
331
48E
  5
48E
331
496
  5
496
331
4CD
  5
4CD
331
457
  5
457
331
400
  5
400
331
38A
  5
38A
331
34B
  5
34B
331
2D5
  5
2D5
331
314
  5
314
331
3C1
  5
3C1
331
FF
  5
FF
331
408
  5
408
331
3C9
  5
3C9
331
353
  5
353
331
31C
  5
31C
331
2DD
  5
2DD
331
392
  5
392
331
3D1
  5
3D1
331
39A
  5
39A
331
324
  5
324
331
2E5
  5
2E5
331
35B
  5
35B
331
410
  5
410
331
6E
  5
6E
331
418
  5
418
331
3A2
  5
3A2
331
3D9
  5
3D9
331
32C
  5
32C
331
2ED
  5
2ED
331
363
  5
363
331
A6
  5
A6
331
AE
  5
AE
331
B6
  5
B6
331
49E
  5
49E
331
4D5
  5
4D5
331
45F
  5
45F
331
4A6
  5
4A6
331
467
  5
467
331
4DD
  5
4DD
331
4AE
  5
4AE
331
46F
  5
46F
331
4E5
  5
4E5
331
477
  5
477
331
4ED
  5
4ED
331
420
  5
420
331
3AA
  5
3AA
331
334
  5
334
331
2F5
  5
2F5
331
36B
  5
36B
331
3E1
  5
3E1
331
428
  5
428
331
3B2
  5
3B2
331
33C
  5
33C
331
373
  5
373
331
2BE
  5
2BE
331
2FD
  5
2FD
331
3E9
  5
3E9
331
137
  5
137
331
430
  5
430
331
3BA
  5
3BA
331
344
  5
344
331
37B
  5
37B
331
2CE
  5
2CE
331
305
  5
305
331
3F1
  5
3F1
331
3F9
  5
3F9
331
30D
  5
30D
331
383
  5
383
331
57
  5
57
331
C6
  5
C6
331
5F
  5
5F
331
67
  5
67
331
438
  5
438
331
4F5
  5
4F5
331
4B6
  5
4B6
331
440
  5
440
331
47F
  5
47F
331
4BE
  5
4BE
331
487
  5
487
331
448
  5
448
331
4FD
  5
4FD
331
505
  5
505
331
48F
  5
48F
331
450
  5
450
331
4C6
  5
4C6
331
497
  5
497
331
4CE
  5
4CE
331
F8
  5
F8
331
3C2
  5
3C2
331
38B
  5
38B
331
315
  5
315
331
2D6
  5
2D6
331
34C
  5
34C
331
401
  5
401
331
409
  5
409
331
393
  5
393
331
31D
  5
31D
331
2DE
  5
2DE
331
354
  5
354
331
3CA
  5
3CA
331
411
  5
411
331
3D2
  5
3D2
331
35C
  5
35C
331
2E6
  5
2E6
331
325
  5
325
331
39B
  5
39B
331
6F
  5
6F
331
419
  5
419
331
3A3
  5
3A3
331
32D
  5
32D
331
364
  5
364
331
2EE
  5
2EE
331
3DA
  5
3DA
331
A7
  5
A7
331
AF
  5
AF
331
458
  5
458
331
49F
  5
49F
331
460
  5
460
331
4D6
  5
4D6
331
4A7
  5
4A7
331
4DE
  5
4DE
331
468
  5
468
331
4AF
  5
4AF
331
4E6
  5
4E6
331
470
  5
470
331
4EE
  5
4EE
331
421
  5
421
331
3AB
  5
3AB
331
3E2
  5
3E2
331
335
  5
335
331
2F6
  5
2F6
331
36C
  5
36C
331
130
  5
130
331
429
  5
429
331
3B3
  5
3B3
331
3EA
  5
3EA
331
33D
  5
33D
331
2FE
  5
2FE
331
374
  5
374
331
138
  5
138
331
431
  5
431
331
3BB
  5
3BB
331
345
  5
345
331
2CF
  5
2CF
331
306
  5
306
331
37C
  5
37C
331
3F2
  5
3F2
331
384
  5
384
331
30E
  5
30E
331
3FA
  5
3FA
331
58
  5
58
331
C7
  5
C7
331
60
  5
60
331
478
  5
478
331
439
  5
439
331
4F6
  5
4F6
331
480
  5
480
331
441
  5
441
331
4B7
  5
4B7
331
4FE
  5
4FE
331
449
  5
449
331
488
  5
488
331
4BF
  5
4BF
331
490
  5
490
331
451
  5
451
331
4C7
  5
4C7
331
4CF
  5
4CF
331
402
  5
402
331
38C
  5
38C
331
34D
  5
34D
331
2D7
  5
2D7
331
316
  5
316
331
3C3
  5
3C3
331
40A
  5
40A
331
3CB
  5
3CB
331
355
  5
355
331
31E
  5
31E
331
2DF
  5
2DF
331
394
  5
394
331
68
  5
68
331
3D3
  5
3D3
331
39C
  5
39C
331
326
  5
326
331
2E7
  5
2E7
331
35D
  5
35D
331
412
  5
412
331
41A
  5
41A
331
3A4
  5
3A4
331
32E
  5
32E
331
2EF
  5
2EF
331
365
  5
365
331
3DB
  5
3DB
331
A8
  5
A8
331
498
  5
498
331
459
  5
459
331
4A0
  5
4A0
331
461
  5
461
331
4D7
  5
4D7
331
4A8
  5
4A8
331
469
  5
469
331
4DF
  5
4DF
331
471
  5
471
331
4E7
  5
4E7
331
4EF
  5
4EF
331
422
  5
422
331
3AC
  5
3AC
331
336
  5
336
331
2F7
  5
2F7
331
36D
  5
36D
331
3E3
  5
3E3
331
42A
  5
42A
331
3B4
  5
3B4
331
33E
  5
33E
331
375
  5
375
331
2FF
  5
2FF
331
3EB
  5
3EB
331
139
  5
139
331
432
  5
432
331
3BC
  5
3BC
331
3F3
  5
3F3
331
346
  5
346
331
307
  5
307
331
37D
  5
37D
331
51
  5
51
331
C0
  5
C0
331
3FB
  5
3FB
331
30F
  5
30F
331
385
  5
385
331
59
  5
59
331
C8
  5
C8
331
4B0
  5
4B0
331
43A
  5
43A
331
479
  5
479
331
4F7
  5
4F7
331
4B8
  5
4B8
331
442
  5
442
331
481
  5
481
331
4C0
  5
4C0
331
489
  5
489
331
44A
  5
44A
331
4FF
  5
4FF
331
507
  5
508
331
491
  5
491
331
452
  5
452
331
4C8
  5
4C8
331
2D0
  5
2D0
331
3C4
  5
3C4
331
38D
  5
38D
331
317
  5
317
331
2D8
  5
2D8
331
34E
  5
34E
331
403
  5
403
331
102
  5
102
331
40B
  5
40B
331
395
  5
395
331
356
  5
356
331
2E0
  5
2E0
331
31F
  5
31F
331
3CC
  5
3CC
331
69
  5
69
331
3D4
  5
3D4
331
35E
  5
35E
331
2E8
  5
2E8
331
327
  5
327
331
39D
  5
39D
331
413
  5
413
331
41B
  5
41B
331
3A5
  5
3A5
331
32F
  5
32F
331
366
  5
366
331
3DC
  5
3DC
331
A9
  5
A9
331
499
  5
499
331
45A
  5
45A
331
4D0
  5
4D0
331
4A1
  5
4A1
331
462
  5
462
331
4D8
  5
4D8
331
4A9
  5
4A9
331
4E0
  5
4E0
331
46A
  5
46A
  0
LAYOUT
  5
113
102
{ACAD_XDICTIONARY
360
56D
102
}
102
{ACAD_REACTORS
330
110
102
}
330
110
100
AcDbPlotSettings
  1

  2
\\RSENG\RSplotter4NT
  4

  6

 40
0.0
 41
0.0
 42
0.0
 43
0.0
 44
0.0
 45
0.0
 46
0.0
 47
0.0
 48
0.0
 49
0.0
140
0.0
141
0.0
142
1.0
143
1.0
 70
   688
 72
     0
 73
     0
 74
     5
  7
Symantec Fax Starter Edition
 75
    16
147
1.0
148
0.0
149
0.0
100
AcDbLayout
  1
Layout1
 70
     1
 71
     1
 10
0.0
 20
0.0
 11
12.0
 21
9.0
 12
0.0
 22
0.0
 32
0.0
 14
1.000000000000000E+20
 24
1.000000000000000E+20
 34
1.000000000000000E+20
 15
-1.000000000000000E+20
 25
-1.000000000000000E+20
 35
-1.000000000000000E+20
146
0.0
 13
0.0
 23
0.0
 33
0.0
 16
1.0
 26
0.0
 36
0.0
 17
0.0
 27
1.0
 37
0.0
 76
     0
330
15
  0
LAYOUT
  5
112
102
{ACAD_XDICTIONARY
360
56B
102
}
102
{ACAD_REACTORS
330
110
102
}
330
110
100
AcDbPlotSettings
  1

  2
\\RSENG\RSplotter4NT
  4

  6

 40
0.0
 41
0.0
 42
0.0
 43
0.0
 44
0.0
 45
0.0
 46
0.0
 47
0.0
 48
0.0
 49
0.0
140
0.0
141
0.0
142
1.0
143
1.0
 70
  1712
 72
     0
 73
     0
 74
     0
  7
Symantec Fax Starter Edition
 75
     0
147
1.0
148
0.0
149
0.0
100
AcDbLayout
  1
Model
 70
     1
 71
     0
 10
0.0
 20
0.0
 11
12.0
 21
9.0
 12
0.0
 22
0.0
 32
0.0
 14
0.0
 24
0.0
 34
0.0
 15
0.0
 25
0.0
 35
0.0
146
0.0
 13
0.0
 23
0.0
 33
0.0
 16
1.0
 26
0.0
 36
0.0
 17
0.0
 27
1.0
 37
0.0
 76
     0
330
18
  0
MLINESTYLE
  5
1C
102
{ACAD_REACTORS
330
1B
102
}
330
1B
100
AcDbMlineStyle
  2
STANDARD
 70
     0
  3

 62
   256
 51
90.0
 52
90.0
 71
     2
 49
0.5
 62
   256
  6
BYLAYER
 49
-0.5
 62
   256
  6
BYLAYER
  0
ACDBPLACEHOLDER
  5
10B
102
{ACAD_REACTORS
330
10A
102
}
330
10A
  0
TABLESTYLE
  5
10F
102
{ACAD_REACTORS
330
10E
102
}
330
10E
100
AcDbTableStyle
  3
Standard
 70
     0
 71
     0
 40
0.06
 41
0.06
280
     0
281
     0
  7
STANDARD
140
0.18
170
     2
 62
     0
 63
     7
283
     0
274
    -2
284
     1
 64
     0
275
    -2
285
     1
 65
     0
276
    -2
286
     1
 66
     0
277
    -2
287
     1
 67
     0
278
    -2
288
     1
 68
     0
279
    -2
289
     1
 69
     0
  7
STANDARD
140
0.25
170
     5
 62
     0
 63
     7
283
     0
274
    -2
284
     1
 64
     0
275
    -2
285
     1
 65
     0
276
    -2
286
     1
 66
     0
277
    -2
287
     1
 67
     0
278
    -2
288
     1
 68
     0
279
    -2
289
     1
 69
     0
  7
STANDARD
140
0.18
170
     5
 62
     0
 63
     7
283
     0
274
    -2
284
     1
 64
     0
275
    -2
285
     1
 65
     0
276
    -2
286
     1
 66
     0
277
    -2
287
     1
 67
     0
278
    -2
288
     1
 68
     0
279
    -2
289
     1
 69
     0
  0
DICTIONARYVAR
  5
13F
102
{ACAD_REACTORS
330
13E
102
}
330
13E
100
DictionaryVariables
280
     0
  1
STANDARD
  0
DICTIONARYVAR
  5
567
102
{ACAD_REACTORS
330
13E
102
}
330
13E
100
DictionaryVariables
280
     0
  1
1
  0
DICTIONARYVAR
  5
568
102
{ACAD_REACTORS
330
13E
102
}
330
13E
100
DictionaryVariables
280
     0
  1

  0
XRECORD
  5
14A
102
{ACAD_REACTORS
330
148
102
}
330
148
100
AcDbXrecord
280
     1
  0
DICTIONARY
  5
56D
330
113
100
AcDbDictionary
280
     1
281
     1
  3
ACAD_XREC_ROUNDTRIP
360
56E
  0
DICTIONARY
  5
56B
330
112
100
AcDbDictionary
280
     1
281
     1
  3
ACAD_XREC_ROUNDTRIP
360
56C
  0
XRECORD
  5
56E
102
{ACAD_REACTORS
330
56D
102
}
330
56D
100
AcDbXrecord
280
     1
102
SHADEPLOT
 70
     0
102
SHADEPLOTRESLEVEL
 70
     2
102
SHADEPLOTCUSTOMDPI
 70
   300
  0
XRECORD
  5
56C
102
{ACAD_REACTORS
330
56B
102
}
330
56B
100
AcDbXrecord
280
     1
102
SHADEPLOT
 70
     0
102
SHADEPLOTRESLEVEL
 70
     2
102
SHADEPLOTCUSTOMDPI
 70
   300
  0
ENDSEC
  0
EOF
