  0
SECTION
  2
HEADER
  9
$ACADVER
  1
AC1015
  9
$ACADMAINTVER
 70
    20
  9
$DWGCODEPAGE
  3
ANSI_1252
  9
$INSBASE
 10
0.0
 20
0.0
 30
0.0
  9
$EXTMIN
 10
-0.075
 20
-0.075
 30
0.0
  9
$EXTMAX
 10
22.075
 20
17.075
 30
0.0
  9
$LIMMIN
 10
0.0
 20
0.0
  9
$LIMMAX
 10
12.0
 20
9.0
  9
$ORTHOMODE
 70
     0
  9
$REGENMODE
 70
     1
  9
$FILLMODE
 70
     1
  9
$QTEXTMODE
 70
     0
  9
$MIRRTEXT
 70
     1
  9
$LTSCALE
 40
1.0
  9
$ATTMODE
 70
     1
  9
$TEXTSIZE
 40
0.09
  9
$TRACEWID
 40
0.05
  9
$TEXTSTYLE
  7
STANDARD
  9
$CLAYER
  8
0
  9
$CELTYPE
  6
BYLAYER
  9
$CECOLOR
 62
   256
  9
$CELTSCALE
 40
1.0
  9
$DISPSILH
 70
     0
  9
$DIMSCALE
 40
1.0
  9
$DIMASZ
 40
0.125
  9
$DIMEXO
 40
0.0625
  9
$DIMDLI
 40
0.38
  9
$DIMRND
 40
0.0
  9
$DIMDLE
 40
0.0
  9
$DIMEXE
 40
0.125
  9
$DIMTP
 40
0.0
  9
$DIMTM
 40
0.0
  9
$DIMTXT
 40
0.09
  9
$DIMCEN
 40
0.09
  9
$DIMTSZ
 40
0.0
  9
$DIMTOL
 70
     0
  9
$DIMLIM
 70
     0
  9
$DIMTIH
 70
     1
  9
$DIMTOH
 70
     1
  9
$DIMSE1
 70
     0
  9
$DIMSE2
 70
     0
  9
$DIMTAD
 70
     0
  9
$DIMZIN
 70
     0
  9
$DIMBLK
  1

  9
$DIMASO
 70
     1
  9
$DIMSHO
 70
     1
  9
$DIMPOST
  1

  9
$DIMAPOST
  1
mm
  9
$DIMALT
 70
     1
  9
$DIMALTD
 70
     1
  9
$DIMALTF
 40
25.4
  9
$DIMLFAC
 40
1.0
  9
$DIMTOFL
 70
     0
  9
$DIMTVP
 40
0.0
  9
$DIMTIX
 70
     0
  9
$DIMSOXD
 70
     0
  9
$DIMSAH
 70
     0
  9
$DIMBLK1
  1

  9
$DIMBLK2
  1

  9
$DIMSTYLE
  2
STANDARD
  9
$DIMCLRD
 70
     0
  9
$DIMCLRE
 70
     0
  9
$DIMCLRT
 70
     0
  9
$DIMTFAC
 40
1.0
  9
$DIMGAP
 40
0.09
  9
$DIMJUST
 70
     0
  9
$DIMSD1
 70
     0
  9
$DIMSD2
 70
     0
  9
$DIMTOLJ
 70
     1
  9
$DIMTZIN
 70
     0
  9
$DIMALTZ
 70
     0
  9
$DIMALTTZ
 70
     0
  9
$DIMUPT
 70
     0
  9
$DIMDEC
 70
     2
  9
$DIMTDEC
 70
     2
  9
$DIMALTU
 70
     2
  9
$DIMALTTD
 70
     1
  9
$DIMTXSTY
  7
STANDARD
  9
$DIMAUNIT
 70
     0
  9
$DIMADEC
 70
     0
  9
$DIMALTRND
 40
0.0
  9
$DIMAZIN
 70
     0
  9
$DIMDSEP
 70
    46
  9
$DIMATFIT
 70
     3
  9
$DIMFRAC
 70
     0
  9
$DIMLDRBLK
  1

  9
$DIMLUNIT
 70
     2
  9
$DIMLWD
 70
    -2
  9
$DIMLWE
 70
    -2
  9
$DIMTMOVE
 70
     0
  9
$LUNITS
 70
     2
  9
$LUPREC
 70
     2
  9
$SKETCHINC
 40
0.1
  9
$FILLETRAD
 40
0.5
  9
$AUNITS
 70
     0
  9
$AUPREC
 70
     0
  9
$MENU
  1
.
  9
$ELEVATION
 40
0.0
  9
$PELEVATION
 40
0.0
  9
$THICKNESS
 40
0.0
  9
$LIMCHECK
 70
     0
  9
$CHAMFERA
 40
0.5
  9
$CHAMFERB
 40
0.5
  9
$CHAMFERC
 40
1.0
  9
$CHAMFERD
 40
0.0
  9
$SKPOLY
 70
     0
  9
$TDCREATE
 40
2451681.555436007
  9
$TDUCREATE
 40
2451681.763769340
  9
$TDUPDATE
 40
2454294.551962408
  9
$TDUUPDATE
 40
2454294.760295741
  9
$TDINDWG
 40
0.2329195023
  9
$TDUSRTIMER
 40
0.2329195023
  9
$USRTIMER
 70
     1
  9
$ANGBASE
 50
0.0
  9
$ANGDIR
 70
     0
  9
$PDMODE
 70
     2
  9
$PDSIZE
 40
0.075
  9
$PLINEWID
 40
0.0
  9
$SPLFRAME
 70
     0
  9
$SPLINETYPE
 70
     6
  9
$SPLINESEGS
 70
     8
  9
$HANDSEED
  5
1A31
  9
$SURFTAB1
 70
     6
  9
$SURFTAB2
 70
     6
  9
$SURFTYPE
 70
     6
  9
$SURFU
 70
     6
  9
$SURFV
 70
     6
  9
$UCSBASE
  2

  9
$UCSNAME
  2

  9
$UCSORG
 10
0.0
 20
0.0
 30
0.0
  9
$UCSXDIR
 10
1.0
 20
0.0
 30
0.0
  9
$UCSYDIR
 10
0.0
 20
1.0
 30
0.0
  9
$UCSORTHOREF
  2

  9
$UCSORTHOVIEW
 70
     1
  9
$UCSORGTOP
 10
0.0
 20
0.0
 30
0.0
  9
$UCSORGBOTTOM
 10
0.0
 20
0.0
 30
0.0
  9
$UCSORGLEFT
 10
0.0
 20
0.0
 30
0.0
  9
$UCSORGRIGHT
 10
0.0
 20
0.0
 30
0.0
  9
$UCSORGFRONT
 10
0.0
 20
0.0
 30
0.0
  9
$UCSORGBACK
 10
0.0
 20
0.0
 30
0.0
  9
$PUCSBASE
  2

  9
$PUCSNAME
  2

  9
$PUCSORG
 10
0.0
 20
0.0
 30
0.0
  9
$PUCSXDIR
 10
1.0
 20
0.0
 30
0.0
  9
$PUCSYDIR
 10
0.0
 20
1.0
 30
0.0
  9
$PUCSORTHOREF
  2

  9
$PUCSORTHOVIEW
 70
     0
  9
$PUCSORGTOP
 10
0.0
 20
0.0
 30
0.0
  9
$PUCSORGBOTTOM
 10
0.0
 20
0.0
 30
0.0
  9
$PUCSORGLEFT
 10
0.0
 20
0.0
 30
0.0
  9
$PUCSORGRIGHT
 10
0.0
 20
0.0
 30
0.0
  9
$PUCSORGFRONT
 10
0.0
 20
0.0
 30
0.0
  9
$PUCSORGBACK
 10
0.0
 20
0.0
 30
0.0
  9
$USERI1
 70
     0
  9
$USERI2
 70
     0
  9
$USERI3
 70
     0
  9
$USERI4
 70
     0
  9
$USERI5
 70
     0
  9
$USERR1
 40
0.0
  9
$USERR2
 40
0.0
  9
$USERR3
 40
0.0
  9
$USERR4
 40
0.0
  9
$USERR5
 40
0.0
  9
$WORLDVIEW
 70
     1
  9
$SHADEDGE
 70
     3
  9
$SHADEDIF
 70
    70
  9
$TILEMODE
 70
     1
  9
$MAXACTVP
 70
    48
  9
$PINSBASE
 10
0.0
 20
0.0
 30
0.0
  9
$PLIMCHECK
 70
     0
  9
$PEXTMIN
 10
1.000000000000000E+20
 20
1.000000000000000E+20
 30
1.000000000000000E+20
  9
$PEXTMAX
 10
-1.000000000000000E+20
 20
-1.000000000000000E+20
 30
-1.000000000000000E+20
  9
$PLIMMIN
 10
0.0
 20
0.0
  9
$PLIMMAX
 10
12.0
 20
9.0
  9
$UNITMODE
 70
     0
  9
$VISRETAIN
 70
     1
  9
$PLINEGEN
 70
     0
  9
$PSLTSCALE
 70
     1
  9
$TREEDEPTH
 70
  3020
  9
$CMLSTYLE
  2
STANDARD
  9
$CMLJUST
 70
     0
  9
$CMLSCALE
 40
1.0
  9
$PROXYGRAPHICS
 70
     1
  9
$MEASUREMENT
 70
     0
  9
$CELWEIGHT
370
    -1
  9
$ENDCAPS
280
     0
  9
$JOINSTYLE
280
     0
  9
$LWDISPLAY
290
     0
  9
$INSUNITS
 70
     0
  9
$HYPERLINKBASE
  1

  9
$STYLESHEET
  1

  9
$XEDIT
290
     1
  9
$CEPSNTYPE
380
     0
  9
$PSTYLEMODE
290
     1
  9
$FINGERPRINTGUID
  2
{71EC7F31-AA06-4ECF-8D30-7E7FC2EDBC33}
  9
$VERSIONGUID
  2
{DDBD2FCB-7CB1-4E8E-A505-FC4259FC01C5}
  9
$EXTNAMES
290
     1
  9
$PSVPSCALE
 40
0.0
  9
$OLESTARTUP
290
     0
  0
ENDSEC
  0
SECTION
  2
CLASSES
  0
CLASS
  1
ACDBDICTIONARYWDFLT
  2
AcDbDictionaryWithDefault
  3
ObjectDBX Classes
 90
        0
280
     0
281
     0
  0
CLASS
  1
TABLESTYLE
  2
AcDbTableStyle
  3
ObjectDBX Classes
 90
     2047
280
     0
281
     0
  0
CLASS
  1
DICTIONARYVAR
  2
AcDbDictionaryVar
  3
ObjectDBX Classes
 90
        0
280
     0
281
     0
  0
CLASS
  1
SORTENTSTABLE
  2
AcDbSortentsTable
  3
ObjectDBX Classes
 90
        0
280
     0
281
     0
  0
CLASS
  1
ACDBPLACEHOLDER
  2
AcDbPlaceHolder
  3
ObjectDBX Classes
 90
        0
280
     0
281
     0
  0
CLASS
  1
LAYOUT
  2
AcDbLayout
  3
ObjectDBX Classes
 90
        0
280
     0
281
     0
  0
ENDSEC
  0
SECTION
  2
TABLES
  0
TABLE
  2
VPORT
  5
8
330
0
100
AcDbSymbolTable
 70
     2
  0
VPORT
  5
1A2B
330
8
100
AcDbSymbolTableRecord
100
AcDbViewportTableRecord
  2
*Active
 70
     0
 10
0.0
 20
0.0
 11
1.0
 21
1.0
 12
11.00000015472541
 22
9.103873819164817
 13
0.0
 23
0.0
 14
0.5
 24
0.5
 15
0.5
 25
0.5
 16
0.0
 26
0.0
 36
1.0
 17
0.0
 27
0.0
 37
0.0
 40
18.46820989900854
 41
1.499364675984752
 42
50.0
 43
0.0
 44
0.0
 50
0.0
 51
0.0
 71
     0
 72
   100
 73
     1
 74
     1
 75
     0
 76
     0
 77
     0
 78
     0
281
     0
 65
     1
110
0.0
120
0.0
130
0.0
111
1.0
121
0.0
131
0.0
112
0.0
122
1.0
132
0.0
 79
     1
146
0.0
  0
ENDTAB
  0
TABLE
  2
LTYPE
  5
5
330
0
100
AcDbSymbolTable
 70
     1
  0
LTYPE
  5
12
330
5
100
AcDbSymbolTableRecord
100
AcDbLinetypeTableRecord
  2
BYBLOCK
 70
     0
  3

 72
    65
 73
     0
 40
0.0
  0
LTYPE
  5
13
330
5
100
AcDbSymbolTableRecord
100
AcDbLinetypeTableRecord
  2
BYLAYER
 70
     0
  3

 72
    65
 73
     0
 40
0.0
  0
LTYPE
  5
14
330
5
100
AcDbSymbolTableRecord
100
AcDbLinetypeTableRecord
  2
CONTINUOUS
 70
     0
  3
Solid line
 72
    65
 73
     0
 40
0.0
  0
ENDTAB
  0
TABLE
  2
LAYER
  5
2
102
{ACAD_XDICTIONARY
360
154
102
}
330
0
100
AcDbSymbolTable
 70
     6
  0
LAYER
  5
E
330
2
100
AcDbSymbolTableRecord
100
AcDbLayerTableRecord
  2
0
 70
     0
 62
     7
  6
CONTINUOUS
370
    -3
390
10B
  0
LAYER
  5
20
330
2
100
AcDbSymbolTableRecord
100
AcDbLayerTableRecord
  2
Title Block
 70
     0
 62
     3
  6
CONTINUOUS
370
    -3
390
10B
  0
LAYER
  5
21
330
2
100
AcDbSymbolTableRecord
100
AcDbLayerTableRecord
  2
Dimension
 70
     0
 62
     6
  6
CONTINUOUS
370
    -3
390
10B
  0
LAYER
  5
22
330
2
100
AcDbSymbolTableRecord
100
AcDbLayerTableRecord
  2
Text
 70
     0
 62
     1
  6
CONTINUOUS
370
    -3
390
10B
  0
LAYER
  5
23
330
2
100
AcDbSymbolTableRecord
100
AcDbLayerTableRecord
  2
Object
 70
     0
 62
     5
  6
CONTINUOUS
370
    -3
390
10B
  0
LAYER
  5
179
330
2
100
AcDbSymbolTableRecord
100
AcDbLayerTableRecord
  2
Defpoints
 70
     0
 62
     7
  6
CONTINUOUS
290
     0
370
    -3
390
10B
  0
ENDTAB
  0
TABLE
  2
STYLE
  5
3
330
0
100
AcDbSymbolTable
 70
     1
  0
STYLE
  5
F
330
3
100
AcDbSymbolTableRecord
100
AcDbTextStyleTableRecord
  2
STANDARD
 70
     0
 40
0.0
 41
1.0
 50
0.0
 71
     0
 42
0.09
  3
technic_.ttf
  4

1001
ACAD
1000
Technic
1071
      514
  0
ENDTAB
  0
TABLE
  2
VIEW
  5
6
330
0
100
AcDbSymbolTable
 70
     0
  0
ENDTAB
  0
TABLE
  2
UCS
  5
7
330
0
100
AcDbSymbolTable
 70
     0
  0
ENDTAB
  0
TABLE
  2
APPID
  5
9
330
0
100
AcDbSymbolTable
 70
     4
  0
APPID
  5
10
330
9
100
AcDbSymbolTableRecord
100
AcDbRegAppTableRecord
  2
ACAD
 70
     0
  0
APPID
  5
149
330
9
100
AcDbSymbolTableRecord
100
AcDbRegAppTableRecord
  2
DCO15
 70
     0
  0
APPID
  5
153
330
9
100
AcDbSymbolTableRecord
100
AcDbRegAppTableRecord
  2
AcAecLayerStandard
 70
     0
  0
APPID
  5
1A9
330
9
100
AcDbSymbolTableRecord
100
AcDbRegAppTableRecord
  2
ACAD_DSTYLE_DIMTEXT_FILL
 70
     0
  0
ENDTAB
  0
TABLE
  2
DIMSTYLE
  5
A
330
0
100
AcDbSymbolTable
 70
     1
100
AcDbDimStyleTable
 71
     1
340
1D
  0
DIMSTYLE
105
1D
102
{ACAD_REACTORS
330
19D8
330
1A03
102
}
330
A
100
AcDbSymbolTableRecord
100
AcDbDimStyleTableRecord
  2
STANDARD
 70
     0
  4
mm
 41
0.125
 44
0.125
140
0.09
170
     1
171
     1
271
     2
272
     2
274
     1
340
F
  0
ENDTAB
  0
TABLE
  2
BLOCK_RECORD
  5
1
330
0
100
AcDbSymbolTable
 70
     2
  0
BLOCK_RECORD
  5
18
102
{ACAD_XDICTIONARY
360
1208
102
}
330
1
100
AcDbSymbolTableRecord
100
AcDbBlockTableRecord
  2
*MODEL_SPACE
340
112
  0
BLOCK_RECORD
  5
15
330
1
100
AcDbSymbolTableRecord
100
AcDbBlockTableRecord
  2
*PAPER_SPACE
340
113
  0
BLOCK_RECORD
  5
19D9
330
1
100
AcDbSymbolTableRecord
100
AcDbBlockTableRecord
  2
*D0
340
0
  0
BLOCK_RECORD
  5
1A04
330
1
100
AcDbSymbolTableRecord
100
AcDbBlockTableRecord
  2
*D1
340
0
  0
ENDTAB
  0
ENDSEC
  0
SECTION
  2
BLOCKS
  0
BLOCK
  5
19
330
18
100
AcDbEntity
  8
0
100
AcDbBlockBegin
  2
*MODEL_SPACE
 70
     0
 10
0.0
 20
0.0
 30
0.0
  3
*MODEL_SPACE
  1

  0
ENDBLK
  5
1A
330
18
100
AcDbEntity
  8
0
100
AcDbBlockEnd
  0
BLOCK
  5
16
330
15
100
AcDbEntity
 67
     1
  8
0
100
AcDbBlockBegin
  2
*PAPER_SPACE
 70
     0
 10
0.0
 20
0.0
 30
0.0
  3
*PAPER_SPACE
  1

  0
ENDBLK
  5
17
330
15
100
AcDbEntity
 67
     1
  8
0
100
AcDbBlockEnd
  0
BLOCK
  5
19E4
330
19D9
100
AcDbEntity
  8
0
100
AcDbBlockBegin
  2
*D0
 70
     1
 10
0.0
 20
0.0
 30
0.0
  3
*D0
  1

  0
LINE
  5
19DA
330
19D9
100
AcDbEntity
  8
Dimension
 62
     0
370
    -2
100
AcDbLine
 10
4.058780829947187
 20
10.1795
 30
0.0
 11
4.058780829947187
 21
13.54549243688391
 31
0.0
  0
LINE
  5
19DB
330
19D9
100
AcDbEntity
  8
Dimension
 62
     0
370
    -2
100
AcDbLine
 10
6.479780829947187
 20
10.1795
 30
0.0
 11
6.479780829947187
 21
13.54549243688391
 31
0.0
  0
LINE
  5
19DC
330
19D9
100
AcDbEntity
  8
Dimension
 62
     0
370
    -2
100
AcDbLine
 10
4.183780829947187
 20
13.42049243688391
 30
0.0
 11
4.782767672052449
 21
13.42049243688391
 31
0.0
  0
LINE
  5
19DD
330
19D9
100
AcDbEntity
  8
Dimension
 62
     0
370
    -2
100
AcDbLine
 10
6.354780829947187
 20
13.42049243688391
 30
0.0
 11
5.755793987841923
 21
13.42049243688391
 31
0.0
  0
SOLID
  5
19DE
330
19D9
100
AcDbEntity
  8
Dimension
 62
     0
100
AcDbTrace
 10
4.183780829947187
 20
13.44132577021724
 30
0.0
 11
4.183780829947187
 21
13.39965910355058
 31
0.0
 12
4.058780829947187
 22
13.42049243688391
 32
0.0
 13
4.058780829947187
 23
13.42049243688391
 33
0.0
  0
SOLID
  5
19DF
330
19D9
100
AcDbEntity
  8
Dimension
 62
     0
100
AcDbTrace
 10
6.354780829947187
 20
13.44132577021724
 30
0.0
 11
6.354780829947187
 21
13.39965910355058
 31
0.0
 12
6.479780829947187
 22
13.42049243688391
 32
0.0
 13
6.479780829947187
 23
13.42049243688391
 33
0.0
  0
MTEXT
  5
19E0
330
19D9
100
AcDbEntity
  8
Dimension
 62
     0
100
AcDbMText
 10
5.269280829947186
 20
13.42049243688391
 30
0.0
 40
0.09
 41
0.0
 71
     5
 72
     1
  1
\A1;2.42 [61.5mm]
 73
     1
 44
1.0
1001
ACAD
1000
MTEXTBEGIN
1070
    73
1070
     1
1070
    44
1040
1.0
1070
    74
1070
     0
1000
MTEXTEND
  0
POINT
  5
19E1
330
19D9
100
AcDbEntity
  8
Defpoints
 62
     0
100
AcDbPoint
 10
4.058780829947187
 20
10.117
 30
0.0
  0
POINT
  5
19E2
330
19D9
100
AcDbEntity
  8
Defpoints
 62
     0
100
AcDbPoint
 10
6.479780829947187
 20
10.117
 30
0.0
  0
POINT
  5
19E3
330
19D9
100
AcDbEntity
  8
Defpoints
 62
     0
100
AcDbPoint
 10
6.479780829947187
 20
13.42049243688391
 30
0.0
  0
ENDBLK
  5
19E5
330
19D9
100
AcDbEntity
  8
0
100
AcDbBlockEnd
  0
BLOCK
  5
1A0F
330
1A04
100
AcDbEntity
  8
0
100
AcDbBlockBegin
  2
*D1
 70
     1
 10
0.0
 20
0.0
 30
0.0
  3
*D1
  1

  0
LINE
  5
1A17
330
1A04
100
AcDbEntity
  8
Dimension
 62
     0
370
    -2
100
AcDbLine
 10
12.54078082994719
 20
6.982499999999999
 30
0.0
 11
12.54078082994719
 21
13.54549243688391
 31
0.0
  0
LINE
  5
1A18
330
1A04
100
AcDbEntity
  8
Dimension
 62
     0
370
    -2
100
AcDbLine
 10
19.41478082994718
 20
12.0575
 30
0.0
 11
19.41478082994718
 21
13.54549243688391
 31
0.0
  0
LINE
  5
1A19
330
1A04
100
AcDbEntity
  8
Dimension
 62
     0
370
    -2
100
AcDbLine
 10
12.66578082994719
 20
13.42049243688391
 30
0.0
 11
15.44778082994718
 21
13.42049243688391
 31
0.0
  0
LINE
  5
1A1A
330
1A04
100
AcDbEntity
  8
Dimension
 62
     0
370
    -2
100
AcDbLine
 10
19.28978082994719
 20
13.42049243688391
 30
0.0
 11
16.50778082994718
 21
13.42049243688391
 31
0.0
  0
SOLID
  5
1A1B
330
1A04
100
AcDbEntity
  8
Dimension
 62
     0
100
AcDbTrace
 10
12.66578082994719
 20
13.44132577021724
 30
0.0
 11
12.66578082994719
 21
13.39965910355058
 31
0.0
 12
12.54078082994719
 22
13.42049243688391
 32
0.0
 13
12.54078082994719
 23
13.42049243688391
 33
0.0
  0
SOLID
  5
1A1C
330
1A04
100
AcDbEntity
  8
Dimension
 62
     0
100
AcDbTrace
 10
19.28978082994719
 20
13.44132577021724
 30
0.0
 11
19.28978082994719
 21
13.39965910355058
 31
0.0
 12
19.41478082994718
 22
13.42049243688391
 32
0.0
 13
19.41478082994718
 23
13.42049243688391
 33
0.0
  0
MTEXT
  5
1A1D
330
1A04
100
AcDbEntity
  8
Dimension
 62
     0
100
AcDbMText
 10
15.97778082994719
 20
13.42049243688391
 30
0.0
 40
0.09
 41
0.0
 71
     5
 72
     1
  1
\A1;6.95 [176.6mm]
 73
     1
 44
1.0
1001
ACAD
1000
MTEXTBEGIN
1070
    73
1070
     1
1070
    44
1040
1.0
1070
    74
1070
     0
1000
MTEXTEND
  0
POINT
  5
1A1E
330
1A04
100
AcDbEntity
  8
Defpoints
 62
     0
100
AcDbPoint
 10
12.54078082994719
 20
6.919999999999999
 30
0.0
  0
POINT
  5
1A1F
330
1A04
100
AcDbEntity
  8
Defpoints
 62
     0
100
AcDbPoint
 10
19.41478082994718
 20
11.995
 30
0.0
  0
POINT
  5
1A20
330
1A04
100
AcDbEntity
  8
Defpoints
 62
     0
100
AcDbPoint
 10
19.41478082994718
 20
13.42049243688391
 30
0.0
  0
ENDBLK
  5
1A10
330
1A04
100
AcDbEntity
  8
0
100
AcDbBlockEnd
  0
ENDSEC
  0
SECTION
  2
ENTITIES
  0
TEXT
  5
51
330
18
100
AcDbEntity
  8
Title Block
100
AcDbText
 10
17.77669501265554
 20
2.672489851525508
 30
0.0
 40
0.05
  1
FILENAME:
100
AcDbText
  0
TEXT
  5
52
330
18
100
AcDbEntity
  8
Title Block
100
AcDbText
 10
17.76928502872825
 20
2.076224967549325
 30
0.0
 40
0.35
  1
PANDUIT
100
AcDbText
  0
TEXT
  5
53
330
18
100
AcDbEntity
  8
Title Block
100
AcDbText
 10
19.72182039882138
 20
2.061410940562986
 30
0.0
 40
0.125
  1
CORP. TINLEY PARK, IL
100
AcDbText
  0
TEXT
  5
54
330
18
100
AcDbEntity
  8
Title Block
100
AcDbText
 10
17.78039997670861
 20
1.91697409709392
 30
0.0
 40
0.05
  1
TITLE:
100
AcDbText
  0
MTEXT
  5
57
330
18
100
AcDbEntity
  8
Title Block
100
AcDbMText
 10
19.0
 20
1.372215793536348
 30
0.0
 40
0.075
 41
2.5
 71
     5
 72
     5
  1
UNLESS OTHERWISE SPECIFIED,\PDIMENSIONAL TOLERANCES ARE:       
 73
     1
 44
1.0
1001
ACAD
1000
MTEXTBEGIN
1070
    73
1070
     1
1070
    44
1040
1.0
1070
    74
1070
     0
1000
MTEXTEND
  0
MTEXT
  5
58
330
18
100
AcDbEntity
  8
Title Block
100
AcDbMText
 10
18.39237986661001
 20
1.131487708483632
 30
0.0
 40
0.075
 41
2.5
 71
     5
 72
     5
  1
(.X)\P(.XX)
 73
     1
 44
1.0
1001
ACAD
1000
MTEXTBEGIN
1070
    73
1070
     1
1070
    44
1040
1.0
1070
    74
1070
     0
1000
MTEXTEND
  0
MTEXT
  5
59
330
18
100
AcDbEntity
  8
Title Block
100
AcDbMText
 10
19.40014005312411
 20
1.131487708483632
 30
0.0
 40
0.075
 41
2.5
 71
     5
 72
     5
  1
(.XXX)\PANGLES:
 73
     1
 44
1.0
1001
ACAD
1000
MTEXTBEGIN
1070
    73
1070
     1
1070
    44
1040
1.0
1070
    74
1070
     0
1000
MTEXTEND
  0
MTEXT
  5
5A
330
18
100
AcDbEntity
  8
Title Block
100
AcDbMText
 10
21.0
 20
1.25
 30
0.0
 40
0.06
 41
1.5
 71
     5
 72
     5
  1
UNLESS OTHERWISE SPECIFIED,\PALL DIMENSIONS ARE GIVEN IN INCHES, THIRD ANGLE PROJECTION
 73
     1
 44
1.0
1001
ACAD
1000
MTEXTBEGIN
1070
    73
1070
     1
1070
    44
1040
1.0
1070
    74
1070
     0
1000
MTEXTEND
  0
TEXT
  5
5E
330
18
100
AcDbEntity
  8
Title Block
100
AcDbText
 10
17.76076445430618
 20
0.9281373372752312
 30
0.0
 40
0.05
  1
DRAWN BY:
100
AcDbText
  0
TEXT
  5
5F
330
18
100
AcDbEntity
  8
Title Block
100
AcDbText
 10
17.76446947418043
 20
0.6811431865635028
 30
0.0
 40
0.05
  1
DATE:
100
AcDbText
  0
TEXT
  5
60
330
18
100
AcDbEntity
  8
Title Block
100
AcDbText
 10
17.76817443823349
 20
0.4304455338317968
 30
0.0
 40
0.05
  1
CHECKED BY:
100
AcDbText
  0
TEXT
  5
62
330
18
100
AcDbEntity
  8
Title Block
100
AcDbText
 10
18.52028959313306
 20
0.9281373372752312
 30
0.0
 40
0.05
  1
MATERIAL:
100
AcDbText
  0
TEXT
  5
63
330
18
100
AcDbEntity
  8
Title Block
100
AcDbText
 10
20.26534493878154
 20
0.9281373372752312
 30
0.0
 40
0.05
  1
SCALE:
100
AcDbText
  0
TEXT
  5
64
330
18
100
AcDbEntity
  8
Title Block
100
AcDbText
 10
20.26534493878154
 20
0.6725952630490007
 30
0.0
 40
0.05
  1
DRAWING NUMBER:
100
AcDbText
  0
TEXT
  5
65
330
18
100
AcDbEntity
  8
Title Block
100
AcDbText
 10
21.34942622928997
 20
0.6762987650689816
 30
0.0
 40
0.05
  1
DRAWING
100
AcDbText
  0
TEXT
  5
66
330
18
100
AcDbEntity
  8
Title Block
100
AcDbText
 10
21.42723125590085
 20
0.2811642688682026
 30
0.0
 40
0.05
  1
SIZE
100
AcDbText
  0
TEXT
  5
67
330
18
100
AcDbEntity
  8
Title Block
100
AcDbText
 10
21.39373130657865
 20
0.3826699445861052
 30
0.0
 40
0.25
  1
C
100
AcDbText
  0
MTEXT
  5
68
330
18
100
AcDbEntity
  8
Title Block
100
AcDbMText
 10
11.37499999999999
 20
0.375
 30
0.0
 40
0.05
 41
0.25
 71
     5
 72
     5
  1
REV
 73
     1
 44
1.0
1001
ACAD
1000
MTEXTBEGIN
1070
    73
1070
     1
1070
    44
1040
1.0
1070
    74
1070
     0
1000
MTEXTEND
  0
MTEXT
  5
69
330
18
100
AcDbEntity
  8
Title Block
100
AcDbMText
 10
11.74999999999999
 20
0.375
 30
0.0
 40
0.05
 41
0.5
 71
     5
 72
     5
  1
DATE
 73
     1
 44
1.0
1001
ACAD
1000
MTEXTBEGIN
1070
    73
1070
     1
1070
    44
1040
1.0
1070
    74
1070
     0
1000
MTEXTEND
  0
MTEXT
  5
6A
330
18
100
AcDbEntity
  8
Title Block
100
AcDbMText
 10
12.18999999999999
 20
0.375
 30
0.0
 40
0.05
 41
0.38
 71
     5
 72
     5
  1
BY
 73
     1
 44
1.0
1001
ACAD
1000
MTEXTBEGIN
1070
    73
1070
     1
1070
    44
1040
1.0
1070
    74
1070
     0
1000
MTEXTEND
  0
MTEXT
  5
6B
330
18
100
AcDbEntity
  8
Title Block
100
AcDbMText
 10
12.56499999999999
 20
0.375
 30
0.0
 40
0.05
 41
0.38
 71
     5
 72
     5
  1
CHK
 73
     1
 44
1.0
1001
ACAD
1000
MTEXTBEGIN
1070
    73
1070
     1
1070
    44
1040
1.0
1070
    74
1070
     0
1000
MTEXTEND
  0
MTEXT
  5
6C
330
18
100
AcDbEntity
  8
Title Block
100
AcDbMText
 10
14.12499999999999
 20
0.375
 30
0.0
 40
0.05
 41
2.75
 71
     5
 72
     5
  1
DESCRIPTION
 73
     1
 44
1.0
1001
ACAD
1000
MTEXTBEGIN
1070
    73
1070
     1
1070
    44
1040
1.0
1070
    74
1070
     0
1000
MTEXTEND
  0
MTEXT
  5
6D
330
18
100
AcDbEntity
  8
Title Block
100
AcDbMText
 10
16.065
 20
0.375
 30
0.0
 40
0.05
 41
1.129999999999999
 71
     5
 72
     5
  1
ECN   -   R
 73
     1
 44
1.0
1001
ACAD
1000
MTEXTBEGIN
1070
    73
1070
     1
1070
    44
1040
1.0
1070
    74
1070
     0
1000
MTEXTEND
  0
MTEXT
  5
6E
330
18
100
AcDbEntity
  8
Title Block
100
AcDbMText
 10
16.81499999999999
 20
0.375
 30
0.0
 40
0.05
 41
0.38
 71
     5
 72
     5
  1
CUST
 73
     1
 44
1.0
1001
ACAD
1000
MTEXTBEGIN
1070
    73
1070
     1
1070
    44
1040
1.0
1070
    74
1070
     0
1000
MTEXTEND
  0
MTEXT
  5
6F
330
18
100
AcDbEntity
  8
Title Block
100
AcDbMText
 10
17.19
 20
0.375
 30
0.0
 40
0.05
 41
0.38
 71
     5
 72
     5
  1
SUP
 73
     1
 44
1.0
1001
ACAD
1000
MTEXTBEGIN
1070
    73
1070
     1
1070
    44
1040
1.0
1070
    74
1070
     0
1000
MTEXTEND
  0
LINE
  5
A5
330
18
100
AcDbEntity
  8
Title Block
100
AcDbLine
 10
21.75
 20
2.749999999999999
 30
0.0
 11
11.25
 21
2.75
 31
0.0
  0
LINE
  5
A6
330
18
100
AcDbEntity
  8
Title Block
100
AcDbLine
 10
17.74999999999999
 20
2.75
 30
0.0
 11
17.74999999999999
 21
0.25
 31
0.0
  0
LINE
  5
A7
330
18
100
AcDbEntity
  8
Title Block
100
AcDbLine
 10
21.75
 20
2.499999999999999
 30
0.0
 11
11.25
 21
2.5
 31
0.0
  0
LINE
  5
A8
330
18
100
AcDbEntity
  8
Title Block
100
AcDbLine
 10
17.74999999999999
 20
2.25
 30
0.0
 11
11.25
 21
2.25
 31
0.0
  0
LINE
  5
A9
330
18
100
AcDbEntity
  8
Title Block
100
AcDbLine
 10
21.75
 20
1.999999999999999
 30
0.0
 11
11.25
 21
2.0
 31
0.0
  0
LINE
  5
AA
330
18
100
AcDbEntity
  8
Title Block
100
AcDbLine
 10
17.74999999999999
 20
1.75
 30
0.0
 11
11.25
 21
1.75
 31
0.0
  0
LINE
  5
AB
330
18
100
AcDbEntity
  8
Title Block
100
AcDbLine
 10
21.75
 20
1.499999999999999
 30
0.0
 11
11.25
 21
1.5
 31
0.0
  0
LINE
  5
AC
330
18
100
AcDbEntity
  8
Title Block
100
AcDbLine
 10
17.74999999999999
 20
1.25
 30
0.0
 11
11.25
 21
1.25
 31
0.0
  0
LINE
  5
AD
330
18
100
AcDbEntity
  8
Title Block
100
AcDbLine
 10
21.75
 20
0.9999999999999996
 30
0.0
 11
11.25
 21
1.0
 31
0.0
  0
LINE
  5
AE
330
18
100
AcDbEntity
  8
Title Block
100
AcDbLine
 10
18.49999999999999
 20
0.75
 30
0.0
 11
11.25
 21
0.7500000000000009
 31
0.0
  0
LINE
  5
AF
330
18
100
AcDbEntity
  8
Title Block
100
AcDbLine
 10
18.49999999999999
 20
0.5
 30
0.0
 11
11.25
 21
0.5000000000000009
 31
0.0
  0
LINE
  5
B6
330
18
100
AcDbEntity
  8
Title Block
100
AcDbLine
 10
11.25
 20
0.25
 30
0.0
 11
11.25
 21
2.75
 31
0.0
  0
LINE
  5
BC
330
18
100
AcDbEntity
  8
Title Block
100
AcDbLine
 10
11.49999999999999
 20
0.25
 30
0.0
 11
11.49999999999999
 21
2.750000000000001
 31
0.0
  0
LINE
  5
BD
330
18
100
AcDbEntity
  8
Title Block
100
AcDbLine
 10
11.99999999999999
 20
0.25
 30
0.0
 11
11.99999999999999
 21
2.750000000000001
 31
0.0
  0
LINE
  5
C0
330
18
100
AcDbEntity
  8
Title Block
100
AcDbLine
 10
12.375
 20
0.25
 30
0.0
 11
12.375
 21
2.750000000000001
 31
0.0
  0
LINE
  5
C1
330
18
100
AcDbEntity
  8
Title Block
100
AcDbLine
 10
12.74999999999999
 20
0.25
 30
0.0
 11
12.74999999999999
 21
2.750000000000001
 31
0.0
  0
LINE
  5
C2
330
18
100
AcDbEntity
  8
Title Block
100
AcDbLine
 10
17.375
 20
2.75
 30
0.0
 11
17.375
 21
0.25
 31
0.0
  0
LINE
  5
C3
330
18
100
AcDbEntity
  8
Title Block
100
AcDbLine
 10
17.0
 20
2.75
 30
0.0
 11
17.0
 21
0.25
 31
0.0
  0
LINE
  5
C4
330
18
100
AcDbEntity
  8
Title Block
100
AcDbLine
 10
16.62499999999999
 20
2.75
 30
0.0
 11
16.62499999999999
 21
0.25
 31
0.0
  0
LINE
  5
C5
330
18
100
AcDbEntity
  8
Title Block
100
AcDbLine
 10
16.25
 20
2.75
 30
0.0
 11
16.25
 21
0.5000000000000002
 31
0.0
  0
LINE
  5
C6
330
18
100
AcDbEntity
  8
Title Block
100
AcDbLine
 10
15.5
 20
2.75
 30
0.0
 11
15.5
 21
0.25
 31
0.0
  0
LINE
  5
C7
330
18
100
AcDbEntity
  8
Title Block
100
AcDbLine
 10
20.25
 20
0.75
 30
0.0
 11
20.25
 21
1.499999999999999
 31
0.0
  0
LINE
  5
C8
330
18
100
AcDbEntity
  8
Title Block
100
AcDbLine
 10
20.25
 20
0.75
 30
0.0
 11
20.25
 21
0.25
 31
0.0
  0
LINE
  5
C9
330
18
100
AcDbEntity
  8
Title Block
100
AcDbLine
 10
20.25
 20
0.75
 30
0.0
 11
21.75
 21
0.75
 31
0.0
  0
LINE
  5
CA
330
18
100
AcDbEntity
  8
Title Block
100
AcDbLine
 10
18.49999999999999
 20
0.5
 30
0.0
 11
18.49999999999999
 21
0.25
 31
0.0
  0
LINE
  5
CB
330
18
100
AcDbEntity
  8
Title Block
100
AcDbLine
 10
18.49999999999999
 20
0.5
 30
0.0
 11
18.49999999999999
 21
1.0
 31
0.0
  0
LINE
  5
CD
330
18
100
AcDbEntity
  8
Title Block
100
AcDbLine
 10
21.25
 20
0.75
 30
0.0
 11
21.25
 21
0.25
 31
0.0
  0
LWPOLYLINE
  5
F8
330
18
100
AcDbEntity
  8
Title Block
100
AcDbPolyline
 90
        4
 70
     1
 43
0.01
 10
21.75
 20
16.75
 10
21.75
 20
0.25
 10
0.25
 20
0.25
 10
0.250000000000001
 20
16.75
  0
POINT
  5
FC
330
18
100
AcDbEntity
  8
Title Block
100
AcDbPoint
 10
22.0
 20
0.0
 30
0.0
  0
POINT
  5
FF
330
18
100
AcDbEntity
  8
Title Block
100
AcDbPoint
 10
22.0
 20
17.0
 30
0.0
  0
POINT
  5
102
330
18
100
AcDbEntity
  8
Title Block
100
AcDbPoint
 10
0.000000000000001
 20
17.0
 30
0.0
  0
POINT
  5
105
330
18
100
AcDbEntity
  8
Title Block
100
AcDbPoint
 10
0.0
 20
0.0
 30
0.0
  0
MTEXT
  5
12C
330
18
100
AcDbEntity
  8
Text
100
AcDbMText
 10
11.37324893148254
 20
0.6275685908585027
 30
0.0
 40
0.09
 41
0.25
 71
     5
 72
     5
  1
R
 73
     1
 44
1.0
1001
ACAD
1000
MTEXTBEGIN
1070
    73
1070
     1
1070
    44
1040
1.0
1070
    74
1070
     0
1000
MTEXTEND
  0
MTEXT
  5
12D
330
18
100
AcDbEntity
  8
Text
100
AcDbMText
 10
11.74824893148254
 20
0.6275685908585027
 30
0.0
 40
0.07
 41
0.5
 71
     5
 72
     5
  1
12-21-00
 73
     1
 44
1.0
1001
ACAD
1000
MTEXTBEGIN
1070
    73
1070
     1
1070
    44
1040
1.0
1070
    74
1070
     0
1000
MTEXTEND
  0
MTEXT
  5
12E
330
18
100
AcDbEntity
  8
Text
100
AcDbMText
 10
12.18574893148254
 20
0.6275685908585027
 30
0.0
 40
0.09
 41
0.375
 71
     5
 72
     5
  1
MSO
 73
     1
 44
1.0
1001
ACAD
1000
MTEXTBEGIN
1070
    73
1070
     1
1070
    44
1040
1.0
1070
    74
1070
     0
1000
MTEXTEND
  0
MTEXT
  5
130
330
18
100
AcDbEntity
  8
Text
100
AcDbMText
 10
14.12324893148254
 20
0.6275685908585023
 30
0.0
 40
0.09
 41
2.75
 71
     5
 72
     5
  1
DRAWING RELEASED
 73
     1
 44
1.0
1001
ACAD
1000
MTEXTBEGIN
1070
    73
1070
     1
1070
    44
1040
1.0
1070
    74
1070
     0
1000
MTEXTEND
  0
MTEXT
  5
133
330
18
100
AcDbEntity
  8
Text
100
AcDbMText
 10
18.47324893148254
 20
0.8525685908585018
 30
0.0
 40
0.09
 41
0.75
 71
     6
 72
     5
  1
MSO
 73
     1
 44
1.0
1001
ACAD
1000
MTEXTBEGIN
1070
    73
1070
     1
1070
    44
1040
1.0
1070
    74
1070
     0
1000
MTEXTEND
  0
MTEXT
  5
134
330
18
100
AcDbEntity
  8
Text
100
AcDbMText
 10
18.47324893148254
 20
0.6025685908585017
 30
0.0
 40
0.09
 41
0.75
 71
     6
 72
     5
  1
12-21-00
 73
     1
 44
1.0
1001
ACAD
1000
MTEXTBEGIN
1070
    73
1070
     1
1070
    44
1040
1.0
1070
    74
1070
     0
1000
MTEXTEND
  0
MTEXT
  5
135
330
18
100
AcDbEntity
  8
Text
100
AcDbMText
 10
18.47324893148254
 20
0.3525685908585019
 30
0.0
 40
0.09
 41
0.75
 71
     6
 72
     5
  1
HIW
 73
     1
 44
1.0
1001
ACAD
1000
MTEXTBEGIN
1070
    73
1070
     1
1070
    44
1040
1.0
1070
    74
1070
     0
1000
MTEXTEND
  0
MTEXT
  5
136
330
18
100
AcDbEntity
  8
Text
100
AcDbMText
 10
19.74824893148254
 20
2.627568590858501
 30
0.0
 40
0.09
 41
4.0
 71
     5
 72
     5
  1
FIVRA2X2.dwg
 73
     1
 44
1.0
1001
ACAD
1000
MTEXTBEGIN
1070
    73
1070
     1
1070
    44
1040
1.0
1070
    74
1070
     0
1000
MTEXTEND
  0
MTEXT
  5
137
330
18
100
AcDbEntity
  8
Text
100
AcDbMText
 10
19.74824893148254
 20
1.752568590858501
 30
0.0
 40
0.09
 41
4.0
 71
     5
 72
     5
  1
FIBER-DUCT 2x2 AND FIBERRUNNER 2x2 INSIDE\PVERTICAL RIGHT ANGLE FITTING (FIVRA2X2)\PMARKETING DRAWING
 73
     1
 44
1.0
1001
ACAD
1000
MTEXTBEGIN
1070
    73
1070
     1
1070
    44
1040
1.0
1070
    74
1070
     0
1000
MTEXTEND
  0
MTEXT
  5
138
330
18
100
AcDbEntity
  8
Text
100
AcDbMText
 10
20.99824893148254
 20
0.8775685908585016
 30
0.0
 40
0.12
 41
1.5
 71
     5
 72
     5
  1
FULL
 73
     1
 44
1.0
1001
ACAD
1000
MTEXTBEGIN
1070
    73
1070
     1
1070
    44
1040
1.0
1070
    74
1070
     0
1000
MTEXTEND
  0
MTEXT
  5
139
330
18
100
AcDbEntity
  8
Text
100
AcDbMText
 10
20.74824893148254
 20
0.5025685908585018
 30
0.0
 40
0.12
 41
1.0
 71
     5
 72
     5
  1
36897-600
 73
     1
 44
1.0
1001
ACAD
1000
MTEXTBEGIN
1070
    73
1070
     1
1070
    44
1040
1.0
1070
    74
1070
     0
1000
MTEXTEND
  0
TEXT
  5
2AC
330
18
100
AcDbEntity
  8
Text
100
AcDbText
 10
4.813126587164781
 20
4.432045312361459
 30
0.0
 40
0.125
  1
FRONT VIEW
100
AcDbText
  0
TEXT
  5
2AD
330
18
100
AcDbEntity
  8
Text
100
AcDbText
 10
15.8484171593745
 20
4.453975002844053
 30
0.0
 40
0.125
  1
RIGHT SIDE VIEW
100
AcDbText
  0
MTEXT
  5
2BE
330
18
100
AcDbEntity
  8
Text
100
AcDbMText
 10
12.5604002814227
 20
0.626249074032665
 30
0.0
 40
0.09
 41
0.375
 71
     5
 72
     5
  1
HIW
 73
     1
 44
1.0
1001
ACAD
1000
MTEXTBEGIN
1070
    73
1070
     1
1070
    44
1040
1.0
1070
    74
1070
     0
1000
MTEXTEND
  0
MTEXT
  5
1230
330
18
100
AcDbEntity
  8
Text
100
AcDbMText
 10
11.37324893148254
 20
0.8775685908585026
 30
0.0
 40
0.09
 41
0.25
 71
     5
 72
     5
  1
1
 73
     1
 44
1.0
1001
ACAD
1000
MTEXTBEGIN
1070
    73
1070
     1
1070
    44
1040
1.0
1070
    74
1070
     0
1000
MTEXTEND
  0
MTEXT
  5
1231
330
18
100
AcDbEntity
  8
Text
100
AcDbMText
 10
11.74824893148254
 20
0.8775685908585026
 30
0.0
 40
0.07
 41
0.5
 71
     5
 72
     5
  1
7-2-07
 73
     1
 44
1.0
1001
ACAD
1000
MTEXTBEGIN
1070
    73
1070
     1
1070
    44
1040
1.0
1070
    74
1070
     0
1000
MTEXTEND
  0
MTEXT
  5
1232
330
18
100
AcDbEntity
  8
Text
100
AcDbMText
 10
12.18574893148254
 20
0.8775685908585026
 30
0.0
 40
0.09
 41
0.375
 71
     5
 72
     5
  1
DTP
 73
     1
 44
1.0
1001
ACAD
1000
MTEXTBEGIN
1070
    73
1070
     1
1070
    44
1040
1.0
1070
    74
1070
     0
1000
MTEXTEND
  0
MTEXT
  5
1233
330
18
100
AcDbEntity
  8
Text
100
AcDbMText
 10
12.77324893148254
 20
0.8775685908585021
 30
0.0
 40
0.07
 41
2.75
 71
     4
 72
     5
  1
B. REVISED PART GEOMETRY. \PA. REVISED DRAWING TITLE.
 73
     1
 44
1.0
1001
ACAD
1000
MTEXTBEGIN
1070
    73
1070
     1
1070
    44
1040
1.0
1070
    74
1070
     0
1000
MTEXTEND
  0
MTEXT
  5
1234
330
18
100
AcDbEntity
  8
Text
100
AcDbMText
 10
12.5604002814227
 20
0.8762490740326649
 30
0.0
 40
0.07
 41
0.375
 71
     5
 72
     5
  1
DJWA
 73
     1
 44
1.0
1001
ACAD
1000
MTEXTBEGIN
1070
    73
1070
     1
1070
    44
1040
1.0
1070
    74
1070
     0
1000
MTEXTEND
  0
MTEXT
  5
1235
330
18
100
AcDbEntity
  8
Text
100
AcDbMText
 10
11.37324893148254
 20
1.127568590858502
 30
0.0
 40
0.09
 41
0.25
 71
     5
 72
     5
  1
-
 73
     1
 44
1.0
1001
ACAD
1000
MTEXTBEGIN
1070
    73
1070
     1
1070
    44
1040
1.0
1070
    74
1070
     0
1000
MTEXTEND
  0
MTEXT
  5
1236
330
18
100
AcDbEntity
  8
Text
100
AcDbMText
 10
11.74824893148254
 20
1.127568590858502
 30
0.0
 40
0.07
 41
0.5
 71
     5
 72
     5
  1
--------
 73
     1
 44
1.0
1001
ACAD
1000
MTEXTBEGIN
1070
    73
1070
     1
1070
    44
1040
1.0
1070
    74
1070
     0
1000
MTEXTEND
  0
MTEXT
  5
1237
330
18
100
AcDbEntity
  8
Text
100
AcDbMText
 10
12.18574893148254
 20
1.127568590858502
 30
0.0
 40
0.09
 41
0.375
 71
     5
 72
     5
  1
---
 73
     1
 44
1.0
1001
ACAD
1000
MTEXTBEGIN
1070
    73
1070
     1
1070
    44
1040
1.0
1070
    74
1070
     0
1000
MTEXTEND
  0
MTEXT
  5
1238
330
18
100
AcDbEntity
  8
Text
100
AcDbMText
 10
12.77324893148254
 20
1.127568590858502
 30
0.0
 40
0.07
 41
2.75
 71
     4
 72
     5
  1
C. REVISED DIMENSIONS.
 73
     1
 44
1.0
1001
ACAD
1000
MTEXTBEGIN
1070
    73
1070
     1
1070
    44
1040
1.0
1070
    74
1070
     0
1000
MTEXTEND
  0
MTEXT
  5
1239
330
18
100
AcDbEntity
  8
Text
100
AcDbMText
 10
12.5604002814227
 20
1.126249074032665
 30
0.0
 40
0.07
 41
0.375
 71
     5
 72
     5
  1
----
 73
     1
 44
1.0
1001
ACAD
1000
MTEXTBEGIN
1070
    73
1070
     1
1070
    44
1040
1.0
1070
    74
1070
     0
1000
MTEXTEND
  0
LINE
  5
123B
330
18
100
AcDbEntity
  8
Text
100
AcDbLine
 10
17.78625696434662
 20
1.517929264903067
 30
0.0
 11
17.93625696434662
 21
1.777736886038399
 31
0.0
  0
LINE
  5
123C
330
18
100
AcDbEntity
  8
Text
100
AcDbLine
 10
17.93625696434662
 20
1.777736886038399
 30
0.0
 11
18.08625696434662
 21
1.517929264903069
 31
0.0
  0
LINE
  5
123D
330
18
100
AcDbEntity
  8
Text
100
AcDbLine
 10
18.08625696434662
 20
1.517929264903069
 30
0.0
 11
17.78625696434662
 21
1.517929264903067
 31
0.0
  0
TEXT
  5
123E
330
18
100
AcDbEntity
  8
Text
100
AcDbText
 10
17.89604291385442
 20
1.581314212404634
 30
0.0
 40
0.09
  1
A
100
AcDbText
  0
LINE
  5
123F
330
18
100
AcDbEntity
  8
Text
100
AcDbLine
 10
15.54119933273934
 20
4.385494646064202
 30
0.0
 11
15.69119933273934
 21
4.645302267199534
 31
0.0
  0
LINE
  5
1240
330
18
100
AcDbEntity
  8
Text
100
AcDbLine
 10
15.69119933273934
 20
4.645302267199534
 30
0.0
 11
15.84119933273935
 21
4.385494646064204
 31
0.0
  0
LINE
  5
1241
330
18
100
AcDbEntity
  8
Text
100
AcDbLine
 10
15.84119933273935
 20
4.385494646064204
 30
0.0
 11
15.54119933273934
 21
4.385494646064202
 31
0.0
  0
TEXT
  5
1242
330
18
100
AcDbEntity
  8
Text
100
AcDbText
 10
15.65098528224714
 20
4.448879593565769
 30
0.0
 40
0.09
  1
B
100
AcDbText
  0
LINE
  5
1243
330
18
100
AcDbEntity
  8
Text
100
AcDbLine
 10
4.484683573180163
 20
4.37006803292602
 30
0.0
 11
4.634683573180161
 21
4.629875654061352
 31
0.0
  0
LINE
  5
1244
330
18
100
AcDbEntity
  8
Text
100
AcDbLine
 10
4.634683573180161
 20
4.629875654061352
 30
0.0
 11
4.784683573180164
 21
4.370068032926022
 31
0.0
  0
LINE
  5
1245
330
18
100
AcDbEntity
  8
Text
100
AcDbLine
 10
4.784683573180164
 20
4.370068032926022
 30
0.0
 11
4.484683573180163
 21
4.37006803292602
 31
0.0
  0
TEXT
  5
1246
330
18
100
AcDbEntity
  8
Text
100
AcDbText
 10
4.594469522687962
 20
4.433452980427587
 30
0.0
 40
0.09
  1
B
100
AcDbText
  0
LINE
  5
1247
330
18
100
AcDbEntity
  8
Text
100
AcDbLine
 10
15.81701512250532
 20
13.57204867263109
 30
0.0
 11
15.96701512250532
 21
13.83185629376642
 31
0.0
  0
LINE
  5
1248
330
18
100
AcDbEntity
  8
Text
100
AcDbLine
 10
15.96701512250532
 20
13.83185629376642
 30
0.0
 11
16.11701512250532
 21
13.57204867263109
 31
0.0
  0
LINE
  5
1249
330
18
100
AcDbEntity
  8
Text
100
AcDbLine
 10
16.11701512250532
 20
13.57204867263109
 30
0.0
 11
15.81701512250532
 21
13.57204867263109
 31
0.0
  0
TEXT
  5
124A
330
18
100
AcDbEntity
  8
Text
100
AcDbText
 10
15.92680107201312
 20
13.63543362013265
 30
0.0
 40
0.09
  1
C
100
AcDbText
  0
LINE
  5
124B
330
18
100
AcDbEntity
  8
Text
100
AcDbLine
 10
5.094578564888081
 20
13.54875909325695
 30
0.0
 11
5.24457856488808
 21
13.80856671439228
 31
0.0
  0
LINE
  5
124C
330
18
100
AcDbEntity
  8
Text
100
AcDbLine
 10
5.24457856488808
 20
13.80856671439228
 30
0.0
 11
5.394578564888082
 21
13.54875909325695
 31
0.0
  0
LINE
  5
124D
330
18
100
AcDbEntity
  8
Text
100
AcDbLine
 10
5.394578564888082
 20
13.54875909325695
 30
0.0
 11
5.094578564888081
 21
13.54875909325695
 31
0.0
  0
TEXT
  5
124E
330
18
100
AcDbEntity
  8
Text
100
AcDbText
 10
5.20436451439588
 20
13.60444334515124
 30
0.0
 40
0.09
  1
C
100
AcDbText
  0
LINE
  5
1254
330
18
100
AcDbEntity
  8
Object
100
AcDbLine
 10
19.33478082994719
 20
12.002
 30
0.0
 11
19.33478082994719
 21
11.984
 31
0.0
  0
LINE
  5
1255
330
18
100
AcDbEntity
  8
Object
100
AcDbLine
 10
19.33478082994719
 20
12.022
 30
0.0
 11
19.33478082994719
 21
12.017
 31
0.0
  0
LINE
  5
1256
330
18
100
AcDbEntity
  8
Object
100
AcDbLine
 10
19.33478082994719
 20
12.017
 30
0.0
 11
19.33478082994719
 21
12.002
 31
0.0
  0
LINE
  5
1257
330
18
100
AcDbEntity
  8
Object
100
AcDbLine
 10
17.64478082994719
 20
12.024
 30
0.0
 11
17.64478082994719
 21
12.022
 31
0.0
  0
LINE
  5
1258
330
18
100
AcDbEntity
  8
Object
100
AcDbLine
 10
17.48678082994718
 20
10.198
 30
0.0
 11
17.49178082994719
 21
10.2
 31
0.0
  0
LINE
  5
1259
330
18
100
AcDbEntity
  8
Object
100
AcDbLine
 10
17.53778082994719
 20
10.227
 30
0.0
 11
17.48478082994719
 21
10.196
 31
0.0
  0
LINE
  5
125A
330
18
100
AcDbEntity
  8
Object
100
AcDbLine
 10
17.48478082994719
 20
10.196
 30
0.0
 11
17.48678082994718
 21
10.198
 31
0.0
  0
LINE
  5
125B
330
18
100
AcDbEntity
  8
Object
100
AcDbLine
 10
17.48678082994718
 20
10.198
 30
0.0
 11
17.49178082994719
 21
10.2
 31
0.0
  0
LINE
  5
125C
330
18
100
AcDbEntity
  8
Object
100
AcDbLine
 10
17.48678082994718
 20
10.198
 30
0.0
 11
17.48478082994719
 21
10.196
 31
0.0
  0
LINE
  5
125D
330
18
100
AcDbEntity
  8
Object
100
AcDbLine
 10
19.38478082994719
 20
12.022
 30
0.0
 11
19.33478082994719
 21
12.022
 31
0.0
  0
LINE
  5
125E
330
18
100
AcDbEntity
  8
Object
100
AcDbLine
 10
19.38478082994719
 20
12.002
 30
0.0
 11
19.38478082994719
 21
12.017
 31
0.0
  0
LINE
  5
125F
330
18
100
AcDbEntity
  8
Object
100
AcDbLine
 10
19.33478082994719
 20
12.017
 30
0.0
 11
19.33478082994719
 21
12.022
 31
0.0
  0
LINE
  5
1260
330
18
100
AcDbEntity
  8
Object
100
AcDbLine
 10
19.33478082994719
 20
12.022
 30
0.0
 11
19.38478082994719
 21
12.022
 31
0.0
  0
LINE
  5
1261
330
18
100
AcDbEntity
  8
Object
100
AcDbLine
 10
19.38478082994719
 20
12.022
 30
0.0
 11
19.38478082994719
 21
12.017
 31
0.0
  0
LINE
  5
1262
330
18
100
AcDbEntity
  8
Object
100
AcDbLine
 10
19.33478082994719
 20
12.017
 30
0.0
 11
19.33478082994719
 21
12.002
 31
0.0
  0
LINE
  5
1263
330
18
100
AcDbEntity
  8
Object
100
AcDbLine
 10
19.38478082994719
 20
11.982
 30
0.0
 11
19.38478082994719
 21
12.002
 31
0.0
  0
LINE
  5
1264
330
18
100
AcDbEntity
  8
Object
100
AcDbLine
 10
19.33478082994719
 20
12.002
 30
0.0
 11
19.33478082994719
 21
11.984
 31
0.0
  0
LINE
  5
1265
330
18
100
AcDbEntity
  8
Object
100
AcDbLine
 10
19.37778082994719
 20
10.458
 30
0.0
 11
19.37878082994719
 21
10.459
 31
0.0
  0
LINE
  5
1266
330
18
100
AcDbEntity
  8
Object
100
AcDbLine
 10
19.38178082994719
 20
10.462
 30
0.0
 11
19.38478082994719
 21
10.465
 31
0.0
  0
LINE
  5
1267
330
18
100
AcDbEntity
  8
Object
100
AcDbLine
 10
19.38478082994719
 20
10.465
 30
0.0
 11
19.33478082994719
 21
10.515
 31
0.0
  0
LINE
  5
1268
330
18
100
AcDbEntity
  8
Object
100
AcDbLine
 10
19.37878082994719
 20
10.459
 30
0.0
 11
19.38178082994719
 21
10.462
 31
0.0
  0
LINE
  5
1269
330
18
100
AcDbEntity
  8
Object
100
AcDbLine
 10
19.38478082994719
 20
10.465
 30
0.0
 11
19.38478082994719
 21
11.982
 31
0.0
  0
LINE
  5
126A
330
18
100
AcDbEntity
  8
Object
100
AcDbLine
 10
19.38478082994719
 20
11.982
 30
0.0
 11
19.33478082994719
 21
11.982
 31
0.0
  0
LINE
  5
126B
330
18
100
AcDbEntity
  8
Object
100
AcDbLine
 10
19.48978082994718
 20
10.346
 30
0.0
 11
19.48378082994719
 21
10.352
 31
0.0
  0
LINE
  5
126C
330
18
100
AcDbEntity
  8
Object
100
AcDbLine
 10
19.48378082994719
 20
10.352
 30
0.0
 11
19.47378082994719
 21
10.362
 31
0.0
  0
LINE
  5
126D
330
18
100
AcDbEntity
  8
Object
100
AcDbLine
 10
19.47378082994719
 20
10.362
 30
0.0
 11
19.45878082994719
 21
10.377
 31
0.0
  0
LINE
  5
126E
330
18
100
AcDbEntity
  8
Object
100
AcDbLine
 10
19.45878082994719
 20
10.377
 30
0.0
 11
19.44078082994719
 21
10.395
 31
0.0
  0
LINE
  5
126F
330
18
100
AcDbEntity
  8
Object
100
AcDbLine
 10
19.44078082994719
 20
10.395
 30
0.0
 11
19.42078082994719
 21
10.415
 31
0.0
  0
LINE
  5
1270
330
18
100
AcDbEntity
  8
Object
100
AcDbLine
 10
19.42078082994719
 20
10.415
 30
0.0
 11
19.39978082994718
 21
10.436
 31
0.0
  0
LINE
  5
1271
330
18
100
AcDbEntity
  8
Object
100
AcDbLine
 10
19.39978082994718
 20
10.436
 30
0.0
 11
19.37878082994719
 21
10.457
 31
0.0
  0
LINE
  5
1272
330
18
100
AcDbEntity
  8
Object
100
AcDbLine
 10
19.37878082994719
 20
10.457
 30
0.0
 11
19.33478082994719
 21
10.501
 31
0.0
  0
LINE
  5
1273
330
18
100
AcDbEntity
  8
Object
100
AcDbLine
 10
19.31678082994719
 20
10.422
 30
0.0
 11
19.30578082994719
 21
10.433
 31
0.0
  0
LINE
  5
1274
330
18
100
AcDbEntity
  8
Object
100
AcDbLine
 10
19.30578082994719
 20
10.433
 30
0.0
 11
17.88478082994719
 21
10.408
 31
0.0
  0
LINE
  5
1275
330
18
100
AcDbEntity
  8
Object
100
AcDbLine
 10
19.31678082994719
 20
10.422
 30
0.0
 11
19.32678082994719
 21
10.412
 31
0.0
  0
LINE
  5
1276
330
18
100
AcDbEntity
  8
Object
100
AcDbLine
 10
19.32678082994719
 20
10.412
 30
0.0
 11
17.88478082994719
 21
10.387
 31
0.0
  0
LINE
  5
1277
330
18
100
AcDbEntity
  8
Object
100
AcDbLine
 10
19.29878082994719
 20
11.993
 30
0.0
 11
19.30278082994719
 21
11.991
 31
0.0
  0
LINE
  5
1278
330
18
100
AcDbEntity
  8
Object
100
AcDbLine
 10
19.30278082994719
 20
11.991
 30
0.0
 11
19.30478082994719
 21
11.987
 31
0.0
  0
LINE
  5
1279
330
18
100
AcDbEntity
  8
Object
100
AcDbLine
 10
19.30478082994719
 20
11.987
 30
0.0
 11
19.30578082994719
 21
11.984
 31
0.0
  0
LINE
  5
127A
330
18
100
AcDbEntity
  8
Object
100
AcDbLine
 10
19.29878082994719
 20
11.993
 30
0.0
 11
19.29578082994719
 21
11.994
 31
0.0
  0
LINE
  5
127B
330
18
100
AcDbEntity
  8
Object
100
AcDbLine
 10
19.30578082994719
 20
10.433
 30
0.0
 11
19.30578082994719
 21
11.984
 31
0.0
  0
LINE
  5
127C
330
18
100
AcDbEntity
  8
Object
100
AcDbLine
 10
18.59878082994718
 20
11.323
 30
0.0
 11
18.60578082994719
 21
11.274
 31
0.0
  0
LINE
  5
127D
330
18
100
AcDbEntity
  8
Object
100
AcDbLine
 10
18.60578082994719
 20
11.274
 30
0.0
 11
18.59878082994718
 21
11.224
 31
0.0
  0
LINE
  5
127E
330
18
100
AcDbEntity
  8
Object
100
AcDbLine
 10
18.57578082994719
 20
11.368
 30
0.0
 11
18.59878082994718
 21
11.323
 31
0.0
  0
LINE
  5
127F
330
18
100
AcDbEntity
  8
Object
100
AcDbLine
 10
18.59878082994718
 20
11.224
 30
0.0
 11
18.57578082994719
 21
11.18
 31
0.0
  0
LINE
  5
1280
330
18
100
AcDbEntity
  8
Object
100
AcDbLine
 10
18.53978082994719
 20
11.403
 30
0.0
 11
18.57578082994719
 21
11.368
 31
0.0
  0
LINE
  5
1281
330
18
100
AcDbEntity
  8
Object
100
AcDbLine
 10
18.57578082994719
 20
11.18
 30
0.0
 11
18.53978082994719
 21
11.144
 31
0.0
  0
LINE
  5
1282
330
18
100
AcDbEntity
  8
Object
100
AcDbLine
 10
18.49578082994718
 20
11.426
 30
0.0
 11
18.53978082994719
 21
11.403
 31
0.0
  0
LINE
  5
1283
330
18
100
AcDbEntity
  8
Object
100
AcDbLine
 10
18.53978082994719
 20
11.144
 30
0.0
 11
18.49578082994718
 21
11.122
 31
0.0
  0
LINE
  5
1284
330
18
100
AcDbEntity
  8
Object
100
AcDbLine
 10
18.44578082994719
 20
11.434
 30
0.0
 11
18.49578082994718
 21
11.426
 31
0.0
  0
LINE
  5
1285
330
18
100
AcDbEntity
  8
Object
100
AcDbLine
 10
18.49578082994718
 20
11.122
 30
0.0
 11
18.44578082994719
 21
11.114
 31
0.0
  0
LINE
  5
1286
330
18
100
AcDbEntity
  8
Object
100
AcDbLine
 10
19.29578082994719
 20
11.994
 30
0.0
 11
17.88478082994719
 21
11.994
 31
0.0
  0
LINE
  5
1287
330
18
100
AcDbEntity
  8
Object
100
AcDbLine
 10
18.44578082994719
 20
11.434
 30
0.0
 11
18.39678082994718
 21
11.426
 31
0.0
  0
LINE
  5
1288
330
18
100
AcDbEntity
  8
Object
100
AcDbLine
 10
18.39678082994718
 20
11.426
 30
0.0
 11
18.35178082994719
 21
11.403
 31
0.0
  0
LINE
  5
1289
330
18
100
AcDbEntity
  8
Object
100
AcDbLine
 10
18.35178082994719
 20
11.403
 30
0.0
 11
18.31678082994718
 21
11.368
 31
0.0
  0
LINE
  5
128A
330
18
100
AcDbEntity
  8
Object
100
AcDbLine
 10
18.31678082994718
 20
11.368
 30
0.0
 11
18.29378082994719
 21
11.323
 31
0.0
  0
LINE
  5
128B
330
18
100
AcDbEntity
  8
Object
100
AcDbLine
 10
18.29378082994719
 20
11.323
 30
0.0
 11
18.28578082994719
 21
11.274
 31
0.0
  0
LINE
  5
128C
330
18
100
AcDbEntity
  8
Object
100
AcDbLine
 10
18.28578082994719
 20
11.274
 30
0.0
 11
18.29378082994719
 21
11.224
 31
0.0
  0
LINE
  5
128D
330
18
100
AcDbEntity
  8
Object
100
AcDbLine
 10
18.29378082994719
 20
11.224
 30
0.0
 11
18.31678082994718
 21
11.18
 31
0.0
  0
LINE
  5
128E
330
18
100
AcDbEntity
  8
Object
100
AcDbLine
 10
18.31678082994718
 20
11.18
 30
0.0
 11
18.35178082994719
 21
11.144
 31
0.0
  0
LINE
  5
128F
330
18
100
AcDbEntity
  8
Object
100
AcDbLine
 10
18.35178082994719
 20
11.144
 30
0.0
 11
18.39678082994718
 21
11.122
 31
0.0
  0
LINE
  5
1290
330
18
100
AcDbEntity
  8
Object
100
AcDbLine
 10
18.39678082994718
 20
11.122
 30
0.0
 11
18.44578082994719
 21
11.114
 31
0.0
  0
LINE
  5
1291
330
18
100
AcDbEntity
  8
Object
100
AcDbLine
 10
17.88478082994719
 20
10.324
 30
0.0
 11
19.33478082994719
 21
10.35
 31
0.0
  0
LINE
  5
1292
330
18
100
AcDbEntity
  8
Object
100
AcDbLine
 10
19.33478082994719
 20
10.35
 30
0.0
 11
19.33478082994719
 21
10.34
 31
0.0
  0
LINE
  5
1293
330
18
100
AcDbEntity
  8
Object
100
AcDbLine
 10
19.33478082994719
 20
10.34
 30
0.0
 11
19.33478082994719
 21
10.329
 31
0.0
  0
LINE
  5
1294
330
18
100
AcDbEntity
  8
Object
100
AcDbLine
 10
19.33478082994719
 20
10.329
 30
0.0
 11
17.88478082994719
 21
10.303
 31
0.0
  0
LINE
  5
1295
330
18
100
AcDbEntity
  8
Object
100
AcDbLine
 10
19.33478082994719
 20
10.487
 30
0.0
 11
19.37178082994719
 21
10.45
 31
0.0
  0
LINE
  5
1296
330
18
100
AcDbEntity
  8
Object
100
AcDbLine
 10
19.37178082994719
 20
10.45
 30
0.0
 11
19.37178082994719
 21
9.08
 31
0.0
  0
LINE
  5
1297
330
18
100
AcDbEntity
  8
Object
100
AcDbLine
 10
19.29478082994719
 20
12.024
 30
0.0
 11
17.64478082994719
 21
12.024
 31
0.0
  0
LINE
  5
1298
330
18
100
AcDbEntity
  8
Object
100
AcDbLine
 10
19.33478082994719
 20
10.35
 30
0.0
 11
19.33478082994719
 21
10.392
 31
0.0
  0
LINE
  5
1299
330
18
100
AcDbEntity
  8
Object
100
AcDbLine
 10
19.32678082994719
 20
10.412
 30
0.0
 11
19.33278082994718
 21
10.403
 31
0.0
  0
LINE
  5
129A
330
18
100
AcDbEntity
  8
Object
100
AcDbLine
 10
19.33278082994718
 20
10.403
 30
0.0
 11
19.33478082994719
 21
10.392
 31
0.0
  0
LINE
  5
129B
330
18
100
AcDbEntity
  8
Object
100
AcDbLine
 10
18.59678082994719
 20
11.323
 30
0.0
 11
18.60478082994719
 21
11.274
 31
0.0
  0
LINE
  5
129C
330
18
100
AcDbEntity
  8
Object
100
AcDbLine
 10
18.60478082994719
 20
11.274
 30
0.0
 11
18.59678082994719
 21
11.224
 31
0.0
  0
LINE
  5
129D
330
18
100
AcDbEntity
  8
Object
100
AcDbLine
 10
18.57378082994719
 20
11.368
 30
0.0
 11
18.59678082994719
 21
11.323
 31
0.0
  0
LINE
  5
129E
330
18
100
AcDbEntity
  8
Object
100
AcDbLine
 10
18.59678082994719
 20
11.224
 30
0.0
 11
18.57378082994719
 21
11.18
 31
0.0
  0
LINE
  5
129F
330
18
100
AcDbEntity
  8
Object
100
AcDbLine
 10
18.53878082994719
 20
11.403
 30
0.0
 11
18.57378082994719
 21
11.368
 31
0.0
  0
LINE
  5
12A0
330
18
100
AcDbEntity
  8
Object
100
AcDbLine
 10
18.57378082994719
 20
11.18
 30
0.0
 11
18.53878082994719
 21
11.144
 31
0.0
  0
LINE
  5
12A1
330
18
100
AcDbEntity
  8
Object
100
AcDbLine
 10
18.49378082994719
 20
11.426
 30
0.0
 11
18.53878082994719
 21
11.403
 31
0.0
  0
LINE
  5
12A2
330
18
100
AcDbEntity
  8
Object
100
AcDbLine
 10
18.53878082994719
 20
11.144
 30
0.0
 11
18.49378082994719
 21
11.122
 31
0.0
  0
LINE
  5
12A3
330
18
100
AcDbEntity
  8
Object
100
AcDbLine
 10
18.44478082994719
 20
11.433
 30
0.0
 11
18.49378082994719
 21
11.426
 31
0.0
  0
LINE
  5
12A4
330
18
100
AcDbEntity
  8
Object
100
AcDbLine
 10
18.49378082994719
 20
11.122
 30
0.0
 11
18.44478082994719
 21
11.114
 31
0.0
  0
LINE
  5
12A5
330
18
100
AcDbEntity
  8
Object
100
AcDbLine
 10
19.29478082994719
 20
12.02
 30
0.0
 11
19.29578082994719
 21
12.009
 31
0.0
  0
LINE
  5
12A6
330
18
100
AcDbEntity
  8
Object
100
AcDbLine
 10
19.29578082994719
 20
12.009
 30
0.0
 11
19.29578082994719
 21
11.994
 31
0.0
  0
LINE
  5
12A7
330
18
100
AcDbEntity
  8
Object
100
AcDbLine
 10
19.29478082994719
 20
12.02
 30
0.0
 11
19.29478082994719
 21
12.024
 31
0.0
  0
LINE
  5
12A8
330
18
100
AcDbEntity
  8
Object
100
AcDbLine
 10
17.64478082994719
 20
12.022
 30
0.0
 11
17.64478082994719
 21
12.024
 31
0.0
  0
LINE
  5
12A9
330
18
100
AcDbEntity
  8
Object
100
AcDbLine
 10
17.64478082994719
 20
12.024
 30
0.0
 11
19.29478082994719
 21
12.024
 31
0.0
  0
LINE
  5
12AA
330
18
100
AcDbEntity
  8
Object
100
AcDbLine
 10
17.56478082994719
 20
9.181
 30
0.0
 11
17.56478082994719
 21
9.182999999999999
 31
0.0
  0
LINE
  5
12AB
330
18
100
AcDbEntity
  8
Object
100
AcDbLine
 10
17.56478082994719
 20
9.176999999999999
 30
0.0
 11
17.56478082994719
 21
9.173999999999999
 31
0.0
  0
LINE
  5
12AC
330
18
100
AcDbEntity
  8
Object
100
AcDbLine
 10
17.56478082994719
 20
9.173999999999999
 30
0.0
 11
17.56478082994719
 21
9.149
 31
0.0
  0
LINE
  5
12AD
330
18
100
AcDbEntity
  8
Object
100
AcDbLine
 10
17.56478082994719
 20
9.176999999999999
 30
0.0
 11
17.56478082994719
 21
9.181
 31
0.0
  0
LINE
  5
12AE
330
18
100
AcDbEntity
  8
Object
100
AcDbLine
 10
17.56478082994719
 20
9.182999999999999
 30
0.0
 11
17.56478082994719
 21
9.184000000000001
 31
0.0
  0
LINE
  5
12AF
330
18
100
AcDbEntity
  8
Object
100
AcDbLine
 10
17.56478082994719
 20
9.184000000000001
 30
0.0
 11
17.56478082994719
 21
9.186999999999999
 31
0.0
  0
LINE
  5
12B0
330
18
100
AcDbEntity
  8
Object
100
AcDbLine
 10
17.56478082994719
 20
9.208999999999999
 30
0.0
 11
17.56478082994719
 21
9.195999999999999
 31
0.0
  0
LINE
  5
12B1
330
18
100
AcDbEntity
  8
Object
100
AcDbLine
 10
17.56478082994719
 20
9.195999999999999
 30
0.0
 11
17.56478082994719
 21
9.186999999999999
 31
0.0
  0
LINE
  5
12B2
330
18
100
AcDbEntity
  8
Object
100
AcDbLine
 10
17.56478082994719
 20
9.208999999999999
 30
0.0
 11
17.56478082994719
 21
9.224
 31
0.0
  0
LINE
  5
12B3
330
18
100
AcDbEntity
  8
Object
100
AcDbLine
 10
17.56478082994719
 20
9.224
 30
0.0
 11
17.56478082994719
 21
10.037
 31
0.0
  0
LINE
  5
12B4
330
18
100
AcDbEntity
  8
Object
100
AcDbLine
 10
17.56478082994719
 20
10.037
 30
0.0
 11
17.56478082994719
 21
10.038
 31
0.0
  0
LINE
  5
12B5
330
18
100
AcDbEntity
  8
Object
100
AcDbLine
 10
17.56478082994719
 20
10.038
 30
0.0
 11
17.56478082994719
 21
10.041
 31
0.0
  0
LINE
  5
12B6
330
18
100
AcDbEntity
  8
Object
100
AcDbLine
 10
17.56478082994719
 20
10.041
 30
0.0
 11
17.56478082994719
 21
10.046
 31
0.0
  0
LINE
  5
12B7
330
18
100
AcDbEntity
  8
Object
100
AcDbLine
 10
17.56478082994719
 20
10.046
 30
0.0
 11
17.56478082994719
 21
10.051
 31
0.0
  0
LINE
  5
12B8
330
18
100
AcDbEntity
  8
Object
100
AcDbLine
 10
17.56478082994719
 20
10.051
 30
0.0
 11
17.56478082994719
 21
10.185
 31
0.0
  0
LINE
  5
12B9
330
18
100
AcDbEntity
  8
Object
100
AcDbLine
 10
17.57478082994718
 20
9.149
 30
0.0
 11
17.57478082994718
 21
10.175
 31
0.0
  0
LINE
  5
12BA
330
18
100
AcDbEntity
  8
Object
100
AcDbLine
 10
17.48478082994719
 20
10.131
 30
0.0
 11
17.48478082994719
 21
10.196
 31
0.0
  0
LINE
  5
12BB
330
18
100
AcDbEntity
  8
Object
100
AcDbLine
 10
17.48478082994719
 20
10.196
 30
0.0
 11
17.53778082994719
 21
10.227
 31
0.0
  0
LINE
  5
12BC
330
18
100
AcDbEntity
  8
Object
100
AcDbLine
 10
17.56478082994719
 20
10.185
 30
0.0
 11
17.56478082994719
 21
10.051
 31
0.0
  0
LINE
  5
12BD
330
18
100
AcDbEntity
  8
Object
100
AcDbLine
 10
17.56478082994719
 20
10.051
 30
0.0
 11
17.48478082994719
 21
10.131
 31
0.0
  0
LINE
  5
12BE
330
18
100
AcDbEntity
  8
Object
100
AcDbLine
 10
17.48478082994719
 20
9.179999999999999
 30
0.0
 11
17.48478082994719
 21
9.178
 31
0.0
  0
LINE
  5
12BF
330
18
100
AcDbEntity
  8
Object
100
AcDbLine
 10
17.48478082994719
 20
10.118
 30
0.0
 11
17.48478082994719
 21
10.117
 31
0.0
  0
LINE
  5
12C0
330
18
100
AcDbEntity
  8
Object
100
AcDbLine
 10
17.48478082994719
 20
10.117
 30
0.0
 11
17.48478082994719
 21
9.221
 31
0.0
  0
LINE
  5
12C1
330
18
100
AcDbEntity
  8
Object
100
AcDbLine
 10
17.48478082994719
 20
9.221
 30
0.0
 11
17.48478082994719
 21
9.205999999999999
 31
0.0
  0
LINE
  5
12C2
330
18
100
AcDbEntity
  8
Object
100
AcDbLine
 10
17.48478082994719
 20
9.205999999999999
 30
0.0
 11
17.48478082994719
 21
9.192999999999999
 31
0.0
  0
LINE
  5
12C3
330
18
100
AcDbEntity
  8
Object
100
AcDbLine
 10
17.48478082994719
 20
9.192999999999999
 30
0.0
 11
17.48478082994719
 21
9.184000000000001
 31
0.0
  0
LINE
  5
12C4
330
18
100
AcDbEntity
  8
Object
100
AcDbLine
 10
17.48478082994719
 20
9.184000000000001
 30
0.0
 11
17.48478082994719
 21
9.181
 31
0.0
  0
LINE
  5
12C5
330
18
100
AcDbEntity
  8
Object
100
AcDbLine
 10
17.48478082994719
 20
9.181
 30
0.0
 11
17.48478082994719
 21
9.179999999999999
 31
0.0
  0
LINE
  5
12C6
330
18
100
AcDbEntity
  8
Object
100
AcDbLine
 10
17.48478082994719
 20
10.131
 30
0.0
 11
17.48478082994719
 21
10.126
 31
0.0
  0
LINE
  5
12C7
330
18
100
AcDbEntity
  8
Object
100
AcDbLine
 10
17.48478082994719
 20
10.126
 30
0.0
 11
17.48478082994719
 21
10.121
 31
0.0
  0
LINE
  5
12C8
330
18
100
AcDbEntity
  8
Object
100
AcDbLine
 10
17.48478082994719
 20
10.121
 30
0.0
 11
17.48478082994719
 21
10.118
 31
0.0
  0
LINE
  5
12C9
330
18
100
AcDbEntity
  8
Object
100
AcDbLine
 10
17.48478082994719
 20
9.178
 30
0.0
 11
17.48478082994719
 21
9.175
 31
0.0
  0
LINE
  5
12CA
330
18
100
AcDbEntity
  8
Object
100
AcDbLine
 10
17.48478082994719
 20
9.175
 30
0.0
 11
17.48478082994719
 21
9.170999999999999
 31
0.0
  0
LINE
  5
12CB
330
18
100
AcDbEntity
  8
Object
100
AcDbLine
 10
17.48478082994719
 20
9.170999999999999
 30
0.0
 11
17.48478082994719
 21
9.08
 31
0.0
  0
LINE
  5
12CC
330
18
100
AcDbEntity
  8
Object
100
AcDbLine
 10
17.48478082994719
 20
10.196
 30
0.0
 11
17.48478082994719
 21
10.131
 31
0.0
  0
LINE
  5
12CD
330
18
100
AcDbEntity
  8
Object
100
AcDbLine
 10
12.58078082994719
 20
5.230999999999999
 30
0.0
 11
12.56278082994719
 21
5.230999999999999
 31
0.0
  0
LINE
  5
12CE
330
18
100
AcDbEntity
  8
Object
100
AcDbLine
 10
12.56278082994719
 20
5.230999999999999
 30
0.0
 11
12.54778082994719
 21
5.230999999999999
 31
0.0
  0
LINE
  5
12CF
330
18
100
AcDbEntity
  8
Object
100
AcDbLine
 10
12.54778082994719
 20
5.230999999999999
 30
0.0
 11
12.54278082994719
 21
5.230999999999999
 31
0.0
  0
LINE
  5
12D0
330
18
100
AcDbEntity
  8
Object
100
AcDbLine
 10
12.66078082994719
 20
6.919999999999999
 30
0.0
 11
12.57078082994719
 21
6.919999999999999
 31
0.0
  0
LINE
  5
12D1
330
18
100
AcDbEntity
  8
Object
100
AcDbLine
 10
12.57078082994719
 20
6.919999999999999
 30
0.0
 11
12.55978082994719
 21
6.919999999999999
 31
0.0
  0
LINE
  5
12D2
330
18
100
AcDbEntity
  8
Object
100
AcDbLine
 10
12.55978082994719
 20
6.919999999999999
 30
0.0
 11
12.54978082994719
 21
6.919999999999999
 31
0.0
  0
LINE
  5
12D3
330
18
100
AcDbEntity
  8
Object
100
AcDbLine
 10
12.54978082994719
 20
6.919999999999999
 30
0.0
 11
12.54378082994719
 21
6.919999999999999
 31
0.0
  0
LINE
  5
12D4
330
18
100
AcDbEntity
  8
Object
100
AcDbLine
 10
12.54378082994719
 20
6.919999999999999
 30
0.0
 11
12.54078082994719
 21
6.919999999999999
 31
0.0
  0
LINE
  5
12D5
330
18
100
AcDbEntity
  8
Object
100
AcDbLine
 10
17.48478082994719
 20
9.08
 30
0.0
 11
17.47778082994719
 21
8.906
 31
0.0
  0
LINE
  5
12D6
330
18
100
AcDbEntity
  8
Object
100
AcDbLine
 10
17.47778082994719
 20
8.906
 30
0.0
 11
17.45478082994718
 21
8.733
 31
0.0
  0
LINE
  5
12D7
330
18
100
AcDbEntity
  8
Object
100
AcDbLine
 10
17.45478082994718
 20
8.733
 30
0.0
 11
17.41678082994719
 21
8.563
 31
0.0
  0
LINE
  5
12D8
330
18
100
AcDbEntity
  8
Object
100
AcDbLine
 10
17.41678082994719
 20
8.563
 30
0.0
 11
17.36478082994718
 21
8.396
 31
0.0
  0
LINE
  5
12D9
330
18
100
AcDbEntity
  8
Object
100
AcDbLine
 10
17.36478082994718
 20
8.396
 30
0.0
 11
17.29778082994718
 21
8.234999999999999
 31
0.0
  0
LINE
  5
12DA
330
18
100
AcDbEntity
  8
Object
100
AcDbLine
 10
17.29778082994718
 20
8.234999999999999
 30
0.0
 11
17.21678082994718
 21
8.08
 31
0.0
  0
LINE
  5
12DB
330
18
100
AcDbEntity
  8
Object
100
AcDbLine
 10
17.21678082994718
 20
8.08
 30
0.0
 11
17.12278082994719
 21
7.932999999999999
 31
0.0
  0
LINE
  5
12DC
330
18
100
AcDbEntity
  8
Object
100
AcDbLine
 10
17.12278082994719
 20
7.932999999999999
 30
0.0
 11
17.01678082994719
 21
7.794999999999999
 31
0.0
  0
LINE
  5
12DD
330
18
100
AcDbEntity
  8
Object
100
AcDbLine
 10
17.01678082994719
 20
7.794999999999999
 30
0.0
 11
16.89878082994719
 21
7.666
 31
0.0
  0
LINE
  5
12DE
330
18
100
AcDbEntity
  8
Object
100
AcDbLine
 10
16.89878082994719
 20
7.666
 30
0.0
 11
16.77078082994719
 21
7.548
 31
0.0
  0
LINE
  5
12DF
330
18
100
AcDbEntity
  8
Object
100
AcDbLine
 10
16.77078082994719
 20
7.548
 30
0.0
 11
16.63178082994719
 21
7.442
 31
0.0
  0
LINE
  5
12E0
330
18
100
AcDbEntity
  8
Object
100
AcDbLine
 10
16.63178082994719
 20
7.442
 30
0.0
 11
16.61178082994718
 21
7.429
 31
0.0
  0
LINE
  5
12E1
330
18
100
AcDbEntity
  8
Object
100
AcDbLine
 10
15.53278082994719
 20
7.081999999999999
 30
0.0
 11
15.48478082994719
 21
7.08
 31
0.0
  0
LINE
  5
12E2
330
18
100
AcDbEntity
  8
Object
100
AcDbLine
 10
19.41078082994719
 20
12.007
 30
0.0
 11
19.39978082994718
 21
12.018
 31
0.0
  0
LINE
  5
12E3
330
18
100
AcDbEntity
  8
Object
100
AcDbLine
 10
19.39978082994718
 20
12.018
 30
0.0
 11
19.38478082994719
 21
12.022
 31
0.0
  0
LINE
  5
12E4
330
18
100
AcDbEntity
  8
Object
100
AcDbLine
 10
19.41478082994718
 20
11.995
 30
0.0
 11
19.41078082994719
 21
12.007
 31
0.0
  0
LINE
  5
12E5
330
18
100
AcDbEntity
  8
Object
100
AcDbLine
 10
19.41078082994719
 20
12.007
 30
0.0
 11
19.39978082994718
 21
12.018
 31
0.0
  0
LINE
  5
12E6
330
18
100
AcDbEntity
  8
Object
100
AcDbLine
 10
19.39978082994718
 20
12.018
 30
0.0
 11
19.38478082994719
 21
12.022
 31
0.0
  0
LINE
  5
12E7
330
18
100
AcDbEntity
  8
Object
100
AcDbLine
 10
19.41578082994719
 20
10.42
 30
0.0
 11
19.41478082994718
 21
10.423
 31
0.0
  0
LINE
  5
12E8
330
18
100
AcDbEntity
  8
Object
100
AcDbLine
 10
19.41278082994719
 20
10.428
 30
0.0
 11
19.40578082994719
 21
10.437
 31
0.0
  0
LINE
  5
12E9
330
18
100
AcDbEntity
  8
Object
100
AcDbLine
 10
19.40578082994719
 20
10.437
 30
0.0
 11
19.39578082994719
 21
10.45
 31
0.0
  0
LINE
  5
12EA
330
18
100
AcDbEntity
  8
Object
100
AcDbLine
 10
19.39578082994719
 20
10.45
 30
0.0
 11
19.38478082994719
 21
10.465
 31
0.0
  0
LINE
  5
12EB
330
18
100
AcDbEntity
  8
Object
100
AcDbLine
 10
19.41478082994718
 20
11.982
 30
0.0
 11
19.41078082994719
 21
11.982
 31
0.0
  0
LINE
  5
12EC
330
18
100
AcDbEntity
  8
Object
100
AcDbLine
 10
19.41278082994719
 20
10.428
 30
0.0
 11
19.41478082994718
 21
10.426
 31
0.0
  0
LINE
  5
12ED
330
18
100
AcDbEntity
  8
Object
100
AcDbLine
 10
19.41078082994719
 20
11.982
 30
0.0
 11
19.39978082994718
 21
11.982
 31
0.0
  0
LINE
  5
12EE
330
18
100
AcDbEntity
  8
Object
100
AcDbLine
 10
19.39978082994718
 20
11.982
 30
0.0
 11
19.38478082994719
 21
11.982
 31
0.0
  0
LINE
  5
12EF
330
18
100
AcDbEntity
  8
Object
100
AcDbLine
 10
19.37778082994719
 20
10.456
 30
0.0
 11
19.37578082994719
 21
10.453
 31
0.0
  0
LINE
  5
12F0
330
18
100
AcDbEntity
  8
Object
100
AcDbLine
 10
19.37578082994719
 20
10.453
 30
0.0
 11
19.37178082994719
 21
10.45
 31
0.0
  0
LINE
  5
12F1
330
18
100
AcDbEntity
  8
Object
100
AcDbLine
 10
19.37778082994719
 20
10.456
 30
0.0
 11
19.37878082994719
 21
10.457
 31
0.0
  0
LINE
  5
12F2
330
18
100
AcDbEntity
  8
Object
100
AcDbLine
 10
19.37878082994719
 20
10.457
 30
0.0
 11
19.33478082994719
 21
10.501
 31
0.0
  0
LINE
  5
12F3
330
18
100
AcDbEntity
  8
Object
100
AcDbLine
 10
19.41578082994719
 20
10.42
 30
0.0
 11
19.41478082994718
 21
10.423
 31
0.0
  0
LINE
  5
12F4
330
18
100
AcDbEntity
  8
Object
100
AcDbLine
 10
19.41478082994718
 20
10.423
 30
0.0
 11
19.41578082994719
 21
10.42
 31
0.0
  0
LINE
  5
12F5
330
18
100
AcDbEntity
  8
Object
100
AcDbLine
 10
19.41578082994719
 20
10.42
 30
0.0
 11
19.41478082994718
 21
10.423
 31
0.0
  0
LINE
  5
12F6
330
18
100
AcDbEntity
  8
Object
100
AcDbLine
 10
19.41478082994718
 20
10.423
 30
0.0
 11
19.41578082994719
 21
10.42
 31
0.0
  0
LINE
  5
12F7
330
18
100
AcDbEntity
  8
Object
100
AcDbLine
 10
19.41578082994719
 20
10.42
 30
0.0
 11
19.41478082994718
 21
10.423
 31
0.0
  0
LINE
  5
12F8
330
18
100
AcDbEntity
  8
Object
100
AcDbLine
 10
19.49478082994719
 20
10.337
 30
0.0
 11
19.49478082994719
 21
10.339
 31
0.0
  0
LINE
  5
12F9
330
18
100
AcDbEntity
  8
Object
100
AcDbLine
 10
19.49478082994719
 20
10.339
 30
0.0
 11
19.49378082994719
 21
10.342
 31
0.0
  0
LINE
  5
12FA
330
18
100
AcDbEntity
  8
Object
100
AcDbLine
 10
19.48978082994718
 20
10.346
 30
0.0
 11
19.48378082994719
 21
10.352
 31
0.0
  0
LINE
  5
12FB
330
18
100
AcDbEntity
  8
Object
100
AcDbLine
 10
19.48378082994719
 20
10.352
 30
0.0
 11
19.47378082994719
 21
10.362
 31
0.0
  0
LINE
  5
12FC
330
18
100
AcDbEntity
  8
Object
100
AcDbLine
 10
19.47378082994719
 20
10.362
 30
0.0
 11
19.45878082994719
 21
10.377
 31
0.0
  0
LINE
  5
12FD
330
18
100
AcDbEntity
  8
Object
100
AcDbLine
 10
19.45878082994719
 20
10.377
 30
0.0
 11
19.44078082994719
 21
10.395
 31
0.0
  0
LINE
  5
12FE
330
18
100
AcDbEntity
  8
Object
100
AcDbLine
 10
19.44078082994719
 20
10.395
 30
0.0
 11
19.42078082994719
 21
10.415
 31
0.0
  0
LINE
  5
12FF
330
18
100
AcDbEntity
  8
Object
100
AcDbLine
 10
19.42078082994719
 20
10.415
 30
0.0
 11
19.39978082994718
 21
10.436
 31
0.0
  0
LINE
  5
1300
330
18
100
AcDbEntity
  8
Object
100
AcDbLine
 10
19.39978082994718
 20
10.436
 30
0.0
 11
19.37878082994719
 21
10.457
 31
0.0
  0
LINE
  5
1301
330
18
100
AcDbEntity
  8
Object
100
AcDbLine
 10
19.49478082994719
 20
10.337
 30
0.0
 11
19.49478082994719
 21
10.339
 31
0.0
  0
LINE
  5
1302
330
18
100
AcDbEntity
  8
Object
100
AcDbLine
 10
19.49478082994719
 20
10.339
 30
0.0
 11
19.49378082994719
 21
10.342
 31
0.0
  0
LINE
  5
1303
330
18
100
AcDbEntity
  8
Object
100
AcDbLine
 10
19.33478082994719
 20
10.392
 30
0.0
 11
19.33478082994719
 21
11.984
 31
0.0
  0
LINE
  5
1304
330
18
100
AcDbEntity
  8
Object
100
AcDbLine
 10
19.33478082994719
 20
10.329
 30
0.0
 11
19.33478082994719
 21
10.34
 31
0.0
  0
LINE
  5
1305
330
18
100
AcDbEntity
  8
Object
100
AcDbLine
 10
19.33478082994719
 20
10.34
 30
0.0
 11
19.33478082994719
 21
10.35
 31
0.0
  0
LINE
  5
1306
330
18
100
AcDbEntity
  8
Object
100
AcDbLine
 10
19.33478082994719
 20
10.35
 30
0.0
 11
19.33478082994719
 21
10.392
 31
0.0
  0
LINE
  5
1307
330
18
100
AcDbEntity
  8
Object
100
AcDbLine
 10
19.33478082994719
 20
10.392
 30
0.0
 11
19.33478082994719
 21
11.984
 31
0.0
  0
LINE
  5
1308
330
18
100
AcDbEntity
  8
Object
100
AcDbLine
 10
19.33478082994719
 20
11.984
 30
0.0
 11
19.33078082994718
 21
11.984
 31
0.0
  0
LINE
  5
1309
330
18
100
AcDbEntity
  8
Object
100
AcDbLine
 10
19.33478082994719
 20
11.984
 30
0.0
 11
19.33178082994719
 21
11.998
 31
0.0
  0
LINE
  5
130A
330
18
100
AcDbEntity
  8
Object
100
AcDbLine
 10
19.33178082994719
 20
11.998
 30
0.0
 11
19.32278082994718
 21
12.012
 31
0.0
  0
LINE
  5
130B
330
18
100
AcDbEntity
  8
Object
100
AcDbLine
 10
19.31978082994719
 20
11.984
 30
0.0
 11
19.33078082994718
 21
11.984
 31
0.0
  0
LINE
  5
130C
330
18
100
AcDbEntity
  8
Object
100
AcDbLine
 10
19.32278082994718
 20
12.012
 30
0.0
 11
19.30978082994719
 21
12.021
 31
0.0
  0
LINE
  5
130D
330
18
100
AcDbEntity
  8
Object
100
AcDbLine
 10
19.30578082994719
 20
11.984
 30
0.0
 11
19.31978082994719
 21
11.984
 31
0.0
  0
LINE
  5
130E
330
18
100
AcDbEntity
  8
Object
100
AcDbLine
 10
19.30978082994719
 20
12.021
 30
0.0
 11
19.29478082994719
 21
12.024
 31
0.0
  0
LINE
  5
130F
330
18
100
AcDbEntity
  8
Object
100
AcDbLine
 10
18.60478082994719
 20
11.274
 30
0.0
 11
18.60578082994719
 21
11.274
 31
0.0
  0
LINE
  5
1310
330
18
100
AcDbEntity
  8
Object
100
AcDbLine
 10
19.49278082994718
 20
10.339
 30
0.0
 11
19.49478082994719
 21
10.337
 31
0.0
  0
LINE
  5
1311
330
18
100
AcDbEntity
  8
Object
100
AcDbLine
 10
19.49478082994719
 20
10.337
 30
0.0
 11
19.49478082994719
 21
9.08
 31
0.0
  0
LINE
  5
1312
330
18
100
AcDbEntity
  8
Object
100
AcDbLine
 10
19.49278082994718
 20
10.339
 30
0.0
 11
19.48578082994719
 21
10.345
 31
0.0
  0
LINE
  5
1313
330
18
100
AcDbEntity
  8
Object
100
AcDbLine
 10
19.48578082994719
 20
10.345
 30
0.0
 11
19.47478082994719
 21
10.355
 31
0.0
  0
LINE
  5
1314
330
18
100
AcDbEntity
  8
Object
100
AcDbLine
 10
19.47478082994719
 20
10.355
 30
0.0
 11
19.45878082994719
 21
10.37
 31
0.0
  0
LINE
  5
1315
330
18
100
AcDbEntity
  8
Object
100
AcDbLine
 10
19.45878082994719
 20
10.37
 30
0.0
 11
19.43978082994719
 21
10.388
 31
0.0
  0
LINE
  5
1316
330
18
100
AcDbEntity
  8
Object
100
AcDbLine
 10
19.43978082994719
 20
10.388
 30
0.0
 11
19.41778082994719
 21
10.408
 31
0.0
  0
LINE
  5
1317
330
18
100
AcDbEntity
  8
Object
100
AcDbLine
 10
19.41778082994719
 20
10.408
 30
0.0
 11
19.39478082994719
 21
10.429
 31
0.0
  0
LINE
  5
1318
330
18
100
AcDbEntity
  8
Object
100
AcDbLine
 10
19.39478082994719
 20
10.429
 30
0.0
 11
19.37178082994719
 21
10.45
 31
0.0
  0
LINE
  5
1319
330
18
100
AcDbEntity
  8
Object
100
AcDbLine
 10
17.88478082994719
 20
9.08
 30
0.0
 11
19.37178082994719
 21
9.08
 31
0.0
  0
LINE
  5
131A
330
18
100
AcDbEntity
  8
Object
100
AcDbLine
 10
19.37178082994719
 20
9.08
 30
0.0
 11
19.36478082994718
 21
8.836
 31
0.0
  0
LINE
  5
131B
330
18
100
AcDbEntity
  8
Object
100
AcDbLine
 10
19.36478082994718
 20
8.836
 30
0.0
 11
19.34178082994719
 21
8.592999999999999
 31
0.0
  0
LINE
  5
131C
330
18
100
AcDbEntity
  8
Object
100
AcDbLine
 10
19.34178082994719
 20
8.592999999999999
 30
0.0
 11
19.30278082994719
 21
8.352
 31
0.0
  0
LINE
  5
131D
330
18
100
AcDbEntity
  8
Object
100
AcDbLine
 10
19.30278082994719
 20
8.352
 30
0.0
 11
19.24978082994719
 21
8.114
 31
0.0
  0
LINE
  5
131E
330
18
100
AcDbEntity
  8
Object
100
AcDbLine
 10
19.24978082994719
 20
8.114
 30
0.0
 11
19.18178082994718
 21
7.879
 31
0.0
  0
LINE
  5
131F
330
18
100
AcDbEntity
  8
Object
100
AcDbLine
 10
19.18178082994718
 20
7.879
 30
0.0
 11
19.09878082994719
 21
7.649
 31
0.0
  0
LINE
  5
1320
330
18
100
AcDbEntity
  8
Object
100
AcDbLine
 10
19.09878082994719
 20
7.649
 30
0.0
 11
19.00178082994719
 21
7.424999999999999
 31
0.0
  0
LINE
  5
1321
330
18
100
AcDbEntity
  8
Object
100
AcDbLine
 10
19.00178082994719
 20
7.424999999999999
 30
0.0
 11
18.89078082994718
 21
7.208
 31
0.0
  0
LINE
  5
1322
330
18
100
AcDbEntity
  8
Object
100
AcDbLine
 10
18.89078082994718
 20
7.208
 30
0.0
 11
18.76678082994718
 21
6.998
 31
0.0
  0
LINE
  5
1323
330
18
100
AcDbEntity
  8
Object
100
AcDbLine
 10
18.76678082994718
 20
6.998
 30
0.0
 11
18.62978082994718
 21
6.796
 31
0.0
  0
LINE
  5
1324
330
18
100
AcDbEntity
  8
Object
100
AcDbLine
 10
18.62978082994718
 20
6.796
 30
0.0
 11
18.47978082994719
 21
6.602999999999999
 31
0.0
  0
LINE
  5
1325
330
18
100
AcDbEntity
  8
Object
100
AcDbLine
 10
18.47978082994719
 20
6.602999999999999
 30
0.0
 11
18.31878082994719
 21
6.419999999999999
 31
0.0
  0
LINE
  5
1326
330
18
100
AcDbEntity
  8
Object
100
AcDbLine
 10
18.31878082994719
 20
6.419999999999999
 30
0.0
 11
18.14578082994719
 21
6.246999999999999
 31
0.0
  0
LINE
  5
1327
330
18
100
AcDbEntity
  8
Object
100
AcDbLine
 10
18.14578082994719
 20
6.246999999999999
 30
0.0
 11
17.96278082994719
 21
6.084999999999999
 31
0.0
  0
LINE
  5
1328
330
18
100
AcDbEntity
  8
Object
100
AcDbLine
 10
17.96278082994719
 20
6.084999999999999
 30
0.0
 11
17.76978082994719
 21
5.935999999999999
 31
0.0
  0
LINE
  5
1329
330
18
100
AcDbEntity
  8
Object
100
AcDbLine
 10
17.76978082994719
 20
5.935999999999999
 30
0.0
 11
17.56778082994719
 21
5.798
 31
0.0
  0
LINE
  5
132A
330
18
100
AcDbEntity
  8
Object
100
AcDbLine
 10
17.56778082994719
 20
5.798
 30
0.0
 11
17.35778082994719
 21
5.674
 31
0.0
  0
LINE
  5
132B
330
18
100
AcDbEntity
  8
Object
100
AcDbLine
 10
17.35778082994719
 20
5.674
 30
0.0
 11
17.13978082994719
 21
5.562999999999999
 31
0.0
  0
LINE
  5
132C
330
18
100
AcDbEntity
  8
Object
100
AcDbLine
 10
17.13978082994719
 20
5.562999999999999
 30
0.0
 11
16.91578082994719
 21
5.466
 31
0.0
  0
LINE
  5
132D
330
18
100
AcDbEntity
  8
Object
100
AcDbLine
 10
16.91578082994719
 20
5.466
 30
0.0
 11
16.68578082994718
 21
5.384
 31
0.0
  0
LINE
  5
132E
330
18
100
AcDbEntity
  8
Object
100
AcDbLine
 10
16.68578082994718
 20
5.384
 30
0.0
 11
16.45178082994719
 21
5.315999999999999
 31
0.0
  0
LINE
  5
132F
330
18
100
AcDbEntity
  8
Object
100
AcDbLine
 10
16.45178082994719
 20
5.315999999999999
 30
0.0
 11
16.21378082994719
 21
5.262
 31
0.0
  0
LINE
  5
1330
330
18
100
AcDbEntity
  8
Object
100
AcDbLine
 10
16.21378082994719
 20
5.262
 30
0.0
 11
15.97178082994719
 21
5.224
 31
0.0
  0
LINE
  5
1331
330
18
100
AcDbEntity
  8
Object
100
AcDbLine
 10
15.97178082994719
 20
5.224
 30
0.0
 11
15.72878082994719
 21
5.201
 31
0.0
  0
LINE
  5
1332
330
18
100
AcDbEntity
  8
Object
100
AcDbLine
 10
15.53078082994719
 20
6.993
 30
0.0
 11
15.48478082994719
 21
6.991
 31
0.0
  0
LINE
  5
1333
330
18
100
AcDbEntity
  8
Object
100
AcDbLine
 10
15.48478082994719
 20
5.193
 30
0.0
 11
15.72878082994719
 21
5.201
 31
0.0
  0
LINE
  5
1334
330
18
100
AcDbEntity
  8
Object
100
AcDbLine
 10
19.33478082994719
 20
11.984
 30
0.0
 11
19.33178082994719
 21
11.998
 31
0.0
  0
LINE
  5
1335
330
18
100
AcDbEntity
  8
Object
100
AcDbLine
 10
19.33178082994719
 20
11.998
 30
0.0
 11
19.32278082994718
 21
12.012
 31
0.0
  0
LINE
  5
1336
330
18
100
AcDbEntity
  8
Object
100
AcDbLine
 10
19.32278082994718
 20
12.012
 30
0.0
 11
19.30978082994719
 21
12.021
 31
0.0
  0
LINE
  5
1337
330
18
100
AcDbEntity
  8
Object
100
AcDbLine
 10
19.30978082994719
 20
12.021
 30
0.0
 11
19.29478082994719
 21
12.024
 31
0.0
  0
LINE
  5
1338
330
18
100
AcDbEntity
  8
Object
100
AcDbLine
 10
17.48478082994719
 20
9.08
 30
0.0
 11
17.48478082994719
 21
9.170999999999999
 31
0.0
  0
LINE
  5
1339
330
18
100
AcDbEntity
  8
Object
100
AcDbLine
 10
17.48478082994719
 20
9.170999999999999
 30
0.0
 11
17.56478082994719
 21
9.173999999999999
 31
0.0
  0
LINE
  5
133A
330
18
100
AcDbEntity
  8
Object
100
AcDbLine
 10
17.56478082994719
 20
9.173999999999999
 30
0.0
 11
17.56478082994719
 21
9.149
 31
0.0
  0
LINE
  5
133B
330
18
100
AcDbEntity
  8
Object
100
AcDbLine
 10
17.48478082994719
 20
9.181
 30
0.0
 11
17.56478082994719
 21
9.184000000000001
 31
0.0
  0
LINE
  5
133C
330
18
100
AcDbEntity
  8
Object
100
AcDbLine
 10
17.56478082994719
 20
10.037
 30
0.0
 11
17.56478082994719
 21
9.224
 31
0.0
  0
LINE
  5
133D
330
18
100
AcDbEntity
  8
Object
100
AcDbLine
 10
17.56478082994719
 20
9.224
 30
0.0
 11
17.48478082994719
 21
9.221
 31
0.0
  0
LINE
  5
133E
330
18
100
AcDbEntity
  8
Object
100
AcDbLine
 10
17.48478082994719
 20
9.221
 30
0.0
 11
17.48478082994719
 21
10.117
 31
0.0
  0
LINE
  5
133F
330
18
100
AcDbEntity
  8
Object
100
AcDbLine
 10
17.48478082994719
 20
10.117
 30
0.0
 11
17.56478082994719
 21
10.037
 31
0.0
  0
LINE
  5
1340
330
18
100
AcDbEntity
  8
Object
100
AcDbLine
 10
17.48478082994719
 20
9.179999999999999
 30
0.0
 11
17.48478082994719
 21
9.178
 31
0.0
  0
LINE
  5
1341
330
18
100
AcDbEntity
  8
Object
100
AcDbLine
 10
17.56478082994719
 20
9.182999999999999
 30
0.0
 11
17.56478082994719
 21
9.181
 31
0.0
  0
LINE
  5
1342
330
18
100
AcDbEntity
  8
Object
100
AcDbLine
 10
17.56478082994719
 20
9.181
 30
0.0
 11
17.56478082994719
 21
9.176999999999999
 31
0.0
  0
LINE
  5
1343
330
18
100
AcDbEntity
  8
Object
100
AcDbLine
 10
17.56478082994719
 20
9.176999999999999
 30
0.0
 11
17.56478082994719
 21
9.173999999999999
 31
0.0
  0
LINE
  5
1344
330
18
100
AcDbEntity
  8
Object
100
AcDbLine
 10
17.48478082994719
 20
9.170999999999999
 30
0.0
 11
17.48478082994719
 21
9.175
 31
0.0
  0
LINE
  5
1345
330
18
100
AcDbEntity
  8
Object
100
AcDbLine
 10
17.48478082994719
 20
9.175
 30
0.0
 11
17.48478082994719
 21
9.178
 31
0.0
  0
LINE
  5
1346
330
18
100
AcDbEntity
  8
Object
100
AcDbLine
 10
17.56478082994719
 20
9.182999999999999
 30
0.0
 11
17.56478082994719
 21
9.184000000000001
 31
0.0
  0
LINE
  5
1347
330
18
100
AcDbEntity
  8
Object
100
AcDbLine
 10
17.48478082994719
 20
9.181
 30
0.0
 11
17.48478082994719
 21
9.179999999999999
 31
0.0
  0
LINE
  5
1348
330
18
100
AcDbEntity
  8
Object
100
AcDbLine
 10
17.56478082994719
 20
9.186999999999999
 30
0.0
 11
17.56478082994719
 21
9.195999999999999
 31
0.0
  0
LINE
  5
1349
330
18
100
AcDbEntity
  8
Object
100
AcDbLine
 10
17.48478082994719
 20
9.184000000000001
 30
0.0
 11
17.48478082994719
 21
9.192999999999999
 31
0.0
  0
LINE
  5
134A
330
18
100
AcDbEntity
  8
Object
100
AcDbLine
 10
17.48478082994719
 20
9.192999999999999
 30
0.0
 11
17.48478082994719
 21
9.205999999999999
 31
0.0
  0
LINE
  5
134B
330
18
100
AcDbEntity
  8
Object
100
AcDbLine
 10
17.48478082994719
 20
9.205999999999999
 30
0.0
 11
17.48478082994719
 21
9.221
 31
0.0
  0
LINE
  5
134C
330
18
100
AcDbEntity
  8
Object
100
AcDbLine
 10
17.56478082994719
 20
9.224
 30
0.0
 11
17.56478082994719
 21
9.208999999999999
 31
0.0
  0
LINE
  5
134D
330
18
100
AcDbEntity
  8
Object
100
AcDbLine
 10
17.56478082994719
 20
9.208999999999999
 30
0.0
 11
17.56478082994719
 21
9.195999999999999
 31
0.0
  0
LINE
  5
134E
330
18
100
AcDbEntity
  8
Object
100
AcDbLine
 10
17.48478082994719
 20
9.184000000000001
 30
0.0
 11
17.48478082994719
 21
9.181
 31
0.0
  0
LINE
  5
134F
330
18
100
AcDbEntity
  8
Object
100
AcDbLine
 10
17.56478082994719
 20
9.186999999999999
 30
0.0
 11
17.56478082994719
 21
9.184000000000001
 31
0.0
  0
LINE
  5
1350
330
18
100
AcDbEntity
  8
Object
100
AcDbLine
 10
17.56478082994719
 20
9.184000000000001
 30
0.0
 11
17.48478082994719
 21
9.181
 31
0.0
  0
LINE
  5
1351
330
18
100
AcDbEntity
  8
Object
100
AcDbLine
 10
17.56478082994719
 20
10.037
 30
0.0
 11
17.48478082994719
 21
10.117
 31
0.0
  0
LINE
  5
1352
330
18
100
AcDbEntity
  8
Object
100
AcDbLine
 10
15.48478082994719
 20
7.0
 30
0.0
 11
15.53078082994719
 21
7.001999999999999
 31
0.0
  0
LINE
  5
1353
330
18
100
AcDbEntity
  8
Object
100
AcDbLine
 10
17.56478082994719
 20
10.038
 30
0.0
 11
17.56478082994719
 21
10.041
 31
0.0
  0
LINE
  5
1354
330
18
100
AcDbEntity
  8
Object
100
AcDbLine
 10
17.48478082994719
 20
10.121
 30
0.0
 11
17.48478082994719
 21
10.118
 31
0.0
  0
LINE
  5
1355
330
18
100
AcDbEntity
  8
Object
100
AcDbLine
 10
17.56478082994719
 20
10.046
 30
0.0
 11
17.56478082994719
 21
10.051
 31
0.0
  0
LINE
  5
1356
330
18
100
AcDbEntity
  8
Object
100
AcDbLine
 10
17.48478082994719
 20
10.131
 30
0.0
 11
17.48478082994719
 21
10.126
 31
0.0
  0
LINE
  5
1357
330
18
100
AcDbEntity
  8
Object
100
AcDbLine
 10
17.48478082994719
 20
10.126
 30
0.0
 11
17.48478082994719
 21
10.121
 31
0.0
  0
LINE
  5
1358
330
18
100
AcDbEntity
  8
Object
100
AcDbLine
 10
17.56478082994719
 20
10.041
 30
0.0
 11
17.56478082994719
 21
10.046
 31
0.0
  0
LINE
  5
1359
330
18
100
AcDbEntity
  8
Object
100
AcDbLine
 10
17.48478082994719
 20
10.118
 30
0.0
 11
17.48478082994719
 21
10.117
 31
0.0
  0
LINE
  5
135A
330
18
100
AcDbEntity
  8
Object
100
AcDbLine
 10
17.56478082994719
 20
10.037
 30
0.0
 11
17.56478082994719
 21
10.038
 31
0.0
  0
LINE
  5
135B
330
18
100
AcDbEntity
  8
Object
100
AcDbLine
 10
12.56278082994719
 20
5.181
 30
0.0
 11
12.58278082994719
 21
5.181
 31
0.0
  0
LINE
  5
135C
330
18
100
AcDbEntity
  8
Object
100
AcDbLine
 10
12.58078082994719
 20
5.230999999999999
 30
0.0
 11
12.56278082994719
 21
5.230999999999999
 31
0.0
  0
LINE
  5
135D
330
18
100
AcDbEntity
  8
Object
100
AcDbLine
 10
12.58278082994719
 20
5.181
 30
0.0
 11
12.58278082994719
 21
5.230999999999999
 31
0.0
  0
LINE
  5
135E
330
18
100
AcDbEntity
  8
Object
100
AcDbLine
 10
12.56278082994719
 20
5.230999999999999
 30
0.0
 11
12.54778082994719
 21
5.230999999999999
 31
0.0
  0
LINE
  5
135F
330
18
100
AcDbEntity
  8
Object
100
AcDbLine
 10
12.56278082994719
 20
5.181
 30
0.0
 11
12.54778082994719
 21
5.181
 31
0.0
  0
LINE
  5
1360
330
18
100
AcDbEntity
  8
Object
100
AcDbLine
 10
12.54778082994719
 20
5.181
 30
0.0
 11
12.54278082994719
 21
5.181
 31
0.0
  0
LINE
  5
1361
330
18
100
AcDbEntity
  8
Object
100
AcDbLine
 10
12.54278082994719
 20
5.181
 30
0.0
 11
12.54278082994719
 21
5.230999999999999
 31
0.0
  0
LINE
  5
1362
330
18
100
AcDbEntity
  8
Object
100
AcDbLine
 10
12.54278082994719
 20
5.230999999999999
 30
0.0
 11
12.54778082994719
 21
5.230999999999999
 31
0.0
  0
LINE
  5
1363
330
18
100
AcDbEntity
  8
Object
100
AcDbLine
 10
14.04978082994719
 20
5.230999999999999
 30
0.0
 11
14.09978082994719
 21
5.181
 31
0.0
  0
LINE
  5
1364
330
18
100
AcDbEntity
  8
Object
100
AcDbLine
 10
14.09978082994719
 20
5.181
 30
0.0
 11
12.58278082994719
 21
5.181
 31
0.0
  0
LINE
  5
1365
330
18
100
AcDbEntity
  8
Object
100
AcDbLine
 10
14.10678082994718
 20
5.187999999999999
 30
0.0
 11
14.10578082994718
 21
5.187
 31
0.0
  0
LINE
  5
1366
330
18
100
AcDbEntity
  8
Object
100
AcDbLine
 10
14.10578082994718
 20
5.187
 30
0.0
 11
14.10378082994719
 21
5.184
 31
0.0
  0
LINE
  5
1367
330
18
100
AcDbEntity
  8
Object
100
AcDbLine
 10
14.10378082994719
 20
5.184
 30
0.0
 11
14.09978082994719
 21
5.181
 31
0.0
  0
LINE
  5
1368
330
18
100
AcDbEntity
  8
Object
100
AcDbLine
 10
12.54278082994719
 20
5.230999999999999
 30
0.0
 11
12.54278082994719
 21
5.181
 31
0.0
  0
LINE
  5
1369
330
18
100
AcDbEntity
  8
Object
100
AcDbLine
 10
14.21978082994719
 20
5.075
 30
0.0
 11
14.22078082994719
 21
5.073999999999999
 31
0.0
  0
LINE
  5
136A
330
18
100
AcDbEntity
  8
Object
100
AcDbLine
 10
14.22078082994719
 20
5.073999999999999
 30
0.0
 11
14.21978082994719
 21
5.075
 31
0.0
  0
LINE
  5
136B
330
18
100
AcDbEntity
  8
Object
100
AcDbLine
 10
14.21978082994719
 20
5.075
 30
0.0
 11
14.21278082994718
 21
5.081
 31
0.0
  0
LINE
  5
136C
330
18
100
AcDbEntity
  8
Object
100
AcDbLine
 10
14.21278082994718
 20
5.081
 30
0.0
 11
14.20278082994719
 21
5.092
 31
0.0
  0
LINE
  5
136D
330
18
100
AcDbEntity
  8
Object
100
AcDbLine
 10
14.20278082994719
 20
5.092
 30
0.0
 11
14.18778082994719
 21
5.107
 31
0.0
  0
LINE
  5
136E
330
18
100
AcDbEntity
  8
Object
100
AcDbLine
 10
14.18778082994719
 20
5.107
 30
0.0
 11
14.16978082994719
 21
5.125
 31
0.0
  0
LINE
  5
136F
330
18
100
AcDbEntity
  8
Object
100
AcDbLine
 10
14.16978082994719
 20
5.125
 30
0.0
 11
14.14978082994719
 21
5.145
 31
0.0
  0
LINE
  5
1370
330
18
100
AcDbEntity
  8
Object
100
AcDbLine
 10
14.14378082994718
 20
5.15
 30
0.0
 11
14.14678082994719
 21
5.147999999999999
 31
0.0
  0
LINE
  5
1371
330
18
100
AcDbEntity
  8
Object
100
AcDbLine
 10
14.14678082994719
 20
5.147999999999999
 30
0.0
 11
14.14378082994718
 21
5.15
 31
0.0
  0
LINE
  5
1372
330
18
100
AcDbEntity
  8
Object
100
AcDbLine
 10
14.14378082994718
 20
5.15
 30
0.0
 11
14.13578082994719
 21
5.158999999999999
 31
0.0
  0
LINE
  5
1373
330
18
100
AcDbEntity
  8
Object
100
AcDbLine
 10
14.14978082994719
 20
5.145
 30
0.0
 11
14.12878082994718
 21
5.166
 31
0.0
  0
LINE
  5
1374
330
18
100
AcDbEntity
  8
Object
100
AcDbLine
 10
14.12878082994718
 20
5.166
 30
0.0
 11
14.10778082994719
 21
5.187
 31
0.0
  0
LINE
  5
1375
330
18
100
AcDbEntity
  8
Object
100
AcDbLine
 10
14.10778082994719
 20
5.187
 30
0.0
 11
14.06378082994718
 21
5.230999999999999
 31
0.0
  0
LINE
  5
1376
330
18
100
AcDbEntity
  8
Object
100
AcDbLine
 10
14.62678082994719
 20
6.991
 30
0.0
 11
15.48478082994719
 21
6.991
 31
0.0
  0
LINE
  5
1377
330
18
100
AcDbEntity
  8
Object
100
AcDbLine
 10
15.48478082994719
 20
6.991
 30
0.0
 11
15.48478082994719
 21
6.979
 31
0.0
  0
LINE
  5
1378
330
18
100
AcDbEntity
  8
Object
100
AcDbLine
 10
15.48478082994719
 20
5.193
 30
0.0
 11
15.48478082994719
 21
6.799
 31
0.0
  0
LINE
  5
1379
330
18
100
AcDbEntity
  8
Object
100
AcDbLine
 10
14.26278082994719
 20
6.799
 30
0.0
 11
14.23678082994719
 21
5.230999999999999
 31
0.0
  0
LINE
  5
137A
330
18
100
AcDbEntity
  8
Object
100
AcDbLine
 10
14.11478082994719
 20
5.193
 30
0.0
 11
15.48478082994719
 21
5.193
 31
0.0
  0
LINE
  5
137B
330
18
100
AcDbEntity
  8
Object
100
AcDbLine
 10
12.54078082994719
 20
6.919999999999999
 30
0.0
 11
12.54078082994719
 21
5.270999999999999
 31
0.0
  0
LINE
  5
137C
330
18
100
AcDbEntity
  8
Object
100
AcDbLine
 10
14.15278082994719
 20
5.238999999999999
 30
0.0
 11
14.17978082994719
 21
6.799
 31
0.0
  0
LINE
  5
137D
330
18
100
AcDbEntity
  8
Object
100
AcDbLine
 10
14.23678082994719
 20
5.230999999999999
 30
0.0
 11
14.22478082994719
 21
5.230999999999999
 31
0.0
  0
LINE
  5
137E
330
18
100
AcDbEntity
  8
Object
100
AcDbLine
 10
14.22478082994719
 20
5.230999999999999
 30
0.0
 11
14.21478082994719
 21
5.230999999999999
 31
0.0
  0
LINE
  5
137F
330
18
100
AcDbEntity
  8
Object
100
AcDbLine
 10
12.55978082994719
 20
6.919999999999999
 30
0.0
 11
12.57078082994719
 21
6.919999999999999
 31
0.0
  0
LINE
  5
1380
330
18
100
AcDbEntity
  8
Object
100
AcDbLine
 10
12.57078082994719
 20
6.919999999999999
 30
0.0
 11
12.57078082994719
 21
5.27
 31
0.0
  0
LINE
  5
1381
330
18
100
AcDbEntity
  8
Object
100
AcDbLine
 10
12.57078082994719
 20
5.27
 30
0.0
 11
12.55578082994718
 21
5.27
 31
0.0
  0
LINE
  5
1382
330
18
100
AcDbEntity
  8
Object
100
AcDbLine
 10
12.55978082994719
 20
6.919999999999999
 30
0.0
 11
12.54978082994719
 21
6.919999999999999
 31
0.0
  0
LINE
  5
1383
330
18
100
AcDbEntity
  8
Object
100
AcDbLine
 10
12.54578082994719
 20
5.27
 30
0.0
 11
12.55578082994718
 21
5.27
 31
0.0
  0
LINE
  5
1384
330
18
100
AcDbEntity
  8
Object
100
AcDbLine
 10
12.54978082994719
 20
6.919999999999999
 30
0.0
 11
12.54378082994719
 21
6.919999999999999
 31
0.0
  0
LINE
  5
1385
330
18
100
AcDbEntity
  8
Object
100
AcDbLine
 10
12.54578082994719
 20
5.27
 30
0.0
 11
12.54078082994719
 21
5.270999999999999
 31
0.0
  0
LINE
  5
1386
330
18
100
AcDbEntity
  8
Object
100
AcDbLine
 10
12.54078082994719
 20
5.270999999999999
 30
0.0
 11
12.54078082994719
 21
6.919999999999999
 31
0.0
  0
LINE
  5
1387
330
18
100
AcDbEntity
  8
Object
100
AcDbLine
 10
12.54078082994719
 20
6.919999999999999
 30
0.0
 11
12.54378082994719
 21
6.919999999999999
 31
0.0
  0
LINE
  5
1388
330
18
100
AcDbEntity
  8
Object
100
AcDbLine
 10
14.13178082994719
 20
5.259999999999999
 30
0.0
 11
14.15778082994719
 21
6.799
 31
0.0
  0
LINE
  5
1389
330
18
100
AcDbEntity
  8
Object
100
AcDbLine
 10
13.44378082994718
 20
6.169
 30
0.0
 11
13.45078082994719
 21
6.118999999999999
 31
0.0
  0
LINE
  5
138A
330
18
100
AcDbEntity
  8
Object
100
AcDbLine
 10
13.45078082994719
 20
6.118999999999999
 30
0.0
 11
13.44378082994718
 21
6.07
 31
0.0
  0
LINE
  5
138B
330
18
100
AcDbEntity
  8
Object
100
AcDbLine
 10
13.42078082994718
 20
6.213
 30
0.0
 11
13.44378082994718
 21
6.169
 31
0.0
  0
LINE
  5
138C
330
18
100
AcDbEntity
  8
Object
100
AcDbLine
 10
13.44378082994718
 20
6.07
 30
0.0
 11
13.42078082994718
 21
6.025
 31
0.0
  0
LINE
  5
138D
330
18
100
AcDbEntity
  8
Object
100
AcDbLine
 10
13.38578082994718
 20
6.249
 30
0.0
 11
13.42078082994718
 21
6.213
 31
0.0
  0
LINE
  5
138E
330
18
100
AcDbEntity
  8
Object
100
AcDbLine
 10
13.42078082994718
 20
6.025
 30
0.0
 11
13.38578082994718
 21
5.99
 31
0.0
  0
LINE
  5
138F
330
18
100
AcDbEntity
  8
Object
100
AcDbLine
 10
13.34078082994718
 20
6.270999999999999
 30
0.0
 11
13.38578082994718
 21
6.249
 31
0.0
  0
LINE
  5
1390
330
18
100
AcDbEntity
  8
Object
100
AcDbLine
 10
13.38578082994718
 20
5.99
 30
0.0
 11
13.34078082994718
 21
5.967
 31
0.0
  0
LINE
  5
1391
330
18
100
AcDbEntity
  8
Object
100
AcDbLine
 10
13.29078082994719
 20
6.278999999999999
 30
0.0
 11
13.34078082994718
 21
6.270999999999999
 31
0.0
  0
LINE
  5
1392
330
18
100
AcDbEntity
  8
Object
100
AcDbLine
 10
13.34078082994718
 20
5.967
 30
0.0
 11
13.29078082994719
 21
5.959
 31
0.0
  0
LINE
  5
1393
330
18
100
AcDbEntity
  8
Object
100
AcDbLine
 10
12.58078082994719
 20
5.259999999999999
 30
0.0
 11
14.13178082994719
 21
5.259999999999999
 31
0.0
  0
LINE
  5
1394
330
18
100
AcDbEntity
  8
Object
100
AcDbLine
 10
13.19678082994719
 20
5.99
 30
0.0
 11
13.24178082994718
 21
5.967
 31
0.0
  0
LINE
  5
1395
330
18
100
AcDbEntity
  8
Object
100
AcDbLine
 10
13.24178082994718
 20
5.967
 30
0.0
 11
13.29078082994719
 21
5.959
 31
0.0
  0
LINE
  5
1396
330
18
100
AcDbEntity
  8
Object
100
AcDbLine
 10
12.57778082994718
 20
5.261
 30
0.0
 11
12.58078082994719
 21
5.259999999999999
 31
0.0
  0
LINE
  5
1397
330
18
100
AcDbEntity
  8
Object
100
AcDbLine
 10
12.66078082994719
 20
6.919999999999999
 30
0.0
 11
12.57078082994719
 21
6.919999999999999
 31
0.0
  0
LINE
  5
1398
330
18
100
AcDbEntity
  8
Object
100
AcDbLine
 10
13.29078082994719
 20
6.278999999999999
 30
0.0
 11
13.24178082994718
 21
6.270999999999999
 31
0.0
  0
LINE
  5
1399
330
18
100
AcDbEntity
  8
Object
100
AcDbLine
 10
13.24178082994718
 20
6.270999999999999
 30
0.0
 11
13.19678082994719
 21
6.249
 31
0.0
  0
LINE
  5
139A
330
18
100
AcDbEntity
  8
Object
100
AcDbLine
 10
13.19678082994719
 20
6.249
 30
0.0
 11
13.16178082994718
 21
6.213
 31
0.0
  0
LINE
  5
139B
330
18
100
AcDbEntity
  8
Object
100
AcDbLine
 10
13.16178082994718
 20
6.213
 30
0.0
 11
13.13878082994718
 21
6.169
 31
0.0
  0
LINE
  5
139C
330
18
100
AcDbEntity
  8
Object
100
AcDbLine
 10
13.13878082994718
 20
6.169
 30
0.0
 11
13.13078082994719
 21
6.118999999999999
 31
0.0
  0
LINE
  5
139D
330
18
100
AcDbEntity
  8
Object
100
AcDbLine
 10
13.13078082994719
 20
6.118999999999999
 30
0.0
 11
13.13878082994718
 21
6.07
 31
0.0
  0
LINE
  5
139E
330
18
100
AcDbEntity
  8
Object
100
AcDbLine
 10
13.13878082994718
 20
6.07
 30
0.0
 11
13.16178082994718
 21
6.025
 31
0.0
  0
LINE
  5
139F
330
18
100
AcDbEntity
  8
Object
100
AcDbLine
 10
13.16178082994718
 20
6.025
 30
0.0
 11
13.19678082994719
 21
5.99
 31
0.0
  0
LINE
  5
13A0
330
18
100
AcDbEntity
  8
Object
100
AcDbLine
 10
14.24178082994719
 20
6.799
 30
0.0
 11
14.21478082994719
 21
5.230999999999999
 31
0.0
  0
LINE
  5
13A1
330
18
100
AcDbEntity
  8
Object
100
AcDbLine
 10
14.21478082994719
 20
5.230999999999999
 30
0.0
 11
14.17378082994719
 21
5.230999999999999
 31
0.0
  0
LINE
  5
13A2
330
18
100
AcDbEntity
  8
Object
100
AcDbLine
 10
13.44978082994719
 20
6.12
 30
0.0
 11
13.44378082994718
 21
6.070999999999999
 31
0.0
  0
LINE
  5
13A3
330
18
100
AcDbEntity
  8
Object
100
AcDbLine
 10
13.44378082994718
 20
6.070999999999999
 30
0.0
 11
13.42078082994718
 21
6.027
 31
0.0
  0
LINE
  5
13A4
330
18
100
AcDbEntity
  8
Object
100
AcDbLine
 10
13.42078082994718
 20
6.027
 30
0.0
 11
13.38578082994718
 21
5.991
 31
0.0
  0
LINE
  5
13A5
330
18
100
AcDbEntity
  8
Object
100
AcDbLine
 10
13.38578082994718
 20
5.991
 30
0.0
 11
13.34078082994718
 21
5.967999999999999
 31
0.0
  0
LINE
  5
13A6
330
18
100
AcDbEntity
  8
Object
100
AcDbLine
 10
13.34078082994718
 20
5.967999999999999
 30
0.0
 11
13.29078082994719
 21
5.961
 31
0.0
  0
LINE
  5
13A7
330
18
100
AcDbEntity
  8
Object
100
AcDbLine
 10
13.29078082994719
 20
5.961
 30
0.0
 11
13.24178082994718
 21
5.967999999999999
 31
0.0
  0
LINE
  5
13A8
330
18
100
AcDbEntity
  8
Object
100
AcDbLine
 10
13.24178082994718
 20
5.967999999999999
 30
0.0
 11
13.19678082994719
 21
5.991
 31
0.0
  0
LINE
  5
13A9
330
18
100
AcDbEntity
  8
Object
100
AcDbLine
 10
13.19678082994719
 20
5.991
 30
0.0
 11
13.16178082994718
 21
6.027
 31
0.0
  0
LINE
  5
13AA
330
18
100
AcDbEntity
  8
Object
100
AcDbLine
 10
13.16178082994718
 20
6.027
 30
0.0
 11
13.13878082994718
 21
6.070999999999999
 31
0.0
  0
LINE
  5
13AB
330
18
100
AcDbEntity
  8
Object
100
AcDbLine
 10
13.13878082994718
 20
6.070999999999999
 30
0.0
 11
13.13078082994719
 21
6.12
 31
0.0
  0
LINE
  5
13AC
330
18
100
AcDbEntity
  8
Object
100
AcDbLine
 10
15.48478082994719
 20
7.0
 30
0.0
 11
15.48478082994719
 21
6.999
 31
0.0
  0
LINE
  5
13AD
330
18
100
AcDbEntity
  8
Object
100
AcDbLine
 10
15.48478082994719
 20
6.999
 30
0.0
 11
15.48478082994719
 21
6.996
 31
0.0
  0
LINE
  5
13AE
330
18
100
AcDbEntity
  8
Object
100
AcDbLine
 10
15.48478082994719
 20
6.996
 30
0.0
 11
15.48478082994719
 21
6.991
 31
0.0
  0
LINE
  5
13AF
330
18
100
AcDbEntity
  8
Object
100
AcDbLine
 10
15.48478082994719
 20
7.0
 30
0.0
 11
15.39178082994719
 21
7.0
 31
0.0
  0
LINE
  5
13B0
330
18
100
AcDbEntity
  8
Object
100
AcDbLine
 10
15.39178082994719
 20
7.0
 30
0.0
 11
15.38778082994719
 21
7.0
 31
0.0
  0
LINE
  5
13B1
330
18
100
AcDbEntity
  8
Object
100
AcDbLine
 10
15.38778082994719
 20
7.0
 30
0.0
 11
15.38478082994719
 21
7.0
 31
0.0
  0
LINE
  5
13B2
330
18
100
AcDbEntity
  8
Object
100
AcDbLine
 10
15.38178082994719
 20
6.999
 30
0.0
 11
15.38178082994719
 21
7.0
 31
0.0
  0
LINE
  5
13B3
330
18
100
AcDbEntity
  8
Object
100
AcDbLine
 10
15.38178082994719
 20
7.0
 30
0.0
 11
15.38478082994719
 21
7.0
 31
0.0
  0
LINE
  5
13B4
330
18
100
AcDbEntity
  8
Object
100
AcDbLine
 10
15.38178082994719
 20
7.0
 30
0.0
 11
15.37878082994718
 21
7.0
 31
0.0
  0
LINE
  5
13B5
330
18
100
AcDbEntity
  8
Object
100
AcDbLine
 10
15.37878082994718
 20
7.0
 30
0.0
 11
15.36978082994719
 21
7.0
 31
0.0
  0
LINE
  5
13B6
330
18
100
AcDbEntity
  8
Object
100
AcDbLine
 10
15.36978082994719
 20
7.0
 30
0.0
 11
15.35578082994718
 21
7.0
 31
0.0
  0
LINE
  5
13B7
330
18
100
AcDbEntity
  8
Object
100
AcDbLine
 10
15.35578082994718
 20
7.0
 30
0.0
 11
15.34178082994719
 21
7.0
 31
0.0
  0
LINE
  5
13B8
330
18
100
AcDbEntity
  8
Object
100
AcDbLine
 10
15.34178082994719
 20
7.0
 30
0.0
 11
14.52778082994719
 21
7.0
 31
0.0
  0
LINE
  5
13B9
330
18
100
AcDbEntity
  8
Object
100
AcDbLine
 10
15.48478082994719
 20
7.08
 30
0.0
 11
15.39378082994718
 21
7.08
 31
0.0
  0
LINE
  5
13BA
330
18
100
AcDbEntity
  8
Object
100
AcDbLine
 10
15.39378082994718
 20
7.08
 30
0.0
 11
15.39078082994719
 21
7.08
 31
0.0
  0
LINE
  5
13BB
330
18
100
AcDbEntity
  8
Object
100
AcDbLine
 10
15.39078082994719
 20
7.08
 30
0.0
 11
15.38678082994719
 21
7.08
 31
0.0
  0
LINE
  5
13BC
330
18
100
AcDbEntity
  8
Object
100
AcDbLine
 10
15.38678082994719
 20
7.08
 30
0.0
 11
15.38478082994719
 21
7.08
 31
0.0
  0
LINE
  5
13BD
330
18
100
AcDbEntity
  8
Object
100
AcDbLine
 10
15.38478082994719
 20
7.08
 30
0.0
 11
15.38378082994719
 21
7.08
 31
0.0
  0
LINE
  5
13BE
330
18
100
AcDbEntity
  8
Object
100
AcDbLine
 10
15.38378082994719
 20
7.08
 30
0.0
 11
15.38178082994719
 21
7.08
 31
0.0
  0
LINE
  5
13BF
330
18
100
AcDbEntity
  8
Object
100
AcDbLine
 10
15.38178082994719
 20
7.08
 30
0.0
 11
15.37278082994719
 21
7.08
 31
0.0
  0
LINE
  5
13C0
330
18
100
AcDbEntity
  8
Object
100
AcDbLine
 10
15.37278082994719
 20
7.08
 30
0.0
 11
15.35878082994719
 21
7.08
 31
0.0
  0
LINE
  5
13C1
330
18
100
AcDbEntity
  8
Object
100
AcDbLine
 10
15.35878082994719
 20
7.08
 30
0.0
 11
15.34378082994719
 21
7.08
 31
0.0
  0
LINE
  5
13C2
330
18
100
AcDbEntity
  8
Object
100
AcDbLine
 10
15.34378082994719
 20
7.08
 30
0.0
 11
14.44778082994719
 21
7.08
 31
0.0
  0
LINE
  5
13C3
330
18
100
AcDbEntity
  8
Object
100
AcDbLine
 10
17.47778082994719
 20
8.906
 30
0.0
 11
17.48478082994719
 21
9.08
 31
0.0
  0
LINE
  5
13C4
330
18
100
AcDbEntity
  8
Object
100
AcDbLine
 10
17.48478082994719
 20
9.08
 30
0.0
 11
17.53778082994719
 21
9.08
 31
0.0
  0
LINE
  5
13C5
330
18
100
AcDbEntity
  8
Object
100
AcDbLine
 10
17.47778082994719
 20
8.906
 30
0.0
 11
17.45478082994718
 21
8.733
 31
0.0
  0
LINE
  5
13C6
330
18
100
AcDbEntity
  8
Object
100
AcDbLine
 10
17.45478082994718
 20
8.733
 30
0.0
 11
17.41678082994719
 21
8.563
 31
0.0
  0
LINE
  5
13C7
330
18
100
AcDbEntity
  8
Object
100
AcDbLine
 10
17.41678082994719
 20
8.563
 30
0.0
 11
17.36478082994718
 21
8.396
 31
0.0
  0
LINE
  5
13C8
330
18
100
AcDbEntity
  8
Object
100
AcDbLine
 10
17.36478082994718
 20
8.396
 30
0.0
 11
17.29778082994718
 21
8.234999999999999
 31
0.0
  0
LINE
  5
13C9
330
18
100
AcDbEntity
  8
Object
100
AcDbLine
 10
17.29778082994718
 20
8.234999999999999
 30
0.0
 11
17.21678082994718
 21
8.08
 31
0.0
  0
LINE
  5
13CA
330
18
100
AcDbEntity
  8
Object
100
AcDbLine
 10
17.21678082994718
 20
8.08
 30
0.0
 11
17.12278082994719
 21
7.932999999999999
 31
0.0
  0
LINE
  5
13CB
330
18
100
AcDbEntity
  8
Object
100
AcDbLine
 10
17.12278082994719
 20
7.932999999999999
 30
0.0
 11
17.01678082994719
 21
7.794999999999999
 31
0.0
  0
LINE
  5
13CC
330
18
100
AcDbEntity
  8
Object
100
AcDbLine
 10
17.01678082994719
 20
7.794999999999999
 30
0.0
 11
16.89878082994719
 21
7.666
 31
0.0
  0
LINE
  5
13CD
330
18
100
AcDbEntity
  8
Object
100
AcDbLine
 10
16.89878082994719
 20
7.666
 30
0.0
 11
16.77078082994719
 21
7.548
 31
0.0
  0
LINE
  5
13CE
330
18
100
AcDbEntity
  8
Object
100
AcDbLine
 10
16.77078082994719
 20
7.548
 30
0.0
 11
16.63178082994719
 21
7.442
 31
0.0
  0
LINE
  5
13CF
330
18
100
AcDbEntity
  8
Object
100
AcDbLine
 10
16.63178082994719
 20
7.442
 30
0.0
 11
16.61178082994718
 21
7.429
 31
0.0
  0
LINE
  5
13D0
330
18
100
AcDbEntity
  8
Object
100
AcDbLine
 10
15.48478082994719
 20
7.0
 30
0.0
 11
15.53078082994719
 21
7.001999999999999
 31
0.0
  0
LINE
  5
13D1
330
18
100
AcDbEntity
  8
Object
100
AcDbLine
 10
15.53278082994719
 20
7.081999999999999
 30
0.0
 11
15.48478082994719
 21
7.08
 31
0.0
  0
LINE
  5
13D2
330
18
100
AcDbEntity
  8
Object
100
AcDbLine
 10
19.49478082994719
 20
10.337
 30
0.0
 11
19.49478082994719
 21
9.08
 31
0.0
  0
LINE
  5
13D3
330
18
100
AcDbEntity
  8
Object
100
AcDbLine
 10
19.49478082994719
 20
9.08
 30
0.0
 11
19.48878082994719
 21
9.08
 31
0.0
  0
LINE
  5
13D4
330
18
100
AcDbEntity
  8
Object
100
AcDbLine
 10
19.48678082994718
 20
8.827999999999999
 30
0.0
 11
19.49478082994719
 21
9.08
 31
0.0
  0
LINE
  5
13D5
330
18
100
AcDbEntity
  8
Object
100
AcDbLine
 10
19.48878082994719
 20
9.08
 30
0.0
 11
19.47178082994719
 21
9.08
 31
0.0
  0
LINE
  5
13D6
330
18
100
AcDbEntity
  8
Object
100
AcDbLine
 10
19.46278082994719
 20
8.577999999999999
 30
0.0
 11
19.48678082994718
 21
8.827999999999999
 31
0.0
  0
LINE
  5
13D7
330
18
100
AcDbEntity
  8
Object
100
AcDbLine
 10
19.47178082994719
 20
9.08
 30
0.0
 11
19.44478082994718
 21
9.08
 31
0.0
  0
LINE
  5
13D8
330
18
100
AcDbEntity
  8
Object
100
AcDbLine
 10
19.42378082994719
 20
8.329
 30
0.0
 11
19.46278082994719
 21
8.577999999999999
 31
0.0
  0
LINE
  5
13D9
330
18
100
AcDbEntity
  8
Object
100
AcDbLine
 10
19.44478082994718
 20
9.08
 30
0.0
 11
19.40978082994719
 21
9.08
 31
0.0
  0
LINE
  5
13DA
330
18
100
AcDbEntity
  8
Object
100
AcDbLine
 10
19.40978082994719
 20
9.08
 30
0.0
 11
19.37178082994719
 21
9.08
 31
0.0
  0
LINE
  5
13DB
330
18
100
AcDbEntity
  8
Object
100
AcDbLine
 10
19.42378082994719
 20
8.329
 30
0.0
 11
19.36878082994718
 21
8.083
 31
0.0
  0
LINE
  5
13DC
330
18
100
AcDbEntity
  8
Object
100
AcDbLine
 10
19.36878082994718
 20
8.083
 30
0.0
 11
19.29878082994719
 21
7.841
 31
0.0
  0
LINE
  5
13DD
330
18
100
AcDbEntity
  8
Object
100
AcDbLine
 10
19.29878082994719
 20
7.841
 30
0.0
 11
19.21278082994719
 21
7.604
 31
0.0
  0
LINE
  5
13DE
330
18
100
AcDbEntity
  8
Object
100
AcDbLine
 10
19.21278082994719
 20
7.604
 30
0.0
 11
19.11278082994719
 21
7.373
 31
0.0
  0
LINE
  5
13DF
330
18
100
AcDbEntity
  8
Object
100
AcDbLine
 10
19.11278082994719
 20
7.373
 30
0.0
 11
18.99878082994719
 21
7.149
 31
0.0
  0
LINE
  5
13E0
330
18
100
AcDbEntity
  8
Object
100
AcDbLine
 10
18.99878082994719
 20
7.149
 30
0.0
 11
18.87078082994718
 21
6.932
 31
0.0
  0
LINE
  5
13E1
330
18
100
AcDbEntity
  8
Object
100
AcDbLine
 10
18.87078082994718
 20
6.932
 30
0.0
 11
18.72878082994718
 21
6.722999999999999
 31
0.0
  0
LINE
  5
13E2
330
18
100
AcDbEntity
  8
Object
100
AcDbLine
 10
18.72878082994718
 20
6.722999999999999
 30
0.0
 11
18.57478082994719
 21
6.524
 31
0.0
  0
LINE
  5
13E3
330
18
100
AcDbEntity
  8
Object
100
AcDbLine
 10
18.57478082994719
 20
6.524
 30
0.0
 11
18.40778082994719
 21
6.334999999999999
 31
0.0
  0
LINE
  5
13E4
330
18
100
AcDbEntity
  8
Object
100
AcDbLine
 10
18.40778082994719
 20
6.334999999999999
 30
0.0
 11
18.22978082994719
 21
6.157
 31
0.0
  0
LINE
  5
13E5
330
18
100
AcDbEntity
  8
Object
100
AcDbLine
 10
18.22978082994719
 20
6.157
 30
0.0
 11
18.04078082994719
 21
5.991
 31
0.0
  0
LINE
  5
13E6
330
18
100
AcDbEntity
  8
Object
100
AcDbLine
 10
18.04078082994719
 20
5.991
 30
0.0
 11
17.84178082994718
 21
5.836
 31
0.0
  0
LINE
  5
13E7
330
18
100
AcDbEntity
  8
Object
100
AcDbLine
 10
17.84178082994718
 20
5.836
 30
0.0
 11
17.63378082994719
 21
5.695
 31
0.0
  0
LINE
  5
13E8
330
18
100
AcDbEntity
  8
Object
100
AcDbLine
 10
17.63378082994719
 20
5.695
 30
0.0
 11
17.41678082994719
 21
5.567
 31
0.0
  0
LINE
  5
13E9
330
18
100
AcDbEntity
  8
Object
100
AcDbLine
 10
17.41678082994719
 20
5.567
 30
0.0
 11
17.19278082994719
 21
5.451999999999999
 31
0.0
  0
LINE
  5
13EA
330
18
100
AcDbEntity
  8
Object
100
AcDbLine
 10
17.19278082994719
 20
5.451999999999999
 30
0.0
 11
16.96078082994718
 21
5.352
 31
0.0
  0
LINE
  5
13EB
330
18
100
AcDbEntity
  8
Object
100
AcDbLine
 10
16.96078082994718
 20
5.352
 30
0.0
 11
16.72378082994718
 21
5.267
 31
0.0
  0
LINE
  5
13EC
330
18
100
AcDbEntity
  8
Object
100
AcDbLine
 10
16.72378082994718
 20
5.267
 30
0.0
 11
16.48178082994719
 21
5.197
 31
0.0
  0
LINE
  5
13ED
330
18
100
AcDbEntity
  8
Object
100
AcDbLine
 10
16.48178082994719
 20
5.197
 30
0.0
 11
16.23678082994718
 21
5.142
 31
0.0
  0
LINE
  5
13EE
330
18
100
AcDbEntity
  8
Object
100
AcDbLine
 10
16.23678082994718
 20
5.142
 30
0.0
 11
15.98778082994719
 21
5.102
 31
0.0
  0
LINE
  5
13EF
330
18
100
AcDbEntity
  8
Object
100
AcDbLine
 10
15.98778082994719
 20
5.102
 30
0.0
 11
15.73678082994718
 21
5.078999999999999
 31
0.0
  0
LINE
  5
13F0
330
18
100
AcDbEntity
  8
Object
100
AcDbLine
 10
15.73678082994718
 20
5.078999999999999
 30
0.0
 11
15.48478082994719
 21
5.070999999999999
 31
0.0
  0
LINE
  5
13F1
330
18
100
AcDbEntity
  8
Object
100
AcDbLine
 10
12.58278082994719
 20
5.150999999999999
 30
0.0
 11
12.58278082994719
 21
5.155
 31
0.0
  0
LINE
  5
13F2
330
18
100
AcDbEntity
  8
Object
100
AcDbLine
 10
12.58278082994719
 20
5.155
 30
0.0
 11
12.58278082994719
 21
5.166
 31
0.0
  0
LINE
  5
13F3
330
18
100
AcDbEntity
  8
Object
100
AcDbLine
 10
12.58278082994719
 20
5.166
 30
0.0
 11
12.58278082994719
 21
5.181
 31
0.0
  0
LINE
  5
13F4
330
18
100
AcDbEntity
  8
Object
100
AcDbLine
 10
12.57078082994719
 20
5.150999999999999
 30
0.0
 11
12.55778082994719
 21
5.155
 31
0.0
  0
LINE
  5
13F5
330
18
100
AcDbEntity
  8
Object
100
AcDbLine
 10
12.55778082994719
 20
5.155
 30
0.0
 11
12.54678082994719
 21
5.166
 31
0.0
  0
LINE
  5
13F6
330
18
100
AcDbEntity
  8
Object
100
AcDbLine
 10
12.54678082994719
 20
5.166
 30
0.0
 11
12.54278082994719
 21
5.181
 31
0.0
  0
LINE
  5
13F7
330
18
100
AcDbEntity
  8
Object
100
AcDbLine
 10
14.12778082994719
 20
5.158999999999999
 30
0.0
 11
14.13678082994719
 21
5.153
 31
0.0
  0
LINE
  5
13F8
330
18
100
AcDbEntity
  8
Object
100
AcDbLine
 10
14.13678082994719
 20
5.153
 30
0.0
 11
14.13978082994719
 21
5.150999999999999
 31
0.0
  0
LINE
  5
13F9
330
18
100
AcDbEntity
  8
Object
100
AcDbLine
 10
14.13978082994719
 20
5.150999999999999
 30
0.0
 11
12.58278082994719
 21
5.150999999999999
 31
0.0
  0
LINE
  5
13FA
330
18
100
AcDbEntity
  8
Object
100
AcDbLine
 10
14.12778082994719
 20
5.158999999999999
 30
0.0
 11
14.11478082994719
 21
5.169999999999999
 31
0.0
  0
LINE
  5
13FB
330
18
100
AcDbEntity
  8
Object
100
AcDbLine
 10
14.11478082994719
 20
5.169999999999999
 30
0.0
 11
14.09978082994719
 21
5.181
 31
0.0
  0
LINE
  5
13FC
330
18
100
AcDbEntity
  8
Object
100
AcDbLine
 10
14.14478082994718
 20
5.149
 30
0.0
 11
14.14678082994719
 21
5.147999999999999
 31
0.0
  0
LINE
  5
13FD
330
18
100
AcDbEntity
  8
Object
100
AcDbLine
 10
14.14678082994719
 20
5.147999999999999
 30
0.0
 11
14.14378082994718
 21
5.15
 31
0.0
  0
LINE
  5
13FE
330
18
100
AcDbEntity
  8
Object
100
AcDbLine
 10
14.14378082994718
 20
5.15
 30
0.0
 11
14.14278082994719
 21
5.150999999999999
 31
0.0
  0
LINE
  5
13FF
330
18
100
AcDbEntity
  8
Object
100
AcDbLine
 10
14.14378082994718
 20
5.15
 30
0.0
 11
14.14678082994719
 21
5.147999999999999
 31
0.0
  0
LINE
  5
1400
330
18
100
AcDbEntity
  8
Object
100
AcDbLine
 10
14.14678082994719
 20
5.147999999999999
 30
0.0
 11
14.14478082994718
 21
5.149
 31
0.0
  0
LINE
  5
1401
330
18
100
AcDbEntity
  8
Object
100
AcDbLine
 10
14.14478082994718
 20
5.149
 30
0.0
 11
14.14278082994719
 21
5.15
 31
0.0
  0
LINE
  5
1402
330
18
100
AcDbEntity
  8
Object
100
AcDbLine
 10
14.14278082994719
 20
5.15
 30
0.0
 11
14.13978082994719
 21
5.150999999999999
 31
0.0
  0
LINE
  5
1403
330
18
100
AcDbEntity
  8
Object
100
AcDbLine
 10
14.14278082994719
 20
5.150999999999999
 30
0.0
 11
14.14378082994718
 21
5.15
 31
0.0
  0
LINE
  5
1404
330
18
100
AcDbEntity
  8
Object
100
AcDbLine
 10
14.14378082994718
 20
5.15
 30
0.0
 11
14.13278082994718
 21
5.16
 31
0.0
  0
LINE
  5
1405
330
18
100
AcDbEntity
  8
Object
100
AcDbLine
 10
14.14378082994718
 20
5.15
 30
0.0
 11
14.13578082994719
 21
5.158999999999999
 31
0.0
  0
LINE
  5
1406
330
18
100
AcDbEntity
  8
Object
100
AcDbLine
 10
12.55778082994719
 20
5.155
 30
0.0
 11
12.54678082994719
 21
5.166
 31
0.0
  0
LINE
  5
1407
330
18
100
AcDbEntity
  8
Object
100
AcDbLine
 10
12.54678082994719
 20
5.166
 30
0.0
 11
12.54278082994719
 21
5.181
 31
0.0
  0
LINE
  5
1408
330
18
100
AcDbEntity
  8
Object
100
AcDbLine
 10
14.22678082994719
 20
5.073
 30
0.0
 11
14.22778082994718
 21
5.070999999999999
 31
0.0
  0
LINE
  5
1409
330
18
100
AcDbEntity
  8
Object
100
AcDbLine
 10
14.22778082994718
 20
5.070999999999999
 30
0.0
 11
14.22578082994719
 21
5.070999999999999
 31
0.0
  0
LINE
  5
140A
330
18
100
AcDbEntity
  8
Object
100
AcDbLine
 10
14.21978082994719
 20
5.075
 30
0.0
 11
14.22078082994719
 21
5.073999999999999
 31
0.0
  0
LINE
  5
140B
330
18
100
AcDbEntity
  8
Object
100
AcDbLine
 10
14.22678082994719
 20
5.073
 30
0.0
 11
14.22078082994719
 21
5.078999999999999
 31
0.0
  0
LINE
  5
140C
330
18
100
AcDbEntity
  8
Object
100
AcDbLine
 10
14.22278082994719
 20
5.072
 30
0.0
 11
14.22578082994719
 21
5.070999999999999
 31
0.0
  0
LINE
  5
140D
330
18
100
AcDbEntity
  8
Object
100
AcDbLine
 10
14.21978082994719
 20
5.075
 30
0.0
 11
14.21278082994718
 21
5.081
 31
0.0
  0
LINE
  5
140E
330
18
100
AcDbEntity
  8
Object
100
AcDbLine
 10
14.21278082994718
 20
5.081
 30
0.0
 11
14.20278082994719
 21
5.092
 31
0.0
  0
LINE
  5
140F
330
18
100
AcDbEntity
  8
Object
100
AcDbLine
 10
14.22078082994719
 20
5.078999999999999
 30
0.0
 11
14.20978082994718
 21
5.091
 31
0.0
  0
LINE
  5
1410
330
18
100
AcDbEntity
  8
Object
100
AcDbLine
 10
14.20978082994718
 20
5.091
 30
0.0
 11
14.19478082994719
 21
5.105999999999999
 31
0.0
  0
LINE
  5
1411
330
18
100
AcDbEntity
  8
Object
100
AcDbLine
 10
14.18778082994719
 20
5.107
 30
0.0
 11
14.20278082994719
 21
5.092
 31
0.0
  0
LINE
  5
1412
330
18
100
AcDbEntity
  8
Object
100
AcDbLine
 10
14.19478082994719
 20
5.105999999999999
 30
0.0
 11
14.17678082994719
 21
5.126
 31
0.0
  0
LINE
  5
1413
330
18
100
AcDbEntity
  8
Object
100
AcDbLine
 10
14.16978082994719
 20
5.125
 30
0.0
 11
14.18778082994719
 21
5.107
 31
0.0
  0
LINE
  5
1414
330
18
100
AcDbEntity
  8
Object
100
AcDbLine
 10
14.17678082994719
 20
5.126
 30
0.0
 11
14.15678082994719
 21
5.147999999999999
 31
0.0
  0
LINE
  5
1415
330
18
100
AcDbEntity
  8
Object
100
AcDbLine
 10
14.14978082994719
 20
5.145
 30
0.0
 11
14.16978082994719
 21
5.125
 31
0.0
  0
LINE
  5
1416
330
18
100
AcDbEntity
  8
Object
100
AcDbLine
 10
14.15678082994719
 20
5.147999999999999
 30
0.0
 11
14.13578082994719
 21
5.171
 31
0.0
  0
LINE
  5
1417
330
18
100
AcDbEntity
  8
Object
100
AcDbLine
 10
14.12878082994718
 20
5.166
 30
0.0
 11
14.14978082994719
 21
5.145
 31
0.0
  0
LINE
  5
1418
330
18
100
AcDbEntity
  8
Object
100
AcDbLine
 10
14.13578082994719
 20
5.171
 30
0.0
 11
14.11478082994719
 21
5.193
 31
0.0
  0
LINE
  5
1419
330
18
100
AcDbEntity
  8
Object
100
AcDbLine
 10
14.10778082994719
 20
5.187
 30
0.0
 11
14.12878082994718
 21
5.166
 31
0.0
  0
LINE
  5
141A
330
18
100
AcDbEntity
  8
Object
100
AcDbLine
 10
14.14478082994718
 20
5.149
 30
0.0
 11
14.14678082994719
 21
5.147999999999999
 31
0.0
  0
LINE
  5
141B
330
18
100
AcDbEntity
  8
Object
100
AcDbLine
 10
14.14678082994719
 20
5.147999999999999
 30
0.0
 11
14.14478082994718
 21
5.149
 31
0.0
  0
LINE
  5
141C
330
18
100
AcDbEntity
  8
Object
100
AcDbLine
 10
14.14478082994718
 20
5.149
 30
0.0
 11
14.14678082994719
 21
5.147999999999999
 31
0.0
  0
LINE
  5
141D
330
18
100
AcDbEntity
  8
Object
100
AcDbLine
 10
14.14678082994719
 20
5.147999999999999
 30
0.0
 11
14.14478082994718
 21
5.149
 31
0.0
  0
LINE
  5
141E
330
18
100
AcDbEntity
  8
Object
100
AcDbLine
 10
14.14478082994718
 20
5.149
 30
0.0
 11
14.14278082994719
 21
5.15
 31
0.0
  0
LINE
  5
141F
330
18
100
AcDbEntity
  8
Object
100
AcDbLine
 10
14.23678082994719
 20
5.230999999999999
 30
0.0
 11
14.22478082994719
 21
5.230999999999999
 31
0.0
  0
LINE
  5
1420
330
18
100
AcDbEntity
  8
Object
100
AcDbLine
 10
14.22478082994719
 20
5.230999999999999
 30
0.0
 11
14.21478082994719
 21
5.230999999999999
 31
0.0
  0
LINE
  5
1421
330
18
100
AcDbEntity
  8
Object
100
AcDbLine
 10
14.21478082994719
 20
5.230999999999999
 30
0.0
 11
14.17378082994719
 21
5.230999999999999
 31
0.0
  0
LINE
  5
1422
330
18
100
AcDbEntity
  8
Object
100
AcDbLine
 10
14.06378082994718
 20
5.230999999999999
 30
0.0
 11
14.06378082994718
 21
5.23
 31
0.0
  0
LINE
  5
1423
330
18
100
AcDbEntity
  8
Object
100
AcDbLine
 10
12.58078082994719
 20
5.230999999999999
 30
0.0
 11
14.17378082994719
 21
5.230999999999999
 31
0.0
  0
LINE
  5
1424
330
18
100
AcDbEntity
  8
Object
100
AcDbLine
 10
14.22778082994718
 20
5.070999999999999
 30
0.0
 11
14.22578082994719
 21
5.070999999999999
 31
0.0
  0
LINE
  5
1425
330
18
100
AcDbEntity
  8
Object
100
AcDbLine
 10
14.22578082994719
 20
5.070999999999999
 30
0.0
 11
14.22278082994719
 21
5.072
 31
0.0
  0
LINE
  5
1426
330
18
100
AcDbEntity
  8
Object
100
AcDbLine
 10
14.21978082994719
 20
5.075
 30
0.0
 11
14.22078082994719
 21
5.073999999999999
 31
0.0
  0
LINE
  5
1427
330
18
100
AcDbEntity
  8
Object
100
AcDbLine
 10
14.11178082994719
 20
5.19
 30
0.0
 11
14.11478082994719
 21
5.193
 31
0.0
  0
LINE
  5
1428
330
18
100
AcDbEntity
  8
Object
100
AcDbLine
 10
14.11478082994719
 20
5.193
 30
0.0
 11
14.07778082994719
 21
5.230999999999999
 31
0.0
  0
LINE
  5
1429
330
18
100
AcDbEntity
  8
Object
100
AcDbLine
 10
14.11178082994719
 20
5.19
 30
0.0
 11
14.10878082994719
 21
5.187
 31
0.0
  0
LINE
  5
142A
330
18
100
AcDbEntity
  8
Object
100
AcDbLine
 10
14.10878082994719
 20
5.187
 30
0.0
 11
14.10778082994719
 21
5.187
 31
0.0
  0
LINE
  5
142B
330
18
100
AcDbEntity
  8
Object
100
AcDbLine
 10
14.10778082994719
 20
5.187
 30
0.0
 11
14.06378082994718
 21
5.230999999999999
 31
0.0
  0
LINE
  5
142C
330
18
100
AcDbEntity
  8
Object
100
AcDbLine
 10
15.48478082994719
 20
5.076999999999999
 30
0.0
 11
15.48478082994719
 21
5.070999999999999
 31
0.0
  0
LINE
  5
142D
330
18
100
AcDbEntity
  8
Object
100
AcDbLine
 10
15.48478082994719
 20
5.070999999999999
 30
0.0
 11
14.22778082994718
 21
5.070999999999999
 31
0.0
  0
LINE
  5
142E
330
18
100
AcDbEntity
  8
Object
100
AcDbLine
 10
15.48478082994719
 20
5.076999999999999
 30
0.0
 11
15.48478082994719
 21
5.094
 31
0.0
  0
LINE
  5
142F
330
18
100
AcDbEntity
  8
Object
100
AcDbLine
 10
15.48478082994719
 20
5.094
 30
0.0
 11
15.48478082994719
 21
5.121
 31
0.0
  0
LINE
  5
1430
330
18
100
AcDbEntity
  8
Object
100
AcDbLine
 10
15.48478082994719
 20
5.121
 30
0.0
 11
15.48478082994719
 21
5.155
 31
0.0
  0
LINE
  5
1431
330
18
100
AcDbEntity
  8
Object
100
AcDbLine
 10
15.48478082994719
 20
5.155
 30
0.0
 11
15.48478082994719
 21
5.193
 31
0.0
  0
LINE
  5
1432
330
18
100
AcDbEntity
  8
Object
100
AcDbLine
 10
12.58078082994719
 20
5.230999999999999
 30
0.0
 11
12.56678082994719
 21
5.233
 31
0.0
  0
LINE
  5
1433
330
18
100
AcDbEntity
  8
Object
100
AcDbLine
 10
12.56678082994719
 20
5.233
 30
0.0
 11
12.55278082994718
 21
5.241999999999999
 31
0.0
  0
LINE
  5
1434
330
18
100
AcDbEntity
  8
Object
100
AcDbLine
 10
12.55278082994718
 20
5.241999999999999
 30
0.0
 11
12.54378082994719
 21
5.256
 31
0.0
  0
LINE
  5
1435
330
18
100
AcDbEntity
  8
Object
100
AcDbLine
 10
12.54378082994719
 20
5.256
 30
0.0
 11
12.54078082994719
 21
5.270999999999999
 31
0.0
  0
LINE
  5
1436
330
18
100
AcDbEntity
  8
Object
100
AcDbLine
 10
14.15278082994719
 20
5.238999999999999
 30
0.0
 11
14.16278082994718
 21
5.233
 31
0.0
  0
LINE
  5
1437
330
18
100
AcDbEntity
  8
Object
100
AcDbLine
 10
14.16278082994718
 20
5.233
 30
0.0
 11
14.17378082994719
 21
5.230999999999999
 31
0.0
  0
LINE
  5
1438
330
18
100
AcDbEntity
  8
Object
100
AcDbLine
 10
14.17378082994719
 20
5.230999999999999
 30
0.0
 11
12.58078082994719
 21
5.230999999999999
 31
0.0
  0
LINE
  5
1439
330
18
100
AcDbEntity
  8
Object
100
AcDbLine
 10
14.15278082994719
 20
5.238999999999999
 30
0.0
 11
14.14378082994718
 21
5.248999999999999
 31
0.0
  0
LINE
  5
143A
330
18
100
AcDbEntity
  8
Object
100
AcDbLine
 10
14.14378082994718
 20
5.248999999999999
 30
0.0
 11
14.13178082994719
 21
5.259999999999999
 31
0.0
  0
LINE
  5
143B
330
18
100
AcDbEntity
  8
Object
100
AcDbLine
 10
12.58078082994719
 20
5.245
 30
0.0
 11
12.58078082994719
 21
5.259999999999999
 31
0.0
  0
LINE
  5
143C
330
18
100
AcDbEntity
  8
Object
100
AcDbLine
 10
12.57778082994718
 20
5.261
 30
0.0
 11
12.57378082994718
 21
5.262999999999999
 31
0.0
  0
LINE
  5
143D
330
18
100
AcDbEntity
  8
Object
100
AcDbLine
 10
12.58078082994719
 20
5.245
 30
0.0
 11
12.58078082994719
 21
5.235
 31
0.0
  0
LINE
  5
143E
330
18
100
AcDbEntity
  8
Object
100
AcDbLine
 10
12.58078082994719
 20
5.235
 30
0.0
 11
12.58078082994719
 21
5.230999999999999
 31
0.0
  0
LINE
  5
143F
330
18
100
AcDbEntity
  8
Object
100
AcDbLine
 10
12.58078082994719
 20
5.230999999999999
 30
0.0
 11
12.56678082994719
 21
5.233
 31
0.0
  0
LINE
  5
1440
330
18
100
AcDbEntity
  8
Object
100
AcDbLine
 10
12.57378082994718
 20
5.262999999999999
 30
0.0
 11
12.57178082994719
 21
5.266
 31
0.0
  0
LINE
  5
1441
330
18
100
AcDbEntity
  8
Object
100
AcDbLine
 10
12.57178082994719
 20
5.266
 30
0.0
 11
12.57078082994719
 21
5.27
 31
0.0
  0
LINE
  5
1442
330
18
100
AcDbEntity
  8
Object
100
AcDbLine
 10
12.56678082994719
 20
5.233
 30
0.0
 11
12.55278082994718
 21
5.241999999999999
 31
0.0
  0
LINE
  5
1443
330
18
100
AcDbEntity
  8
Object
100
AcDbLine
 10
12.55278082994718
 20
5.241999999999999
 30
0.0
 11
12.54378082994719
 21
5.256
 31
0.0
  0
LINE
  5
1444
330
18
100
AcDbEntity
  8
Object
100
AcDbLine
 10
12.54378082994719
 20
5.256
 30
0.0
 11
12.54078082994719
 21
5.270999999999999
 31
0.0
  0
LINE
  5
1445
330
18
100
AcDbEntity
  8
Object
100
AcDbLine
 10
13.29078082994719
 20
5.959
 30
0.0
 11
13.29078082994719
 21
5.961
 31
0.0
  0
LINE
  5
1446
330
18
100
AcDbEntity
  8
Object
100
AcDbLine
 10
15.38178082994719
 20
7.0
 30
0.0
 11
15.38378082994719
 21
7.08
 31
0.0
  0
LINE
  5
1447
330
18
100
AcDbEntity
  8
Object
100
AcDbLine
 10
15.34378082994719
 20
7.08
 30
0.0
 11
15.34178082994719
 21
7.0
 31
0.0
  0
LINE
  5
1448
330
18
100
AcDbEntity
  8
Object
100
AcDbLine
 10
15.34178082994719
 20
7.0
 30
0.0
 11
14.52778082994719
 21
7.0
 31
0.0
  0
LINE
  5
1449
330
18
100
AcDbEntity
  8
Object
100
AcDbLine
 10
14.52778082994719
 20
7.0
 30
0.0
 11
14.44778082994719
 21
7.08
 31
0.0
  0
LINE
  5
144A
330
18
100
AcDbEntity
  8
Object
100
AcDbLine
 10
14.44778082994719
 20
7.08
 30
0.0
 11
15.34378082994719
 21
7.08
 31
0.0
  0
LINE
  5
144B
330
18
100
AcDbEntity
  8
Object
100
AcDbLine
 10
15.38178082994719
 20
7.08
 30
0.0
 11
15.38378082994719
 21
7.08
 31
0.0
  0
LINE
  5
144C
330
18
100
AcDbEntity
  8
Object
100
AcDbLine
 10
15.38378082994719
 20
7.08
 30
0.0
 11
15.38178082994719
 21
7.0
 31
0.0
  0
LINE
  5
144D
330
18
100
AcDbEntity
  8
Object
100
AcDbLine
 10
15.38178082994719
 20
7.0
 30
0.0
 11
15.37878082994718
 21
7.0
 31
0.0
  0
LINE
  5
144E
330
18
100
AcDbEntity
  8
Object
100
AcDbLine
 10
15.38178082994719
 20
7.08
 30
0.0
 11
15.37278082994719
 21
7.08
 31
0.0
  0
LINE
  5
144F
330
18
100
AcDbEntity
  8
Object
100
AcDbLine
 10
15.36978082994719
 20
7.0
 30
0.0
 11
15.37878082994718
 21
7.0
 31
0.0
  0
LINE
  5
1450
330
18
100
AcDbEntity
  8
Object
100
AcDbLine
 10
15.37278082994719
 20
7.08
 30
0.0
 11
15.35878082994719
 21
7.08
 31
0.0
  0
LINE
  5
1451
330
18
100
AcDbEntity
  8
Object
100
AcDbLine
 10
15.35578082994718
 20
7.0
 30
0.0
 11
15.36978082994719
 21
7.0
 31
0.0
  0
LINE
  5
1452
330
18
100
AcDbEntity
  8
Object
100
AcDbLine
 10
15.35878082994719
 20
7.08
 30
0.0
 11
15.34378082994719
 21
7.08
 31
0.0
  0
LINE
  5
1453
330
18
100
AcDbEntity
  8
Object
100
AcDbLine
 10
15.34178082994719
 20
7.0
 30
0.0
 11
15.35578082994718
 21
7.0
 31
0.0
  0
LINE
  5
1454
330
18
100
AcDbEntity
  8
Object
100
AcDbLine
 10
14.44778082994719
 20
7.08
 30
0.0
 11
14.52778082994719
 21
7.0
 31
0.0
  0
LINE
  5
1455
330
18
100
AcDbEntity
  8
Object
100
AcDbLine
 10
15.39078082994719
 20
7.08
 30
0.0
 11
15.39378082994718
 21
7.08
 31
0.0
  0
LINE
  5
1456
330
18
100
AcDbEntity
  8
Object
100
AcDbLine
 10
15.39378082994718
 20
7.08
 30
0.0
 11
15.39178082994719
 21
7.0
 31
0.0
  0
LINE
  5
1457
330
18
100
AcDbEntity
  8
Object
100
AcDbLine
 10
15.39178082994719
 20
7.0
 30
0.0
 11
15.38778082994719
 21
7.0
 31
0.0
  0
LINE
  5
1458
330
18
100
AcDbEntity
  8
Object
100
AcDbLine
 10
15.39078082994719
 20
7.08
 30
0.0
 11
15.38678082994719
 21
7.08
 31
0.0
  0
LINE
  5
1459
330
18
100
AcDbEntity
  8
Object
100
AcDbLine
 10
15.38778082994719
 20
7.0
 30
0.0
 11
15.38478082994719
 21
7.0
 31
0.0
  0
LINE
  5
145A
330
18
100
AcDbEntity
  8
Object
100
AcDbLine
 10
15.38478082994719
 20
7.0
 30
0.0
 11
15.38178082994719
 21
7.0
 31
0.0
  0
LINE
  5
145B
330
18
100
AcDbEntity
  8
Object
100
AcDbLine
 10
15.38178082994719
 20
7.0
 30
0.0
 11
15.38478082994719
 21
7.08
 31
0.0
  0
LINE
  5
145C
330
18
100
AcDbEntity
  8
Object
100
AcDbLine
 10
15.38478082994719
 20
7.08
 30
0.0
 11
15.38378082994719
 21
7.08
 31
0.0
  0
LINE
  5
145D
330
18
100
AcDbEntity
  8
Object
100
AcDbLine
 10
15.38678082994719
 20
7.08
 30
0.0
 11
15.38478082994719
 21
7.08
 31
0.0
  0
LINE
  5
145E
330
18
100
AcDbEntity
  8
Object
100
AcDbLine
 10
15.38478082994719
 20
7.08
 30
0.0
 11
15.38178082994719
 21
7.0
 31
0.0
  0
LINE
  5
145F
330
18
100
AcDbEntity
  8
Object
100
AcDbLine
 10
15.39378082994718
 20
7.08
 30
0.0
 11
15.48478082994719
 21
7.08
 31
0.0
  0
LINE
  5
1460
330
18
100
AcDbEntity
  8
Object
100
AcDbLine
 10
15.48478082994719
 20
7.08
 30
0.0
 11
15.48478082994719
 21
7.0
 31
0.0
  0
LINE
  5
1461
330
18
100
AcDbEntity
  8
Object
100
AcDbLine
 10
15.48478082994719
 20
7.0
 30
0.0
 11
15.39178082994719
 21
7.0
 31
0.0
  0
LINE
  5
1462
330
18
100
AcDbEntity
  8
Object
100
AcDbLine
 10
19.49478082994719
 20
9.08
 30
0.0
 11
19.48678082994718
 21
8.827999999999999
 31
0.0
  0
LINE
  5
1463
330
18
100
AcDbEntity
  8
Object
100
AcDbLine
 10
19.48678082994718
 20
8.827999999999999
 30
0.0
 11
19.46278082994719
 21
8.577999999999999
 31
0.0
  0
LINE
  5
1464
330
18
100
AcDbEntity
  8
Object
100
AcDbLine
 10
19.46278082994719
 20
8.577999999999999
 30
0.0
 11
19.42378082994719
 21
8.329
 31
0.0
  0
LINE
  5
1465
330
18
100
AcDbEntity
  8
Object
100
AcDbLine
 10
19.42378082994719
 20
8.329
 30
0.0
 11
19.36878082994718
 21
8.083
 31
0.0
  0
LINE
  5
1466
330
18
100
AcDbEntity
  8
Object
100
AcDbLine
 10
19.36878082994718
 20
8.083
 30
0.0
 11
19.29878082994719
 21
7.841
 31
0.0
  0
LINE
  5
1467
330
18
100
AcDbEntity
  8
Object
100
AcDbLine
 10
19.29878082994719
 20
7.841
 30
0.0
 11
19.21278082994719
 21
7.604
 31
0.0
  0
LINE
  5
1468
330
18
100
AcDbEntity
  8
Object
100
AcDbLine
 10
19.21278082994719
 20
7.604
 30
0.0
 11
19.11278082994719
 21
7.373
 31
0.0
  0
LINE
  5
1469
330
18
100
AcDbEntity
  8
Object
100
AcDbLine
 10
19.11278082994719
 20
7.373
 30
0.0
 11
18.99878082994719
 21
7.149
 31
0.0
  0
LINE
  5
146A
330
18
100
AcDbEntity
  8
Object
100
AcDbLine
 10
18.99878082994719
 20
7.149
 30
0.0
 11
18.87078082994718
 21
6.932
 31
0.0
  0
LINE
  5
146B
330
18
100
AcDbEntity
  8
Object
100
AcDbLine
 10
18.87078082994718
 20
6.932
 30
0.0
 11
18.72878082994718
 21
6.722999999999999
 31
0.0
  0
LINE
  5
146C
330
18
100
AcDbEntity
  8
Object
100
AcDbLine
 10
18.72878082994718
 20
6.722999999999999
 30
0.0
 11
18.57478082994719
 21
6.524
 31
0.0
  0
LINE
  5
146D
330
18
100
AcDbEntity
  8
Object
100
AcDbLine
 10
18.57478082994719
 20
6.524
 30
0.0
 11
18.40778082994719
 21
6.334999999999999
 31
0.0
  0
LINE
  5
146E
330
18
100
AcDbEntity
  8
Object
100
AcDbLine
 10
18.40778082994719
 20
6.334999999999999
 30
0.0
 11
18.22978082994719
 21
6.157
 31
0.0
  0
LINE
  5
146F
330
18
100
AcDbEntity
  8
Object
100
AcDbLine
 10
18.22978082994719
 20
6.157
 30
0.0
 11
18.04078082994719
 21
5.991
 31
0.0
  0
LINE
  5
1470
330
18
100
AcDbEntity
  8
Object
100
AcDbLine
 10
18.04078082994719
 20
5.991
 30
0.0
 11
17.84178082994718
 21
5.836
 31
0.0
  0
LINE
  5
1471
330
18
100
AcDbEntity
  8
Object
100
AcDbLine
 10
17.84178082994718
 20
5.836
 30
0.0
 11
17.63378082994719
 21
5.695
 31
0.0
  0
LINE
  5
1472
330
18
100
AcDbEntity
  8
Object
100
AcDbLine
 10
17.63378082994719
 20
5.695
 30
0.0
 11
17.41678082994719
 21
5.567
 31
0.0
  0
LINE
  5
1473
330
18
100
AcDbEntity
  8
Object
100
AcDbLine
 10
17.41678082994719
 20
5.567
 30
0.0
 11
17.19278082994719
 21
5.451999999999999
 31
0.0
  0
LINE
  5
1474
330
18
100
AcDbEntity
  8
Object
100
AcDbLine
 10
17.19278082994719
 20
5.451999999999999
 30
0.0
 11
16.96078082994718
 21
5.352
 31
0.0
  0
LINE
  5
1475
330
18
100
AcDbEntity
  8
Object
100
AcDbLine
 10
16.96078082994718
 20
5.352
 30
0.0
 11
16.72378082994718
 21
5.267
 31
0.0
  0
LINE
  5
1476
330
18
100
AcDbEntity
  8
Object
100
AcDbLine
 10
16.72378082994718
 20
5.267
 30
0.0
 11
16.48178082994719
 21
5.197
 31
0.0
  0
LINE
  5
1477
330
18
100
AcDbEntity
  8
Object
100
AcDbLine
 10
16.48178082994719
 20
5.197
 30
0.0
 11
16.23678082994718
 21
5.142
 31
0.0
  0
LINE
  5
1478
330
18
100
AcDbEntity
  8
Object
100
AcDbLine
 10
16.23678082994718
 20
5.142
 30
0.0
 11
15.98778082994719
 21
5.102
 31
0.0
  0
LINE
  5
1479
330
18
100
AcDbEntity
  8
Object
100
AcDbLine
 10
15.98778082994719
 20
5.102
 30
0.0
 11
15.73678082994718
 21
5.078999999999999
 31
0.0
  0
LINE
  5
147A
330
18
100
AcDbEntity
  8
Object
100
AcDbLine
 10
15.73678082994718
 20
5.078999999999999
 30
0.0
 11
15.48478082994719
 21
5.070999999999999
 31
0.0
  0
LINE
  5
147B
330
18
100
AcDbEntity
  8
Object
100
AcDbLine
 10
15.48478082994719
 20
5.070999999999999
 30
0.0
 11
14.22778082994718
 21
5.070999999999999
 31
0.0
  0
LINE
  5
147C
330
18
100
AcDbEntity
  8
Object
100
AcDbLine
 10
17.70178082994719
 20
10.048
 30
0.0
 11
17.56378082994719
 21
10.186
 31
0.0
  0
LINE
  5
147D
330
18
100
AcDbEntity
  8
Object
100
AcDbLine
 10
17.56378082994719
 20
10.186
 30
0.0
 11
17.55278082994719
 21
10.197
 31
0.0
  0
LINE
  5
147E
330
18
100
AcDbEntity
  8
Object
100
AcDbLine
 10
17.55278082994719
 20
10.197
 30
0.0
 11
17.54378082994719
 21
10.207
 31
0.0
  0
LINE
  5
147F
330
18
100
AcDbEntity
  8
Object
100
AcDbLine
 10
17.54378082994719
 20
10.207
 30
0.0
 11
17.53778082994719
 21
10.211
 31
0.0
  0
LINE
  5
1480
330
18
100
AcDbEntity
  8
Object
100
AcDbLine
 10
17.61978082994719
 20
9.15
 30
0.0
 11
17.61978082994719
 21
9.150999999999999
 31
0.0
  0
LINE
  5
1481
330
18
100
AcDbEntity
  8
Object
100
AcDbLine
 10
17.61978082994719
 20
9.150999999999999
 30
0.0
 11
17.61678082994719
 21
9.15
 31
0.0
  0
LINE
  5
1482
330
18
100
AcDbEntity
  8
Object
100
AcDbLine
 10
17.69578082994719
 20
9.153
 30
0.0
 11
17.61978082994719
 21
9.150999999999999
 31
0.0
  0
LINE
  5
1483
330
18
100
AcDbEntity
  8
Object
100
AcDbLine
 10
17.61978082994719
 20
9.150999999999999
 30
0.0
 11
17.61678082994719
 21
9.15
 31
0.0
  0
LINE
  5
1484
330
18
100
AcDbEntity
  8
Object
100
AcDbLine
 10
17.69578082994719
 20
9.153
 30
0.0
 11
17.56378082994719
 21
9.149
 31
0.0
  0
LINE
  5
1485
330
18
100
AcDbEntity
  8
Object
100
AcDbLine
 10
17.56378082994719
 20
9.149
 30
0.0
 11
17.55278082994719
 21
9.147999999999999
 31
0.0
  0
LINE
  5
1486
330
18
100
AcDbEntity
  8
Object
100
AcDbLine
 10
17.55278082994719
 20
9.147999999999999
 30
0.0
 11
17.54378082994719
 21
9.147999999999999
 31
0.0
  0
LINE
  5
1487
330
18
100
AcDbEntity
  8
Object
100
AcDbLine
 10
17.54378082994719
 20
9.147999999999999
 30
0.0
 11
17.53778082994719
 21
9.147999999999999
 31
0.0
  0
LINE
  5
1488
330
18
100
AcDbEntity
  8
Object
100
AcDbLine
 10
17.88478082994719
 20
12.022
 30
0.0
 11
17.56378082994719
 21
12.022
 31
0.0
  0
LINE
  5
1489
330
18
100
AcDbEntity
  8
Object
100
AcDbLine
 10
17.56378082994719
 20
12.022
 30
0.0
 11
17.54978082994719
 21
12.022
 31
0.0
  0
LINE
  5
148A
330
18
100
AcDbEntity
  8
Object
100
AcDbLine
 10
17.54978082994719
 20
12.022
 30
0.0
 11
17.53878082994719
 21
12.022
 31
0.0
  0
LINE
  5
148B
330
18
100
AcDbEntity
  8
Object
100
AcDbLine
 10
17.53878082994719
 20
12.022
 30
0.0
 11
17.53478082994719
 21
12.022
 31
0.0
  0
LINE
  5
148C
330
18
100
AcDbEntity
  8
Object
100
AcDbLine
 10
17.69578082994719
 20
9.153
 30
0.0
 11
17.61978082994719
 21
9.150999999999999
 31
0.0
  0
LINE
  5
148D
330
18
100
AcDbEntity
  8
Object
100
AcDbLine
 10
17.56378082994719
 20
12.022
 30
0.0
 11
17.56378082994719
 21
10.186
 31
0.0
  0
LINE
  5
148E
330
18
100
AcDbEntity
  8
Object
100
AcDbLine
 10
17.56378082994719
 20
10.186
 30
0.0
 11
17.55278082994719
 21
10.197
 31
0.0
  0
LINE
  5
148F
330
18
100
AcDbEntity
  8
Object
100
AcDbLine
 10
17.56378082994719
 20
12.022
 30
0.0
 11
17.54978082994719
 21
12.022
 31
0.0
  0
LINE
  5
1490
330
18
100
AcDbEntity
  8
Object
100
AcDbLine
 10
17.54378082994719
 20
10.207
 30
0.0
 11
17.55278082994719
 21
10.197
 31
0.0
  0
LINE
  5
1491
330
18
100
AcDbEntity
  8
Object
100
AcDbLine
 10
17.54978082994719
 20
12.022
 30
0.0
 11
17.53878082994719
 21
12.022
 31
0.0
  0
LINE
  5
1492
330
18
100
AcDbEntity
  8
Object
100
AcDbLine
 10
17.53778082994719
 20
10.211
 30
0.0
 11
17.54378082994719
 21
10.207
 31
0.0
  0
LINE
  5
1493
330
18
100
AcDbEntity
  8
Object
100
AcDbLine
 10
17.53878082994719
 20
12.022
 30
0.0
 11
17.53478082994719
 21
12.022
 31
0.0
  0
LINE
  5
1494
330
18
100
AcDbEntity
  8
Object
100
AcDbLine
 10
17.53478082994719
 20
12.022
 30
0.0
 11
17.53478082994719
 21
10.225
 31
0.0
  0
LINE
  5
1495
330
18
100
AcDbEntity
  8
Object
100
AcDbLine
 10
17.53478082994719
 20
10.225
 30
0.0
 11
17.53478082994719
 21
12.022
 31
0.0
  0
LINE
  5
1496
330
18
100
AcDbEntity
  8
Object
100
AcDbLine
 10
17.88478082994719
 20
9.079
 30
0.0
 11
17.88478082994719
 21
12.022
 31
0.0
  0
LINE
  5
1497
330
18
100
AcDbEntity
  8
Object
100
AcDbLine
 10
17.70478082994718
 20
9.16
 30
0.0
 11
17.70478082994718
 21
9.163
 31
0.0
  0
LINE
  5
1498
330
18
100
AcDbEntity
  8
Object
100
AcDbLine
 10
17.70478082994718
 20
9.163
 30
0.0
 11
17.70478082994718
 21
10.041
 31
0.0
  0
LINE
  5
1499
330
18
100
AcDbEntity
  8
Object
100
AcDbLine
 10
17.70478082994718
 20
10.041
 30
0.0
 11
17.70378082994719
 21
10.045
 31
0.0
  0
LINE
  5
149A
330
18
100
AcDbEntity
  8
Object
100
AcDbLine
 10
17.70378082994719
 20
10.045
 30
0.0
 11
17.70178082994719
 21
10.048
 31
0.0
  0
LINE
  5
149B
330
18
100
AcDbEntity
  8
Object
100
AcDbLine
 10
17.70478082994718
 20
9.16
 30
0.0
 11
17.70178082994719
 21
9.156
 31
0.0
  0
LINE
  5
149C
330
18
100
AcDbEntity
  8
Object
100
AcDbLine
 10
17.70178082994719
 20
9.156
 30
0.0
 11
17.69878082994719
 21
9.153999999999999
 31
0.0
  0
LINE
  5
149D
330
18
100
AcDbEntity
  8
Object
100
AcDbLine
 10
17.69878082994719
 20
9.153999999999999
 30
0.0
 11
17.69578082994719
 21
9.153
 31
0.0
  0
LINE
  5
149E
330
18
100
AcDbEntity
  8
Object
100
AcDbLine
 10
17.56378082994719
 20
10.186
 30
0.0
 11
17.70178082994719
 21
10.048
 31
0.0
  0
LINE
  5
149F
330
18
100
AcDbEntity
  8
Object
100
AcDbLine
 10
17.88478082994719
 20
12.022
 30
0.0
 11
17.56378082994719
 21
12.022
 31
0.0
  0
LINE
  5
14A0
330
18
100
AcDbEntity
  8
Object
100
AcDbLine
 10
17.69578082994719
 20
9.153
 30
0.0
 11
17.56378082994719
 21
9.149
 31
0.0
  0
LINE
  5
14A1
330
18
100
AcDbEntity
  8
Object
100
AcDbLine
 10
17.70478082994718
 20
10.041
 30
0.0
 11
17.70378082994719
 21
10.045
 31
0.0
  0
LINE
  5
14A2
330
18
100
AcDbEntity
  8
Object
100
AcDbLine
 10
17.70378082994719
 20
10.045
 30
0.0
 11
17.70178082994719
 21
10.048
 31
0.0
  0
LINE
  5
14A3
330
18
100
AcDbEntity
  8
Object
100
AcDbLine
 10
17.70478082994718
 20
9.163
 30
0.0
 11
17.70478082994718
 21
9.16
 31
0.0
  0
LINE
  5
14A4
330
18
100
AcDbEntity
  8
Object
100
AcDbLine
 10
17.70478082994718
 20
9.16
 30
0.0
 11
17.70178082994719
 21
9.156
 31
0.0
  0
LINE
  5
14A5
330
18
100
AcDbEntity
  8
Object
100
AcDbLine
 10
17.70178082994719
 20
9.156
 30
0.0
 11
17.69878082994719
 21
9.153999999999999
 31
0.0
  0
LINE
  5
14A6
330
18
100
AcDbEntity
  8
Object
100
AcDbLine
 10
17.69878082994719
 20
9.153999999999999
 30
0.0
 11
17.69578082994719
 21
9.153
 31
0.0
  0
LINE
  5
14A7
330
18
100
AcDbEntity
  8
Object
100
AcDbLine
 10
17.55278082994719
 20
9.147999999999999
 30
0.0
 11
17.56378082994719
 21
9.149
 31
0.0
  0
LINE
  5
14A8
330
18
100
AcDbEntity
  8
Object
100
AcDbLine
 10
17.56378082994719
 20
9.149
 30
0.0
 11
17.56378082994719
 21
9.079
 31
0.0
  0
LINE
  5
14A9
330
18
100
AcDbEntity
  8
Object
100
AcDbLine
 10
17.55278082994719
 20
9.147999999999999
 30
0.0
 11
17.54378082994719
 21
9.147999999999999
 31
0.0
  0
LINE
  5
14AA
330
18
100
AcDbEntity
  8
Object
100
AcDbLine
 10
17.54378082994719
 20
9.147999999999999
 30
0.0
 11
17.53778082994719
 21
9.147999999999999
 31
0.0
  0
LINE
  5
14AB
330
18
100
AcDbEntity
  8
Object
100
AcDbLine
 10
17.88478082994719
 20
9.079
 30
0.0
 11
17.88478082994719
 21
12.022
 31
0.0
  0
LINE
  5
14AC
330
18
100
AcDbEntity
  8
Object
100
AcDbLine
 10
17.70478082994718
 20
10.041
 30
0.0
 11
17.70478082994718
 21
9.163
 31
0.0
  0
LINE
  5
14AD
330
18
100
AcDbEntity
  8
Object
100
AcDbLine
 10
16.67278082994718
 20
7.472999999999999
 30
0.0
 11
16.56978082994719
 21
7.408
 31
0.0
  0
LINE
  5
14AE
330
18
100
AcDbEntity
  8
Object
100
AcDbLine
 10
16.56978082994719
 20
7.408
 30
0.0
 11
16.42078082994719
 21
7.33
 31
0.0
  0
LINE
  5
14AF
330
18
100
AcDbEntity
  8
Object
100
AcDbLine
 10
16.42078082994719
 20
7.33
 30
0.0
 11
16.26478082994719
 21
7.265
 31
0.0
  0
LINE
  5
14B0
330
18
100
AcDbEntity
  8
Object
100
AcDbLine
 10
16.26478082994719
 20
7.265
 30
0.0
 11
16.10478082994719
 21
7.214999999999999
 31
0.0
  0
LINE
  5
14B1
330
18
100
AcDbEntity
  8
Object
100
AcDbLine
 10
16.10478082994719
 20
7.214999999999999
 30
0.0
 11
15.93978082994718
 21
7.177999999999999
 31
0.0
  0
LINE
  5
14B2
330
18
100
AcDbEntity
  8
Object
100
AcDbLine
 10
15.93978082994718
 20
7.177999999999999
 30
0.0
 11
15.77278082994719
 21
7.156
 31
0.0
  0
LINE
  5
14B3
330
18
100
AcDbEntity
  8
Object
100
AcDbLine
 10
15.77278082994719
 20
7.156
 30
0.0
 11
15.60478082994719
 21
7.149
 31
0.0
  0
LINE
  5
14B4
330
18
100
AcDbEntity
  8
Object
100
AcDbLine
 10
17.56378082994719
 20
9.079
 30
0.0
 11
17.88478082994719
 21
9.079
 31
0.0
  0
LINE
  5
14B5
330
18
100
AcDbEntity
  8
Object
100
AcDbLine
 10
17.88478082994719
 20
9.079
 30
0.0
 11
17.87678082994719
 21
8.891
 31
0.0
  0
LINE
  5
14B6
330
18
100
AcDbEntity
  8
Object
100
AcDbLine
 10
17.87678082994719
 20
8.891
 30
0.0
 11
17.85378082994719
 21
8.704
 31
0.0
  0
LINE
  5
14B7
330
18
100
AcDbEntity
  8
Object
100
AcDbLine
 10
17.55678082994718
 20
8.907999999999999
 30
0.0
 11
17.53378082994719
 21
8.739
 31
0.0
  0
LINE
  5
14B8
330
18
100
AcDbEntity
  8
Object
100
AcDbLine
 10
17.85378082994719
 20
8.704
 30
0.0
 11
17.81478082994719
 21
8.519
 31
0.0
  0
LINE
  5
14B9
330
18
100
AcDbEntity
  8
Object
100
AcDbLine
 10
17.81478082994719
 20
8.519
 30
0.0
 11
17.76178082994719
 21
8.339
 31
0.0
  0
LINE
  5
14BA
330
18
100
AcDbEntity
  8
Object
100
AcDbLine
 10
17.53378082994719
 20
8.739
 30
0.0
 11
17.49678082994719
 21
8.572
 31
0.0
  0
LINE
  5
14BB
330
18
100
AcDbEntity
  8
Object
100
AcDbLine
 10
17.49678082994719
 20
8.572
 30
0.0
 11
17.44578082994719
 21
8.409
 31
0.0
  0
LINE
  5
14BC
330
18
100
AcDbEntity
  8
Object
100
AcDbLine
 10
17.76178082994719
 20
8.339
 30
0.0
 11
17.69278082994719
 21
8.163
 31
0.0
  0
LINE
  5
14BD
330
18
100
AcDbEntity
  8
Object
100
AcDbLine
 10
17.69278082994719
 20
8.163
 30
0.0
 11
17.60978082994719
 21
7.993999999999999
 31
0.0
  0
LINE
  5
14BE
330
18
100
AcDbEntity
  8
Object
100
AcDbLine
 10
17.44578082994719
 20
8.409
 30
0.0
 11
17.38078082994719
 21
8.250999999999999
 31
0.0
  0
LINE
  5
14BF
330
18
100
AcDbEntity
  8
Object
100
AcDbLine
 10
17.38078082994719
 20
8.250999999999999
 30
0.0
 11
17.30178082994719
 21
8.099
 31
0.0
  0
LINE
  5
14C0
330
18
100
AcDbEntity
  8
Object
100
AcDbLine
 10
17.51378082994718
 20
7.831999999999999
 30
0.0
 11
17.60978082994719
 21
7.993999999999999
 31
0.0
  0
LINE
  5
14C1
330
18
100
AcDbEntity
  8
Object
100
AcDbLine
 10
17.30178082994719
 20
8.099
 30
0.0
 11
17.20978082994719
 21
7.955
 31
0.0
  0
LINE
  5
14C2
330
18
100
AcDbEntity
  8
Object
100
AcDbLine
 10
17.40378082994719
 20
7.679
 30
0.0
 11
17.51378082994718
 21
7.831999999999999
 31
0.0
  0
LINE
  5
14C3
330
18
100
AcDbEntity
  8
Object
100
AcDbLine
 10
17.20978082994719
 20
7.955
 30
0.0
 11
17.10578082994719
 21
7.82
 31
0.0
  0
LINE
  5
14C4
330
18
100
AcDbEntity
  8
Object
100
AcDbLine
 10
17.40378082994719
 20
7.679
 30
0.0
 11
17.28278082994719
 21
7.535
 31
0.0
  0
LINE
  5
14C5
330
18
100
AcDbEntity
  8
Object
100
AcDbLine
 10
17.28278082994719
 20
7.535
 30
0.0
 11
17.14878082994719
 21
7.402
 31
0.0
  0
LINE
  5
14C6
330
18
100
AcDbEntity
  8
Object
100
AcDbLine
 10
17.10578082994719
 20
7.82
 30
0.0
 11
16.98978082994718
 21
7.693999999999999
 31
0.0
  0
LINE
  5
14C7
330
18
100
AcDbEntity
  8
Object
100
AcDbLine
 10
16.98978082994718
 20
7.693999999999999
 30
0.0
 11
16.86378082994719
 21
7.578
 31
0.0
  0
LINE
  5
14C8
330
18
100
AcDbEntity
  8
Object
100
AcDbLine
 10
17.14878082994719
 20
7.402
 30
0.0
 11
17.00578082994718
 21
7.28
 31
0.0
  0
LINE
  5
14C9
330
18
100
AcDbEntity
  8
Object
100
AcDbLine
 10
17.00578082994718
 20
7.28
 30
0.0
 11
16.85178082994719
 21
7.169999999999999
 31
0.0
  0
LINE
  5
14CA
330
18
100
AcDbEntity
  8
Object
100
AcDbLine
 10
16.86378082994719
 20
7.578
 30
0.0
 11
16.72878082994718
 21
7.474
 31
0.0
  0
LINE
  5
14CB
330
18
100
AcDbEntity
  8
Object
100
AcDbLine
 10
16.72878082994718
 20
7.474
 30
0.0
 11
16.58478082994718
 21
7.382
 31
0.0
  0
LINE
  5
14CC
330
18
100
AcDbEntity
  8
Object
100
AcDbLine
 10
16.68978082994719
 20
7.073999999999999
 30
0.0
 11
16.85178082994719
 21
7.169999999999999
 31
0.0
  0
LINE
  5
14CD
330
18
100
AcDbEntity
  8
Object
100
AcDbLine
 10
16.58478082994718
 20
7.382
 30
0.0
 11
16.43278082994719
 21
7.304
 31
0.0
  0
LINE
  5
14CE
330
18
100
AcDbEntity
  8
Object
100
AcDbLine
 10
16.52078082994719
 20
6.991
 30
0.0
 11
16.68978082994719
 21
7.073999999999999
 31
0.0
  0
LINE
  5
14CF
330
18
100
AcDbEntity
  8
Object
100
AcDbLine
 10
16.43278082994719
 20
7.304
 30
0.0
 11
16.27478082994719
 21
7.238
 31
0.0
  0
LINE
  5
14D0
330
18
100
AcDbEntity
  8
Object
100
AcDbLine
 10
16.52078082994719
 20
6.991
 30
0.0
 11
16.34578082994719
 21
6.923
 31
0.0
  0
LINE
  5
14D1
330
18
100
AcDbEntity
  8
Object
100
AcDbLine
 10
16.34578082994719
 20
6.923
 30
0.0
 11
16.16478082994718
 21
6.868999999999999
 31
0.0
  0
LINE
  5
14D2
330
18
100
AcDbEntity
  8
Object
100
AcDbLine
 10
16.27478082994719
 20
7.238
 30
0.0
 11
16.11178082994718
 21
7.187
 31
0.0
  0
LINE
  5
14D3
330
18
100
AcDbEntity
  8
Object
100
AcDbLine
 10
16.11178082994718
 20
7.187
 30
0.0
 11
15.94478082994719
 21
7.15
 31
0.0
  0
LINE
  5
14D4
330
18
100
AcDbEntity
  8
Object
100
AcDbLine
 10
16.16478082994718
 20
6.868999999999999
 30
0.0
 11
15.98078082994718
 21
6.83
 31
0.0
  0
LINE
  5
14D5
330
18
100
AcDbEntity
  8
Object
100
AcDbLine
 10
15.98078082994718
 20
6.83
 30
0.0
 11
15.79378082994719
 21
6.807
 31
0.0
  0
LINE
  5
14D6
330
18
100
AcDbEntity
  8
Object
100
AcDbLine
 10
15.94478082994719
 20
7.15
 30
0.0
 11
15.77578082994719
 21
7.126999999999999
 31
0.0
  0
LINE
  5
14D7
330
18
100
AcDbEntity
  8
Object
100
AcDbLine
 10
15.77578082994719
 20
7.126999999999999
 30
0.0
 11
15.60478082994719
 21
7.12
 31
0.0
  0
LINE
  5
14D8
330
18
100
AcDbEntity
  8
Object
100
AcDbLine
 10
15.60478082994719
 20
6.799
 30
0.0
 11
15.79378082994719
 21
6.807
 31
0.0
  0
LINE
  5
14D9
330
18
100
AcDbEntity
  8
Object
100
AcDbLine
 10
15.53578082994719
 20
7.149
 30
0.0
 11
15.53578082994719
 21
7.147
 31
0.0
  0
LINE
  5
14DA
330
18
100
AcDbEntity
  8
Object
100
AcDbLine
 10
15.53578082994719
 20
7.147
 30
0.0
 11
15.53578082994719
 21
7.141
 31
0.0
  0
LINE
  5
14DB
330
18
100
AcDbEntity
  8
Object
100
AcDbLine
 10
15.53578082994719
 20
7.141
 30
0.0
 11
15.53578082994719
 21
7.131
 31
0.0
  0
LINE
  5
14DC
330
18
100
AcDbEntity
  8
Object
100
AcDbLine
 10
15.53578082994719
 20
7.131
 30
0.0
 11
15.53478082994718
 21
7.12
 31
0.0
  0
LINE
  5
14DD
330
18
100
AcDbEntity
  8
Object
100
AcDbLine
 10
15.53478082994718
 20
7.121999999999999
 30
0.0
 11
15.53578082994719
 21
7.149
 31
0.0
  0
LINE
  5
14DE
330
18
100
AcDbEntity
  8
Object
100
AcDbLine
 10
15.53478082994718
 20
7.12
 30
0.0
 11
15.53078082994719
 21
6.988999999999999
 31
0.0
  0
LINE
  5
14DF
330
18
100
AcDbEntity
  8
Object
100
AcDbLine
 10
15.53078082994719
 20
6.988999999999999
 30
0.0
 11
15.53078082994719
 21
7.001999999999999
 31
0.0
  0
LINE
  5
14E0
330
18
100
AcDbEntity
  8
Object
100
AcDbLine
 10
15.53478082994718
 20
7.121999999999999
 30
0.0
 11
15.53578082994719
 21
7.149
 31
0.0
  0
LINE
  5
14E1
330
18
100
AcDbEntity
  8
Object
100
AcDbLine
 10
15.53578082994719
 20
7.149
 30
0.0
 11
14.46878082994718
 21
7.149
 31
0.0
  0
LINE
  5
14E2
330
18
100
AcDbEntity
  8
Object
100
AcDbLine
 10
12.66178082994718
 20
7.134999999999999
 30
0.0
 11
12.66178082994718
 21
7.145
 31
0.0
  0
LINE
  5
14E3
330
18
100
AcDbEntity
  8
Object
100
AcDbLine
 10
12.66178082994718
 20
7.145
 30
0.0
 11
12.66178082994718
 21
7.149
 31
0.0
  0
LINE
  5
14E4
330
18
100
AcDbEntity
  8
Object
100
AcDbLine
 10
12.66178082994718
 20
7.134999999999999
 30
0.0
 11
12.66178082994718
 21
7.12
 31
0.0
  0
LINE
  5
14E5
330
18
100
AcDbEntity
  8
Object
100
AcDbLine
 10
12.66178082994718
 20
7.12
 30
0.0
 11
12.66178082994718
 21
6.799
 31
0.0
  0
LINE
  5
14E6
330
18
100
AcDbEntity
  8
Object
100
AcDbLine
 10
14.53778082994719
 20
7.08
 30
0.0
 11
14.49778082994719
 21
7.12
 31
0.0
  0
LINE
  5
14E7
330
18
100
AcDbEntity
  8
Object
100
AcDbLine
 10
14.63578082994718
 20
6.982
 30
0.0
 11
14.61778082994719
 21
7.0
 31
0.0
  0
LINE
  5
14E8
330
18
100
AcDbEntity
  8
Object
100
AcDbLine
 10
14.49778082994719
 20
7.12
 30
0.0
 11
14.48678082994718
 21
7.131
 31
0.0
  0
LINE
  5
14E9
330
18
100
AcDbEntity
  8
Object
100
AcDbLine
 10
14.48678082994718
 20
7.131
 30
0.0
 11
14.47678082994719
 21
7.141
 31
0.0
  0
LINE
  5
14EA
330
18
100
AcDbEntity
  8
Object
100
AcDbLine
 10
14.47678082994719
 20
7.141
 30
0.0
 11
14.47078082994719
 21
7.147
 31
0.0
  0
LINE
  5
14EB
330
18
100
AcDbEntity
  8
Object
100
AcDbLine
 10
14.47078082994719
 20
7.147
 30
0.0
 11
14.46878082994718
 21
7.149
 31
0.0
  0
LINE
  5
14EC
330
18
100
AcDbEntity
  8
Object
100
AcDbLine
 10
17.54978082994719
 20
9.079
 30
0.0
 11
17.56378082994719
 21
9.079
 31
0.0
  0
LINE
  5
14ED
330
18
100
AcDbEntity
  8
Object
100
AcDbLine
 10
17.56378082994719
 20
9.079
 30
0.0
 11
17.55678082994718
 21
8.907999999999999
 31
0.0
  0
LINE
  5
14EE
330
18
100
AcDbEntity
  8
Object
100
AcDbLine
 10
17.54978082994719
 20
9.079
 30
0.0
 11
17.53878082994719
 21
9.079
 31
0.0
  0
LINE
  5
14EF
330
18
100
AcDbEntity
  8
Object
100
AcDbLine
 10
17.53878082994719
 20
9.079
 30
0.0
 11
17.53778082994719
 21
9.079
 31
0.0
  0
LINE
  5
14F0
330
18
100
AcDbEntity
  8
Object
100
AcDbLine
 10
16.67278082994718
 20
7.472999999999999
 30
0.0
 11
16.56978082994719
 21
7.408
 31
0.0
  0
LINE
  5
14F1
330
18
100
AcDbEntity
  8
Object
100
AcDbLine
 10
16.56978082994719
 20
7.408
 30
0.0
 11
16.42078082994719
 21
7.33
 31
0.0
  0
LINE
  5
14F2
330
18
100
AcDbEntity
  8
Object
100
AcDbLine
 10
16.42078082994719
 20
7.33
 30
0.0
 11
16.26478082994719
 21
7.265
 31
0.0
  0
LINE
  5
14F3
330
18
100
AcDbEntity
  8
Object
100
AcDbLine
 10
16.26478082994719
 20
7.265
 30
0.0
 11
16.10478082994719
 21
7.214999999999999
 31
0.0
  0
LINE
  5
14F4
330
18
100
AcDbEntity
  8
Object
100
AcDbLine
 10
16.10478082994719
 20
7.214999999999999
 30
0.0
 11
15.93978082994718
 21
7.177999999999999
 31
0.0
  0
LINE
  5
14F5
330
18
100
AcDbEntity
  8
Object
100
AcDbLine
 10
15.93978082994718
 20
7.177999999999999
 30
0.0
 11
15.77278082994719
 21
7.156
 31
0.0
  0
LINE
  5
14F6
330
18
100
AcDbEntity
  8
Object
100
AcDbLine
 10
15.77278082994719
 20
7.156
 30
0.0
 11
15.60478082994719
 21
7.149
 31
0.0
  0
LINE
  5
14F7
330
18
100
AcDbEntity
  8
Object
100
AcDbLine
 10
17.88478082994719
 20
9.079
 30
0.0
 11
17.87678082994719
 21
8.891
 31
0.0
  0
LINE
  5
14F8
330
18
100
AcDbEntity
  8
Object
100
AcDbLine
 10
17.87678082994719
 20
8.891
 30
0.0
 11
17.85378082994719
 21
8.704
 31
0.0
  0
LINE
  5
14F9
330
18
100
AcDbEntity
  8
Object
100
AcDbLine
 10
17.85378082994719
 20
8.704
 30
0.0
 11
17.81478082994719
 21
8.519
 31
0.0
  0
LINE
  5
14FA
330
18
100
AcDbEntity
  8
Object
100
AcDbLine
 10
17.81478082994719
 20
8.519
 30
0.0
 11
17.76178082994719
 21
8.339
 31
0.0
  0
LINE
  5
14FB
330
18
100
AcDbEntity
  8
Object
100
AcDbLine
 10
17.76178082994719
 20
8.339
 30
0.0
 11
17.69278082994719
 21
8.163
 31
0.0
  0
LINE
  5
14FC
330
18
100
AcDbEntity
  8
Object
100
AcDbLine
 10
17.69278082994719
 20
8.163
 30
0.0
 11
17.60978082994719
 21
7.993999999999999
 31
0.0
  0
LINE
  5
14FD
330
18
100
AcDbEntity
  8
Object
100
AcDbLine
 10
17.60978082994719
 20
7.993999999999999
 30
0.0
 11
17.51378082994718
 21
7.831999999999999
 31
0.0
  0
LINE
  5
14FE
330
18
100
AcDbEntity
  8
Object
100
AcDbLine
 10
17.51378082994718
 20
7.831999999999999
 30
0.0
 11
17.40378082994719
 21
7.679
 31
0.0
  0
LINE
  5
14FF
330
18
100
AcDbEntity
  8
Object
100
AcDbLine
 10
17.40378082994719
 20
7.679
 30
0.0
 11
17.28278082994719
 21
7.535
 31
0.0
  0
LINE
  5
1500
330
18
100
AcDbEntity
  8
Object
100
AcDbLine
 10
17.28278082994719
 20
7.535
 30
0.0
 11
17.14878082994719
 21
7.402
 31
0.0
  0
LINE
  5
1501
330
18
100
AcDbEntity
  8
Object
100
AcDbLine
 10
17.14878082994719
 20
7.402
 30
0.0
 11
17.00578082994718
 21
7.28
 31
0.0
  0
LINE
  5
1502
330
18
100
AcDbEntity
  8
Object
100
AcDbLine
 10
17.00578082994718
 20
7.28
 30
0.0
 11
16.85178082994719
 21
7.169999999999999
 31
0.0
  0
LINE
  5
1503
330
18
100
AcDbEntity
  8
Object
100
AcDbLine
 10
16.85178082994719
 20
7.169999999999999
 30
0.0
 11
16.68978082994719
 21
7.073999999999999
 31
0.0
  0
LINE
  5
1504
330
18
100
AcDbEntity
  8
Object
100
AcDbLine
 10
16.68978082994719
 20
7.073999999999999
 30
0.0
 11
16.52078082994719
 21
6.991
 31
0.0
  0
LINE
  5
1505
330
18
100
AcDbEntity
  8
Object
100
AcDbLine
 10
16.52078082994719
 20
6.991
 30
0.0
 11
16.34578082994719
 21
6.923
 31
0.0
  0
LINE
  5
1506
330
18
100
AcDbEntity
  8
Object
100
AcDbLine
 10
16.34578082994719
 20
6.923
 30
0.0
 11
16.16478082994718
 21
6.868999999999999
 31
0.0
  0
LINE
  5
1507
330
18
100
AcDbEntity
  8
Object
100
AcDbLine
 10
16.16478082994718
 20
6.868999999999999
 30
0.0
 11
15.98078082994718
 21
6.83
 31
0.0
  0
LINE
  5
1508
330
18
100
AcDbEntity
  8
Object
100
AcDbLine
 10
15.98078082994718
 20
6.83
 30
0.0
 11
15.79378082994719
 21
6.807
 31
0.0
  0
LINE
  5
1509
330
18
100
AcDbEntity
  8
Object
100
AcDbLine
 10
15.79378082994719
 20
6.807
 30
0.0
 11
15.60478082994719
 21
6.799
 31
0.0
  0
LINE
  5
150A
330
18
100
AcDbEntity
  8
Object
100
AcDbLine
 10
15.53078082994719
 20
7.001999999999999
 30
0.0
 11
15.53078082994719
 21
6.988999999999999
 31
0.0
  0
LINE
  5
150B
330
18
100
AcDbEntity
  8
Object
100
AcDbLine
 10
15.60478082994719
 20
7.149
 30
0.0
 11
15.53578082994719
 21
7.149
 31
0.0
  0
LINE
  5
150C
330
18
100
AcDbEntity
  8
Object
100
AcDbLine
 10
15.53578082994719
 20
7.149
 30
0.0
 11
14.46878082994718
 21
7.149
 31
0.0
  0
LINE
  5
150D
330
18
100
AcDbEntity
  8
Object
100
AcDbLine
 10
14.46878082994718
 20
7.149
 30
0.0
 11
12.66178082994718
 21
7.149
 31
0.0
  0
LINE
  5
150E
330
18
100
AcDbEntity
  8
Object
100
AcDbLine
 10
15.53078082994719
 20
6.988999999999999
 30
0.0
 11
15.53478082994718
 21
7.12
 31
0.0
  0
LINE
  5
150F
330
18
100
AcDbEntity
  8
Object
100
AcDbLine
 10
15.53478082994718
 20
7.12
 30
0.0
 11
15.60478082994719
 21
7.12
 31
0.0
  0
LINE
  5
1510
330
18
100
AcDbEntity
  8
Object
100
AcDbLine
 10
15.60478082994719
 20
7.12
 30
0.0
 11
15.60478082994719
 21
6.799
 31
0.0
  0
LINE
  5
1511
330
18
100
AcDbEntity
  8
Object
100
AcDbLine
 10
15.53078082994719
 20
6.988999999999999
 30
0.0
 11
15.52978082994719
 21
6.985
 31
0.0
  0
LINE
  5
1512
330
18
100
AcDbEntity
  8
Object
100
AcDbLine
 10
15.52978082994719
 20
6.985
 30
0.0
 11
15.52778082994719
 21
6.982
 31
0.0
  0
LINE
  5
1513
330
18
100
AcDbEntity
  8
Object
100
AcDbLine
 10
15.52778082994719
 20
6.982
 30
0.0
 11
15.52378082994718
 21
6.98
 31
0.0
  0
LINE
  5
1514
330
18
100
AcDbEntity
  8
Object
100
AcDbLine
 10
15.52378082994718
 20
6.98
 30
0.0
 11
15.52078082994719
 21
6.979
 31
0.0
  0
LINE
  5
1515
330
18
100
AcDbEntity
  8
Object
100
AcDbLine
 10
15.52078082994719
 20
6.979
 30
0.0
 11
14.64278082994719
 21
6.979
 31
0.0
  0
LINE
  5
1516
330
18
100
AcDbEntity
  8
Object
100
AcDbLine
 10
14.53778082994719
 20
7.08
 30
0.0
 11
14.49778082994719
 21
7.12
 31
0.0
  0
LINE
  5
1517
330
18
100
AcDbEntity
  8
Object
100
AcDbLine
 10
14.63578082994718
 20
6.982
 30
0.0
 11
14.61778082994719
 21
7.0
 31
0.0
  0
LINE
  5
1518
330
18
100
AcDbEntity
  8
Object
100
AcDbLine
 10
12.66178082994718
 20
6.799
 30
0.0
 11
12.66178082994718
 21
7.12
 31
0.0
  0
LINE
  5
1519
330
18
100
AcDbEntity
  8
Object
100
AcDbLine
 10
12.66178082994718
 20
7.12
 30
0.0
 11
14.49778082994719
 21
7.12
 31
0.0
  0
LINE
  5
151A
330
18
100
AcDbEntity
  8
Object
100
AcDbLine
 10
14.63578082994718
 20
6.982
 30
0.0
 11
14.63878082994719
 21
6.98
 31
0.0
  0
LINE
  5
151B
330
18
100
AcDbEntity
  8
Object
100
AcDbLine
 10
14.63878082994719
 20
6.98
 30
0.0
 11
14.64278082994719
 21
6.979
 31
0.0
  0
LINE
  5
151C
330
18
100
AcDbEntity
  8
Object
100
AcDbLine
 10
12.66178082994718
 20
6.799
 30
0.0
 11
15.60478082994719
 21
6.799
 31
0.0
  0
LINE
  5
151D
330
18
100
AcDbEntity
  8
Object
100
AcDbLine
 10
15.60478082994719
 20
7.134999999999999
 30
0.0
 11
15.60478082994719
 21
7.145
 31
0.0
  0
LINE
  5
151E
330
18
100
AcDbEntity
  8
Object
100
AcDbLine
 10
15.53578082994719
 20
7.141
 30
0.0
 11
15.53578082994719
 21
7.147
 31
0.0
  0
LINE
  5
151F
330
18
100
AcDbEntity
  8
Object
100
AcDbLine
 10
15.53578082994719
 20
7.147
 30
0.0
 11
15.53578082994719
 21
7.149
 31
0.0
  0
LINE
  5
1520
330
18
100
AcDbEntity
  8
Object
100
AcDbLine
 10
15.53578082994719
 20
7.149
 30
0.0
 11
15.60478082994719
 21
7.149
 31
0.0
  0
LINE
  5
1521
330
18
100
AcDbEntity
  8
Object
100
AcDbLine
 10
15.60478082994719
 20
7.149
 30
0.0
 11
15.60478082994719
 21
7.145
 31
0.0
  0
LINE
  5
1522
330
18
100
AcDbEntity
  8
Object
100
AcDbLine
 10
15.53578082994719
 20
7.141
 30
0.0
 11
15.53578082994719
 21
7.131
 31
0.0
  0
LINE
  5
1523
330
18
100
AcDbEntity
  8
Object
100
AcDbLine
 10
15.60478082994719
 20
7.12
 30
0.0
 11
15.60478082994719
 21
7.134999999999999
 31
0.0
  0
LINE
  5
1524
330
18
100
AcDbEntity
  8
Object
100
AcDbLine
 10
15.53578082994719
 20
7.131
 30
0.0
 11
15.53478082994718
 21
7.12
 31
0.0
  0
LINE
  5
1525
330
18
100
AcDbEntity
  8
Object
100
AcDbLine
 10
15.53078082994719
 20
6.988999999999999
 30
0.0
 11
15.52978082994719
 21
6.985
 31
0.0
  0
LINE
  5
1526
330
18
100
AcDbEntity
  8
Object
100
AcDbLine
 10
15.52978082994719
 20
6.985
 30
0.0
 11
15.52778082994719
 21
6.982
 31
0.0
  0
LINE
  5
1527
330
18
100
AcDbEntity
  8
Object
100
AcDbLine
 10
15.52778082994719
 20
6.982
 30
0.0
 11
15.52378082994718
 21
6.98
 31
0.0
  0
LINE
  5
1528
330
18
100
AcDbEntity
  8
Object
100
AcDbLine
 10
15.52378082994718
 20
6.98
 30
0.0
 11
15.52078082994719
 21
6.979
 31
0.0
  0
LINE
  5
1529
330
18
100
AcDbEntity
  8
Object
100
AcDbLine
 10
12.66178082994718
 20
7.149
 30
0.0
 11
12.66178082994718
 21
7.145
 31
0.0
  0
LINE
  5
152A
330
18
100
AcDbEntity
  8
Object
100
AcDbLine
 10
14.47678082994719
 20
7.141
 30
0.0
 11
14.47078082994719
 21
7.147
 31
0.0
  0
LINE
  5
152B
330
18
100
AcDbEntity
  8
Object
100
AcDbLine
 10
12.66178082994718
 20
7.134999999999999
 30
0.0
 11
12.66178082994718
 21
7.12
 31
0.0
  0
LINE
  5
152C
330
18
100
AcDbEntity
  8
Object
100
AcDbLine
 10
14.49778082994719
 20
7.12
 30
0.0
 11
14.48678082994718
 21
7.131
 31
0.0
  0
LINE
  5
152D
330
18
100
AcDbEntity
  8
Object
100
AcDbLine
 10
14.48678082994718
 20
7.131
 30
0.0
 11
14.47678082994719
 21
7.141
 31
0.0
  0
LINE
  5
152E
330
18
100
AcDbEntity
  8
Object
100
AcDbLine
 10
12.66178082994718
 20
7.145
 30
0.0
 11
12.66178082994718
 21
7.134999999999999
 31
0.0
  0
LINE
  5
152F
330
18
100
AcDbEntity
  8
Object
100
AcDbLine
 10
12.66178082994718
 20
7.149
 30
0.0
 11
14.46878082994718
 21
7.149
 31
0.0
  0
LINE
  5
1530
330
18
100
AcDbEntity
  8
Object
100
AcDbLine
 10
14.46878082994718
 20
7.149
 30
0.0
 11
14.47078082994719
 21
7.147
 31
0.0
  0
LINE
  5
1531
330
18
100
AcDbEntity
  8
Object
100
AcDbLine
 10
12.66178082994718
 20
6.799
 30
0.0
 11
15.60478082994719
 21
6.799
 31
0.0
  0
LINE
  5
1532
330
18
100
AcDbEntity
  8
Object
100
AcDbLine
 10
14.64278082994719
 20
6.979
 30
0.0
 11
14.63878082994719
 21
6.98
 31
0.0
  0
LINE
  5
1533
330
18
100
AcDbEntity
  8
Object
100
AcDbLine
 10
14.63878082994719
 20
6.98
 30
0.0
 11
14.63578082994718
 21
6.982
 31
0.0
  0
LINE
  5
1534
330
18
100
AcDbEntity
  8
Object
100
AcDbLine
 10
15.52078082994719
 20
6.979
 30
0.0
 11
14.64278082994719
 21
6.979
 31
0.0
  0
LINE
  5
1535
330
18
100
AcDbEntity
  8
Object
100
AcDbLine
 10
6.150780829947187
 20
7.078999999999999
 30
0.0
 11
6.150780829947187
 21
6.975
 31
0.0
  0
LINE
  5
1536
330
18
100
AcDbEntity
  8
Object
100
AcDbLine
 10
6.150780829947187
 20
6.975
 30
0.0
 11
6.150780829947187
 21
6.77
 31
0.0
  0
LINE
  5
1537
330
18
100
AcDbEntity
  8
Object
100
AcDbLine
 10
6.150780829947187
 20
6.77
 30
0.0
 11
6.150780829947187
 21
6.575
 31
0.0
  0
LINE
  5
1538
330
18
100
AcDbEntity
  8
Object
100
AcDbLine
 10
6.150780829947187
 20
6.216
 30
0.0
 11
6.150780829947187
 21
6.39
 31
0.0
  0
LINE
  5
1539
330
18
100
AcDbEntity
  8
Object
100
AcDbLine
 10
6.150780829947187
 20
6.39
 30
0.0
 11
6.150780829947187
 21
6.575
 31
0.0
  0
LINE
  5
153A
330
18
100
AcDbEntity
  8
Object
100
AcDbLine
 10
6.150780829947187
 20
5.900999999999999
 30
0.0
 11
6.150780829947187
 21
6.052
 31
0.0
  0
LINE
  5
153B
330
18
100
AcDbEntity
  8
Object
100
AcDbLine
 10
6.150780829947187
 20
5.637
 30
0.0
 11
6.150780829947187
 21
5.762
 31
0.0
  0
LINE
  5
153C
330
18
100
AcDbEntity
  8
Object
100
AcDbLine
 10
6.150780829947187
 20
5.762
 30
0.0
 11
6.150780829947187
 21
5.900999999999999
 31
0.0
  0
LINE
  5
153D
330
18
100
AcDbEntity
  8
Object
100
AcDbLine
 10
6.150780829947187
 20
6.052
 30
0.0
 11
6.150780829947187
 21
6.216
 31
0.0
  0
LINE
  5
153E
330
18
100
AcDbEntity
  8
Object
100
AcDbLine
 10
6.150780829947187
 20
5.427
 30
0.0
 11
6.150780829947187
 21
5.525
 31
0.0
  0
LINE
  5
153F
330
18
100
AcDbEntity
  8
Object
100
AcDbLine
 10
6.150780829947187
 20
5.342999999999999
 30
0.0
 11
6.150780829947187
 21
5.274
 31
0.0
  0
LINE
  5
1540
330
18
100
AcDbEntity
  8
Object
100
AcDbLine
 10
6.150780829947187
 20
5.274
 30
0.0
 11
6.150780829947187
 21
5.230999999999999
 31
0.0
  0
LINE
  5
1541
330
18
100
AcDbEntity
  8
Object
100
AcDbLine
 10
6.150780829947187
 20
5.342999999999999
 30
0.0
 11
6.150780829947187
 21
5.427
 31
0.0
  0
LINE
  5
1542
330
18
100
AcDbEntity
  8
Object
100
AcDbLine
 10
6.150780829947187
 20
5.525
 30
0.0
 11
6.150780829947187
 21
5.637
 31
0.0
  0
LINE
  5
1543
330
18
100
AcDbEntity
  8
Object
100
AcDbLine
 10
6.195780829947187
 20
7.078999999999999
 30
0.0
 11
6.195780829947187
 21
6.998
 31
0.0
  0
LINE
  5
1544
330
18
100
AcDbEntity
  8
Object
100
AcDbLine
 10
6.195780829947187
 20
6.998
 30
0.0
 11
6.195780829947187
 21
6.796
 31
0.0
  0
LINE
  5
1545
330
18
100
AcDbEntity
  8
Object
100
AcDbLine
 10
6.195780829947187
 20
6.796
 30
0.0
 11
6.195780829947187
 21
6.604
 31
0.0
  0
LINE
  5
1546
330
18
100
AcDbEntity
  8
Object
100
AcDbLine
 10
6.195780829947187
 20
6.248
 30
0.0
 11
6.195780829947187
 21
6.419999999999999
 31
0.0
  0
LINE
  5
1547
330
18
100
AcDbEntity
  8
Object
100
AcDbLine
 10
6.195780829947187
 20
6.419999999999999
 30
0.0
 11
6.195780829947187
 21
6.604
 31
0.0
  0
LINE
  5
1548
330
18
100
AcDbEntity
  8
Object
100
AcDbLine
 10
6.195780829947187
 20
5.937
 30
0.0
 11
6.195780829947187
 21
6.086
 31
0.0
  0
LINE
  5
1549
330
18
100
AcDbEntity
  8
Object
100
AcDbLine
 10
6.195780829947187
 20
5.674999999999999
 30
0.0
 11
6.195780829947187
 21
5.799999999999999
 31
0.0
  0
LINE
  5
154A
330
18
100
AcDbEntity
  8
Object
100
AcDbLine
 10
6.195780829947187
 20
6.086
 30
0.0
 11
6.195780829947187
 21
6.248
 31
0.0
  0
LINE
  5
154B
330
18
100
AcDbEntity
  8
Object
100
AcDbLine
 10
6.195780829947187
 20
5.799999999999999
 30
0.0
 11
6.195780829947187
 21
5.937
 31
0.0
  0
LINE
  5
154C
330
18
100
AcDbEntity
  8
Object
100
AcDbLine
 10
6.195780829947187
 20
5.467999999999999
 30
0.0
 11
6.195780829947187
 21
5.565
 31
0.0
  0
LINE
  5
154D
330
18
100
AcDbEntity
  8
Object
100
AcDbLine
 10
6.195780829947187
 20
5.317
 30
0.0
 11
6.195780829947187
 21
5.384999999999999
 31
0.0
  0
LINE
  5
154E
330
18
100
AcDbEntity
  8
Object
100
AcDbLine
 10
6.195780829947187
 20
5.230999999999999
 30
0.0
 11
6.195780829947187
 21
5.264
 31
0.0
  0
LINE
  5
154F
330
18
100
AcDbEntity
  8
Object
100
AcDbLine
 10
6.195780829947187
 20
5.565
 30
0.0
 11
6.195780829947187
 21
5.674999999999999
 31
0.0
  0
LINE
  5
1550
330
18
100
AcDbEntity
  8
Object
100
AcDbLine
 10
6.195780829947187
 20
5.384999999999999
 30
0.0
 11
6.195780829947187
 21
5.467999999999999
 31
0.0
  0
LINE
  5
1551
330
18
100
AcDbEntity
  8
Object
100
AcDbLine
 10
6.195780829947187
 20
5.264
 30
0.0
 11
6.195780829947187
 21
5.317
 31
0.0
  0
LINE
  5
1552
330
18
100
AcDbEntity
  8
Object
100
AcDbLine
 10
4.386780829947187
 20
6.77
 30
0.0
 11
4.386780829947187
 21
6.975
 31
0.0
  0
LINE
  5
1553
330
18
100
AcDbEntity
  8
Object
100
AcDbLine
 10
4.386780829947187
 20
6.975
 30
0.0
 11
4.386780829947187
 21
7.078999999999999
 31
0.0
  0
LINE
  5
1554
330
18
100
AcDbEntity
  8
Object
100
AcDbLine
 10
4.386780829947187
 20
6.39
 30
0.0
 11
4.386780829947187
 21
6.575
 31
0.0
  0
LINE
  5
1555
330
18
100
AcDbEntity
  8
Object
100
AcDbLine
 10
4.386780829947187
 20
6.575
 30
0.0
 11
4.386780829947187
 21
6.77
 31
0.0
  0
LINE
  5
1556
330
18
100
AcDbEntity
  8
Object
100
AcDbLine
 10
4.386780829947187
 20
6.216
 30
0.0
 11
4.386780829947187
 21
6.39
 31
0.0
  0
LINE
  5
1557
330
18
100
AcDbEntity
  8
Object
100
AcDbLine
 10
4.386780829947187
 20
5.762
 30
0.0
 11
4.386780829947187
 21
5.900999999999999
 31
0.0
  0
LINE
  5
1558
330
18
100
AcDbEntity
  8
Object
100
AcDbLine
 10
4.386780829947187
 20
6.216
 30
0.0
 11
4.386780829947187
 21
6.052
 31
0.0
  0
LINE
  5
1559
330
18
100
AcDbEntity
  8
Object
100
AcDbLine
 10
4.386780829947187
 20
6.052
 30
0.0
 11
4.386780829947187
 21
5.900999999999999
 31
0.0
  0
LINE
  5
155A
330
18
100
AcDbEntity
  8
Object
100
AcDbLine
 10
4.386780829947187
 20
5.637
 30
0.0
 11
4.386780829947187
 21
5.762
 31
0.0
  0
LINE
  5
155B
330
18
100
AcDbEntity
  8
Object
100
AcDbLine
 10
4.386780829947187
 20
5.230999999999999
 30
0.0
 11
4.386780829947187
 21
5.274
 31
0.0
  0
LINE
  5
155C
330
18
100
AcDbEntity
  8
Object
100
AcDbLine
 10
4.386780829947187
 20
5.342999999999999
 30
0.0
 11
4.386780829947187
 21
5.427
 31
0.0
  0
LINE
  5
155D
330
18
100
AcDbEntity
  8
Object
100
AcDbLine
 10
4.386780829947187
 20
5.637
 30
0.0
 11
4.386780829947187
 21
5.525
 31
0.0
  0
LINE
  5
155E
330
18
100
AcDbEntity
  8
Object
100
AcDbLine
 10
4.386780829947187
 20
5.525
 30
0.0
 11
4.386780829947187
 21
5.427
 31
0.0
  0
LINE
  5
155F
330
18
100
AcDbEntity
  8
Object
100
AcDbLine
 10
4.386780829947187
 20
5.274
 30
0.0
 11
4.386780829947187
 21
5.342999999999999
 31
0.0
  0
LINE
  5
1560
330
18
100
AcDbEntity
  8
Object
100
AcDbLine
 10
4.305780829947186
 20
9.08
 30
0.0
 11
4.314780829947187
 21
9.08
 31
0.0
  0
LINE
  5
1561
330
18
100
AcDbEntity
  8
Object
100
AcDbLine
 10
6.227780829947187
 20
10.224
 30
0.0
 11
6.228780829947187
 21
10.213
 31
0.0
  0
LINE
  5
1562
330
18
100
AcDbEntity
  8
Object
100
AcDbLine
 10
6.228780829947187
 20
10.213
 30
0.0
 11
6.228780829947187
 21
9.08
 31
0.0
  0
LINE
  5
1563
330
18
100
AcDbEntity
  8
Object
100
AcDbLine
 10
6.228780829947187
 20
9.08
 30
0.0
 11
6.227780829947187
 21
9.08
 31
0.0
  0
LINE
  5
1564
330
18
100
AcDbEntity
  8
Object
100
AcDbLine
 10
6.228780829947187
 20
7.059
 30
0.0
 11
6.228780829947187
 21
7.051
 31
0.0
  0
LINE
  5
1565
330
18
100
AcDbEntity
  8
Object
100
AcDbLine
 10
6.228780829947187
 20
8.727999999999999
 30
0.0
 11
6.228780829947187
 21
8.903
 31
0.0
  0
LINE
  5
1566
330
18
100
AcDbEntity
  8
Object
100
AcDbLine
 10
6.228780829947187
 20
8.903
 30
0.0
 11
6.228780829947187
 21
9.08
 31
0.0
  0
LINE
  5
1567
330
18
100
AcDbEntity
  8
Object
100
AcDbLine
 10
6.228780829947187
 20
8.727999999999999
 30
0.0
 11
6.228780829947187
 21
8.554999999999999
 31
0.0
  0
LINE
  5
1568
330
18
100
AcDbEntity
  8
Object
100
AcDbLine
 10
6.228780829947187
 20
8.554999999999999
 30
0.0
 11
6.228780829947187
 21
8.386000000000001
 31
0.0
  0
LINE
  5
1569
330
18
100
AcDbEntity
  8
Object
100
AcDbLine
 10
6.228780829947187
 20
8.386000000000001
 30
0.0
 11
6.228780829947187
 21
8.223
 31
0.0
  0
LINE
  5
156A
330
18
100
AcDbEntity
  8
Object
100
AcDbLine
 10
6.228780829947187
 20
7.916
 30
0.0
 11
6.228780829947187
 21
8.066
 31
0.0
  0
LINE
  5
156B
330
18
100
AcDbEntity
  8
Object
100
AcDbLine
 10
6.228780829947187
 20
8.066
 30
0.0
 11
6.228780829947187
 21
8.223
 31
0.0
  0
LINE
  5
156C
330
18
100
AcDbEntity
  8
Object
100
AcDbLine
 10
6.196780829947187
 20
5.230999999999999
 30
0.0
 11
6.228780829947187
 21
7.059
 31
0.0
  0
LINE
  5
156D
330
18
100
AcDbEntity
  8
Object
100
AcDbLine
 10
6.228780829947187
 20
7.059
 30
0.0
 11
6.228780829947187
 21
7.078999999999999
 31
0.0
  0
LINE
  5
156E
330
18
100
AcDbEntity
  8
Object
100
AcDbLine
 10
6.228780829947187
 20
7.059
 30
0.0
 11
6.196780829947187
 21
5.230999999999999
 31
0.0
  0
LINE
  5
156F
330
18
100
AcDbEntity
  8
Object
100
AcDbLine
 10
6.196780829947187
 20
5.230999999999999
 30
0.0
 11
6.228780829947187
 21
7.051
 31
0.0
  0
LINE
  5
1570
330
18
100
AcDbEntity
  8
Object
100
AcDbLine
 10
6.228780829947187
 20
7.051
 30
0.0
 11
6.196780829947187
 21
5.230999999999999
 31
0.0
  0
LINE
  5
1571
330
18
100
AcDbEntity
  8
Object
100
AcDbLine
 10
6.196780829947187
 20
5.230999999999999
 30
0.0
 11
6.228780829947187
 21
7.051
 31
0.0
  0
LINE
  5
1572
330
18
100
AcDbEntity
  8
Object
100
AcDbLine
 10
4.341780829947187
 20
6.796
 30
0.0
 11
4.341780829947187
 21
6.998
 31
0.0
  0
LINE
  5
1573
330
18
100
AcDbEntity
  8
Object
100
AcDbLine
 10
4.341780829947187
 20
6.998
 30
0.0
 11
4.341780829947187
 21
7.078999999999999
 31
0.0
  0
LINE
  5
1574
330
18
100
AcDbEntity
  8
Object
100
AcDbLine
 10
4.341780829947187
 20
6.796
 30
0.0
 11
4.341780829947187
 21
6.604
 31
0.0
  0
LINE
  5
1575
330
18
100
AcDbEntity
  8
Object
100
AcDbLine
 10
4.341780829947187
 20
6.604
 30
0.0
 11
4.341780829947187
 21
6.419999999999999
 31
0.0
  0
LINE
  5
1576
330
18
100
AcDbEntity
  8
Object
100
AcDbLine
 10
4.341780829947187
 20
6.419999999999999
 30
0.0
 11
4.341780829947187
 21
6.248
 31
0.0
  0
LINE
  5
1577
330
18
100
AcDbEntity
  8
Object
100
AcDbLine
 10
4.341780829947187
 20
6.248
 30
0.0
 11
4.341780829947187
 21
6.086
 31
0.0
  0
LINE
  5
1578
330
18
100
AcDbEntity
  8
Object
100
AcDbLine
 10
4.341780829947187
 20
6.086
 30
0.0
 11
4.341780829947187
 21
5.937
 31
0.0
  0
LINE
  5
1579
330
18
100
AcDbEntity
  8
Object
100
AcDbLine
 10
4.341780829947187
 20
5.674999999999999
 30
0.0
 11
4.341780829947187
 21
5.799999999999999
 31
0.0
  0
LINE
  5
157A
330
18
100
AcDbEntity
  8
Object
100
AcDbLine
 10
4.341780829947187
 20
5.799999999999999
 30
0.0
 11
4.341780829947187
 21
5.937
 31
0.0
  0
LINE
  5
157B
330
18
100
AcDbEntity
  8
Object
100
AcDbLine
 10
4.341780829947187
 20
5.674999999999999
 30
0.0
 11
4.341780829947187
 21
5.565
 31
0.0
  0
LINE
  5
157C
330
18
100
AcDbEntity
  8
Object
100
AcDbLine
 10
4.341780829947187
 20
5.565
 30
0.0
 11
4.341780829947187
 21
5.467999999999999
 31
0.0
  0
LINE
  5
157D
330
18
100
AcDbEntity
  8
Object
100
AcDbLine
 10
4.341780829947187
 20
5.384999999999999
 30
0.0
 11
4.341780829947187
 21
5.317
 31
0.0
  0
LINE
  5
157E
330
18
100
AcDbEntity
  8
Object
100
AcDbLine
 10
4.341780829947187
 20
5.317
 30
0.0
 11
4.341780829947187
 21
5.264
 31
0.0
  0
LINE
  5
157F
330
18
100
AcDbEntity
  8
Object
100
AcDbLine
 10
4.309780829947187
 20
7.059
 30
0.0
 11
4.340780829947187
 21
5.230999999999999
 31
0.0
  0
LINE
  5
1580
330
18
100
AcDbEntity
  8
Object
100
AcDbLine
 10
4.341780829947187
 20
5.230999999999999
 30
0.0
 11
4.341780829947187
 21
5.264
 31
0.0
  0
LINE
  5
1581
330
18
100
AcDbEntity
  8
Object
100
AcDbLine
 10
4.341780829947187
 20
5.384999999999999
 30
0.0
 11
4.341780829947187
 21
5.467999999999999
 31
0.0
  0
LINE
  5
1582
330
18
100
AcDbEntity
  8
Object
100
AcDbLine
 10
4.331780829947187
 20
5.767999999999999
 30
0.0
 11
4.309780829947187
 21
7.051
 31
0.0
  0
LINE
  5
1583
330
18
100
AcDbEntity
  8
Object
100
AcDbLine
 10
4.309780829947187
 20
7.051
 30
0.0
 11
4.340780829947187
 21
5.241999999999999
 31
0.0
  0
LINE
  5
1584
330
18
100
AcDbEntity
  8
Object
100
AcDbLine
 10
4.340780829947187
 20
5.241999999999999
 30
0.0
 11
4.309780829947187
 21
7.051
 31
0.0
  0
LINE
  5
1585
330
18
100
AcDbEntity
  8
Object
100
AcDbLine
 10
4.340780829947187
 20
5.230999999999999
 30
0.0
 11
4.309780829947187
 21
7.059
 31
0.0
  0
LINE
  5
1586
330
18
100
AcDbEntity
  8
Object
100
AcDbLine
 10
4.309780829947187
 20
7.059
 30
0.0
 11
4.309780829947187
 21
7.051
 31
0.0
  0
LINE
  5
1587
330
18
100
AcDbEntity
  8
Object
100
AcDbLine
 10
4.309780829947187
 20
10.213
 30
0.0
 11
4.309780829947187
 21
9.08
 31
0.0
  0
LINE
  5
1588
330
18
100
AcDbEntity
  8
Object
100
AcDbLine
 10
4.309780829947187
 20
9.08
 30
0.0
 11
4.304780829947187
 21
9.08
 31
0.0
  0
LINE
  5
1589
330
18
100
AcDbEntity
  8
Object
100
AcDbLine
 10
4.304780829947187
 20
9.08
 30
0.0
 11
4.293780829947187
 21
9.08
 31
0.0
  0
LINE
  5
158A
330
18
100
AcDbEntity
  8
Object
100
AcDbLine
 10
4.293780829947187
 20
9.08
 30
0.0
 11
4.279780829947187
 21
9.08
 31
0.0
  0
LINE
  5
158B
330
18
100
AcDbEntity
  8
Object
100
AcDbLine
 10
4.289780829947186
 20
10.198
 30
0.0
 11
4.279780829947187
 21
10.196
 31
0.0
  0
LINE
  5
158C
330
18
100
AcDbEntity
  8
Object
100
AcDbLine
 10
4.170780829947187
 20
12.022
 30
0.0
 11
4.181780829947187
 21
12.024
 31
0.0
  0
LINE
  5
158D
330
18
100
AcDbEntity
  8
Object
100
AcDbLine
 10
4.181780829947187
 20
12.024
 30
0.0
 11
4.231780829947187
 21
12.024
 31
0.0
  0
LINE
  5
158E
330
18
100
AcDbEntity
  8
Object
100
AcDbLine
 10
4.231780829947187
 20
12.024
 30
0.0
 11
4.231780829947187
 21
12.022
 31
0.0
  0
LINE
  5
158F
330
18
100
AcDbEntity
  8
Object
100
AcDbLine
 10
4.309780829947187
 20
10.213
 30
0.0
 11
4.306780829947187
 21
10.207
 31
0.0
  0
LINE
  5
1590
330
18
100
AcDbEntity
  8
Object
100
AcDbLine
 10
4.306780829947187
 20
10.207
 30
0.0
 11
4.300780829947187
 21
10.201
 31
0.0
  0
LINE
  5
1591
330
18
100
AcDbEntity
  8
Object
100
AcDbLine
 10
4.300780829947187
 20
10.201
 30
0.0
 11
4.289780829947186
 21
10.198
 31
0.0
  0
LINE
  5
1592
330
18
100
AcDbEntity
  8
Object
100
AcDbLine
 10
4.309780829947187
 20
10.213
 30
0.0
 11
4.309780829947187
 21
10.224
 31
0.0
  0
LINE
  5
1593
330
18
100
AcDbEntity
  8
Object
100
AcDbLine
 10
4.279780829947187
 20
10.196
 30
0.0
 11
4.158780829947187
 21
10.196
 31
0.0
  0
LINE
  5
1594
330
18
100
AcDbEntity
  8
Object
100
AcDbLine
 10
4.158780829947187
 20
10.196
 30
0.0
 11
4.160780829947187
 21
10.227
 31
0.0
  0
LINE
  5
1595
330
18
100
AcDbEntity
  8
Object
100
AcDbLine
 10
6.356780829947187
 20
12.024
 30
0.0
 11
6.306780829947187
 21
12.024
 31
0.0
  0
LINE
  5
1596
330
18
100
AcDbEntity
  8
Object
100
AcDbLine
 10
6.376780829947187
 20
10.227
 30
0.0
 11
6.379780829947187
 21
10.196
 31
0.0
  0
LINE
  5
1597
330
18
100
AcDbEntity
  8
Object
100
AcDbLine
 10
6.379780829947187
 20
10.196
 30
0.0
 11
6.258780829947187
 21
10.196
 31
0.0
  0
LINE
  5
1598
330
18
100
AcDbEntity
  8
Object
100
AcDbLine
 10
6.258780829947187
 20
10.196
 30
0.0
 11
6.247780829947187
 21
10.198
 31
0.0
  0
LINE
  5
1599
330
18
100
AcDbEntity
  8
Object
100
AcDbLine
 10
6.258780829947187
 20
10.196
 30
0.0
 11
6.258780829947187
 21
9.08
 31
0.0
  0
LINE
  5
159A
330
18
100
AcDbEntity
  8
Object
100
AcDbLine
 10
6.258780829947187
 20
9.08
 30
0.0
 11
6.243780829947187
 21
9.08
 31
0.0
  0
LINE
  5
159B
330
18
100
AcDbEntity
  8
Object
100
AcDbLine
 10
6.247780829947187
 20
10.198
 30
0.0
 11
6.237780829947187
 21
10.201
 31
0.0
  0
LINE
  5
159C
330
18
100
AcDbEntity
  8
Object
100
AcDbLine
 10
6.232780829947187
 20
9.08
 30
0.0
 11
6.243780829947187
 21
9.08
 31
0.0
  0
LINE
  5
159D
330
18
100
AcDbEntity
  8
Object
100
AcDbLine
 10
6.237780829947187
 20
10.201
 30
0.0
 11
6.230780829947187
 21
10.207
 31
0.0
  0
LINE
  5
159E
330
18
100
AcDbEntity
  8
Object
100
AcDbLine
 10
6.228780829947187
 20
9.08
 30
0.0
 11
6.232780829947187
 21
9.08
 31
0.0
  0
LINE
  5
159F
330
18
100
AcDbEntity
  8
Object
100
AcDbLine
 10
6.230780829947187
 20
10.207
 30
0.0
 11
6.228780829947187
 21
10.213
 31
0.0
  0
LINE
  5
15A0
330
18
100
AcDbEntity
  8
Object
100
AcDbLine
 10
6.102780829947187
 20
5.158999999999999
 30
0.0
 11
6.104780829947187
 21
5.158999999999999
 31
0.0
  0
LINE
  5
15A1
330
18
100
AcDbEntity
  8
Object
100
AcDbLine
 10
4.432780829947187
 20
5.158999999999999
 30
0.0
 11
4.434780829947187
 21
5.158999999999999
 31
0.0
  0
LINE
  5
15A2
330
18
100
AcDbEntity
  8
Object
100
AcDbLine
 10
6.228780829947187
 20
7.051
 30
0.0
 11
6.226780829947187
 21
6.924999999999999
 31
0.0
  0
LINE
  5
15A3
330
18
100
AcDbEntity
  8
Object
100
AcDbLine
 10
6.226780829947187
 20
6.924999999999999
 30
0.0
 11
6.226780829947187
 21
6.921999999999999
 31
0.0
  0
LINE
  5
15A4
330
18
100
AcDbEntity
  8
Object
100
AcDbLine
 10
6.226780829947187
 20
6.921999999999999
 30
0.0
 11
6.226780829947187
 21
6.921
 31
0.0
  0
LINE
  5
15A5
330
18
100
AcDbEntity
  8
Object
100
AcDbLine
 10
6.226780829947187
 20
6.921
 30
0.0
 11
6.226780829947187
 21
6.919999999999999
 31
0.0
  0
LINE
  5
15A6
330
18
100
AcDbEntity
  8
Object
100
AcDbLine
 10
6.226780829947187
 20
6.919999999999999
 30
0.0
 11
6.196780829947187
 21
5.230999999999999
 31
0.0
  0
LINE
  5
15A7
330
18
100
AcDbEntity
  8
Object
100
AcDbLine
 10
6.196780829947187
 20
5.230999999999999
 30
0.0
 11
6.228780829947187
 21
7.051
 31
0.0
  0
LINE
  5
15A8
330
18
100
AcDbEntity
  8
Object
100
AcDbLine
 10
6.258780829947187
 20
8.733
 30
0.0
 11
6.258780829947187
 21
8.906
 31
0.0
  0
LINE
  5
15A9
330
18
100
AcDbEntity
  8
Object
100
AcDbLine
 10
6.258780829947187
 20
8.906
 30
0.0
 11
6.258780829947187
 21
9.08
 31
0.0
  0
LINE
  5
15AA
330
18
100
AcDbEntity
  8
Object
100
AcDbLine
 10
6.258780829947187
 20
8.733
 30
0.0
 11
6.258780829947187
 21
8.563
 31
0.0
  0
LINE
  5
15AB
330
18
100
AcDbEntity
  8
Object
100
AcDbLine
 10
6.258780829947187
 20
8.563
 30
0.0
 11
6.258780829947187
 21
8.396
 31
0.0
  0
LINE
  5
15AC
330
18
100
AcDbEntity
  8
Object
100
AcDbLine
 10
6.258780829947187
 20
8.08
 30
0.0
 11
6.258780829947187
 21
8.234999999999999
 31
0.0
  0
LINE
  5
15AD
330
18
100
AcDbEntity
  8
Object
100
AcDbLine
 10
6.258780829947187
 20
8.234999999999999
 30
0.0
 11
6.258780829947187
 21
8.396
 31
0.0
  0
LINE
  5
15AE
330
18
100
AcDbEntity
  8
Object
100
AcDbLine
 10
6.258780829947187
 20
7.932999999999999
 30
0.0
 11
6.258780829947187
 21
8.08
 31
0.0
  0
LINE
  5
15AF
330
18
100
AcDbEntity
  8
Object
100
AcDbLine
 10
6.258780829947187
 20
7.666
 30
0.0
 11
6.258780829947187
 21
7.794999999999999
 31
0.0
  0
LINE
  5
15B0
330
18
100
AcDbEntity
  8
Object
100
AcDbLine
 10
6.258780829947187
 20
7.472
 30
0.0
 11
6.258780829947187
 21
7.548
 31
0.0
  0
LINE
  5
15B1
330
18
100
AcDbEntity
  8
Object
100
AcDbLine
 10
6.258780829947187
 20
7.794999999999999
 30
0.0
 11
6.258780829947187
 21
7.932999999999999
 31
0.0
  0
LINE
  5
15B2
330
18
100
AcDbEntity
  8
Object
100
AcDbLine
 10
6.258780829947187
 20
7.548
 30
0.0
 11
6.258780829947187
 21
7.666
 31
0.0
  0
LINE
  5
15B3
330
18
100
AcDbEntity
  8
Object
100
AcDbLine
 10
6.244780829947187
 20
7.076
 30
0.0
 11
6.243780829947187
 21
7.076
 31
0.0
  0
LINE
  5
15B4
330
18
100
AcDbEntity
  8
Object
100
AcDbLine
 10
6.243780829947187
 20
7.076
 30
0.0
 11
6.241780829947187
 21
7.073999999999999
 31
0.0
  0
LINE
  5
15B5
330
18
100
AcDbEntity
  8
Object
100
AcDbLine
 10
6.234780829947187
 20
7.068
 30
0.0
 11
6.232780829947187
 21
7.065999999999999
 31
0.0
  0
LINE
  5
15B6
330
18
100
AcDbEntity
  8
Object
100
AcDbLine
 10
6.232780829947187
 20
7.065999999999999
 30
0.0
 11
6.231780829947187
 21
7.062999999999999
 31
0.0
  0
LINE
  5
15B7
330
18
100
AcDbEntity
  8
Object
100
AcDbLine
 10
6.228780829947187
 20
7.059
 30
0.0
 11
6.228780829947187
 21
7.051
 31
0.0
  0
LINE
  5
15B8
330
18
100
AcDbEntity
  8
Object
100
AcDbLine
 10
4.340780829947187
 20
5.230999999999999
 30
0.0
 11
4.311780829947187
 21
6.919999999999999
 31
0.0
  0
LINE
  5
15B9
330
18
100
AcDbEntity
  8
Object
100
AcDbLine
 10
4.311780829947187
 20
6.919999999999999
 30
0.0
 11
4.311780829947187
 21
6.921
 31
0.0
  0
LINE
  5
15BA
330
18
100
AcDbEntity
  8
Object
100
AcDbLine
 10
4.311780829947187
 20
6.921
 30
0.0
 11
4.311780829947187
 21
6.921999999999999
 31
0.0
  0
LINE
  5
15BB
330
18
100
AcDbEntity
  8
Object
100
AcDbLine
 10
4.311780829947187
 20
6.921999999999999
 30
0.0
 11
4.311780829947187
 21
6.924999999999999
 31
0.0
  0
LINE
  5
15BC
330
18
100
AcDbEntity
  8
Object
100
AcDbLine
 10
4.331780829947187
 20
5.767999999999999
 30
0.0
 11
4.309780829947187
 21
7.051
 31
0.0
  0
LINE
  5
15BD
330
18
100
AcDbEntity
  8
Object
100
AcDbLine
 10
4.309780829947187
 20
7.051
 30
0.0
 11
4.311780829947187
 21
6.924999999999999
 31
0.0
  0
LINE
  5
15BE
330
18
100
AcDbEntity
  8
Object
100
AcDbLine
 10
4.309780829947187
 20
8.554999999999999
 30
0.0
 11
4.309780829947187
 21
8.727999999999999
 31
0.0
  0
LINE
  5
15BF
330
18
100
AcDbEntity
  8
Object
100
AcDbLine
 10
4.309780829947187
 20
9.08
 30
0.0
 11
4.309780829947187
 21
8.903
 31
0.0
  0
LINE
  5
15C0
330
18
100
AcDbEntity
  8
Object
100
AcDbLine
 10
4.309780829947187
 20
8.903
 30
0.0
 11
4.309780829947187
 21
8.727999999999999
 31
0.0
  0
LINE
  5
15C1
330
18
100
AcDbEntity
  8
Object
100
AcDbLine
 10
4.309780829947187
 20
8.554999999999999
 30
0.0
 11
4.309780829947187
 21
8.386000000000001
 31
0.0
  0
LINE
  5
15C2
330
18
100
AcDbEntity
  8
Object
100
AcDbLine
 10
4.309780829947187
 20
8.386000000000001
 30
0.0
 11
4.309780829947187
 21
8.223
 31
0.0
  0
LINE
  5
15C3
330
18
100
AcDbEntity
  8
Object
100
AcDbLine
 10
4.309780829947187
 20
8.223
 30
0.0
 11
4.309780829947187
 21
8.066
 31
0.0
  0
LINE
  5
15C4
330
18
100
AcDbEntity
  8
Object
100
AcDbLine
 10
4.309780829947187
 20
8.066
 30
0.0
 11
4.309780829947187
 21
7.916
 31
0.0
  0
LINE
  5
15C5
330
18
100
AcDbEntity
  8
Object
100
AcDbLine
 10
4.309780829947187
 20
7.078999999999999
 30
0.0
 11
4.309780829947187
 21
7.059
 31
0.0
  0
LINE
  5
15C6
330
18
100
AcDbEntity
  8
Object
100
AcDbLine
 10
4.309780829947187
 20
7.059
 30
0.0
 11
4.309780829947187
 21
7.051
 31
0.0
  0
LINE
  5
15C7
330
18
100
AcDbEntity
  8
Object
100
AcDbLine
 10
4.305780829947186
 20
7.064
 30
0.0
 11
4.304780829947187
 21
7.065999999999999
 31
0.0
  0
LINE
  5
15C8
330
18
100
AcDbEntity
  8
Object
100
AcDbLine
 10
4.304780829947187
 20
7.065999999999999
 30
0.0
 11
4.303780829947188
 21
7.067
 31
0.0
  0
LINE
  5
15C9
330
18
100
AcDbEntity
  8
Object
100
AcDbLine
 10
4.294780829947187
 20
7.075
 30
0.0
 11
4.293780829947187
 21
7.076
 31
0.0
  0
LINE
  5
15CA
330
18
100
AcDbEntity
  8
Object
100
AcDbLine
 10
4.293780829947187
 20
7.076
 30
0.0
 11
4.292780829947187
 21
7.076
 31
0.0
  0
LINE
  5
15CB
330
18
100
AcDbEntity
  8
Object
100
AcDbLine
 10
4.158780829947187
 20
10.196
 30
0.0
 11
4.158780829947187
 21
10.131
 31
0.0
  0
LINE
  5
15CC
330
18
100
AcDbEntity
  8
Object
100
AcDbLine
 10
4.279780829947187
 20
9.08
 30
0.0
 11
4.158780829947187
 21
9.08
 31
0.0
  0
LINE
  5
15CD
330
18
100
AcDbEntity
  8
Object
100
AcDbLine
 10
4.158780829947187
 20
9.08
 30
0.0
 11
4.158780829947187
 21
9.170999999999999
 31
0.0
  0
LINE
  5
15CE
330
18
100
AcDbEntity
  8
Object
100
AcDbLine
 10
4.158780829947187
 20
10.131
 30
0.0
 11
4.157780829947187
 21
10.126
 31
0.0
  0
LINE
  5
15CF
330
18
100
AcDbEntity
  8
Object
100
AcDbLine
 10
4.157780829947187
 20
9.175
 30
0.0
 11
4.158780829947187
 21
9.170999999999999
 31
0.0
  0
LINE
  5
15D0
330
18
100
AcDbEntity
  8
Object
100
AcDbLine
 10
4.157780829947187
 20
10.126
 30
0.0
 11
4.155780829947187
 21
10.121
 31
0.0
  0
LINE
  5
15D1
330
18
100
AcDbEntity
  8
Object
100
AcDbLine
 10
4.279780829947187
 20
9.08
 30
0.0
 11
4.279780829947187
 21
10.196
 31
0.0
  0
LINE
  5
15D2
330
18
100
AcDbEntity
  8
Object
100
AcDbLine
 10
4.155780829947187
 20
9.178
 30
0.0
 11
4.157780829947187
 21
9.175
 31
0.0
  0
LINE
  5
15D3
330
18
100
AcDbEntity
  8
Object
100
AcDbLine
 10
4.155780829947187
 20
10.121
 30
0.0
 11
4.152780829947187
 21
10.118
 31
0.0
  0
LINE
  5
15D4
330
18
100
AcDbEntity
  8
Object
100
AcDbLine
 10
4.152780829947187
 20
9.179999999999999
 30
0.0
 11
4.155780829947187
 21
9.178
 31
0.0
  0
LINE
  5
15D5
330
18
100
AcDbEntity
  8
Object
100
AcDbLine
 10
4.083780829947187
 20
9.184000000000001
 30
0.0
 11
4.070780829947187
 21
9.192999999999999
 31
0.0
  0
LINE
  5
15D6
330
18
100
AcDbEntity
  8
Object
100
AcDbLine
 10
4.070780829947187
 20
9.192999999999999
 30
0.0
 11
4.061780829947187
 21
9.205999999999999
 31
0.0
  0
LINE
  5
15D7
330
18
100
AcDbEntity
  8
Object
100
AcDbLine
 10
4.152780829947187
 20
9.179999999999999
 30
0.0
 11
4.148780829947186
 21
9.181
 31
0.0
  0
LINE
  5
15D8
330
18
100
AcDbEntity
  8
Object
100
AcDbLine
 10
4.148780829947186
 20
9.181
 30
0.0
 11
4.098780829947187
 21
9.181
 31
0.0
  0
LINE
  5
15D9
330
18
100
AcDbEntity
  8
Object
100
AcDbLine
 10
4.098780829947187
 20
9.181
 30
0.0
 11
4.083780829947187
 21
9.184000000000001
 31
0.0
  0
LINE
  5
15DA
330
18
100
AcDbEntity
  8
Object
100
AcDbLine
 10
4.061780829947187
 20
9.205999999999999
 30
0.0
 11
4.058780829947187
 21
9.221
 31
0.0
  0
LINE
  5
15DB
330
18
100
AcDbEntity
  8
Object
100
AcDbLine
 10
4.058780829947187
 20
9.221
 30
0.0
 11
4.058780829947187
 21
10.117
 31
0.0
  0
LINE
  5
15DC
330
18
100
AcDbEntity
  8
Object
100
AcDbLine
 10
4.058780829947187
 20
10.117
 30
0.0
 11
4.148780829947186
 21
10.117
 31
0.0
  0
LINE
  5
15DD
330
18
100
AcDbEntity
  8
Object
100
AcDbLine
 10
4.148780829947186
 20
10.117
 30
0.0
 11
4.152780829947187
 21
10.118
 31
0.0
  0
LINE
  5
15DE
330
18
100
AcDbEntity
  8
Object
100
AcDbLine
 10
4.260780829947186
 20
12.024
 30
0.0
 11
4.231780829947187
 21
12.024
 31
0.0
  0
LINE
  5
15DF
330
18
100
AcDbEntity
  8
Object
100
AcDbLine
 10
4.231780829947187
 20
12.024
 30
0.0
 11
4.181780829947187
 21
12.024
 31
0.0
  0
LINE
  5
15E0
330
18
100
AcDbEntity
  8
Object
100
AcDbLine
 10
4.260780829947186
 20
12.024
 30
0.0
 11
4.231780829947187
 21
12.024
 31
0.0
  0
LINE
  5
15E1
330
18
100
AcDbEntity
  8
Object
100
AcDbLine
 10
6.356780829947187
 20
12.024
 30
0.0
 11
6.306780829947187
 21
12.024
 31
0.0
  0
LINE
  5
15E2
330
18
100
AcDbEntity
  8
Object
100
AcDbLine
 10
6.306780829947187
 20
12.024
 30
0.0
 11
6.277780829947187
 21
12.024
 31
0.0
  0
LINE
  5
15E3
330
18
100
AcDbEntity
  8
Object
100
AcDbLine
 10
6.306780829947187
 20
12.022
 30
0.0
 11
6.306780829947187
 21
12.024
 31
0.0
  0
LINE
  5
15E4
330
18
100
AcDbEntity
  8
Object
100
AcDbLine
 10
6.306780829947187
 20
12.024
 30
0.0
 11
6.277780829947187
 21
12.024
 31
0.0
  0
LINE
  5
15E5
330
18
100
AcDbEntity
  8
Object
100
AcDbLine
 10
6.277780829947187
 20
12.024
 30
0.0
 11
6.276780829947187
 21
12.022
 31
0.0
  0
LINE
  5
15E6
330
18
100
AcDbEntity
  8
Object
100
AcDbLine
 10
6.367780829947187
 20
12.022
 30
0.0
 11
6.356780829947187
 21
12.024
 31
0.0
  0
LINE
  5
15E7
330
18
100
AcDbEntity
  8
Object
100
AcDbLine
 10
6.479780829947187
 20
9.221
 30
0.0
 11
6.476780829947187
 21
9.205999999999999
 31
0.0
  0
LINE
  5
15E8
330
18
100
AcDbEntity
  8
Object
100
AcDbLine
 10
6.476780829947187
 20
9.205999999999999
 30
0.0
 11
6.467780829947187
 21
9.192999999999999
 31
0.0
  0
LINE
  5
15E9
330
18
100
AcDbEntity
  8
Object
100
AcDbLine
 10
6.467780829947187
 20
9.192999999999999
 30
0.0
 11
6.453780829947187
 21
9.184000000000001
 31
0.0
  0
LINE
  5
15EA
330
18
100
AcDbEntity
  8
Object
100
AcDbLine
 10
6.453780829947187
 20
9.184000000000001
 30
0.0
 11
6.439780829947187
 21
9.181
 31
0.0
  0
LINE
  5
15EB
330
18
100
AcDbEntity
  8
Object
100
AcDbLine
 10
6.388780829947187
 20
10.117
 30
0.0
 11
6.479780829947187
 21
10.117
 31
0.0
  0
LINE
  5
15EC
330
18
100
AcDbEntity
  8
Object
100
AcDbLine
 10
6.479780829947187
 20
10.117
 30
0.0
 11
6.479780829947187
 21
9.221
 31
0.0
  0
LINE
  5
15ED
330
18
100
AcDbEntity
  8
Object
100
AcDbLine
 10
6.439780829947187
 20
9.181
 30
0.0
 11
6.388780829947187
 21
9.181
 31
0.0
  0
LINE
  5
15EE
330
18
100
AcDbEntity
  8
Object
100
AcDbLine
 10
6.388780829947187
 20
9.181
 30
0.0
 11
6.385780829947187
 21
9.179999999999999
 31
0.0
  0
LINE
  5
15EF
330
18
100
AcDbEntity
  8
Object
100
AcDbLine
 10
6.385780829947187
 20
9.179999999999999
 30
0.0
 11
6.381780829947187
 21
9.178
 31
0.0
  0
LINE
  5
15F0
330
18
100
AcDbEntity
  8
Object
100
AcDbLine
 10
6.379780829947187
 20
10.131
 30
0.0
 11
6.379780829947187
 21
10.126
 31
0.0
  0
LINE
  5
15F1
330
18
100
AcDbEntity
  8
Object
100
AcDbLine
 10
6.379780829947187
 20
10.126
 30
0.0
 11
6.381780829947187
 21
10.121
 31
0.0
  0
LINE
  5
15F2
330
18
100
AcDbEntity
  8
Object
100
AcDbLine
 10
6.381780829947187
 20
10.121
 30
0.0
 11
6.385780829947187
 21
10.118
 31
0.0
  0
LINE
  5
15F3
330
18
100
AcDbEntity
  8
Object
100
AcDbLine
 10
6.379780829947187
 20
10.131
 30
0.0
 11
6.379780829947187
 21
10.196
 31
0.0
  0
LINE
  5
15F4
330
18
100
AcDbEntity
  8
Object
100
AcDbLine
 10
6.381780829947187
 20
9.178
 30
0.0
 11
6.379780829947187
 21
9.175
 31
0.0
  0
LINE
  5
15F5
330
18
100
AcDbEntity
  8
Object
100
AcDbLine
 10
6.379780829947187
 20
9.175
 30
0.0
 11
6.379780829947187
 21
9.170999999999999
 31
0.0
  0
LINE
  5
15F6
330
18
100
AcDbEntity
  8
Object
100
AcDbLine
 10
6.379780829947187
 20
9.170999999999999
 30
0.0
 11
6.379780829947187
 21
9.08
 31
0.0
  0
LINE
  5
15F7
330
18
100
AcDbEntity
  8
Object
100
AcDbLine
 10
6.379780829947187
 20
9.08
 30
0.0
 11
6.258780829947187
 21
9.08
 31
0.0
  0
LINE
  5
15F8
330
18
100
AcDbEntity
  8
Object
100
AcDbLine
 10
6.196780829947187
 20
5.230999999999999
 30
0.0
 11
6.123780829947187
 21
5.230999999999999
 31
0.0
  0
LINE
  5
15F9
330
18
100
AcDbEntity
  8
Object
100
AcDbLine
 10
6.123780829947187
 20
5.230999999999999
 30
0.0
 11
6.120780829947187
 21
5.230999999999999
 31
0.0
  0
LINE
  5
15FA
330
18
100
AcDbEntity
  8
Object
100
AcDbLine
 10
6.120780829947187
 20
5.230999999999999
 30
0.0
 11
6.116780829947187
 21
5.230999999999999
 31
0.0
  0
LINE
  5
15FB
330
18
100
AcDbEntity
  8
Object
100
AcDbLine
 10
6.116780829947187
 20
5.230999999999999
 30
0.0
 11
6.114780829947187
 21
5.230999999999999
 31
0.0
  0
LINE
  5
15FC
330
18
100
AcDbEntity
  8
Object
100
AcDbLine
 10
6.114780829947187
 20
5.230999999999999
 30
0.0
 11
6.113780829947187
 21
5.230999999999999
 31
0.0
  0
LINE
  5
15FD
330
18
100
AcDbEntity
  8
Object
100
AcDbLine
 10
6.113780829947187
 20
5.230999999999999
 30
0.0
 11
6.108780829947187
 21
5.230999999999999
 31
0.0
  0
LINE
  5
15FE
330
18
100
AcDbEntity
  8
Object
100
AcDbLine
 10
6.108780829947187
 20
5.230999999999999
 30
0.0
 11
6.093780829947187
 21
5.230999999999999
 31
0.0
  0
LINE
  5
15FF
330
18
100
AcDbEntity
  8
Object
100
AcDbLine
 10
6.093780829947187
 20
5.230999999999999
 30
0.0
 11
6.073780829947187
 21
5.230999999999999
 31
0.0
  0
LINE
  5
1600
330
18
100
AcDbEntity
  8
Object
100
AcDbLine
 10
6.073780829947187
 20
5.230999999999999
 30
0.0
 11
4.463780829947187
 21
5.230999999999999
 31
0.0
  0
LINE
  5
1601
330
18
100
AcDbEntity
  8
Object
100
AcDbLine
 10
4.463780829947187
 20
5.230999999999999
 30
0.0
 11
4.443780829947186
 21
5.230999999999999
 31
0.0
  0
LINE
  5
1602
330
18
100
AcDbEntity
  8
Object
100
AcDbLine
 10
4.443780829947186
 20
5.230999999999999
 30
0.0
 11
4.428780829947188
 21
5.230999999999999
 31
0.0
  0
LINE
  5
1603
330
18
100
AcDbEntity
  8
Object
100
AcDbLine
 10
4.428780829947188
 20
5.230999999999999
 30
0.0
 11
4.423780829947187
 21
5.230999999999999
 31
0.0
  0
LINE
  5
1604
330
18
100
AcDbEntity
  8
Object
100
AcDbLine
 10
4.423780829947187
 20
5.230999999999999
 30
0.0
 11
4.422780829947187
 21
5.230999999999999
 31
0.0
  0
LINE
  5
1605
330
18
100
AcDbEntity
  8
Object
100
AcDbLine
 10
4.422780829947187
 20
5.230999999999999
 30
0.0
 11
4.420780829947187
 21
5.230999999999999
 31
0.0
  0
LINE
  5
1606
330
18
100
AcDbEntity
  8
Object
100
AcDbLine
 10
4.420780829947187
 20
5.230999999999999
 30
0.0
 11
4.417780829947187
 21
5.230999999999999
 31
0.0
  0
LINE
  5
1607
330
18
100
AcDbEntity
  8
Object
100
AcDbLine
 10
4.417780829947187
 20
5.230999999999999
 30
0.0
 11
4.413780829947187
 21
5.230999999999999
 31
0.0
  0
LINE
  5
1608
330
18
100
AcDbEntity
  8
Object
100
AcDbLine
 10
4.413780829947187
 20
5.230999999999999
 30
0.0
 11
4.340780829947187
 21
5.230999999999999
 31
0.0
  0
LINE
  5
1609
330
18
100
AcDbEntity
  8
Object
100
AcDbLine
 10
6.306780829947187
 20
6.919999999999999
 30
0.0
 11
6.306780829947187
 21
6.921
 31
0.0
  0
LINE
  5
160A
330
18
100
AcDbEntity
  8
Object
100
AcDbLine
 10
6.226780829947187
 20
6.921
 30
0.0
 11
6.226780829947187
 21
6.921999999999999
 31
0.0
  0
LINE
  5
160B
330
18
100
AcDbEntity
  8
Object
100
AcDbLine
 10
6.226780829947187
 20
6.921999999999999
 30
0.0
 11
6.226780829947187
 21
6.924999999999999
 31
0.0
  0
LINE
  5
160C
330
18
100
AcDbEntity
  8
Object
100
AcDbLine
 10
6.226780829947187
 20
6.924999999999999
 30
0.0
 11
6.306780829947187
 21
6.924999999999999
 31
0.0
  0
LINE
  5
160D
330
18
100
AcDbEntity
  8
Object
100
AcDbLine
 10
6.306780829947187
 20
6.924999999999999
 30
0.0
 11
6.306780829947187
 21
6.921999999999999
 31
0.0
  0
LINE
  5
160E
330
18
100
AcDbEntity
  8
Object
100
AcDbLine
 10
6.306780829947187
 20
6.921999999999999
 30
0.0
 11
6.306780829947187
 21
6.921
 31
0.0
  0
LINE
  5
160F
330
18
100
AcDbEntity
  8
Object
100
AcDbLine
 10
6.226780829947187
 20
6.921
 30
0.0
 11
6.226780829947187
 21
6.919999999999999
 31
0.0
  0
LINE
  5
1610
330
18
100
AcDbEntity
  8
Object
100
AcDbLine
 10
6.386780829947187
 20
6.919999999999999
 30
0.0
 11
6.383780829947187
 21
6.919999999999999
 31
0.0
  0
LINE
  5
1611
330
18
100
AcDbEntity
  8
Object
100
AcDbLine
 10
6.383780829947187
 20
6.919999999999999
 30
0.0
 11
6.377780829947187
 21
6.919999999999999
 31
0.0
  0
LINE
  5
1612
330
18
100
AcDbEntity
  8
Object
100
AcDbLine
 10
6.377780829947187
 20
6.919999999999999
 30
0.0
 11
6.367780829947187
 21
6.919999999999999
 31
0.0
  0
LINE
  5
1613
330
18
100
AcDbEntity
  8
Object
100
AcDbLine
 10
6.367780829947187
 20
6.919999999999999
 30
0.0
 11
6.356780829947187
 21
6.919999999999999
 31
0.0
  0
LINE
  5
1614
330
18
100
AcDbEntity
  8
Object
100
AcDbLine
 10
6.356780829947187
 20
6.919999999999999
 30
0.0
 11
6.306780829947187
 21
6.919999999999999
 31
0.0
  0
LINE
  5
1615
330
18
100
AcDbEntity
  8
Object
100
AcDbLine
 10
6.306780829947187
 20
6.919999999999999
 30
0.0
 11
6.305780829947187
 21
6.919999999999999
 31
0.0
  0
LINE
  5
1616
330
18
100
AcDbEntity
  8
Object
100
AcDbLine
 10
6.305780829947187
 20
6.919999999999999
 30
0.0
 11
6.303780829947187
 21
6.919999999999999
 31
0.0
  0
LINE
  5
1617
330
18
100
AcDbEntity
  8
Object
100
AcDbLine
 10
6.303780829947187
 20
6.919999999999999
 30
0.0
 11
6.299780829947187
 21
6.919999999999999
 31
0.0
  0
LINE
  5
1618
330
18
100
AcDbEntity
  8
Object
100
AcDbLine
 10
6.299780829947187
 20
6.919999999999999
 30
0.0
 11
6.296780829947187
 21
6.919999999999999
 31
0.0
  0
LINE
  5
1619
330
18
100
AcDbEntity
  8
Object
100
AcDbLine
 10
6.296780829947187
 20
6.919999999999999
 30
0.0
 11
6.226780829947187
 21
6.919999999999999
 31
0.0
  0
LINE
  5
161A
330
18
100
AcDbEntity
  8
Object
100
AcDbLine
 10
6.326780829947187
 20
7.0
 30
0.0
 11
6.317780829947187
 21
7.0
 31
0.0
  0
LINE
  5
161B
330
18
100
AcDbEntity
  8
Object
100
AcDbLine
 10
6.317780829947187
 20
7.0
 30
0.0
 11
6.313780829947187
 21
7.0
 31
0.0
  0
LINE
  5
161C
330
18
100
AcDbEntity
  8
Object
100
AcDbLine
 10
6.237780829947187
 20
7.072
 30
0.0
 11
6.247780829947187
 21
7.078
 31
0.0
  0
LINE
  5
161D
330
18
100
AcDbEntity
  8
Object
100
AcDbLine
 10
6.247780829947187
 20
7.078
 30
0.0
 11
6.252780829947187
 21
7.078999999999999
 31
0.0
  0
LINE
  5
161E
330
18
100
AcDbEntity
  8
Object
100
AcDbLine
 10
6.237780829947187
 20
7.072
 30
0.0
 11
6.230780829947187
 21
7.062
 31
0.0
  0
LINE
  5
161F
330
18
100
AcDbEntity
  8
Object
100
AcDbLine
 10
6.230780829947187
 20
7.062
 30
0.0
 11
6.228780829947187
 21
7.051
 31
0.0
  0
LINE
  5
1620
330
18
100
AcDbEntity
  8
Object
100
AcDbLine
 10
6.313780829947187
 20
7.0
 30
0.0
 11
6.310780829947187
 21
6.998
 31
0.0
  0
LINE
  5
1621
330
18
100
AcDbEntity
  8
Object
100
AcDbLine
 10
6.310780829947187
 20
6.998
 30
0.0
 11
6.308780829947187
 21
6.993999999999999
 31
0.0
  0
LINE
  5
1622
330
18
100
AcDbEntity
  8
Object
100
AcDbLine
 10
6.308780829947187
 20
6.993999999999999
 30
0.0
 11
6.307780829947187
 21
6.991
 31
0.0
  0
LINE
  5
1623
330
18
100
AcDbEntity
  8
Object
100
AcDbLine
 10
6.307780829947187
 20
6.991
 30
0.0
 11
6.306780829947187
 21
6.924999999999999
 31
0.0
  0
LINE
  5
1624
330
18
100
AcDbEntity
  8
Object
100
AcDbLine
 10
6.228780829947187
 20
7.051
 30
0.0
 11
6.226780829947187
 21
6.924999999999999
 31
0.0
  0
LINE
  5
1625
330
18
100
AcDbEntity
  8
Object
100
AcDbLine
 10
6.226780829947187
 20
6.919999999999999
 30
0.0
 11
6.296780829947187
 21
6.919999999999999
 31
0.0
  0
LINE
  5
1626
330
18
100
AcDbEntity
  8
Object
100
AcDbLine
 10
6.296780829947187
 20
6.919999999999999
 30
0.0
 11
6.266780829947187
 21
5.230999999999999
 31
0.0
  0
LINE
  5
1627
330
18
100
AcDbEntity
  8
Object
100
AcDbLine
 10
6.266780829947187
 20
5.230999999999999
 30
0.0
 11
6.196780829947187
 21
5.230999999999999
 31
0.0
  0
LINE
  5
1628
330
18
100
AcDbEntity
  8
Object
100
AcDbLine
 10
6.196780829947187
 20
5.230999999999999
 30
0.0
 11
6.226780829947187
 21
6.919999999999999
 31
0.0
  0
LINE
  5
1629
330
18
100
AcDbEntity
  8
Object
100
AcDbLine
 10
6.252780829947187
 20
7.078999999999999
 30
0.0
 11
6.247780829947187
 21
7.078
 31
0.0
  0
LINE
  5
162A
330
18
100
AcDbEntity
  8
Object
100
AcDbLine
 10
6.247780829947187
 20
7.078
 30
0.0
 11
6.243780829947187
 21
7.076
 31
0.0
  0
LINE
  5
162B
330
18
100
AcDbEntity
  8
Object
100
AcDbLine
 10
6.243780829947187
 20
7.076
 30
0.0
 11
6.244780829947187
 21
7.076
 31
0.0
  0
LINE
  5
162C
330
18
100
AcDbEntity
  8
Object
100
AcDbLine
 10
6.247780829947187
 20
7.078
 30
0.0
 11
6.243780829947187
 21
7.076
 31
0.0
  0
LINE
  5
162D
330
18
100
AcDbEntity
  8
Object
100
AcDbLine
 10
6.243780829947187
 20
7.076
 30
0.0
 11
6.237780829947187
 21
7.072
 31
0.0
  0
LINE
  5
162E
330
18
100
AcDbEntity
  8
Object
100
AcDbLine
 10
6.237780829947187
 20
7.072
 30
0.0
 11
6.243780829947187
 21
7.076
 31
0.0
  0
LINE
  5
162F
330
18
100
AcDbEntity
  8
Object
100
AcDbLine
 10
6.247780829947187
 20
7.078
 30
0.0
 11
6.237780829947187
 21
7.072
 31
0.0
  0
LINE
  5
1630
330
18
100
AcDbEntity
  8
Object
100
AcDbLine
 10
6.237780829947187
 20
7.072
 30
0.0
 11
6.232780829947187
 21
7.065999999999999
 31
0.0
  0
LINE
  5
1631
330
18
100
AcDbEntity
  8
Object
100
AcDbLine
 10
6.241780829947187
 20
7.073999999999999
 30
0.0
 11
6.243780829947187
 21
7.076
 31
0.0
  0
LINE
  5
1632
330
18
100
AcDbEntity
  8
Object
100
AcDbLine
 10
6.234780829947187
 20
7.068
 30
0.0
 11
6.232780829947187
 21
7.065999999999999
 31
0.0
  0
LINE
  5
1633
330
18
100
AcDbEntity
  8
Object
100
AcDbLine
 10
6.232780829947187
 20
7.065999999999999
 30
0.0
 11
6.237780829947187
 21
7.072
 31
0.0
  0
LINE
  5
1634
330
18
100
AcDbEntity
  8
Object
100
AcDbLine
 10
6.237780829947187
 20
7.072
 30
0.0
 11
6.230780829947187
 21
7.062
 31
0.0
  0
LINE
  5
1635
330
18
100
AcDbEntity
  8
Object
100
AcDbLine
 10
6.230780829947187
 20
7.062
 30
0.0
 11
6.232780829947187
 21
7.065999999999999
 31
0.0
  0
LINE
  5
1636
330
18
100
AcDbEntity
  8
Object
100
AcDbLine
 10
6.232780829947187
 20
7.065999999999999
 30
0.0
 11
6.230780829947187
 21
7.062
 31
0.0
  0
LINE
  5
1637
330
18
100
AcDbEntity
  8
Object
100
AcDbLine
 10
6.230780829947187
 20
7.062
 30
0.0
 11
6.228780829947187
 21
7.051
 31
0.0
  0
LINE
  5
1638
330
18
100
AcDbEntity
  8
Object
100
AcDbLine
 10
6.231780829947187
 20
7.062999999999999
 30
0.0
 11
6.232780829947187
 21
7.065999999999999
 31
0.0
  0
LINE
  5
1639
330
18
100
AcDbEntity
  8
Object
100
AcDbLine
 10
6.379780829947187
 20
8.733
 30
0.0
 11
6.379780829947187
 21
8.906
 31
0.0
  0
LINE
  5
163A
330
18
100
AcDbEntity
  8
Object
100
AcDbLine
 10
6.379780829947187
 20
8.906
 30
0.0
 11
6.379780829947187
 21
9.08
 31
0.0
  0
LINE
  5
163B
330
18
100
AcDbEntity
  8
Object
100
AcDbLine
 10
6.379780829947187
 20
8.563
 30
0.0
 11
6.379780829947187
 21
8.733
 31
0.0
  0
LINE
  5
163C
330
18
100
AcDbEntity
  8
Object
100
AcDbLine
 10
6.379780829947187
 20
7.932999999999999
 30
0.0
 11
6.379780829947187
 21
8.08
 31
0.0
  0
LINE
  5
163D
330
18
100
AcDbEntity
  8
Object
100
AcDbLine
 10
6.379780829947187
 20
8.234999999999999
 30
0.0
 11
6.379780829947187
 21
8.396
 31
0.0
  0
LINE
  5
163E
330
18
100
AcDbEntity
  8
Object
100
AcDbLine
 10
6.379780829947187
 20
8.396
 30
0.0
 11
6.379780829947187
 21
8.563
 31
0.0
  0
LINE
  5
163F
330
18
100
AcDbEntity
  8
Object
100
AcDbLine
 10
6.379780829947187
 20
8.08
 30
0.0
 11
6.379780829947187
 21
8.234999999999999
 31
0.0
  0
LINE
  5
1640
330
18
100
AcDbEntity
  8
Object
100
AcDbLine
 10
6.379780829947187
 20
7.442
 30
0.0
 11
6.379780829947187
 21
7.548
 31
0.0
  0
LINE
  5
1641
330
18
100
AcDbEntity
  8
Object
100
AcDbLine
 10
6.379780829947187
 20
7.666
 30
0.0
 11
6.379780829947187
 21
7.794999999999999
 31
0.0
  0
LINE
  5
1642
330
18
100
AcDbEntity
  8
Object
100
AcDbLine
 10
6.379780829947187
 20
7.794999999999999
 30
0.0
 11
6.379780829947187
 21
7.932999999999999
 31
0.0
  0
LINE
  5
1643
330
18
100
AcDbEntity
  8
Object
100
AcDbLine
 10
6.379780829947187
 20
7.548
 30
0.0
 11
6.379780829947187
 21
7.666
 31
0.0
  0
LINE
  5
1644
330
18
100
AcDbEntity
  8
Object
100
AcDbLine
 10
6.379780829947187
 20
7.431
 30
0.0
 11
6.379780829947187
 21
7.442
 31
0.0
  0
LINE
  5
1645
330
18
100
AcDbEntity
  8
Object
100
AcDbLine
 10
4.231780829947187
 20
6.921999999999999
 30
0.0
 11
4.231780829947187
 21
6.921
 31
0.0
  0
LINE
  5
1646
330
18
100
AcDbEntity
  8
Object
100
AcDbLine
 10
4.311780829947187
 20
6.921999999999999
 30
0.0
 11
4.311780829947187
 21
6.921
 31
0.0
  0
LINE
  5
1647
330
18
100
AcDbEntity
  8
Object
100
AcDbLine
 10
4.311780829947187
 20
6.921
 30
0.0
 11
4.311780829947187
 21
6.919999999999999
 31
0.0
  0
LINE
  5
1648
330
18
100
AcDbEntity
  8
Object
100
AcDbLine
 10
4.231780829947187
 20
6.921
 30
0.0
 11
4.231780829947187
 21
6.919999999999999
 31
0.0
  0
LINE
  5
1649
330
18
100
AcDbEntity
  8
Object
100
AcDbLine
 10
4.311780829947187
 20
6.921999999999999
 30
0.0
 11
4.311780829947187
 21
6.924999999999999
 31
0.0
  0
LINE
  5
164A
330
18
100
AcDbEntity
  8
Object
100
AcDbLine
 10
4.231780829947187
 20
6.924999999999999
 30
0.0
 11
4.231780829947187
 21
6.921999999999999
 31
0.0
  0
LINE
  5
164B
330
18
100
AcDbEntity
  8
Object
100
AcDbLine
 10
4.284780829947187
 20
7.078999999999999
 30
0.0
 11
4.289780829947186
 21
7.078
 31
0.0
  0
LINE
  5
164C
330
18
100
AcDbEntity
  8
Object
100
AcDbLine
 10
4.289780829947186
 20
7.078
 30
0.0
 11
4.300780829947187
 21
7.072
 31
0.0
  0
LINE
  5
164D
330
18
100
AcDbEntity
  8
Object
100
AcDbLine
 10
4.300780829947187
 20
7.072
 30
0.0
 11
4.306780829947187
 21
7.062
 31
0.0
  0
LINE
  5
164E
330
18
100
AcDbEntity
  8
Object
100
AcDbLine
 10
4.306780829947187
 20
7.062
 30
0.0
 11
4.309780829947187
 21
7.051
 31
0.0
  0
LINE
  5
164F
330
18
100
AcDbEntity
  8
Object
100
AcDbLine
 10
4.309780829947187
 20
7.051
 30
0.0
 11
4.311780829947187
 21
6.924999999999999
 31
0.0
  0
LINE
  5
1650
330
18
100
AcDbEntity
  8
Object
100
AcDbLine
 10
4.311780829947187
 20
6.924999999999999
 30
0.0
 11
4.231780829947187
 21
6.924999999999999
 31
0.0
  0
LINE
  5
1651
330
18
100
AcDbEntity
  8
Object
100
AcDbLine
 10
4.231780829947187
 20
6.924999999999999
 30
0.0
 11
4.230780829947187
 21
6.991
 31
0.0
  0
LINE
  5
1652
330
18
100
AcDbEntity
  8
Object
100
AcDbLine
 10
4.230780829947187
 20
6.991
 30
0.0
 11
4.229780829947187
 21
6.993999999999999
 31
0.0
  0
LINE
  5
1653
330
18
100
AcDbEntity
  8
Object
100
AcDbLine
 10
4.229780829947187
 20
6.993999999999999
 30
0.0
 11
4.227780829947187
 21
6.998
 31
0.0
  0
LINE
  5
1654
330
18
100
AcDbEntity
  8
Object
100
AcDbLine
 10
4.227780829947187
 20
6.998
 30
0.0
 11
4.223780829947187
 21
7.0
 31
0.0
  0
LINE
  5
1655
330
18
100
AcDbEntity
  8
Object
100
AcDbLine
 10
4.223780829947187
 20
7.0
 30
0.0
 11
4.220780829947187
 21
7.0
 31
0.0
  0
LINE
  5
1656
330
18
100
AcDbEntity
  8
Object
100
AcDbLine
 10
4.220780829947187
 20
7.0
 30
0.0
 11
4.210780829947188
 21
7.0
 31
0.0
  0
LINE
  5
1657
330
18
100
AcDbEntity
  8
Object
100
AcDbLine
 10
4.311780829947187
 20
6.919999999999999
 30
0.0
 11
4.340780829947187
 21
5.230999999999999
 31
0.0
  0
LINE
  5
1658
330
18
100
AcDbEntity
  8
Object
100
AcDbLine
 10
4.340780829947187
 20
5.230999999999999
 30
0.0
 11
4.270780829947187
 21
5.230999999999999
 31
0.0
  0
LINE
  5
1659
330
18
100
AcDbEntity
  8
Object
100
AcDbLine
 10
4.270780829947187
 20
5.230999999999999
 30
0.0
 11
4.241780829947186
 21
6.919999999999999
 31
0.0
  0
LINE
  5
165A
330
18
100
AcDbEntity
  8
Object
100
AcDbLine
 10
4.241780829947186
 20
6.919999999999999
 30
0.0
 11
4.311780829947187
 21
6.919999999999999
 31
0.0
  0
LINE
  5
165B
330
18
100
AcDbEntity
  8
Object
100
AcDbLine
 10
4.309780829947187
 20
7.051
 30
0.0
 11
4.306780829947187
 21
7.062
 31
0.0
  0
LINE
  5
165C
330
18
100
AcDbEntity
  8
Object
100
AcDbLine
 10
4.305780829947186
 20
7.064
 30
0.0
 11
4.304780829947187
 21
7.065999999999999
 31
0.0
  0
LINE
  5
165D
330
18
100
AcDbEntity
  8
Object
100
AcDbLine
 10
4.304780829947187
 20
7.065999999999999
 30
0.0
 11
4.306780829947187
 21
7.062
 31
0.0
  0
LINE
  5
165E
330
18
100
AcDbEntity
  8
Object
100
AcDbLine
 10
4.306780829947187
 20
7.062
 30
0.0
 11
4.304780829947187
 21
7.065999999999999
 31
0.0
  0
LINE
  5
165F
330
18
100
AcDbEntity
  8
Object
100
AcDbLine
 10
4.304780829947187
 20
7.065999999999999
 30
0.0
 11
4.300780829947187
 21
7.072
 31
0.0
  0
LINE
  5
1660
330
18
100
AcDbEntity
  8
Object
100
AcDbLine
 10
4.300780829947187
 20
7.072
 30
0.0
 11
4.304780829947187
 21
7.065999999999999
 31
0.0
  0
LINE
  5
1661
330
18
100
AcDbEntity
  8
Object
100
AcDbLine
 10
4.306780829947187
 20
7.062
 30
0.0
 11
4.300780829947187
 21
7.072
 31
0.0
  0
LINE
  5
1662
330
18
100
AcDbEntity
  8
Object
100
AcDbLine
 10
4.300780829947187
 20
7.072
 30
0.0
 11
4.293780829947187
 21
7.076
 31
0.0
  0
LINE
  5
1663
330
18
100
AcDbEntity
  8
Object
100
AcDbLine
 10
4.303780829947188
 20
7.067
 30
0.0
 11
4.304780829947187
 21
7.065999999999999
 31
0.0
  0
LINE
  5
1664
330
18
100
AcDbEntity
  8
Object
100
AcDbLine
 10
4.294780829947187
 20
7.075
 30
0.0
 11
4.293780829947187
 21
7.076
 31
0.0
  0
LINE
  5
1665
330
18
100
AcDbEntity
  8
Object
100
AcDbLine
 10
4.293780829947187
 20
7.076
 30
0.0
 11
4.300780829947187
 21
7.072
 31
0.0
  0
LINE
  5
1666
330
18
100
AcDbEntity
  8
Object
100
AcDbLine
 10
4.293780829947187
 20
7.076
 30
0.0
 11
4.289780829947186
 21
7.078
 31
0.0
  0
LINE
  5
1667
330
18
100
AcDbEntity
  8
Object
100
AcDbLine
 10
4.289780829947186
 20
7.078
 30
0.0
 11
4.300780829947187
 21
7.072
 31
0.0
  0
LINE
  5
1668
330
18
100
AcDbEntity
  8
Object
100
AcDbLine
 10
4.289780829947186
 20
7.078
 30
0.0
 11
4.293780829947187
 21
7.076
 31
0.0
  0
LINE
  5
1669
330
18
100
AcDbEntity
  8
Object
100
AcDbLine
 10
4.293780829947187
 20
7.076
 30
0.0
 11
4.292780829947187
 21
7.076
 31
0.0
  0
LINE
  5
166A
330
18
100
AcDbEntity
  8
Object
100
AcDbLine
 10
4.289780829947186
 20
7.078
 30
0.0
 11
4.284780829947187
 21
7.078999999999999
 31
0.0
  0
LINE
  5
166B
330
18
100
AcDbEntity
  8
Object
100
AcDbLine
 10
4.311780829947187
 20
6.919999999999999
 30
0.0
 11
4.241780829947186
 21
6.919999999999999
 31
0.0
  0
LINE
  5
166C
330
18
100
AcDbEntity
  8
Object
100
AcDbLine
 10
4.241780829947186
 20
6.919999999999999
 30
0.0
 11
4.237780829947187
 21
6.919999999999999
 31
0.0
  0
LINE
  5
166D
330
18
100
AcDbEntity
  8
Object
100
AcDbLine
 10
4.237780829947187
 20
6.919999999999999
 30
0.0
 11
4.234780829947187
 21
6.919999999999999
 31
0.0
  0
LINE
  5
166E
330
18
100
AcDbEntity
  8
Object
100
AcDbLine
 10
4.234780829947187
 20
6.919999999999999
 30
0.0
 11
4.232780829947187
 21
6.919999999999999
 31
0.0
  0
LINE
  5
166F
330
18
100
AcDbEntity
  8
Object
100
AcDbLine
 10
4.232780829947187
 20
6.919999999999999
 30
0.0
 11
4.231780829947187
 21
6.919999999999999
 31
0.0
  0
LINE
  5
1670
330
18
100
AcDbEntity
  8
Object
100
AcDbLine
 10
4.231780829947187
 20
6.919999999999999
 30
0.0
 11
4.181780829947187
 21
6.919999999999999
 31
0.0
  0
LINE
  5
1671
330
18
100
AcDbEntity
  8
Object
100
AcDbLine
 10
4.181780829947187
 20
6.919999999999999
 30
0.0
 11
4.170780829947187
 21
6.919999999999999
 31
0.0
  0
LINE
  5
1672
330
18
100
AcDbEntity
  8
Object
100
AcDbLine
 10
4.170780829947187
 20
6.919999999999999
 30
0.0
 11
4.160780829947187
 21
6.919999999999999
 31
0.0
  0
LINE
  5
1673
330
18
100
AcDbEntity
  8
Object
100
AcDbLine
 10
4.160780829947187
 20
6.919999999999999
 30
0.0
 11
4.153780829947187
 21
6.919999999999999
 31
0.0
  0
LINE
  5
1674
330
18
100
AcDbEntity
  8
Object
100
AcDbLine
 10
4.153780829947187
 20
6.919999999999999
 30
0.0
 11
4.151780829947187
 21
6.919999999999999
 31
0.0
  0
LINE
  5
1675
330
18
100
AcDbEntity
  8
Object
100
AcDbLine
 10
4.158780829947187
 20
8.906
 30
0.0
 11
4.158780829947187
 21
8.733
 31
0.0
  0
LINE
  5
1676
330
18
100
AcDbEntity
  8
Object
100
AcDbLine
 10
4.279780829947187
 20
8.906
 30
0.0
 11
4.279780829947187
 21
8.733
 31
0.0
  0
LINE
  5
1677
330
18
100
AcDbEntity
  8
Object
100
AcDbLine
 10
4.279780829947187
 20
8.733
 30
0.0
 11
4.279780829947187
 21
8.563
 31
0.0
  0
LINE
  5
1678
330
18
100
AcDbEntity
  8
Object
100
AcDbLine
 10
4.158780829947187
 20
8.733
 30
0.0
 11
4.158780829947187
 21
8.563
 31
0.0
  0
LINE
  5
1679
330
18
100
AcDbEntity
  8
Object
100
AcDbLine
 10
4.279780829947187
 20
8.906
 30
0.0
 11
4.279780829947187
 21
9.08
 31
0.0
  0
LINE
  5
167A
330
18
100
AcDbEntity
  8
Object
100
AcDbLine
 10
4.158780829947187
 20
9.08
 30
0.0
 11
4.158780829947187
 21
8.906
 31
0.0
  0
LINE
  5
167B
330
18
100
AcDbEntity
  8
Object
100
AcDbLine
 10
4.158780829947187
 20
8.563
 30
0.0
 11
4.158780829947187
 21
8.396
 31
0.0
  0
LINE
  5
167C
330
18
100
AcDbEntity
  8
Object
100
AcDbLine
 10
4.279780829947187
 20
8.396
 30
0.0
 11
4.279780829947187
 21
8.563
 31
0.0
  0
LINE
  5
167D
330
18
100
AcDbEntity
  8
Object
100
AcDbLine
 10
4.158780829947187
 20
8.234999999999999
 30
0.0
 11
4.158780829947187
 21
8.08
 31
0.0
  0
LINE
  5
167E
330
18
100
AcDbEntity
  8
Object
100
AcDbLine
 10
4.279780829947187
 20
8.234999999999999
 30
0.0
 11
4.279780829947187
 21
8.08
 31
0.0
  0
LINE
  5
167F
330
18
100
AcDbEntity
  8
Object
100
AcDbLine
 10
4.279780829947187
 20
8.08
 30
0.0
 11
4.279780829947187
 21
7.932999999999999
 31
0.0
  0
LINE
  5
1680
330
18
100
AcDbEntity
  8
Object
100
AcDbLine
 10
4.158780829947187
 20
8.08
 30
0.0
 11
4.158780829947187
 21
7.932999999999999
 31
0.0
  0
LINE
  5
1681
330
18
100
AcDbEntity
  8
Object
100
AcDbLine
 10
4.279780829947187
 20
8.234999999999999
 30
0.0
 11
4.279780829947187
 21
8.396
 31
0.0
  0
LINE
  5
1682
330
18
100
AcDbEntity
  8
Object
100
AcDbLine
 10
4.158780829947187
 20
8.396
 30
0.0
 11
4.158780829947187
 21
8.234999999999999
 31
0.0
  0
LINE
  5
1683
330
18
100
AcDbEntity
  8
Object
100
AcDbLine
 10
4.158780829947187
 20
7.932999999999999
 30
0.0
 11
4.158780829947187
 21
7.794999999999999
 31
0.0
  0
LINE
  5
1684
330
18
100
AcDbEntity
  8
Object
100
AcDbLine
 10
4.279780829947187
 20
7.794999999999999
 30
0.0
 11
4.279780829947187
 21
7.932999999999999
 31
0.0
  0
LINE
  5
1685
330
18
100
AcDbEntity
  8
Object
100
AcDbLine
 10
4.158780829947187
 20
7.666
 30
0.0
 11
4.158780829947187
 21
7.548
 31
0.0
  0
LINE
  5
1686
330
18
100
AcDbEntity
  8
Object
100
AcDbLine
 10
4.279780829947187
 20
7.666
 30
0.0
 11
4.279780829947187
 21
7.548
 31
0.0
  0
LINE
  5
1687
330
18
100
AcDbEntity
  8
Object
100
AcDbLine
 10
4.279780829947187
 20
7.548
 30
0.0
 11
4.279780829947187
 21
7.472
 31
0.0
  0
LINE
  5
1688
330
18
100
AcDbEntity
  8
Object
100
AcDbLine
 10
4.158780829947187
 20
7.548
 30
0.0
 11
4.158780829947187
 21
7.442
 31
0.0
  0
LINE
  5
1689
330
18
100
AcDbEntity
  8
Object
100
AcDbLine
 10
4.279780829947187
 20
7.666
 30
0.0
 11
4.279780829947187
 21
7.794999999999999
 31
0.0
  0
LINE
  5
168A
330
18
100
AcDbEntity
  8
Object
100
AcDbLine
 10
4.158780829947187
 20
7.794999999999999
 30
0.0
 11
4.158780829947187
 21
7.666
 31
0.0
  0
LINE
  5
168B
330
18
100
AcDbEntity
  8
Object
100
AcDbLine
 10
4.260780829947186
 20
5.230999999999999
 30
0.0
 11
4.260780829947186
 21
5.225999999999999
 31
0.0
  0
LINE
  5
168C
330
18
100
AcDbEntity
  8
Object
100
AcDbLine
 10
4.260780829947186
 20
5.225999999999999
 30
0.0
 11
4.260780829947186
 21
5.230999999999999
 31
0.0
  0
LINE
  5
168D
330
18
100
AcDbEntity
  8
Object
100
AcDbLine
 10
4.260780829947186
 20
5.230999999999999
 30
0.0
 11
4.260780829947186
 21
5.225999999999999
 31
0.0
  0
LINE
  5
168E
330
18
100
AcDbEntity
  8
Object
100
AcDbLine
 10
4.260780829947186
 20
5.23
 30
0.0
 11
4.261780829947187
 21
5.193
 31
0.0
  0
LINE
  5
168F
330
18
100
AcDbEntity
  8
Object
100
AcDbLine
 10
4.260780829947186
 20
5.225999999999999
 30
0.0
 11
4.260780829947186
 21
5.230999999999999
 31
0.0
  0
LINE
  5
1690
330
18
100
AcDbEntity
  8
Object
100
AcDbLine
 10
4.227780829947187
 20
6.996
 30
0.0
 11
4.225780829947186
 21
6.999
 31
0.0
  0
LINE
  5
1691
330
18
100
AcDbEntity
  8
Object
100
AcDbLine
 10
4.225780829947186
 20
6.999
 30
0.0
 11
4.220780829947187
 21
7.0
 31
0.0
  0
LINE
  5
1692
330
18
100
AcDbEntity
  8
Object
100
AcDbLine
 10
6.388780829947187
 20
10.117
 30
0.0
 11
6.385780829947187
 21
10.118
 31
0.0
  0
LINE
  5
1693
330
18
100
AcDbEntity
  8
Object
100
AcDbLine
 10
6.317780829947187
 20
7.0
 30
0.0
 11
6.312780829947187
 21
6.999
 31
0.0
  0
LINE
  5
1694
330
18
100
AcDbEntity
  8
Object
100
AcDbLine
 10
6.312780829947187
 20
6.999
 30
0.0
 11
6.309780829947187
 21
6.996
 31
0.0
  0
LINE
  5
1695
330
18
100
AcDbEntity
  8
Object
100
AcDbLine
 10
6.108780829947187
 20
5.230999999999999
 30
0.0
 11
6.113780829947187
 21
5.230999999999999
 31
0.0
  0
LINE
  5
1696
330
18
100
AcDbEntity
  8
Object
100
AcDbLine
 10
6.113780829947187
 20
5.230999999999999
 30
0.0
 11
6.113780829947187
 21
5.181
 31
0.0
  0
LINE
  5
1697
330
18
100
AcDbEntity
  8
Object
100
AcDbLine
 10
6.108780829947187
 20
5.230999999999999
 30
0.0
 11
6.093780829947187
 21
5.230999999999999
 31
0.0
  0
LINE
  5
1698
330
18
100
AcDbEntity
  8
Object
100
AcDbLine
 10
6.108780829947187
 20
5.181
 30
0.0
 11
6.093780829947187
 21
5.181
 31
0.0
  0
LINE
  5
1699
330
18
100
AcDbEntity
  8
Object
100
AcDbLine
 10
6.093780829947187
 20
5.181
 30
0.0
 11
6.073780829947187
 21
5.181
 31
0.0
  0
LINE
  5
169A
330
18
100
AcDbEntity
  8
Object
100
AcDbLine
 10
6.093780829947187
 20
5.230999999999999
 30
0.0
 11
6.073780829947187
 21
5.230999999999999
 31
0.0
  0
LINE
  5
169B
330
18
100
AcDbEntity
  8
Object
100
AcDbLine
 10
4.443780829947186
 20
5.230999999999999
 30
0.0
 11
4.463780829947187
 21
5.230999999999999
 31
0.0
  0
LINE
  5
169C
330
18
100
AcDbEntity
  8
Object
100
AcDbLine
 10
4.463780829947187
 20
5.230999999999999
 30
0.0
 11
4.463780829947187
 21
5.181
 31
0.0
  0
LINE
  5
169D
330
18
100
AcDbEntity
  8
Object
100
AcDbLine
 10
4.463780829947187
 20
5.181
 30
0.0
 11
4.443780829947186
 21
5.181
 31
0.0
  0
LINE
  5
169E
330
18
100
AcDbEntity
  8
Object
100
AcDbLine
 10
4.443780829947186
 20
5.181
 30
0.0
 11
4.428780829947188
 21
5.181
 31
0.0
  0
LINE
  5
169F
330
18
100
AcDbEntity
  8
Object
100
AcDbLine
 10
4.443780829947186
 20
5.230999999999999
 30
0.0
 11
4.428780829947188
 21
5.230999999999999
 31
0.0
  0
LINE
  5
16A0
330
18
100
AcDbEntity
  8
Object
100
AcDbLine
 10
4.428780829947188
 20
5.181
 30
0.0
 11
4.423780829947187
 21
5.181
 31
0.0
  0
LINE
  5
16A1
330
18
100
AcDbEntity
  8
Object
100
AcDbLine
 10
4.423780829947187
 20
5.181
 30
0.0
 11
4.423780829947187
 21
5.230999999999999
 31
0.0
  0
LINE
  5
16A2
330
18
100
AcDbEntity
  8
Object
100
AcDbLine
 10
4.423780829947187
 20
5.230999999999999
 30
0.0
 11
4.428780829947188
 21
5.230999999999999
 31
0.0
  0
LINE
  5
16A3
330
18
100
AcDbEntity
  8
Object
100
AcDbLine
 10
6.113780829947187
 20
5.181
 30
0.0
 11
6.113780829947187
 21
5.230999999999999
 31
0.0
  0
LINE
  5
16A4
330
18
100
AcDbEntity
  8
Object
100
AcDbLine
 10
4.423780829947187
 20
5.230999999999999
 30
0.0
 11
4.422780829947187
 21
5.230999999999999
 31
0.0
  0
LINE
  5
16A5
330
18
100
AcDbEntity
  8
Object
100
AcDbLine
 10
4.422780829947187
 20
5.184
 30
0.0
 11
4.423780829947187
 21
5.181
 31
0.0
  0
LINE
  5
16A6
330
18
100
AcDbEntity
  8
Object
100
AcDbLine
 10
4.422780829947187
 20
5.230999999999999
 30
0.0
 11
4.420780829947187
 21
5.230999999999999
 31
0.0
  0
LINE
  5
16A7
330
18
100
AcDbEntity
  8
Object
100
AcDbLine
 10
4.418780829947187
 20
5.187
 30
0.0
 11
4.422780829947187
 21
5.184
 31
0.0
  0
LINE
  5
16A8
330
18
100
AcDbEntity
  8
Object
100
AcDbLine
 10
4.420780829947187
 20
5.230999999999999
 30
0.0
 11
4.417780829947187
 21
5.230999999999999
 31
0.0
  0
LINE
  5
16A9
330
18
100
AcDbEntity
  8
Object
100
AcDbLine
 10
4.413780829947187
 20
5.187999999999999
 30
0.0
 11
4.418780829947187
 21
5.187
 31
0.0
  0
LINE
  5
16AA
330
18
100
AcDbEntity
  8
Object
100
AcDbLine
 10
4.417780829947187
 20
5.230999999999999
 30
0.0
 11
4.413780829947187
 21
5.230999999999999
 31
0.0
  0
LINE
  5
16AB
330
18
100
AcDbEntity
  8
Object
100
AcDbLine
 10
6.120780829947187
 20
5.230999999999999
 30
0.0
 11
6.123780829947187
 21
5.230999999999999
 31
0.0
  0
LINE
  5
16AC
330
18
100
AcDbEntity
  8
Object
100
AcDbLine
 10
6.123780829947187
 20
5.230999999999999
 30
0.0
 11
6.123780829947187
 21
5.187999999999999
 31
0.0
  0
LINE
  5
16AD
330
18
100
AcDbEntity
  8
Object
100
AcDbLine
 10
6.123780829947187
 20
5.187999999999999
 30
0.0
 11
6.118780829947187
 21
5.187
 31
0.0
  0
LINE
  5
16AE
330
18
100
AcDbEntity
  8
Object
100
AcDbLine
 10
6.120780829947187
 20
5.230999999999999
 30
0.0
 11
6.116780829947187
 21
5.230999999999999
 31
0.0
  0
LINE
  5
16AF
330
18
100
AcDbEntity
  8
Object
100
AcDbLine
 10
6.115780829947187
 20
5.184
 30
0.0
 11
6.118780829947187
 21
5.187
 31
0.0
  0
LINE
  5
16B0
330
18
100
AcDbEntity
  8
Object
100
AcDbLine
 10
6.116780829947187
 20
5.230999999999999
 30
0.0
 11
6.114780829947187
 21
5.230999999999999
 31
0.0
  0
LINE
  5
16B1
330
18
100
AcDbEntity
  8
Object
100
AcDbLine
 10
6.114780829947187
 20
5.230999999999999
 30
0.0
 11
6.113780829947187
 21
5.230999999999999
 31
0.0
  0
LINE
  5
16B2
330
18
100
AcDbEntity
  8
Object
100
AcDbLine
 10
6.073780829947187
 20
5.230999999999999
 30
0.0
 11
6.073780829947187
 21
5.181
 31
0.0
  0
LINE
  5
16B3
330
18
100
AcDbEntity
  8
Object
100
AcDbLine
 10
6.073780829947187
 20
5.181
 30
0.0
 11
4.463780829947187
 21
5.181
 31
0.0
  0
LINE
  5
16B4
330
18
100
AcDbEntity
  8
Object
100
AcDbLine
 10
6.073780829947187
 20
5.230999999999999
 30
0.0
 11
4.463780829947187
 21
5.230999999999999
 31
0.0
  0
LINE
  5
16B5
330
18
100
AcDbEntity
  8
Object
100
AcDbLine
 10
4.423780829947187
 20
5.230999999999999
 30
0.0
 11
4.423780829947187
 21
5.181
 31
0.0
  0
LINE
  5
16B6
330
18
100
AcDbEntity
  8
Object
100
AcDbLine
 10
6.266780829947187
 20
5.230999999999999
 30
0.0
 11
6.265780829947187
 21
5.187
 31
0.0
  0
LINE
  5
16B7
330
18
100
AcDbEntity
  8
Object
100
AcDbLine
 10
6.196780829947187
 20
5.230999999999999
 30
0.0
 11
6.123780829947187
 21
5.230999999999999
 31
0.0
  0
LINE
  5
16B8
330
18
100
AcDbEntity
  8
Object
100
AcDbLine
 10
6.265780829947187
 20
5.187
 30
0.0
 11
6.263780829947187
 21
5.166
 31
0.0
  0
LINE
  5
16B9
330
18
100
AcDbEntity
  8
Object
100
AcDbLine
 10
6.263780829947187
 20
5.166
 30
0.0
 11
6.257780829947187
 21
5.145
 31
0.0
  0
LINE
  5
16BA
330
18
100
AcDbEntity
  8
Object
100
AcDbLine
 10
6.257780829947187
 20
5.145
 30
0.0
 11
6.246780829947187
 21
5.125
 31
0.0
  0
LINE
  5
16BB
330
18
100
AcDbEntity
  8
Object
100
AcDbLine
 10
6.246780829947187
 20
5.125
 30
0.0
 11
6.231780829947187
 21
5.107
 31
0.0
  0
LINE
  5
16BC
330
18
100
AcDbEntity
  8
Object
100
AcDbLine
 10
6.231780829947187
 20
5.107
 30
0.0
 11
6.213780829947187
 21
5.092
 31
0.0
  0
LINE
  5
16BD
330
18
100
AcDbEntity
  8
Object
100
AcDbLine
 10
6.213780829947187
 20
5.092
 30
0.0
 11
6.192780829947187
 21
5.081
 31
0.0
  0
LINE
  5
16BE
330
18
100
AcDbEntity
  8
Object
100
AcDbLine
 10
6.192780829947187
 20
5.081
 30
0.0
 11
6.171780829947187
 21
5.075
 31
0.0
  0
LINE
  5
16BF
330
18
100
AcDbEntity
  8
Object
100
AcDbLine
 10
6.171780829947187
 20
5.075
 30
0.0
 11
6.150780829947187
 21
5.073999999999999
 31
0.0
  0
LINE
  5
16C0
330
18
100
AcDbEntity
  8
Object
100
AcDbLine
 10
6.112780829947187
 20
5.158999999999999
 30
0.0
 11
6.098780829947187
 21
5.15
 31
0.0
  0
LINE
  5
16C1
330
18
100
AcDbEntity
  8
Object
100
AcDbLine
 10
6.098780829947187
 20
5.15
 30
0.0
 11
6.083780829947187
 21
5.147999999999999
 31
0.0
  0
LINE
  5
16C2
330
18
100
AcDbEntity
  8
Object
100
AcDbLine
 10
6.083780829947187
 20
5.147999999999999
 30
0.0
 11
4.453780829947187
 21
5.147999999999999
 31
0.0
  0
LINE
  5
16C3
330
18
100
AcDbEntity
  8
Object
100
AcDbLine
 10
4.386780829947187
 20
5.073999999999999
 30
0.0
 11
6.150780829947187
 21
5.073999999999999
 31
0.0
  0
LINE
  5
16C4
330
18
100
AcDbEntity
  8
Object
100
AcDbLine
 10
4.425780829947187
 20
5.158999999999999
 30
0.0
 11
4.438780829947187
 21
5.15
 31
0.0
  0
LINE
  5
16C5
330
18
100
AcDbEntity
  8
Object
100
AcDbLine
 10
4.438780829947187
 20
5.15
 30
0.0
 11
4.453780829947187
 21
5.147999999999999
 31
0.0
  0
LINE
  5
16C6
330
18
100
AcDbEntity
  8
Object
100
AcDbLine
 10
4.386780829947187
 20
5.073999999999999
 30
0.0
 11
4.365780829947187
 21
5.075
 31
0.0
  0
LINE
  5
16C7
330
18
100
AcDbEntity
  8
Object
100
AcDbLine
 10
4.365780829947187
 20
5.075
 30
0.0
 11
4.344780829947187
 21
5.081
 31
0.0
  0
LINE
  5
16C8
330
18
100
AcDbEntity
  8
Object
100
AcDbLine
 10
4.340780829947187
 20
5.230999999999999
 30
0.0
 11
4.413780829947187
 21
5.230999999999999
 31
0.0
  0
LINE
  5
16C9
330
18
100
AcDbEntity
  8
Object
100
AcDbLine
 10
4.413780829947187
 20
5.230999999999999
 30
0.0
 11
4.413780829947187
 21
5.187999999999999
 31
0.0
  0
LINE
  5
16CA
330
18
100
AcDbEntity
  8
Object
100
AcDbLine
 10
4.305780829947186
 20
5.107
 30
0.0
 11
4.324780829947187
 21
5.092
 31
0.0
  0
LINE
  5
16CB
330
18
100
AcDbEntity
  8
Object
100
AcDbLine
 10
4.425780829947187
 20
5.158999999999999
 30
0.0
 11
4.416780829947187
 21
5.173
 31
0.0
  0
LINE
  5
16CC
330
18
100
AcDbEntity
  8
Object
100
AcDbLine
 10
4.280780829947187
 20
5.145
 30
0.0
 11
4.290780829947187
 21
5.125
 31
0.0
  0
LINE
  5
16CD
330
18
100
AcDbEntity
  8
Object
100
AcDbLine
 10
4.416780829947187
 20
5.173
 30
0.0
 11
4.413780829947187
 21
5.187999999999999
 31
0.0
  0
LINE
  5
16CE
330
18
100
AcDbEntity
  8
Object
100
AcDbLine
 10
4.270780829947187
 20
5.230999999999999
 30
0.0
 11
4.271780829947187
 21
5.187
 31
0.0
  0
LINE
  5
16CF
330
18
100
AcDbEntity
  8
Object
100
AcDbLine
 10
6.306780829947187
 20
6.921999999999999
 30
0.0
 11
6.306780829947187
 21
6.924999999999999
 31
0.0
  0
LINE
  5
16D0
330
18
100
AcDbEntity
  8
Object
100
AcDbLine
 10
6.306780829947187
 20
6.924999999999999
 30
0.0
 11
6.307780829947187
 21
6.991
 31
0.0
  0
LINE
  5
16D1
330
18
100
AcDbEntity
  8
Object
100
AcDbLine
 10
6.306780829947187
 20
6.919999999999999
 30
0.0
 11
6.306780829947187
 21
6.921
 31
0.0
  0
LINE
  5
16D2
330
18
100
AcDbEntity
  8
Object
100
AcDbLine
 10
6.306780829947187
 20
6.921
 30
0.0
 11
6.306780829947187
 21
6.921999999999999
 31
0.0
  0
LINE
  5
16D3
330
18
100
AcDbEntity
  8
Object
100
AcDbLine
 10
6.275780829947187
 20
5.193
 30
0.0
 11
6.276780829947187
 21
5.230999999999999
 31
0.0
  0
LINE
  5
16D4
330
18
100
AcDbEntity
  8
Object
100
AcDbLine
 10
6.306780829947187
 20
6.919999999999999
 30
0.0
 11
6.356780829947187
 21
6.919999999999999
 31
0.0
  0
LINE
  5
16D5
330
18
100
AcDbEntity
  8
Object
100
AcDbLine
 10
6.356780829947187
 20
6.919999999999999
 30
0.0
 11
6.327780829947187
 21
5.270999999999999
 31
0.0
  0
LINE
  5
16D6
330
18
100
AcDbEntity
  8
Object
100
AcDbLine
 10
6.327780829947187
 20
5.270999999999999
 30
0.0
 11
6.277780829947187
 21
5.270999999999999
 31
0.0
  0
LINE
  5
16D7
330
18
100
AcDbEntity
  8
Object
100
AcDbLine
 10
6.277780829947187
 20
5.270999999999999
 30
0.0
 11
6.306780829947187
 21
6.919999999999999
 31
0.0
  0
LINE
  5
16D8
330
18
100
AcDbEntity
  8
Object
100
AcDbLine
 10
6.383780829947187
 20
6.799
 30
0.0
 11
6.357780829947187
 21
5.259999999999999
 31
0.0
  0
LINE
  5
16D9
330
18
100
AcDbEntity
  8
Object
100
AcDbLine
 10
6.357780829947187
 20
5.259999999999999
 30
0.0
 11
6.354780829947187
 21
5.248999999999999
 31
0.0
  0
LINE
  5
16DA
330
18
100
AcDbEntity
  8
Object
100
AcDbLine
 10
6.354780829947187
 20
5.248999999999999
 30
0.0
 11
6.353780829947187
 21
5.246999999999999
 31
0.0
  0
LINE
  5
16DB
330
18
100
AcDbEntity
  8
Object
100
AcDbLine
 10
6.347780829947187
 20
5.238999999999999
 30
0.0
 11
6.350780829947187
 21
5.243
 31
0.0
  0
LINE
  5
16DC
330
18
100
AcDbEntity
  8
Object
100
AcDbLine
 10
6.383780829947187
 20
6.919999999999999
 30
0.0
 11
6.386780829947187
 21
6.919999999999999
 31
0.0
  0
LINE
  5
16DD
330
18
100
AcDbEntity
  8
Object
100
AcDbLine
 10
6.386780829947187
 20
6.919999999999999
 30
0.0
 11
6.357780829947187
 21
5.27
 31
0.0
  0
LINE
  5
16DE
330
18
100
AcDbEntity
  8
Object
100
AcDbLine
 10
6.383780829947187
 20
6.919999999999999
 30
0.0
 11
6.377780829947187
 21
6.919999999999999
 31
0.0
  0
LINE
  5
16DF
330
18
100
AcDbEntity
  8
Object
100
AcDbLine
 10
6.357780829947187
 20
5.27
 30
0.0
 11
6.353780829947187
 21
5.27
 31
0.0
  0
LINE
  5
16E0
330
18
100
AcDbEntity
  8
Object
100
AcDbLine
 10
6.353780829947187
 20
5.27
 30
0.0
 11
6.342780829947187
 21
5.27
 31
0.0
  0
LINE
  5
16E1
330
18
100
AcDbEntity
  8
Object
100
AcDbLine
 10
6.377780829947187
 20
6.919999999999999
 30
0.0
 11
6.367780829947187
 21
6.919999999999999
 31
0.0
  0
LINE
  5
16E2
330
18
100
AcDbEntity
  8
Object
100
AcDbLine
 10
6.327780829947187
 20
5.270999999999999
 30
0.0
 11
6.342780829947187
 21
5.27
 31
0.0
  0
LINE
  5
16E3
330
18
100
AcDbEntity
  8
Object
100
AcDbLine
 10
6.367780829947187
 20
6.919999999999999
 30
0.0
 11
6.356780829947187
 21
6.919999999999999
 31
0.0
  0
LINE
  5
16E4
330
18
100
AcDbEntity
  8
Object
100
AcDbLine
 10
6.306780829947187
 20
6.919999999999999
 30
0.0
 11
6.305780829947187
 21
6.919999999999999
 31
0.0
  0
LINE
  5
16E5
330
18
100
AcDbEntity
  8
Object
100
AcDbLine
 10
6.275780829947187
 20
5.230999999999999
 30
0.0
 11
6.276780829947187
 21
5.230999999999999
 31
0.0
  0
LINE
  5
16E6
330
18
100
AcDbEntity
  8
Object
100
AcDbLine
 10
6.299780829947187
 20
6.919999999999999
 30
0.0
 11
6.303780829947187
 21
6.919999999999999
 31
0.0
  0
LINE
  5
16E7
330
18
100
AcDbEntity
  8
Object
100
AcDbLine
 10
6.303780829947187
 20
6.919999999999999
 30
0.0
 11
6.305780829947187
 21
6.919999999999999
 31
0.0
  0
LINE
  5
16E8
330
18
100
AcDbEntity
  8
Object
100
AcDbLine
 10
6.275780829947187
 20
5.230999999999999
 30
0.0
 11
6.273780829947187
 21
5.230999999999999
 31
0.0
  0
LINE
  5
16E9
330
18
100
AcDbEntity
  8
Object
100
AcDbLine
 10
6.273780829947187
 20
5.230999999999999
 30
0.0
 11
6.270780829947187
 21
5.230999999999999
 31
0.0
  0
LINE
  5
16EA
330
18
100
AcDbEntity
  8
Object
100
AcDbLine
 10
6.299780829947187
 20
6.919999999999999
 30
0.0
 11
6.296780829947187
 21
6.919999999999999
 31
0.0
  0
LINE
  5
16EB
330
18
100
AcDbEntity
  8
Object
100
AcDbLine
 10
6.266780829947187
 20
5.230999999999999
 30
0.0
 11
6.270780829947187
 21
5.230999999999999
 31
0.0
  0
LINE
  5
16EC
330
18
100
AcDbEntity
  8
Object
100
AcDbLine
 10
6.372780829947187
 20
6.129
 30
0.0
 11
6.372780829947187
 21
6.118999999999999
 31
0.0
  0
LINE
  5
16ED
330
18
100
AcDbEntity
  8
Object
100
AcDbLine
 10
6.372780829947187
 20
6.118999999999999
 30
0.0
 11
6.371780829947187
 21
6.091
 31
0.0
  0
LINE
  5
16EE
330
18
100
AcDbEntity
  8
Object
100
AcDbLine
 10
6.357780829947187
 20
5.266
 30
0.0
 11
6.357780829947187
 21
5.262999999999999
 31
0.0
  0
LINE
  5
16EF
330
18
100
AcDbEntity
  8
Object
100
AcDbLine
 10
6.357780829947187
 20
5.262999999999999
 30
0.0
 11
6.357780829947187
 21
5.261
 31
0.0
  0
LINE
  5
16F0
330
18
100
AcDbEntity
  8
Object
100
AcDbLine
 10
6.357780829947187
 20
5.27
 30
0.0
 11
6.386780829947187
 21
6.919999999999999
 31
0.0
  0
LINE
  5
16F1
330
18
100
AcDbEntity
  8
Object
100
AcDbLine
 10
6.383780829947187
 20
6.799
 30
0.0
 11
6.357780829947187
 21
5.259999999999999
 31
0.0
  0
LINE
  5
16F2
330
18
100
AcDbEntity
  8
Object
100
AcDbLine
 10
6.357780829947187
 20
5.259999999999999
 30
0.0
 11
6.357780829947187
 21
5.261
 31
0.0
  0
LINE
  5
16F3
330
18
100
AcDbEntity
  8
Object
100
AcDbLine
 10
6.357780829947187
 20
5.266
 30
0.0
 11
6.357780829947187
 21
5.27
 31
0.0
  0
LINE
  5
16F4
330
18
100
AcDbEntity
  8
Object
100
AcDbLine
 10
6.342780829947187
 20
5.235
 30
0.0
 11
6.347780829947187
 21
5.238999999999999
 31
0.0
  0
LINE
  5
16F5
330
18
100
AcDbEntity
  8
Object
100
AcDbLine
 10
6.340780829947187
 20
5.233999999999999
 30
0.0
 11
6.338780829947187
 21
5.233
 31
0.0
  0
LINE
  5
16F6
330
18
100
AcDbEntity
  8
Object
100
AcDbLine
 10
6.338780829947187
 20
5.233
 30
0.0
 11
6.327780829947187
 21
5.230999999999999
 31
0.0
  0
LINE
  5
16F7
330
18
100
AcDbEntity
  8
Object
100
AcDbLine
 10
6.347780829947187
 20
5.238999999999999
 30
0.0
 11
6.347780829947187
 21
5.24
 31
0.0
  0
LINE
  5
16F8
330
18
100
AcDbEntity
  8
Object
100
AcDbLine
 10
6.294780829947187
 20
6.280999999999999
 30
0.0
 11
6.294780829947187
 21
6.272999999999999
 31
0.0
  0
LINE
  5
16F9
330
18
100
AcDbEntity
  8
Object
100
AcDbLine
 10
6.294780829947187
 20
6.272999999999999
 30
0.0
 11
6.294780829947187
 21
6.25
 31
0.0
  0
LINE
  5
16FA
330
18
100
AcDbEntity
  8
Object
100
AcDbLine
 10
6.294780829947187
 20
6.25
 30
0.0
 11
6.293780829947187
 21
6.214999999999999
 31
0.0
  0
LINE
  5
16FB
330
18
100
AcDbEntity
  8
Object
100
AcDbLine
 10
6.293780829947187
 20
6.214999999999999
 30
0.0
 11
6.292780829947187
 21
6.169999999999999
 31
0.0
  0
LINE
  5
16FC
330
18
100
AcDbEntity
  8
Object
100
AcDbLine
 10
6.292780829947187
 20
6.169999999999999
 30
0.0
 11
6.292780829947187
 21
6.126999999999999
 31
0.0
  0
LINE
  5
16FD
330
18
100
AcDbEntity
  8
Object
100
AcDbLine
 10
6.291780829947187
 20
6.099
 30
0.0
 11
6.291780829947187
 21
6.070999999999999
 31
0.0
  0
LINE
  5
16FE
330
18
100
AcDbEntity
  8
Object
100
AcDbLine
 10
6.291780829947187
 20
6.070999999999999
 30
0.0
 11
6.290780829947187
 21
6.027
 31
0.0
  0
LINE
  5
16FF
330
18
100
AcDbEntity
  8
Object
100
AcDbLine
 10
6.290780829947187
 20
6.027
 30
0.0
 11
6.289780829947187
 21
5.991
 31
0.0
  0
LINE
  5
1700
330
18
100
AcDbEntity
  8
Object
100
AcDbLine
 10
6.289780829947187
 20
5.961
 30
0.0
 11
6.289780829947187
 21
5.967999999999999
 31
0.0
  0
LINE
  5
1701
330
18
100
AcDbEntity
  8
Object
100
AcDbLine
 10
6.289780829947187
 20
5.967999999999999
 30
0.0
 11
6.289780829947187
 21
5.991
 31
0.0
  0
LINE
  5
1702
330
18
100
AcDbEntity
  8
Object
100
AcDbLine
 10
6.306780829947187
 20
6.919999999999999
 30
0.0
 11
6.277780829947187
 21
5.270999999999999
 31
0.0
  0
LINE
  5
1703
330
18
100
AcDbEntity
  8
Object
100
AcDbLine
 10
6.277780829947187
 20
5.270999999999999
 30
0.0
 11
6.276780829947187
 21
5.256
 31
0.0
  0
LINE
  5
1704
330
18
100
AcDbEntity
  8
Object
100
AcDbLine
 10
6.276780829947187
 20
5.233
 30
0.0
 11
6.276780829947187
 21
5.241999999999999
 31
0.0
  0
LINE
  5
1705
330
18
100
AcDbEntity
  8
Object
100
AcDbLine
 10
6.276780829947187
 20
5.241999999999999
 30
0.0
 11
6.276780829947187
 21
5.256
 31
0.0
  0
LINE
  5
1706
330
18
100
AcDbEntity
  8
Object
100
AcDbLine
 10
6.276780829947187
 20
5.233
 30
0.0
 11
6.276780829947187
 21
5.230999999999999
 31
0.0
  0
LINE
  5
1707
330
18
100
AcDbEntity
  8
Object
100
AcDbLine
 10
6.317780829947187
 20
7.0
 30
0.0
 11
6.313780829947187
 21
7.0
 31
0.0
  0
LINE
  5
1708
330
18
100
AcDbEntity
  8
Object
100
AcDbLine
 10
6.313780829947187
 20
7.0
 30
0.0
 11
6.312780829947187
 21
6.999
 31
0.0
  0
LINE
  5
1709
330
18
100
AcDbEntity
  8
Object
100
AcDbLine
 10
6.312780829947187
 20
6.999
 30
0.0
 11
6.313780829947187
 21
7.0
 31
0.0
  0
LINE
  5
170A
330
18
100
AcDbEntity
  8
Object
100
AcDbLine
 10
6.317780829947187
 20
7.0
 30
0.0
 11
6.312780829947187
 21
6.999
 31
0.0
  0
LINE
  5
170B
330
18
100
AcDbEntity
  8
Object
100
AcDbLine
 10
6.312780829947187
 20
6.999
 30
0.0
 11
6.310780829947187
 21
6.998
 31
0.0
  0
LINE
  5
170C
330
18
100
AcDbEntity
  8
Object
100
AcDbLine
 10
6.310780829947187
 20
6.998
 30
0.0
 11
6.313780829947187
 21
7.0
 31
0.0
  0
LINE
  5
170D
330
18
100
AcDbEntity
  8
Object
100
AcDbLine
 10
6.310780829947187
 20
6.998
 30
0.0
 11
6.312780829947187
 21
6.999
 31
0.0
  0
LINE
  5
170E
330
18
100
AcDbEntity
  8
Object
100
AcDbLine
 10
6.312780829947187
 20
6.999
 30
0.0
 11
6.309780829947187
 21
6.996
 31
0.0
  0
LINE
  5
170F
330
18
100
AcDbEntity
  8
Object
100
AcDbLine
 10
6.310780829947187
 20
6.998
 30
0.0
 11
6.308780829947187
 21
6.993999999999999
 31
0.0
  0
LINE
  5
1710
330
18
100
AcDbEntity
  8
Object
100
AcDbLine
 10
6.308780829947187
 20
6.993999999999999
 30
0.0
 11
6.307780829947187
 21
6.991
 31
0.0
  0
LINE
  5
1711
330
18
100
AcDbEntity
  8
Object
100
AcDbLine
 10
6.397780829947187
 20
7.0
 30
0.0
 11
6.476780829947187
 21
7.0
 31
0.0
  0
LINE
  5
1712
330
18
100
AcDbEntity
  8
Object
100
AcDbLine
 10
6.317780829947187
 20
7.0
 30
0.0
 11
6.326780829947187
 21
7.0
 31
0.0
  0
LINE
  5
1713
330
18
100
AcDbEntity
  8
Object
100
AcDbLine
 10
6.479780829947187
 20
7.08
 30
0.0
 11
6.394780829947187
 21
7.08
 31
0.0
  0
LINE
  5
1714
330
18
100
AcDbEntity
  8
Object
100
AcDbLine
 10
4.260780829947186
 20
5.230999999999999
 30
0.0
 11
4.261780829947187
 21
5.193
 31
0.0
  0
LINE
  5
1715
330
18
100
AcDbEntity
  8
Object
100
AcDbLine
 10
4.231780829947187
 20
6.924999999999999
 30
0.0
 11
4.231780829947187
 21
6.921999999999999
 31
0.0
  0
LINE
  5
1716
330
18
100
AcDbEntity
  8
Object
100
AcDbLine
 10
4.231780829947187
 20
6.921999999999999
 30
0.0
 11
4.231780829947187
 21
6.921
 31
0.0
  0
LINE
  5
1717
330
18
100
AcDbEntity
  8
Object
100
AcDbLine
 10
4.231780829947187
 20
6.921
 30
0.0
 11
4.231780829947187
 21
6.919999999999999
 31
0.0
  0
LINE
  5
1718
330
18
100
AcDbEntity
  8
Object
100
AcDbLine
 10
4.261780829947187
 20
5.193
 30
0.0
 11
4.260780829947186
 21
5.230999999999999
 31
0.0
  0
LINE
  5
1719
330
18
100
AcDbEntity
  8
Object
100
AcDbLine
 10
4.230780829947187
 20
6.991
 30
0.0
 11
4.231780829947187
 21
6.924999999999999
 31
0.0
  0
LINE
  5
171A
330
18
100
AcDbEntity
  8
Object
100
AcDbLine
 10
4.210780829947188
 20
7.0
 30
0.0
 11
4.220780829947187
 21
7.0
 31
0.0
  0
LINE
  5
171B
330
18
100
AcDbEntity
  8
Object
100
AcDbLine
 10
4.061780829947187
 20
7.0
 30
0.0
 11
4.139780829947187
 21
7.0
 31
0.0
  0
LINE
  5
171C
330
18
100
AcDbEntity
  8
Object
100
AcDbLine
 10
4.230780829947187
 20
6.991
 30
0.0
 11
4.229780829947187
 21
6.993999999999999
 31
0.0
  0
LINE
  5
171D
330
18
100
AcDbEntity
  8
Object
100
AcDbLine
 10
4.229780829947187
 20
6.993999999999999
 30
0.0
 11
4.227780829947187
 21
6.998
 31
0.0
  0
LINE
  5
171E
330
18
100
AcDbEntity
  8
Object
100
AcDbLine
 10
4.227780829947187
 20
6.996
 30
0.0
 11
4.225780829947186
 21
6.999
 31
0.0
  0
LINE
  5
171F
330
18
100
AcDbEntity
  8
Object
100
AcDbLine
 10
4.225780829947186
 20
6.999
 30
0.0
 11
4.227780829947187
 21
6.998
 31
0.0
  0
LINE
  5
1720
330
18
100
AcDbEntity
  8
Object
100
AcDbLine
 10
4.227780829947187
 20
6.998
 30
0.0
 11
4.225780829947186
 21
6.999
 31
0.0
  0
LINE
  5
1721
330
18
100
AcDbEntity
  8
Object
100
AcDbLine
 10
4.225780829947186
 20
6.999
 30
0.0
 11
4.223780829947187
 21
7.0
 31
0.0
  0
LINE
  5
1722
330
18
100
AcDbEntity
  8
Object
100
AcDbLine
 10
4.223780829947187
 20
7.0
 30
0.0
 11
4.225780829947186
 21
6.999
 31
0.0
  0
LINE
  5
1723
330
18
100
AcDbEntity
  8
Object
100
AcDbLine
 10
4.223780829947187
 20
7.0
 30
0.0
 11
4.227780829947187
 21
6.998
 31
0.0
  0
LINE
  5
1724
330
18
100
AcDbEntity
  8
Object
100
AcDbLine
 10
4.225780829947186
 20
6.999
 30
0.0
 11
4.220780829947187
 21
7.0
 31
0.0
  0
LINE
  5
1725
330
18
100
AcDbEntity
  8
Object
100
AcDbLine
 10
4.220780829947187
 20
7.0
 30
0.0
 11
4.223780829947187
 21
7.0
 31
0.0
  0
LINE
  5
1726
330
18
100
AcDbEntity
  8
Object
100
AcDbLine
 10
4.142780829947187
 20
7.08
 30
0.0
 11
4.058780829947187
 21
7.08
 31
0.0
  0
LINE
  5
1727
330
18
100
AcDbEntity
  8
Object
100
AcDbLine
 10
4.267780829947187
 20
5.230999999999999
 30
0.0
 11
4.270780829947187
 21
5.230999999999999
 31
0.0
  0
LINE
  5
1728
330
18
100
AcDbEntity
  8
Object
100
AcDbLine
 10
4.241780829947186
 20
6.919999999999999
 30
0.0
 11
4.237780829947187
 21
6.919999999999999
 31
0.0
  0
LINE
  5
1729
330
18
100
AcDbEntity
  8
Object
100
AcDbLine
 10
4.263780829947187
 20
5.230999999999999
 30
0.0
 11
4.267780829947187
 21
5.230999999999999
 31
0.0
  0
LINE
  5
172A
330
18
100
AcDbEntity
  8
Object
100
AcDbLine
 10
4.237780829947187
 20
6.919999999999999
 30
0.0
 11
4.234780829947187
 21
6.919999999999999
 31
0.0
  0
LINE
  5
172B
330
18
100
AcDbEntity
  8
Object
100
AcDbLine
 10
4.261780829947187
 20
5.230999999999999
 30
0.0
 11
4.263780829947187
 21
5.230999999999999
 31
0.0
  0
LINE
  5
172C
330
18
100
AcDbEntity
  8
Object
100
AcDbLine
 10
4.234780829947187
 20
6.919999999999999
 30
0.0
 11
4.232780829947187
 21
6.919999999999999
 31
0.0
  0
LINE
  5
172D
330
18
100
AcDbEntity
  8
Object
100
AcDbLine
 10
4.232780829947187
 20
6.919999999999999
 30
0.0
 11
4.231780829947187
 21
6.919999999999999
 31
0.0
  0
LINE
  5
172E
330
18
100
AcDbEntity
  8
Object
100
AcDbLine
 10
4.260780829947186
 20
5.230999999999999
 30
0.0
 11
4.261780829947187
 21
5.230999999999999
 31
0.0
  0
LINE
  5
172F
330
18
100
AcDbEntity
  8
Object
100
AcDbLine
 10
4.260780829947186
 20
5.259
 30
0.0
 11
4.260780829947186
 21
5.251999999999999
 31
0.0
  0
LINE
  5
1730
330
18
100
AcDbEntity
  8
Object
100
AcDbLine
 10
4.180780829947186
 20
5.27
 30
0.0
 11
4.180780829947186
 21
5.266
 31
0.0
  0
LINE
  5
1731
330
18
100
AcDbEntity
  8
Object
100
AcDbLine
 10
4.180780829947186
 20
5.261
 30
0.0
 11
4.180780829947186
 21
5.262999999999999
 31
0.0
  0
LINE
  5
1732
330
18
100
AcDbEntity
  8
Object
100
AcDbLine
 10
4.180780829947186
 20
5.262999999999999
 30
0.0
 11
4.180780829947186
 21
5.266
 31
0.0
  0
LINE
  5
1733
330
18
100
AcDbEntity
  8
Object
100
AcDbLine
 10
4.180780829947186
 20
5.261
 30
0.0
 11
4.180780829947186
 21
5.259999999999999
 31
0.0
  0
LINE
  5
1734
330
18
100
AcDbEntity
  8
Object
100
AcDbLine
 10
4.167780829947187
 20
5.961
 30
0.0
 11
4.167780829947187
 21
5.967
 31
0.0
  0
LINE
  5
1735
330
18
100
AcDbEntity
  8
Object
100
AcDbLine
 10
4.167780829947187
 20
5.967
 30
0.0
 11
4.167780829947187
 21
5.980999999999999
 31
0.0
  0
LINE
  5
1736
330
18
100
AcDbEntity
  8
Object
100
AcDbLine
 10
4.167780829947187
 20
6.004
 30
0.0
 11
4.166780829947187
 21
6.025
 31
0.0
  0
LINE
  5
1737
330
18
100
AcDbEntity
  8
Object
100
AcDbLine
 10
4.166780829947187
 20
6.025
 30
0.0
 11
4.166780829947187
 21
6.06
 31
0.0
  0
LINE
  5
1738
330
18
100
AcDbEntity
  8
Object
100
AcDbLine
 10
4.165780829947187
 20
6.091
 30
0.0
 11
4.165780829947187
 21
6.118999999999999
 31
0.0
  0
LINE
  5
1739
330
18
100
AcDbEntity
  8
Object
100
AcDbLine
 10
4.165780829947187
 20
6.118999999999999
 30
0.0
 11
4.164780829947186
 21
6.169
 31
0.0
  0
LINE
  5
173A
330
18
100
AcDbEntity
  8
Object
100
AcDbLine
 10
4.164780829947186
 20
6.169
 30
0.0
 11
4.163780829947187
 21
6.201
 31
0.0
  0
LINE
  5
173B
330
18
100
AcDbEntity
  8
Object
100
AcDbLine
 10
4.162780829947188
 20
6.272999999999999
 30
0.0
 11
4.162780829947188
 21
6.278999999999999
 31
0.0
  0
LINE
  5
173C
330
18
100
AcDbEntity
  8
Object
100
AcDbLine
 10
4.151780829947187
 20
6.919999999999999
 30
0.0
 11
4.180780829947186
 21
5.27
 31
0.0
  0
LINE
  5
173D
330
18
100
AcDbEntity
  8
Object
100
AcDbLine
 10
4.162780829947188
 20
6.278999999999999
 30
0.0
 11
4.153780829947187
 21
6.799
 31
0.0
  0
LINE
  5
173E
330
18
100
AcDbEntity
  8
Object
100
AcDbLine
 10
4.163780829947187
 20
6.187999999999999
 30
0.0
 11
4.162780829947188
 21
6.274
 31
0.0
  0
LINE
  5
173F
330
18
100
AcDbEntity
  8
Object
100
AcDbLine
 10
4.166780829947187
 20
6.046
 30
0.0
 11
4.164780829947186
 21
6.121
 31
0.0
  0
LINE
  5
1740
330
18
100
AcDbEntity
  8
Object
100
AcDbLine
 10
4.167780829947187
 20
5.975
 30
0.0
 11
4.166780829947187
 21
6.012
 31
0.0
  0
LINE
  5
1741
330
18
100
AcDbEntity
  8
Object
100
AcDbLine
 10
4.180780829947186
 20
5.259999999999999
 30
0.0
 11
4.167780829947187
 21
5.963
 31
0.0
  0
LINE
  5
1742
330
18
100
AcDbEntity
  8
Object
100
AcDbLine
 10
4.186780829947187
 20
5.241999999999999
 30
0.0
 11
4.189780829947187
 21
5.238999999999999
 31
0.0
  0
LINE
  5
1743
330
18
100
AcDbEntity
  8
Object
100
AcDbLine
 10
4.182780829947187
 20
5.248999999999999
 30
0.0
 11
4.183780829947187
 21
5.246999999999999
 31
0.0
  0
LINE
  5
1744
330
18
100
AcDbEntity
  8
Object
100
AcDbLine
 10
4.189780829947187
 20
5.238999999999999
 30
0.0
 11
4.188780829947187
 21
5.24
 31
0.0
  0
LINE
  5
1745
330
18
100
AcDbEntity
  8
Object
100
AcDbLine
 10
4.182780829947187
 20
5.248999999999999
 30
0.0
 11
4.180780829947186
 21
5.259999999999999
 31
0.0
  0
LINE
  5
1746
330
18
100
AcDbEntity
  8
Object
100
AcDbLine
 10
4.180780829947186
 20
5.259999999999999
 30
0.0
 11
4.167780829947187
 21
5.963
 31
0.0
  0
LINE
  5
1747
330
18
100
AcDbEntity
  8
Object
100
AcDbLine
 10
4.166780829947187
 20
6.012
 30
0.0
 11
4.167780829947187
 21
5.975
 31
0.0
  0
LINE
  5
1748
330
18
100
AcDbEntity
  8
Object
100
AcDbLine
 10
4.164780829947186
 20
6.121
 30
0.0
 11
4.166780829947187
 21
6.046
 31
0.0
  0
LINE
  5
1749
330
18
100
AcDbEntity
  8
Object
100
AcDbLine
 10
4.162780829947188
 20
6.274
 30
0.0
 11
4.163780829947187
 21
6.187999999999999
 31
0.0
  0
LINE
  5
174A
330
18
100
AcDbEntity
  8
Object
100
AcDbLine
 10
4.153780829947187
 20
6.799
 30
0.0
 11
4.162780829947188
 21
6.278999999999999
 31
0.0
  0
LINE
  5
174B
330
18
100
AcDbEntity
  8
Object
100
AcDbLine
 10
4.260780829947186
 20
5.241999999999999
 30
0.0
 11
4.260780829947186
 21
5.233
 31
0.0
  0
LINE
  5
174C
330
18
100
AcDbEntity
  8
Object
100
AcDbLine
 10
4.260780829947186
 20
5.233
 30
0.0
 11
4.260780829947186
 21
5.230999999999999
 31
0.0
  0
LINE
  5
174D
330
18
100
AcDbEntity
  8
Object
100
AcDbLine
 10
4.260780829947186
 20
5.241999999999999
 30
0.0
 11
4.260780829947186
 21
5.256
 31
0.0
  0
LINE
  5
174E
330
18
100
AcDbEntity
  8
Object
100
AcDbLine
 10
4.260780829947186
 20
5.256
 30
0.0
 11
4.260780829947186
 21
5.270999999999999
 31
0.0
  0
LINE
  5
174F
330
18
100
AcDbEntity
  8
Object
100
AcDbLine
 10
4.247780829947187
 20
5.991
 30
0.0
 11
4.247780829947187
 21
5.980999999999999
 31
0.0
  0
LINE
  5
1750
330
18
100
AcDbEntity
  8
Object
100
AcDbLine
 10
4.247780829947187
 20
5.963
 30
0.0
 11
4.248780829947187
 21
5.961
 31
0.0
  0
LINE
  5
1751
330
18
100
AcDbEntity
  8
Object
100
AcDbLine
 10
4.247780829947187
 20
6.006
 30
0.0
 11
4.247780829947187
 21
5.991
 31
0.0
  0
LINE
  5
1752
330
18
100
AcDbEntity
  8
Object
100
AcDbLine
 10
4.246780829947187
 20
6.059
 30
0.0
 11
4.246780829947187
 21
6.070999999999999
 31
0.0
  0
LINE
  5
1753
330
18
100
AcDbEntity
  8
Object
100
AcDbLine
 10
4.246780829947187
 20
6.070999999999999
 30
0.0
 11
4.245780829947187
 21
6.099
 31
0.0
  0
LINE
  5
1754
330
18
100
AcDbEntity
  8
Object
100
AcDbLine
 10
4.243780829947187
 20
6.198999999999999
 30
0.0
 11
4.243780829947187
 21
6.214999999999999
 31
0.0
  0
LINE
  5
1755
330
18
100
AcDbEntity
  8
Object
100
AcDbLine
 10
4.243780829947187
 20
6.214999999999999
 30
0.0
 11
4.243780829947187
 21
6.25
 31
0.0
  0
LINE
  5
1756
330
18
100
AcDbEntity
  8
Object
100
AcDbLine
 10
4.243780829947187
 20
6.25
 30
0.0
 11
4.242780829947188
 21
6.272999999999999
 31
0.0
  0
LINE
  5
1757
330
18
100
AcDbEntity
  8
Object
100
AcDbLine
 10
4.242780829947188
 20
6.272999999999999
 30
0.0
 11
4.242780829947188
 21
6.275
 31
0.0
  0
LINE
  5
1758
330
18
100
AcDbEntity
  8
Object
100
AcDbLine
 10
4.260780829947186
 20
5.270999999999999
 30
0.0
 11
4.231780829947187
 21
6.919999999999999
 31
0.0
  0
LINE
  5
1759
330
18
100
AcDbEntity
  8
Object
100
AcDbLine
 10
4.260780829947186
 20
5.259
 30
0.0
 11
4.260780829947186
 21
5.251999999999999
 31
0.0
  0
LINE
  5
175A
330
18
100
AcDbEntity
  8
Object
100
AcDbLine
 10
4.231780829947187
 20
6.919999999999999
 30
0.0
 11
4.260780829947186
 21
5.270999999999999
 31
0.0
  0
LINE
  5
175B
330
18
100
AcDbEntity
  8
Object
100
AcDbLine
 10
4.260780829947186
 20
5.270999999999999
 30
0.0
 11
4.210780829947188
 21
5.270999999999999
 31
0.0
  0
LINE
  5
175C
330
18
100
AcDbEntity
  8
Object
100
AcDbLine
 10
4.231780829947187
 20
6.919999999999999
 30
0.0
 11
4.181780829947187
 21
6.919999999999999
 31
0.0
  0
LINE
  5
175D
330
18
100
AcDbEntity
  8
Object
100
AcDbLine
 10
4.195780829947187
 20
5.27
 30
0.0
 11
4.210780829947188
 21
5.270999999999999
 31
0.0
  0
LINE
  5
175E
330
18
100
AcDbEntity
  8
Object
100
AcDbLine
 10
4.170780829947187
 20
6.919999999999999
 30
0.0
 11
4.181780829947187
 21
6.919999999999999
 31
0.0
  0
LINE
  5
175F
330
18
100
AcDbEntity
  8
Object
100
AcDbLine
 10
4.181780829947187
 20
6.919999999999999
 30
0.0
 11
4.210780829947188
 21
5.270999999999999
 31
0.0
  0
LINE
  5
1760
330
18
100
AcDbEntity
  8
Object
100
AcDbLine
 10
4.170780829947187
 20
6.919999999999999
 30
0.0
 11
4.160780829947187
 21
6.919999999999999
 31
0.0
  0
LINE
  5
1761
330
18
100
AcDbEntity
  8
Object
100
AcDbLine
 10
4.195780829947187
 20
5.27
 30
0.0
 11
4.184780829947187
 21
5.27
 31
0.0
  0
LINE
  5
1762
330
18
100
AcDbEntity
  8
Object
100
AcDbLine
 10
4.184780829947187
 20
5.27
 30
0.0
 11
4.180780829947186
 21
5.27
 31
0.0
  0
LINE
  5
1763
330
18
100
AcDbEntity
  8
Object
100
AcDbLine
 10
4.160780829947187
 20
6.919999999999999
 30
0.0
 11
4.153780829947187
 21
6.919999999999999
 31
0.0
  0
LINE
  5
1764
330
18
100
AcDbEntity
  8
Object
100
AcDbLine
 10
4.180780829947186
 20
5.27
 30
0.0
 11
4.151780829947187
 21
6.919999999999999
 31
0.0
  0
LINE
  5
1765
330
18
100
AcDbEntity
  8
Object
100
AcDbLine
 10
4.151780829947187
 20
6.919999999999999
 30
0.0
 11
4.153780829947187
 21
6.919999999999999
 31
0.0
  0
LINE
  5
1766
330
18
100
AcDbEntity
  8
Object
100
AcDbLine
 10
4.196780829947186
 20
5.233999999999999
 30
0.0
 11
4.199780829947187
 21
5.233
 31
0.0
  0
LINE
  5
1767
330
18
100
AcDbEntity
  8
Object
100
AcDbLine
 10
4.189780829947187
 20
5.238999999999999
 30
0.0
 11
4.193780829947186
 21
5.235999999999999
 31
0.0
  0
LINE
  5
1768
330
18
100
AcDbEntity
  8
Object
100
AcDbLine
 10
4.199780829947187
 20
5.233
 30
0.0
 11
4.210780829947188
 21
5.230999999999999
 31
0.0
  0
LINE
  5
1769
330
18
100
AcDbEntity
  8
Object
100
AcDbLine
 10
4.158780829947187
 20
7.442
 30
0.0
 11
4.158780829947187
 21
7.411999999999999
 31
0.0
  0
LINE
  5
176A
330
18
100
AcDbEntity
  8
Object
100
AcDbLine
 10
4.348780829947187
 20
5.076999999999999
 30
0.0
 11
4.348780829947187
 21
5.076
 31
0.0
  0
LINE
  5
176B
330
18
100
AcDbEntity
  8
Object
100
AcDbLine
 10
4.316780829947187
 20
5.092
 30
0.0
 11
4.313780829947187
 21
5.094
 31
0.0
  0
LINE
  5
176C
330
18
100
AcDbEntity
  8
Object
100
AcDbLine
 10
4.313780829947187
 20
5.094
 30
0.0
 11
4.310780829947187
 21
5.097
 31
0.0
  0
LINE
  5
176D
330
18
100
AcDbEntity
  8
Object
100
AcDbLine
 10
4.288780829947187
 20
5.118
 30
0.0
 11
4.286780829947187
 21
5.121
 31
0.0
  0
LINE
  5
176E
330
18
100
AcDbEntity
  8
Object
100
AcDbLine
 10
4.286780829947187
 20
5.121
 30
0.0
 11
4.285780829947187
 21
5.121999999999999
 31
0.0
  0
LINE
  5
176F
330
18
100
AcDbEntity
  8
Object
100
AcDbLine
 10
4.268780829947187
 20
5.153
 30
0.0
 11
4.268780829947187
 21
5.155
 31
0.0
  0
LINE
  5
1770
330
18
100
AcDbEntity
  8
Object
100
AcDbLine
 10
4.268780829947187
 20
5.155
 30
0.0
 11
4.267780829947187
 21
5.158
 31
0.0
  0
LINE
  5
1771
330
18
100
AcDbEntity
  8
Object
100
AcDbLine
 10
6.269780829947187
 20
5.155
 30
0.0
 11
6.270780829947187
 21
5.161
 31
0.0
  0
LINE
  5
1772
330
18
100
AcDbEntity
  8
Object
100
AcDbLine
 10
6.270780829947187
 20
5.161
 30
0.0
 11
6.269780829947187
 21
5.155
 31
0.0
  0
LINE
  5
1773
330
18
100
AcDbEntity
  8
Object
100
AcDbLine
 10
6.269780829947187
 20
5.155
 30
0.0
 11
6.270780829947187
 21
5.161
 31
0.0
  0
LINE
  5
1774
330
18
100
AcDbEntity
  8
Object
100
AcDbLine
 10
6.266780829947187
 20
5.150999999999999
 30
0.0
 11
6.269780829947187
 21
5.155
 31
0.0
  0
LINE
  5
1775
330
18
100
AcDbEntity
  8
Object
100
AcDbLine
 10
6.251780829947187
 20
5.121999999999999
 30
0.0
 11
6.251780829947187
 21
5.121
 31
0.0
  0
LINE
  5
1776
330
18
100
AcDbEntity
  8
Object
100
AcDbLine
 10
6.251780829947187
 20
5.121
 30
0.0
 11
6.248780829947187
 21
5.118
 31
0.0
  0
LINE
  5
1777
330
18
100
AcDbEntity
  8
Object
100
AcDbLine
 10
6.226780829947187
 20
5.097
 30
0.0
 11
6.223780829947187
 21
5.094
 31
0.0
  0
LINE
  5
1778
330
18
100
AcDbEntity
  8
Object
100
AcDbLine
 10
6.223780829947187
 20
5.094
 30
0.0
 11
6.220780829947187
 21
5.092
 31
0.0
  0
LINE
  5
1779
330
18
100
AcDbEntity
  8
Object
100
AcDbLine
 10
6.189780829947187
 20
5.076999999999999
 30
0.0
 11
6.187780829947187
 21
5.076
 31
0.0
  0
LINE
  5
177A
330
18
100
AcDbEntity
  8
Object
100
AcDbLine
 10
6.108780829947187
 20
5.181
 30
0.0
 11
6.113780829947187
 21
5.181
 31
0.0
  0
LINE
  5
177B
330
18
100
AcDbEntity
  8
Object
100
AcDbLine
 10
6.113780829947187
 20
5.181
 30
0.0
 11
6.109780829947187
 21
5.166
 31
0.0
  0
LINE
  5
177C
330
18
100
AcDbEntity
  8
Object
100
AcDbLine
 10
6.109780829947187
 20
5.166
 30
0.0
 11
6.098780829947187
 21
5.155
 31
0.0
  0
LINE
  5
177D
330
18
100
AcDbEntity
  8
Object
100
AcDbLine
 10
6.098780829947187
 20
5.155
 30
0.0
 11
6.085780829947187
 21
5.150999999999999
 31
0.0
  0
LINE
  5
177E
330
18
100
AcDbEntity
  8
Object
100
AcDbLine
 10
6.073780829947187
 20
5.150999999999999
 30
0.0
 11
6.078780829947187
 21
5.150999999999999
 31
0.0
  0
LINE
  5
177F
330
18
100
AcDbEntity
  8
Object
100
AcDbLine
 10
4.463780829947187
 20
5.155
 30
0.0
 11
4.463780829947187
 21
5.150999999999999
 31
0.0
  0
LINE
  5
1780
330
18
100
AcDbEntity
  8
Object
100
AcDbLine
 10
4.463780829947187
 20
5.150999999999999
 30
0.0
 11
4.458780829947187
 21
5.150999999999999
 31
0.0
  0
LINE
  5
1781
330
18
100
AcDbEntity
  8
Object
100
AcDbLine
 10
4.463780829947187
 20
5.155
 30
0.0
 11
4.463780829947187
 21
5.166
 31
0.0
  0
LINE
  5
1782
330
18
100
AcDbEntity
  8
Object
100
AcDbLine
 10
4.463780829947187
 20
5.166
 30
0.0
 11
4.463780829947187
 21
5.181
 31
0.0
  0
LINE
  5
1783
330
18
100
AcDbEntity
  8
Object
100
AcDbLine
 10
4.451780829947187
 20
5.150999999999999
 30
0.0
 11
4.438780829947187
 21
5.155
 31
0.0
  0
LINE
  5
1784
330
18
100
AcDbEntity
  8
Object
100
AcDbLine
 10
4.438780829947187
 20
5.155
 30
0.0
 11
4.427780829947186
 21
5.166
 31
0.0
  0
LINE
  5
1785
330
18
100
AcDbEntity
  8
Object
100
AcDbLine
 10
4.427780829947186
 20
5.166
 30
0.0
 11
4.423780829947187
 21
5.181
 31
0.0
  0
LINE
  5
1786
330
18
100
AcDbEntity
  8
Object
100
AcDbLine
 10
6.113780829947187
 20
5.181
 30
0.0
 11
6.111780829947187
 21
5.169999999999999
 31
0.0
  0
LINE
  5
1787
330
18
100
AcDbEntity
  8
Object
100
AcDbLine
 10
6.111780829947187
 20
5.169999999999999
 30
0.0
 11
6.113780829947187
 21
5.181
 31
0.0
  0
LINE
  5
1788
330
18
100
AcDbEntity
  8
Object
100
AcDbLine
 10
6.113780829947187
 20
5.181
 30
0.0
 11
6.111780829947187
 21
5.169999999999999
 31
0.0
  0
LINE
  5
1789
330
18
100
AcDbEntity
  8
Object
100
AcDbLine
 10
6.111780829947187
 20
5.169999999999999
 30
0.0
 11
6.109780829947187
 21
5.166
 31
0.0
  0
LINE
  5
178A
330
18
100
AcDbEntity
  8
Object
100
AcDbLine
 10
6.109780829947187
 20
5.166
 30
0.0
 11
6.113780829947187
 21
5.181
 31
0.0
  0
LINE
  5
178B
330
18
100
AcDbEntity
  8
Object
100
AcDbLine
 10
6.111780829947187
 20
5.169999999999999
 30
0.0
 11
6.109780829947187
 21
5.166
 31
0.0
  0
LINE
  5
178C
330
18
100
AcDbEntity
  8
Object
100
AcDbLine
 10
6.109780829947187
 20
5.166
 30
0.0
 11
6.104780829947187
 21
5.158999999999999
 31
0.0
  0
LINE
  5
178D
330
18
100
AcDbEntity
  8
Object
100
AcDbLine
 10
6.104780829947187
 20
5.158999999999999
 30
0.0
 11
6.109780829947187
 21
5.166
 31
0.0
  0
LINE
  5
178E
330
18
100
AcDbEntity
  8
Object
100
AcDbLine
 10
6.108780829947187
 20
5.163999999999999
 30
0.0
 11
6.104780829947187
 21
5.158999999999999
 31
0.0
  0
LINE
  5
178F
330
18
100
AcDbEntity
  8
Object
100
AcDbLine
 10
6.111780829947187
 20
5.169999999999999
 30
0.0
 11
6.109780829947187
 21
5.166999999999999
 31
0.0
  0
LINE
  5
1790
330
18
100
AcDbEntity
  8
Object
100
AcDbLine
 10
6.104780829947187
 20
5.158999999999999
 30
0.0
 11
6.098780829947187
 21
5.155
 31
0.0
  0
LINE
  5
1791
330
18
100
AcDbEntity
  8
Object
100
AcDbLine
 10
6.098780829947187
 20
5.155
 30
0.0
 11
6.109780829947187
 21
5.166
 31
0.0
  0
LINE
  5
1792
330
18
100
AcDbEntity
  8
Object
100
AcDbLine
 10
6.098780829947187
 20
5.155
 30
0.0
 11
6.104780829947187
 21
5.158999999999999
 31
0.0
  0
LINE
  5
1793
330
18
100
AcDbEntity
  8
Object
100
AcDbLine
 10
6.097780829947187
 20
5.153999999999999
 30
0.0
 11
6.094780829947187
 21
5.153
 31
0.0
  0
LINE
  5
1794
330
18
100
AcDbEntity
  8
Object
100
AcDbLine
 10
6.104780829947187
 20
5.158999999999999
 30
0.0
 11
6.099780829947187
 21
5.155999999999999
 31
0.0
  0
LINE
  5
1795
330
18
100
AcDbEntity
  8
Object
100
AcDbLine
 10
6.094780829947187
 20
5.153
 30
0.0
 11
6.098780829947187
 21
5.155
 31
0.0
  0
LINE
  5
1796
330
18
100
AcDbEntity
  8
Object
100
AcDbLine
 10
6.098780829947187
 20
5.155
 30
0.0
 11
6.094780829947187
 21
5.153
 31
0.0
  0
LINE
  5
1797
330
18
100
AcDbEntity
  8
Object
100
AcDbLine
 10
6.094780829947187
 20
5.153
 30
0.0
 11
6.089780829947187
 21
5.150999999999999
 31
0.0
  0
LINE
  5
1798
330
18
100
AcDbEntity
  8
Object
100
AcDbLine
 10
6.089780829947187
 20
5.150999999999999
 30
0.0
 11
6.098780829947187
 21
5.155
 31
0.0
  0
LINE
  5
1799
330
18
100
AcDbEntity
  8
Object
100
AcDbLine
 10
6.098780829947187
 20
5.155
 30
0.0
 11
6.089780829947187
 21
5.150999999999999
 31
0.0
  0
LINE
  5
179A
330
18
100
AcDbEntity
  8
Object
100
AcDbLine
 10
6.089780829947187
 20
5.150999999999999
 30
0.0
 11
6.085780829947187
 21
5.150999999999999
 31
0.0
  0
LINE
  5
179B
330
18
100
AcDbEntity
  8
Object
100
AcDbLine
 10
6.085780829947187
 20
5.150999999999999
 30
0.0
 11
6.089780829947187
 21
5.150999999999999
 31
0.0
  0
LINE
  5
179C
330
18
100
AcDbEntity
  8
Object
100
AcDbLine
 10
6.089780829947187
 20
5.150999999999999
 30
0.0
 11
6.085780829947187
 21
5.150999999999999
 31
0.0
  0
LINE
  5
179D
330
18
100
AcDbEntity
  8
Object
100
AcDbLine
 10
4.451780829947187
 20
5.150999999999999
 30
0.0
 11
4.448780829947187
 21
5.150999999999999
 31
0.0
  0
LINE
  5
179E
330
18
100
AcDbEntity
  8
Object
100
AcDbLine
 10
4.453780829947187
 20
5.150999999999999
 30
0.0
 11
4.453780829947187
 21
5.15
 31
0.0
  0
LINE
  5
179F
330
18
100
AcDbEntity
  8
Object
100
AcDbLine
 10
4.453780829947187
 20
5.15
 30
0.0
 11
4.453780829947187
 21
5.149
 31
0.0
  0
LINE
  5
17A0
330
18
100
AcDbEntity
  8
Object
100
AcDbLine
 10
4.448780829947187
 20
5.150999999999999
 30
0.0
 11
4.442780829947187
 21
5.153
 31
0.0
  0
LINE
  5
17A1
330
18
100
AcDbEntity
  8
Object
100
AcDbLine
 10
4.453780829947187
 20
5.147999999999999
 30
0.0
 11
4.453780829947187
 21
5.149
 31
0.0
  0
LINE
  5
17A2
330
18
100
AcDbEntity
  8
Object
100
AcDbLine
 10
4.446780829947186
 20
5.150999999999999
 30
0.0
 11
4.442780829947187
 21
5.153
 31
0.0
  0
LINE
  5
17A3
330
18
100
AcDbEntity
  8
Object
100
AcDbLine
 10
4.442780829947187
 20
5.153
 30
0.0
 11
4.439780829947187
 21
5.153999999999999
 31
0.0
  0
LINE
  5
17A4
330
18
100
AcDbEntity
  8
Object
100
AcDbLine
 10
4.429780829947187
 20
5.16
 30
0.0
 11
4.438780829947187
 21
5.155
 31
0.0
  0
LINE
  5
17A5
330
18
100
AcDbEntity
  8
Object
100
AcDbLine
 10
4.437780829947187
 20
5.155
 30
0.0
 11
4.432780829947187
 21
5.158999999999999
 31
0.0
  0
LINE
  5
17A6
330
18
100
AcDbEntity
  8
Object
100
AcDbLine
 10
4.442780829947187
 20
5.153
 30
0.0
 11
4.439780829947187
 21
5.153999999999999
 31
0.0
  0
LINE
  5
17A7
330
18
100
AcDbEntity
  8
Object
100
AcDbLine
 10
4.438780829947187
 20
5.155
 30
0.0
 11
4.429780829947187
 21
5.16
 31
0.0
  0
LINE
  5
17A8
330
18
100
AcDbEntity
  8
Object
100
AcDbLine
 10
4.446780829947186
 20
5.150999999999999
 30
0.0
 11
4.439780829947187
 21
5.153999999999999
 31
0.0
  0
LINE
  5
17A9
330
18
100
AcDbEntity
  8
Object
100
AcDbLine
 10
4.427780829947186
 20
5.166999999999999
 30
0.0
 11
4.425780829947187
 21
5.169999999999999
 31
0.0
  0
LINE
  5
17AA
330
18
100
AcDbEntity
  8
Object
100
AcDbLine
 10
4.432780829947187
 20
5.158999999999999
 30
0.0
 11
4.428780829947188
 21
5.165
 31
0.0
  0
LINE
  5
17AB
330
18
100
AcDbEntity
  8
Object
100
AcDbLine
 10
4.425780829947187
 20
5.169999999999999
 30
0.0
 11
4.423780829947187
 21
5.181
 31
0.0
  0
LINE
  5
17AC
330
18
100
AcDbEntity
  8
Object
100
AcDbLine
 10
6.120780829947187
 20
5.173
 30
0.0
 11
6.123780829947187
 21
5.187999999999999
 31
0.0
  0
LINE
  5
17AD
330
18
100
AcDbEntity
  8
Object
100
AcDbLine
 10
6.111780829947187
 20
5.169999999999999
 30
0.0
 11
6.113780829947187
 21
5.181
 31
0.0
  0
LINE
  5
17AE
330
18
100
AcDbEntity
  8
Object
100
AcDbLine
 10
6.113780829947187
 20
5.181
 30
0.0
 11
6.115780829947187
 21
5.184
 31
0.0
  0
LINE
  5
17AF
330
18
100
AcDbEntity
  8
Object
100
AcDbLine
 10
6.112780829947187
 20
5.158999999999999
 30
0.0
 11
6.120780829947187
 21
5.173
 31
0.0
  0
LINE
  5
17B0
330
18
100
AcDbEntity
  8
Object
100
AcDbLine
 10
6.108780829947187
 20
5.163999999999999
 30
0.0
 11
6.104780829947187
 21
5.158999999999999
 31
0.0
  0
LINE
  5
17B1
330
18
100
AcDbEntity
  8
Object
100
AcDbLine
 10
6.111780829947187
 20
5.169999999999999
 30
0.0
 11
6.109780829947187
 21
5.166999999999999
 31
0.0
  0
LINE
  5
17B2
330
18
100
AcDbEntity
  8
Object
100
AcDbLine
 10
6.097780829947187
 20
5.153999999999999
 30
0.0
 11
6.094780829947187
 21
5.153
 31
0.0
  0
LINE
  5
17B3
330
18
100
AcDbEntity
  8
Object
100
AcDbLine
 10
6.104780829947187
 20
5.158999999999999
 30
0.0
 11
6.099780829947187
 21
5.155999999999999
 31
0.0
  0
LINE
  5
17B4
330
18
100
AcDbEntity
  8
Object
100
AcDbLine
 10
6.098780829947187
 20
5.155
 30
0.0
 11
6.107780829947187
 21
5.16
 31
0.0
  0
LINE
  5
17B5
330
18
100
AcDbEntity
  8
Object
100
AcDbLine
 10
6.094780829947187
 20
5.153
 30
0.0
 11
6.097780829947187
 21
5.153999999999999
 31
0.0
  0
LINE
  5
17B6
330
18
100
AcDbEntity
  8
Object
100
AcDbLine
 10
6.097780829947187
 20
5.153999999999999
 30
0.0
 11
6.090780829947187
 21
5.150999999999999
 31
0.0
  0
LINE
  5
17B7
330
18
100
AcDbEntity
  8
Object
100
AcDbLine
 10
6.107780829947187
 20
5.16
 30
0.0
 11
6.099780829947187
 21
5.155
 31
0.0
  0
LINE
  5
17B8
330
18
100
AcDbEntity
  8
Object
100
AcDbLine
 10
6.090780829947187
 20
5.150999999999999
 30
0.0
 11
6.094780829947187
 21
5.153
 31
0.0
  0
LINE
  5
17B9
330
18
100
AcDbEntity
  8
Object
100
AcDbLine
 10
6.094780829947187
 20
5.153
 30
0.0
 11
6.089780829947187
 21
5.150999999999999
 31
0.0
  0
LINE
  5
17BA
330
18
100
AcDbEntity
  8
Object
100
AcDbLine
 10
6.089780829947187
 20
5.150999999999999
 30
0.0
 11
6.085780829947187
 21
5.150999999999999
 31
0.0
  0
LINE
  5
17BB
330
18
100
AcDbEntity
  8
Object
100
AcDbLine
 10
6.073780829947187
 20
5.166
 30
0.0
 11
6.073780829947187
 21
5.155
 31
0.0
  0
LINE
  5
17BC
330
18
100
AcDbEntity
  8
Object
100
AcDbLine
 10
6.073780829947187
 20
5.155
 30
0.0
 11
6.073780829947187
 21
5.150999999999999
 31
0.0
  0
LINE
  5
17BD
330
18
100
AcDbEntity
  8
Object
100
AcDbLine
 10
6.073780829947187
 20
5.150999999999999
 30
0.0
 11
4.463780829947187
 21
5.150999999999999
 31
0.0
  0
LINE
  5
17BE
330
18
100
AcDbEntity
  8
Object
100
AcDbLine
 10
6.073780829947187
 20
5.166
 30
0.0
 11
6.073780829947187
 21
5.181
 31
0.0
  0
LINE
  5
17BF
330
18
100
AcDbEntity
  8
Object
100
AcDbLine
 10
6.078780829947187
 20
5.150999999999999
 30
0.0
 11
6.073780829947187
 21
5.150999999999999
 31
0.0
  0
LINE
  5
17C0
330
18
100
AcDbEntity
  8
Object
100
AcDbLine
 10
6.073780829947187
 20
5.150999999999999
 30
0.0
 11
4.463780829947187
 21
5.150999999999999
 31
0.0
  0
LINE
  5
17C1
330
18
100
AcDbEntity
  8
Object
100
AcDbLine
 10
4.463780829947187
 20
5.150999999999999
 30
0.0
 11
4.458780829947187
 21
5.150999999999999
 31
0.0
  0
LINE
  5
17C2
330
18
100
AcDbEntity
  8
Object
100
AcDbLine
 10
4.451780829947187
 20
5.150999999999999
 30
0.0
 11
4.448780829947187
 21
5.150999999999999
 31
0.0
  0
LINE
  5
17C3
330
18
100
AcDbEntity
  8
Object
100
AcDbLine
 10
4.448780829947187
 20
5.150999999999999
 30
0.0
 11
4.451780829947187
 21
5.150999999999999
 31
0.0
  0
LINE
  5
17C4
330
18
100
AcDbEntity
  8
Object
100
AcDbLine
 10
4.451780829947187
 20
5.150999999999999
 30
0.0
 11
4.448780829947187
 21
5.150999999999999
 31
0.0
  0
LINE
  5
17C5
330
18
100
AcDbEntity
  8
Object
100
AcDbLine
 10
4.448780829947187
 20
5.150999999999999
 30
0.0
 11
4.442780829947187
 21
5.153
 31
0.0
  0
LINE
  5
17C6
330
18
100
AcDbEntity
  8
Object
100
AcDbLine
 10
4.448780829947187
 20
5.150999999999999
 30
0.0
 11
4.438780829947187
 21
5.155
 31
0.0
  0
LINE
  5
17C7
330
18
100
AcDbEntity
  8
Object
100
AcDbLine
 10
4.438780829947187
 20
5.155
 30
0.0
 11
4.448780829947187
 21
5.150999999999999
 31
0.0
  0
LINE
  5
17C8
330
18
100
AcDbEntity
  8
Object
100
AcDbLine
 10
4.442780829947187
 20
5.153
 30
0.0
 11
4.438780829947187
 21
5.155
 31
0.0
  0
LINE
  5
17C9
330
18
100
AcDbEntity
  8
Object
100
AcDbLine
 10
4.438780829947187
 20
5.155
 30
0.0
 11
4.442780829947187
 21
5.153
 31
0.0
  0
LINE
  5
17CA
330
18
100
AcDbEntity
  8
Object
100
AcDbLine
 10
4.438780829947187
 20
5.155
 30
0.0
 11
4.432780829947187
 21
5.158999999999999
 31
0.0
  0
LINE
  5
17CB
330
18
100
AcDbEntity
  8
Object
100
AcDbLine
 10
4.432780829947187
 20
5.158999999999999
 30
0.0
 11
4.438780829947187
 21
5.155
 31
0.0
  0
LINE
  5
17CC
330
18
100
AcDbEntity
  8
Object
100
AcDbLine
 10
4.437780829947187
 20
5.155
 30
0.0
 11
4.432780829947187
 21
5.158999999999999
 31
0.0
  0
LINE
  5
17CD
330
18
100
AcDbEntity
  8
Object
100
AcDbLine
 10
4.442780829947187
 20
5.153
 30
0.0
 11
4.439780829947187
 21
5.153999999999999
 31
0.0
  0
LINE
  5
17CE
330
18
100
AcDbEntity
  8
Object
100
AcDbLine
 10
4.432780829947187
 20
5.158999999999999
 30
0.0
 11
4.427780829947186
 21
5.166
 31
0.0
  0
LINE
  5
17CF
330
18
100
AcDbEntity
  8
Object
100
AcDbLine
 10
4.427780829947186
 20
5.166
 30
0.0
 11
4.438780829947187
 21
5.155
 31
0.0
  0
LINE
  5
17D0
330
18
100
AcDbEntity
  8
Object
100
AcDbLine
 10
4.432780829947187
 20
5.158999999999999
 30
0.0
 11
4.427780829947186
 21
5.166
 31
0.0
  0
LINE
  5
17D1
330
18
100
AcDbEntity
  8
Object
100
AcDbLine
 10
4.427780829947186
 20
5.166
 30
0.0
 11
4.425780829947187
 21
5.169999999999999
 31
0.0
  0
LINE
  5
17D2
330
18
100
AcDbEntity
  8
Object
100
AcDbLine
 10
4.425780829947187
 20
5.169999999999999
 30
0.0
 11
4.427780829947186
 21
5.166999999999999
 31
0.0
  0
LINE
  5
17D3
330
18
100
AcDbEntity
  8
Object
100
AcDbLine
 10
4.432780829947187
 20
5.158999999999999
 30
0.0
 11
4.428780829947188
 21
5.165
 31
0.0
  0
LINE
  5
17D4
330
18
100
AcDbEntity
  8
Object
100
AcDbLine
 10
4.427780829947186
 20
5.166
 30
0.0
 11
4.425780829947187
 21
5.169999999999999
 31
0.0
  0
LINE
  5
17D5
330
18
100
AcDbEntity
  8
Object
100
AcDbLine
 10
4.425780829947187
 20
5.169999999999999
 30
0.0
 11
4.423780829947187
 21
5.181
 31
0.0
  0
LINE
  5
17D6
330
18
100
AcDbEntity
  8
Object
100
AcDbLine
 10
4.423780829947187
 20
5.181
 30
0.0
 11
4.427780829947186
 21
5.166
 31
0.0
  0
LINE
  5
17D7
330
18
100
AcDbEntity
  8
Object
100
AcDbLine
 10
4.425780829947187
 20
5.169999999999999
 30
0.0
 11
4.423780829947187
 21
5.181
 31
0.0
  0
LINE
  5
17D8
330
18
100
AcDbEntity
  8
Object
100
AcDbLine
 10
4.423780829947187
 20
5.181
 30
0.0
 11
4.425780829947187
 21
5.169999999999999
 31
0.0
  0
LINE
  5
17D9
330
18
100
AcDbEntity
  8
Object
100
AcDbLine
 10
6.274780829947187
 20
5.19
 30
0.0
 11
6.275780829947187
 21
5.193
 31
0.0
  0
LINE
  5
17DA
330
18
100
AcDbEntity
  8
Object
100
AcDbLine
 10
6.275780829947187
 20
5.193
 30
0.0
 11
6.273780829947187
 21
5.171
 31
0.0
  0
LINE
  5
17DB
330
18
100
AcDbEntity
  8
Object
100
AcDbLine
 10
6.274780829947187
 20
5.19
 30
0.0
 11
6.270780829947187
 21
5.187
 31
0.0
  0
LINE
  5
17DC
330
18
100
AcDbEntity
  8
Object
100
AcDbLine
 10
6.266780829947187
 20
5.147999999999999
 30
0.0
 11
6.273780829947187
 21
5.171
 31
0.0
  0
LINE
  5
17DD
330
18
100
AcDbEntity
  8
Object
100
AcDbLine
 10
6.270780829947187
 20
5.187
 30
0.0
 11
6.265780829947187
 21
5.187
 31
0.0
  0
LINE
  5
17DE
330
18
100
AcDbEntity
  8
Object
100
AcDbLine
 10
6.266780829947187
 20
5.147999999999999
 30
0.0
 11
6.254780829947187
 21
5.126
 31
0.0
  0
LINE
  5
17DF
330
18
100
AcDbEntity
  8
Object
100
AcDbLine
 10
6.254780829947187
 20
5.126
 30
0.0
 11
6.238780829947187
 21
5.105999999999999
 31
0.0
  0
LINE
  5
17E0
330
18
100
AcDbEntity
  8
Object
100
AcDbLine
 10
6.238780829947187
 20
5.105999999999999
 30
0.0
 11
6.218780829947187
 21
5.091
 31
0.0
  0
LINE
  5
17E1
330
18
100
AcDbEntity
  8
Object
100
AcDbLine
 10
6.218780829947187
 20
5.091
 30
0.0
 11
6.196780829947187
 21
5.078999999999999
 31
0.0
  0
LINE
  5
17E2
330
18
100
AcDbEntity
  8
Object
100
AcDbLine
 10
6.196780829947187
 20
5.078999999999999
 30
0.0
 11
6.173780829947187
 21
5.073
 31
0.0
  0
LINE
  5
17E3
330
18
100
AcDbEntity
  8
Object
100
AcDbLine
 10
6.173780829947187
 20
5.073
 30
0.0
 11
6.150780829947187
 21
5.070999999999999
 31
0.0
  0
LINE
  5
17E4
330
18
100
AcDbEntity
  8
Object
100
AcDbLine
 10
6.150780829947187
 20
5.070999999999999
 30
0.0
 11
6.173780829947187
 21
5.073
 31
0.0
  0
LINE
  5
17E5
330
18
100
AcDbEntity
  8
Object
100
AcDbLine
 10
6.083780829947187
 20
5.15
 30
0.0
 11
6.083780829947187
 21
5.149
 31
0.0
  0
LINE
  5
17E6
330
18
100
AcDbEntity
  8
Object
100
AcDbLine
 10
6.083780829947187
 20
5.149
 30
0.0
 11
6.083780829947187
 21
5.147999999999999
 31
0.0
  0
LINE
  5
17E7
330
18
100
AcDbEntity
  8
Object
100
AcDbLine
 10
6.083780829947187
 20
5.15
 30
0.0
 11
6.083780829947187
 21
5.150999999999999
 31
0.0
  0
LINE
  5
17E8
330
18
100
AcDbEntity
  8
Object
100
AcDbLine
 10
6.327780829947187
 20
5.230999999999999
 30
0.0
 11
6.276780829947187
 21
5.230999999999999
 31
0.0
  0
LINE
  5
17E9
330
18
100
AcDbEntity
  8
Object
100
AcDbLine
 10
6.276780829947187
 20
5.230999999999999
 30
0.0
 11
6.275780829947187
 21
5.230999999999999
 31
0.0
  0
LINE
  5
17EA
330
18
100
AcDbEntity
  8
Object
100
AcDbLine
 10
6.275780829947187
 20
5.230999999999999
 30
0.0
 11
6.273780829947187
 21
5.230999999999999
 31
0.0
  0
LINE
  5
17EB
330
18
100
AcDbEntity
  8
Object
100
AcDbLine
 10
6.273780829947187
 20
5.230999999999999
 30
0.0
 11
6.270780829947187
 21
5.230999999999999
 31
0.0
  0
LINE
  5
17EC
330
18
100
AcDbEntity
  8
Object
100
AcDbLine
 10
6.270780829947187
 20
5.230999999999999
 30
0.0
 11
6.266780829947187
 21
5.230999999999999
 31
0.0
  0
LINE
  5
17ED
330
18
100
AcDbEntity
  8
Object
100
AcDbLine
 10
6.266780829947187
 20
5.232
 30
0.0
 11
6.266780829947187
 21
5.23
 31
0.0
  0
LINE
  5
17EE
330
18
100
AcDbEntity
  8
Object
100
AcDbLine
 10
6.266780829947187
 20
5.230999999999999
 30
0.0
 11
6.270780829947187
 21
5.230999999999999
 31
0.0
  0
LINE
  5
17EF
330
18
100
AcDbEntity
  8
Object
100
AcDbLine
 10
4.386780829947187
 20
5.070999999999999
 30
0.0
 11
6.150780829947187
 21
5.070999999999999
 31
0.0
  0
LINE
  5
17F0
330
18
100
AcDbEntity
  8
Object
100
AcDbLine
 10
6.150780829947187
 20
5.070999999999999
 30
0.0
 11
6.150780829947187
 21
5.072
 31
0.0
  0
LINE
  5
17F1
330
18
100
AcDbEntity
  8
Object
100
AcDbLine
 10
6.150780829947187
 20
5.072
 30
0.0
 11
6.150780829947187
 21
5.073999999999999
 31
0.0
  0
LINE
  5
17F2
330
18
100
AcDbEntity
  8
Object
100
AcDbLine
 10
6.150780829947187
 20
5.070999999999999
 30
0.0
 11
4.386780829947187
 21
5.070999999999999
 31
0.0
  0
LINE
  5
17F3
330
18
100
AcDbEntity
  8
Object
100
AcDbLine
 10
4.386780829947187
 20
5.072
 30
0.0
 11
4.386780829947187
 21
5.073999999999999
 31
0.0
  0
LINE
  5
17F4
330
18
100
AcDbEntity
  8
Object
100
AcDbLine
 10
4.363780829947187
 20
5.073
 30
0.0
 11
4.386780829947187
 21
5.070999999999999
 31
0.0
  0
LINE
  5
17F5
330
18
100
AcDbEntity
  8
Object
100
AcDbLine
 10
4.386780829947187
 20
5.070999999999999
 30
0.0
 11
4.386780829947187
 21
5.072
 31
0.0
  0
LINE
  5
17F6
330
18
100
AcDbEntity
  8
Object
100
AcDbLine
 10
4.386780829947187
 20
5.070999999999999
 30
0.0
 11
4.363780829947187
 21
5.073
 31
0.0
  0
LINE
  5
17F7
330
18
100
AcDbEntity
  8
Object
100
AcDbLine
 10
4.363780829947187
 20
5.073
 30
0.0
 11
4.340780829947187
 21
5.078999999999999
 31
0.0
  0
LINE
  5
17F8
330
18
100
AcDbEntity
  8
Object
100
AcDbLine
 10
4.340780829947187
 20
5.078999999999999
 30
0.0
 11
4.318780829947186
 21
5.091
 31
0.0
  0
LINE
  5
17F9
330
18
100
AcDbEntity
  8
Object
100
AcDbLine
 10
4.344780829947187
 20
5.081
 30
0.0
 11
4.324780829947187
 21
5.092
 31
0.0
  0
LINE
  5
17FA
330
18
100
AcDbEntity
  8
Object
100
AcDbLine
 10
4.298780829947187
 20
5.105999999999999
 30
0.0
 11
4.318780829947186
 21
5.091
 31
0.0
  0
LINE
  5
17FB
330
18
100
AcDbEntity
  8
Object
100
AcDbLine
 10
4.305780829947186
 20
5.107
 30
0.0
 11
4.290780829947187
 21
5.125
 31
0.0
  0
LINE
  5
17FC
330
18
100
AcDbEntity
  8
Object
100
AcDbLine
 10
4.298780829947187
 20
5.105999999999999
 30
0.0
 11
4.282780829947187
 21
5.126
 31
0.0
  0
LINE
  5
17FD
330
18
100
AcDbEntity
  8
Object
100
AcDbLine
 10
4.282780829947187
 20
5.126
 30
0.0
 11
4.270780829947187
 21
5.147999999999999
 31
0.0
  0
LINE
  5
17FE
330
18
100
AcDbEntity
  8
Object
100
AcDbLine
 10
4.280780829947187
 20
5.145
 30
0.0
 11
4.273780829947186
 21
5.166
 31
0.0
  0
LINE
  5
17FF
330
18
100
AcDbEntity
  8
Object
100
AcDbLine
 10
4.266780829947187
 20
5.187
 30
0.0
 11
4.271780829947187
 21
5.187
 31
0.0
  0
LINE
  5
1800
330
18
100
AcDbEntity
  8
Object
100
AcDbLine
 10
4.271780829947187
 20
5.187
 30
0.0
 11
4.273780829947186
 21
5.166
 31
0.0
  0
LINE
  5
1801
330
18
100
AcDbEntity
  8
Object
100
AcDbLine
 10
4.263780829947187
 20
5.171
 30
0.0
 11
4.270780829947187
 21
5.147999999999999
 31
0.0
  0
LINE
  5
1802
330
18
100
AcDbEntity
  8
Object
100
AcDbLine
 10
4.266780829947187
 20
5.187
 30
0.0
 11
4.262780829947187
 21
5.19
 31
0.0
  0
LINE
  5
1803
330
18
100
AcDbEntity
  8
Object
100
AcDbLine
 10
4.263780829947187
 20
5.171
 30
0.0
 11
4.261780829947187
 21
5.193
 31
0.0
  0
LINE
  5
1804
330
18
100
AcDbEntity
  8
Object
100
AcDbLine
 10
4.261780829947187
 20
5.193
 30
0.0
 11
4.262780829947187
 21
5.19
 31
0.0
  0
LINE
  5
1805
330
18
100
AcDbEntity
  8
Object
100
AcDbLine
 10
4.270780829947187
 20
5.232
 30
0.0
 11
4.270780829947187
 21
5.23
 31
0.0
  0
LINE
  5
1806
330
18
100
AcDbEntity
  8
Object
100
AcDbLine
 10
4.267780829947187
 20
5.230999999999999
 30
0.0
 11
4.270780829947187
 21
5.230999999999999
 31
0.0
  0
LINE
  5
1807
330
18
100
AcDbEntity
  8
Object
100
AcDbLine
 10
4.270780829947187
 20
5.230999999999999
 30
0.0
 11
4.267780829947187
 21
5.230999999999999
 31
0.0
  0
LINE
  5
1808
330
18
100
AcDbEntity
  8
Object
100
AcDbLine
 10
4.267780829947187
 20
5.230999999999999
 30
0.0
 11
4.263780829947187
 21
5.230999999999999
 31
0.0
  0
LINE
  5
1809
330
18
100
AcDbEntity
  8
Object
100
AcDbLine
 10
4.263780829947187
 20
5.230999999999999
 30
0.0
 11
4.261780829947187
 21
5.230999999999999
 31
0.0
  0
LINE
  5
180A
330
18
100
AcDbEntity
  8
Object
100
AcDbLine
 10
4.261780829947187
 20
5.230999999999999
 30
0.0
 11
4.260780829947186
 21
5.230999999999999
 31
0.0
  0
LINE
  5
180B
330
18
100
AcDbEntity
  8
Object
100
AcDbLine
 10
4.260780829947186
 20
5.230999999999999
 30
0.0
 11
4.210780829947188
 21
5.230999999999999
 31
0.0
  0
LINE
  5
180C
330
18
100
AcDbEntity
  8
Object
100
AcDbLine
 10
6.275780829947187
 20
5.193
 30
0.0
 11
6.276780829947187
 21
5.230999999999999
 31
0.0
  0
LINE
  5
180D
330
18
100
AcDbEntity
  8
Object
100
AcDbLine
 10
6.265780829947187
 20
5.187
 30
0.0
 11
6.266780829947187
 21
5.230999999999999
 31
0.0
  0
LINE
  5
180E
330
18
100
AcDbEntity
  8
Object
100
AcDbLine
 10
6.266780829947187
 20
5.230999999999999
 30
0.0
 11
6.270780829947187
 21
5.230999999999999
 31
0.0
  0
LINE
  5
180F
330
18
100
AcDbEntity
  8
Object
100
AcDbLine
 10
4.267780829947187
 20
5.230999999999999
 30
0.0
 11
4.270780829947187
 21
5.230999999999999
 31
0.0
  0
LINE
  5
1810
330
18
100
AcDbEntity
  8
Object
100
AcDbLine
 10
4.270780829947187
 20
5.230999999999999
 30
0.0
 11
4.271780829947187
 21
5.187
 31
0.0
  0
LINE
  5
1811
330
18
100
AcDbEntity
  8
Object
100
AcDbLine
 10
4.260780829947186
 20
5.230999999999999
 30
0.0
 11
4.261780829947187
 21
5.193
 31
0.0
  0
LINE
  5
1812
330
18
100
AcDbEntity
  8
Object
100
AcDbLine
 10
6.275780829947187
 20
5.193
 30
0.0
 11
6.273780829947187
 21
5.171
 31
0.0
  0
LINE
  5
1813
330
18
100
AcDbEntity
  8
Object
100
AcDbLine
 10
6.273780829947187
 20
5.171
 30
0.0
 11
6.269780829947187
 21
5.155
 31
0.0
  0
LINE
  5
1814
330
18
100
AcDbEntity
  8
Object
100
AcDbLine
 10
6.269780829947187
 20
5.155
 30
0.0
 11
6.270780829947187
 21
5.161
 31
0.0
  0
LINE
  5
1815
330
18
100
AcDbEntity
  8
Object
100
AcDbLine
 10
6.273780829947187
 20
5.171
 30
0.0
 11
6.269780829947187
 21
5.155
 31
0.0
  0
LINE
  5
1816
330
18
100
AcDbEntity
  8
Object
100
AcDbLine
 10
6.269780829947187
 20
5.155
 30
0.0
 11
6.266780829947187
 21
5.147999999999999
 31
0.0
  0
LINE
  5
1817
330
18
100
AcDbEntity
  8
Object
100
AcDbLine
 10
6.266780829947187
 20
5.147999999999999
 30
0.0
 11
6.273780829947187
 21
5.171
 31
0.0
  0
LINE
  5
1818
330
18
100
AcDbEntity
  8
Object
100
AcDbLine
 10
6.269780829947187
 20
5.155
 30
0.0
 11
6.266780829947187
 21
5.147999999999999
 31
0.0
  0
LINE
  5
1819
330
18
100
AcDbEntity
  8
Object
100
AcDbLine
 10
6.266780829947187
 20
5.147999999999999
 30
0.0
 11
6.254780829947187
 21
5.126
 31
0.0
  0
LINE
  5
181A
330
18
100
AcDbEntity
  8
Object
100
AcDbLine
 10
6.251780829947187
 20
5.121999999999999
 30
0.0
 11
6.251780829947187
 21
5.121
 31
0.0
  0
LINE
  5
181B
330
18
100
AcDbEntity
  8
Object
100
AcDbLine
 10
6.269780829947187
 20
5.155
 30
0.0
 11
6.266780829947187
 21
5.150999999999999
 31
0.0
  0
LINE
  5
181C
330
18
100
AcDbEntity
  8
Object
100
AcDbLine
 10
6.252780829947187
 20
5.123
 30
0.0
 11
6.251780829947187
 21
5.121
 31
0.0
  0
LINE
  5
181D
330
18
100
AcDbEntity
  8
Object
100
AcDbLine
 10
6.251780829947187
 20
5.121
 30
0.0
 11
6.254780829947187
 21
5.126
 31
0.0
  0
LINE
  5
181E
330
18
100
AcDbEntity
  8
Object
100
AcDbLine
 10
6.254780829947187
 20
5.126
 30
0.0
 11
6.251780829947187
 21
5.121
 31
0.0
  0
LINE
  5
181F
330
18
100
AcDbEntity
  8
Object
100
AcDbLine
 10
6.251780829947187
 20
5.121
 30
0.0
 11
6.252780829947187
 21
5.123
 31
0.0
  0
LINE
  5
1820
330
18
100
AcDbEntity
  8
Object
100
AcDbLine
 10
6.254780829947187
 20
5.126
 30
0.0
 11
6.238780829947187
 21
5.105999999999999
 31
0.0
  0
LINE
  5
1821
330
18
100
AcDbEntity
  8
Object
100
AcDbLine
 10
6.238780829947187
 20
5.105999999999999
 30
0.0
 11
6.251780829947187
 21
5.121
 31
0.0
  0
LINE
  5
1822
330
18
100
AcDbEntity
  8
Object
100
AcDbLine
 10
6.251780829947187
 20
5.121
 30
0.0
 11
6.238780829947187
 21
5.105999999999999
 31
0.0
  0
LINE
  5
1823
330
18
100
AcDbEntity
  8
Object
100
AcDbLine
 10
6.238780829947187
 20
5.105999999999999
 30
0.0
 11
6.223780829947187
 21
5.094
 31
0.0
  0
LINE
  5
1824
330
18
100
AcDbEntity
  8
Object
100
AcDbLine
 10
6.223780829947187
 20
5.094
 30
0.0
 11
6.238780829947187
 21
5.105999999999999
 31
0.0
  0
LINE
  5
1825
330
18
100
AcDbEntity
  8
Object
100
AcDbLine
 10
6.223780829947187
 20
5.094
 30
0.0
 11
6.218780829947187
 21
5.091
 31
0.0
  0
LINE
  5
1826
330
18
100
AcDbEntity
  8
Object
100
AcDbLine
 10
6.218780829947187
 20
5.091
 30
0.0
 11
6.238780829947187
 21
5.105999999999999
 31
0.0
  0
LINE
  5
1827
330
18
100
AcDbEntity
  8
Object
100
AcDbLine
 10
6.223780829947187
 20
5.094
 30
0.0
 11
6.218780829947187
 21
5.091
 31
0.0
  0
LINE
  5
1828
330
18
100
AcDbEntity
  8
Object
100
AcDbLine
 10
6.218780829947187
 20
5.091
 30
0.0
 11
6.196780829947187
 21
5.078999999999999
 31
0.0
  0
LINE
  5
1829
330
18
100
AcDbEntity
  8
Object
100
AcDbLine
 10
6.223780829947187
 20
5.094
 30
0.0
 11
6.219780829947187
 21
5.092
 31
0.0
  0
LINE
  5
182A
330
18
100
AcDbEntity
  8
Object
100
AcDbLine
 10
6.219780829947187
 20
5.092
 30
0.0
 11
6.223780829947187
 21
5.094
 31
0.0
  0
LINE
  5
182B
330
18
100
AcDbEntity
  8
Object
100
AcDbLine
 10
6.185780829947187
 20
5.076999999999999
 30
0.0
 11
6.194780829947187
 21
5.076999999999999
 31
0.0
  0
LINE
  5
182C
330
18
100
AcDbEntity
  8
Object
100
AcDbLine
 10
6.223780829947187
 20
5.094
 30
0.0
 11
6.220780829947187
 21
5.092
 31
0.0
  0
LINE
  5
182D
330
18
100
AcDbEntity
  8
Object
100
AcDbLine
 10
6.189780829947187
 20
5.076999999999999
 30
0.0
 11
6.196780829947187
 21
5.078999999999999
 31
0.0
  0
LINE
  5
182E
330
18
100
AcDbEntity
  8
Object
100
AcDbLine
 10
6.196780829947187
 20
5.078999999999999
 30
0.0
 11
6.189780829947187
 21
5.076999999999999
 31
0.0
  0
LINE
  5
182F
330
18
100
AcDbEntity
  8
Object
100
AcDbLine
 10
6.189780829947187
 20
5.076999999999999
 30
0.0
 11
6.173780829947187
 21
5.073
 31
0.0
  0
LINE
  5
1830
330
18
100
AcDbEntity
  8
Object
100
AcDbLine
 10
6.173780829947187
 20
5.073
 30
0.0
 11
6.196780829947187
 21
5.078999999999999
 31
0.0
  0
LINE
  5
1831
330
18
100
AcDbEntity
  8
Object
100
AcDbLine
 10
6.189780829947187
 20
5.076999999999999
 30
0.0
 11
6.173780829947187
 21
5.073
 31
0.0
  0
LINE
  5
1832
330
18
100
AcDbEntity
  8
Object
100
AcDbLine
 10
6.173780829947187
 20
5.073
 30
0.0
 11
6.150780829947187
 21
5.070999999999999
 31
0.0
  0
LINE
  5
1833
330
18
100
AcDbEntity
  8
Object
100
AcDbLine
 10
6.327780829947187
 20
5.256
 30
0.0
 11
6.327780829947187
 21
5.270999999999999
 31
0.0
  0
LINE
  5
1834
330
18
100
AcDbEntity
  8
Object
100
AcDbLine
 10
6.276780829947187
 20
5.256
 30
0.0
 11
6.276780829947187
 21
5.241999999999999
 31
0.0
  0
LINE
  5
1835
330
18
100
AcDbEntity
  8
Object
100
AcDbLine
 10
6.327780829947187
 20
5.241999999999999
 30
0.0
 11
6.327780829947187
 21
5.233
 31
0.0
  0
LINE
  5
1836
330
18
100
AcDbEntity
  8
Object
100
AcDbLine
 10
6.327780829947187
 20
5.233
 30
0.0
 11
6.327780829947187
 21
5.230999999999999
 31
0.0
  0
LINE
  5
1837
330
18
100
AcDbEntity
  8
Object
100
AcDbLine
 10
6.327780829947187
 20
5.230999999999999
 30
0.0
 11
6.276780829947187
 21
5.230999999999999
 31
0.0
  0
LINE
  5
1838
330
18
100
AcDbEntity
  8
Object
100
AcDbLine
 10
6.276780829947187
 20
5.230999999999999
 30
0.0
 11
6.276780829947187
 21
5.233
 31
0.0
  0
LINE
  5
1839
330
18
100
AcDbEntity
  8
Object
100
AcDbLine
 10
6.276780829947187
 20
5.233
 30
0.0
 11
6.276780829947187
 21
5.241999999999999
 31
0.0
  0
LINE
  5
183A
330
18
100
AcDbEntity
  8
Object
100
AcDbLine
 10
6.327780829947187
 20
5.241999999999999
 30
0.0
 11
6.327780829947187
 21
5.256
 31
0.0
  0
LINE
  5
183B
330
18
100
AcDbEntity
  8
Object
100
AcDbLine
 10
6.277780829947187
 20
5.270999999999999
 30
0.0
 11
6.276780829947187
 21
5.256
 31
0.0
  0
LINE
  5
183C
330
18
100
AcDbEntity
  8
Object
100
AcDbLine
 10
6.357780829947187
 20
5.259999999999999
 30
0.0
 11
6.354780829947187
 21
5.248999999999999
 31
0.0
  0
LINE
  5
183D
330
18
100
AcDbEntity
  8
Object
100
AcDbLine
 10
6.354780829947187
 20
5.248999999999999
 30
0.0
 11
6.357780829947187
 21
5.259999999999999
 31
0.0
  0
LINE
  5
183E
330
18
100
AcDbEntity
  8
Object
100
AcDbLine
 10
6.357780829947187
 20
5.259999999999999
 30
0.0
 11
6.354780829947187
 21
5.248999999999999
 31
0.0
  0
LINE
  5
183F
330
18
100
AcDbEntity
  8
Object
100
AcDbLine
 10
6.354780829947187
 20
5.248999999999999
 30
0.0
 11
6.352780829947187
 21
5.245
 31
0.0
  0
LINE
  5
1840
330
18
100
AcDbEntity
  8
Object
100
AcDbLine
 10
6.352780829947187
 20
5.245
 30
0.0
 11
6.357780829947187
 21
5.259999999999999
 31
0.0
  0
LINE
  5
1841
330
18
100
AcDbEntity
  8
Object
100
AcDbLine
 10
6.354780829947187
 20
5.248999999999999
 30
0.0
 11
6.352780829947187
 21
5.245
 31
0.0
  0
LINE
  5
1842
330
18
100
AcDbEntity
  8
Object
100
AcDbLine
 10
6.352780829947187
 20
5.245
 30
0.0
 11
6.347780829947187
 21
5.238999999999999
 31
0.0
  0
LINE
  5
1843
330
18
100
AcDbEntity
  8
Object
100
AcDbLine
 10
6.347780829947187
 20
5.238999999999999
 30
0.0
 11
6.352780829947187
 21
5.245
 31
0.0
  0
LINE
  5
1844
330
18
100
AcDbEntity
  8
Object
100
AcDbLine
 10
6.350780829947187
 20
5.243
 30
0.0
 11
6.347780829947187
 21
5.238999999999999
 31
0.0
  0
LINE
  5
1845
330
18
100
AcDbEntity
  8
Object
100
AcDbLine
 10
6.354780829947187
 20
5.248999999999999
 30
0.0
 11
6.353780829947187
 21
5.246999999999999
 31
0.0
  0
LINE
  5
1846
330
18
100
AcDbEntity
  8
Object
100
AcDbLine
 10
6.347780829947187
 20
5.238999999999999
 30
0.0
 11
6.341780829947187
 21
5.235
 31
0.0
  0
LINE
  5
1847
330
18
100
AcDbEntity
  8
Object
100
AcDbLine
 10
6.341780829947187
 20
5.235
 30
0.0
 11
6.352780829947187
 21
5.245
 31
0.0
  0
LINE
  5
1848
330
18
100
AcDbEntity
  8
Object
100
AcDbLine
 10
6.341780829947187
 20
5.235
 30
0.0
 11
6.347780829947187
 21
5.238999999999999
 31
0.0
  0
LINE
  5
1849
330
18
100
AcDbEntity
  8
Object
100
AcDbLine
 10
6.340780829947187
 20
5.233999999999999
 30
0.0
 11
6.338780829947187
 21
5.233
 31
0.0
  0
LINE
  5
184A
330
18
100
AcDbEntity
  8
Object
100
AcDbLine
 10
6.347780829947187
 20
5.238999999999999
 30
0.0
 11
6.342780829947187
 21
5.235
 31
0.0
  0
LINE
  5
184B
330
18
100
AcDbEntity
  8
Object
100
AcDbLine
 10
6.338780829947187
 20
5.233
 30
0.0
 11
6.341780829947187
 21
5.235
 31
0.0
  0
LINE
  5
184C
330
18
100
AcDbEntity
  8
Object
100
AcDbLine
 10
6.341780829947187
 20
5.235
 30
0.0
 11
6.338780829947187
 21
5.233
 31
0.0
  0
LINE
  5
184D
330
18
100
AcDbEntity
  8
Object
100
AcDbLine
 10
6.338780829947187
 20
5.233
 30
0.0
 11
6.327780829947187
 21
5.230999999999999
 31
0.0
  0
LINE
  5
184E
330
18
100
AcDbEntity
  8
Object
100
AcDbLine
 10
6.327780829947187
 20
5.230999999999999
 30
0.0
 11
6.338780829947187
 21
5.233
 31
0.0
  0
LINE
  5
184F
330
18
100
AcDbEntity
  8
Object
100
AcDbLine
 10
6.338780829947187
 20
5.233
 30
0.0
 11
6.327780829947187
 21
5.230999999999999
 31
0.0
  0
LINE
  5
1850
330
18
100
AcDbEntity
  8
Object
100
AcDbLine
 10
6.327780829947187
 20
5.230999999999999
 30
0.0
 11
6.341780829947187
 21
5.235
 31
0.0
  0
LINE
  5
1851
330
18
100
AcDbEntity
  8
Object
100
AcDbLine
 10
6.357780829947187
 20
5.262999999999999
 30
0.0
 11
6.357780829947187
 21
5.266
 31
0.0
  0
LINE
  5
1852
330
18
100
AcDbEntity
  8
Object
100
AcDbLine
 10
6.357780829947187
 20
5.266
 30
0.0
 11
6.357780829947187
 21
5.27
 31
0.0
  0
LINE
  5
1853
330
18
100
AcDbEntity
  8
Object
100
AcDbLine
 10
6.357780829947187
 20
5.262999999999999
 30
0.0
 11
6.357780829947187
 21
5.261
 31
0.0
  0
LINE
  5
1854
330
18
100
AcDbEntity
  8
Object
100
AcDbLine
 10
6.357780829947187
 20
5.261
 30
0.0
 11
6.357780829947187
 21
5.259999999999999
 31
0.0
  0
LINE
  5
1855
330
18
100
AcDbEntity
  8
Object
100
AcDbLine
 10
6.357780829947187
 20
5.259999999999999
 30
0.0
 11
6.352780829947187
 21
5.245
 31
0.0
  0
LINE
  5
1856
330
18
100
AcDbEntity
  8
Object
100
AcDbLine
 10
6.352780829947187
 20
5.245
 30
0.0
 11
6.341780829947187
 21
5.235
 31
0.0
  0
LINE
  5
1857
330
18
100
AcDbEntity
  8
Object
100
AcDbLine
 10
6.341780829947187
 20
5.235
 30
0.0
 11
6.327780829947187
 21
5.230999999999999
 31
0.0
  0
LINE
  5
1858
330
18
100
AcDbEntity
  8
Object
100
AcDbLine
 10
6.294780829947187
 20
6.28
 30
0.0
 11
6.294780829947187
 21
6.280999999999999
 31
0.0
  0
LINE
  5
1859
330
18
100
AcDbEntity
  8
Object
100
AcDbLine
 10
6.294780829947187
 20
6.280999999999999
 30
0.0
 11
6.294780829947187
 21
6.272999999999999
 31
0.0
  0
LINE
  5
185A
330
18
100
AcDbEntity
  8
Object
100
AcDbLine
 10
6.294780829947187
 20
6.272999999999999
 30
0.0
 11
6.294780829947187
 21
6.25
 31
0.0
  0
LINE
  5
185B
330
18
100
AcDbEntity
  8
Object
100
AcDbLine
 10
6.294780829947187
 20
6.25
 30
0.0
 11
6.293780829947187
 21
6.214999999999999
 31
0.0
  0
LINE
  5
185C
330
18
100
AcDbEntity
  8
Object
100
AcDbLine
 10
6.293780829947187
 20
6.214999999999999
 30
0.0
 11
6.292780829947187
 21
6.169999999999999
 31
0.0
  0
LINE
  5
185D
330
18
100
AcDbEntity
  8
Object
100
AcDbLine
 10
6.292780829947187
 20
6.169999999999999
 30
0.0
 11
6.292780829947187
 21
6.126999999999999
 31
0.0
  0
LINE
  5
185E
330
18
100
AcDbEntity
  8
Object
100
AcDbLine
 10
6.372780829947187
 20
6.129
 30
0.0
 11
6.372780829947187
 21
6.118999999999999
 31
0.0
  0
LINE
  5
185F
330
18
100
AcDbEntity
  8
Object
100
AcDbLine
 10
6.372780829947187
 20
6.118999999999999
 30
0.0
 11
6.371780829947187
 21
6.091
 31
0.0
  0
LINE
  5
1860
330
18
100
AcDbEntity
  8
Object
100
AcDbLine
 10
6.291780829947187
 20
6.099
 30
0.0
 11
6.291780829947187
 21
6.070999999999999
 31
0.0
  0
LINE
  5
1861
330
18
100
AcDbEntity
  8
Object
100
AcDbLine
 10
6.291780829947187
 20
6.070999999999999
 30
0.0
 11
6.290780829947187
 21
6.027
 31
0.0
  0
LINE
  5
1862
330
18
100
AcDbEntity
  8
Object
100
AcDbLine
 10
6.290780829947187
 20
6.027
 30
0.0
 11
6.289780829947187
 21
5.991
 31
0.0
  0
LINE
  5
1863
330
18
100
AcDbEntity
  8
Object
100
AcDbLine
 10
6.289780829947187
 20
5.991
 30
0.0
 11
6.289780829947187
 21
5.967999999999999
 31
0.0
  0
LINE
  5
1864
330
18
100
AcDbEntity
  8
Object
100
AcDbLine
 10
6.289780829947187
 20
5.967999999999999
 30
0.0
 11
6.289780829947187
 21
5.961
 31
0.0
  0
LINE
  5
1865
330
18
100
AcDbEntity
  8
Object
100
AcDbLine
 10
6.476780829947187
 20
7.0
 30
0.0
 11
6.479780829947187
 21
7.08
 31
0.0
  0
LINE
  5
1866
330
18
100
AcDbEntity
  8
Object
100
AcDbLine
 10
6.479780829947187
 20
7.08
 30
0.0
 11
6.394780829947187
 21
7.08
 31
0.0
  0
LINE
  5
1867
330
18
100
AcDbEntity
  8
Object
100
AcDbLine
 10
6.479780829947187
 20
7.08
 30
0.0
 11
6.476780829947187
 21
7.0
 31
0.0
  0
LINE
  5
1868
330
18
100
AcDbEntity
  8
Object
100
AcDbLine
 10
6.476780829947187
 20
7.0
 30
0.0
 11
6.397780829947187
 21
7.0
 31
0.0
  0
LINE
  5
1869
330
18
100
AcDbEntity
  8
Object
100
AcDbLine
 10
4.386780829947187
 20
5.070999999999999
 30
0.0
 11
4.363780829947187
 21
5.073
 31
0.0
  0
LINE
  5
186A
330
18
100
AcDbEntity
  8
Object
100
AcDbLine
 10
4.363780829947187
 20
5.073
 30
0.0
 11
4.348780829947187
 21
5.076999999999999
 31
0.0
  0
LINE
  5
186B
330
18
100
AcDbEntity
  8
Object
100
AcDbLine
 10
4.348780829947187
 20
5.076999999999999
 30
0.0
 11
4.363780829947187
 21
5.073
 31
0.0
  0
LINE
  5
186C
330
18
100
AcDbEntity
  8
Object
100
AcDbLine
 10
4.348780829947187
 20
5.076999999999999
 30
0.0
 11
4.340780829947187
 21
5.078999999999999
 31
0.0
  0
LINE
  5
186D
330
18
100
AcDbEntity
  8
Object
100
AcDbLine
 10
4.340780829947187
 20
5.078999999999999
 30
0.0
 11
4.363780829947187
 21
5.073
 31
0.0
  0
LINE
  5
186E
330
18
100
AcDbEntity
  8
Object
100
AcDbLine
 10
4.348780829947187
 20
5.076999999999999
 30
0.0
 11
4.340780829947187
 21
5.078999999999999
 31
0.0
  0
LINE
  5
186F
330
18
100
AcDbEntity
  8
Object
100
AcDbLine
 10
4.340780829947187
 20
5.078999999999999
 30
0.0
 11
4.318780829947186
 21
5.091
 31
0.0
  0
LINE
  5
1870
330
18
100
AcDbEntity
  8
Object
100
AcDbLine
 10
4.318780829947186
 20
5.091
 30
0.0
 11
4.313780829947187
 21
5.094
 31
0.0
  0
LINE
  5
1871
330
18
100
AcDbEntity
  8
Object
100
AcDbLine
 10
4.313780829947187
 20
5.094
 30
0.0
 11
4.318780829947186
 21
5.091
 31
0.0
  0
LINE
  5
1872
330
18
100
AcDbEntity
  8
Object
100
AcDbLine
 10
4.317780829947187
 20
5.091
 30
0.0
 11
4.313780829947187
 21
5.094
 31
0.0
  0
LINE
  5
1873
330
18
100
AcDbEntity
  8
Object
100
AcDbLine
 10
4.313780829947187
 20
5.094
 30
0.0
 11
4.317780829947187
 21
5.091
 31
0.0
  0
LINE
  5
1874
330
18
100
AcDbEntity
  8
Object
100
AcDbLine
 10
4.316780829947187
 20
5.092
 30
0.0
 11
4.313780829947187
 21
5.094
 31
0.0
  0
LINE
  5
1875
330
18
100
AcDbEntity
  8
Object
100
AcDbLine
 10
4.318780829947186
 20
5.091
 30
0.0
 11
4.298780829947187
 21
5.105999999999999
 31
0.0
  0
LINE
  5
1876
330
18
100
AcDbEntity
  8
Object
100
AcDbLine
 10
4.298780829947187
 20
5.105999999999999
 30
0.0
 11
4.313780829947187
 21
5.094
 31
0.0
  0
LINE
  5
1877
330
18
100
AcDbEntity
  8
Object
100
AcDbLine
 10
4.313780829947187
 20
5.094
 30
0.0
 11
4.298780829947187
 21
5.105999999999999
 31
0.0
  0
LINE
  5
1878
330
18
100
AcDbEntity
  8
Object
100
AcDbLine
 10
4.298780829947187
 20
5.105999999999999
 30
0.0
 11
4.286780829947187
 21
5.121
 31
0.0
  0
LINE
  5
1879
330
18
100
AcDbEntity
  8
Object
100
AcDbLine
 10
4.286780829947187
 20
5.121
 30
0.0
 11
4.298780829947187
 21
5.105999999999999
 31
0.0
  0
LINE
  5
187A
330
18
100
AcDbEntity
  8
Object
100
AcDbLine
 10
4.286780829947187
 20
5.121
 30
0.0
 11
4.282780829947187
 21
5.126
 31
0.0
  0
LINE
  5
187B
330
18
100
AcDbEntity
  8
Object
100
AcDbLine
 10
4.282780829947187
 20
5.126
 30
0.0
 11
4.298780829947187
 21
5.105999999999999
 31
0.0
  0
LINE
  5
187C
330
18
100
AcDbEntity
  8
Object
100
AcDbLine
 10
4.282780829947187
 20
5.126
 30
0.0
 11
4.286780829947187
 21
5.121
 31
0.0
  0
LINE
  5
187D
330
18
100
AcDbEntity
  8
Object
100
AcDbLine
 10
4.286780829947187
 20
5.121
 30
0.0
 11
4.284780829947187
 21
5.123
 31
0.0
  0
LINE
  5
187E
330
18
100
AcDbEntity
  8
Object
100
AcDbLine
 10
4.270780829947187
 20
5.147999999999999
 30
0.0
 11
4.282780829947187
 21
5.126
 31
0.0
  0
LINE
  5
187F
330
18
100
AcDbEntity
  8
Object
100
AcDbLine
 10
4.286780829947187
 20
5.121
 30
0.0
 11
4.284780829947187
 21
5.123
 31
0.0
  0
LINE
  5
1880
330
18
100
AcDbEntity
  8
Object
100
AcDbLine
 10
4.270780829947187
 20
5.147999999999999
 30
0.0
 11
4.268780829947187
 21
5.155
 31
0.0
  0
LINE
  5
1881
330
18
100
AcDbEntity
  8
Object
100
AcDbLine
 10
4.268780829947187
 20
5.155
 30
0.0
 11
4.268780829947187
 21
5.153
 31
0.0
  0
LINE
  5
1882
330
18
100
AcDbEntity
  8
Object
100
AcDbLine
 10
4.286780829947187
 20
5.121
 30
0.0
 11
4.285780829947187
 21
5.121999999999999
 31
0.0
  0
LINE
  5
1883
330
18
100
AcDbEntity
  8
Object
100
AcDbLine
 10
4.270780829947187
 20
5.147999999999999
 30
0.0
 11
4.268780829947187
 21
5.155
 31
0.0
  0
LINE
  5
1884
330
18
100
AcDbEntity
  8
Object
100
AcDbLine
 10
4.268780829947187
 20
5.155
 30
0.0
 11
4.263780829947187
 21
5.171
 31
0.0
  0
LINE
  5
1885
330
18
100
AcDbEntity
  8
Object
100
AcDbLine
 10
4.263780829947187
 20
5.171
 30
0.0
 11
4.270780829947187
 21
5.147999999999999
 31
0.0
  0
LINE
  5
1886
330
18
100
AcDbEntity
  8
Object
100
AcDbLine
 10
4.267780829947187
 20
5.158
 30
0.0
 11
4.268780829947187
 21
5.155
 31
0.0
  0
LINE
  5
1887
330
18
100
AcDbEntity
  8
Object
100
AcDbLine
 10
4.268780829947187
 20
5.155
 30
0.0
 11
4.263780829947187
 21
5.171
 31
0.0
  0
LINE
  5
1888
330
18
100
AcDbEntity
  8
Object
100
AcDbLine
 10
4.263780829947187
 20
5.171
 30
0.0
 11
4.261780829947187
 21
5.193
 31
0.0
  0
LINE
  5
1889
330
18
100
AcDbEntity
  8
Object
100
AcDbLine
 10
4.139780829947187
 20
7.0
 30
0.0
 11
4.061780829947187
 21
7.0
 31
0.0
  0
LINE
  5
188A
330
18
100
AcDbEntity
  8
Object
100
AcDbLine
 10
4.061780829947187
 20
7.0
 30
0.0
 11
4.058780829947187
 21
7.08
 31
0.0
  0
LINE
  5
188B
330
18
100
AcDbEntity
  8
Object
100
AcDbLine
 10
4.058780829947187
 20
7.08
 30
0.0
 11
4.142780829947187
 21
7.08
 31
0.0
  0
LINE
  5
188C
330
18
100
AcDbEntity
  8
Object
100
AcDbLine
 10
4.058780829947187
 20
7.08
 30
0.0
 11
4.061780829947187
 21
7.0
 31
0.0
  0
LINE
  5
188D
330
18
100
AcDbEntity
  8
Object
100
AcDbLine
 10
4.210780829947188
 20
5.230999999999999
 30
0.0
 11
4.199780829947187
 21
5.233
 31
0.0
  0
LINE
  5
188E
330
18
100
AcDbEntity
  8
Object
100
AcDbLine
 10
4.199780829947187
 20
5.233
 30
0.0
 11
4.210780829947188
 21
5.230999999999999
 31
0.0
  0
LINE
  5
188F
330
18
100
AcDbEntity
  8
Object
100
AcDbLine
 10
4.210780829947188
 20
5.230999999999999
 30
0.0
 11
4.199780829947187
 21
5.233
 31
0.0
  0
LINE
  5
1890
330
18
100
AcDbEntity
  8
Object
100
AcDbLine
 10
4.210780829947188
 20
5.230999999999999
 30
0.0
 11
4.195780829947187
 21
5.235
 31
0.0
  0
LINE
  5
1891
330
18
100
AcDbEntity
  8
Object
100
AcDbLine
 10
4.195780829947187
 20
5.235
 30
0.0
 11
4.199780829947187
 21
5.233
 31
0.0
  0
LINE
  5
1892
330
18
100
AcDbEntity
  8
Object
100
AcDbLine
 10
4.199780829947187
 20
5.233
 30
0.0
 11
4.195780829947187
 21
5.235
 31
0.0
  0
LINE
  5
1893
330
18
100
AcDbEntity
  8
Object
100
AcDbLine
 10
4.195780829947187
 20
5.235
 30
0.0
 11
4.189780829947187
 21
5.238999999999999
 31
0.0
  0
LINE
  5
1894
330
18
100
AcDbEntity
  8
Object
100
AcDbLine
 10
4.189780829947187
 20
5.238999999999999
 30
0.0
 11
4.195780829947187
 21
5.235
 31
0.0
  0
LINE
  5
1895
330
18
100
AcDbEntity
  8
Object
100
AcDbLine
 10
4.193780829947186
 20
5.235999999999999
 30
0.0
 11
4.189780829947187
 21
5.238999999999999
 31
0.0
  0
LINE
  5
1896
330
18
100
AcDbEntity
  8
Object
100
AcDbLine
 10
4.199780829947187
 20
5.233
 30
0.0
 11
4.196780829947186
 21
5.233999999999999
 31
0.0
  0
LINE
  5
1897
330
18
100
AcDbEntity
  8
Object
100
AcDbLine
 10
4.189780829947187
 20
5.238999999999999
 30
0.0
 11
4.184780829947187
 21
5.245
 31
0.0
  0
LINE
  5
1898
330
18
100
AcDbEntity
  8
Object
100
AcDbLine
 10
4.184780829947187
 20
5.245
 30
0.0
 11
4.195780829947187
 21
5.235
 31
0.0
  0
LINE
  5
1899
330
18
100
AcDbEntity
  8
Object
100
AcDbLine
 10
4.189780829947187
 20
5.238999999999999
 30
0.0
 11
4.184780829947187
 21
5.245
 31
0.0
  0
LINE
  5
189A
330
18
100
AcDbEntity
  8
Object
100
AcDbLine
 10
4.184780829947187
 20
5.245
 30
0.0
 11
4.182780829947187
 21
5.248999999999999
 31
0.0
  0
LINE
  5
189B
330
18
100
AcDbEntity
  8
Object
100
AcDbLine
 10
4.182780829947187
 20
5.248999999999999
 30
0.0
 11
4.183780829947187
 21
5.246999999999999
 31
0.0
  0
LINE
  5
189C
330
18
100
AcDbEntity
  8
Object
100
AcDbLine
 10
4.189780829947187
 20
5.238999999999999
 30
0.0
 11
4.186780829947187
 21
5.241999999999999
 31
0.0
  0
LINE
  5
189D
330
18
100
AcDbEntity
  8
Object
100
AcDbLine
 10
4.184780829947187
 20
5.245
 30
0.0
 11
4.182780829947187
 21
5.248999999999999
 31
0.0
  0
LINE
  5
189E
330
18
100
AcDbEntity
  8
Object
100
AcDbLine
 10
4.182780829947187
 20
5.248999999999999
 30
0.0
 11
4.180780829947186
 21
5.259999999999999
 31
0.0
  0
LINE
  5
189F
330
18
100
AcDbEntity
  8
Object
100
AcDbLine
 10
4.180780829947186
 20
5.259999999999999
 30
0.0
 11
4.184780829947187
 21
5.245
 31
0.0
  0
LINE
  5
18A0
330
18
100
AcDbEntity
  8
Object
100
AcDbLine
 10
4.182780829947187
 20
5.248999999999999
 30
0.0
 11
4.180780829947186
 21
5.259999999999999
 31
0.0
  0
LINE
  5
18A1
330
18
100
AcDbEntity
  8
Object
100
AcDbLine
 10
4.180780829947186
 20
5.259999999999999
 30
0.0
 11
4.182780829947187
 21
5.248999999999999
 31
0.0
  0
LINE
  5
18A2
330
18
100
AcDbEntity
  8
Object
100
AcDbLine
 10
4.210780829947188
 20
5.233
 30
0.0
 11
4.210780829947188
 21
5.241999999999999
 31
0.0
  0
LINE
  5
18A3
330
18
100
AcDbEntity
  8
Object
100
AcDbLine
 10
4.210780829947188
 20
5.241999999999999
 30
0.0
 11
4.210780829947188
 21
5.256
 31
0.0
  0
LINE
  5
18A4
330
18
100
AcDbEntity
  8
Object
100
AcDbLine
 10
4.210780829947188
 20
5.233
 30
0.0
 11
4.210780829947188
 21
5.230999999999999
 31
0.0
  0
LINE
  5
18A5
330
18
100
AcDbEntity
  8
Object
100
AcDbLine
 10
4.210780829947188
 20
5.230999999999999
 30
0.0
 11
4.195780829947187
 21
5.235
 31
0.0
  0
LINE
  5
18A6
330
18
100
AcDbEntity
  8
Object
100
AcDbLine
 10
4.210780829947188
 20
5.256
 30
0.0
 11
4.210780829947188
 21
5.270999999999999
 31
0.0
  0
LINE
  5
18A7
330
18
100
AcDbEntity
  8
Object
100
AcDbLine
 10
4.184780829947187
 20
5.245
 30
0.0
 11
4.195780829947187
 21
5.235
 31
0.0
  0
LINE
  5
18A8
330
18
100
AcDbEntity
  8
Object
100
AcDbLine
 10
4.180780829947186
 20
5.266
 30
0.0
 11
4.180780829947186
 21
5.262999999999999
 31
0.0
  0
LINE
  5
18A9
330
18
100
AcDbEntity
  8
Object
100
AcDbLine
 10
4.184780829947187
 20
5.245
 30
0.0
 11
4.180780829947186
 21
5.259999999999999
 31
0.0
  0
LINE
  5
18AA
330
18
100
AcDbEntity
  8
Object
100
AcDbLine
 10
4.180780829947186
 20
5.259999999999999
 30
0.0
 11
4.180780829947186
 21
5.261
 31
0.0
  0
LINE
  5
18AB
330
18
100
AcDbEntity
  8
Object
100
AcDbLine
 10
4.180780829947186
 20
5.261
 30
0.0
 11
4.180780829947186
 21
5.262999999999999
 31
0.0
  0
LINE
  5
18AC
330
18
100
AcDbEntity
  8
Object
100
AcDbLine
 10
4.180780829947186
 20
5.27
 30
0.0
 11
4.180780829947186
 21
5.266
 31
0.0
  0
LINE
  5
18AD
330
18
100
AcDbEntity
  8
Object
100
AcDbLine
 10
4.158780829947187
 20
6.278999999999999
 30
0.0
 11
4.167780829947187
 21
6.278999999999999
 31
0.0
  0
LINE
  5
18AE
330
18
100
AcDbEntity
  8
Object
100
AcDbLine
 10
4.248780829947187
 20
5.961
 30
0.0
 11
4.247780829947187
 21
5.963
 31
0.0
  0
LINE
  5
18AF
330
18
100
AcDbEntity
  8
Object
100
AcDbLine
 10
4.167780829947187
 20
5.961
 30
0.0
 11
4.167780829947187
 21
5.967
 31
0.0
  0
LINE
  5
18B0
330
18
100
AcDbEntity
  8
Object
100
AcDbLine
 10
4.167780829947187
 20
5.967
 30
0.0
 11
4.167780829947187
 21
5.980999999999999
 31
0.0
  0
LINE
  5
18B1
330
18
100
AcDbEntity
  8
Object
100
AcDbLine
 10
4.247780829947187
 20
5.980999999999999
 30
0.0
 11
4.247780829947187
 21
5.991
 31
0.0
  0
LINE
  5
18B2
330
18
100
AcDbEntity
  8
Object
100
AcDbLine
 10
4.247780829947187
 20
5.991
 30
0.0
 11
4.247780829947187
 21
6.006
 31
0.0
  0
LINE
  5
18B3
330
18
100
AcDbEntity
  8
Object
100
AcDbLine
 10
4.167780829947187
 20
6.004
 30
0.0
 11
4.166780829947187
 21
6.025
 31
0.0
  0
LINE
  5
18B4
330
18
100
AcDbEntity
  8
Object
100
AcDbLine
 10
4.166780829947187
 20
6.025
 30
0.0
 11
4.166780829947187
 21
6.06
 31
0.0
  0
LINE
  5
18B5
330
18
100
AcDbEntity
  8
Object
100
AcDbLine
 10
4.246780829947187
 20
6.059
 30
0.0
 11
4.246780829947187
 21
6.070999999999999
 31
0.0
  0
LINE
  5
18B6
330
18
100
AcDbEntity
  8
Object
100
AcDbLine
 10
4.246780829947187
 20
6.070999999999999
 30
0.0
 11
4.245780829947187
 21
6.099
 31
0.0
  0
LINE
  5
18B7
330
18
100
AcDbEntity
  8
Object
100
AcDbLine
 10
4.165780829947187
 20
6.091
 30
0.0
 11
4.165780829947187
 21
6.118999999999999
 31
0.0
  0
LINE
  5
18B8
330
18
100
AcDbEntity
  8
Object
100
AcDbLine
 10
4.165780829947187
 20
6.118999999999999
 30
0.0
 11
4.164780829947186
 21
6.169
 31
0.0
  0
LINE
  5
18B9
330
18
100
AcDbEntity
  8
Object
100
AcDbLine
 10
4.243780829947187
 20
6.198999999999999
 30
0.0
 11
4.243780829947187
 21
6.214999999999999
 31
0.0
  0
LINE
  5
18BA
330
18
100
AcDbEntity
  8
Object
100
AcDbLine
 10
4.163780829947187
 20
6.201
 30
0.0
 11
4.164780829947186
 21
6.169
 31
0.0
  0
LINE
  5
18BB
330
18
100
AcDbEntity
  8
Object
100
AcDbLine
 10
4.243780829947187
 20
6.214999999999999
 30
0.0
 11
4.243780829947187
 21
6.25
 31
0.0
  0
LINE
  5
18BC
330
18
100
AcDbEntity
  8
Object
100
AcDbLine
 10
4.243780829947187
 20
6.25
 30
0.0
 11
4.242780829947188
 21
6.272999999999999
 31
0.0
  0
LINE
  5
18BD
330
18
100
AcDbEntity
  8
Object
100
AcDbLine
 10
4.162780829947188
 20
6.278999999999999
 30
0.0
 11
4.162780829947188
 21
6.272999999999999
 31
0.0
  0
LINE
  5
18BE
330
18
100
AcDbEntity
  8
Object
100
AcDbLine
 10
4.242780829947188
 20
6.272999999999999
 30
0.0
 11
4.242780829947188
 21
6.275
 31
0.0
  0
LINE
  5
18BF
330
18
100
AcDbEntity
  8
Object
100
AcDbLine
 10
4.260780829947186
 20
5.241999999999999
 30
0.0
 11
4.260780829947186
 21
5.256
 31
0.0
  0
LINE
  5
18C0
330
18
100
AcDbEntity
  8
Object
100
AcDbLine
 10
4.260780829947186
 20
5.233
 30
0.0
 11
4.260780829947186
 21
5.230999999999999
 31
0.0
  0
LINE
  5
18C1
330
18
100
AcDbEntity
  8
Object
100
AcDbLine
 10
4.260780829947186
 20
5.230999999999999
 30
0.0
 11
4.210780829947188
 21
5.230999999999999
 31
0.0
  0
LINE
  5
18C2
330
18
100
AcDbEntity
  8
Object
100
AcDbLine
 10
4.260780829947186
 20
5.233
 30
0.0
 11
4.260780829947186
 21
5.241999999999999
 31
0.0
  0
LINE
  5
18C3
330
18
100
AcDbEntity
  8
Object
100
AcDbLine
 10
4.260780829947186
 20
5.256
 30
0.0
 11
4.260780829947186
 21
5.270999999999999
 31
0.0
  0
LINE
  5
18C4
330
18
100
AcDbEntity
  8
Object
100
AcDbLine
 10
6.391780829947187
 20
10.197
 30
0.0
 11
6.384780829947187
 21
10.207
 31
0.0
  0
LINE
  5
18C5
330
18
100
AcDbEntity
  8
Object
100
AcDbLine
 10
6.384780829947187
 20
10.207
 30
0.0
 11
6.378780829947187
 21
10.21
 31
0.0
  0
LINE
  5
18C6
330
18
100
AcDbEntity
  8
Object
100
AcDbLine
 10
6.391780829947187
 20
10.197
 30
0.0
 11
6.393780829947187
 21
10.186
 31
0.0
  0
LINE
  5
18C7
330
18
100
AcDbEntity
  8
Object
100
AcDbLine
 10
6.393780829947187
 20
10.186
 30
0.0
 11
6.395780829947187
 21
10.117
 31
0.0
  0
LINE
  5
18C8
330
18
100
AcDbEntity
  8
Object
100
AcDbLine
 10
4.152780829947187
 20
9.147999999999999
 30
0.0
 11
4.158780829947187
 21
9.147999999999999
 31
0.0
  0
LINE
  5
18C9
330
18
100
AcDbEntity
  8
Object
100
AcDbLine
 10
4.158780829947187
 20
9.153
 30
0.0
 11
4.139780829947187
 21
9.153
 31
0.0
  0
LINE
  5
18CA
330
18
100
AcDbEntity
  8
Object
100
AcDbLine
 10
6.384780829947187
 20
9.147999999999999
 30
0.0
 11
6.391780829947187
 21
9.147999999999999
 31
0.0
  0
LINE
  5
18CB
330
18
100
AcDbEntity
  8
Object
100
AcDbLine
 10
6.391780829947187
 20
9.147999999999999
 30
0.0
 11
6.393780829947187
 21
9.149
 31
0.0
  0
LINE
  5
18CC
330
18
100
AcDbEntity
  8
Object
100
AcDbLine
 10
6.379780829947187
 20
9.153
 30
0.0
 11
6.398780829947187
 21
9.153
 31
0.0
  0
LINE
  5
18CD
330
18
100
AcDbEntity
  8
Object
100
AcDbLine
 10
6.398780829947187
 20
9.153
 30
0.0
 11
6.393780829947187
 21
9.149
 31
0.0
  0
LINE
  5
18CE
330
18
100
AcDbEntity
  8
Object
100
AcDbLine
 10
6.404780829947187
 20
12.022
 30
0.0
 11
6.393780829947187
 21
12.022
 31
0.0
  0
LINE
  5
18CF
330
18
100
AcDbEntity
  8
Object
100
AcDbLine
 10
6.393780829947187
 20
12.022
 30
0.0
 11
6.389780829947187
 21
12.022
 31
0.0
  0
LINE
  5
18D0
330
18
100
AcDbEntity
  8
Object
100
AcDbLine
 10
6.389780829947187
 20
12.022
 30
0.0
 11
6.378780829947187
 21
12.022
 31
0.0
  0
LINE
  5
18D1
330
18
100
AcDbEntity
  8
Object
100
AcDbLine
 10
6.378780829947187
 20
12.022
 30
0.0
 11
6.363780829947187
 21
12.022
 31
0.0
  0
LINE
  5
18D2
330
18
100
AcDbEntity
  8
Object
100
AcDbLine
 10
6.363780829947187
 20
12.022
 30
0.0
 11
4.173780829947187
 21
12.022
 31
0.0
  0
LINE
  5
18D3
330
18
100
AcDbEntity
  8
Object
100
AcDbLine
 10
4.173780829947187
 20
12.022
 30
0.0
 11
4.159780829947187
 21
12.022
 31
0.0
  0
LINE
  5
18D4
330
18
100
AcDbEntity
  8
Object
100
AcDbLine
 10
4.159780829947187
 20
12.022
 30
0.0
 11
4.148780829947186
 21
12.022
 31
0.0
  0
LINE
  5
18D5
330
18
100
AcDbEntity
  8
Object
100
AcDbLine
 10
4.148780829947186
 20
12.022
 30
0.0
 11
4.143780829947187
 21
12.022
 31
0.0
  0
LINE
  5
18D6
330
18
100
AcDbEntity
  8
Object
100
AcDbLine
 10
4.143780829947187
 20
12.022
 30
0.0
 11
4.132780829947186
 21
12.022
 31
0.0
  0
LINE
  5
18D7
330
18
100
AcDbEntity
  8
Object
100
AcDbLine
 10
4.158780829947187
 20
10.21
 30
0.0
 11
4.152780829947187
 21
10.207
 31
0.0
  0
LINE
  5
18D8
330
18
100
AcDbEntity
  8
Object
100
AcDbLine
 10
4.152780829947187
 20
10.207
 30
0.0
 11
4.146780829947187
 21
10.197
 31
0.0
  0
LINE
  5
18D9
330
18
100
AcDbEntity
  8
Object
100
AcDbLine
 10
4.146780829947187
 20
10.197
 30
0.0
 11
4.143780829947187
 21
10.186
 31
0.0
  0
LINE
  5
18DA
330
18
100
AcDbEntity
  8
Object
100
AcDbLine
 10
6.393780829947187
 20
10.186
 30
0.0
 11
6.393780829947187
 21
12.022
 31
0.0
  0
LINE
  5
18DB
330
18
100
AcDbEntity
  8
Object
100
AcDbLine
 10
6.393780829947187
 20
12.022
 30
0.0
 11
6.389780829947187
 21
12.022
 31
0.0
  0
LINE
  5
18DC
330
18
100
AcDbEntity
  8
Object
100
AcDbLine
 10
6.389780829947187
 20
12.022
 30
0.0
 11
6.378780829947187
 21
12.022
 31
0.0
  0
LINE
  5
18DD
330
18
100
AcDbEntity
  8
Object
100
AcDbLine
 10
6.378780829947187
 20
12.022
 30
0.0
 11
6.363780829947187
 21
12.022
 31
0.0
  0
LINE
  5
18DE
330
18
100
AcDbEntity
  8
Object
100
AcDbLine
 10
6.363780829947187
 20
12.022
 30
0.0
 11
6.363780829947187
 21
10.225
 31
0.0
  0
LINE
  5
18DF
330
18
100
AcDbEntity
  8
Object
100
AcDbLine
 10
6.363780829947187
 20
12.022
 30
0.0
 11
4.173780829947187
 21
12.022
 31
0.0
  0
LINE
  5
18E0
330
18
100
AcDbEntity
  8
Object
100
AcDbLine
 10
4.309780829947187
 20
9.079
 30
0.0
 11
6.227780829947187
 21
9.079
 31
0.0
  0
LINE
  5
18E1
330
18
100
AcDbEntity
  8
Object
100
AcDbLine
 10
6.404780829947187
 20
12.022
 30
0.0
 11
6.393780829947187
 21
12.022
 31
0.0
  0
LINE
  5
18E2
330
18
100
AcDbEntity
  8
Object
100
AcDbLine
 10
6.393780829947187
 20
9.079
 30
0.0
 11
6.404780829947187
 21
9.079
 31
0.0
  0
LINE
  5
18E3
330
18
100
AcDbEntity
  8
Object
100
AcDbLine
 10
4.158780829947187
 20
9.163
 30
0.0
 11
4.138780829947187
 21
9.163
 31
0.0
  0
LINE
  5
18E4
330
18
100
AcDbEntity
  8
Object
100
AcDbLine
 10
4.139780829947187
 20
9.153
 30
0.0
 11
4.143780829947187
 21
9.149
 31
0.0
  0
LINE
  5
18E5
330
18
100
AcDbEntity
  8
Object
100
AcDbLine
 10
4.143780829947187
 20
9.149
 30
0.0
 11
4.143780829947187
 21
9.079
 31
0.0
  0
LINE
  5
18E6
330
18
100
AcDbEntity
  8
Object
100
AcDbLine
 10
4.141780829947187
 20
10.117
 30
0.0
 11
4.143780829947187
 21
10.186
 31
0.0
  0
LINE
  5
18E7
330
18
100
AcDbEntity
  8
Object
100
AcDbLine
 10
4.132780829947186
 20
12.022
 30
0.0
 11
4.143780829947187
 21
12.022
 31
0.0
  0
LINE
  5
18E8
330
18
100
AcDbEntity
  8
Object
100
AcDbLine
 10
4.143780829947187
 20
12.022
 30
0.0
 11
4.143780829947187
 21
10.186
 31
0.0
  0
LINE
  5
18E9
330
18
100
AcDbEntity
  8
Object
100
AcDbLine
 10
4.138780829947187
 20
9.181
 30
0.0
 11
4.138780829947187
 21
9.163
 31
0.0
  0
LINE
  5
18EA
330
18
100
AcDbEntity
  8
Object
100
AcDbLine
 10
4.138780829947187
 20
9.163
 30
0.0
 11
4.138780829947187
 21
9.16
 31
0.0
  0
LINE
  5
18EB
330
18
100
AcDbEntity
  8
Object
100
AcDbLine
 10
4.138780829947187
 20
9.16
 30
0.0
 11
4.138780829947187
 21
9.156
 31
0.0
  0
LINE
  5
18EC
330
18
100
AcDbEntity
  8
Object
100
AcDbLine
 10
4.138780829947187
 20
9.156
 30
0.0
 11
4.139780829947187
 21
9.153999999999999
 31
0.0
  0
LINE
  5
18ED
330
18
100
AcDbEntity
  8
Object
100
AcDbLine
 10
4.139780829947187
 20
9.153999999999999
 30
0.0
 11
4.139780829947187
 21
9.153
 31
0.0
  0
LINE
  5
18EE
330
18
100
AcDbEntity
  8
Object
100
AcDbLine
 10
4.143780829947187
 20
9.079
 30
0.0
 11
4.132780829947186
 21
9.079
 31
0.0
  0
LINE
  5
18EF
330
18
100
AcDbEntity
  8
Object
100
AcDbLine
 10
4.132780829947186
 20
9.079
 30
0.0
 11
4.132780829947186
 21
9.181
 31
0.0
  0
LINE
  5
18F0
330
18
100
AcDbEntity
  8
Object
100
AcDbLine
 10
4.132780829947186
 20
12.022
 30
0.0
 11
4.132780829947186
 21
10.117
 31
0.0
  0
LINE
  5
18F1
330
18
100
AcDbEntity
  8
Object
100
AcDbLine
 10
4.148780829947186
 20
9.079
 30
0.0
 11
4.158780829947187
 21
9.079
 31
0.0
  0
LINE
  5
18F2
330
18
100
AcDbEntity
  8
Object
100
AcDbLine
 10
4.152780829947187
 20
9.147999999999999
 30
0.0
 11
4.146780829947187
 21
9.147999999999999
 31
0.0
  0
LINE
  5
18F3
330
18
100
AcDbEntity
  8
Object
100
AcDbLine
 10
4.143780829947187
 20
9.079
 30
0.0
 11
4.148780829947186
 21
9.079
 31
0.0
  0
LINE
  5
18F4
330
18
100
AcDbEntity
  8
Object
100
AcDbLine
 10
4.146780829947187
 20
9.147999999999999
 30
0.0
 11
4.143780829947187
 21
9.149
 31
0.0
  0
LINE
  5
18F5
330
18
100
AcDbEntity
  8
Object
100
AcDbLine
 10
4.228780829947186
 20
7.078999999999999
 30
0.0
 11
6.309780829947187
 21
7.078999999999999
 31
0.0
  0
LINE
  5
18F6
330
18
100
AcDbEntity
  8
Object
100
AcDbLine
 10
6.398780829947187
 20
9.156
 30
0.0
 11
6.398780829947187
 21
9.153999999999999
 31
0.0
  0
LINE
  5
18F7
330
18
100
AcDbEntity
  8
Object
100
AcDbLine
 10
6.398780829947187
 20
9.153999999999999
 30
0.0
 11
6.398780829947187
 21
9.153
 31
0.0
  0
LINE
  5
18F8
330
18
100
AcDbEntity
  8
Object
100
AcDbLine
 10
6.398780829947187
 20
9.156
 30
0.0
 11
6.398780829947187
 21
9.16
 31
0.0
  0
LINE
  5
18F9
330
18
100
AcDbEntity
  8
Object
100
AcDbLine
 10
6.379780829947187
 20
9.163
 30
0.0
 11
6.398780829947187
 21
9.163
 31
0.0
  0
LINE
  5
18FA
330
18
100
AcDbEntity
  8
Object
100
AcDbLine
 10
6.398780829947187
 20
9.163
 30
0.0
 11
6.398780829947187
 21
9.16
 31
0.0
  0
LINE
  5
18FB
330
18
100
AcDbEntity
  8
Object
100
AcDbLine
 10
6.393780829947187
 20
9.149
 30
0.0
 11
6.393780829947187
 21
9.079
 31
0.0
  0
LINE
  5
18FC
330
18
100
AcDbEntity
  8
Object
100
AcDbLine
 10
6.393780829947187
 20
9.079
 30
0.0
 11
6.389780829947187
 21
9.079
 31
0.0
  0
LINE
  5
18FD
330
18
100
AcDbEntity
  8
Object
100
AcDbLine
 10
6.389780829947187
 20
9.079
 30
0.0
 11
6.379780829947187
 21
9.079
 31
0.0
  0
LINE
  5
18FE
330
18
100
AcDbEntity
  8
Object
100
AcDbLine
 10
6.384780829947187
 20
9.147999999999999
 30
0.0
 11
6.379780829947187
 21
9.147999999999999
 31
0.0
  0
LINE
  5
18FF
330
18
100
AcDbEntity
  8
Object
100
AcDbLine
 10
6.404780829947187
 20
10.117
 30
0.0
 11
6.404780829947187
 21
12.022
 31
0.0
  0
LINE
  5
1900
330
18
100
AcDbEntity
  8
Object
100
AcDbLine
 10
6.404780829947187
 20
9.079
 30
0.0
 11
6.404780829947187
 21
9.181
 31
0.0
  0
LINE
  5
1901
330
18
100
AcDbEntity
  8
Object
100
AcDbLine
 10
4.173780829947187
 20
10.225
 30
0.0
 11
4.173780829947187
 21
12.022
 31
0.0
  0
LINE
  5
1902
330
18
100
AcDbEntity
  8
Object
100
AcDbLine
 10
4.173780829947187
 20
12.022
 30
0.0
 11
4.159780829947187
 21
12.022
 31
0.0
  0
LINE
  5
1903
330
18
100
AcDbEntity
  8
Object
100
AcDbLine
 10
4.159780829947187
 20
12.022
 30
0.0
 11
4.148780829947186
 21
12.022
 31
0.0
  0
LINE
  5
1904
330
18
100
AcDbEntity
  8
Object
100
AcDbLine
 10
4.148780829947186
 20
12.022
 30
0.0
 11
4.143780829947187
 21
12.022
 31
0.0
  0
LINE
  5
1905
330
18
100
AcDbEntity
  8
Object
100
AcDbLine
 10
6.398780829947187
 20
9.163
 30
0.0
 11
6.398780829947187
 21
9.181
 31
0.0
  0
LINE
  5
1906
330
18
100
AcDbEntity
  8
Object
100
AcDbLine
 10
6.363780829947187
 20
7.408
 30
0.0
 11
6.363780829947187
 21
7.472
 31
0.0
  0
LINE
  5
1907
330
18
100
AcDbEntity
  8
Object
100
AcDbLine
 10
6.363780829947187
 20
7.156
 30
0.0
 11
6.363780829947187
 21
7.177999999999999
 31
0.0
  0
LINE
  5
1908
330
18
100
AcDbEntity
  8
Object
100
AcDbLine
 10
6.363780829947187
 20
7.214999999999999
 30
0.0
 11
6.363780829947187
 21
7.265
 31
0.0
  0
LINE
  5
1909
330
18
100
AcDbEntity
  8
Object
100
AcDbLine
 10
6.363780829947187
 20
7.408
 30
0.0
 11
6.363780829947187
 21
7.33
 31
0.0
  0
LINE
  5
190A
330
18
100
AcDbEntity
  8
Object
100
AcDbLine
 10
6.363780829947187
 20
7.33
 30
0.0
 11
6.363780829947187
 21
7.265
 31
0.0
  0
LINE
  5
190B
330
18
100
AcDbEntity
  8
Object
100
AcDbLine
 10
6.363780829947187
 20
7.177999999999999
 30
0.0
 11
6.363780829947187
 21
7.214999999999999
 31
0.0
  0
LINE
  5
190C
330
18
100
AcDbEntity
  8
Object
100
AcDbLine
 10
6.363780829947187
 20
7.149
 30
0.0
 11
6.363780829947187
 21
7.156
 31
0.0
  0
LINE
  5
190D
330
18
100
AcDbEntity
  8
Object
100
AcDbLine
 10
4.143780829947187
 20
8.739
 30
0.0
 11
4.143780829947187
 21
8.907999999999999
 31
0.0
  0
LINE
  5
190E
330
18
100
AcDbEntity
  8
Object
100
AcDbLine
 10
4.132780829947186
 20
8.704
 30
0.0
 11
4.132780829947186
 21
8.891
 31
0.0
  0
LINE
  5
190F
330
18
100
AcDbEntity
  8
Object
100
AcDbLine
 10
4.132780829947186
 20
8.891
 30
0.0
 11
4.132780829947186
 21
9.079
 31
0.0
  0
LINE
  5
1910
330
18
100
AcDbEntity
  8
Object
100
AcDbLine
 10
4.143780829947187
 20
8.907999999999999
 30
0.0
 11
4.143780829947187
 21
9.079
 31
0.0
  0
LINE
  5
1911
330
18
100
AcDbEntity
  8
Object
100
AcDbLine
 10
4.132780829947186
 20
8.704
 30
0.0
 11
4.132780829947186
 21
8.519
 31
0.0
  0
LINE
  5
1912
330
18
100
AcDbEntity
  8
Object
100
AcDbLine
 10
4.143780829947187
 20
8.572
 30
0.0
 11
4.143780829947187
 21
8.739
 31
0.0
  0
LINE
  5
1913
330
18
100
AcDbEntity
  8
Object
100
AcDbLine
 10
4.143780829947187
 20
8.099
 30
0.0
 11
4.143780829947187
 21
8.250999999999999
 31
0.0
  0
LINE
  5
1914
330
18
100
AcDbEntity
  8
Object
100
AcDbLine
 10
4.132780829947186
 20
8.163
 30
0.0
 11
4.132780829947186
 21
7.993999999999999
 31
0.0
  0
LINE
  5
1915
330
18
100
AcDbEntity
  8
Object
100
AcDbLine
 10
4.143780829947187
 20
8.409
 30
0.0
 11
4.143780829947187
 21
8.572
 31
0.0
  0
LINE
  5
1916
330
18
100
AcDbEntity
  8
Object
100
AcDbLine
 10
4.132780829947186
 20
8.519
 30
0.0
 11
4.132780829947186
 21
8.339
 31
0.0
  0
LINE
  5
1917
330
18
100
AcDbEntity
  8
Object
100
AcDbLine
 10
4.132780829947186
 20
8.339
 30
0.0
 11
4.132780829947186
 21
8.163
 31
0.0
  0
LINE
  5
1918
330
18
100
AcDbEntity
  8
Object
100
AcDbLine
 10
4.143780829947187
 20
8.250999999999999
 30
0.0
 11
4.143780829947187
 21
8.409
 31
0.0
  0
LINE
  5
1919
330
18
100
AcDbEntity
  8
Object
100
AcDbLine
 10
4.143780829947187
 20
7.578
 30
0.0
 11
4.143780829947187
 21
7.693999999999999
 31
0.0
  0
LINE
  5
191A
330
18
100
AcDbEntity
  8
Object
100
AcDbLine
 10
4.132780829947186
 20
7.535
 30
0.0
 11
4.132780829947186
 21
7.402
 31
0.0
  0
LINE
  5
191B
330
18
100
AcDbEntity
  8
Object
100
AcDbLine
 10
4.143780829947187
 20
7.82
 30
0.0
 11
4.143780829947187
 21
7.955
 31
0.0
  0
LINE
  5
191C
330
18
100
AcDbEntity
  8
Object
100
AcDbLine
 10
4.132780829947186
 20
7.679
 30
0.0
 11
4.132780829947186
 21
7.831999999999999
 31
0.0
  0
LINE
  5
191D
330
18
100
AcDbEntity
  8
Object
100
AcDbLine
 10
4.132780829947186
 20
7.831999999999999
 30
0.0
 11
4.132780829947186
 21
7.993999999999999
 31
0.0
  0
LINE
  5
191E
330
18
100
AcDbEntity
  8
Object
100
AcDbLine
 10
4.143780829947187
 20
7.955
 30
0.0
 11
4.143780829947187
 21
8.099
 31
0.0
  0
LINE
  5
191F
330
18
100
AcDbEntity
  8
Object
100
AcDbLine
 10
4.132780829947186
 20
7.679
 30
0.0
 11
4.132780829947186
 21
7.535
 31
0.0
  0
LINE
  5
1920
330
18
100
AcDbEntity
  8
Object
100
AcDbLine
 10
4.143780829947187
 20
7.693999999999999
 30
0.0
 11
4.143780829947187
 21
7.82
 31
0.0
  0
LINE
  5
1921
330
18
100
AcDbEntity
  8
Object
100
AcDbLine
 10
4.143780829947187
 20
7.12
 30
0.0
 11
4.143780829947187
 21
7.126999999999999
 31
0.0
  0
LINE
  5
1922
330
18
100
AcDbEntity
  8
Object
100
AcDbLine
 10
4.132780829947186
 20
6.83
 30
0.0
 11
4.132780829947186
 21
6.807
 31
0.0
  0
LINE
  5
1923
330
18
100
AcDbEntity
  8
Object
100
AcDbLine
 10
4.143780829947187
 20
7.15
 30
0.0
 11
4.143780829947187
 21
7.187
 31
0.0
  0
LINE
  5
1924
330
18
100
AcDbEntity
  8
Object
100
AcDbLine
 10
4.132780829947186
 20
6.923
 30
0.0
 11
4.132780829947186
 21
6.868999999999999
 31
0.0
  0
LINE
  5
1925
330
18
100
AcDbEntity
  8
Object
100
AcDbLine
 10
4.143780829947187
 20
7.238
 30
0.0
 11
4.143780829947187
 21
7.304
 31
0.0
  0
LINE
  5
1926
330
18
100
AcDbEntity
  8
Object
100
AcDbLine
 10
4.132780829947186
 20
7.0
 30
0.0
 11
4.132780829947186
 21
6.991
 31
0.0
  0
LINE
  5
1927
330
18
100
AcDbEntity
  8
Object
100
AcDbLine
 10
4.143780829947187
 20
7.382
 30
0.0
 11
4.143780829947187
 21
7.474
 31
0.0
  0
LINE
  5
1928
330
18
100
AcDbEntity
  8
Object
100
AcDbLine
 10
4.132780829947186
 20
7.169999999999999
 30
0.0
 11
4.132780829947186
 21
7.28
 31
0.0
  0
LINE
  5
1929
330
18
100
AcDbEntity
  8
Object
100
AcDbLine
 10
4.132780829947186
 20
7.28
 30
0.0
 11
4.132780829947186
 21
7.402
 31
0.0
  0
LINE
  5
192A
330
18
100
AcDbEntity
  8
Object
100
AcDbLine
 10
4.143780829947187
 20
7.474
 30
0.0
 11
4.143780829947187
 21
7.578
 31
0.0
  0
LINE
  5
192B
330
18
100
AcDbEntity
  8
Object
100
AcDbLine
 10
4.132780829947186
 20
7.169999999999999
 30
0.0
 11
4.132780829947186
 21
7.08
 31
0.0
  0
LINE
  5
192C
330
18
100
AcDbEntity
  8
Object
100
AcDbLine
 10
4.143780829947187
 20
7.304
 30
0.0
 11
4.143780829947187
 21
7.382
 31
0.0
  0
LINE
  5
192D
330
18
100
AcDbEntity
  8
Object
100
AcDbLine
 10
4.132780829947186
 20
6.991
 30
0.0
 11
4.132780829947186
 21
6.923
 31
0.0
  0
LINE
  5
192E
330
18
100
AcDbEntity
  8
Object
100
AcDbLine
 10
4.143780829947187
 20
7.187
 30
0.0
 11
4.143780829947187
 21
7.238
 31
0.0
  0
LINE
  5
192F
330
18
100
AcDbEntity
  8
Object
100
AcDbLine
 10
4.132780829947186
 20
6.868999999999999
 30
0.0
 11
4.132780829947186
 21
6.83
 31
0.0
  0
LINE
  5
1930
330
18
100
AcDbEntity
  8
Object
100
AcDbLine
 10
4.143780829947187
 20
7.126999999999999
 30
0.0
 11
4.143780829947187
 21
7.15
 31
0.0
  0
LINE
  5
1931
330
18
100
AcDbEntity
  8
Object
100
AcDbLine
 10
4.132780829947186
 20
6.807
 30
0.0
 11
4.132780829947186
 21
6.799
 31
0.0
  0
LINE
  5
1932
330
18
100
AcDbEntity
  8
Object
100
AcDbLine
 10
4.173780829947187
 20
7.149
 30
0.0
 11
4.173780829947187
 21
7.156
 31
0.0
  0
LINE
  5
1933
330
18
100
AcDbEntity
  8
Object
100
AcDbLine
 10
4.173780829947187
 20
7.472
 30
0.0
 11
4.173780829947187
 21
7.408
 31
0.0
  0
LINE
  5
1934
330
18
100
AcDbEntity
  8
Object
100
AcDbLine
 10
4.173780829947187
 20
7.408
 30
0.0
 11
4.173780829947187
 21
7.33
 31
0.0
  0
LINE
  5
1935
330
18
100
AcDbEntity
  8
Object
100
AcDbLine
 10
4.173780829947187
 20
7.214999999999999
 30
0.0
 11
4.173780829947187
 21
7.265
 31
0.0
  0
LINE
  5
1936
330
18
100
AcDbEntity
  8
Object
100
AcDbLine
 10
4.173780829947187
 20
7.156
 30
0.0
 11
4.173780829947187
 21
7.177999999999999
 31
0.0
  0
LINE
  5
1937
330
18
100
AcDbEntity
  8
Object
100
AcDbLine
 10
4.173780829947187
 20
7.265
 30
0.0
 11
4.173780829947187
 21
7.33
 31
0.0
  0
LINE
  5
1938
330
18
100
AcDbEntity
  8
Object
100
AcDbLine
 10
4.173780829947187
 20
7.177999999999999
 30
0.0
 11
4.173780829947187
 21
7.214999999999999
 31
0.0
  0
LINE
  5
1939
330
18
100
AcDbEntity
  8
Object
100
AcDbLine
 10
6.394780829947187
 20
7.08
 30
0.0
 11
6.393780829947187
 21
7.12
 31
0.0
  0
LINE
  5
193A
330
18
100
AcDbEntity
  8
Object
100
AcDbLine
 10
6.398780829947187
 20
6.988999999999999
 30
0.0
 11
6.397780829947187
 21
7.0
 31
0.0
  0
LINE
  5
193B
330
18
100
AcDbEntity
  8
Object
100
AcDbLine
 10
6.326780829947187
 20
6.988999999999999
 30
0.0
 11
6.326780829947187
 21
7.0
 31
0.0
  0
LINE
  5
193C
330
18
100
AcDbEntity
  8
Object
100
AcDbLine
 10
4.228780829947186
 20
7.078999999999999
 30
0.0
 11
4.220780829947187
 21
7.076999999999999
 31
0.0
  0
LINE
  5
193D
330
18
100
AcDbEntity
  8
Object
100
AcDbLine
 10
4.220780829947187
 20
7.076999999999999
 30
0.0
 11
4.215780829947187
 21
7.072
 31
0.0
  0
LINE
  5
193E
330
18
100
AcDbEntity
  8
Object
100
AcDbLine
 10
4.215780829947187
 20
7.072
 30
0.0
 11
4.213780829947187
 21
7.065
 31
0.0
  0
LINE
  5
193F
330
18
100
AcDbEntity
  8
Object
100
AcDbLine
 10
4.158780829947187
 20
7.144
 30
0.0
 11
4.152780829947187
 21
7.141
 31
0.0
  0
LINE
  5
1940
330
18
100
AcDbEntity
  8
Object
100
AcDbLine
 10
4.159780829947187
 20
7.145
 30
0.0
 11
4.162780829947188
 21
7.147
 31
0.0
  0
LINE
  5
1941
330
18
100
AcDbEntity
  8
Object
100
AcDbLine
 10
4.162780829947188
 20
7.147
 30
0.0
 11
4.173780829947187
 21
7.149
 31
0.0
  0
LINE
  5
1942
330
18
100
AcDbEntity
  8
Object
100
AcDbLine
 10
4.147780829947187
 20
7.133
 30
0.0
 11
4.146780829947187
 21
7.131
 31
0.0
  0
LINE
  5
1943
330
18
100
AcDbEntity
  8
Object
100
AcDbLine
 10
4.152780829947187
 20
7.141
 30
0.0
 11
4.149780829947188
 21
7.136
 31
0.0
  0
LINE
  5
1944
330
18
100
AcDbEntity
  8
Object
100
AcDbLine
 10
4.146780829947187
 20
7.131
 30
0.0
 11
4.143780829947187
 21
7.12
 31
0.0
  0
LINE
  5
1945
330
18
100
AcDbEntity
  8
Object
100
AcDbLine
 10
4.139780829947187
 20
7.0
 30
0.0
 11
4.138780829947187
 21
6.982
 31
0.0
  0
LINE
  5
1946
330
18
100
AcDbEntity
  8
Object
100
AcDbLine
 10
4.143780829947187
 20
7.12
 30
0.0
 11
4.142780829947187
 21
7.08
 31
0.0
  0
LINE
  5
1947
330
18
100
AcDbEntity
  8
Object
100
AcDbLine
 10
4.134780829947187
 20
6.982
 30
0.0
 11
4.143780829947187
 21
6.982
 31
0.0
  0
LINE
  5
1948
330
18
100
AcDbEntity
  8
Object
100
AcDbLine
 10
6.363780829947187
 20
7.149
 30
0.0
 11
6.378780829947187
 21
7.145
 31
0.0
  0
LINE
  5
1949
330
18
100
AcDbEntity
  8
Object
100
AcDbLine
 10
6.378780829947187
 20
7.145
 30
0.0
 11
6.389780829947187
 21
7.134999999999999
 31
0.0
  0
LINE
  5
194A
330
18
100
AcDbEntity
  8
Object
100
AcDbLine
 10
6.389780829947187
 20
7.134999999999999
 30
0.0
 11
6.393780829947187
 21
7.12
 31
0.0
  0
LINE
  5
194B
330
18
100
AcDbEntity
  8
Object
100
AcDbLine
 10
6.383780829947187
 20
6.799
 30
0.0
 11
6.404780829947187
 21
6.799
 31
0.0
  0
LINE
  5
194C
330
18
100
AcDbEntity
  8
Object
100
AcDbLine
 10
6.324780829947187
 20
7.065
 30
0.0
 11
6.329780829947187
 21
6.919999999999999
 31
0.0
  0
LINE
  5
194D
330
18
100
AcDbEntity
  8
Object
100
AcDbLine
 10
6.404780829947187
 20
6.799
 30
0.0
 11
6.393780829947187
 21
7.12
 31
0.0
  0
LINE
  5
194E
330
18
100
AcDbEntity
  8
Object
100
AcDbLine
 10
6.324780829947187
 20
7.065
 30
0.0
 11
6.322780829947187
 21
7.072
 31
0.0
  0
LINE
  5
194F
330
18
100
AcDbEntity
  8
Object
100
AcDbLine
 10
6.322780829947187
 20
7.072
 30
0.0
 11
6.316780829947187
 21
7.076999999999999
 31
0.0
  0
LINE
  5
1950
330
18
100
AcDbEntity
  8
Object
100
AcDbLine
 10
6.316780829947187
 20
7.076999999999999
 30
0.0
 11
6.309780829947187
 21
7.078999999999999
 31
0.0
  0
LINE
  5
1951
330
18
100
AcDbEntity
  8
Object
100
AcDbLine
 10
6.309780829947187
 20
7.078999999999999
 30
0.0
 11
4.228780829947186
 21
7.078999999999999
 31
0.0
  0
LINE
  5
1952
330
18
100
AcDbEntity
  8
Object
100
AcDbLine
 10
4.228780829947186
 20
7.078999999999999
 30
0.0
 11
4.220780829947187
 21
7.076999999999999
 31
0.0
  0
LINE
  5
1953
330
18
100
AcDbEntity
  8
Object
100
AcDbLine
 10
6.363780829947187
 20
7.149
 30
0.0
 11
4.173780829947187
 21
7.149
 31
0.0
  0
LINE
  5
1954
330
18
100
AcDbEntity
  8
Object
100
AcDbLine
 10
4.148780829947186
 20
7.134999999999999
 30
0.0
 11
4.159780829947187
 21
7.145
 31
0.0
  0
LINE
  5
1955
330
18
100
AcDbEntity
  8
Object
100
AcDbLine
 10
4.159780829947187
 20
7.145
 30
0.0
 11
4.173780829947187
 21
7.149
 31
0.0
  0
LINE
  5
1956
330
18
100
AcDbEntity
  8
Object
100
AcDbLine
 10
4.220780829947187
 20
7.076999999999999
 30
0.0
 11
4.215780829947187
 21
7.072
 31
0.0
  0
LINE
  5
1957
330
18
100
AcDbEntity
  8
Object
100
AcDbLine
 10
4.215780829947187
 20
7.072
 30
0.0
 11
4.213780829947187
 21
7.065
 31
0.0
  0
LINE
  5
1958
330
18
100
AcDbEntity
  8
Object
100
AcDbLine
 10
4.148780829947186
 20
7.134999999999999
 30
0.0
 11
4.143780829947187
 21
7.12
 31
0.0
  0
LINE
  5
1959
330
18
100
AcDbEntity
  8
Object
100
AcDbLine
 10
4.132780829947186
 20
6.799
 30
0.0
 11
4.153780829947187
 21
6.799
 31
0.0
  0
LINE
  5
195A
330
18
100
AcDbEntity
  8
Object
100
AcDbLine
 10
4.207780829947187
 20
6.919999999999999
 30
0.0
 11
4.213780829947187
 21
7.065
 31
0.0
  0
LINE
  5
195B
330
18
100
AcDbEntity
  8
Object
100
AcDbLine
 10
4.143780829947187
 20
7.12
 30
0.0
 11
4.132780829947186
 21
6.799
 31
0.0
  0
LINE
  5
195C
330
18
100
AcDbEntity
  8
Object
100
AcDbLine
 10
6.386780829947187
 20
7.137
 30
0.0
 11
6.384780829947187
 21
7.141
 31
0.0
  0
LINE
  5
195D
330
18
100
AcDbEntity
  8
Object
100
AcDbLine
 10
6.391780829947187
 20
7.131
 30
0.0
 11
6.389780829947187
 21
7.133
 31
0.0
  0
LINE
  5
195E
330
18
100
AcDbEntity
  8
Object
100
AcDbLine
 10
6.376780829947187
 20
7.145
 30
0.0
 11
6.374780829947187
 21
7.147
 31
0.0
  0
LINE
  5
195F
330
18
100
AcDbEntity
  8
Object
100
AcDbLine
 10
6.384780829947187
 20
7.141
 30
0.0
 11
6.379780829947187
 21
7.142999999999999
 31
0.0
  0
LINE
  5
1960
330
18
100
AcDbEntity
  8
Object
100
AcDbLine
 10
6.374780829947187
 20
7.147
 30
0.0
 11
6.363780829947187
 21
7.149
 31
0.0
  0
LINE
  5
1961
330
18
100
AcDbEntity
  8
Object
100
AcDbLine
 10
6.393780829947187
 20
7.12
 30
0.0
 11
6.391780829947187
 21
7.131
 31
0.0
  0
LINE
  5
1962
330
18
100
AcDbEntity
  8
Object
100
AcDbLine
 10
6.324780829947187
 20
7.065
 30
0.0
 11
6.322780829947187
 21
7.072
 31
0.0
  0
LINE
  5
1963
330
18
100
AcDbEntity
  8
Object
100
AcDbLine
 10
6.322780829947187
 20
7.072
 30
0.0
 11
6.316780829947187
 21
7.076999999999999
 31
0.0
  0
LINE
  5
1964
330
18
100
AcDbEntity
  8
Object
100
AcDbLine
 10
6.316780829947187
 20
7.076999999999999
 30
0.0
 11
6.309780829947187
 21
7.078999999999999
 31
0.0
  0
LINE
  5
1965
330
18
100
AcDbEntity
  8
Object
100
AcDbLine
 10
6.393780829947187
 20
8.907999999999999
 30
0.0
 11
6.393780829947187
 21
8.739
 31
0.0
  0
LINE
  5
1966
330
18
100
AcDbEntity
  8
Object
100
AcDbLine
 10
6.393780829947187
 20
8.739
 30
0.0
 11
6.393780829947187
 21
8.572
 31
0.0
  0
LINE
  5
1967
330
18
100
AcDbEntity
  8
Object
100
AcDbLine
 10
6.393780829947187
 20
8.572
 30
0.0
 11
6.393780829947187
 21
8.409
 31
0.0
  0
LINE
  5
1968
330
18
100
AcDbEntity
  8
Object
100
AcDbLine
 10
6.393780829947187
 20
8.099
 30
0.0
 11
6.393780829947187
 21
8.250999999999999
 31
0.0
  0
LINE
  5
1969
330
18
100
AcDbEntity
  8
Object
100
AcDbLine
 10
6.393780829947187
 20
8.250999999999999
 30
0.0
 11
6.393780829947187
 21
8.409
 31
0.0
  0
LINE
  5
196A
330
18
100
AcDbEntity
  8
Object
100
AcDbLine
 10
6.393780829947187
 20
8.099
 30
0.0
 11
6.393780829947187
 21
7.955
 31
0.0
  0
LINE
  5
196B
330
18
100
AcDbEntity
  8
Object
100
AcDbLine
 10
6.393780829947187
 20
7.955
 30
0.0
 11
6.393780829947187
 21
7.82
 31
0.0
  0
LINE
  5
196C
330
18
100
AcDbEntity
  8
Object
100
AcDbLine
 10
6.393780829947187
 20
7.578
 30
0.0
 11
6.393780829947187
 21
7.693999999999999
 31
0.0
  0
LINE
  5
196D
330
18
100
AcDbEntity
  8
Object
100
AcDbLine
 10
6.393780829947187
 20
7.382
 30
0.0
 11
6.393780829947187
 21
7.474
 31
0.0
  0
LINE
  5
196E
330
18
100
AcDbEntity
  8
Object
100
AcDbLine
 10
6.393780829947187
 20
7.693999999999999
 30
0.0
 11
6.393780829947187
 21
7.82
 31
0.0
  0
LINE
  5
196F
330
18
100
AcDbEntity
  8
Object
100
AcDbLine
 10
6.393780829947187
 20
7.474
 30
0.0
 11
6.393780829947187
 21
7.578
 31
0.0
  0
LINE
  5
1970
330
18
100
AcDbEntity
  8
Object
100
AcDbLine
 10
6.393780829947187
 20
7.238
 30
0.0
 11
6.393780829947187
 21
7.304
 31
0.0
  0
LINE
  5
1971
330
18
100
AcDbEntity
  8
Object
100
AcDbLine
 10
6.393780829947187
 20
7.15
 30
0.0
 11
6.393780829947187
 21
7.187
 31
0.0
  0
LINE
  5
1972
330
18
100
AcDbEntity
  8
Object
100
AcDbLine
 10
6.393780829947187
 20
7.12
 30
0.0
 11
6.393780829947187
 21
7.126999999999999
 31
0.0
  0
LINE
  5
1973
330
18
100
AcDbEntity
  8
Object
100
AcDbLine
 10
6.393780829947187
 20
7.304
 30
0.0
 11
6.393780829947187
 21
7.382
 31
0.0
  0
LINE
  5
1974
330
18
100
AcDbEntity
  8
Object
100
AcDbLine
 10
6.393780829947187
 20
7.187
 30
0.0
 11
6.393780829947187
 21
7.238
 31
0.0
  0
LINE
  5
1975
330
18
100
AcDbEntity
  8
Object
100
AcDbLine
 10
6.393780829947187
 20
7.126999999999999
 30
0.0
 11
6.393780829947187
 21
7.15
 31
0.0
  0
LINE
  5
1976
330
18
100
AcDbEntity
  8
Object
100
AcDbLine
 10
6.393780829947187
 20
8.907999999999999
 30
0.0
 11
6.393780829947187
 21
9.079
 31
0.0
  0
LINE
  5
1977
330
18
100
AcDbEntity
  8
Object
100
AcDbLine
 10
6.404780829947187
 20
8.519
 30
0.0
 11
6.404780829947187
 21
8.704
 31
0.0
  0
LINE
  5
1978
330
18
100
AcDbEntity
  8
Object
100
AcDbLine
 10
6.404780829947187
 20
9.079
 30
0.0
 11
6.404780829947187
 21
8.891
 31
0.0
  0
LINE
  5
1979
330
18
100
AcDbEntity
  8
Object
100
AcDbLine
 10
6.404780829947187
 20
8.891
 30
0.0
 11
6.404780829947187
 21
8.704
 31
0.0
  0
LINE
  5
197A
330
18
100
AcDbEntity
  8
Object
100
AcDbLine
 10
6.404780829947187
 20
8.163
 30
0.0
 11
6.404780829947187
 21
8.339
 31
0.0
  0
LINE
  5
197B
330
18
100
AcDbEntity
  8
Object
100
AcDbLine
 10
6.404780829947187
 20
8.339
 30
0.0
 11
6.404780829947187
 21
8.519
 31
0.0
  0
LINE
  5
197C
330
18
100
AcDbEntity
  8
Object
100
AcDbLine
 10
6.404780829947187
 20
7.993999999999999
 30
0.0
 11
6.404780829947187
 21
8.163
 31
0.0
  0
LINE
  5
197D
330
18
100
AcDbEntity
  8
Object
100
AcDbLine
 10
6.404780829947187
 20
7.402
 30
0.0
 11
6.404780829947187
 21
7.535
 31
0.0
  0
LINE
  5
197E
330
18
100
AcDbEntity
  8
Object
100
AcDbLine
 10
6.404780829947187
 20
7.535
 30
0.0
 11
6.404780829947187
 21
7.679
 31
0.0
  0
LINE
  5
197F
330
18
100
AcDbEntity
  8
Object
100
AcDbLine
 10
6.404780829947187
 20
7.993999999999999
 30
0.0
 11
6.404780829947187
 21
7.831999999999999
 31
0.0
  0
LINE
  5
1980
330
18
100
AcDbEntity
  8
Object
100
AcDbLine
 10
6.404780829947187
 20
7.831999999999999
 30
0.0
 11
6.404780829947187
 21
7.679
 31
0.0
  0
LINE
  5
1981
330
18
100
AcDbEntity
  8
Object
100
AcDbLine
 10
6.404780829947187
 20
6.807
 30
0.0
 11
6.404780829947187
 21
6.83
 31
0.0
  0
LINE
  5
1982
330
18
100
AcDbEntity
  8
Object
100
AcDbLine
 10
6.404780829947187
 20
6.868999999999999
 30
0.0
 11
6.404780829947187
 21
6.923
 31
0.0
  0
LINE
  5
1983
330
18
100
AcDbEntity
  8
Object
100
AcDbLine
 10
6.404780829947187
 20
6.923
 30
0.0
 11
6.404780829947187
 21
6.991
 31
0.0
  0
LINE
  5
1984
330
18
100
AcDbEntity
  8
Object
100
AcDbLine
 10
6.404780829947187
 20
7.08
 30
0.0
 11
6.404780829947187
 21
7.169999999999999
 31
0.0
  0
LINE
  5
1985
330
18
100
AcDbEntity
  8
Object
100
AcDbLine
 10
6.404780829947187
 20
7.402
 30
0.0
 11
6.404780829947187
 21
7.28
 31
0.0
  0
LINE
  5
1986
330
18
100
AcDbEntity
  8
Object
100
AcDbLine
 10
6.404780829947187
 20
7.28
 30
0.0
 11
6.404780829947187
 21
7.169999999999999
 31
0.0
  0
LINE
  5
1987
330
18
100
AcDbEntity
  8
Object
100
AcDbLine
 10
6.404780829947187
 20
6.991
 30
0.0
 11
6.404780829947187
 21
7.0
 31
0.0
  0
LINE
  5
1988
330
18
100
AcDbEntity
  8
Object
100
AcDbLine
 10
6.404780829947187
 20
6.83
 30
0.0
 11
6.404780829947187
 21
6.868999999999999
 31
0.0
  0
LINE
  5
1989
330
18
100
AcDbEntity
  8
Object
100
AcDbLine
 10
6.404780829947187
 20
6.799
 30
0.0
 11
6.404780829947187
 21
6.807
 31
0.0
  0
LINE
  5
198A
330
18
100
AcDbEntity
  8
Object
100
AcDbLine
 10
6.327780829947187
 20
6.979
 30
0.0
 11
6.327780829947187
 21
6.98
 31
0.0
  0
LINE
  5
198B
330
18
100
AcDbEntity
  8
Object
100
AcDbLine
 10
6.327780829947187
 20
6.98
 30
0.0
 11
6.327780829947187
 21
6.980999999999999
 31
0.0
  0
LINE
  5
198C
330
18
100
AcDbEntity
  8
Object
100
AcDbLine
 10
6.326780829947187
 20
6.985999999999999
 30
0.0
 11
6.326780829947187
 21
6.988999999999999
 31
0.0
  0
LINE
  5
198D
330
18
100
AcDbEntity
  8
Object
100
AcDbLine
 10
6.326780829947187
 20
6.988999999999999
 30
0.0
 11
6.326780829947187
 21
7.0
 31
0.0
  0
LINE
  5
198E
330
18
100
AcDbEntity
  8
Object
100
AcDbLine
 10
6.324780829947187
 20
7.065
 30
0.0
 11
6.329780829947187
 21
6.919999999999999
 31
0.0
  0
LINE
  5
198F
330
18
100
AcDbEntity
  8
Object
100
AcDbLine
 10
6.363780829947187
 20
7.149
 30
0.0
 11
4.173780829947187
 21
7.149
 31
0.0
  0
LINE
  5
1990
330
18
100
AcDbEntity
  8
Object
100
AcDbLine
 10
6.398780829947187
 20
6.988
 30
0.0
 11
6.398780829947187
 21
6.988999999999999
 31
0.0
  0
LINE
  5
1991
330
18
100
AcDbEntity
  8
Object
100
AcDbLine
 10
6.404780829947187
 20
6.799
 30
0.0
 11
6.393780829947187
 21
7.12
 31
0.0
  0
LINE
  5
1992
330
18
100
AcDbEntity
  8
Object
100
AcDbLine
 10
6.393780829947187
 20
7.12
 30
0.0
 11
6.394780829947187
 21
7.08
 31
0.0
  0
LINE
  5
1993
330
18
100
AcDbEntity
  8
Object
100
AcDbLine
 10
6.398780829947187
 20
6.988999999999999
 30
0.0
 11
6.397780829947187
 21
7.0
 31
0.0
  0
LINE
  5
1994
330
18
100
AcDbEntity
  8
Object
100
AcDbLine
 10
4.210780829947188
 20
6.980999999999999
 30
0.0
 11
4.210780829947188
 21
6.98
 31
0.0
  0
LINE
  5
1995
330
18
100
AcDbEntity
  8
Object
100
AcDbLine
 10
4.210780829947188
 20
6.98
 30
0.0
 11
4.210780829947188
 21
6.979
 31
0.0
  0
LINE
  5
1996
330
18
100
AcDbEntity
  8
Object
100
AcDbLine
 10
4.207780829947187
 20
6.919999999999999
 30
0.0
 11
4.213780829947187
 21
7.065
 31
0.0
  0
LINE
  5
1997
330
18
100
AcDbEntity
  8
Object
100
AcDbLine
 10
4.138780829947187
 20
6.979
 30
0.0
 11
4.138780829947187
 21
6.98
 31
0.0
  0
LINE
  5
1998
330
18
100
AcDbEntity
  8
Object
100
AcDbLine
 10
4.138780829947187
 20
6.98
 30
0.0
 11
4.138780829947187
 21
6.982
 31
0.0
  0
LINE
  5
1999
330
18
100
AcDbEntity
  8
Object
100
AcDbLine
 10
4.142780829947187
 20
7.08
 30
0.0
 11
4.143780829947187
 21
7.12
 31
0.0
  0
LINE
  5
199A
330
18
100
AcDbEntity
  8
Object
100
AcDbLine
 10
4.138780829947187
 20
6.982
 30
0.0
 11
4.139780829947187
 21
7.0
 31
0.0
  0
LINE
  5
199B
330
18
100
AcDbEntity
  8
Object
100
AcDbLine
 10
4.143780829947187
 20
7.12
 30
0.0
 11
4.132780829947186
 21
6.799
 31
0.0
  0
LINE
  5
199C
330
18
100
AcDbEntity
  8
Object
100
AcDbLine
 10
4.162780829947188
 20
7.147
 30
0.0
 11
4.159780829947187
 21
7.145
 31
0.0
  0
LINE
  5
199D
330
18
100
AcDbEntity
  8
Object
100
AcDbLine
 10
4.159780829947187
 20
7.145
 30
0.0
 11
4.152780829947187
 21
7.141
 31
0.0
  0
LINE
  5
199E
330
18
100
AcDbEntity
  8
Object
100
AcDbLine
 10
4.152780829947187
 20
7.141
 30
0.0
 11
4.148780829947186
 21
7.134999999999999
 31
0.0
  0
LINE
  5
199F
330
18
100
AcDbEntity
  8
Object
100
AcDbLine
 10
4.148780829947186
 20
7.134999999999999
 30
0.0
 11
4.146780829947187
 21
7.131
 31
0.0
  0
LINE
  5
19A0
330
18
100
AcDbEntity
  8
Object
100
AcDbLine
 10
6.391780829947187
 20
7.131
 30
0.0
 11
6.389780829947187
 21
7.134999999999999
 31
0.0
  0
LINE
  5
19A1
330
18
100
AcDbEntity
  8
Object
100
AcDbLine
 10
6.389780829947187
 20
7.134999999999999
 30
0.0
 11
6.384780829947187
 21
7.141
 31
0.0
  0
LINE
  5
19A2
330
18
100
AcDbEntity
  8
Object
100
AcDbLine
 10
6.384780829947187
 20
7.141
 30
0.0
 11
6.378780829947187
 21
7.145
 31
0.0
  0
LINE
  5
19A3
330
18
100
AcDbEntity
  8
Object
100
AcDbLine
 10
6.378780829947187
 20
7.145
 30
0.0
 11
6.374780829947187
 21
7.147
 31
0.0
  0
LINE
  5
19A4
330
18
100
AcDbEntity
  8
Object
100
AcDbLine
 10
6.398780829947187
 20
6.988
 30
0.0
 11
6.398780829947187
 21
6.988999999999999
 31
0.0
  0
LINE
  5
19A5
330
18
100
AcDbEntity
  8
Object
100
AcDbLine
 10
6.326780829947187
 20
6.988999999999999
 30
0.0
 11
6.326780829947187
 21
6.985999999999999
 31
0.0
  0
LINE
  5
19A6
330
18
100
AcDbEntity
  8
Object
100
AcDbLine
 10
4.138780829947187
 20
6.982
 30
0.0
 11
4.138780829947187
 21
6.98
 31
0.0
  0
LINE
  5
19A7
330
18
100
AcDbEntity
  8
Object
100
AcDbLine
 10
4.210780829947188
 20
6.980999999999999
 30
0.0
 11
4.210780829947188
 21
6.98
 31
0.0
  0
LINE
  5
19A8
330
18
100
AcDbEntity
  8
Object
100
AcDbLine
 10
4.210780829947188
 20
6.98
 30
0.0
 11
4.210780829947188
 21
6.979
 31
0.0
  0
LINE
  5
19A9
330
18
100
AcDbEntity
  8
Object
100
AcDbLine
 10
4.138780829947187
 20
6.98
 30
0.0
 11
4.138780829947187
 21
6.979
 31
0.0
  0
LINE
  5
19AA
330
18
100
AcDbEntity
  8
Object
100
AcDbLine
 10
4.162780829947188
 20
7.147
 30
0.0
 11
4.173780829947187
 21
7.149
 31
0.0
  0
LINE
  5
19AB
330
18
100
AcDbEntity
  8
Object
100
AcDbLine
 10
4.173780829947187
 20
7.149
 30
0.0
 11
4.162780829947188
 21
7.147
 31
0.0
  0
LINE
  5
19AC
330
18
100
AcDbEntity
  8
Object
100
AcDbLine
 10
4.162780829947188
 20
7.147
 30
0.0
 11
4.173780829947187
 21
7.149
 31
0.0
  0
LINE
  5
19AD
330
18
100
AcDbEntity
  8
Object
100
AcDbLine
 10
4.162780829947188
 20
7.147
 30
0.0
 11
4.159780829947187
 21
7.145
 31
0.0
  0
LINE
  5
19AE
330
18
100
AcDbEntity
  8
Object
100
AcDbLine
 10
4.159780829947187
 20
7.145
 30
0.0
 11
4.173780829947187
 21
7.149
 31
0.0
  0
LINE
  5
19AF
330
18
100
AcDbEntity
  8
Object
100
AcDbLine
 10
4.162780829947188
 20
7.147
 30
0.0
 11
4.159780829947187
 21
7.145
 31
0.0
  0
LINE
  5
19B0
330
18
100
AcDbEntity
  8
Object
100
AcDbLine
 10
4.159780829947187
 20
7.145
 30
0.0
 11
4.152780829947187
 21
7.141
 31
0.0
  0
LINE
  5
19B1
330
18
100
AcDbEntity
  8
Object
100
AcDbLine
 10
4.159780829947187
 20
7.145
 30
0.0
 11
4.162780829947188
 21
7.147
 31
0.0
  0
LINE
  5
19B2
330
18
100
AcDbEntity
  8
Object
100
AcDbLine
 10
4.158780829947187
 20
7.144
 30
0.0
 11
4.152780829947187
 21
7.141
 31
0.0
  0
LINE
  5
19B3
330
18
100
AcDbEntity
  8
Object
100
AcDbLine
 10
4.152780829947187
 20
7.141
 30
0.0
 11
4.159780829947187
 21
7.145
 31
0.0
  0
LINE
  5
19B4
330
18
100
AcDbEntity
  8
Object
100
AcDbLine
 10
4.152780829947187
 20
7.141
 30
0.0
 11
4.148780829947186
 21
7.134999999999999
 31
0.0
  0
LINE
  5
19B5
330
18
100
AcDbEntity
  8
Object
100
AcDbLine
 10
4.148780829947186
 20
7.134999999999999
 30
0.0
 11
4.152780829947187
 21
7.141
 31
0.0
  0
LINE
  5
19B6
330
18
100
AcDbEntity
  8
Object
100
AcDbLine
 10
4.159780829947187
 20
7.145
 30
0.0
 11
4.148780829947186
 21
7.134999999999999
 31
0.0
  0
LINE
  5
19B7
330
18
100
AcDbEntity
  8
Object
100
AcDbLine
 10
4.148780829947186
 20
7.134999999999999
 30
0.0
 11
4.146780829947187
 21
7.131
 31
0.0
  0
LINE
  5
19B8
330
18
100
AcDbEntity
  8
Object
100
AcDbLine
 10
4.149780829947188
 20
7.136
 30
0.0
 11
4.152780829947187
 21
7.141
 31
0.0
  0
LINE
  5
19B9
330
18
100
AcDbEntity
  8
Object
100
AcDbLine
 10
4.147780829947187
 20
7.133
 30
0.0
 11
4.146780829947187
 21
7.131
 31
0.0
  0
LINE
  5
19BA
330
18
100
AcDbEntity
  8
Object
100
AcDbLine
 10
4.146780829947187
 20
7.131
 30
0.0
 11
4.148780829947186
 21
7.134999999999999
 31
0.0
  0
LINE
  5
19BB
330
18
100
AcDbEntity
  8
Object
100
AcDbLine
 10
4.146780829947187
 20
7.131
 30
0.0
 11
4.143780829947187
 21
7.12
 31
0.0
  0
LINE
  5
19BC
330
18
100
AcDbEntity
  8
Object
100
AcDbLine
 10
4.143780829947187
 20
7.12
 30
0.0
 11
4.148780829947186
 21
7.134999999999999
 31
0.0
  0
LINE
  5
19BD
330
18
100
AcDbEntity
  8
Object
100
AcDbLine
 10
4.146780829947187
 20
7.131
 30
0.0
 11
4.143780829947187
 21
7.12
 31
0.0
  0
LINE
  5
19BE
330
18
100
AcDbEntity
  8
Object
100
AcDbLine
 10
4.143780829947187
 20
7.12
 30
0.0
 11
4.146780829947187
 21
7.131
 31
0.0
  0
LINE
  5
19BF
330
18
100
AcDbEntity
  8
Object
100
AcDbLine
 10
6.391780829947187
 20
7.131
 30
0.0
 11
6.393780829947187
 21
7.12
 31
0.0
  0
LINE
  5
19C0
330
18
100
AcDbEntity
  8
Object
100
AcDbLine
 10
6.393780829947187
 20
7.12
 30
0.0
 11
6.391780829947187
 21
7.131
 31
0.0
  0
LINE
  5
19C1
330
18
100
AcDbEntity
  8
Object
100
AcDbLine
 10
6.391780829947187
 20
7.131
 30
0.0
 11
6.393780829947187
 21
7.12
 31
0.0
  0
LINE
  5
19C2
330
18
100
AcDbEntity
  8
Object
100
AcDbLine
 10
6.391780829947187
 20
7.131
 30
0.0
 11
6.389780829947187
 21
7.134999999999999
 31
0.0
  0
LINE
  5
19C3
330
18
100
AcDbEntity
  8
Object
100
AcDbLine
 10
6.389780829947187
 20
7.134999999999999
 30
0.0
 11
6.393780829947187
 21
7.12
 31
0.0
  0
LINE
  5
19C4
330
18
100
AcDbEntity
  8
Object
100
AcDbLine
 10
6.391780829947187
 20
7.131
 30
0.0
 11
6.389780829947187
 21
7.134999999999999
 31
0.0
  0
LINE
  5
19C5
330
18
100
AcDbEntity
  8
Object
100
AcDbLine
 10
6.389780829947187
 20
7.134999999999999
 30
0.0
 11
6.384780829947187
 21
7.141
 31
0.0
  0
LINE
  5
19C6
330
18
100
AcDbEntity
  8
Object
100
AcDbLine
 10
6.389780829947187
 20
7.133
 30
0.0
 11
6.391780829947187
 21
7.131
 31
0.0
  0
LINE
  5
19C7
330
18
100
AcDbEntity
  8
Object
100
AcDbLine
 10
6.386780829947187
 20
7.137
 30
0.0
 11
6.384780829947187
 21
7.141
 31
0.0
  0
LINE
  5
19C8
330
18
100
AcDbEntity
  8
Object
100
AcDbLine
 10
6.384780829947187
 20
7.141
 30
0.0
 11
6.389780829947187
 21
7.134999999999999
 31
0.0
  0
LINE
  5
19C9
330
18
100
AcDbEntity
  8
Object
100
AcDbLine
 10
6.384780829947187
 20
7.141
 30
0.0
 11
6.378780829947187
 21
7.145
 31
0.0
  0
LINE
  5
19CA
330
18
100
AcDbEntity
  8
Object
100
AcDbLine
 10
6.378780829947187
 20
7.145
 30
0.0
 11
6.384780829947187
 21
7.141
 31
0.0
  0
LINE
  5
19CB
330
18
100
AcDbEntity
  8
Object
100
AcDbLine
 10
6.389780829947187
 20
7.134999999999999
 30
0.0
 11
6.378780829947187
 21
7.145
 31
0.0
  0
LINE
  5
19CC
330
18
100
AcDbEntity
  8
Object
100
AcDbLine
 10
6.378780829947187
 20
7.145
 30
0.0
 11
6.374780829947187
 21
7.147
 31
0.0
  0
LINE
  5
19CD
330
18
100
AcDbEntity
  8
Object
100
AcDbLine
 10
6.379780829947187
 20
7.142999999999999
 30
0.0
 11
6.384780829947187
 21
7.141
 31
0.0
  0
LINE
  5
19CE
330
18
100
AcDbEntity
  8
Object
100
AcDbLine
 10
6.376780829947187
 20
7.145
 30
0.0
 11
6.374780829947187
 21
7.147
 31
0.0
  0
LINE
  5
19CF
330
18
100
AcDbEntity
  8
Object
100
AcDbLine
 10
6.374780829947187
 20
7.147
 30
0.0
 11
6.378780829947187
 21
7.145
 31
0.0
  0
LINE
  5
19D0
330
18
100
AcDbEntity
  8
Object
100
AcDbLine
 10
6.374780829947187
 20
7.147
 30
0.0
 11
6.363780829947187
 21
7.149
 31
0.0
  0
LINE
  5
19D1
330
18
100
AcDbEntity
  8
Object
100
AcDbLine
 10
6.363780829947187
 20
7.149
 30
0.0
 11
6.378780829947187
 21
7.145
 31
0.0
  0
LINE
  5
19D2
330
18
100
AcDbEntity
  8
Object
100
AcDbLine
 10
6.374780829947187
 20
7.147
 30
0.0
 11
6.363780829947187
 21
7.149
 31
0.0
  0
LINE
  5
19D3
330
18
100
AcDbEntity
  8
Object
100
AcDbLine
 10
6.363780829947187
 20
7.149
 30
0.0
 11
6.374780829947187
 21
7.147
 31
0.0
  0
LINE
  5
19D4
330
18
100
AcDbEntity
  8
Object
100
AcDbLine
 10
6.383780829947187
 20
6.799
 30
0.0
 11
6.404780829947187
 21
6.799
 31
0.0
  0
LINE
  5
19D5
330
18
100
AcDbEntity
  8
Object
100
AcDbLine
 10
4.132780829947186
 20
6.799
 30
0.0
 11
4.153780829947187
 21
6.799
 31
0.0
  0
LINE
  5
19D6
330
18
100
AcDbEntity
  8
Object
100
AcDbLine
 10
6.327780829947187
 20
6.979
 30
0.0
 11
6.327780829947187
 21
6.98
 31
0.0
  0
LINE
  5
19D7
330
18
100
AcDbEntity
  8
Object
100
AcDbLine
 10
6.327780829947187
 20
6.98
 30
0.0
 11
6.327780829947187
 21
6.980999999999999
 31
0.0
  0
DIMENSION
  5
19D8
330
18
100
AcDbEntity
  8
Dimension
100
AcDbDimension
  2
*D0
 10
6.479780829947187
 20
13.42049243688391
 30
0.0
 11
5.269280829947186
 21
13.42049243688391
 31
0.0
 70
    32
 71
     5
 42
2.421
  3
STANDARD
100
AcDbAlignedDimension
 13
4.058780829947187
 23
10.117
 33
0.0
 14
6.479780829947187
 24
10.117
 34
0.0
100
AcDbRotatedDimension
  0
DIMENSION
  5
1A03
330
18
100
AcDbEntity
  8
Dimension
100
AcDbDimension
  2
*D1
 10
19.41478082994718
 20
13.42049243688391
 30
0.0
 11
15.97778082994719
 21
13.42049243688391
 31
0.0
 70
    32
  1
6.95 [176.6mm]
 71
     5
 42
6.873999999999998
  3
STANDARD
100
AcDbAlignedDimension
 13
12.54078082994719
 23
6.919999999999999
 33
0.0
 14
19.41478082994718
 24
11.995
 34
0.0
100
AcDbRotatedDimension
  0
LINE
  5
1A12
330
18
100
AcDbEntity
  8
Object
100
AcDbLine
 10
19.41478082994718
 20
11.982
 30
0.0
 11
19.41478082994718
 21
10.43059589960693
 31
0.0
  0
ENDSEC
  0
SECTION
  2
OBJECTS
  0
DICTIONARY
  5
C
330
0
100
AcDbDictionary
281
     1
  3
ACAD_COLOR
350
10D
  3
ACAD_GROUP
350
D
  3
ACAD_LAYOUT
350
110
  3
ACAD_MATERIAL
350
10C
  3
ACAD_MLINESTYLE
350
1B
  3
ACAD_PLOTSETTINGS
350
111
  3
ACAD_PLOTSTYLENAME
350
10A
  3
ACAD_TABLESTYLE
350
10E
  3
ACDBHEADERROUNDTRIPXREC
350
1A2C
  3
AcDbVariableDictionary
350
13E
  3
ASE_INDEX_DICTIONARY
350
148
  0
DICTIONARY
  5
154
330
2
100
AcDbDictionary
280
     1
281
     1
  3
ACAD_LAYERFILTERS
360
158
  3
ACLYDICTIONARY
360
157
  0
DICTIONARY
  5
1208
330
18
100
AcDbDictionary
280
     1
281
     1
  3
ACAD_SORTENTS
360
1209
  0
DICTIONARY
  5
10D
102
{ACAD_REACTORS
330
C
102
}
330
C
100
AcDbDictionary
281
     1
  0
DICTIONARY
  5
D
102
{ACAD_REACTORS
330
C
102
}
330
C
100
AcDbDictionary
281
     1
  0
DICTIONARY
  5
110
102
{ACAD_REACTORS
330
C
102
}
330
C
100
AcDbDictionary
281
     1
  3
Layout1
350
113
  3
Model
350
112
  0
DICTIONARY
  5
10C
102
{ACAD_REACTORS
330
C
102
}
330
C
100
AcDbDictionary
281
     1
  0
DICTIONARY
  5
1B
102
{ACAD_REACTORS
330
C
102
}
330
C
100
AcDbDictionary
281
     1
  3
STANDARD
350
1C
  0
DICTIONARY
  5
111
102
{ACAD_REACTORS
330
C
102
}
330
C
100
AcDbDictionary
281
     1
  0
ACDBDICTIONARYWDFLT
  5
10A
102
{ACAD_REACTORS
330
C
102
}
330
C
100
AcDbDictionary
281
     1
  3
Normal
350
10B
100
AcDbDictionaryWithDefault
340
10B
  0
DICTIONARY
  5
10E
102
{ACAD_REACTORS
330
C
102
}
330
C
100
AcDbDictionary
281
     1
  3
Standard
350
10F
  0
DICTIONARY
  5
1A2C
102
{ACAD_REACTORS
330
C
102
}
330
C
100
AcDbDictionary
281
     1
  0
DICTIONARY
  5
13E
102
{ACAD_REACTORS
330
C
102
}
330
C
100
AcDbDictionary
281
     1
  3
CTABLESTYLE
350
13F
  3
DIMASSOC
350
1A29
  3
PROJECTNAME
350
1A2A
  0
DICTIONARY
  5
148
102
{ACAD_REACTORS
330
C
102
}
330
C
100
AcDbDictionary
281
     1
  3
ASEBlockHierarchyIndexRecord
350
14A
1001
DCO15
1040
1529148047.148
  0
DICTIONARY
  5
158
102
{ACAD_REACTORS
330
154
102
}
330
154
100
AcDbDictionary
281
     1
  0
DICTIONARY
  5
157
102
{ACAD_REACTORS
330
154
102
}
330
154
100
AcDbDictionary
281
     1
1001
ACAD
1000
<All
  0
SORTENTSTABLE
  5
1209
102
{ACAD_REACTORS
330
1208
102
}
330
1208
100
AcDbSortentsTable
330
18
331
AC
  5
AC
331
BD
  5
BD
331
12D
  5
12D
331
5E
  5
5E
331
6F
  5
6F
331
FF
  5
FF
331
AE
  5
AE
331
51
  5
51
331
60
  5
60
331
2AD
  5
2AD
331
53
  5
53
331
C1
  5
C1
331
62
  5
62
331
C3
  5
C3
331
133
  5
133
331
64
  5
64
331
A5
  5
A5
331
105
  5
105
331
57
  5
57
331
C5
  5
C5
331
68
  5
68
331
135
  5
135
331
F8
  5
F8
331
66
  5
66
331
A7
  5
A7
331
B6
  5
B6
331
59
  5
59
331
C7
  5
C7
331
6A
  5
6A
331
137
  5
137
331
A9
  5
A9
331
C9
  5
C9
331
6C
  5
6C
331
139
  5
139
331
FC
  5
FC
331
AB
  5
AB
331
BC
  5
BC
331
12C
  5
12C
331
CB
  5
CB
331
6E
  5
6E
331
AD
  5
AD
331
12E
  5
12E
331
5F
  5
5F
331
2AC
  5
2AC
331
CD
  5
CD
331
AF
  5
AF
331
52
  5
52
331
C0
  5
C0
331
130
  5
130
331
102
  5
102
331
54
  5
54
331
C2
  5
C2
331
63
  5
63
331
C4
  5
C4
331
134
  5
134
331
65
  5
65
331
A6
  5
A6
331
58
  5
58
331
C6
  5
C6
331
69
  5
69
331
136
  5
136
331
67
  5
67
331
A8
  5
A8
331
5A
  5
5A
331
C8
  5
C8
331
6B
  5
6B
331
138
  5
138
331
2BE
  5
2BE
331
AA
  5
AA
331
CA
  5
CA
331
6D
  5
6D
  0
LAYOUT
  5
113
102
{ACAD_XDICTIONARY
360
1A2F
102
}
102
{ACAD_REACTORS
330
110
102
}
330
110
100
AcDbPlotSettings
  1

  2
\\RSENG\RSplotter4NT
  4

  6

 40
0.0
 41
0.0
 42
0.0
 43
0.0
 44
0.0
 45
0.0
 46
0.0
 47
0.0
 48
0.0
 49
0.0
140
0.0
141
0.0
142
1.0
143
1.0
 70
   688
 72
     0
 73
     0
 74
     5
  7
Symantec Fax Starter Edition
 75
    16
147
1.0
148
0.0
149
0.0
100
AcDbLayout
  1
Layout1
 70
     1
 71
     1
 10
0.0
 20
0.0
 11
12.0
 21
9.0
 12
0.0
 22
0.0
 32
0.0
 14
1.000000000000000E+20
 24
1.000000000000000E+20
 34
1.000000000000000E+20
 15
-1.000000000000000E+20
 25
-1.000000000000000E+20
 35
-1.000000000000000E+20
146
0.0
 13
0.0
 23
0.0
 33
0.0
 16
1.0
 26
0.0
 36
0.0
 17
0.0
 27
1.0
 37
0.0
 76
     0
330
15
  0
LAYOUT
  5
112
102
{ACAD_XDICTIONARY
360
1A2D
102
}
102
{ACAD_REACTORS
330
110
102
}
330
110
100
AcDbPlotSettings
  1

  2
\\RSENG\RSplotter4NT
  4

  6

 40
0.0
 41
0.0
 42
0.0
 43
0.0
 44
0.0
 45
0.0
 46
0.0
 47
0.0
 48
0.0
 49
0.0
140
0.0
141
0.0
142
1.0
143
1.0
 70
  1712
 72
     0
 73
     0
 74
     0
  7
Symantec Fax Starter Edition
 75
     0
147
1.0
148
0.0
149
0.0
100
AcDbLayout
  1
Model
 70
     1
 71
     0
 10
0.0
 20
0.0
 11
12.0
 21
9.0
 12
0.0
 22
0.0
 32
0.0
 14
0.0
 24
0.0
 34
0.0
 15
0.0
 25
0.0
 35
0.0
146
0.0
 13
0.0
 23
0.0
 33
0.0
 16
1.0
 26
0.0
 36
0.0
 17
0.0
 27
1.0
 37
0.0
 76
     0
330
18
  0
MLINESTYLE
  5
1C
102
{ACAD_REACTORS
330
1B
102
}
330
1B
100
AcDbMlineStyle
  2
STANDARD
 70
     0
  3

 62
   256
 51
90.0
 52
90.0
 71
     2
 49
0.5
 62
   256
  6
BYLAYER
 49
-0.5
 62
   256
  6
BYLAYER
  0
ACDBPLACEHOLDER
  5
10B
102
{ACAD_REACTORS
330
10A
102
}
330
10A
  0
TABLESTYLE
  5
10F
102
{ACAD_REACTORS
330
10E
102
}
330
10E
100
AcDbTableStyle
  3
Standard
 70
     0
 71
     0
 40
0.06
 41
0.06
280
     0
281
     0
  7
STANDARD
140
0.18
170
     2
 62
     0
 63
     7
283
     0
274
    -2
284
     1
 64
     0
275
    -2
285
     1
 65
     0
276
    -2
286
     1
 66
     0
277
    -2
287
     1
 67
     0
278
    -2
288
     1
 68
     0
279
    -2
289
     1
 69
     0
  7
STANDARD
140
0.25
170
     5
 62
     0
 63
     7
283
     0
274
    -2
284
     1
 64
     0
275
    -2
285
     1
 65
     0
276
    -2
286
     1
 66
     0
277
    -2
287
     1
 67
     0
278
    -2
288
     1
 68
     0
279
    -2
289
     1
 69
     0
  7
STANDARD
140
0.18
170
     5
 62
     0
 63
     7
283
     0
274
    -2
284
     1
 64
     0
275
    -2
285
     1
 65
     0
276
    -2
286
     1
 66
     0
277
    -2
287
     1
 67
     0
278
    -2
288
     1
 68
     0
279
    -2
289
     1
 69
     0
  0
DICTIONARYVAR
  5
13F
102
{ACAD_REACTORS
330
13E
102
}
330
13E
100
DictionaryVariables
280
     0
  1
STANDARD
  0
DICTIONARYVAR
  5
1A29
102
{ACAD_REACTORS
330
13E
102
}
330
13E
100
DictionaryVariables
280
     0
  1
1
  0
DICTIONARYVAR
  5
1A2A
102
{ACAD_REACTORS
330
13E
102
}
330
13E
100
DictionaryVariables
280
     0
  1

  0
XRECORD
  5
14A
102
{ACAD_REACTORS
330
148
102
}
330
148
100
AcDbXrecord
280
     1
  0
DICTIONARY
  5
1A2F
330
113
100
AcDbDictionary
280
     1
281
     1
  3
ACAD_XREC_ROUNDTRIP
360
1A30
  0
DICTIONARY
  5
1A2D
330
112
100
AcDbDictionary
280
     1
281
     1
  3
ACAD_XREC_ROUNDTRIP
360
1A2E
  0
XRECORD
  5
1A30
102
{ACAD_REACTORS
330
1A2F
102
}
330
1A2F
100
AcDbXrecord
280
     1
102
SHADEPLOT
 70
     0
102
SHADEPLOTRESLEVEL
 70
     2
102
SHADEPLOTCUSTOMDPI
 70
   300
  0
XRECORD
  5
1A2E
102
{ACAD_REACTORS
330
1A2D
102
}
330
1A2D
100
AcDbXrecord
280
     1
102
SHADEPLOT
 70
     0
102
SHADEPLOTRESLEVEL
 70
     2
102
SHADEPLOTCUSTOMDPI
 70
   300
  0
ENDSEC
  0
EOF
