  0
SECTION
  2
HEADER
  9
$ACADVER
  1
AC1015
  9
$ACADMAINTVER
 70
    20
  9
$DWGCODEPAGE
  3
ANSI_1252
  9
$INSBASE
 10
0.0
 20
0.0
 30
0.0
  9
$EXTMIN
 10
-0.075
 20
-0.0750000000000018
 30
0.0
  9
$EXTMAX
 10
17.075
 20
11.075
 30
0.0
  9
$LIMMIN
 10
0.0
 20
0.0
  9
$LIMMAX
 10
12.0
 20
9.0
  9
$ORTHOMODE
 70
     0
  9
$REGENMODE
 70
     1
  9
$FILLMODE
 70
     1
  9
$QTEXTMODE
 70
     0
  9
$MIRRTEXT
 70
     0
  9
$LTSCALE
 40
1.0
  9
$ATTMODE
 70
     1
  9
$TEXTSIZE
 40
0.09
  9
$TRACEWID
 40
0.05
  9
$TEXTSTYLE
  7
Standard
  9
$CLAYER
  8
0
  9
$CELTYPE
  6
ByLayer
  9
$CECOLOR
 62
   256
  9
$CELTSCALE
 40
1.0
  9
$DISPSILH
 70
     0
  9
$DIMSCALE
 40
1.0
  9
$DIMASZ
 40
0.1875
  9
$DIMEXO
 40
0.0625
  9
$DIMDLI
 40
0.38
  9
$DIMRND
 40
0.0
  9
$DIMDLE
 40
0.0
  9
$DIMEXE
 40
0.125
  9
$DIMTP
 40
0.0
  9
$DIMTM
 40
0.0
  9
$DIMTXT
 40
0.09
  9
$DIMCEN
 40
0.09
  9
$DIMTSZ
 40
0.0
  9
$DIMTOL
 70
     0
  9
$DIMLIM
 70
     0
  9
$DIMTIH
 70
     1
  9
$DIMTOH
 70
     1
  9
$DIMSE1
 70
     0
  9
$DIMSE2
 70
     0
  9
$DIMTAD
 70
     0
  9
$DIMZIN
 70
     0
  9
$DIMBLK
  1

  9
$DIMASO
 70
     1
  9
$DIMSHO
 70
     1
  9
$DIMPOST
  1

  9
$DIMAPOST
  1
mm
  9
$DIMALT
 70
     1
  9
$DIMALTD
 70
     1
  9
$DIMALTF
 40
25.4
  9
$DIMLFAC
 40
1.0
  9
$DIMTOFL
 70
     0
  9
$DIMTVP
 40
0.0
  9
$DIMTIX
 70
     0
  9
$DIMSOXD
 70
     0
  9
$DIMSAH
 70
     0
  9
$DIMBLK1
  1

  9
$DIMBLK2
  1

  9
$DIMSTYLE
  2
Standard
  9
$DIMCLRD
 70
     0
  9
$DIMCLRE
 70
     0
  9
$DIMCLRT
 70
     0
  9
$DIMTFAC
 40
1.0
  9
$DIMGAP
 40
0.09
  9
$DIMJUST
 70
     0
  9
$DIMSD1
 70
     0
  9
$DIMSD2
 70
     0
  9
$DIMTOLJ
 70
     1
  9
$DIMTZIN
 70
     0
  9
$DIMALTZ
 70
     0
  9
$DIMALTTZ
 70
     0
  9
$DIMUPT
 70
     0
  9
$DIMDEC
 70
     2
  9
$DIMTDEC
 70
     2
  9
$DIMALTU
 70
     2
  9
$DIMALTTD
 70
     1
  9
$DIMTXSTY
  7
Standard
  9
$DIMAUNIT
 70
     0
  9
$DIMADEC
 70
     0
  9
$DIMALTRND
 40
0.0
  9
$DIMAZIN
 70
     0
  9
$DIMDSEP
 70
    46
  9
$DIMATFIT
 70
     3
  9
$DIMFRAC
 70
     0
  9
$DIMLDRBLK
  1

  9
$DIMLUNIT
 70
     2
  9
$DIMLWD
 70
    -2
  9
$DIMLWE
 70
    -2
  9
$DIMTMOVE
 70
     0
  9
$LUNITS
 70
     2
  9
$LUPREC
 70
     4
  9
$SKETCHINC
 40
0.1
  9
$FILLETRAD
 40
0.0
  9
$AUNITS
 70
     0
  9
$AUPREC
 70
     0
  9
$MENU
  1
.
  9
$ELEVATION
 40
0.0
  9
$PELEVATION
 40
0.0
  9
$THICKNESS
 40
0.0
  9
$LIMCHECK
 70
     0
  9
$CHAMFERA
 40
0.0
  9
$CHAMFERB
 40
0.0
  9
$CHAMFERC
 40
0.0
  9
$CHAMFERD
 40
0.0
  9
$SKPOLY
 70
     0
  9
$TDCREATE
 40
2453769.711216482
  9
$TDUCREATE
 40
2453769.919549815
  9
$TDUPDATE
 40
2454294.593480290
  9
$TDUUPDATE
 40
2454294.801813623
  9
$TDINDWG
 40
0.0140934028
  9
$TDUSRTIMER
 40
0.0140934028
  9
$USRTIMER
 70
     1
  9
$ANGBASE
 50
0.0
  9
$ANGDIR
 70
     0
  9
$PDMODE
 70
     2
  9
$PDSIZE
 40
0.075
  9
$PLINEWID
 40
0.0
  9
$SPLFRAME
 70
     0
  9
$SPLINETYPE
 70
     6
  9
$SPLINESEGS
 70
     8
  9
$HANDSEED
  5
771
  9
$SURFTAB1
 70
     6
  9
$SURFTAB2
 70
     6
  9
$SURFTYPE
 70
     6
  9
$SURFU
 70
     6
  9
$SURFV
 70
     6
  9
$UCSBASE
  2

  9
$UCSNAME
  2

  9
$UCSORG
 10
0.0
 20
0.0
 30
0.0
  9
$UCSXDIR
 10
1.0
 20
0.0
 30
0.0
  9
$UCSYDIR
 10
0.0
 20
1.0
 30
0.0
  9
$UCSORTHOREF
  2

  9
$UCSORTHOVIEW
 70
     0
  9
$UCSORGTOP
 10
0.0
 20
0.0
 30
0.0
  9
$UCSORGBOTTOM
 10
0.0
 20
0.0
 30
0.0
  9
$UCSORGLEFT
 10
0.0
 20
0.0
 30
0.0
  9
$UCSORGRIGHT
 10
0.0
 20
0.0
 30
0.0
  9
$UCSORGFRONT
 10
0.0
 20
0.0
 30
0.0
  9
$UCSORGBACK
 10
0.0
 20
0.0
 30
0.0
  9
$PUCSBASE
  2

  9
$PUCSNAME
  2

  9
$PUCSORG
 10
0.0
 20
0.0
 30
0.0
  9
$PUCSXDIR
 10
1.0
 20
0.0
 30
0.0
  9
$PUCSYDIR
 10
0.0
 20
1.0
 30
0.0
  9
$PUCSORTHOREF
  2

  9
$PUCSORTHOVIEW
 70
     0
  9
$PUCSORGTOP
 10
0.0
 20
0.0
 30
0.0
  9
$PUCSORGBOTTOM
 10
0.0
 20
0.0
 30
0.0
  9
$PUCSORGLEFT
 10
0.0
 20
0.0
 30
0.0
  9
$PUCSORGRIGHT
 10
0.0
 20
0.0
 30
0.0
  9
$PUCSORGFRONT
 10
0.0
 20
0.0
 30
0.0
  9
$PUCSORGBACK
 10
0.0
 20
0.0
 30
0.0
  9
$USERI1
 70
     0
  9
$USERI2
 70
     0
  9
$USERI3
 70
     0
  9
$USERI4
 70
     0
  9
$USERI5
 70
     0
  9
$USERR1
 40
0.0
  9
$USERR2
 40
0.0
  9
$USERR3
 40
0.0
  9
$USERR4
 40
0.0
  9
$USERR5
 40
0.0
  9
$WORLDVIEW
 70
     1
  9
$SHADEDGE
 70
     3
  9
$SHADEDIF
 70
    70
  9
$TILEMODE
 70
     1
  9
$MAXACTVP
 70
    64
  9
$PINSBASE
 10
0.0
 20
0.0
 30
0.0
  9
$PLIMCHECK
 70
     0
  9
$PEXTMIN
 10
0.0
 20
0.0
 30
0.0
  9
$PEXTMAX
 10
0.0
 20
0.0
 30
0.0
  9
$PLIMMIN
 10
0.0
 20
0.0
  9
$PLIMMAX
 10
12.0
 20
9.0
  9
$UNITMODE
 70
     0
  9
$VISRETAIN
 70
     1
  9
$PLINEGEN
 70
     0
  9
$PSLTSCALE
 70
     1
  9
$TREEDEPTH
 70
  3020
  9
$CMLSTYLE
  2
Standard
  9
$CMLJUST
 70
     0
  9
$CMLSCALE
 40
1.0
  9
$PROXYGRAPHICS
 70
     1
  9
$MEASUREMENT
 70
     0
  9
$CELWEIGHT
370
    -1
  9
$ENDCAPS
280
     0
  9
$JOINSTYLE
280
     0
  9
$LWDISPLAY
290
     0
  9
$INSUNITS
 70
     1
  9
$HYPERLINKBASE
  1

  9
$STYLESHEET
  1

  9
$XEDIT
290
     1
  9
$CEPSNTYPE
380
     0
  9
$PSTYLEMODE
290
     1
  9
$FINGERPRINTGUID
  2
{BEF5DF8A-7468-410C-9FA2-751F8F43C633}
  9
$VERSIONGUID
  2
{17EDB19C-ACBB-4232-AD6C-8F28494294E8}
  9
$EXTNAMES
290
     1
  9
$PSVPSCALE
 40
0.0
  9
$OLESTARTUP
290
     0
  0
ENDSEC
  0
SECTION
  2
CLASSES
  0
CLASS
  1
ACDBDICTIONARYWDFLT
  2
AcDbDictionaryWithDefault
  3
ObjectDBX Classes
 90
        0
280
     0
281
     0
  0
CLASS
  1
ACDBPLACEHOLDER
  2
AcDbPlaceHolder
  3
ObjectDBX Classes
 90
        0
280
     0
281
     0
  0
CLASS
  1
LAYOUT
  2
AcDbLayout
  3
ObjectDBX Classes
 90
        0
280
     0
281
     0
  0
CLASS
  1
DICTIONARYVAR
  2
AcDbDictionaryVar
  3
ObjectDBX Classes
 90
        0
280
     0
281
     0
  0
CLASS
  1
TABLESTYLE
  2
AcDbTableStyle
  3
ObjectDBX Classes
 90
     2047
280
     0
281
     0
  0
CLASS
  1
DIMASSOC
  2
AcDbDimAssoc
  3
"AcDbDimAssoc|Product Desc:     AcDim ARX App For Dimension|Company:          Autodesk, Inc.|WEB Address:      www.autodesk.com"
 90
        0
280
     0
281
     0
  0
CLASS
  1
SORTENTSTABLE
  2
AcDbSortentsTable
  3
ObjectDBX Classes
 90
        0
280
     0
281
     0
  0
ENDSEC
  0
SECTION
  2
TABLES
  0
TABLE
  2
VPORT
  5
8
330
0
100
AcDbSymbolTable
 70
     2
  0
VPORT
  5
769
330
8
100
AcDbSymbolTableRecord
100
AcDbViewportTableRecord
  2
*Active
 70
     0
 10
0.0
 20
0.0
 11
1.0
 21
1.0
 12
8.500000120739905
 22
5.89262939344545
 13
0.0
 23
0.0
 14
0.5
 24
0.5
 15
0.5
 25
0.5
 16
0.0
 26
0.0
 36
1.0
 17
0.0
 27
0.0
 37
0.0
 40
12.00774367634147
 41
1.499364675984752
 42
50.0
 43
0.0
 44
0.0
 50
0.0
 51
0.0
 71
     0
 72
  1000
 73
     1
 74
     3
 75
     0
 76
     0
 77
     0
 78
     0
281
     0
 65
     1
110
0.0
120
0.0
130
0.0
111
1.0
121
0.0
131
0.0
112
0.0
122
1.0
132
0.0
 79
     0
146
0.0
  0
ENDTAB
  0
TABLE
  2
LTYPE
  5
5
330
0
100
AcDbSymbolTable
 70
     1
  0
LTYPE
  5
14
330
5
100
AcDbSymbolTableRecord
100
AcDbLinetypeTableRecord
  2
ByBlock
 70
     0
  3

 72
    65
 73
     0
 40
0.0
  0
LTYPE
  5
15
330
5
100
AcDbSymbolTableRecord
100
AcDbLinetypeTableRecord
  2
ByLayer
 70
     0
  3

 72
    65
 73
     0
 40
0.0
  0
LTYPE
  5
16
330
5
100
AcDbSymbolTableRecord
100
AcDbLinetypeTableRecord
  2
Continuous
 70
     0
  3
Solid line
 72
    65
 73
     0
 40
0.0
  0
ENDTAB
  0
TABLE
  2
LAYER
  5
2
330
0
100
AcDbSymbolTable
 70
     6
  0
LAYER
  5
10
330
2
100
AcDbSymbolTableRecord
100
AcDbLayerTableRecord
  2
0
 70
     0
 62
     7
  6
Continuous
370
    -3
390
F
  0
LAYER
  5
8B
330
2
100
AcDbSymbolTableRecord
100
AcDbLayerTableRecord
  2
Title Block
 70
     0
 62
     3
  6
Continuous
370
    -3
390
F
  0
LAYER
  5
8C
330
2
100
AcDbSymbolTableRecord
100
AcDbLayerTableRecord
  2
Dimension
 70
     0
 62
     6
  6
Continuous
370
    -3
390
F
  0
LAYER
  5
8D
330
2
100
AcDbSymbolTableRecord
100
AcDbLayerTableRecord
  2
Text
 70
     0
 62
     1
  6
Continuous
370
    -3
390
F
  0
LAYER
  5
8E
330
2
100
AcDbSymbolTableRecord
100
AcDbLayerTableRecord
  2
Object
 70
     0
 62
     5
  6
Continuous
370
    -3
390
F
  0
LAYER
  5
635
330
2
100
AcDbSymbolTableRecord
100
AcDbLayerTableRecord
  2
Defpoints
 70
     0
 62
     7
  6
Continuous
290
     0
370
    -3
390
F
  0
ENDTAB
  0
TABLE
  2
STYLE
  5
3
330
0
100
AcDbSymbolTable
 70
     1
  0
STYLE
  5
11
330
3
100
AcDbSymbolTableRecord
100
AcDbTextStyleTableRecord
  2
Standard
 70
     0
 40
0.0
 41
1.0
 50
0.0
 71
     0
 42
0.09
  3
technic_.ttf
  4

1001
ACAD
1000
Technic
1071
      514
  0
ENDTAB
  0
TABLE
  2
VIEW
  5
6
330
0
100
AcDbSymbolTable
 70
     0
  0
ENDTAB
  0
TABLE
  2
UCS
  5
7
330
0
100
AcDbSymbolTable
 70
     0
  0
ENDTAB
  0
TABLE
  2
APPID
  5
9
330
0
100
AcDbSymbolTable
 70
     4
  0
APPID
  5
12
330
9
100
AcDbSymbolTableRecord
100
AcDbRegAppTableRecord
  2
ACAD
 70
     0
  0
APPID
  5
90
330
9
100
AcDbSymbolTableRecord
100
AcDbRegAppTableRecord
  2
DCO15
 70
     0
  0
APPID
  5
91
330
9
100
AcDbSymbolTableRecord
100
AcDbRegAppTableRecord
  2
AcAecLayerStandard
 70
     0
  0
APPID
  5
DD
330
9
100
AcDbSymbolTableRecord
100
AcDbRegAppTableRecord
  2
ACAD_DSTYLE_DIMTEXT_FILL
 70
     0
  0
ENDTAB
  0
TABLE
  2
DIMSTYLE
  5
A
330
0
100
AcDbSymbolTable
 70
     1
100
AcDbDimStyleTable
 71
     1
340
27
  0
DIMSTYLE
105
27
102
{ACAD_REACTORS
330
634
330
656
330
68A
102
}
330
A
100
AcDbSymbolTableRecord
100
AcDbDimStyleTableRecord
  2
Standard
 70
     0
  4
mm
 41
0.1875
 44
0.125
140
0.09
170
     1
171
     1
271
     2
272
     2
274
     1
340
11
  0
ENDTAB
  0
TABLE
  2
BLOCK_RECORD
  5
1
330
0
100
AcDbSymbolTable
 70
     4
  0
BLOCK_RECORD
  5
1F
102
{ACAD_XDICTIONARY
360
6ED
102
}
330
1
100
AcDbSymbolTableRecord
100
AcDbBlockTableRecord
  2
*Model_Space
340
22
  0
BLOCK_RECORD
  5
58
330
1
100
AcDbSymbolTableRecord
100
AcDbBlockTableRecord
  2
*Paper_Space
340
59
  0
BLOCK_RECORD
  5
5D
330
1
100
AcDbSymbolTableRecord
100
AcDbBlockTableRecord
  2
*Paper_Space0
340
5E
  0
BLOCK_RECORD
  5
636
330
1
100
AcDbSymbolTableRecord
100
AcDbBlockTableRecord
  2
*D1
340
0
  0
BLOCK_RECORD
  5
657
330
1
100
AcDbSymbolTableRecord
100
AcDbBlockTableRecord
  2
*D2
340
0
  0
BLOCK_RECORD
  5
68B
330
1
100
AcDbSymbolTableRecord
100
AcDbBlockTableRecord
  2
*D3
340
0
  0
ENDTAB
  0
ENDSEC
  0
SECTION
  2
BLOCKS
  0
BLOCK
  5
20
330
1F
100
AcDbEntity
  8
0
100
AcDbBlockBegin
  2
*Model_Space
 70
     0
 10
0.0
 20
0.0
 30
0.0
  3
*Model_Space
  1

  0
ENDBLK
  5
21
330
1F
100
AcDbEntity
  8
0
100
AcDbBlockEnd
  0
BLOCK
  5
5A
330
58
100
AcDbEntity
 67
     1
  8
0
100
AcDbBlockBegin
  2
*Paper_Space
 70
     0
 10
0.0
 20
0.0
 30
0.0
  3
*Paper_Space
  1

  0
ENDBLK
  5
5B
330
58
100
AcDbEntity
 67
     1
  8
0
100
AcDbBlockEnd
  0
BLOCK
  5
5F
330
5D
100
AcDbEntity
  8
0
100
AcDbBlockBegin
  2
*Paper_Space0
 70
     0
 10
0.0
 20
0.0
 30
0.0
  3
*Paper_Space0
  1

  0
ENDBLK
  5
60
330
5D
100
AcDbEntity
  8
0
100
AcDbBlockEnd
  0
BLOCK
  5
642
330
636
100
AcDbEntity
  8
0
100
AcDbBlockBegin
  2
*D1
 70
     1
 10
0.0
 20
0.0
 30
0.0
  3
*D1
  1

  0
LINE
  5
747
330
636
100
AcDbEntity
  8
Dimension
 62
     0
370
    -2
100
AcDbLine
 10
9.154883200294884
 20
9.421508527323613
 30
0.0
 11
10.09361890129647
 21
9.421508527323613
 31
0.0
  0
LINE
  5
748
330
636
100
AcDbEntity
  8
Dimension
 62
     0
370
    -2
100
AcDbLine
 10
9.118883200294883
 20
10.16850852732361
 30
0.0
 11
10.09361890129647
 21
10.16850852732361
 31
0.0
  0
LINE
  5
749
330
636
100
AcDbEntity
  8
Dimension
 62
     0
370
    -2
100
AcDbLine
 10
9.968618901296473
 20
9.609008527323613
 30
0.0
 11
9.968618901296473
 21
9.981008527323613
 31
0.0
  0
LINE
  5
74A
330
636
100
AcDbEntity
  8
Dimension
 62
     0
370
    -2
100
AcDbLine
 10
9.968618901296473
 20
10.16850852732361
 30
0.0
 11
9.968618901296473
 21
10.35600852732361
 31
0.0
  0
LINE
  5
74B
330
636
100
AcDbEntity
  8
Dimension
 62
     0
370
    -2
100
AcDbLine
 10
9.968618901296473
 20
10.35600852732361
 30
0.0
 11
10.15611890129647
 21
10.35600852732361
 31
0.0
  0
SOLID
  5
74C
330
636
100
AcDbEntity
  8
Dimension
 62
     0
100
AcDbTrace
 10
9.937368901296473
 20
9.609008527323613
 30
0.0
 11
9.999868901296473
 21
9.609008527323613
 31
0.0
 12
9.968618901296473
 22
9.421508527323613
 32
0.0
 13
9.968618901296473
 23
9.421508527323613
 33
0.0
  0
SOLID
  5
74D
330
636
100
AcDbEntity
  8
Dimension
 62
     0
100
AcDbTrace
 10
9.937368901296473
 20
9.981008527323613
 30
0.0
 11
9.999868901296473
 21
9.981008527323613
 31
0.0
 12
9.968618901296473
 22
10.16850852732361
 32
0.0
 13
9.968618901296473
 23
10.16850852732361
 33
0.0
  0
MTEXT
  5
74E
330
636
100
AcDbEntity
  8
Dimension
 62
     0
100
AcDbMText
 10
10.63907942761226
 20
10.35600852732361
 30
0.0
 40
0.09
 41
0.0
 71
     5
 72
     1
  1
\A1;0.75 [19.0mm]
 73
     1
 44
1.0
1001
ACAD
1000
MTEXTBEGIN
1070
    73
1070
     1
1070
    44
1040
1.0
1070
    74
1070
     0
1000
MTEXTEND
  0
POINT
  5
74F
330
636
100
AcDbEntity
  8
Defpoints
 62
     0
100
AcDbPoint
 10
9.092383200294884
 20
9.421508527323613
 30
0.0
  0
POINT
  5
750
330
636
100
AcDbEntity
  8
Defpoints
 62
     0
100
AcDbPoint
 10
9.056383200294883
 20
10.16850852732361
 30
0.0
  0
POINT
  5
751
330
636
100
AcDbEntity
  8
Defpoints
 62
     0
100
AcDbPoint
 10
9.968618901296473
 20
10.16850852732361
 30
0.0
  0
ENDBLK
  5
643
330
636
100
AcDbEntity
  8
0
100
AcDbBlockEnd
  0
BLOCK
  5
662
330
657
100
AcDbEntity
  8
0
100
AcDbBlockBegin
  2
*D2
 70
     1
 10
0.0
 20
0.0
 30
0.0
  3
*D2
  1

  0
LINE
  5
710
330
657
100
AcDbEntity
  8
Dimension
 62
     0
370
    -2
100
AcDbLine
 10
2.191383200294882
 20
7.561065233277788
 30
0.0
 11
2.191383200294882
 21
8.795120271788473
 31
0.0
  0
LINE
  5
711
330
657
100
AcDbEntity
  8
Dimension
 62
     0
370
    -2
100
AcDbLine
 10
9.109383200294884
 20
7.596065233277788
 30
0.0
 11
9.109383200294884
 21
8.795120271788473
 31
0.0
  0
LINE
  5
712
330
657
100
AcDbEntity
  8
Dimension
 62
     0
370
    -2
100
AcDbLine
 10
2.378883200294882
 20
8.670120271788473
 30
0.0
 11
5.127751621347514
 21
8.670120271788473
 31
0.0
  0
LINE
  5
713
330
657
100
AcDbEntity
  8
Dimension
 62
     0
370
    -2
100
AcDbLine
 10
8.921883200294884
 20
8.670120271788473
 30
0.0
 11
6.173014779242252
 21
8.670120271788473
 31
0.0
  0
SOLID
  5
714
330
657
100
AcDbEntity
  8
Dimension
 62
     0
100
AcDbTrace
 10
2.378883200294882
 20
8.701370271788473
 30
0.0
 11
2.378883200294882
 21
8.638870271788473
 31
0.0
 12
2.191383200294882
 22
8.670120271788473
 32
0.0
 13
2.191383200294882
 23
8.670120271788473
 33
0.0
  0
SOLID
  5
715
330
657
100
AcDbEntity
  8
Dimension
 62
     0
100
AcDbTrace
 10
8.921883200294884
 20
8.701370271788473
 30
0.0
 11
8.921883200294884
 21
8.638870271788473
 31
0.0
 12
9.109383200294884
 22
8.670120271788473
 32
0.0
 13
9.109383200294884
 23
8.670120271788473
 33
0.0
  0
MTEXT
  5
716
330
657
100
AcDbEntity
  8
Dimension
 62
     0
100
AcDbMText
 10
5.650383200294883
 20
8.670120271788473
 30
0.0
 40
0.09
 41
0.0
 71
     5
 72
     1
  1
\A1;6.92 [175.7mm]
 73
     1
 44
1.0
1001
ACAD
1000
MTEXTBEGIN
1070
    73
1070
     1
1070
    44
1040
1.0
1070
    74
1070
     0
1000
MTEXTEND
  0
POINT
  5
717
330
657
100
AcDbEntity
  8
Defpoints
 62
     0
100
AcDbPoint
 10
2.191383200294882
 20
7.498565233277788
 30
0.0
  0
POINT
  5
718
330
657
100
AcDbEntity
  8
Defpoints
 62
     0
100
AcDbPoint
 10
9.109383200294884
 20
7.533565233277788
 30
0.0
  0
POINT
  5
719
330
657
100
AcDbEntity
  8
Defpoints
 62
     0
100
AcDbPoint
 10
9.109383200294884
 20
8.670120271788473
 30
0.0
  0
ENDBLK
  5
663
330
657
100
AcDbEntity
  8
0
100
AcDbBlockEnd
  0
BLOCK
  5
696
330
68B
100
AcDbEntity
  8
0
100
AcDbBlockBegin
  2
*D3
 70
     1
 10
0.0
 20
0.0
 30
0.0
  3
*D3
  1

  0
LINE
  5
752
330
68B
100
AcDbEntity
  8
Dimension
 62
     0
370
    -2
100
AcDbLine
 10
13.58688320029488
 20
3.405565233277788
 30
0.0
 11
12.26624434226332
 21
3.405565233277788
 31
0.0
  0
LINE
  5
753
330
68B
100
AcDbEntity
  8
Dimension
 62
     0
370
    -2
100
AcDbLine
 10
13.49088320029488
 20
8.031565233277788
 30
0.0
 11
12.26624434226333
 21
8.031565233277788
 31
0.0
  0
LINE
  5
754
330
68B
100
AcDbEntity
  8
Dimension
 62
     0
370
    -2
100
AcDbLine
 10
12.39124434226332
 20
3.593065233277788
 30
0.0
 11
12.39124434226333
 21
5.565538917488315
 31
0.0
  0
LINE
  5
755
330
68B
100
AcDbEntity
  8
Dimension
 62
     0
370
    -2
100
AcDbLine
 10
12.39124434226333
 20
7.844065233277789
 30
0.0
 11
12.39124434226333
 21
5.871591549067262
 31
0.0
  0
SOLID
  5
756
330
68B
100
AcDbEntity
  8
Dimension
 62
     0
100
AcDbTrace
 10
12.35999434226332
 20
3.593065233277788
 30
0.0
 11
12.42249434226332
 21
3.593065233277788
 31
0.0
 12
12.39124434226332
 22
3.405565233277788
 32
0.0
 13
12.39124434226332
 23
3.405565233277788
 33
0.0
  0
SOLID
  5
757
330
68B
100
AcDbEntity
  8
Dimension
 62
     0
100
AcDbTrace
 10
12.35999434226332
 20
7.844065233277789
 30
0.0
 11
12.42249434226333
 21
7.844065233277789
 31
0.0
 12
12.39124434226333
 22
8.031565233277788
 32
0.0
 13
12.39124434226333
 23
8.031565233277788
 33
0.0
  0
MTEXT
  5
758
330
68B
100
AcDbEntity
  8
Dimension
 62
     0
100
AcDbMText
 10
12.39124434226332
 20
5.71856523327779
 30
0.0
 40
0.09
 41
0.0
 71
     5
 72
     1
  1
\A1;4.63 [117.5mm]
 73
     1
 44
1.0
1001
ACAD
1000
MTEXTBEGIN
1070
    73
1070
     1
1070
    44
1040
1.0
1070
    74
1070
     0
1000
MTEXTEND
  0
POINT
  5
759
330
68B
100
AcDbEntity
  8
Defpoints
 62
     0
100
AcDbPoint
 10
13.64938320029488
 20
3.405565233277788
 30
0.0
  0
POINT
  5
75A
330
68B
100
AcDbEntity
  8
Defpoints
 62
     0
100
AcDbPoint
 10
13.55338320029488
 20
8.031565233277788
 30
0.0
  0
POINT
  5
75B
330
68B
100
AcDbEntity
  8
Defpoints
 62
     0
100
AcDbPoint
 10
12.39124434226333
 20
8.031565233277788
 30
0.0
  0
ENDBLK
  5
697
330
68B
100
AcDbEntity
  8
0
100
AcDbBlockEnd
  0
ENDSEC
  0
SECTION
  2
ENTITIES
  0
LINE
  5
1A6
330
1F
100
AcDbEntity
  8
Object
100
AcDbLine
 10
13.55338320029488
 20
3.407565233277788
 30
0.0
 11
13.64938320029488
 21
3.405565233277788
 31
0.0
  0
LINE
  5
1A7
330
1F
100
AcDbEntity
  8
Object
100
AcDbLine
 10
13.64938320029488
 20
7.783565233277788
 30
0.0
 11
13.64938320029488
 21
7.854565233277789
 31
0.0
  0
LINE
  5
1A8
330
1F
100
AcDbEntity
  8
Object
100
AcDbLine
 10
13.64938320029488
 20
7.498565233277788
 30
0.0
 11
13.64938320029488
 21
7.510565233277788
 31
0.0
  0
LINE
  5
1A9
330
1F
100
AcDbEntity
  8
Object
100
AcDbLine
 10
13.64938320029488
 20
7.510565233277788
 30
0.0
 11
13.64938320029488
 21
7.521565233277788
 31
0.0
  0
LINE
  5
1AA
330
1F
100
AcDbEntity
  8
Object
100
AcDbLine
 10
13.64938320029488
 20
7.521565233277788
 30
0.0
 11
13.64938320029488
 21
7.533565233277788
 31
0.0
  0
LINE
  5
1AB
330
1F
100
AcDbEntity
  8
Object
100
AcDbLine
 10
13.64938320029488
 20
7.704565233277788
 30
0.0
 11
13.64938320029488
 21
7.620565233277788
 31
0.0
  0
LINE
  5
1AC
330
1F
100
AcDbEntity
  8
Object
100
AcDbLine
 10
13.64938320029488
 20
7.620565233277788
 30
0.0
 11
13.64938320029488
 21
7.533565233277788
 31
0.0
  0
LINE
  5
1AD
330
1F
100
AcDbEntity
  8
Object
100
AcDbLine
 10
13.64938320029488
 20
7.704565233277788
 30
0.0
 11
13.64938320029488
 21
7.783565233277788
 31
0.0
  0
LINE
  5
1AE
330
1F
100
AcDbEntity
  8
Object
100
AcDbLine
 10
13.64938320029488
 20
7.854565233277789
 30
0.0
 11
13.64938320029488
 21
7.916565233277788
 31
0.0
  0
LINE
  5
1AF
330
1F
100
AcDbEntity
  8
Object
100
AcDbLine
 10
13.64938320029488
 20
7.916565233277788
 30
0.0
 11
13.64938320029488
 21
7.966565233277787
 31
0.0
  0
LINE
  5
1B0
330
1F
100
AcDbEntity
  8
Object
100
AcDbLine
 10
13.64938320029488
 20
7.966565233277787
 30
0.0
 11
13.64938320029488
 21
8.003565233277788
 31
0.0
  0
LINE
  5
1B1
330
1F
100
AcDbEntity
  8
Object
100
AcDbLine
 10
13.64938320029488
 20
8.003565233277788
 30
0.0
 11
13.64938320029488
 21
8.025565233277788
 31
0.0
  0
LINE
  5
1B2
330
1F
100
AcDbEntity
  8
Object
100
AcDbLine
 10
13.64938320029488
 20
8.025565233277788
 30
0.0
 11
13.64938320029488
 21
8.033565233277787
 31
0.0
  0
LINE
  5
1B3
330
1F
100
AcDbEntity
  8
Object
100
AcDbLine
 10
13.64938320029488
 20
7.050565233277787
 30
0.0
 11
13.64938320029488
 21
7.498565233277788
 31
0.0
  0
LINE
  5
1B4
330
1F
100
AcDbEntity
  8
Object
100
AcDbLine
 10
13.64938320029488
 20
3.864565233277788
 30
0.0
 11
13.64938320029488
 21
3.809565233277788
 31
0.0
  0
LINE
  5
1B5
330
1F
100
AcDbEntity
  8
Object
100
AcDbLine
 10
13.64938320029488
 20
3.809565233277788
 30
0.0
 11
13.64938320029488
 21
3.755565233277788
 31
0.0
  0
LINE
  5
1B6
330
1F
100
AcDbEntity
  8
Object
100
AcDbLine
 10
13.64938320029488
 20
3.755565233277788
 30
0.0
 11
13.64938320029488
 21
3.705565233277788
 31
0.0
  0
LINE
  5
1B7
330
1F
100
AcDbEntity
  8
Object
100
AcDbLine
 10
13.64938320029488
 20
3.705565233277788
 30
0.0
 11
13.64938320029488
 21
3.656565233277788
 31
0.0
  0
LINE
  5
1B8
330
1F
100
AcDbEntity
  8
Object
100
AcDbLine
 10
13.64938320029488
 20
3.612565233277788
 30
0.0
 11
13.64938320029488
 21
3.570565233277788
 31
0.0
  0
LINE
  5
1B9
330
1F
100
AcDbEntity
  8
Object
100
AcDbLine
 10
13.64938320029488
 20
3.570565233277788
 30
0.0
 11
13.64938320029488
 21
3.533565233277788
 31
0.0
  0
LINE
  5
1BA
330
1F
100
AcDbEntity
  8
Object
100
AcDbLine
 10
13.64938320029488
 20
3.500565233277788
 30
0.0
 11
13.64938320029488
 21
3.472565233277788
 31
0.0
  0
LINE
  5
1BB
330
1F
100
AcDbEntity
  8
Object
100
AcDbLine
 10
13.64938320029488
 20
3.472565233277788
 30
0.0
 11
13.64938320029488
 21
3.448565233277788
 31
0.0
  0
LINE
  5
1BC
330
1F
100
AcDbEntity
  8
Object
100
AcDbLine
 10
13.64938320029488
 20
3.500565233277788
 30
0.0
 11
13.64938320029488
 21
3.533565233277788
 31
0.0
  0
LINE
  5
1BD
330
1F
100
AcDbEntity
  8
Object
100
AcDbLine
 10
13.64938320029488
 20
3.612565233277788
 30
0.0
 11
13.64938320029488
 21
3.656565233277788
 31
0.0
  0
LINE
  5
1BE
330
1F
100
AcDbEntity
  8
Object
100
AcDbLine
 10
13.64938320029488
 20
3.864565233277788
 30
0.0
 11
13.64938320029488
 21
3.920565233277788
 31
0.0
  0
LINE
  5
1BF
330
1F
100
AcDbEntity
  8
Object
100
AcDbLine
 10
13.55338320029488
 20
3.976565233277788
 30
0.0
 11
13.64938320029488
 21
3.977565233277788
 31
0.0
  0
LINE
  5
1C0
330
1F
100
AcDbEntity
  8
Object
100
AcDbLine
 10
13.64938320029488
 20
3.977565233277788
 30
0.0
 11
13.64938320029488
 21
3.920565233277788
 31
0.0
  0
LINE
  5
1C1
330
1F
100
AcDbEntity
  8
Object
100
AcDbLine
 10
13.64938320029488
 20
3.448565233277788
 30
0.0
 11
13.64938320029488
 21
3.429565233277788
 31
0.0
  0
LINE
  5
1C2
330
1F
100
AcDbEntity
  8
Object
100
AcDbLine
 10
13.64938320029488
 20
3.429565233277788
 30
0.0
 11
13.64938320029488
 21
3.416565233277788
 31
0.0
  0
LINE
  5
1C3
330
1F
100
AcDbEntity
  8
Object
100
AcDbLine
 10
13.64938320029488
 20
3.408565233277788
 30
0.0
 11
13.64938320029488
 21
3.405565233277788
 31
0.0
  0
LINE
  5
1C4
330
1F
100
AcDbEntity
  8
Object
100
AcDbLine
 10
13.64938320029488
 20
3.405565233277788
 30
0.0
 11
13.55338320029488
 21
3.407565233277788
 31
0.0
  0
LINE
  5
1C5
330
1F
100
AcDbEntity
  8
Object
100
AcDbLine
 10
13.64938320029488
 20
3.408565233277788
 30
0.0
 11
13.64938320029488
 21
3.416565233277788
 31
0.0
  0
LINE
  5
1C6
330
1F
100
AcDbEntity
  8
Object
100
AcDbLine
 10
13.64938320029488
 20
3.405565233277788
 30
0.0
 11
14.27438320029488
 21
3.416565233277788
 31
0.0
  0
LINE
  5
1C7
330
1F
100
AcDbEntity
  8
Object
100
AcDbLine
 10
13.55338320029488
 20
3.407565233277788
 30
0.0
 11
13.53838320029488
 21
3.411565233277788
 31
0.0
  0
LINE
  5
1C8
330
1F
100
AcDbEntity
  8
Object
100
AcDbLine
 10
13.53838320029488
 20
3.411565233277788
 30
0.0
 11
13.52838320029488
 21
3.422565233277788
 31
0.0
  0
LINE
  5
1C9
330
1F
100
AcDbEntity
  8
Object
100
AcDbLine
 10
13.52838320029488
 20
3.422565233277788
 30
0.0
 11
13.52438320029488
 21
3.437565233277788
 31
0.0
  0
LINE
  5
1CA
330
1F
100
AcDbEntity
  8
Object
100
AcDbLine
 10
14.27438320029488
 20
3.802565233277788
 30
0.0
 11
14.27438320029488
 21
3.888565233277788
 31
0.0
  0
LINE
  5
1CB
330
1F
100
AcDbEntity
  8
Object
100
AcDbLine
 10
14.27438320029488
 20
3.645565233277788
 30
0.0
 11
14.27438320029488
 21
3.720565233277788
 31
0.0
  0
LINE
  5
1CC
330
1F
100
AcDbEntity
  8
Object
100
AcDbLine
 10
14.27438320029488
 20
3.522565233277788
 30
0.0
 11
14.27438320029488
 21
3.578565233277788
 31
0.0
  0
LINE
  5
1CD
330
1F
100
AcDbEntity
  8
Object
100
AcDbLine
 10
14.27438320029488
 20
3.443565233277788
 30
0.0
 11
14.27438320029488
 21
3.476565233277788
 31
0.0
  0
LINE
  5
1CE
330
1F
100
AcDbEntity
  8
Object
100
AcDbLine
 10
14.27438320029488
 20
3.416565233277788
 30
0.0
 11
14.27438320029488
 21
3.423565233277788
 31
0.0
  0
LINE
  5
1CF
330
1F
100
AcDbEntity
  8
Object
100
AcDbLine
 10
14.27438320029488
 20
3.423565233277788
 30
0.0
 11
14.27438320029488
 21
3.443565233277788
 31
0.0
  0
LINE
  5
1D0
330
1F
100
AcDbEntity
  8
Object
100
AcDbLine
 10
14.27438320029488
 20
3.476565233277788
 30
0.0
 11
14.27438320029488
 21
3.522565233277788
 31
0.0
  0
LINE
  5
1D1
330
1F
100
AcDbEntity
  8
Object
100
AcDbLine
 10
14.27438320029488
 20
3.578565233277788
 30
0.0
 11
14.27438320029488
 21
3.645565233277788
 31
0.0
  0
LINE
  5
1D2
330
1F
100
AcDbEntity
  8
Object
100
AcDbLine
 10
14.27438320029488
 20
3.720565233277788
 30
0.0
 11
14.27438320029488
 21
3.802565233277788
 31
0.0
  0
LINE
  5
1D3
330
1F
100
AcDbEntity
  8
Object
100
AcDbLine
 10
14.27438320029488
 20
3.888565233277788
 30
0.0
 11
14.27438320029488
 21
3.978565233277787
 31
0.0
  0
LINE
  5
1D4
330
1F
100
AcDbEntity
  8
Object
100
AcDbLine
 10
14.27438320029488
 20
3.978565233277787
 30
0.0
 11
14.27438320029488
 21
6.916565233277788
 31
0.0
  0
LINE
  5
1D5
330
1F
100
AcDbEntity
  8
Object
100
AcDbLine
 10
14.15138320029488
 20
7.041565233277788
 30
0.0
 11
13.64938320029488
 21
7.050565233277787
 31
0.0
  0
LINE
  5
1D6
330
1F
100
AcDbEntity
  8
Object
100
AcDbLine
 10
14.27438320029488
 20
6.916565233277788
 30
0.0
 11
14.27238320029488
 21
6.938565233277788
 31
0.0
  0
LINE
  5
1D7
330
1F
100
AcDbEntity
  8
Object
100
AcDbLine
 10
14.27238320029488
 20
6.938565233277788
 30
0.0
 11
14.26538320029488
 21
6.961565233277788
 31
0.0
  0
LINE
  5
1D8
330
1F
100
AcDbEntity
  8
Object
100
AcDbLine
 10
14.26538320029488
 20
6.961565233277788
 30
0.0
 11
14.25438320029488
 21
6.984565233277788
 31
0.0
  0
LINE
  5
1D9
330
1F
100
AcDbEntity
  8
Object
100
AcDbLine
 10
14.25438320029488
 20
6.984565233277788
 30
0.0
 11
14.23838320029488
 21
7.003565233277788
 31
0.0
  0
LINE
  5
1DA
330
1F
100
AcDbEntity
  8
Object
100
AcDbLine
 10
14.23838320029488
 20
7.003565233277788
 30
0.0
 11
14.21838320029488
 21
7.020565233277788
 31
0.0
  0
LINE
  5
1DB
330
1F
100
AcDbEntity
  8
Object
100
AcDbLine
 10
14.21838320029488
 20
7.020565233277788
 30
0.0
 11
14.19638320029488
 21
7.031565233277788
 31
0.0
  0
LINE
  5
1DC
330
1F
100
AcDbEntity
  8
Object
100
AcDbLine
 10
14.19638320029488
 20
7.031565233277788
 30
0.0
 11
14.17338320029488
 21
7.038565233277788
 31
0.0
  0
LINE
  5
1DD
330
1F
100
AcDbEntity
  8
Object
100
AcDbLine
 10
14.17338320029488
 20
7.038565233277788
 30
0.0
 11
14.15138320029488
 21
7.041565233277788
 31
0.0
  0
LINE
  5
1DE
330
1F
100
AcDbEntity
  8
Object
100
AcDbLine
 10
13.64938320029488
 20
8.025565233277788
 30
0.0
 11
13.64938320029488
 21
8.003565233277788
 31
0.0
  0
LINE
  5
1DF
330
1F
100
AcDbEntity
  8
Object
100
AcDbLine
 10
13.64938320029488
 20
8.003565233277788
 30
0.0
 11
13.64938320029488
 21
7.966565233277787
 31
0.0
  0
LINE
  5
1E0
330
1F
100
AcDbEntity
  8
Object
100
AcDbLine
 10
13.64938320029488
 20
7.854565233277789
 30
0.0
 11
13.64938320029488
 21
7.916565233277788
 31
0.0
  0
LINE
  5
1E1
330
1F
100
AcDbEntity
  8
Object
100
AcDbLine
 10
13.64938320029488
 20
7.916565233277788
 30
0.0
 11
13.64938320029488
 21
7.966565233277787
 31
0.0
  0
LINE
  5
1E2
330
1F
100
AcDbEntity
  8
Object
100
AcDbLine
 10
13.64938320029488
 20
8.025565233277788
 30
0.0
 11
13.64938320029488
 21
8.033565233277787
 31
0.0
  0
LINE
  5
1E3
330
1F
100
AcDbEntity
  8
Object
100
AcDbLine
 10
13.64938320029488
 20
8.033565233277787
 30
0.0
 11
13.55338320029488
 21
8.031565233277788
 31
0.0
  0
LINE
  5
1E4
330
1F
100
AcDbEntity
  8
Object
100
AcDbLine
 10
13.64938320029488
 20
7.783565233277788
 30
0.0
 11
13.64938320029488
 21
7.854565233277789
 31
0.0
  0
LINE
  5
1E5
330
1F
100
AcDbEntity
  8
Object
100
AcDbLine
 10
13.64938320029488
 20
7.704565233277788
 30
0.0
 11
13.64938320029488
 21
7.620565233277788
 31
0.0
  0
LINE
  5
1E6
330
1F
100
AcDbEntity
  8
Object
100
AcDbLine
 10
13.64938320029488
 20
7.620565233277788
 30
0.0
 11
13.64938320029488
 21
7.533565233277788
 31
0.0
  0
LINE
  5
1E7
330
1F
100
AcDbEntity
  8
Object
100
AcDbLine
 10
13.64938320029488
 20
7.533565233277788
 30
0.0
 11
13.55338320029488
 21
7.533565233277788
 31
0.0
  0
LINE
  5
1E8
330
1F
100
AcDbEntity
  8
Object
100
AcDbLine
 10
13.64938320029488
 20
7.704565233277788
 30
0.0
 11
13.64938320029488
 21
7.783565233277788
 31
0.0
  0
LINE
  5
1E9
330
1F
100
AcDbEntity
  8
Object
100
AcDbLine
 10
13.64938320029488
 20
7.498565233277788
 30
0.0
 11
13.64938320029488
 21
7.510565233277788
 31
0.0
  0
LINE
  5
1EA
330
1F
100
AcDbEntity
  8
Object
100
AcDbLine
 10
13.64938320029488
 20
7.510565233277788
 30
0.0
 11
13.64938320029488
 21
7.521565233277788
 31
0.0
  0
LINE
  5
1EB
330
1F
100
AcDbEntity
  8
Object
100
AcDbLine
 10
13.64938320029488
 20
7.521565233277788
 30
0.0
 11
13.64938320029488
 21
7.533565233277788
 31
0.0
  0
LINE
  5
1EC
330
1F
100
AcDbEntity
  8
Object
100
AcDbLine
 10
13.64938320029488
 20
8.033565233277787
 30
0.0
 11
13.55338320029488
 21
8.031565233277788
 31
0.0
  0
LINE
  5
1ED
330
1F
100
AcDbEntity
  8
Object
100
AcDbLine
 10
13.55338320029488
 20
7.498565233277788
 30
0.0
 11
13.64938320029488
 21
7.498565233277788
 31
0.0
  0
LINE
  5
1EE
330
1F
100
AcDbEntity
  8
Object
100
AcDbLine
 10
13.64938320029488
 20
7.498565233277788
 30
0.0
 11
13.64938320029488
 21
7.050565233277787
 31
0.0
  0
LINE
  5
1EF
330
1F
100
AcDbEntity
  8
Object
100
AcDbLine
 10
13.64938320029488
 20
7.050565233277787
 30
0.0
 11
13.64938320029488
 21
3.977565233277788
 31
0.0
  0
LINE
  5
1F0
330
1F
100
AcDbEntity
  8
Object
100
AcDbLine
 10
13.55338320029488
 20
3.715565233277787
 30
0.0
 11
13.55338320029488
 21
3.798565233277788
 31
0.0
  0
LINE
  5
1F1
330
1F
100
AcDbEntity
  8
Object
100
AcDbLine
 10
13.55338320029488
 20
3.572565233277788
 30
0.0
 11
13.55338320029488
 21
3.639565233277788
 31
0.0
  0
LINE
  5
1F2
330
1F
100
AcDbEntity
  8
Object
100
AcDbLine
 10
13.55338320029488
 20
3.468565233277788
 30
0.0
 11
13.55338320029488
 21
3.514565233277788
 31
0.0
  0
LINE
  5
1F3
330
1F
100
AcDbEntity
  8
Object
100
AcDbLine
 10
13.55338320029488
 20
3.976565233277788
 30
0.0
 11
13.55338320029488
 21
3.886565233277788
 31
0.0
  0
LINE
  5
1F4
330
1F
100
AcDbEntity
  8
Object
100
AcDbLine
 10
13.55338320029488
 20
3.886565233277788
 30
0.0
 11
13.55338320029488
 21
3.798565233277788
 31
0.0
  0
LINE
  5
1F5
330
1F
100
AcDbEntity
  8
Object
100
AcDbLine
 10
13.55338320029488
 20
3.639565233277788
 30
0.0
 11
13.55338320029488
 21
3.715565233277787
 31
0.0
  0
LINE
  5
1F6
330
1F
100
AcDbEntity
  8
Object
100
AcDbLine
 10
13.55338320029488
 20
3.514565233277788
 30
0.0
 11
13.55338320029488
 21
3.572565233277788
 31
0.0
  0
LINE
  5
1F7
330
1F
100
AcDbEntity
  8
Object
100
AcDbLine
 10
13.55338320029488
 20
3.414565233277788
 30
0.0
 11
13.55338320029488
 21
3.434565233277788
 31
0.0
  0
LINE
  5
1F8
330
1F
100
AcDbEntity
  8
Object
100
AcDbLine
 10
13.55338320029488
 20
3.434565233277788
 30
0.0
 11
13.55338320029488
 21
3.468565233277788
 31
0.0
  0
LINE
  5
1F9
330
1F
100
AcDbEntity
  8
Object
100
AcDbLine
 10
13.55338320029488
 20
3.407565233277788
 30
0.0
 11
13.55338320029488
 21
3.414565233277788
 31
0.0
  0
LINE
  5
1FA
330
1F
100
AcDbEntity
  8
Object
100
AcDbLine
 10
13.55338320029488
 20
3.976565233277788
 30
0.0
 11
13.53838320029488
 21
3.977565233277788
 31
0.0
  0
LINE
  5
1FB
330
1F
100
AcDbEntity
  8
Object
100
AcDbLine
 10
13.53838320029488
 20
3.411565233277788
 30
0.0
 11
13.55338320029488
 21
3.407565233277788
 31
0.0
  0
LINE
  5
1FC
330
1F
100
AcDbEntity
  8
Object
100
AcDbLine
 10
13.53838320029488
 20
3.977565233277788
 30
0.0
 11
13.52838320029488
 21
3.978565233277787
 31
0.0
  0
LINE
  5
1FD
330
1F
100
AcDbEntity
  8
Object
100
AcDbLine
 10
13.52838320029488
 20
3.422565233277788
 30
0.0
 11
13.53838320029488
 21
3.411565233277788
 31
0.0
  0
LINE
  5
1FE
330
1F
100
AcDbEntity
  8
Object
100
AcDbLine
 10
13.52438320029488
 20
3.892565233277788
 30
0.0
 11
13.52438320029488
 21
3.809565233277788
 31
0.0
  0
LINE
  5
1FF
330
1F
100
AcDbEntity
  8
Object
100
AcDbLine
 10
13.52438320029488
 20
3.730565233277788
 30
0.0
 11
13.52438320029488
 21
3.658565233277788
 31
0.0
  0
LINE
  5
200
330
1F
100
AcDbEntity
  8
Object
100
AcDbLine
 10
13.52438320029488
 20
3.593565233277788
 30
0.0
 11
13.52438320029488
 21
3.539565233277788
 31
0.0
  0
LINE
  5
201
330
1F
100
AcDbEntity
  8
Object
100
AcDbLine
 10
13.52438320029488
 20
3.463565233277788
 30
0.0
 11
13.52438320029488
 21
3.495565233277788
 31
0.0
  0
LINE
  5
202
330
1F
100
AcDbEntity
  8
Object
100
AcDbLine
 10
13.52438320029488
 20
3.495565233277788
 30
0.0
 11
13.52438320029488
 21
3.539565233277788
 31
0.0
  0
LINE
  5
203
330
1F
100
AcDbEntity
  8
Object
100
AcDbLine
 10
13.52438320029488
 20
3.658565233277788
 30
0.0
 11
13.52438320029488
 21
3.593565233277788
 31
0.0
  0
LINE
  5
204
330
1F
100
AcDbEntity
  8
Object
100
AcDbLine
 10
13.52438320029488
 20
3.809565233277788
 30
0.0
 11
13.52438320029488
 21
3.730565233277788
 31
0.0
  0
LINE
  5
205
330
1F
100
AcDbEntity
  8
Object
100
AcDbLine
 10
13.52438320029488
 20
3.892565233277788
 30
0.0
 11
13.52438320029488
 21
3.979565233277788
 31
0.0
  0
LINE
  5
206
330
1F
100
AcDbEntity
  8
Object
100
AcDbLine
 10
13.52438320029488
 20
3.979565233277788
 30
0.0
 11
13.52838320029488
 21
3.978565233277787
 31
0.0
  0
LINE
  5
207
330
1F
100
AcDbEntity
  8
Object
100
AcDbLine
 10
13.52438320029488
 20
3.437565233277788
 30
0.0
 11
13.52838320029488
 21
3.422565233277788
 31
0.0
  0
LINE
  5
208
330
1F
100
AcDbEntity
  8
Object
100
AcDbLine
 10
13.52438320029488
 20
3.463565233277788
 30
0.0
 11
13.52438320029488
 21
3.443565233277788
 31
0.0
  0
LINE
  5
209
330
1F
100
AcDbEntity
  8
Object
100
AcDbLine
 10
13.52438320029488
 20
3.443565233277788
 30
0.0
 11
13.52438320029488
 21
3.437565233277788
 31
0.0
  0
LINE
  5
20A
330
1F
100
AcDbEntity
  8
Object
100
AcDbLine
 10
14.27438320029488
 20
3.802565233277788
 30
0.0
 11
14.27438320029488
 21
3.888565233277788
 31
0.0
  0
LINE
  5
20B
330
1F
100
AcDbEntity
  8
Object
100
AcDbLine
 10
14.27438320029488
 20
3.645565233277788
 30
0.0
 11
14.27438320029488
 21
3.720565233277788
 31
0.0
  0
LINE
  5
20C
330
1F
100
AcDbEntity
  8
Object
100
AcDbLine
 10
14.27438320029488
 20
3.522565233277788
 30
0.0
 11
14.27438320029488
 21
3.578565233277788
 31
0.0
  0
LINE
  5
20D
330
1F
100
AcDbEntity
  8
Object
100
AcDbLine
 10
14.27438320029488
 20
3.443565233277788
 30
0.0
 11
14.27438320029488
 21
3.476565233277788
 31
0.0
  0
LINE
  5
20E
330
1F
100
AcDbEntity
  8
Object
100
AcDbLine
 10
14.27438320029488
 20
3.476565233277788
 30
0.0
 11
14.27438320029488
 21
3.522565233277788
 31
0.0
  0
LINE
  5
20F
330
1F
100
AcDbEntity
  8
Object
100
AcDbLine
 10
14.27438320029488
 20
3.578565233277788
 30
0.0
 11
14.27438320029488
 21
3.645565233277788
 31
0.0
  0
LINE
  5
210
330
1F
100
AcDbEntity
  8
Object
100
AcDbLine
 10
14.27438320029488
 20
3.720565233277788
 30
0.0
 11
14.27438320029488
 21
3.802565233277788
 31
0.0
  0
LINE
  5
211
330
1F
100
AcDbEntity
  8
Object
100
AcDbLine
 10
14.27438320029488
 20
3.888565233277788
 30
0.0
 11
14.27438320029488
 21
3.978565233277787
 31
0.0
  0
LINE
  5
212
330
1F
100
AcDbEntity
  8
Object
100
AcDbLine
 10
14.27438320029488
 20
3.978565233277787
 30
0.0
 11
13.64938320029488
 21
3.977565233277788
 31
0.0
  0
LINE
  5
213
330
1F
100
AcDbEntity
  8
Object
100
AcDbLine
 10
14.27438320029488
 20
3.423565233277788
 30
0.0
 11
14.27438320029488
 21
3.416565233277788
 31
0.0
  0
LINE
  5
214
102
{ACAD_REACTORS
330
6A3
102
}
330
1F
100
AcDbEntity
  8
Object
100
AcDbLine
 10
14.27438320029488
 20
3.416565233277788
 30
0.0
 11
13.64938320029488
 21
3.405565233277788
 31
0.0
  0
LINE
  5
215
330
1F
100
AcDbEntity
  8
Object
100
AcDbLine
 10
14.27438320029488
 20
3.423565233277788
 30
0.0
 11
14.27438320029488
 21
3.443565233277788
 31
0.0
  0
LINE
  5
216
330
1F
100
AcDbEntity
  8
Object
100
AcDbLine
 10
13.52438320029488
 20
3.979565233277788
 30
0.0
 11
13.52438320029488
 21
3.892565233277788
 31
0.0
  0
LINE
  5
217
330
1F
100
AcDbEntity
  8
Object
100
AcDbLine
 10
13.52438320029488
 20
3.593565233277788
 30
0.0
 11
13.52438320029488
 21
3.539565233277788
 31
0.0
  0
LINE
  5
218
330
1F
100
AcDbEntity
  8
Object
100
AcDbLine
 10
13.52438320029488
 20
7.973565233277788
 30
0.0
 11
13.52438320029488
 21
7.994565233277789
 31
0.0
  0
LINE
  5
219
330
1F
100
AcDbEntity
  8
Object
100
AcDbLine
 10
13.52438320029488
 20
7.994565233277789
 30
0.0
 11
13.52438320029488
 21
8.001565233277787
 31
0.0
  0
LINE
  5
21A
330
1F
100
AcDbEntity
  8
Object
100
AcDbLine
 10
13.52438320029488
 20
7.973565233277788
 30
0.0
 11
13.52438320029488
 21
7.939565233277788
 31
0.0
  0
LINE
  5
21B
330
1F
100
AcDbEntity
  8
Object
100
AcDbLine
 10
13.52438320029488
 20
7.939565233277788
 30
0.0
 11
13.52438320029488
 21
7.892565233277789
 31
0.0
  0
LINE
  5
21C
330
1F
100
AcDbEntity
  8
Object
100
AcDbLine
 10
13.52438320029488
 20
7.892565233277789
 30
0.0
 11
13.52438320029488
 21
7.834565233277788
 31
0.0
  0
LINE
  5
21D
330
1F
100
AcDbEntity
  8
Object
100
AcDbLine
 10
13.52438320029488
 20
7.834565233277788
 30
0.0
 11
13.52438320029488
 21
7.767565233277788
 31
0.0
  0
LINE
  5
21E
330
1F
100
AcDbEntity
  8
Object
100
AcDbLine
 10
13.52438320029488
 20
7.767565233277788
 30
0.0
 11
13.52438320029488
 21
7.693565233277788
 31
0.0
  0
LINE
  5
21F
330
1F
100
AcDbEntity
  8
Object
100
AcDbLine
 10
13.52438320029488
 20
7.693565233277788
 30
0.0
 11
13.52438320029488
 21
7.614565233277788
 31
0.0
  0
LINE
  5
220
330
1F
100
AcDbEntity
  8
Object
100
AcDbLine
 10
13.52438320029488
 20
7.614565233277788
 30
0.0
 11
13.52438320029488
 21
7.533565233277788
 31
0.0
  0
LINE
  5
221
330
1F
100
AcDbEntity
  8
Object
100
AcDbLine
 10
13.52438320029488
 20
7.533565233277788
 30
0.0
 11
13.52438320029488
 21
7.522565233277788
 31
0.0
  0
LINE
  5
222
330
1F
100
AcDbEntity
  8
Object
100
AcDbLine
 10
13.52438320029488
 20
7.522565233277788
 30
0.0
 11
13.52438320029488
 21
7.511565233277788
 31
0.0
  0
LINE
  5
223
330
1F
100
AcDbEntity
  8
Object
100
AcDbLine
 10
13.52438320029488
 20
7.511565233277788
 30
0.0
 11
13.52438320029488
 21
7.500565233277788
 31
0.0
  0
LINE
  5
224
330
1F
100
AcDbEntity
  8
Object
100
AcDbLine
 10
13.52438320029488
 20
7.500565233277788
 30
0.0
 11
13.52438320029488
 21
3.979565233277788
 31
0.0
  0
LINE
  5
225
330
1F
100
AcDbEntity
  8
Object
100
AcDbLine
 10
13.52438320029488
 20
3.892565233277788
 30
0.0
 11
13.52438320029488
 21
3.809565233277788
 31
0.0
  0
LINE
  5
226
330
1F
100
AcDbEntity
  8
Object
100
AcDbLine
 10
13.52438320029488
 20
3.809565233277788
 30
0.0
 11
13.52438320029488
 21
3.730565233277788
 31
0.0
  0
LINE
  5
227
330
1F
100
AcDbEntity
  8
Object
100
AcDbLine
 10
13.52438320029488
 20
3.730565233277788
 30
0.0
 11
13.52438320029488
 21
3.658565233277788
 31
0.0
  0
LINE
  5
228
330
1F
100
AcDbEntity
  8
Object
100
AcDbLine
 10
13.52438320029488
 20
3.658565233277788
 30
0.0
 11
13.52438320029488
 21
3.593565233277788
 31
0.0
  0
LINE
  5
229
330
1F
100
AcDbEntity
  8
Object
100
AcDbLine
 10
13.52438320029488
 20
3.539565233277788
 30
0.0
 11
13.52438320029488
 21
3.495565233277788
 31
0.0
  0
LINE
  5
22A
330
1F
100
AcDbEntity
  8
Object
100
AcDbLine
 10
13.52438320029488
 20
3.495565233277788
 30
0.0
 11
13.52438320029488
 21
3.463565233277788
 31
0.0
  0
LINE
  5
22B
330
1F
100
AcDbEntity
  8
Object
100
AcDbLine
 10
13.52438320029488
 20
3.463565233277788
 30
0.0
 11
13.52438320029488
 21
3.443565233277788
 31
0.0
  0
LINE
  5
22C
330
1F
100
AcDbEntity
  8
Object
100
AcDbLine
 10
13.52438320029488
 20
3.443565233277788
 30
0.0
 11
13.52438320029488
 21
3.437565233277788
 31
0.0
  0
LINE
  5
22D
330
1F
100
AcDbEntity
  8
Object
100
AcDbLine
 10
14.21838320029488
 20
7.020565233277788
 30
0.0
 11
14.23838320029488
 21
7.003565233277788
 31
0.0
  0
LINE
  5
22E
330
1F
100
AcDbEntity
  8
Object
100
AcDbLine
 10
14.23838320029488
 20
7.003565233277788
 30
0.0
 11
14.25438320029488
 21
6.984565233277788
 31
0.0
  0
LINE
  5
22F
330
1F
100
AcDbEntity
  8
Object
100
AcDbLine
 10
14.25438320029488
 20
6.984565233277788
 30
0.0
 11
14.26538320029488
 21
6.961565233277788
 31
0.0
  0
LINE
  5
230
330
1F
100
AcDbEntity
  8
Object
100
AcDbLine
 10
14.26538320029488
 20
6.961565233277788
 30
0.0
 11
14.27238320029488
 21
6.938565233277788
 31
0.0
  0
LINE
  5
231
330
1F
100
AcDbEntity
  8
Object
100
AcDbLine
 10
14.21838320029488
 20
7.020565233277788
 30
0.0
 11
14.19638320029488
 21
7.031565233277788
 31
0.0
  0
LINE
  5
232
330
1F
100
AcDbEntity
  8
Object
100
AcDbLine
 10
14.19638320029488
 20
7.031565233277788
 30
0.0
 11
14.17338320029488
 21
7.038565233277788
 31
0.0
  0
LINE
  5
233
330
1F
100
AcDbEntity
  8
Object
100
AcDbLine
 10
14.27438320029488
 20
6.916565233277788
 30
0.0
 11
14.27238320029488
 21
6.938565233277788
 31
0.0
  0
LINE
  5
234
330
1F
100
AcDbEntity
  8
Object
100
AcDbLine
 10
14.17338320029488
 20
7.038565233277788
 30
0.0
 11
14.15138320029488
 21
7.041565233277788
 31
0.0
  0
LINE
  5
235
330
1F
100
AcDbEntity
  8
Object
100
AcDbLine
 10
14.15138320029488
 20
7.041565233277788
 30
0.0
 11
13.64938320029488
 21
7.050565233277787
 31
0.0
  0
LINE
  5
236
330
1F
100
AcDbEntity
  8
Object
100
AcDbLine
 10
14.27438320029488
 20
3.978565233277787
 30
0.0
 11
14.27438320029488
 21
6.916565233277788
 31
0.0
  0
LINE
  5
237
330
1F
100
AcDbEntity
  8
Object
100
AcDbLine
 10
13.55338320029488
 20
8.001565233277787
 30
0.0
 11
13.55338320029488
 21
8.024565233277787
 31
0.0
  0
LINE
  5
238
330
1F
100
AcDbEntity
  8
Object
100
AcDbLine
 10
13.55338320029488
 20
7.915565233277789
 30
0.0
 11
13.55338320029488
 21
7.965565233277787
 31
0.0
  0
LINE
  5
239
330
1F
100
AcDbEntity
  8
Object
100
AcDbLine
 10
13.55338320029488
 20
8.024565233277787
 30
0.0
 11
13.55338320029488
 21
8.031565233277788
 31
0.0
  0
LINE
  5
23A
330
1F
100
AcDbEntity
  8
Object
100
AcDbLine
 10
13.55338320029488
 20
7.965565233277787
 30
0.0
 11
13.55338320029488
 21
8.001565233277787
 31
0.0
  0
LINE
  5
23B
330
1F
100
AcDbEntity
  8
Object
100
AcDbLine
 10
13.55338320029488
 20
7.915565233277789
 30
0.0
 11
13.55338320029488
 21
7.853565233277787
 31
0.0
  0
LINE
  5
23C
330
1F
100
AcDbEntity
  8
Object
100
AcDbLine
 10
13.55338320029488
 20
7.853565233277787
 30
0.0
 11
13.55338320029488
 21
7.782565233277788
 31
0.0
  0
LINE
  5
23D
330
1F
100
AcDbEntity
  8
Object
100
AcDbLine
 10
13.55338320029488
 20
7.620565233277788
 30
0.0
 11
13.55338320029488
 21
7.704565233277788
 31
0.0
  0
LINE
  5
23E
330
1F
100
AcDbEntity
  8
Object
100
AcDbLine
 10
13.55338320029488
 20
7.704565233277788
 30
0.0
 11
13.55338320029488
 21
7.782565233277788
 31
0.0
  0
LINE
  5
23F
330
1F
100
AcDbEntity
  8
Object
100
AcDbLine
 10
13.55338320029488
 20
7.533565233277788
 30
0.0
 11
13.55338320029488
 21
7.620565233277788
 31
0.0
  0
LINE
  5
240
330
1F
100
AcDbEntity
  8
Object
100
AcDbLine
 10
13.55338320029488
 20
8.031565233277788
 30
0.0
 11
13.53838320029488
 21
8.027565233277787
 31
0.0
  0
LINE
  5
241
330
1F
100
AcDbEntity
  8
Object
100
AcDbLine
 10
13.53838320029488
 20
7.533565233277788
 30
0.0
 11
13.55338320029488
 21
7.533565233277788
 31
0.0
  0
LINE
  5
242
330
1F
100
AcDbEntity
  8
Object
100
AcDbLine
 10
13.53838320029488
 20
8.027565233277787
 30
0.0
 11
13.52838320029488
 21
8.016565233277788
 31
0.0
  0
LINE
  5
243
330
1F
100
AcDbEntity
  8
Object
100
AcDbLine
 10
13.52838320029488
 20
7.533565233277788
 30
0.0
 11
13.53838320029488
 21
7.533565233277788
 31
0.0
  0
LINE
  5
244
330
1F
100
AcDbEntity
  8
Object
100
AcDbLine
 10
13.52438320029488
 20
7.973565233277788
 30
0.0
 11
13.52438320029488
 21
7.939565233277788
 31
0.0
  0
LINE
  5
245
330
1F
100
AcDbEntity
  8
Object
100
AcDbLine
 10
13.52438320029488
 20
7.892565233277789
 30
0.0
 11
13.52438320029488
 21
7.834565233277788
 31
0.0
  0
LINE
  5
246
330
1F
100
AcDbEntity
  8
Object
100
AcDbLine
 10
13.52438320029488
 20
8.001565233277787
 30
0.0
 11
13.52438320029488
 21
7.994565233277789
 31
0.0
  0
LINE
  5
247
330
1F
100
AcDbEntity
  8
Object
100
AcDbLine
 10
13.52438320029488
 20
7.939565233277788
 30
0.0
 11
13.52438320029488
 21
7.892565233277789
 31
0.0
  0
LINE
  5
248
330
1F
100
AcDbEntity
  8
Object
100
AcDbLine
 10
13.52438320029488
 20
7.994565233277789
 30
0.0
 11
13.52438320029488
 21
7.973565233277788
 31
0.0
  0
LINE
  5
249
330
1F
100
AcDbEntity
  8
Object
100
AcDbLine
 10
13.52838320029488
 20
8.016565233277788
 30
0.0
 11
13.52438320029488
 21
8.001565233277787
 31
0.0
  0
LINE
  5
24A
330
1F
100
AcDbEntity
  8
Object
100
AcDbLine
 10
13.52438320029488
 20
7.693565233277788
 30
0.0
 11
13.52438320029488
 21
7.767565233277788
 31
0.0
  0
LINE
  5
24B
330
1F
100
AcDbEntity
  8
Object
100
AcDbLine
 10
13.52438320029488
 20
7.767565233277788
 30
0.0
 11
13.52438320029488
 21
7.834565233277788
 31
0.0
  0
LINE
  5
24C
330
1F
100
AcDbEntity
  8
Object
100
AcDbLine
 10
13.52438320029488
 20
7.533565233277788
 30
0.0
 11
13.52838320029488
 21
7.533565233277788
 31
0.0
  0
LINE
  5
24D
330
1F
100
AcDbEntity
  8
Object
100
AcDbLine
 10
13.52438320029488
 20
7.693565233277788
 30
0.0
 11
13.52438320029488
 21
7.614565233277788
 31
0.0
  0
LINE
  5
24E
330
1F
100
AcDbEntity
  8
Object
100
AcDbLine
 10
13.52438320029488
 20
7.614565233277788
 30
0.0
 11
13.52438320029488
 21
7.533565233277788
 31
0.0
  0
LINE
  5
24F
330
1F
100
AcDbEntity
  8
Object
100
AcDbLine
 10
13.55338320029488
 20
7.510565233277788
 30
0.0
 11
13.55338320029488
 21
7.521565233277788
 31
0.0
  0
LINE
  5
250
330
1F
100
AcDbEntity
  8
Object
100
AcDbLine
 10
13.55338320029488
 20
7.521565233277788
 30
0.0
 11
13.55338320029488
 21
7.533565233277788
 31
0.0
  0
LINE
  5
251
330
1F
100
AcDbEntity
  8
Object
100
AcDbLine
 10
13.55338320029488
 20
7.498565233277788
 30
0.0
 11
13.55338320029488
 21
7.510565233277788
 31
0.0
  0
LINE
  5
252
330
1F
100
AcDbEntity
  8
Object
100
AcDbLine
 10
13.52438320029488
 20
7.500565233277788
 30
0.0
 11
13.52438320029488
 21
7.511565233277788
 31
0.0
  0
LINE
  5
253
330
1F
100
AcDbEntity
  8
Object
100
AcDbLine
 10
13.52438320029488
 20
7.511565233277788
 30
0.0
 11
13.52438320029488
 21
7.522565233277788
 31
0.0
  0
LINE
  5
254
330
1F
100
AcDbEntity
  8
Object
100
AcDbLine
 10
13.52438320029488
 20
7.522565233277788
 30
0.0
 11
13.52438320029488
 21
7.533565233277788
 31
0.0
  0
LINE
  5
255
330
1F
100
AcDbEntity
  8
Object
100
AcDbLine
 10
13.55338320029488
 20
8.031565233277788
 30
0.0
 11
13.53838320029488
 21
8.027565233277787
 31
0.0
  0
LINE
  5
256
330
1F
100
AcDbEntity
  8
Object
100
AcDbLine
 10
13.53838320029488
 20
8.027565233277787
 30
0.0
 11
13.52838320029488
 21
8.016565233277788
 31
0.0
  0
LINE
  5
257
330
1F
100
AcDbEntity
  8
Object
100
AcDbLine
 10
13.52838320029488
 20
8.016565233277788
 30
0.0
 11
13.52438320029488
 21
8.001565233277787
 31
0.0
  0
LINE
  5
258
330
1F
100
AcDbEntity
  8
Object
100
AcDbLine
 10
13.53838320029488
 20
7.499565233277788
 30
0.0
 11
13.55338320029488
 21
7.498565233277788
 31
0.0
  0
LINE
  5
259
330
1F
100
AcDbEntity
  8
Object
100
AcDbLine
 10
13.55338320029488
 20
7.498565233277788
 30
0.0
 11
13.55338320029488
 21
3.976565233277788
 31
0.0
  0
LINE
  5
25A
330
1F
100
AcDbEntity
  8
Object
100
AcDbLine
 10
13.53838320029488
 20
7.499565233277788
 30
0.0
 11
13.52838320029488
 21
7.499565233277788
 31
0.0
  0
LINE
  5
25B
330
1F
100
AcDbEntity
  8
Object
100
AcDbLine
 10
13.52438320029488
 20
3.979565233277788
 30
0.0
 11
13.52438320029488
 21
7.500565233277788
 31
0.0
  0
LINE
  5
25C
330
1F
100
AcDbEntity
  8
Object
100
AcDbLine
 10
13.52438320029488
 20
7.500565233277788
 30
0.0
 11
13.52838320029488
 21
7.499565233277788
 31
0.0
  0
LINE
  5
25D
330
1F
100
AcDbEntity
  8
Object
100
AcDbLine
 10
6.649383200294884
 20
3.405565233277788
 30
0.0
 11
8.082383200294884
 21
3.405565233277788
 31
0.0
  0
LINE
  5
25E
330
1F
100
AcDbEntity
  8
Object
100
AcDbLine
 10
8.248383200294883
 20
3.407565233277788
 30
0.0
 11
8.248383200294883
 21
3.405565233277788
 31
0.0
  0
LINE
  5
25F
330
1F
100
AcDbEntity
  8
Object
100
AcDbLine
 10
8.248383200294883
 20
3.405565233277788
 30
0.0
 11
8.082383200294884
 21
3.405565233277788
 31
0.0
  0
LINE
  5
260
330
1F
100
AcDbEntity
  8
Object
100
AcDbLine
 10
8.248383200294883
 20
3.407565233277788
 30
0.0
 11
3.050383200294884
 21
3.407565233277788
 31
0.0
  0
LINE
  5
261
330
1F
100
AcDbEntity
  8
Object
100
AcDbLine
 10
6.649383200294884
 20
3.405565233277788
 30
0.0
 11
4.649383200294884
 21
3.405565233277788
 31
0.0
  0
LINE
  5
262
330
1F
100
AcDbEntity
  8
Object
100
AcDbLine
 10
4.649383200294884
 20
3.405565233277788
 30
0.0
 11
3.207383200294884
 21
3.405565233277788
 31
0.0
  0
LINE
  5
263
330
1F
100
AcDbEntity
  8
Object
100
AcDbLine
 10
3.207383200294884
 20
3.405565233277788
 30
0.0
 11
3.051383200294884
 21
3.405565233277788
 31
0.0
  0
LINE
  5
264
330
1F
100
AcDbEntity
  8
Object
100
AcDbLine
 10
9.078383200294883
 20
7.704565233277788
 30
0.0
 11
9.101383200294884
 21
7.620565233277788
 31
0.0
  0
LINE
  5
265
330
1F
100
AcDbEntity
  8
Object
100
AcDbLine
 10
9.101383200294884
 20
7.620565233277788
 30
0.0
 11
9.109383200294884
 21
7.533565233277788
 31
0.0
  0
LINE
  5
266
330
1F
100
AcDbEntity
  8
Object
100
AcDbLine
 10
9.107383200294883
 20
7.498565233277788
 30
0.0
 11
9.108383200294884
 21
7.510565233277788
 31
0.0
  0
LINE
  5
267
330
1F
100
AcDbEntity
  8
Object
100
AcDbLine
 10
9.108383200294884
 20
7.510565233277788
 30
0.0
 11
9.108383200294884
 21
7.521565233277788
 31
0.0
  0
LINE
  5
268
330
1F
100
AcDbEntity
  8
Object
100
AcDbLine
 10
9.108383200294884
 20
7.521565233277788
 30
0.0
 11
9.109383200294884
 21
7.533565233277788
 31
0.0
  0
LINE
  5
269
330
1F
100
AcDbEntity
  8
Object
100
AcDbLine
 10
9.076383200294884
 20
7.050565233277787
 30
0.0
 11
9.107383200294883
 21
7.498565233277788
 31
0.0
  0
LINE
  5
26A
330
1F
100
AcDbEntity
  8
Object
100
AcDbLine
 10
8.992383200294884
 20
7.854565233277789
 30
0.0
 11
8.930383200294883
 21
7.916565233277788
 31
0.0
  0
LINE
  5
26B
330
1F
100
AcDbEntity
  8
Object
100
AcDbLine
 10
8.930383200294883
 20
7.916565233277788
 30
0.0
 11
8.858383200294884
 21
7.966565233277787
 31
0.0
  0
LINE
  5
26C
330
1F
100
AcDbEntity
  8
Object
100
AcDbLine
 10
8.779383200294883
 20
8.003565233277788
 30
0.0
 11
8.695383200294884
 21
8.025565233277788
 31
0.0
  0
LINE
  5
26D
330
1F
100
AcDbEntity
  8
Object
100
AcDbLine
 10
8.695383200294884
 20
8.025565233277788
 30
0.0
 11
8.608383200294884
 21
8.033565233277787
 31
0.0
  0
LINE
  5
26E
330
1F
100
AcDbEntity
  8
Object
100
AcDbLine
 10
8.608383200294884
 20
8.033565233277787
 30
0.0
 11
2.690383200294883
 21
8.033565233277787
 31
0.0
  0
LINE
  5
26F
330
1F
100
AcDbEntity
  8
Object
100
AcDbLine
 10
2.690383200294883
 20
8.033565233277787
 30
0.0
 11
2.608383200294884
 21
8.026565233277789
 31
0.0
  0
LINE
  5
270
330
1F
100
AcDbEntity
  8
Object
100
AcDbLine
 10
2.608383200294884
 20
8.026565233277789
 30
0.0
 11
2.529383200294883
 21
8.006565233277788
 31
0.0
  0
LINE
  5
271
330
1F
100
AcDbEntity
  8
Object
100
AcDbLine
 10
2.529383200294883
 20
8.006565233277788
 30
0.0
 11
2.454383200294884
 21
7.974565233277788
 31
0.0
  0
LINE
  5
272
330
1F
100
AcDbEntity
  8
Object
100
AcDbLine
 10
2.454383200294884
 20
7.974565233277788
 30
0.0
 11
2.385383200294883
 21
7.929565233277788
 31
0.0
  0
LINE
  5
273
330
1F
100
AcDbEntity
  8
Object
100
AcDbLine
 10
2.385383200294883
 20
7.929565233277788
 30
0.0
 11
2.324383200294883
 21
7.874565233277788
 31
0.0
  0
LINE
  5
274
330
1F
100
AcDbEntity
  8
Object
100
AcDbLine
 10
2.324383200294883
 20
7.874565233277788
 30
0.0
 11
2.273383200294883
 21
7.810565233277788
 31
0.0
  0
LINE
  5
275
330
1F
100
AcDbEntity
  8
Object
100
AcDbLine
 10
2.273383200294883
 20
7.810565233277788
 30
0.0
 11
2.234383200294884
 21
7.738565233277788
 31
0.0
  0
LINE
  5
276
330
1F
100
AcDbEntity
  8
Object
100
AcDbLine
 10
2.234383200294884
 20
7.738565233277788
 30
0.0
 11
2.206383200294883
 21
7.661565233277788
 31
0.0
  0
LINE
  5
277
330
1F
100
AcDbEntity
  8
Object
100
AcDbLine
 10
2.206383200294883
 20
7.661565233277788
 30
0.0
 11
2.192383200294884
 21
7.580565233277788
 31
0.0
  0
LINE
  5
278
330
1F
100
AcDbEntity
  8
Object
100
AcDbLine
 10
2.192383200294884
 20
7.580565233277788
 30
0.0
 11
2.191383200294882
 21
7.498565233277788
 31
0.0
  0
LINE
  5
279
330
1F
100
AcDbEntity
  8
Object
100
AcDbLine
 10
2.191383200294882
 20
7.498565233277788
 30
0.0
 11
2.222383200294883
 21
7.050565233277787
 31
0.0
  0
LINE
  5
27A
330
1F
100
AcDbEntity
  8
Object
100
AcDbLine
 10
8.861383200294884
 20
3.977565233277788
 30
0.0
 11
8.859383200294884
 21
3.976565233277788
 31
0.0
  0
LINE
  5
27B
330
1F
100
AcDbEntity
  8
Object
100
AcDbLine
 10
8.859383200294884
 20
3.976565233277788
 30
0.0
 11
8.846383200294884
 21
3.886565233277788
 31
0.0
  0
LINE
  5
27C
330
1F
100
AcDbEntity
  8
Object
100
AcDbLine
 10
8.846383200294884
 20
3.886565233277788
 30
0.0
 11
8.819383200294884
 21
3.798565233277788
 31
0.0
  0
LINE
  5
27D
330
1F
100
AcDbEntity
  8
Object
100
AcDbLine
 10
8.803383200294884
 20
3.755565233277788
 30
0.0
 11
8.825383200294883
 21
3.809565233277788
 31
0.0
  0
LINE
  5
27E
330
1F
100
AcDbEntity
  8
Object
100
AcDbLine
 10
8.819383200294884
 20
3.798565233277788
 30
0.0
 11
8.780383200294883
 21
3.715565233277787
 31
0.0
  0
LINE
  5
27F
330
1F
100
AcDbEntity
  8
Object
100
AcDbLine
 10
8.743383200294884
 20
3.656565233277788
 30
0.0
 11
8.775383200294884
 21
3.705565233277788
 31
0.0
  0
LINE
  5
280
330
1F
100
AcDbEntity
  8
Object
100
AcDbLine
 10
8.780383200294883
 20
3.715565233277787
 30
0.0
 11
8.728383200294883
 21
3.639565233277788
 31
0.0
  0
LINE
  5
281
330
1F
100
AcDbEntity
  8
Object
100
AcDbLine
 10
8.707383200294884
 20
3.612565233277788
 30
0.0
 11
8.743383200294884
 21
3.656565233277788
 31
0.0
  0
LINE
  5
282
330
1F
100
AcDbEntity
  8
Object
100
AcDbLine
 10
8.728383200294883
 20
3.639565233277788
 30
0.0
 11
8.666383200294884
 21
3.572565233277788
 31
0.0
  0
LINE
  5
283
330
1F
100
AcDbEntity
  8
Object
100
AcDbLine
 10
8.623383200294883
 20
3.533565233277788
 30
0.0
 11
8.667383200294883
 21
3.570565233277788
 31
0.0
  0
LINE
  5
284
330
1F
100
AcDbEntity
  8
Object
100
AcDbLine
 10
8.666383200294884
 20
3.572565233277788
 30
0.0
 11
8.594383200294883
 21
3.514565233277788
 31
0.0
  0
LINE
  5
285
330
1F
100
AcDbEntity
  8
Object
100
AcDbLine
 10
8.576383200294884
 20
3.500565233277788
 30
0.0
 11
8.623383200294883
 21
3.533565233277788
 31
0.0
  0
LINE
  5
286
330
1F
100
AcDbEntity
  8
Object
100
AcDbLine
 10
8.594383200294883
 20
3.514565233277788
 30
0.0
 11
8.515383200294884
 21
3.468565233277788
 31
0.0
  0
LINE
  5
287
330
1F
100
AcDbEntity
  8
Object
100
AcDbLine
 10
8.473383200294884
 20
3.448565233277788
 30
0.0
 11
8.526383200294883
 21
3.472565233277788
 31
0.0
  0
LINE
  5
288
330
1F
100
AcDbEntity
  8
Object
100
AcDbLine
 10
8.515383200294884
 20
3.468565233277788
 30
0.0
 11
8.429383200294884
 21
3.434565233277788
 31
0.0
  0
LINE
  5
289
330
1F
100
AcDbEntity
  8
Object
100
AcDbLine
 10
8.473383200294884
 20
3.448565233277788
 30
0.0
 11
8.418383200294883
 21
3.429565233277788
 31
0.0
  0
LINE
  5
28A
330
1F
100
AcDbEntity
  8
Object
100
AcDbLine
 10
8.418383200294883
 20
3.429565233277788
 30
0.0
 11
8.362383200294884
 21
3.416565233277788
 31
0.0
  0
LINE
  5
28B
330
1F
100
AcDbEntity
  8
Object
100
AcDbLine
 10
8.429383200294884
 20
3.434565233277788
 30
0.0
 11
8.340383200294883
 21
3.414565233277788
 31
0.0
  0
LINE
  5
28C
330
1F
100
AcDbEntity
  8
Object
100
AcDbLine
 10
8.305383200294883
 20
3.408565233277788
 30
0.0
 11
8.362383200294884
 21
3.416565233277788
 31
0.0
  0
LINE
  5
28D
330
1F
100
AcDbEntity
  8
Object
100
AcDbLine
 10
8.340383200294883
 20
3.414565233277788
 30
0.0
 11
8.248383200294883
 21
3.407565233277788
 31
0.0
  0
LINE
  5
28E
330
1F
100
AcDbEntity
  8
Object
100
AcDbLine
 10
8.248383200294883
 20
3.405565233277788
 30
0.0
 11
8.305383200294883
 21
3.408565233277788
 31
0.0
  0
LINE
  5
28F
330
1F
100
AcDbEntity
  8
Object
100
AcDbLine
 10
8.248383200294883
 20
3.422565233277788
 30
0.0
 11
8.248383200294883
 21
3.411565233277788
 31
0.0
  0
LINE
  5
290
330
1F
100
AcDbEntity
  8
Object
100
AcDbLine
 10
8.248383200294883
 20
3.411565233277788
 30
0.0
 11
8.248383200294883
 21
3.407565233277788
 31
0.0
  0
LINE
  5
291
330
1F
100
AcDbEntity
  8
Object
100
AcDbLine
 10
3.050383200294884
 20
3.437565233277788
 30
0.0
 11
8.248383200294883
 21
3.437565233277788
 31
0.0
  0
LINE
  5
292
330
1F
100
AcDbEntity
  8
Object
100
AcDbLine
 10
8.248383200294883
 20
3.437565233277788
 30
0.0
 11
8.248383200294883
 21
3.422565233277788
 31
0.0
  0
LINE
  5
293
330
1F
100
AcDbEntity
  8
Object
100
AcDbLine
 10
3.050383200294884
 20
3.407565233277788
 30
0.0
 11
3.051383200294884
 21
3.405565233277788
 31
0.0
  0
LINE
  5
294
330
1F
100
AcDbEntity
  8
Object
100
AcDbLine
 10
3.051383200294884
 20
3.405565233277788
 30
0.0
 11
2.959383200294883
 21
3.412565233277788
 31
0.0
  0
LINE
  5
295
330
1F
100
AcDbEntity
  8
Object
100
AcDbLine
 10
3.050383200294884
 20
3.407565233277788
 30
0.0
 11
2.958383200294884
 21
3.414565233277788
 31
0.0
  0
LINE
  5
296
330
1F
100
AcDbEntity
  8
Object
100
AcDbLine
 10
2.958383200294884
 20
3.414565233277788
 30
0.0
 11
2.869383200294883
 21
3.434565233277788
 31
0.0
  0
LINE
  5
297
330
1F
100
AcDbEntity
  8
Object
100
AcDbLine
 10
2.959383200294883
 20
3.412565233277788
 30
0.0
 11
2.869383200294883
 21
3.433565233277787
 31
0.0
  0
LINE
  5
298
330
1F
100
AcDbEntity
  8
Object
100
AcDbLine
 10
2.869383200294883
 20
3.433565233277787
 30
0.0
 11
2.783383200294883
 21
3.466565233277788
 31
0.0
  0
LINE
  5
299
330
1F
100
AcDbEntity
  8
Object
100
AcDbLine
 10
2.869383200294883
 20
3.434565233277788
 30
0.0
 11
2.783383200294883
 21
3.468565233277788
 31
0.0
  0
LINE
  5
29A
330
1F
100
AcDbEntity
  8
Object
100
AcDbLine
 10
2.783383200294883
 20
3.468565233277788
 30
0.0
 11
2.704383200294884
 21
3.514565233277788
 31
0.0
  0
LINE
  5
29B
330
1F
100
AcDbEntity
  8
Object
100
AcDbLine
 10
2.783383200294883
 20
3.466565233277788
 30
0.0
 11
2.703383200294883
 21
3.513565233277788
 31
0.0
  0
LINE
  5
29C
330
1F
100
AcDbEntity
  8
Object
100
AcDbLine
 10
2.703383200294883
 20
3.513565233277788
 30
0.0
 11
2.631383200294884
 21
3.570565233277788
 31
0.0
  0
LINE
  5
29D
330
1F
100
AcDbEntity
  8
Object
100
AcDbLine
 10
2.704383200294884
 20
3.514565233277788
 30
0.0
 11
2.632383200294883
 21
3.572565233277788
 31
0.0
  0
LINE
  5
29E
330
1F
100
AcDbEntity
  8
Object
100
AcDbLine
 10
2.632383200294883
 20
3.572565233277788
 30
0.0
 11
2.570383200294884
 21
3.639565233277788
 31
0.0
  0
LINE
  5
29F
330
1F
100
AcDbEntity
  8
Object
100
AcDbLine
 10
2.569383200294883
 20
3.638565233277788
 30
0.0
 11
2.631383200294884
 21
3.570565233277788
 31
0.0
  0
LINE
  5
2A0
330
1F
100
AcDbEntity
  8
Object
100
AcDbLine
 10
2.570383200294884
 20
3.639565233277788
 30
0.0
 11
2.519383200294884
 21
3.715565233277787
 31
0.0
  0
LINE
  5
2A1
330
1F
100
AcDbEntity
  8
Object
100
AcDbLine
 10
2.517383200294883
 20
3.714565233277788
 30
0.0
 11
2.569383200294883
 21
3.638565233277788
 31
0.0
  0
LINE
  5
2A2
330
1F
100
AcDbEntity
  8
Object
100
AcDbLine
 10
2.519383200294884
 20
3.715565233277787
 30
0.0
 11
2.479383200294883
 21
3.798565233277788
 31
0.0
  0
LINE
  5
2A3
330
1F
100
AcDbEntity
  8
Object
100
AcDbLine
 10
2.477383200294884
 20
3.798565233277788
 30
0.0
 11
2.517383200294883
 21
3.714565233277788
 31
0.0
  0
LINE
  5
2A4
330
1F
100
AcDbEntity
  8
Object
100
AcDbLine
 10
2.479383200294883
 20
3.798565233277788
 30
0.0
 11
2.452383200294883
 21
3.886565233277788
 31
0.0
  0
LINE
  5
2A5
330
1F
100
AcDbEntity
  8
Object
100
AcDbLine
 10
2.451383200294884
 20
3.886565233277788
 30
0.0
 11
2.477383200294884
 21
3.798565233277788
 31
0.0
  0
LINE
  5
2A6
330
1F
100
AcDbEntity
  8
Object
100
AcDbLine
 10
2.452383200294883
 20
3.886565233277788
 30
0.0
 11
2.439383200294884
 21
3.976565233277788
 31
0.0
  0
LINE
  5
2A7
330
1F
100
AcDbEntity
  8
Object
100
AcDbLine
 10
2.437383200294883
 20
3.977565233277788
 30
0.0
 11
2.451383200294884
 21
3.886565233277788
 31
0.0
  0
LINE
  5
2A8
330
1F
100
AcDbEntity
  8
Object
100
AcDbLine
 10
2.690383200294883
 20
8.033565233277787
 30
0.0
 11
2.690383200294883
 21
8.031565233277788
 31
0.0
  0
LINE
  5
2A9
330
1F
100
AcDbEntity
  8
Object
100
AcDbLine
 10
2.690383200294883
 20
8.031565233277788
 30
0.0
 11
2.608383200294884
 21
8.025565233277788
 31
0.0
  0
LINE
  5
2AA
330
1F
100
AcDbEntity
  8
Object
100
AcDbLine
 10
2.608383200294884
 20
8.025565233277788
 30
0.0
 11
2.529383200294883
 21
8.005565233277788
 31
0.0
  0
LINE
  5
2AB
330
1F
100
AcDbEntity
  8
Object
100
AcDbLine
 10
2.529383200294883
 20
8.005565233277788
 30
0.0
 11
2.454383200294884
 21
7.972565233277787
 31
0.0
  0
LINE
  5
2AC
330
1F
100
AcDbEntity
  8
Object
100
AcDbLine
 10
2.454383200294884
 20
7.972565233277787
 30
0.0
 11
2.386383200294883
 21
7.928565233277787
 31
0.0
  0
LINE
  5
2AD
330
1F
100
AcDbEntity
  8
Object
100
AcDbLine
 10
2.386383200294883
 20
7.928565233277787
 30
0.0
 11
2.325383200294883
 21
7.873565233277787
 31
0.0
  0
LINE
  5
2AE
330
1F
100
AcDbEntity
  8
Object
100
AcDbLine
 10
2.325383200294883
 20
7.873565233277787
 30
0.0
 11
2.275383200294884
 21
7.809565233277788
 31
0.0
  0
LINE
  5
2AF
330
1F
100
AcDbEntity
  8
Object
100
AcDbLine
 10
2.275383200294884
 20
7.809565233277788
 30
0.0
 11
2.235383200294883
 21
7.737565233277788
 31
0.0
  0
LINE
  5
2B0
330
1F
100
AcDbEntity
  8
Object
100
AcDbLine
 10
2.235383200294883
 20
7.737565233277788
 30
0.0
 11
2.208383200294884
 21
7.660565233277788
 31
0.0
  0
LINE
  5
2B1
330
1F
100
AcDbEntity
  8
Object
100
AcDbLine
 10
2.208383200294884
 20
7.660565233277788
 30
0.0
 11
2.194383200294883
 21
7.580565233277788
 31
0.0
  0
LINE
  5
2B2
330
1F
100
AcDbEntity
  8
Object
100
AcDbLine
 10
2.194383200294883
 20
7.580565233277788
 30
0.0
 11
2.193383200294883
 21
7.498565233277788
 31
0.0
  0
LINE
  5
2B3
330
1F
100
AcDbEntity
  8
Object
100
AcDbLine
 10
2.439383200294884
 20
3.976565233277788
 30
0.0
 11
2.437383200294883
 21
3.977565233277788
 31
0.0
  0
LINE
  5
2B4
330
1F
100
AcDbEntity
  8
Object
100
AcDbLine
 10
2.437383200294883
 20
3.977565233277788
 30
0.0
 11
2.222383200294883
 21
7.050565233277787
 31
0.0
  0
LINE
  5
2B5
330
1F
100
AcDbEntity
  8
Object
100
AcDbLine
 10
2.439383200294884
 20
3.976565233277788
 30
0.0
 11
2.193383200294883
 21
7.498565233277788
 31
0.0
  0
LINE
  5
2B6
102
{ACAD_REACTORS
330
66F
102
}
330
1F
100
AcDbEntity
  8
Object
100
AcDbLine
 10
2.193383200294883
 20
7.498565233277788
 30
0.0
 11
2.191383200294882
 21
7.498565233277788
 31
0.0
  0
LINE
  5
2B7
330
1F
100
AcDbEntity
  8
Object
100
AcDbLine
 10
9.109383200294884
 20
7.533565233277788
 30
0.0
 11
9.107383200294883
 21
7.533565233277788
 31
0.0
  0
LINE
  5
2B8
330
1F
100
AcDbEntity
  8
Object
100
AcDbLine
 10
9.107383200294883
 20
7.533565233277788
 30
0.0
 11
9.099383200294884
 21
7.620565233277788
 31
0.0
  0
LINE
  5
2B9
330
1F
100
AcDbEntity
  8
Object
100
AcDbLine
 10
9.099383200294884
 20
7.620565233277788
 30
0.0
 11
9.077383200294883
 21
7.704565233277788
 31
0.0
  0
LINE
  5
2BA
330
1F
100
AcDbEntity
  8
Object
100
AcDbLine
 10
9.077383200294883
 20
7.704565233277788
 30
0.0
 11
9.040383200294883
 21
7.782565233277788
 31
0.0
  0
LINE
  5
2BB
330
1F
100
AcDbEntity
  8
Object
100
AcDbLine
 10
9.078383200294883
 20
7.704565233277788
 30
0.0
 11
9.042383200294883
 21
7.783565233277788
 31
0.0
  0
LINE
  5
2BC
330
1F
100
AcDbEntity
  8
Object
100
AcDbLine
 10
9.042383200294883
 20
7.783565233277788
 30
0.0
 11
8.992383200294884
 21
7.854565233277789
 31
0.0
  0
LINE
  5
2BD
330
1F
100
AcDbEntity
  8
Object
100
AcDbLine
 10
9.040383200294883
 20
7.782565233277788
 30
0.0
 11
8.990383200294884
 21
7.853565233277787
 31
0.0
  0
LINE
  5
2BE
330
1F
100
AcDbEntity
  8
Object
100
AcDbLine
 10
8.990383200294884
 20
7.853565233277787
 30
0.0
 11
8.929383200294884
 21
7.915565233277789
 31
0.0
  0
LINE
  5
2BF
330
1F
100
AcDbEntity
  8
Object
100
AcDbLine
 10
8.929383200294884
 20
7.915565233277789
 30
0.0
 11
8.858383200294884
 21
7.965565233277787
 31
0.0
  0
LINE
  5
2C0
330
1F
100
AcDbEntity
  8
Object
100
AcDbLine
 10
8.858383200294884
 20
7.966565233277787
 30
0.0
 11
8.779383200294883
 21
8.003565233277788
 31
0.0
  0
LINE
  5
2C1
330
1F
100
AcDbEntity
  8
Object
100
AcDbLine
 10
8.858383200294884
 20
7.965565233277787
 30
0.0
 11
8.779383200294883
 21
8.001565233277787
 31
0.0
  0
LINE
  5
2C2
330
1F
100
AcDbEntity
  8
Object
100
AcDbLine
 10
8.779383200294883
 20
8.001565233277787
 30
0.0
 11
8.695383200294884
 21
8.024565233277787
 31
0.0
  0
LINE
  5
2C3
330
1F
100
AcDbEntity
  8
Object
100
AcDbLine
 10
8.695383200294884
 20
8.024565233277787
 30
0.0
 11
8.608383200294884
 21
8.031565233277788
 31
0.0
  0
LINE
  5
2C4
330
1F
100
AcDbEntity
  8
Object
100
AcDbLine
 10
8.608383200294884
 20
8.031565233277788
 30
0.0
 11
8.608383200294884
 21
8.033565233277787
 31
0.0
  0
LINE
  5
2C5
330
1F
100
AcDbEntity
  8
Object
100
AcDbLine
 10
2.690383200294883
 20
8.031565233277788
 30
0.0
 11
8.608383200294884
 21
8.031565233277788
 31
0.0
  0
LINE
  5
2C6
330
1F
100
AcDbEntity
  8
Object
100
AcDbLine
 10
9.107383200294883
 20
7.498565233277788
 30
0.0
 11
9.106383200294883
 21
7.498565233277788
 31
0.0
  0
LINE
  5
2C7
330
1F
100
AcDbEntity
  8
Object
100
AcDbLine
 10
8.861383200294884
 20
3.977565233277788
 30
0.0
 11
9.076383200294884
 21
7.050565233277787
 31
0.0
  0
LINE
  5
2C8
330
1F
100
AcDbEntity
  8
Object
100
AcDbLine
 10
8.859383200294884
 20
3.976565233277788
 30
0.0
 11
8.855383200294884
 21
3.977565233277788
 31
0.0
  0
LINE
  5
2C9
330
1F
100
AcDbEntity
  8
Object
100
AcDbLine
 10
8.855383200294884
 20
3.977565233277788
 30
0.0
 11
8.844383200294883
 21
3.978565233277787
 31
0.0
  0
LINE
  5
2CA
330
1F
100
AcDbEntity
  8
Object
100
AcDbLine
 10
8.844383200294883
 20
3.978565233277787
 30
0.0
 11
8.829383200294884
 21
3.979565233277788
 31
0.0
  0
LINE
  5
2CB
330
1F
100
AcDbEntity
  8
Object
100
AcDbLine
 10
8.861383200294884
 20
3.977565233277788
 30
0.0
 11
8.854383200294883
 21
3.920565233277788
 31
0.0
  0
LINE
  5
2CC
330
1F
100
AcDbEntity
  8
Object
100
AcDbLine
 10
8.854383200294883
 20
3.920565233277788
 30
0.0
 11
8.842383200294884
 21
3.864565233277788
 31
0.0
  0
LINE
  5
2CD
330
1F
100
AcDbEntity
  8
Object
100
AcDbLine
 10
8.842383200294884
 20
3.864565233277788
 30
0.0
 11
8.825383200294883
 21
3.809565233277788
 31
0.0
  0
LINE
  5
2CE
330
1F
100
AcDbEntity
  8
Object
100
AcDbLine
 10
8.775383200294884
 20
3.705565233277788
 30
0.0
 11
8.803383200294884
 21
3.755565233277788
 31
0.0
  0
LINE
  5
2CF
330
1F
100
AcDbEntity
  8
Object
100
AcDbLine
 10
8.667383200294883
 20
3.570565233277788
 30
0.0
 11
8.707383200294884
 21
3.612565233277788
 31
0.0
  0
LINE
  5
2D0
330
1F
100
AcDbEntity
  8
Object
100
AcDbLine
 10
8.526383200294883
 20
3.472565233277788
 30
0.0
 11
8.576383200294884
 21
3.500565233277788
 31
0.0
  0
LINE
  5
2D1
330
1F
100
AcDbEntity
  8
Object
100
AcDbLine
 10
8.608383200294884
 20
8.001565233277787
 30
0.0
 11
8.690383200294883
 21
7.994565233277789
 31
0.0
  0
LINE
  5
2D2
330
1F
100
AcDbEntity
  8
Object
100
AcDbLine
 10
8.690383200294883
 20
7.994565233277789
 30
0.0
 11
8.769383200294884
 21
7.973565233277788
 31
0.0
  0
LINE
  5
2D3
330
1F
100
AcDbEntity
  8
Object
100
AcDbLine
 10
8.769383200294884
 20
7.973565233277788
 30
0.0
 11
8.843383200294884
 21
7.939565233277788
 31
0.0
  0
LINE
  5
2D4
330
1F
100
AcDbEntity
  8
Object
100
AcDbLine
 10
8.843383200294884
 20
7.939565233277788
 30
0.0
 11
8.910383200294884
 21
7.892565233277789
 31
0.0
  0
LINE
  5
2D5
330
1F
100
AcDbEntity
  8
Object
100
AcDbLine
 10
8.910383200294884
 20
7.892565233277789
 30
0.0
 11
8.967383200294884
 21
7.834565233277788
 31
0.0
  0
LINE
  5
2D6
330
1F
100
AcDbEntity
  8
Object
100
AcDbLine
 10
8.967383200294884
 20
7.834565233277788
 30
0.0
 11
9.014383200294883
 21
7.767565233277788
 31
0.0
  0
LINE
  5
2D7
330
1F
100
AcDbEntity
  8
Object
100
AcDbLine
 10
9.014383200294883
 20
7.767565233277788
 30
0.0
 11
9.049383200294883
 21
7.693565233277788
 31
0.0
  0
LINE
  5
2D8
330
1F
100
AcDbEntity
  8
Object
100
AcDbLine
 10
9.049383200294883
 20
7.693565233277788
 30
0.0
 11
9.070383200294884
 21
7.614565233277788
 31
0.0
  0
LINE
  5
2D9
330
1F
100
AcDbEntity
  8
Object
100
AcDbLine
 10
9.070383200294884
 20
7.614565233277788
 30
0.0
 11
9.077383200294883
 21
7.533565233277788
 31
0.0
  0
LINE
  5
2DA
330
1F
100
AcDbEntity
  8
Object
100
AcDbLine
 10
9.077383200294883
 20
7.533565233277788
 30
0.0
 11
9.077383200294883
 21
7.522565233277788
 31
0.0
  0
LINE
  5
2DB
330
1F
100
AcDbEntity
  8
Object
100
AcDbLine
 10
9.077383200294883
 20
7.522565233277788
 30
0.0
 11
9.076383200294884
 21
7.511565233277788
 31
0.0
  0
LINE
  5
2DC
330
1F
100
AcDbEntity
  8
Object
100
AcDbLine
 10
9.076383200294884
 20
7.511565233277788
 30
0.0
 11
9.076383200294884
 21
7.500565233277788
 31
0.0
  0
LINE
  5
2DD
330
1F
100
AcDbEntity
  8
Object
100
AcDbLine
 10
9.076383200294884
 20
7.500565233277788
 30
0.0
 11
8.829383200294884
 21
3.979565233277788
 31
0.0
  0
LINE
  5
2DE
330
1F
100
AcDbEntity
  8
Object
100
AcDbLine
 10
8.409383200294884
 20
6.556565233277788
 30
0.0
 11
8.447383200294883
 21
6.550565233277787
 31
0.0
  0
LINE
  5
2DF
330
1F
100
AcDbEntity
  8
Object
100
AcDbLine
 10
8.534383200294884
 20
6.423565233277788
 30
0.0
 11
8.375383200294884
 21
4.153565233277788
 31
0.0
  0
LINE
  5
2E0
330
1F
100
AcDbEntity
  8
Object
100
AcDbLine
 10
8.829383200294884
 20
3.979565233277788
 30
0.0
 11
8.817383200294884
 21
3.892565233277788
 31
0.0
  0
LINE
  5
2E1
330
1F
100
AcDbEntity
  8
Object
100
AcDbLine
 10
8.817383200294884
 20
3.892565233277788
 30
0.0
 11
8.791383200294884
 21
3.809565233277788
 31
0.0
  0
LINE
  5
2E2
330
1F
100
AcDbEntity
  8
Object
100
AcDbLine
 10
8.791383200294884
 20
3.809565233277788
 30
0.0
 11
8.754383200294883
 21
3.730565233277788
 31
0.0
  0
LINE
  5
2E3
330
1F
100
AcDbEntity
  8
Object
100
AcDbLine
 10
8.340383200294883
 20
4.033565233277788
 30
0.0
 11
8.304383200294884
 21
3.981565233277787
 31
0.0
  0
LINE
  5
2E4
330
1F
100
AcDbEntity
  8
Object
100
AcDbLine
 10
8.754383200294883
 20
3.730565233277788
 30
0.0
 11
8.705383200294884
 21
3.658565233277788
 31
0.0
  0
LINE
  5
2E5
330
1F
100
AcDbEntity
  8
Object
100
AcDbLine
 10
8.705383200294884
 20
3.658565233277788
 30
0.0
 11
8.645383200294883
 21
3.593565233277788
 31
0.0
  0
LINE
  5
2E6
330
1F
100
AcDbEntity
  8
Object
100
AcDbLine
 10
8.645383200294883
 20
3.593565233277788
 30
0.0
 11
8.577383200294883
 21
3.539565233277788
 31
0.0
  0
LINE
  5
2E7
330
1F
100
AcDbEntity
  8
Object
100
AcDbLine
 10
8.304383200294884
 20
3.981565233277787
 30
0.0
 11
8.258383200294883
 21
3.938565233277788
 31
0.0
  0
LINE
  5
2E8
330
1F
100
AcDbEntity
  8
Object
100
AcDbLine
 10
8.577383200294883
 20
3.539565233277788
 30
0.0
 11
8.502383200294884
 21
3.495565233277788
 31
0.0
  0
LINE
  5
2E9
330
1F
100
AcDbEntity
  8
Object
100
AcDbLine
 10
8.502383200294884
 20
3.495565233277788
 30
0.0
 11
8.421383200294883
 21
3.463565233277788
 31
0.0
  0
LINE
  5
2EA
330
1F
100
AcDbEntity
  8
Object
100
AcDbLine
 10
8.258383200294883
 20
3.938565233277788
 30
0.0
 11
8.204383200294884
 21
3.906565233277788
 31
0.0
  0
LINE
  5
2EB
330
1F
100
AcDbEntity
  8
Object
100
AcDbLine
 10
8.421383200294883
 20
3.463565233277788
 30
0.0
 11
8.335383200294884
 21
3.443565233277788
 31
0.0
  0
LINE
  5
2EC
330
1F
100
AcDbEntity
  8
Object
100
AcDbLine
 10
8.335383200294884
 20
3.443565233277788
 30
0.0
 11
8.248383200294883
 21
3.437565233277788
 31
0.0
  0
LINE
  5
2ED
330
1F
100
AcDbEntity
  8
Object
100
AcDbLine
 10
8.204383200294884
 20
3.906565233277788
 30
0.0
 11
8.144383200294884
 21
3.886565233277788
 31
0.0
  0
LINE
  5
2EE
330
1F
100
AcDbEntity
  8
Object
100
AcDbLine
 10
8.144383200294884
 20
3.886565233277788
 30
0.0
 11
8.081383200294883
 21
3.879565233277788
 31
0.0
  0
LINE
  5
2EF
330
1F
100
AcDbEntity
  8
Object
100
AcDbLine
 10
3.086383200294884
 20
3.906565233277788
 30
0.0
 11
3.146383200294884
 21
3.886565233277788
 31
0.0
  0
LINE
  5
2F0
330
1F
100
AcDbEntity
  8
Object
100
AcDbLine
 10
3.146383200294884
 20
3.886565233277788
 30
0.0
 11
3.208383200294884
 21
3.879565233277788
 31
0.0
  0
LINE
  5
2F1
330
1F
100
AcDbEntity
  8
Object
100
AcDbLine
 10
3.208383200294884
 20
3.879565233277788
 30
0.0
 11
8.081383200294883
 21
3.879565233277788
 31
0.0
  0
LINE
  5
2F2
330
1F
100
AcDbEntity
  8
Object
100
AcDbLine
 10
3.050383200294884
 20
3.437565233277788
 30
0.0
 11
2.963383200294885
 21
3.443565233277788
 31
0.0
  0
LINE
  5
2F3
330
1F
100
AcDbEntity
  8
Object
100
AcDbLine
 10
2.963383200294885
 20
3.443565233277788
 30
0.0
 11
2.878383200294884
 21
3.463565233277788
 31
0.0
  0
LINE
  5
2F4
330
1F
100
AcDbEntity
  8
Object
100
AcDbLine
 10
3.086383200294884
 20
3.906565233277788
 30
0.0
 11
3.032383200294884
 21
3.938565233277788
 31
0.0
  0
LINE
  5
2F5
330
1F
100
AcDbEntity
  8
Object
100
AcDbLine
 10
8.608383200294884
 20
8.001565233277787
 30
0.0
 11
2.690383200294883
 21
8.001565233277787
 31
0.0
  0
LINE
  5
2F6
330
1F
100
AcDbEntity
  8
Object
100
AcDbLine
 10
2.881383200294884
 20
6.556565233277788
 30
0.0
 11
8.409383200294884
 21
6.556565233277788
 31
0.0
  0
LINE
  5
2F7
330
1F
100
AcDbEntity
  8
Object
100
AcDbLine
 10
3.032383200294884
 20
3.938565233277788
 30
0.0
 11
2.986383200294884
 21
3.981565233277787
 31
0.0
  0
LINE
  5
2F8
330
1F
100
AcDbEntity
  8
Object
100
AcDbLine
 10
2.721383200294884
 20
3.539565233277788
 30
0.0
 11
2.653383200294884
 21
3.593565233277788
 31
0.0
  0
LINE
  5
2F9
330
1F
100
AcDbEntity
  8
Object
100
AcDbLine
 10
2.653383200294884
 20
3.593565233277788
 30
0.0
 11
2.594383200294883
 21
3.658565233277788
 31
0.0
  0
LINE
  5
2FA
330
1F
100
AcDbEntity
  8
Object
100
AcDbLine
 10
2.594383200294883
 20
3.658565233277788
 30
0.0
 11
2.545383200294883
 21
3.730565233277788
 31
0.0
  0
LINE
  5
2FB
330
1F
100
AcDbEntity
  8
Object
100
AcDbLine
 10
2.986383200294884
 20
3.981565233277787
 30
0.0
 11
2.950383200294883
 21
4.033565233277788
 31
0.0
  0
LINE
  5
2FC
330
1F
100
AcDbEntity
  8
Object
100
AcDbLine
 10
2.523383200294883
 20
7.971565233277788
 30
0.0
 11
2.605383200294884
 21
7.994565233277789
 31
0.0
  0
LINE
  5
2FD
330
1F
100
AcDbEntity
  8
Object
100
AcDbLine
 10
2.605383200294884
 20
7.994565233277789
 30
0.0
 11
2.690383200294883
 21
8.001565233277787
 31
0.0
  0
LINE
  5
2FE
330
1F
100
AcDbEntity
  8
Object
100
AcDbLine
 10
2.545383200294883
 20
3.730565233277788
 30
0.0
 11
2.507383200294883
 21
3.809565233277788
 31
0.0
  0
LINE
  5
2FF
330
1F
100
AcDbEntity
  8
Object
100
AcDbLine
 10
2.507383200294883
 20
3.809565233277788
 30
0.0
 11
2.482383200294883
 21
3.892565233277788
 31
0.0
  0
LINE
  5
300
330
1F
100
AcDbEntity
  8
Object
100
AcDbLine
 10
2.915383200294883
 20
4.153565233277788
 30
0.0
 11
2.756383200294884
 21
6.423565233277788
 31
0.0
  0
LINE
  5
301
330
1F
100
AcDbEntity
  8
Object
100
AcDbLine
 10
2.950383200294883
 20
4.033565233277788
 30
0.0
 11
2.926383200294884
 21
4.091565233277788
 31
0.0
  0
LINE
  5
302
330
1F
100
AcDbEntity
  8
Object
100
AcDbLine
 10
2.926383200294884
 20
4.091565233277788
 30
0.0
 11
2.915383200294883
 21
4.153565233277788
 31
0.0
  0
LINE
  5
303
330
1F
100
AcDbEntity
  8
Object
100
AcDbLine
 10
2.523383200294883
 20
7.971565233277788
 30
0.0
 11
2.446383200294883
 21
7.933565233277787
 31
0.0
  0
LINE
  5
304
330
1F
100
AcDbEntity
  8
Object
100
AcDbLine
 10
2.446383200294883
 20
7.933565233277787
 30
0.0
 11
2.378383200294884
 21
7.882565233277787
 31
0.0
  0
LINE
  5
305
330
1F
100
AcDbEntity
  8
Object
100
AcDbLine
 10
2.378383200294884
 20
7.882565233277787
 30
0.0
 11
2.320383200294884
 21
7.820565233277788
 31
0.0
  0
LINE
  5
306
330
1F
100
AcDbEntity
  8
Object
100
AcDbLine
 10
2.320383200294884
 20
7.820565233277788
 30
0.0
 11
2.274383200294884
 21
7.748565233277788
 31
0.0
  0
LINE
  5
307
330
1F
100
AcDbEntity
  8
Object
100
AcDbLine
 10
2.881383200294884
 20
6.556565233277788
 30
0.0
 11
2.840383200294883
 21
6.550565233277787
 31
0.0
  0
LINE
  5
308
330
1F
100
AcDbEntity
  8
Object
100
AcDbLine
 10
2.840383200294883
 20
6.550565233277787
 30
0.0
 11
2.804383200294884
 21
6.530565233277788
 31
0.0
  0
LINE
  5
309
330
1F
100
AcDbEntity
  8
Object
100
AcDbLine
 10
2.804383200294884
 20
6.530565233277788
 30
0.0
 11
2.777383200294883
 21
6.500565233277788
 31
0.0
  0
LINE
  5
30A
330
1F
100
AcDbEntity
  8
Object
100
AcDbLine
 10
2.777383200294883
 20
6.500565233277788
 30
0.0
 11
2.760383200294883
 21
6.463565233277788
 31
0.0
  0
LINE
  5
30B
330
1F
100
AcDbEntity
  8
Object
100
AcDbLine
 10
2.760383200294883
 20
6.463565233277788
 30
0.0
 11
2.756383200294884
 21
6.423565233277788
 31
0.0
  0
LINE
  5
30C
330
1F
100
AcDbEntity
  8
Object
100
AcDbLine
 10
3.050383200294884
 20
3.437565233277788
 30
0.0
 11
3.050383200294884
 21
3.422565233277788
 31
0.0
  0
LINE
  5
30D
330
1F
100
AcDbEntity
  8
Object
100
AcDbLine
 10
3.050383200294884
 20
3.422565233277788
 30
0.0
 11
3.050383200294884
 21
3.411565233277788
 31
0.0
  0
LINE
  5
30E
330
1F
100
AcDbEntity
  8
Object
100
AcDbLine
 10
3.050383200294884
 20
3.411565233277788
 30
0.0
 11
3.050383200294884
 21
3.407565233277788
 31
0.0
  0
LINE
  5
30F
330
1F
100
AcDbEntity
  8
Object
100
AcDbLine
 10
2.878383200294884
 20
3.463565233277788
 30
0.0
 11
2.797383200294884
 21
3.495565233277788
 31
0.0
  0
LINE
  5
310
330
1F
100
AcDbEntity
  8
Object
100
AcDbLine
 10
2.797383200294884
 20
3.495565233277788
 30
0.0
 11
2.721383200294884
 21
3.539565233277788
 31
0.0
  0
LINE
  5
311
330
1F
100
AcDbEntity
  8
Object
100
AcDbLine
 10
2.482383200294883
 20
3.892565233277788
 30
0.0
 11
2.469383200294883
 21
3.979565233277788
 31
0.0
  0
LINE
  5
312
330
1F
100
AcDbEntity
  8
Object
100
AcDbLine
 10
2.690383200294883
 20
8.027565233277787
 30
0.0
 11
2.690383200294883
 21
8.016565233277788
 31
0.0
  0
LINE
  5
313
330
1F
100
AcDbEntity
  8
Object
100
AcDbLine
 10
2.690383200294883
 20
8.016565233277788
 30
0.0
 11
2.690383200294883
 21
8.001565233277787
 31
0.0
  0
LINE
  5
314
330
1F
100
AcDbEntity
  8
Object
100
AcDbLine
 10
2.690383200294883
 20
8.027565233277787
 30
0.0
 11
2.690383200294883
 21
8.031565233277788
 31
0.0
  0
LINE
  5
315
330
1F
100
AcDbEntity
  8
Object
100
AcDbLine
 10
2.274383200294884
 20
7.748565233277788
 30
0.0
 11
2.242383200294884
 21
7.669565233277788
 31
0.0
  0
LINE
  5
316
330
1F
100
AcDbEntity
  8
Object
100
AcDbLine
 10
2.242383200294884
 20
7.669565233277788
 30
0.0
 11
2.224383200294884
 21
7.586565233277788
 31
0.0
  0
LINE
  5
317
330
1F
100
AcDbEntity
  8
Object
100
AcDbLine
 10
2.224383200294884
 20
7.586565233277788
 30
0.0
 11
2.223383200294883
 21
7.500565233277788
 31
0.0
  0
LINE
  5
318
330
1F
100
AcDbEntity
  8
Object
100
AcDbLine
 10
2.223383200294883
 20
7.500565233277788
 30
0.0
 11
2.208383200294884
 21
7.499565233277788
 31
0.0
  0
LINE
  5
319
330
1F
100
AcDbEntity
  8
Object
100
AcDbLine
 10
2.454383200294884
 20
3.978565233277787
 30
0.0
 11
2.469383200294883
 21
3.979565233277788
 31
0.0
  0
LINE
  5
31A
330
1F
100
AcDbEntity
  8
Object
100
AcDbLine
 10
2.469383200294883
 20
3.979565233277788
 30
0.0
 11
2.223383200294883
 21
7.500565233277788
 31
0.0
  0
LINE
  5
31B
330
1F
100
AcDbEntity
  8
Object
100
AcDbLine
 10
2.208383200294884
 20
7.499565233277788
 30
0.0
 11
2.197383200294883
 21
7.499565233277788
 31
0.0
  0
LINE
  5
31C
330
1F
100
AcDbEntity
  8
Object
100
AcDbLine
 10
2.454383200294884
 20
3.978565233277787
 30
0.0
 11
2.443383200294883
 21
3.977565233277788
 31
0.0
  0
LINE
  5
31D
330
1F
100
AcDbEntity
  8
Object
100
AcDbLine
 10
2.443383200294883
 20
3.977565233277788
 30
0.0
 11
2.439383200294884
 21
3.976565233277788
 31
0.0
  0
LINE
  5
31E
330
1F
100
AcDbEntity
  8
Object
100
AcDbLine
 10
2.197383200294883
 20
7.499565233277788
 30
0.0
 11
2.193383200294883
 21
7.498565233277788
 31
0.0
  0
LINE
  5
31F
330
1F
100
AcDbEntity
  8
Object
100
AcDbLine
 10
9.107383200294883
 20
7.533565233277788
 30
0.0
 11
9.103383200294883
 21
7.533565233277788
 31
0.0
  0
LINE
  5
320
330
1F
100
AcDbEntity
  8
Object
100
AcDbLine
 10
9.103383200294883
 20
7.533565233277788
 30
0.0
 11
9.092383200294884
 21
7.533565233277788
 31
0.0
  0
LINE
  5
321
330
1F
100
AcDbEntity
  8
Object
100
AcDbLine
 10
9.092383200294884
 20
7.533565233277788
 30
0.0
 11
9.077383200294883
 21
7.533565233277788
 31
0.0
  0
LINE
  5
322
330
1F
100
AcDbEntity
  8
Object
100
AcDbLine
 10
9.106383200294883
 20
7.510565233277788
 30
0.0
 11
9.107383200294883
 21
7.521565233277788
 31
0.0
  0
LINE
  5
323
330
1F
100
AcDbEntity
  8
Object
100
AcDbLine
 10
9.107383200294883
 20
7.521565233277788
 30
0.0
 11
9.107383200294883
 21
7.533565233277788
 31
0.0
  0
LINE
  5
324
330
1F
100
AcDbEntity
  8
Object
100
AcDbLine
 10
9.106383200294883
 20
7.498565233277788
 30
0.0
 11
9.106383200294883
 21
7.510565233277788
 31
0.0
  0
LINE
  5
325
330
1F
100
AcDbEntity
  8
Object
100
AcDbLine
 10
8.608383200294884
 20
8.027565233277787
 30
0.0
 11
8.608383200294884
 21
8.016565233277788
 31
0.0
  0
LINE
  5
326
330
1F
100
AcDbEntity
  8
Object
100
AcDbLine
 10
8.608383200294884
 20
8.016565233277788
 30
0.0
 11
8.608383200294884
 21
8.001565233277787
 31
0.0
  0
LINE
  5
327
330
1F
100
AcDbEntity
  8
Object
100
AcDbLine
 10
8.608383200294884
 20
8.027565233277787
 30
0.0
 11
8.608383200294884
 21
8.031565233277788
 31
0.0
  0
LINE
  5
328
330
1F
100
AcDbEntity
  8
Object
100
AcDbLine
 10
9.101383200294884
 20
7.499565233277788
 30
0.0
 11
9.106383200294883
 21
7.498565233277788
 31
0.0
  0
LINE
  5
329
330
1F
100
AcDbEntity
  8
Object
100
AcDbLine
 10
9.106383200294883
 20
7.498565233277788
 30
0.0
 11
8.859383200294884
 21
3.976565233277788
 31
0.0
  0
LINE
  5
32A
330
1F
100
AcDbEntity
  8
Object
100
AcDbLine
 10
9.101383200294884
 20
7.499565233277788
 30
0.0
 11
9.091383200294883
 21
7.499565233277788
 31
0.0
  0
LINE
  5
32B
330
1F
100
AcDbEntity
  8
Object
100
AcDbLine
 10
9.091383200294883
 20
7.499565233277788
 30
0.0
 11
9.076383200294884
 21
7.500565233277788
 31
0.0
  0
LINE
  5
32C
330
1F
100
AcDbEntity
  8
Object
100
AcDbLine
 10
8.534383200294884
 20
6.423565233277788
 30
0.0
 11
8.507383200294883
 21
6.424565233277788
 31
0.0
  0
LINE
  5
32D
330
1F
100
AcDbEntity
  8
Object
100
AcDbLine
 10
8.349383200294884
 20
4.155565233277788
 30
0.0
 11
8.375383200294884
 21
4.153565233277788
 31
0.0
  0
LINE
  5
32E
330
1F
100
AcDbEntity
  8
Object
100
AcDbLine
 10
8.528383200294884
 20
6.470565233277788
 30
0.0
 11
8.534383200294884
 21
6.431565233277788
 31
0.0
  0
LINE
  5
32F
330
1F
100
AcDbEntity
  8
Object
100
AcDbLine
 10
8.534383200294884
 20
6.431565233277788
 30
0.0
 11
8.508383200294883
 21
6.431565233277788
 31
0.0
  0
LINE
  5
330
330
1F
100
AcDbEntity
  8
Object
100
AcDbLine
 10
8.528383200294884
 20
6.470565233277788
 30
0.0
 11
8.510383200294883
 21
6.505565233277788
 31
0.0
  0
LINE
  5
331
330
1F
100
AcDbEntity
  8
Object
100
AcDbLine
 10
8.510383200294883
 20
6.505565233277788
 30
0.0
 11
8.482383200294883
 21
6.532565233277788
 31
0.0
  0
LINE
  5
332
330
1F
100
AcDbEntity
  8
Object
100
AcDbLine
 10
8.482383200294883
 20
6.532565233277788
 30
0.0
 11
8.447383200294883
 21
6.550565233277787
 31
0.0
  0
LINE
  5
333
330
1F
100
AcDbEntity
  8
Object
100
AcDbLine
 10
8.447383200294883
 20
6.523565233277788
 30
0.0
 11
8.409383200294884
 21
6.530565233277788
 31
0.0
  0
LINE
  5
334
330
1F
100
AcDbEntity
  8
Object
100
AcDbLine
 10
8.409383200294884
 20
6.530565233277788
 30
0.0
 11
8.409383200294884
 21
6.556565233277788
 31
0.0
  0
LINE
  5
335
330
1F
100
AcDbEntity
  8
Object
100
AcDbLine
 10
3.208383200294884
 20
3.879565233277788
 30
0.0
 11
3.208383200294884
 21
3.905565233277788
 31
0.0
  0
LINE
  5
336
330
1F
100
AcDbEntity
  8
Object
100
AcDbLine
 10
3.151383200294883
 20
3.911565233277787
 30
0.0
 11
3.097383200294883
 21
3.929565233277788
 31
0.0
  0
LINE
  5
337
330
1F
100
AcDbEntity
  8
Object
100
AcDbLine
 10
3.097383200294883
 20
3.929565233277788
 30
0.0
 11
3.048383200294884
 21
3.959565233277787
 31
0.0
  0
LINE
  5
338
330
1F
100
AcDbEntity
  8
Object
100
AcDbLine
 10
3.048383200294884
 20
3.959565233277787
 30
0.0
 11
3.006383200294884
 21
3.998565233277788
 31
0.0
  0
LINE
  5
339
330
1F
100
AcDbEntity
  8
Object
100
AcDbLine
 10
3.006383200294884
 20
3.998565233277788
 30
0.0
 11
2.973383200294883
 21
4.045565233277788
 31
0.0
  0
LINE
  5
33A
330
1F
100
AcDbEntity
  8
Object
100
AcDbLine
 10
2.973383200294883
 20
4.045565233277788
 30
0.0
 11
2.951383200294884
 21
4.098565233277788
 31
0.0
  0
LINE
  5
33B
330
1F
100
AcDbEntity
  8
Object
100
AcDbLine
 10
2.951383200294884
 20
4.098565233277788
 30
0.0
 11
2.941383200294882
 21
4.155565233277788
 31
0.0
  0
LINE
  5
33C
330
1F
100
AcDbEntity
  8
Object
100
AcDbLine
 10
3.208383200294884
 20
3.905565233277788
 30
0.0
 11
8.081383200294883
 21
3.905565233277788
 31
0.0
  0
LINE
  5
33D
330
1F
100
AcDbEntity
  8
Object
100
AcDbLine
 10
8.081383200294883
 20
3.905565233277788
 30
0.0
 11
8.081383200294883
 21
3.879565233277788
 31
0.0
  0
LINE
  5
33E
330
1F
100
AcDbEntity
  8
Object
100
AcDbLine
 10
8.375383200294884
 20
4.153565233277788
 30
0.0
 11
8.364383200294884
 21
4.091565233277788
 31
0.0
  0
LINE
  5
33F
330
1F
100
AcDbEntity
  8
Object
100
AcDbLine
 10
8.364383200294884
 20
4.091565233277788
 30
0.0
 11
8.340383200294883
 21
4.033565233277788
 31
0.0
  0
LINE
  5
340
330
1F
100
AcDbEntity
  8
Object
100
AcDbLine
 10
8.138383200294883
 20
3.911565233277787
 30
0.0
 11
8.081383200294883
 21
3.905565233277788
 31
0.0
  0
LINE
  5
341
330
1F
100
AcDbEntity
  8
Object
100
AcDbLine
 10
2.881383200294884
 20
6.530565233277788
 30
0.0
 11
2.881383200294884
 21
6.556565233277788
 31
0.0
  0
LINE
  5
342
330
1F
100
AcDbEntity
  8
Object
100
AcDbLine
 10
2.849383200294884
 20
6.525565233277788
 30
0.0
 11
2.820383200294884
 21
6.510565233277787
 31
0.0
  0
LINE
  5
343
330
1F
100
AcDbEntity
  8
Object
100
AcDbLine
 10
2.820383200294884
 20
6.510565233277787
 30
0.0
 11
2.798383200294884
 21
6.486565233277788
 31
0.0
  0
LINE
  5
344
330
1F
100
AcDbEntity
  8
Object
100
AcDbLine
 10
2.798383200294884
 20
6.486565233277788
 30
0.0
 11
2.785383200294884
 21
6.457565233277787
 31
0.0
  0
LINE
  5
345
330
1F
100
AcDbEntity
  8
Object
100
AcDbLine
 10
2.785383200294884
 20
6.457565233277787
 30
0.0
 11
2.782383200294884
 21
6.424565233277788
 31
0.0
  0
LINE
  5
346
330
1F
100
AcDbEntity
  8
Object
100
AcDbLine
 10
2.782383200294884
 20
6.424565233277788
 30
0.0
 11
2.941383200294882
 21
4.155565233277788
 31
0.0
  0
LINE
  5
347
330
1F
100
AcDbEntity
  8
Object
100
AcDbLine
 10
2.941383200294882
 20
4.155565233277788
 30
0.0
 11
2.915383200294883
 21
4.153565233277788
 31
0.0
  0
LINE
  5
348
330
1F
100
AcDbEntity
  8
Object
100
AcDbLine
 10
2.782383200294884
 20
6.424565233277788
 30
0.0
 11
2.756383200294884
 21
6.423565233277788
 31
0.0
  0
LINE
  5
349
330
1F
100
AcDbEntity
  8
Object
100
AcDbLine
 10
8.534383200294884
 20
6.423565233277788
 30
0.0
 11
8.534383200294884
 21
6.425565233277787
 31
0.0
  0
LINE
  5
34A
330
1F
100
AcDbEntity
  8
Object
100
AcDbLine
 10
8.534383200294884
 20
6.425565233277787
 30
0.0
 11
8.534383200294884
 21
6.428565233277788
 31
0.0
  0
LINE
  5
34B
330
1F
100
AcDbEntity
  8
Object
100
AcDbLine
 10
8.534383200294884
 20
6.428565233277788
 30
0.0
 11
8.534383200294884
 21
6.431565233277788
 31
0.0
  0
LINE
  5
34C
330
1F
100
AcDbEntity
  8
Object
100
AcDbLine
 10
8.500383200294884
 20
6.469565233277788
 30
0.0
 11
8.479383200294883
 21
6.501565233277788
 31
0.0
  0
LINE
  5
34D
330
1F
100
AcDbEntity
  8
Object
100
AcDbLine
 10
8.479383200294883
 20
6.501565233277788
 30
0.0
 11
8.447383200294883
 21
6.523565233277788
 31
0.0
  0
LINE
  5
34E
330
1F
100
AcDbEntity
  8
Object
100
AcDbLine
 10
8.500383200294884
 20
6.469565233277788
 30
0.0
 11
8.508383200294883
 21
6.431565233277788
 31
0.0
  0
LINE
  5
34F
330
1F
100
AcDbEntity
  8
Object
100
AcDbLine
 10
8.508383200294883
 20
6.431565233277788
 30
0.0
 11
8.508383200294883
 21
6.429565233277788
 31
0.0
  0
LINE
  5
350
330
1F
100
AcDbEntity
  8
Object
100
AcDbLine
 10
8.508383200294883
 20
6.429565233277788
 30
0.0
 11
8.508383200294883
 21
6.427565233277788
 31
0.0
  0
LINE
  5
351
330
1F
100
AcDbEntity
  8
Object
100
AcDbLine
 10
8.508383200294883
 20
6.427565233277788
 30
0.0
 11
8.507383200294883
 21
6.424565233277788
 31
0.0
  0
LINE
  5
352
330
1F
100
AcDbEntity
  8
Object
100
AcDbLine
 10
8.349383200294884
 20
4.155565233277788
 30
0.0
 11
8.339383200294884
 21
4.098565233277788
 31
0.0
  0
LINE
  5
353
330
1F
100
AcDbEntity
  8
Object
100
AcDbLine
 10
8.339383200294884
 20
4.098565233277788
 30
0.0
 11
8.317383200294884
 21
4.045565233277788
 31
0.0
  0
LINE
  5
354
330
1F
100
AcDbEntity
  8
Object
100
AcDbLine
 10
8.317383200294884
 20
4.045565233277788
 30
0.0
 11
8.284383200294884
 21
3.998565233277788
 31
0.0
  0
LINE
  5
355
330
1F
100
AcDbEntity
  8
Object
100
AcDbLine
 10
8.284383200294884
 20
3.998565233277788
 30
0.0
 11
8.242383200294884
 21
3.959565233277787
 31
0.0
  0
LINE
  5
356
330
1F
100
AcDbEntity
  8
Object
100
AcDbLine
 10
8.242383200294884
 20
3.959565233277787
 30
0.0
 11
8.193383200294883
 21
3.929565233277788
 31
0.0
  0
LINE
  5
357
330
1F
100
AcDbEntity
  8
Object
100
AcDbLine
 10
8.193383200294883
 20
3.929565233277788
 30
0.0
 11
8.138383200294883
 21
3.911565233277787
 31
0.0
  0
LINE
  5
358
330
1F
100
AcDbEntity
  8
Object
100
AcDbLine
 10
8.349383200294884
 20
4.155565233277788
 30
0.0
 11
8.507383200294883
 21
6.424565233277788
 31
0.0
  0
LINE
  5
359
330
1F
100
AcDbEntity
  8
Object
100
AcDbLine
 10
3.151383200294883
 20
3.911565233277787
 30
0.0
 11
3.208383200294884
 21
3.905565233277788
 31
0.0
  0
LINE
  5
35A
330
1F
100
AcDbEntity
  8
Object
100
AcDbLine
 10
8.409383200294884
 20
6.530565233277788
 30
0.0
 11
2.881383200294884
 21
6.530565233277788
 31
0.0
  0
LINE
  5
35B
330
1F
100
AcDbEntity
  8
Object
100
AcDbLine
 10
2.881383200294884
 20
6.530565233277788
 30
0.0
 11
2.849383200294884
 21
6.525565233277788
 31
0.0
  0
LINE
  5
35C
330
1F
100
AcDbEntity
  8
Object
100
AcDbLine
 10
4.306383200294884
 20
5.295565233277788
 30
0.0
 11
4.482383200294884
 21
5.295565233277788
 31
0.0
  0
LINE
  5
35D
330
1F
100
AcDbEntity
  8
Object
100
AcDbLine
 10
6.198383200294884
 20
5.621565233277788
 30
0.0
 11
6.076383200294883
 21
5.621565233277788
 31
0.0
  0
LINE
  5
35E
330
1F
100
AcDbEntity
  8
Object
100
AcDbLine
 10
6.808383200294883
 20
5.508565233277788
 30
0.0
 11
6.891383200294884
 21
5.508565233277788
 31
0.0
  0
LINE
  5
35F
330
1F
100
AcDbEntity
  8
Object
100
AcDbLine
 10
7.060383200294883
 20
5.100565233277787
 30
0.0
 11
7.060383200294883
 21
5.508565233277788
 31
0.0
  0
LINE
  5
360
330
1F
100
AcDbEntity
  8
Object
100
AcDbLine
 10
6.144383200294884
 20
5.070565233277788
 30
0.0
 11
6.106383200294883
 21
5.077565233277788
 31
0.0
  0
LINE
  5
361
330
1F
100
AcDbEntity
  8
Object
100
AcDbLine
 10
6.106383200294883
 20
5.077565233277788
 30
0.0
 11
6.074383200294883
 21
5.099565233277788
 31
0.0
  0
LINE
  5
362
330
1F
100
AcDbEntity
  8
Object
100
AcDbLine
 10
6.074383200294883
 20
5.099565233277788
 30
0.0
 11
6.053383200294883
 21
5.131565233277788
 31
0.0
  0
LINE
  5
363
330
1F
100
AcDbEntity
  8
Object
100
AcDbLine
 10
6.053383200294883
 20
5.131565233277788
 30
0.0
 11
6.046383200294884
 21
5.168565233277788
 31
0.0
  0
LINE
  5
364
330
1F
100
AcDbEntity
  8
Object
100
AcDbLine
 10
6.439383200294884
 20
5.168565233277788
 30
0.0
 11
6.439383200294884
 21
5.591565233277788
 31
0.0
  0
LINE
  5
365
330
1F
100
AcDbEntity
  8
Object
100
AcDbLine
 10
6.324383200294883
 20
5.225565233277787
 30
0.0
 11
6.320383200294884
 21
5.210565233277788
 31
0.0
  0
LINE
  5
366
330
1F
100
AcDbEntity
  8
Object
100
AcDbLine
 10
6.320383200294884
 20
5.210565233277788
 30
0.0
 11
6.310383200294883
 21
5.200565233277788
 31
0.0
  0
LINE
  5
367
330
1F
100
AcDbEntity
  8
Object
100
AcDbLine
 10
6.310383200294883
 20
5.200565233277788
 30
0.0
 11
6.295383200294883
 21
5.196565233277787
 31
0.0
  0
LINE
  5
368
330
1F
100
AcDbEntity
  8
Object
100
AcDbLine
 10
4.505383200294883
 20
5.111565233277788
 30
0.0
 11
4.503383200294884
 21
5.108565233277788
 31
0.0
  0
LINE
  5
369
330
1F
100
AcDbEntity
  8
Object
100
AcDbLine
 10
4.503383200294884
 20
5.108565233277788
 30
0.0
 11
4.502383200294883
 21
5.104565233277788
 31
0.0
  0
LINE
  5
36A
330
1F
100
AcDbEntity
  8
Object
100
AcDbLine
 10
4.502383200294883
 20
5.104565233277788
 30
0.0
 11
4.502383200294883
 21
5.100565233277787
 31
0.0
  0
LINE
  5
36B
330
1F
100
AcDbEntity
  8
Object
100
AcDbLine
 10
5.024383200294884
 20
5.591565233277788
 30
0.0
 11
5.024383200294884
 21
5.262565233277788
 31
0.0
  0
LINE
  5
36C
330
1F
100
AcDbEntity
  8
Object
100
AcDbLine
 10
5.572383200294884
 20
5.070565233277788
 30
0.0
 11
5.851383200294884
 21
5.070565233277788
 31
0.0
  0
LINE
  5
36D
330
1F
100
AcDbEntity
  8
Object
100
AcDbLine
 10
6.324383200294883
 20
5.591565233277788
 30
0.0
 11
6.324383200294883
 21
5.225565233277787
 31
0.0
  0
LINE
  5
36E
330
1F
100
AcDbEntity
  8
Object
100
AcDbLine
 10
6.921383200294884
 20
5.070565233277788
 30
0.0
 11
6.906383200294883
 21
5.074565233277787
 31
0.0
  0
LINE
  5
36F
330
1F
100
AcDbEntity
  8
Object
100
AcDbLine
 10
6.906383200294883
 20
5.074565233277787
 30
0.0
 11
6.895383200294883
 21
5.085565233277788
 31
0.0
  0
LINE
  5
370
330
1F
100
AcDbEntity
  8
Object
100
AcDbLine
 10
6.895383200294883
 20
5.085565233277788
 30
0.0
 11
6.891383200294884
 21
5.100565233277787
 31
0.0
  0
LINE
  5
371
330
1F
100
AcDbEntity
  8
Object
100
AcDbLine
 10
7.186383200294883
 20
5.538565233277788
 30
0.0
 11
7.186383200294883
 21
5.591565233277788
 31
0.0
  0
LINE
  5
372
330
1F
100
AcDbEntity
  8
Object
100
AcDbLine
 10
6.778383200294883
 20
5.591565233277788
 30
0.0
 11
6.778383200294883
 21
5.538565233277788
 31
0.0
  0
LINE
  5
373
330
1F
100
AcDbEntity
  8
Object
100
AcDbLine
 10
4.532383200294884
 20
5.070565233277788
 30
0.0
 11
4.517383200294884
 21
5.074565233277787
 31
0.0
  0
LINE
  5
374
330
1F
100
AcDbEntity
  8
Object
100
AcDbLine
 10
4.517383200294884
 20
5.074565233277787
 30
0.0
 11
4.506383200294884
 21
5.085565233277788
 31
0.0
  0
LINE
  5
375
330
1F
100
AcDbEntity
  8
Object
100
AcDbLine
 10
4.506383200294884
 20
5.085565233277788
 30
0.0
 11
4.502383200294883
 21
5.100565233277787
 31
0.0
  0
LINE
  5
376
330
1F
100
AcDbEntity
  8
Object
100
AcDbLine
 10
4.658383200294884
 20
5.088565233277788
 30
0.0
 11
4.651383200294883
 21
5.078565233277788
 31
0.0
  0
LINE
  5
377
330
1F
100
AcDbEntity
  8
Object
100
AcDbLine
 10
4.651383200294883
 20
5.078565233277788
 30
0.0
 11
4.641383200294884
 21
5.072565233277788
 31
0.0
  0
LINE
  5
378
330
1F
100
AcDbEntity
  8
Object
100
AcDbLine
 10
4.641383200294884
 20
5.072565233277788
 30
0.0
 11
4.630383200294883
 21
5.070565233277788
 31
0.0
  0
LINE
  5
379
330
1F
100
AcDbEntity
  8
Object
100
AcDbLine
 10
4.893383200294883
 20
5.149565233277788
 30
0.0
 11
4.924383200294883
 21
5.087565233277787
 31
0.0
  0
LINE
  5
37A
330
1F
100
AcDbEntity
  8
Object
100
AcDbLine
 10
5.299383200294884
 20
5.070565233277788
 30
0.0
 11
5.288383200294884
 21
5.072565233277788
 31
0.0
  0
LINE
  5
37B
330
1F
100
AcDbEntity
  8
Object
100
AcDbLine
 10
5.288383200294884
 20
5.072565233277788
 30
0.0
 11
5.278383200294883
 21
5.078565233277788
 31
0.0
  0
LINE
  5
37C
330
1F
100
AcDbEntity
  8
Object
100
AcDbLine
 10
5.278383200294883
 20
5.078565233277788
 30
0.0
 11
5.272383200294884
 21
5.088565233277788
 31
0.0
  0
LINE
  5
37D
330
1F
100
AcDbEntity
  8
Object
100
AcDbLine
 10
5.335383200294883
 20
5.621565233277788
 30
0.0
 11
5.320383200294884
 21
5.617565233277788
 31
0.0
  0
LINE
  5
37E
330
1F
100
AcDbEntity
  8
Object
100
AcDbLine
 10
5.320383200294884
 20
5.617565233277788
 30
0.0
 11
5.309383200294884
 21
5.606565233277787
 31
0.0
  0
LINE
  5
37F
330
1F
100
AcDbEntity
  8
Object
100
AcDbLine
 10
5.309383200294884
 20
5.606565233277787
 30
0.0
 11
5.305383200294883
 21
5.591565233277788
 31
0.0
  0
LINE
  5
380
330
1F
100
AcDbEntity
  8
Object
100
AcDbLine
 10
4.012383200294884
 20
5.070565233277788
 30
0.0
 11
3.997383200294883
 21
5.074565233277787
 31
0.0
  0
LINE
  5
381
330
1F
100
AcDbEntity
  8
Object
100
AcDbLine
 10
3.997383200294883
 20
5.074565233277787
 30
0.0
 11
3.986383200294883
 21
5.085565233277788
 31
0.0
  0
LINE
  5
382
330
1F
100
AcDbEntity
  8
Object
100
AcDbLine
 10
3.986383200294883
 20
5.085565233277788
 30
0.0
 11
3.982383200294883
 21
5.100565233277787
 31
0.0
  0
LINE
  5
383
330
1F
100
AcDbEntity
  8
Object
100
AcDbLine
 10
6.228383200294883
 20
5.591565233277788
 30
0.0
 11
6.224383200294884
 21
5.606565233277787
 31
0.0
  0
LINE
  5
384
330
1F
100
AcDbEntity
  8
Object
100
AcDbLine
 10
6.224383200294884
 20
5.606565233277787
 30
0.0
 11
6.213383200294884
 21
5.617565233277788
 31
0.0
  0
LINE
  5
385
330
1F
100
AcDbEntity
  8
Object
100
AcDbLine
 10
6.213383200294884
 20
5.617565233277788
 30
0.0
 11
6.198383200294884
 21
5.621565233277788
 31
0.0
  0
LINE
  5
386
330
1F
100
AcDbEntity
  8
Object
100
AcDbLine
 10
6.682383200294884
 20
5.100565233277787
 30
0.0
 11
6.678383200294883
 21
5.085565233277788
 31
0.0
  0
LINE
  5
387
330
1F
100
AcDbEntity
  8
Object
100
AcDbLine
 10
6.678383200294883
 20
5.085565233277788
 30
0.0
 11
6.667383200294883
 21
5.074565233277787
 31
0.0
  0
LINE
  5
388
330
1F
100
AcDbEntity
  8
Object
100
AcDbLine
 10
6.667383200294883
 20
5.074565233277787
 30
0.0
 11
6.652383200294884
 21
5.070565233277788
 31
0.0
  0
LINE
  5
389
330
1F
100
AcDbEntity
  8
Object
100
AcDbLine
 10
6.921383200294884
 20
5.070565233277788
 30
0.0
 11
7.030383200294884
 21
5.070565233277788
 31
0.0
  0
LINE
  5
38A
330
1F
100
AcDbEntity
  8
Object
100
AcDbLine
 10
4.658383200294884
 20
5.088565233277788
 30
0.0
 11
4.683383200294883
 21
5.149565233277788
 31
0.0
  0
LINE
  5
38B
330
1F
100
AcDbEntity
  8
Object
100
AcDbLine
 10
5.178383200294883
 20
5.100565233277787
 30
0.0
 11
5.178383200294883
 21
5.304565233277788
 31
0.0
  0
LINE
  5
38C
330
1F
100
AcDbEntity
  8
Object
100
AcDbLine
 10
4.012383200294884
 20
5.790565233277788
 30
0.0
 11
3.997383200294883
 21
5.786565233277787
 31
0.0
  0
LINE
  5
38D
330
1F
100
AcDbEntity
  8
Object
100
AcDbLine
 10
3.997383200294883
 20
5.786565233277787
 30
0.0
 11
3.986383200294883
 21
5.775565233277788
 31
0.0
  0
LINE
  5
38E
330
1F
100
AcDbEntity
  8
Object
100
AcDbLine
 10
3.986383200294883
 20
5.775565233277788
 30
0.0
 11
3.982383200294883
 21
5.760565233277787
 31
0.0
  0
LINE
  5
38F
330
1F
100
AcDbEntity
  8
Object
100
AcDbLine
 10
5.950383200294884
 20
5.168565233277788
 30
0.0
 11
5.950383200294884
 21
5.522565233277788
 31
0.0
  0
LINE
  5
390
330
1F
100
AcDbEntity
  8
Object
100
AcDbLine
 10
5.572383200294884
 20
5.070565233277788
 30
0.0
 11
5.557383200294884
 21
5.074565233277787
 31
0.0
  0
LINE
  5
391
330
1F
100
AcDbEntity
  8
Object
100
AcDbLine
 10
5.557383200294884
 20
5.074565233277787
 30
0.0
 11
5.546383200294884
 21
5.085565233277788
 31
0.0
  0
LINE
  5
392
330
1F
100
AcDbEntity
  8
Object
100
AcDbLine
 10
5.546383200294884
 20
5.085565233277788
 30
0.0
 11
5.542383200294883
 21
5.100565233277787
 31
0.0
  0
LINE
  5
393
330
1F
100
AcDbEntity
  8
Object
100
AcDbLine
 10
6.076383200294883
 20
5.621565233277788
 30
0.0
 11
6.061383200294883
 21
5.617565233277788
 31
0.0
  0
LINE
  5
394
330
1F
100
AcDbEntity
  8
Object
100
AcDbLine
 10
6.061383200294883
 20
5.617565233277788
 30
0.0
 11
6.050383200294883
 21
5.606565233277787
 31
0.0
  0
LINE
  5
395
330
1F
100
AcDbEntity
  8
Object
100
AcDbLine
 10
6.050383200294883
 20
5.606565233277787
 30
0.0
 11
6.046383200294884
 21
5.591565233277788
 31
0.0
  0
LINE
  5
396
330
1F
100
AcDbEntity
  8
Object
100
AcDbLine
 10
6.682383200294884
 20
5.591565233277788
 30
0.0
 11
6.678383200294883
 21
5.606565233277787
 31
0.0
  0
LINE
  5
397
330
1F
100
AcDbEntity
  8
Object
100
AcDbLine
 10
6.678383200294883
 20
5.606565233277787
 30
0.0
 11
6.667383200294883
 21
5.617565233277788
 31
0.0
  0
LINE
  5
398
330
1F
100
AcDbEntity
  8
Object
100
AcDbLine
 10
6.667383200294883
 20
5.617565233277788
 30
0.0
 11
6.652383200294884
 21
5.621565233277788
 31
0.0
  0
LINE
  5
399
330
1F
100
AcDbEntity
  8
Object
100
AcDbLine
 10
6.808383200294883
 20
5.621565233277788
 30
0.0
 11
6.793383200294884
 21
5.617565233277788
 31
0.0
  0
LINE
  5
39A
330
1F
100
AcDbEntity
  8
Object
100
AcDbLine
 10
6.793383200294884
 20
5.617565233277788
 30
0.0
 11
6.782383200294884
 21
5.606565233277787
 31
0.0
  0
LINE
  5
39B
330
1F
100
AcDbEntity
  8
Object
100
AcDbLine
 10
6.782383200294884
 20
5.606565233277787
 30
0.0
 11
6.778383200294883
 21
5.591565233277788
 31
0.0
  0
LINE
  5
39C
330
1F
100
AcDbEntity
  8
Object
100
AcDbLine
 10
4.591383200294884
 20
5.320565233277788
 30
0.0
 11
4.505383200294883
 21
5.111565233277788
 31
0.0
  0
LINE
  5
39D
330
1F
100
AcDbEntity
  8
Object
100
AcDbLine
 10
5.299383200294884
 20
5.070565233277788
 30
0.0
 11
5.416383200294884
 21
5.070565233277788
 31
0.0
  0
LINE
  5
39E
330
1F
100
AcDbEntity
  8
Object
100
AcDbLine
 10
5.446383200294883
 20
5.591565233277788
 30
0.0
 11
5.442383200294884
 21
5.606565233277787
 31
0.0
  0
LINE
  5
39F
330
1F
100
AcDbEntity
  8
Object
100
AcDbLine
 10
5.442383200294884
 20
5.606565233277787
 30
0.0
 11
5.431383200294884
 21
5.617565233277788
 31
0.0
  0
LINE
  5
3A0
330
1F
100
AcDbEntity
  8
Object
100
AcDbLine
 10
5.431383200294884
 20
5.617565233277788
 30
0.0
 11
5.416383200294884
 21
5.621565233277788
 31
0.0
  0
LINE
  5
3A1
330
1F
100
AcDbEntity
  8
Object
100
AcDbLine
 10
6.439383200294884
 20
5.591565233277788
 30
0.0
 11
6.435383200294883
 21
5.606565233277787
 31
0.0
  0
LINE
  5
3A2
330
1F
100
AcDbEntity
  8
Object
100
AcDbLine
 10
6.435383200294883
 20
5.606565233277787
 30
0.0
 11
6.424383200294884
 21
5.617565233277788
 31
0.0
  0
LINE
  5
3A3
330
1F
100
AcDbEntity
  8
Object
100
AcDbLine
 10
6.424383200294884
 20
5.617565233277788
 30
0.0
 11
6.409383200294883
 21
5.621565233277788
 31
0.0
  0
LINE
  5
3A4
330
1F
100
AcDbEntity
  8
Object
100
AcDbLine
 10
7.186383200294883
 20
5.591565233277788
 30
0.0
 11
7.182383200294884
 21
5.606565233277787
 31
0.0
  0
LINE
  5
3A5
330
1F
100
AcDbEntity
  8
Object
100
AcDbLine
 10
7.182383200294884
 20
5.606565233277787
 30
0.0
 11
7.171383200294884
 21
5.617565233277788
 31
0.0
  0
LINE
  5
3A6
330
1F
100
AcDbEntity
  8
Object
100
AcDbLine
 10
7.171383200294884
 20
5.617565233277788
 30
0.0
 11
7.156383200294883
 21
5.621565233277788
 31
0.0
  0
LINE
  5
3A7
330
1F
100
AcDbEntity
  8
Object
100
AcDbLine
 10
5.178383200294883
 20
5.304565233277788
 30
0.0
 11
5.272383200294884
 21
5.088565233277788
 31
0.0
  0
LINE
  5
3A8
330
1F
100
AcDbEntity
  8
Object
100
AcDbLine
 10
4.717383200294883
 20
5.621565233277788
 30
0.0
 11
4.690383200294883
 21
5.676565233277788
 31
0.0
  0
LINE
  5
3A9
330
1F
100
AcDbEntity
  8
Object
100
AcDbLine
 10
4.690383200294883
 20
5.676565233277788
 30
0.0
 11
4.651383200294883
 21
5.724565233277788
 31
0.0
  0
LINE
  5
3AA
330
1F
100
AcDbEntity
  8
Object
100
AcDbLine
 10
4.651383200294883
 20
5.724565233277788
 30
0.0
 11
4.601383200294884
 21
5.760565233277787
 31
0.0
  0
LINE
  5
3AB
330
1F
100
AcDbEntity
  8
Object
100
AcDbLine
 10
4.601383200294884
 20
5.760565233277787
 30
0.0
 11
4.544383200294883
 21
5.782565233277788
 31
0.0
  0
LINE
  5
3AC
330
1F
100
AcDbEntity
  8
Object
100
AcDbLine
 10
4.544383200294883
 20
5.782565233277788
 30
0.0
 11
4.482383200294884
 21
5.790565233277788
 31
0.0
  0
LINE
  5
3AD
330
1F
100
AcDbEntity
  8
Object
100
AcDbLine
 10
5.950383200294884
 20
5.168565233277788
 30
0.0
 11
5.942383200294884
 21
5.131565233277788
 31
0.0
  0
LINE
  5
3AE
330
1F
100
AcDbEntity
  8
Object
100
AcDbLine
 10
5.942383200294884
 20
5.131565233277788
 30
0.0
 11
5.921383200294884
 21
5.099565233277788
 31
0.0
  0
LINE
  5
3AF
330
1F
100
AcDbEntity
  8
Object
100
AcDbLine
 10
5.921383200294884
 20
5.099565233277788
 30
0.0
 11
5.889383200294884
 21
5.077565233277788
 31
0.0
  0
LINE
  5
3B0
330
1F
100
AcDbEntity
  8
Object
100
AcDbLine
 10
5.889383200294884
 20
5.077565233277788
 30
0.0
 11
5.851383200294884
 21
5.070565233277788
 31
0.0
  0
LINE
  5
3B1
330
1F
100
AcDbEntity
  8
Object
100
AcDbLine
 10
6.409383200294883
 20
5.621565233277788
 30
0.0
 11
6.354383200294884
 21
5.621565233277788
 31
0.0
  0
LINE
  5
3B2
330
1F
100
AcDbEntity
  8
Object
100
AcDbLine
 10
4.951383200294883
 20
5.070565233277788
 30
0.0
 11
4.940383200294883
 21
5.072565233277788
 31
0.0
  0
LINE
  5
3B3
330
1F
100
AcDbEntity
  8
Object
100
AcDbLine
 10
4.940383200294883
 20
5.072565233277788
 30
0.0
 11
4.930383200294883
 21
5.078565233277788
 31
0.0
  0
LINE
  5
3B4
330
1F
100
AcDbEntity
  8
Object
100
AcDbLine
 10
4.930383200294883
 20
5.078565233277788
 30
0.0
 11
4.924383200294883
 21
5.087565233277787
 31
0.0
  0
LINE
  5
3B5
330
1F
100
AcDbEntity
  8
Object
100
AcDbLine
 10
5.416383200294884
 20
5.621565233277788
 30
0.0
 11
5.335383200294883
 21
5.621565233277788
 31
0.0
  0
LINE
  5
3B6
330
1F
100
AcDbEntity
  8
Object
100
AcDbLine
 10
4.843383200294884
 20
5.621565233277788
 30
0.0
 11
4.717383200294883
 21
5.621565233277788
 31
0.0
  0
LINE
  5
3B7
330
1F
100
AcDbEntity
  8
Object
100
AcDbLine
 10
4.306383200294884
 20
5.100565233277787
 30
0.0
 11
4.306383200294884
 21
5.295565233277788
 31
0.0
  0
LINE
  5
3B8
330
1F
100
AcDbEntity
  8
Object
100
AcDbLine
 10
4.951383200294883
 20
5.070565233277788
 30
0.0
 11
5.148383200294883
 21
5.070565233277788
 31
0.0
  0
LINE
  5
3B9
330
1F
100
AcDbEntity
  8
Object
100
AcDbLine
 10
5.950383200294884
 20
5.522565233277788
 30
0.0
 11
5.942383200294884
 21
5.560565233277788
 31
0.0
  0
LINE
  5
3BA
330
1F
100
AcDbEntity
  8
Object
100
AcDbLine
 10
5.942383200294884
 20
5.560565233277788
 30
0.0
 11
5.921383200294884
 21
5.592565233277788
 31
0.0
  0
LINE
  5
3BB
330
1F
100
AcDbEntity
  8
Object
100
AcDbLine
 10
5.921383200294884
 20
5.592565233277788
 30
0.0
 11
5.889383200294884
 21
5.613565233277787
 31
0.0
  0
LINE
  5
3BC
330
1F
100
AcDbEntity
  8
Object
100
AcDbLine
 10
5.889383200294884
 20
5.613565233277787
 30
0.0
 11
5.851383200294884
 21
5.621565233277788
 31
0.0
  0
LINE
  5
3BD
330
1F
100
AcDbEntity
  8
Object
100
AcDbLine
 10
6.295383200294883
 20
5.196565233277787
 30
0.0
 11
6.256383200294884
 21
5.196565233277787
 31
0.0
  0
LINE
  5
3BE
330
1F
100
AcDbEntity
  8
Object
100
AcDbLine
 10
5.446383200294883
 20
5.100565233277787
 30
0.0
 11
5.446383200294883
 21
5.591565233277788
 31
0.0
  0
LINE
  5
3BF
330
1F
100
AcDbEntity
  8
Object
100
AcDbLine
 10
4.482383200294884
 20
5.790565233277788
 30
0.0
 11
4.012383200294884
 21
5.790565233277788
 31
0.0
  0
LINE
  5
3C0
330
1F
100
AcDbEntity
  8
Object
100
AcDbLine
 10
3.982383200294883
 20
5.760565233277787
 30
0.0
 11
3.982383200294883
 21
5.100565233277787
 31
0.0
  0
LINE
  5
3C1
330
1F
100
AcDbEntity
  8
Object
100
AcDbLine
 10
5.851383200294884
 20
5.621565233277788
 30
0.0
 11
5.572383200294884
 21
5.621565233277788
 31
0.0
  0
LINE
  5
3C2
330
1F
100
AcDbEntity
  8
Object
100
AcDbLine
 10
6.354383200294884
 20
5.621565233277788
 30
0.0
 11
6.339383200294883
 21
5.617565233277788
 31
0.0
  0
LINE
  5
3C3
330
1F
100
AcDbEntity
  8
Object
100
AcDbLine
 10
6.339383200294883
 20
5.617565233277788
 30
0.0
 11
6.328383200294884
 21
5.606565233277787
 31
0.0
  0
LINE
  5
3C4
330
1F
100
AcDbEntity
  8
Object
100
AcDbLine
 10
6.328383200294884
 20
5.606565233277787
 30
0.0
 11
6.324383200294883
 21
5.591565233277788
 31
0.0
  0
LINE
  5
3C5
330
1F
100
AcDbEntity
  8
Object
100
AcDbLine
 10
6.256383200294884
 20
5.196565233277787
 30
0.0
 11
6.242383200294884
 21
5.200565233277788
 31
0.0
  0
LINE
  5
3C6
330
1F
100
AcDbEntity
  8
Object
100
AcDbLine
 10
6.242383200294884
 20
5.200565233277788
 30
0.0
 11
6.231383200294883
 21
5.210565233277788
 31
0.0
  0
LINE
  5
3C7
330
1F
100
AcDbEntity
  8
Object
100
AcDbLine
 10
6.231383200294883
 20
5.210565233277788
 30
0.0
 11
6.228383200294883
 21
5.225565233277787
 31
0.0
  0
LINE
  5
3C8
330
1F
100
AcDbEntity
  8
Object
100
AcDbLine
 10
7.186383200294883
 20
5.538565233277788
 30
0.0
 11
7.182383200294884
 21
5.523565233277787
 31
0.0
  0
LINE
  5
3C9
330
1F
100
AcDbEntity
  8
Object
100
AcDbLine
 10
7.182383200294884
 20
5.523565233277787
 30
0.0
 11
7.171383200294884
 21
5.512565233277788
 31
0.0
  0
LINE
  5
3CA
330
1F
100
AcDbEntity
  8
Object
100
AcDbLine
 10
7.171383200294884
 20
5.512565233277788
 30
0.0
 11
7.156383200294883
 21
5.508565233277788
 31
0.0
  0
LINE
  5
3CB
330
1F
100
AcDbEntity
  8
Object
100
AcDbLine
 10
4.591383200294884
 20
5.320565233277788
 30
0.0
 11
4.556383200294884
 21
5.306565233277788
 31
0.0
  0
LINE
  5
3CC
330
1F
100
AcDbEntity
  8
Object
100
AcDbLine
 10
4.556383200294884
 20
5.306565233277788
 30
0.0
 11
4.520383200294883
 21
5.297565233277788
 31
0.0
  0
LINE
  5
3CD
330
1F
100
AcDbEntity
  8
Object
100
AcDbLine
 10
4.520383200294883
 20
5.297565233277788
 30
0.0
 11
4.482383200294884
 21
5.295565233277788
 31
0.0
  0
LINE
  5
3CE
330
1F
100
AcDbEntity
  8
Object
100
AcDbLine
 10
4.683383200294883
 20
5.149565233277788
 30
0.0
 11
4.893383200294883
 21
5.149565233277788
 31
0.0
  0
LINE
  5
3CF
330
1F
100
AcDbEntity
  8
Object
100
AcDbLine
 10
5.305383200294883
 20
5.396565233277788
 30
0.0
 11
5.216383200294884
 21
5.603565233277787
 31
0.0
  0
LINE
  5
3D0
330
1F
100
AcDbEntity
  8
Object
100
AcDbLine
 10
5.216383200294884
 20
5.603565233277787
 30
0.0
 11
5.209383200294883
 21
5.612565233277788
 31
0.0
  0
LINE
  5
3D1
330
1F
100
AcDbEntity
  8
Object
100
AcDbLine
 10
5.209383200294883
 20
5.612565233277788
 30
0.0
 11
5.199383200294883
 21
5.619565233277787
 31
0.0
  0
LINE
  5
3D2
330
1F
100
AcDbEntity
  8
Object
100
AcDbLine
 10
5.199383200294883
 20
5.619565233277787
 30
0.0
 11
5.188383200294883
 21
5.621565233277788
 31
0.0
  0
LINE
  5
3D3
330
1F
100
AcDbEntity
  8
Object
100
AcDbLine
 10
6.439383200294884
 20
5.168565233277788
 30
0.0
 11
6.431383200294884
 21
5.131565233277788
 31
0.0
  0
LINE
  5
3D4
330
1F
100
AcDbEntity
  8
Object
100
AcDbLine
 10
6.431383200294884
 20
5.131565233277788
 30
0.0
 11
6.410383200294884
 21
5.099565233277788
 31
0.0
  0
LINE
  5
3D5
330
1F
100
AcDbEntity
  8
Object
100
AcDbLine
 10
6.410383200294884
 20
5.099565233277788
 30
0.0
 11
6.378383200294884
 21
5.077565233277788
 31
0.0
  0
LINE
  5
3D6
330
1F
100
AcDbEntity
  8
Object
100
AcDbLine
 10
6.378383200294884
 20
5.077565233277788
 30
0.0
 11
6.340383200294883
 21
5.070565233277788
 31
0.0
  0
LINE
  5
3D7
330
1F
100
AcDbEntity
  8
Object
100
AcDbLine
 10
4.306383200294884
 20
5.100565233277787
 30
0.0
 11
4.302383200294883
 21
5.085565233277788
 31
0.0
  0
LINE
  5
3D8
330
1F
100
AcDbEntity
  8
Object
100
AcDbLine
 10
4.302383200294883
 20
5.085565233277788
 30
0.0
 11
4.291383200294883
 21
5.074565233277787
 31
0.0
  0
LINE
  5
3D9
330
1F
100
AcDbEntity
  8
Object
100
AcDbLine
 10
4.291383200294883
 20
5.074565233277787
 30
0.0
 11
4.276383200294883
 21
5.070565233277788
 31
0.0
  0
LINE
  5
3DA
330
1F
100
AcDbEntity
  8
Object
100
AcDbLine
 10
6.808383200294883
 20
5.508565233277788
 30
0.0
 11
6.793383200294884
 21
5.512565233277788
 31
0.0
  0
LINE
  5
3DB
330
1F
100
AcDbEntity
  8
Object
100
AcDbLine
 10
6.793383200294884
 20
5.512565233277788
 30
0.0
 11
6.782383200294884
 21
5.523565233277787
 31
0.0
  0
LINE
  5
3DC
330
1F
100
AcDbEntity
  8
Object
100
AcDbLine
 10
6.782383200294884
 20
5.523565233277787
 30
0.0
 11
6.778383200294883
 21
5.538565233277788
 31
0.0
  0
LINE
  5
3DD
330
1F
100
AcDbEntity
  8
Object
100
AcDbLine
 10
5.178383200294883
 20
5.100565233277787
 30
0.0
 11
5.174383200294884
 21
5.085565233277788
 31
0.0
  0
LINE
  5
3DE
330
1F
100
AcDbEntity
  8
Object
100
AcDbLine
 10
5.174383200294884
 20
5.085565233277788
 30
0.0
 11
5.163383200294884
 21
5.074565233277787
 31
0.0
  0
LINE
  5
3DF
330
1F
100
AcDbEntity
  8
Object
100
AcDbLine
 10
5.163383200294884
 20
5.074565233277787
 30
0.0
 11
5.148383200294883
 21
5.070565233277788
 31
0.0
  0
LINE
  5
3E0
330
1F
100
AcDbEntity
  8
Object
100
AcDbLine
 10
5.542383200294883
 20
5.591565233277788
 30
0.0
 11
5.542383200294883
 21
5.100565233277787
 31
0.0
  0
LINE
  5
3E1
330
1F
100
AcDbEntity
  8
Object
100
AcDbLine
 10
6.144383200294884
 20
5.070565233277788
 30
0.0
 11
6.340383200294883
 21
5.070565233277788
 31
0.0
  0
LINE
  5
3E2
330
1F
100
AcDbEntity
  8
Object
100
AcDbLine
 10
6.535383200294884
 20
5.591565233277788
 30
0.0
 11
6.535383200294884
 21
5.100565233277787
 31
0.0
  0
LINE
  5
3E3
330
1F
100
AcDbEntity
  8
Object
100
AcDbLine
 10
6.565383200294884
 20
5.070565233277788
 30
0.0
 11
6.652383200294884
 21
5.070565233277788
 31
0.0
  0
LINE
  5
3E4
330
1F
100
AcDbEntity
  8
Object
100
AcDbLine
 10
6.682383200294884
 20
5.100565233277787
 30
0.0
 11
6.682383200294884
 21
5.591565233277788
 31
0.0
  0
LINE
  5
3E5
330
1F
100
AcDbEntity
  8
Object
100
AcDbLine
 10
4.532383200294884
 20
5.070565233277788
 30
0.0
 11
4.630383200294883
 21
5.070565233277788
 31
0.0
  0
LINE
  5
3E6
330
1F
100
AcDbEntity
  8
Object
100
AcDbLine
 10
5.188383200294883
 20
5.621565233277788
 30
0.0
 11
5.054383200294884
 21
5.621565233277788
 31
0.0
  0
LINE
  5
3E7
330
1F
100
AcDbEntity
  8
Object
100
AcDbLine
 10
5.572383200294884
 20
5.621565233277788
 30
0.0
 11
5.557383200294884
 21
5.617565233277788
 31
0.0
  0
LINE
  5
3E8
330
1F
100
AcDbEntity
  8
Object
100
AcDbLine
 10
5.557383200294884
 20
5.617565233277788
 30
0.0
 11
5.546383200294884
 21
5.606565233277787
 31
0.0
  0
LINE
  5
3E9
330
1F
100
AcDbEntity
  8
Object
100
AcDbLine
 10
5.546383200294884
 20
5.606565233277787
 30
0.0
 11
5.542383200294883
 21
5.591565233277788
 31
0.0
  0
LINE
  5
3EA
330
1F
100
AcDbEntity
  8
Object
100
AcDbLine
 10
6.228383200294883
 20
5.225565233277787
 30
0.0
 11
6.228383200294883
 21
5.591565233277788
 31
0.0
  0
LINE
  5
3EB
330
1F
100
AcDbEntity
  8
Object
100
AcDbLine
 10
6.046383200294884
 20
5.591565233277788
 30
0.0
 11
6.046383200294884
 21
5.168565233277788
 31
0.0
  0
LINE
  5
3EC
330
1F
100
AcDbEntity
  8
Object
100
AcDbLine
 10
6.652383200294884
 20
5.621565233277788
 30
0.0
 11
6.565383200294884
 21
5.621565233277788
 31
0.0
  0
LINE
  5
3ED
330
1F
100
AcDbEntity
  8
Object
100
AcDbLine
 10
6.565383200294884
 20
5.621565233277788
 30
0.0
 11
6.550383200294883
 21
5.617565233277788
 31
0.0
  0
LINE
  5
3EE
330
1F
100
AcDbEntity
  8
Object
100
AcDbLine
 10
6.550383200294883
 20
5.617565233277788
 30
0.0
 11
6.539383200294883
 21
5.606565233277787
 31
0.0
  0
LINE
  5
3EF
330
1F
100
AcDbEntity
  8
Object
100
AcDbLine
 10
6.539383200294883
 20
5.606565233277787
 30
0.0
 11
6.535383200294884
 21
5.591565233277788
 31
0.0
  0
LINE
  5
3F0
330
1F
100
AcDbEntity
  8
Object
100
AcDbLine
 10
6.891383200294884
 20
5.508565233277788
 30
0.0
 11
6.891383200294884
 21
5.100565233277787
 31
0.0
  0
LINE
  5
3F1
330
1F
100
AcDbEntity
  8
Object
100
AcDbLine
 10
7.060383200294883
 20
5.508565233277788
 30
0.0
 11
7.156383200294883
 21
5.508565233277788
 31
0.0
  0
LINE
  5
3F2
330
1F
100
AcDbEntity
  8
Object
100
AcDbLine
 10
5.446383200294883
 20
5.100565233277787
 30
0.0
 11
5.442383200294884
 21
5.085565233277788
 31
0.0
  0
LINE
  5
3F3
330
1F
100
AcDbEntity
  8
Object
100
AcDbLine
 10
5.442383200294884
 20
5.085565233277788
 30
0.0
 11
5.431383200294884
 21
5.074565233277787
 31
0.0
  0
LINE
  5
3F4
330
1F
100
AcDbEntity
  8
Object
100
AcDbLine
 10
5.431383200294884
 20
5.074565233277787
 30
0.0
 11
5.416383200294884
 21
5.070565233277788
 31
0.0
  0
LINE
  5
3F5
330
1F
100
AcDbEntity
  8
Object
100
AcDbLine
 10
5.305383200294883
 20
5.591565233277788
 30
0.0
 11
5.305383200294883
 21
5.396565233277788
 31
0.0
  0
LINE
  5
3F6
330
1F
100
AcDbEntity
  8
Object
100
AcDbLine
 10
5.024383200294884
 20
5.262565233277788
 30
0.0
 11
4.870383200294884
 21
5.603565233277787
 31
0.0
  0
LINE
  5
3F7
330
1F
100
AcDbEntity
  8
Object
100
AcDbLine
 10
4.870383200294884
 20
5.603565233277787
 30
0.0
 11
4.864383200294883
 21
5.613565233277787
 31
0.0
  0
LINE
  5
3F8
330
1F
100
AcDbEntity
  8
Object
100
AcDbLine
 10
4.864383200294883
 20
5.613565233277787
 30
0.0
 11
4.854383200294884
 21
5.619565233277787
 31
0.0
  0
LINE
  5
3F9
330
1F
100
AcDbEntity
  8
Object
100
AcDbLine
 10
4.854383200294884
 20
5.619565233277787
 30
0.0
 11
4.843383200294884
 21
5.621565233277788
 31
0.0
  0
LINE
  5
3FA
330
1F
100
AcDbEntity
  8
Object
100
AcDbLine
 10
7.060383200294883
 20
5.100565233277787
 30
0.0
 11
7.056383200294884
 21
5.085565233277788
 31
0.0
  0
LINE
  5
3FB
330
1F
100
AcDbEntity
  8
Object
100
AcDbLine
 10
7.056383200294884
 20
5.085565233277788
 30
0.0
 11
7.045383200294883
 21
5.074565233277787
 31
0.0
  0
LINE
  5
3FC
330
1F
100
AcDbEntity
  8
Object
100
AcDbLine
 10
7.045383200294883
 20
5.074565233277787
 30
0.0
 11
7.030383200294884
 21
5.070565233277788
 31
0.0
  0
LINE
  5
3FD
330
1F
100
AcDbEntity
  8
Object
100
AcDbLine
 10
7.156383200294883
 20
5.621565233277788
 30
0.0
 11
6.808383200294883
 21
5.621565233277788
 31
0.0
  0
LINE
  5
3FE
330
1F
100
AcDbEntity
  8
Object
100
AcDbLine
 10
5.054383200294884
 20
5.621565233277788
 30
0.0
 11
5.039383200294883
 21
5.617565233277788
 31
0.0
  0
LINE
  5
3FF
330
1F
100
AcDbEntity
  8
Object
100
AcDbLine
 10
5.039383200294883
 20
5.617565233277788
 30
0.0
 11
5.028383200294883
 21
5.606565233277787
 31
0.0
  0
LINE
  5
400
330
1F
100
AcDbEntity
  8
Object
100
AcDbLine
 10
5.028383200294883
 20
5.606565233277787
 30
0.0
 11
5.024383200294884
 21
5.591565233277788
 31
0.0
  0
LINE
  5
401
330
1F
100
AcDbEntity
  8
Object
100
AcDbLine
 10
4.012383200294884
 20
5.070565233277788
 30
0.0
 11
4.276383200294883
 21
5.070565233277788
 31
0.0
  0
LINE
  5
402
330
1F
100
AcDbEntity
  8
Object
100
AcDbLine
 10
6.565383200294884
 20
5.070565233277788
 30
0.0
 11
6.550383200294883
 21
5.074565233277787
 31
0.0
  0
LINE
  5
403
330
1F
100
AcDbEntity
  8
Object
100
AcDbLine
 10
6.550383200294883
 20
5.074565233277787
 30
0.0
 11
6.539383200294883
 21
5.085565233277788
 31
0.0
  0
LINE
  5
404
330
1F
100
AcDbEntity
  8
Object
100
AcDbLine
 10
6.539383200294883
 20
5.085565233277788
 30
0.0
 11
6.535383200294884
 21
5.100565233277787
 31
0.0
  0
LINE
  5
405
330
1F
100
AcDbEntity
  8
Object
100
AcDbLine
 10
5.416383200294884
 20
5.621565233277788
 30
0.0
 11
5.431383200294884
 21
5.617565233277788
 31
0.0
  0
LINE
  5
406
330
1F
100
AcDbEntity
  8
Object
100
AcDbLine
 10
5.431383200294884
 20
5.617565233277788
 30
0.0
 11
5.442383200294884
 21
5.606565233277787
 31
0.0
  0
LINE
  5
407
330
1F
100
AcDbEntity
  8
Object
100
AcDbLine
 10
5.442383200294884
 20
5.606565233277787
 30
0.0
 11
5.446383200294883
 21
5.591565233277788
 31
0.0
  0
LINE
  5
408
330
1F
100
AcDbEntity
  8
Object
100
AcDbLine
 10
5.446383200294883
 20
5.100565233277787
 30
0.0
 11
5.442383200294884
 21
5.085565233277788
 31
0.0
  0
LINE
  5
409
330
1F
100
AcDbEntity
  8
Object
100
AcDbLine
 10
5.442383200294884
 20
5.085565233277788
 30
0.0
 11
5.431383200294884
 21
5.074565233277787
 31
0.0
  0
LINE
  5
40A
330
1F
100
AcDbEntity
  8
Object
100
AcDbLine
 10
5.431383200294884
 20
5.074565233277787
 30
0.0
 11
5.416383200294884
 21
5.070565233277788
 31
0.0
  0
LINE
  5
40B
330
1F
100
AcDbEntity
  8
Object
100
AcDbLine
 10
5.416383200294884
 20
5.621565233277788
 30
0.0
 11
5.335383200294883
 21
5.621565233277788
 31
0.0
  0
LINE
  5
40C
330
1F
100
AcDbEntity
  8
Object
100
AcDbLine
 10
5.309383200294884
 20
5.606565233277787
 30
0.0
 11
5.320383200294884
 21
5.617565233277788
 31
0.0
  0
LINE
  5
40D
330
1F
100
AcDbEntity
  8
Object
100
AcDbLine
 10
5.320383200294884
 20
5.617565233277788
 30
0.0
 11
5.335383200294883
 21
5.621565233277788
 31
0.0
  0
LINE
  5
40E
330
1F
100
AcDbEntity
  8
Object
100
AcDbLine
 10
5.309383200294884
 20
5.606565233277787
 30
0.0
 11
5.305383200294883
 21
5.591565233277788
 31
0.0
  0
LINE
  5
40F
330
1F
100
AcDbEntity
  8
Object
100
AcDbLine
 10
5.305383200294883
 20
5.591565233277788
 30
0.0
 11
5.305383200294883
 21
5.396565233277788
 31
0.0
  0
LINE
  5
410
330
1F
100
AcDbEntity
  8
Object
100
AcDbLine
 10
5.446383200294883
 20
5.100565233277787
 30
0.0
 11
5.446383200294883
 21
5.591565233277788
 31
0.0
  0
LINE
  5
411
330
1F
100
AcDbEntity
  8
Object
100
AcDbLine
 10
5.416383200294884
 20
5.070565233277788
 30
0.0
 11
5.299383200294884
 21
5.070565233277788
 31
0.0
  0
LINE
  5
412
330
1F
100
AcDbEntity
  8
Object
100
AcDbLine
 10
5.299383200294884
 20
5.070565233277788
 30
0.0
 11
5.288383200294884
 21
5.072565233277788
 31
0.0
  0
LINE
  5
413
330
1F
100
AcDbEntity
  8
Object
100
AcDbLine
 10
5.288383200294884
 20
5.072565233277788
 30
0.0
 11
5.278383200294883
 21
5.078565233277788
 31
0.0
  0
LINE
  5
414
330
1F
100
AcDbEntity
  8
Object
100
AcDbLine
 10
5.278383200294883
 20
5.078565233277788
 30
0.0
 11
5.272383200294884
 21
5.088565233277788
 31
0.0
  0
LINE
  5
415
330
1F
100
AcDbEntity
  8
Object
100
AcDbLine
 10
5.188383200294883
 20
5.621565233277788
 30
0.0
 11
5.199383200294883
 21
5.619565233277787
 31
0.0
  0
LINE
  5
416
330
1F
100
AcDbEntity
  8
Object
100
AcDbLine
 10
5.199383200294883
 20
5.619565233277787
 30
0.0
 11
5.209383200294883
 21
5.612565233277788
 31
0.0
  0
LINE
  5
417
330
1F
100
AcDbEntity
  8
Object
100
AcDbLine
 10
5.209383200294883
 20
5.612565233277788
 30
0.0
 11
5.216383200294884
 21
5.603565233277787
 31
0.0
  0
LINE
  5
418
330
1F
100
AcDbEntity
  8
Object
100
AcDbLine
 10
5.216383200294884
 20
5.603565233277787
 30
0.0
 11
5.305383200294883
 21
5.396565233277788
 31
0.0
  0
LINE
  5
419
330
1F
100
AcDbEntity
  8
Object
100
AcDbLine
 10
5.178383200294883
 20
5.304565233277788
 30
0.0
 11
5.272383200294884
 21
5.088565233277788
 31
0.0
  0
LINE
  5
41A
330
1F
100
AcDbEntity
  8
Object
100
AcDbLine
 10
5.178383200294883
 20
5.100565233277787
 30
0.0
 11
5.174383200294884
 21
5.085565233277788
 31
0.0
  0
LINE
  5
41B
330
1F
100
AcDbEntity
  8
Object
100
AcDbLine
 10
5.174383200294884
 20
5.085565233277788
 30
0.0
 11
5.163383200294884
 21
5.074565233277787
 31
0.0
  0
LINE
  5
41C
330
1F
100
AcDbEntity
  8
Object
100
AcDbLine
 10
5.163383200294884
 20
5.074565233277787
 30
0.0
 11
5.148383200294883
 21
5.070565233277788
 31
0.0
  0
LINE
  5
41D
330
1F
100
AcDbEntity
  8
Object
100
AcDbLine
 10
5.028383200294883
 20
5.606565233277787
 30
0.0
 11
5.039383200294883
 21
5.617565233277788
 31
0.0
  0
LINE
  5
41E
330
1F
100
AcDbEntity
  8
Object
100
AcDbLine
 10
5.039383200294883
 20
5.617565233277788
 30
0.0
 11
5.054383200294884
 21
5.621565233277788
 31
0.0
  0
LINE
  5
41F
330
1F
100
AcDbEntity
  8
Object
100
AcDbLine
 10
5.054383200294884
 20
5.621565233277788
 30
0.0
 11
5.188383200294883
 21
5.621565233277788
 31
0.0
  0
LINE
  5
420
330
1F
100
AcDbEntity
  8
Object
100
AcDbLine
 10
5.028383200294883
 20
5.606565233277787
 30
0.0
 11
5.024383200294884
 21
5.591565233277788
 31
0.0
  0
LINE
  5
421
330
1F
100
AcDbEntity
  8
Object
100
AcDbLine
 10
5.178383200294883
 20
5.100565233277787
 30
0.0
 11
5.178383200294883
 21
5.304565233277788
 31
0.0
  0
LINE
  5
422
330
1F
100
AcDbEntity
  8
Object
100
AcDbLine
 10
5.024383200294884
 20
5.591565233277788
 30
0.0
 11
5.024383200294884
 21
5.262565233277788
 31
0.0
  0
LINE
  5
423
330
1F
100
AcDbEntity
  8
Object
100
AcDbLine
 10
5.148383200294883
 20
5.070565233277788
 30
0.0
 11
4.951383200294883
 21
5.070565233277788
 31
0.0
  0
LINE
  5
424
330
1F
100
AcDbEntity
  8
Object
100
AcDbLine
 10
4.951383200294883
 20
5.070565233277788
 30
0.0
 11
4.940383200294883
 21
5.072565233277788
 31
0.0
  0
LINE
  5
425
330
1F
100
AcDbEntity
  8
Object
100
AcDbLine
 10
4.940383200294883
 20
5.072565233277788
 30
0.0
 11
4.930383200294883
 21
5.078565233277788
 31
0.0
  0
LINE
  5
426
330
1F
100
AcDbEntity
  8
Object
100
AcDbLine
 10
4.930383200294883
 20
5.078565233277788
 30
0.0
 11
4.924383200294883
 21
5.087565233277787
 31
0.0
  0
LINE
  5
427
330
1F
100
AcDbEntity
  8
Object
100
AcDbLine
 10
4.924383200294883
 20
5.087565233277787
 30
0.0
 11
4.893383200294883
 21
5.149565233277788
 31
0.0
  0
LINE
  5
428
330
1F
100
AcDbEntity
  8
Object
100
AcDbLine
 10
4.870383200294884
 20
5.603565233277787
 30
0.0
 11
4.864383200294883
 21
5.613565233277787
 31
0.0
  0
LINE
  5
429
330
1F
100
AcDbEntity
  8
Object
100
AcDbLine
 10
4.843383200294884
 20
5.621565233277788
 30
0.0
 11
4.854383200294884
 21
5.619565233277787
 31
0.0
  0
LINE
  5
42A
330
1F
100
AcDbEntity
  8
Object
100
AcDbLine
 10
4.854383200294884
 20
5.619565233277787
 30
0.0
 11
4.864383200294883
 21
5.613565233277787
 31
0.0
  0
LINE
  5
42B
330
1F
100
AcDbEntity
  8
Object
100
AcDbLine
 10
4.787383200294883
 20
5.424565233277788
 30
0.0
 11
4.857383200294884
 21
5.269565233277788
 31
0.0
  0
LINE
  5
42C
330
1F
100
AcDbEntity
  8
Object
100
AcDbLine
 10
5.024383200294884
 20
5.262565233277788
 30
0.0
 11
4.870383200294884
 21
5.603565233277787
 31
0.0
  0
LINE
  5
42D
330
1F
100
AcDbEntity
  8
Object
100
AcDbLine
 10
4.843383200294884
 20
5.621565233277788
 30
0.0
 11
4.717383200294883
 21
5.621565233277788
 31
0.0
  0
LINE
  5
42E
330
1F
100
AcDbEntity
  8
Object
100
AcDbLine
 10
4.683383200294883
 20
5.149565233277788
 30
0.0
 11
4.893383200294883
 21
5.149565233277788
 31
0.0
  0
LINE
  5
42F
330
1F
100
AcDbEntity
  8
Object
100
AcDbLine
 10
4.857383200294884
 20
5.269565233277788
 30
0.0
 11
4.718383200294884
 21
5.269565233277788
 31
0.0
  0
LINE
  5
430
330
1F
100
AcDbEntity
  8
Object
100
AcDbLine
 10
4.683383200294883
 20
5.149565233277788
 30
0.0
 11
4.658383200294884
 21
5.088565233277788
 31
0.0
  0
LINE
  5
431
330
1F
100
AcDbEntity
  8
Object
100
AcDbLine
 10
4.658383200294884
 20
5.088565233277788
 30
0.0
 11
4.651383200294883
 21
5.078565233277788
 31
0.0
  0
LINE
  5
432
330
1F
100
AcDbEntity
  8
Object
100
AcDbLine
 10
4.651383200294883
 20
5.078565233277788
 30
0.0
 11
4.641383200294884
 21
5.072565233277788
 31
0.0
  0
LINE
  5
433
330
1F
100
AcDbEntity
  8
Object
100
AcDbLine
 10
4.641383200294884
 20
5.072565233277788
 30
0.0
 11
4.630383200294883
 21
5.070565233277788
 31
0.0
  0
LINE
  5
434
330
1F
100
AcDbEntity
  8
Object
100
AcDbLine
 10
4.718383200294884
 20
5.269565233277788
 30
0.0
 11
4.787383200294883
 21
5.424565233277788
 31
0.0
  0
LINE
  5
435
330
1F
100
AcDbEntity
  8
Object
100
AcDbLine
 10
4.532383200294884
 20
5.070565233277788
 30
0.0
 11
4.517383200294884
 21
5.074565233277787
 31
0.0
  0
LINE
  5
436
330
1F
100
AcDbEntity
  8
Object
100
AcDbLine
 10
4.517383200294884
 20
5.074565233277787
 30
0.0
 11
4.506383200294884
 21
5.085565233277788
 31
0.0
  0
LINE
  5
437
330
1F
100
AcDbEntity
  8
Object
100
AcDbLine
 10
4.591383200294884
 20
5.320565233277788
 30
0.0
 11
4.505383200294883
 21
5.111565233277788
 31
0.0
  0
LINE
  5
438
330
1F
100
AcDbEntity
  8
Object
100
AcDbLine
 10
4.532383200294884
 20
5.070565233277788
 30
0.0
 11
4.630383200294883
 21
5.070565233277788
 31
0.0
  0
LINE
  5
439
330
1F
100
AcDbEntity
  8
Object
100
AcDbLine
 10
4.505383200294883
 20
5.111565233277788
 30
0.0
 11
4.503383200294884
 21
5.108565233277788
 31
0.0
  0
LINE
  5
43A
330
1F
100
AcDbEntity
  8
Object
100
AcDbLine
 10
4.506383200294884
 20
5.085565233277788
 30
0.0
 11
4.502383200294883
 21
5.100565233277787
 31
0.0
  0
LINE
  5
43B
330
1F
100
AcDbEntity
  8
Object
100
AcDbLine
 10
4.502383200294883
 20
5.100565233277787
 30
0.0
 11
4.502383200294883
 21
5.104565233277788
 31
0.0
  0
LINE
  5
43C
330
1F
100
AcDbEntity
  8
Object
100
AcDbLine
 10
4.502383200294883
 20
5.104565233277788
 30
0.0
 11
4.503383200294884
 21
5.108565233277788
 31
0.0
  0
LINE
  5
43D
330
1F
100
AcDbEntity
  8
Object
100
AcDbLine
 10
4.544383200294883
 20
5.782565233277788
 30
0.0
 11
4.601383200294884
 21
5.760565233277787
 31
0.0
  0
LINE
  5
43E
330
1F
100
AcDbEntity
  8
Object
100
AcDbLine
 10
4.601383200294884
 20
5.760565233277787
 30
0.0
 11
4.651383200294883
 21
5.724565233277788
 31
0.0
  0
LINE
  5
43F
330
1F
100
AcDbEntity
  8
Object
100
AcDbLine
 10
4.651383200294883
 20
5.724565233277788
 30
0.0
 11
4.690383200294883
 21
5.676565233277788
 31
0.0
  0
LINE
  5
440
330
1F
100
AcDbEntity
  8
Object
100
AcDbLine
 10
4.690383200294883
 20
5.676565233277788
 30
0.0
 11
4.717383200294883
 21
5.621565233277788
 31
0.0
  0
LINE
  5
441
330
1F
100
AcDbEntity
  8
Object
100
AcDbLine
 10
4.556383200294884
 20
5.306565233277788
 30
0.0
 11
4.591383200294884
 21
5.320565233277788
 31
0.0
  0
LINE
  5
442
330
1F
100
AcDbEntity
  8
Object
100
AcDbLine
 10
4.411383200294883
 20
5.445565233277788
 30
0.0
 11
4.411383200294883
 21
5.628565233277788
 31
0.0
  0
LINE
  5
443
330
1F
100
AcDbEntity
  8
Object
100
AcDbLine
 10
4.411383200294883
 20
5.628565233277788
 30
0.0
 11
4.407383200294884
 21
5.646565233277788
 31
0.0
  0
LINE
  5
444
330
1F
100
AcDbEntity
  8
Object
100
AcDbLine
 10
4.544383200294883
 20
5.782565233277788
 30
0.0
 11
4.482383200294884
 21
5.790565233277788
 31
0.0
  0
LINE
  5
445
330
1F
100
AcDbEntity
  8
Object
100
AcDbLine
 10
4.556383200294884
 20
5.306565233277788
 30
0.0
 11
4.520383200294883
 21
5.297565233277788
 31
0.0
  0
LINE
  5
446
330
1F
100
AcDbEntity
  8
Object
100
AcDbLine
 10
4.520383200294883
 20
5.297565233277788
 30
0.0
 11
4.482383200294884
 21
5.295565233277788
 31
0.0
  0
LINE
  5
447
330
1F
100
AcDbEntity
  8
Object
100
AcDbLine
 10
4.411383200294883
 20
5.445565233277788
 30
0.0
 11
4.407383200294884
 21
5.428565233277788
 31
0.0
  0
LINE
  5
448
330
1F
100
AcDbEntity
  8
Object
100
AcDbLine
 10
4.394383200294884
 20
5.658565233277788
 30
0.0
 11
4.407383200294884
 21
5.646565233277788
 31
0.0
  0
LINE
  5
449
330
1F
100
AcDbEntity
  8
Object
100
AcDbLine
 10
4.407383200294884
 20
5.428565233277788
 30
0.0
 11
4.394383200294884
 21
5.415565233277788
 31
0.0
  0
LINE
  5
44A
330
1F
100
AcDbEntity
  8
Object
100
AcDbLine
 10
4.376383200294884
 20
5.663565233277788
 30
0.0
 11
4.394383200294884
 21
5.658565233277788
 31
0.0
  0
LINE
  5
44B
330
1F
100
AcDbEntity
  8
Object
100
AcDbLine
 10
4.394383200294884
 20
5.415565233277788
 30
0.0
 11
4.376383200294884
 21
5.410565233277788
 31
0.0
  0
LINE
  5
44C
330
1F
100
AcDbEntity
  8
Object
100
AcDbLine
 10
4.306383200294884
 20
5.663565233277788
 30
0.0
 11
4.376383200294884
 21
5.663565233277788
 31
0.0
  0
LINE
  5
44D
330
1F
100
AcDbEntity
  8
Object
100
AcDbLine
 10
4.376383200294884
 20
5.410565233277788
 30
0.0
 11
4.306383200294884
 21
5.410565233277788
 31
0.0
  0
LINE
  5
44E
330
1F
100
AcDbEntity
  8
Object
100
AcDbLine
 10
4.482383200294884
 20
5.295565233277788
 30
0.0
 11
4.306383200294884
 21
5.295565233277788
 31
0.0
  0
LINE
  5
44F
330
1F
100
AcDbEntity
  8
Object
100
AcDbLine
 10
4.306383200294884
 20
5.295565233277788
 30
0.0
 11
4.306383200294884
 21
5.100565233277787
 31
0.0
  0
LINE
  5
450
330
1F
100
AcDbEntity
  8
Object
100
AcDbLine
 10
4.306383200294884
 20
5.100565233277787
 30
0.0
 11
4.302383200294883
 21
5.085565233277788
 31
0.0
  0
LINE
  5
451
330
1F
100
AcDbEntity
  8
Object
100
AcDbLine
 10
4.302383200294883
 20
5.085565233277788
 30
0.0
 11
4.291383200294883
 21
5.074565233277787
 31
0.0
  0
LINE
  5
452
330
1F
100
AcDbEntity
  8
Object
100
AcDbLine
 10
4.291383200294883
 20
5.074565233277787
 30
0.0
 11
4.276383200294883
 21
5.070565233277788
 31
0.0
  0
LINE
  5
453
330
1F
100
AcDbEntity
  8
Object
100
AcDbLine
 10
4.482383200294884
 20
5.790565233277788
 30
0.0
 11
4.012383200294884
 21
5.790565233277788
 31
0.0
  0
LINE
  5
454
330
1F
100
AcDbEntity
  8
Object
100
AcDbLine
 10
4.012383200294884
 20
5.070565233277788
 30
0.0
 11
4.276383200294883
 21
5.070565233277788
 31
0.0
  0
LINE
  5
455
330
1F
100
AcDbEntity
  8
Object
100
AcDbLine
 10
3.986383200294883
 20
5.775565233277788
 30
0.0
 11
3.997383200294883
 21
5.786565233277787
 31
0.0
  0
LINE
  5
456
330
1F
100
AcDbEntity
  8
Object
100
AcDbLine
 10
3.997383200294883
 20
5.786565233277787
 30
0.0
 11
4.012383200294884
 21
5.790565233277788
 31
0.0
  0
LINE
  5
457
330
1F
100
AcDbEntity
  8
Object
100
AcDbLine
 10
4.012383200294884
 20
5.070565233277788
 30
0.0
 11
3.997383200294883
 21
5.074565233277787
 31
0.0
  0
LINE
  5
458
330
1F
100
AcDbEntity
  8
Object
100
AcDbLine
 10
3.997383200294883
 20
5.074565233277787
 30
0.0
 11
3.986383200294883
 21
5.085565233277788
 31
0.0
  0
LINE
  5
459
330
1F
100
AcDbEntity
  8
Object
100
AcDbLine
 10
3.986383200294883
 20
5.775565233277788
 30
0.0
 11
3.982383200294883
 21
5.760565233277787
 31
0.0
  0
LINE
  5
45A
330
1F
100
AcDbEntity
  8
Object
100
AcDbLine
 10
3.986383200294883
 20
5.085565233277788
 30
0.0
 11
3.982383200294883
 21
5.100565233277787
 31
0.0
  0
LINE
  5
45B
330
1F
100
AcDbEntity
  8
Object
100
AcDbLine
 10
3.982383200294883
 20
5.100565233277787
 30
0.0
 11
3.982383200294883
 21
5.760565233277787
 31
0.0
  0
LINE
  5
45C
330
1F
100
AcDbEntity
  8
Object
100
AcDbLine
 10
4.306383200294884
 20
5.410565233277788
 30
0.0
 11
4.306383200294884
 21
5.663565233277788
 31
0.0
  0
LINE
  5
45D
330
1F
100
AcDbEntity
  8
Object
100
AcDbLine
 10
6.409383200294883
 20
5.621565233277788
 30
0.0
 11
6.424383200294884
 21
5.617565233277788
 31
0.0
  0
LINE
  5
45E
330
1F
100
AcDbEntity
  8
Object
100
AcDbLine
 10
6.424383200294884
 20
5.617565233277788
 30
0.0
 11
6.435383200294883
 21
5.606565233277787
 31
0.0
  0
LINE
  5
45F
330
1F
100
AcDbEntity
  8
Object
100
AcDbLine
 10
6.435383200294883
 20
5.606565233277787
 30
0.0
 11
6.439383200294884
 21
5.591565233277788
 31
0.0
  0
LINE
  5
460
330
1F
100
AcDbEntity
  8
Object
100
AcDbLine
 10
6.409383200294883
 20
5.621565233277788
 30
0.0
 11
6.354383200294884
 21
5.621565233277788
 31
0.0
  0
LINE
  5
461
330
1F
100
AcDbEntity
  8
Object
100
AcDbLine
 10
6.328383200294884
 20
5.606565233277787
 30
0.0
 11
6.339383200294883
 21
5.617565233277788
 31
0.0
  0
LINE
  5
462
330
1F
100
AcDbEntity
  8
Object
100
AcDbLine
 10
6.339383200294883
 20
5.617565233277788
 30
0.0
 11
6.354383200294884
 21
5.621565233277788
 31
0.0
  0
LINE
  5
463
330
1F
100
AcDbEntity
  8
Object
100
AcDbLine
 10
6.328383200294884
 20
5.606565233277787
 30
0.0
 11
6.324383200294883
 21
5.591565233277788
 31
0.0
  0
LINE
  5
464
330
1F
100
AcDbEntity
  8
Object
100
AcDbLine
 10
6.324383200294883
 20
5.591565233277788
 30
0.0
 11
6.324383200294883
 21
5.225565233277787
 31
0.0
  0
LINE
  5
465
330
1F
100
AcDbEntity
  8
Object
100
AcDbLine
 10
6.439383200294884
 20
5.591565233277788
 30
0.0
 11
6.439383200294884
 21
5.168565233277788
 31
0.0
  0
LINE
  5
466
330
1F
100
AcDbEntity
  8
Object
100
AcDbLine
 10
6.439383200294884
 20
5.168565233277788
 30
0.0
 11
6.431383200294884
 21
5.131565233277788
 31
0.0
  0
LINE
  5
467
330
1F
100
AcDbEntity
  8
Object
100
AcDbLine
 10
6.324383200294883
 20
5.225565233277787
 30
0.0
 11
6.320383200294884
 21
5.210565233277788
 31
0.0
  0
LINE
  5
468
330
1F
100
AcDbEntity
  8
Object
100
AcDbLine
 10
6.320383200294884
 20
5.210565233277788
 30
0.0
 11
6.310383200294883
 21
5.200565233277788
 31
0.0
  0
LINE
  5
469
330
1F
100
AcDbEntity
  8
Object
100
AcDbLine
 10
6.431383200294884
 20
5.131565233277788
 30
0.0
 11
6.410383200294884
 21
5.099565233277788
 31
0.0
  0
LINE
  5
46A
330
1F
100
AcDbEntity
  8
Object
100
AcDbLine
 10
6.410383200294884
 20
5.099565233277788
 30
0.0
 11
6.378383200294884
 21
5.077565233277788
 31
0.0
  0
LINE
  5
46B
330
1F
100
AcDbEntity
  8
Object
100
AcDbLine
 10
6.378383200294884
 20
5.077565233277788
 30
0.0
 11
6.340383200294883
 21
5.070565233277788
 31
0.0
  0
LINE
  5
46C
330
1F
100
AcDbEntity
  8
Object
100
AcDbLine
 10
6.310383200294883
 20
5.200565233277788
 30
0.0
 11
6.295383200294883
 21
5.196565233277787
 31
0.0
  0
LINE
  5
46D
330
1F
100
AcDbEntity
  8
Object
100
AcDbLine
 10
6.295383200294883
 20
5.196565233277787
 30
0.0
 11
6.256383200294884
 21
5.196565233277787
 31
0.0
  0
LINE
  5
46E
330
1F
100
AcDbEntity
  8
Object
100
AcDbLine
 10
6.198383200294884
 20
5.621565233277788
 30
0.0
 11
6.213383200294884
 21
5.617565233277788
 31
0.0
  0
LINE
  5
46F
330
1F
100
AcDbEntity
  8
Object
100
AcDbLine
 10
6.213383200294884
 20
5.617565233277788
 30
0.0
 11
6.224383200294884
 21
5.606565233277787
 31
0.0
  0
LINE
  5
470
330
1F
100
AcDbEntity
  8
Object
100
AcDbLine
 10
6.224383200294884
 20
5.606565233277787
 30
0.0
 11
6.228383200294883
 21
5.591565233277788
 31
0.0
  0
LINE
  5
471
330
1F
100
AcDbEntity
  8
Object
100
AcDbLine
 10
6.231383200294883
 20
5.210565233277788
 30
0.0
 11
6.242383200294884
 21
5.200565233277788
 31
0.0
  0
LINE
  5
472
330
1F
100
AcDbEntity
  8
Object
100
AcDbLine
 10
6.242383200294884
 20
5.200565233277788
 30
0.0
 11
6.256383200294884
 21
5.196565233277787
 31
0.0
  0
LINE
  5
473
330
1F
100
AcDbEntity
  8
Object
100
AcDbLine
 10
6.340383200294883
 20
5.070565233277788
 30
0.0
 11
6.144383200294884
 21
5.070565233277788
 31
0.0
  0
LINE
  5
474
330
1F
100
AcDbEntity
  8
Object
100
AcDbLine
 10
6.144383200294884
 20
5.070565233277788
 30
0.0
 11
6.106383200294883
 21
5.077565233277788
 31
0.0
  0
LINE
  5
475
330
1F
100
AcDbEntity
  8
Object
100
AcDbLine
 10
6.198383200294884
 20
5.621565233277788
 30
0.0
 11
6.076383200294883
 21
5.621565233277788
 31
0.0
  0
LINE
  5
476
330
1F
100
AcDbEntity
  8
Object
100
AcDbLine
 10
6.106383200294883
 20
5.077565233277788
 30
0.0
 11
6.074383200294883
 21
5.099565233277788
 31
0.0
  0
LINE
  5
477
330
1F
100
AcDbEntity
  8
Object
100
AcDbLine
 10
6.074383200294883
 20
5.099565233277788
 30
0.0
 11
6.053383200294883
 21
5.131565233277788
 31
0.0
  0
LINE
  5
478
330
1F
100
AcDbEntity
  8
Object
100
AcDbLine
 10
6.050383200294883
 20
5.606565233277787
 30
0.0
 11
6.061383200294883
 21
5.617565233277788
 31
0.0
  0
LINE
  5
479
330
1F
100
AcDbEntity
  8
Object
100
AcDbLine
 10
6.061383200294883
 20
5.617565233277788
 30
0.0
 11
6.076383200294883
 21
5.621565233277788
 31
0.0
  0
LINE
  5
47A
330
1F
100
AcDbEntity
  8
Object
100
AcDbLine
 10
6.050383200294883
 20
5.606565233277787
 30
0.0
 11
6.046383200294884
 21
5.591565233277788
 31
0.0
  0
LINE
  5
47B
330
1F
100
AcDbEntity
  8
Object
100
AcDbLine
 10
6.228383200294883
 20
5.225565233277787
 30
0.0
 11
6.228383200294883
 21
5.591565233277788
 31
0.0
  0
LINE
  5
47C
330
1F
100
AcDbEntity
  8
Object
100
AcDbLine
 10
6.053383200294883
 20
5.131565233277788
 30
0.0
 11
6.046383200294884
 21
5.168565233277788
 31
0.0
  0
LINE
  5
47D
330
1F
100
AcDbEntity
  8
Object
100
AcDbLine
 10
6.046383200294884
 20
5.168565233277788
 30
0.0
 11
6.046383200294884
 21
5.591565233277788
 31
0.0
  0
LINE
  5
47E
330
1F
100
AcDbEntity
  8
Object
100
AcDbLine
 10
6.231383200294883
 20
5.210565233277788
 30
0.0
 11
6.228383200294883
 21
5.225565233277787
 31
0.0
  0
LINE
  5
47F
330
1F
100
AcDbEntity
  8
Object
100
AcDbLine
 10
7.186383200294883
 20
5.538565233277788
 30
0.0
 11
7.182383200294884
 21
5.523565233277787
 31
0.0
  0
LINE
  5
480
330
1F
100
AcDbEntity
  8
Object
100
AcDbLine
 10
7.182383200294884
 20
5.523565233277787
 30
0.0
 11
7.171383200294884
 21
5.512565233277788
 31
0.0
  0
LINE
  5
481
330
1F
100
AcDbEntity
  8
Object
100
AcDbLine
 10
7.171383200294884
 20
5.617565233277788
 30
0.0
 11
7.182383200294884
 21
5.606565233277787
 31
0.0
  0
LINE
  5
482
330
1F
100
AcDbEntity
  8
Object
100
AcDbLine
 10
7.182383200294884
 20
5.606565233277787
 30
0.0
 11
7.186383200294883
 21
5.591565233277788
 31
0.0
  0
LINE
  5
483
330
1F
100
AcDbEntity
  8
Object
100
AcDbLine
 10
7.156383200294883
 20
5.508565233277788
 30
0.0
 11
7.171383200294884
 21
5.512565233277788
 31
0.0
  0
LINE
  5
484
330
1F
100
AcDbEntity
  8
Object
100
AcDbLine
 10
7.171383200294884
 20
5.617565233277788
 30
0.0
 11
7.156383200294883
 21
5.621565233277788
 31
0.0
  0
LINE
  5
485
330
1F
100
AcDbEntity
  8
Object
100
AcDbLine
 10
7.186383200294883
 20
5.538565233277788
 30
0.0
 11
7.186383200294883
 21
5.591565233277788
 31
0.0
  0
LINE
  5
486
330
1F
100
AcDbEntity
  8
Object
100
AcDbLine
 10
7.060383200294883
 20
5.508565233277788
 30
0.0
 11
7.156383200294883
 21
5.508565233277788
 31
0.0
  0
LINE
  5
487
330
1F
100
AcDbEntity
  8
Object
100
AcDbLine
 10
7.060383200294883
 20
5.100565233277787
 30
0.0
 11
7.056383200294884
 21
5.085565233277788
 31
0.0
  0
LINE
  5
488
330
1F
100
AcDbEntity
  8
Object
100
AcDbLine
 10
7.056383200294884
 20
5.085565233277788
 30
0.0
 11
7.045383200294883
 21
5.074565233277787
 31
0.0
  0
LINE
  5
489
330
1F
100
AcDbEntity
  8
Object
100
AcDbLine
 10
7.045383200294883
 20
5.074565233277787
 30
0.0
 11
7.030383200294884
 21
5.070565233277788
 31
0.0
  0
LINE
  5
48A
330
1F
100
AcDbEntity
  8
Object
100
AcDbLine
 10
7.030383200294884
 20
5.070565233277788
 30
0.0
 11
6.921383200294884
 21
5.070565233277788
 31
0.0
  0
LINE
  5
48B
330
1F
100
AcDbEntity
  8
Object
100
AcDbLine
 10
7.060383200294883
 20
5.100565233277787
 30
0.0
 11
7.060383200294883
 21
5.508565233277788
 31
0.0
  0
LINE
  5
48C
330
1F
100
AcDbEntity
  8
Object
100
AcDbLine
 10
6.921383200294884
 20
5.070565233277788
 30
0.0
 11
6.906383200294883
 21
5.074565233277787
 31
0.0
  0
LINE
  5
48D
330
1F
100
AcDbEntity
  8
Object
100
AcDbLine
 10
6.906383200294883
 20
5.074565233277787
 30
0.0
 11
6.895383200294883
 21
5.085565233277788
 31
0.0
  0
LINE
  5
48E
330
1F
100
AcDbEntity
  8
Object
100
AcDbLine
 10
6.895383200294883
 20
5.085565233277788
 30
0.0
 11
6.891383200294884
 21
5.100565233277787
 31
0.0
  0
LINE
  5
48F
330
1F
100
AcDbEntity
  8
Object
100
AcDbLine
 10
6.891383200294884
 20
5.100565233277787
 30
0.0
 11
6.891383200294884
 21
5.508565233277788
 31
0.0
  0
LINE
  5
490
330
1F
100
AcDbEntity
  8
Object
100
AcDbLine
 10
6.891383200294884
 20
5.508565233277788
 30
0.0
 11
6.808383200294883
 21
5.508565233277788
 31
0.0
  0
LINE
  5
491
330
1F
100
AcDbEntity
  8
Object
100
AcDbLine
 10
7.156383200294883
 20
5.621565233277788
 30
0.0
 11
6.808383200294883
 21
5.621565233277788
 31
0.0
  0
LINE
  5
492
330
1F
100
AcDbEntity
  8
Object
100
AcDbLine
 10
6.778383200294883
 20
5.591565233277788
 30
0.0
 11
6.778383200294883
 21
5.538565233277788
 31
0.0
  0
LINE
  5
493
330
1F
100
AcDbEntity
  8
Object
100
AcDbLine
 10
6.808383200294883
 20
5.508565233277788
 30
0.0
 11
6.793383200294884
 21
5.512565233277788
 31
0.0
  0
LINE
  5
494
330
1F
100
AcDbEntity
  8
Object
100
AcDbLine
 10
6.793383200294884
 20
5.512565233277788
 30
0.0
 11
6.782383200294884
 21
5.523565233277787
 31
0.0
  0
LINE
  5
495
330
1F
100
AcDbEntity
  8
Object
100
AcDbLine
 10
6.782383200294884
 20
5.523565233277787
 30
0.0
 11
6.778383200294883
 21
5.538565233277788
 31
0.0
  0
LINE
  5
496
330
1F
100
AcDbEntity
  8
Object
100
AcDbLine
 10
6.778383200294883
 20
5.591565233277788
 30
0.0
 11
6.782383200294884
 21
5.606565233277787
 31
0.0
  0
LINE
  5
497
330
1F
100
AcDbEntity
  8
Object
100
AcDbLine
 10
6.782383200294884
 20
5.606565233277787
 30
0.0
 11
6.793383200294884
 21
5.617565233277788
 31
0.0
  0
LINE
  5
498
330
1F
100
AcDbEntity
  8
Object
100
AcDbLine
 10
6.793383200294884
 20
5.617565233277788
 30
0.0
 11
6.808383200294883
 21
5.621565233277788
 31
0.0
  0
LINE
  5
499
330
1F
100
AcDbEntity
  8
Object
100
AcDbLine
 10
5.950383200294884
 20
5.168565233277788
 30
0.0
 11
5.950383200294884
 21
5.522565233277788
 31
0.0
  0
LINE
  5
49A
330
1F
100
AcDbEntity
  8
Object
100
AcDbLine
 10
5.789383200294883
 20
5.478565233277787
 30
0.0
 11
5.789383200294883
 21
5.225565233277787
 31
0.0
  0
LINE
  5
49B
330
1F
100
AcDbEntity
  8
Object
100
AcDbLine
 10
5.851383200294884
 20
5.621565233277788
 30
0.0
 11
5.889383200294884
 21
5.613565233277787
 31
0.0
  0
LINE
  5
49C
330
1F
100
AcDbEntity
  8
Object
100
AcDbLine
 10
5.889383200294884
 20
5.613565233277787
 30
0.0
 11
5.921383200294884
 21
5.592565233277788
 31
0.0
  0
LINE
  5
49D
330
1F
100
AcDbEntity
  8
Object
100
AcDbLine
 10
5.921383200294884
 20
5.592565233277788
 30
0.0
 11
5.942383200294884
 21
5.560565233277788
 31
0.0
  0
LINE
  5
49E
330
1F
100
AcDbEntity
  8
Object
100
AcDbLine
 10
5.942383200294884
 20
5.560565233277788
 30
0.0
 11
5.950383200294884
 21
5.522565233277788
 31
0.0
  0
LINE
  5
49F
330
1F
100
AcDbEntity
  8
Object
100
AcDbLine
 10
5.785383200294884
 20
5.492565233277788
 30
0.0
 11
5.789383200294883
 21
5.478565233277787
 31
0.0
  0
LINE
  5
4A0
330
1F
100
AcDbEntity
  8
Object
100
AcDbLine
 10
5.789383200294883
 20
5.225565233277787
 30
0.0
 11
5.785383200294884
 21
5.210565233277788
 31
0.0
  0
LINE
  5
4A1
330
1F
100
AcDbEntity
  8
Object
100
AcDbLine
 10
5.950383200294884
 20
5.168565233277788
 30
0.0
 11
5.942383200294884
 21
5.131565233277788
 31
0.0
  0
LINE
  5
4A2
330
1F
100
AcDbEntity
  8
Object
100
AcDbLine
 10
5.942383200294884
 20
5.131565233277788
 30
0.0
 11
5.921383200294884
 21
5.099565233277788
 31
0.0
  0
LINE
  5
4A3
330
1F
100
AcDbEntity
  8
Object
100
AcDbLine
 10
5.921383200294884
 20
5.099565233277788
 30
0.0
 11
5.889383200294884
 21
5.077565233277788
 31
0.0
  0
LINE
  5
4A4
330
1F
100
AcDbEntity
  8
Object
100
AcDbLine
 10
5.889383200294884
 20
5.077565233277788
 30
0.0
 11
5.851383200294884
 21
5.070565233277788
 31
0.0
  0
LINE
  5
4A5
330
1F
100
AcDbEntity
  8
Object
100
AcDbLine
 10
5.775383200294884
 20
5.502565233277788
 30
0.0
 11
5.785383200294884
 21
5.492565233277788
 31
0.0
  0
LINE
  5
4A6
330
1F
100
AcDbEntity
  8
Object
100
AcDbLine
 10
5.785383200294884
 20
5.210565233277788
 30
0.0
 11
5.775383200294884
 21
5.200565233277788
 31
0.0
  0
LINE
  5
4A7
330
1F
100
AcDbEntity
  8
Object
100
AcDbLine
 10
5.761383200294884
 20
5.506565233277788
 30
0.0
 11
5.775383200294884
 21
5.502565233277788
 31
0.0
  0
LINE
  5
4A8
330
1F
100
AcDbEntity
  8
Object
100
AcDbLine
 10
5.775383200294884
 20
5.200565233277788
 30
0.0
 11
5.761383200294884
 21
5.196565233277787
 31
0.0
  0
LINE
  5
4A9
330
1F
100
AcDbEntity
  8
Object
100
AcDbLine
 10
5.705383200294884
 20
5.506565233277788
 30
0.0
 11
5.761383200294884
 21
5.506565233277788
 31
0.0
  0
LINE
  5
4AA
330
1F
100
AcDbEntity
  8
Object
100
AcDbLine
 10
5.761383200294884
 20
5.196565233277787
 30
0.0
 11
5.705383200294884
 21
5.196565233277787
 31
0.0
  0
LINE
  5
4AB
330
1F
100
AcDbEntity
  8
Object
100
AcDbLine
 10
5.851383200294884
 20
5.621565233277788
 30
0.0
 11
5.572383200294884
 21
5.621565233277788
 31
0.0
  0
LINE
  5
4AC
330
1F
100
AcDbEntity
  8
Object
100
AcDbLine
 10
5.572383200294884
 20
5.070565233277788
 30
0.0
 11
5.851383200294884
 21
5.070565233277788
 31
0.0
  0
LINE
  5
4AD
330
1F
100
AcDbEntity
  8
Object
100
AcDbLine
 10
5.572383200294884
 20
5.621565233277788
 30
0.0
 11
5.557383200294884
 21
5.617565233277788
 31
0.0
  0
LINE
  5
4AE
330
1F
100
AcDbEntity
  8
Object
100
AcDbLine
 10
5.542383200294883
 20
5.591565233277788
 30
0.0
 11
5.546383200294884
 21
5.606565233277787
 31
0.0
  0
LINE
  5
4AF
330
1F
100
AcDbEntity
  8
Object
100
AcDbLine
 10
5.546383200294884
 20
5.606565233277787
 30
0.0
 11
5.557383200294884
 21
5.617565233277788
 31
0.0
  0
LINE
  5
4B0
330
1F
100
AcDbEntity
  8
Object
100
AcDbLine
 10
5.705383200294884
 20
5.196565233277787
 30
0.0
 11
5.705383200294884
 21
5.506565233277788
 31
0.0
  0
LINE
  5
4B1
330
1F
100
AcDbEntity
  8
Object
100
AcDbLine
 10
5.572383200294884
 20
5.070565233277788
 30
0.0
 11
5.557383200294884
 21
5.074565233277787
 31
0.0
  0
LINE
  5
4B2
330
1F
100
AcDbEntity
  8
Object
100
AcDbLine
 10
5.557383200294884
 20
5.074565233277787
 30
0.0
 11
5.546383200294884
 21
5.085565233277788
 31
0.0
  0
LINE
  5
4B3
330
1F
100
AcDbEntity
  8
Object
100
AcDbLine
 10
5.546383200294884
 20
5.085565233277788
 30
0.0
 11
5.542383200294883
 21
5.100565233277787
 31
0.0
  0
LINE
  5
4B4
330
1F
100
AcDbEntity
  8
Object
100
AcDbLine
 10
5.542383200294883
 20
5.100565233277787
 30
0.0
 11
5.542383200294883
 21
5.591565233277788
 31
0.0
  0
LINE
  5
4B5
330
1F
100
AcDbEntity
  8
Object
100
AcDbLine
 10
6.667383200294883
 20
5.617565233277788
 30
0.0
 11
6.678383200294883
 21
5.606565233277787
 31
0.0
  0
LINE
  5
4B6
330
1F
100
AcDbEntity
  8
Object
100
AcDbLine
 10
6.678383200294883
 20
5.606565233277787
 30
0.0
 11
6.682383200294884
 21
5.591565233277788
 31
0.0
  0
LINE
  5
4B7
330
1F
100
AcDbEntity
  8
Object
100
AcDbLine
 10
6.682383200294884
 20
5.100565233277787
 30
0.0
 11
6.678383200294883
 21
5.085565233277788
 31
0.0
  0
LINE
  5
4B8
330
1F
100
AcDbEntity
  8
Object
100
AcDbLine
 10
6.678383200294883
 20
5.085565233277788
 30
0.0
 11
6.667383200294883
 21
5.074565233277787
 31
0.0
  0
LINE
  5
4B9
330
1F
100
AcDbEntity
  8
Object
100
AcDbLine
 10
6.667383200294883
 20
5.617565233277788
 30
0.0
 11
6.652383200294884
 21
5.621565233277788
 31
0.0
  0
LINE
  5
4BA
330
1F
100
AcDbEntity
  8
Object
100
AcDbLine
 10
6.652383200294884
 20
5.070565233277788
 30
0.0
 11
6.667383200294883
 21
5.074565233277787
 31
0.0
  0
LINE
  5
4BB
330
1F
100
AcDbEntity
  8
Object
100
AcDbLine
 10
6.652383200294884
 20
5.621565233277788
 30
0.0
 11
6.565383200294884
 21
5.621565233277788
 31
0.0
  0
LINE
  5
4BC
330
1F
100
AcDbEntity
  8
Object
100
AcDbLine
 10
6.565383200294884
 20
5.070565233277788
 30
0.0
 11
6.652383200294884
 21
5.070565233277788
 31
0.0
  0
LINE
  5
4BD
330
1F
100
AcDbEntity
  8
Object
100
AcDbLine
 10
6.565383200294884
 20
5.621565233277788
 30
0.0
 11
6.550383200294883
 21
5.617565233277788
 31
0.0
  0
LINE
  5
4BE
330
1F
100
AcDbEntity
  8
Object
100
AcDbLine
 10
6.535383200294884
 20
5.591565233277788
 30
0.0
 11
6.539383200294883
 21
5.606565233277787
 31
0.0
  0
LINE
  5
4BF
330
1F
100
AcDbEntity
  8
Object
100
AcDbLine
 10
6.539383200294883
 20
5.606565233277787
 30
0.0
 11
6.550383200294883
 21
5.617565233277788
 31
0.0
  0
LINE
  5
4C0
330
1F
100
AcDbEntity
  8
Object
100
AcDbLine
 10
6.565383200294884
 20
5.070565233277788
 30
0.0
 11
6.550383200294883
 21
5.074565233277787
 31
0.0
  0
LINE
  5
4C1
330
1F
100
AcDbEntity
  8
Object
100
AcDbLine
 10
6.550383200294883
 20
5.074565233277787
 30
0.0
 11
6.539383200294883
 21
5.085565233277788
 31
0.0
  0
LINE
  5
4C2
330
1F
100
AcDbEntity
  8
Object
100
AcDbLine
 10
6.539383200294883
 20
5.085565233277788
 30
0.0
 11
6.535383200294884
 21
5.100565233277787
 31
0.0
  0
LINE
  5
4C3
330
1F
100
AcDbEntity
  8
Object
100
AcDbLine
 10
6.535383200294884
 20
5.100565233277787
 30
0.0
 11
6.535383200294884
 21
5.591565233277788
 31
0.0
  0
LINE
  5
4C4
330
1F
100
AcDbEntity
  8
Object
100
AcDbLine
 10
6.682383200294884
 20
5.100565233277787
 30
0.0
 11
6.682383200294884
 21
5.591565233277788
 31
0.0
  0
LINE
  5
4C5
330
1F
100
AcDbEntity
  8
Object
100
AcDbLine
 10
4.411383200294883
 20
5.445565233277788
 30
0.0
 11
4.407383200294884
 21
5.428565233277788
 31
0.0
  0
LINE
  5
4C6
330
1F
100
AcDbEntity
  8
Object
100
AcDbLine
 10
4.407383200294884
 20
5.428565233277788
 30
0.0
 11
4.394383200294884
 21
5.415565233277788
 31
0.0
  0
LINE
  5
4C7
330
1F
100
AcDbEntity
  8
Object
100
AcDbLine
 10
4.394383200294884
 20
5.415565233277788
 30
0.0
 11
4.376383200294884
 21
5.410565233277788
 31
0.0
  0
LINE
  5
4C8
330
1F
100
AcDbEntity
  8
Object
100
AcDbLine
 10
4.718383200294884
 20
5.269565233277788
 30
0.0
 11
4.857383200294884
 21
5.269565233277788
 31
0.0
  0
LINE
  5
4C9
330
1F
100
AcDbEntity
  8
Object
100
AcDbLine
 10
4.857383200294884
 20
5.269565233277788
 30
0.0
 11
4.787383200294883
 21
5.424565233277788
 31
0.0
  0
LINE
  5
4CA
330
1F
100
AcDbEntity
  8
Object
100
AcDbLine
 10
4.306383200294884
 20
5.663565233277788
 30
0.0
 11
4.376383200294884
 21
5.663565233277788
 31
0.0
  0
LINE
  5
4CB
330
1F
100
AcDbEntity
  8
Object
100
AcDbLine
 10
4.411383200294883
 20
5.628565233277788
 30
0.0
 11
4.411383200294883
 21
5.445565233277788
 31
0.0
  0
LINE
  5
4CC
330
1F
100
AcDbEntity
  8
Object
100
AcDbLine
 10
4.718383200294884
 20
5.269565233277788
 30
0.0
 11
4.787383200294883
 21
5.424565233277788
 31
0.0
  0
LINE
  5
4CD
330
1F
100
AcDbEntity
  8
Object
100
AcDbLine
 10
4.411383200294883
 20
5.628565233277788
 30
0.0
 11
4.407383200294884
 21
5.646565233277788
 31
0.0
  0
LINE
  5
4CE
330
1F
100
AcDbEntity
  8
Object
100
AcDbLine
 10
4.407383200294884
 20
5.646565233277788
 30
0.0
 11
4.394383200294884
 21
5.658565233277788
 31
0.0
  0
LINE
  5
4CF
330
1F
100
AcDbEntity
  8
Object
100
AcDbLine
 10
4.394383200294884
 20
5.658565233277788
 30
0.0
 11
4.376383200294884
 21
5.663565233277788
 31
0.0
  0
LINE
  5
4D0
330
1F
100
AcDbEntity
  8
Object
100
AcDbLine
 10
4.306383200294884
 20
5.663565233277788
 30
0.0
 11
4.306383200294884
 21
5.410565233277788
 31
0.0
  0
LINE
  5
4D1
330
1F
100
AcDbEntity
  8
Object
100
AcDbLine
 10
4.306383200294884
 20
5.410565233277788
 30
0.0
 11
4.376383200294884
 21
5.410565233277788
 31
0.0
  0
LINE
  5
4D2
330
1F
100
AcDbEntity
  8
Object
100
AcDbLine
 10
5.705383200294884
 20
5.506565233277788
 30
0.0
 11
5.761383200294884
 21
5.506565233277788
 31
0.0
  0
LINE
  5
4D3
330
1F
100
AcDbEntity
  8
Object
100
AcDbLine
 10
5.789383200294883
 20
5.225565233277787
 30
0.0
 11
5.789383200294883
 21
5.478565233277787
 31
0.0
  0
LINE
  5
4D4
330
1F
100
AcDbEntity
  8
Object
100
AcDbLine
 10
5.789383200294883
 20
5.478565233277787
 30
0.0
 11
5.785383200294884
 21
5.492565233277788
 31
0.0
  0
LINE
  5
4D5
330
1F
100
AcDbEntity
  8
Object
100
AcDbLine
 10
5.785383200294884
 20
5.492565233277788
 30
0.0
 11
5.775383200294884
 21
5.502565233277788
 31
0.0
  0
LINE
  5
4D6
330
1F
100
AcDbEntity
  8
Object
100
AcDbLine
 10
5.775383200294884
 20
5.502565233277788
 30
0.0
 11
5.761383200294884
 21
5.506565233277788
 31
0.0
  0
LINE
  5
4D7
330
1F
100
AcDbEntity
  8
Object
100
AcDbLine
 10
5.705383200294884
 20
5.196565233277787
 30
0.0
 11
5.705383200294884
 21
5.506565233277788
 31
0.0
  0
LINE
  5
4D8
330
1F
100
AcDbEntity
  8
Object
100
AcDbLine
 10
5.789383200294883
 20
5.225565233277787
 30
0.0
 11
5.785383200294884
 21
5.210565233277788
 31
0.0
  0
LINE
  5
4D9
330
1F
100
AcDbEntity
  8
Object
100
AcDbLine
 10
5.785383200294884
 20
5.210565233277788
 30
0.0
 11
5.775383200294884
 21
5.200565233277788
 31
0.0
  0
LINE
  5
4DA
330
1F
100
AcDbEntity
  8
Object
100
AcDbLine
 10
5.775383200294884
 20
5.200565233277788
 30
0.0
 11
5.761383200294884
 21
5.196565233277787
 31
0.0
  0
LINE
  5
4DB
330
1F
100
AcDbEntity
  8
Object
100
AcDbLine
 10
5.761383200294884
 20
5.196565233277787
 30
0.0
 11
5.705383200294884
 21
5.196565233277787
 31
0.0
  0
LINE
  5
4DC
330
1F
100
AcDbEntity
  8
Object
100
AcDbLine
 10
5.805383200294883
 20
10.05350852732361
 30
0.0
 11
5.798383200294884
 21
10.05350852732361
 31
0.0
  0
LINE
  5
4DD
330
1F
100
AcDbEntity
  8
Object
100
AcDbLine
 10
5.798383200294884
 20
10.05350852732361
 30
0.0
 11
5.775383200294884
 21
10.05350852732361
 31
0.0
  0
LINE
  5
4DE
330
1F
100
AcDbEntity
  8
Object
100
AcDbLine
 10
5.775383200294884
 20
10.05350852732361
 30
0.0
 11
5.740383200294884
 21
10.05350852732361
 31
0.0
  0
LINE
  5
4DF
330
1F
100
AcDbEntity
  8
Object
100
AcDbLine
 10
5.740383200294884
 20
10.05350852732361
 30
0.0
 11
5.695383200294884
 21
10.05350852732361
 31
0.0
  0
LINE
  5
4E0
330
1F
100
AcDbEntity
  8
Object
100
AcDbLine
 10
5.695383200294884
 20
10.05350852732361
 30
0.0
 11
5.645383200294883
 21
10.05350852732361
 31
0.0
  0
LINE
  5
4E1
330
1F
100
AcDbEntity
  8
Object
100
AcDbLine
 10
5.645383200294883
 20
10.05350852732361
 30
0.0
 11
5.596383200294884
 21
10.05350852732361
 31
0.0
  0
LINE
  5
4E2
330
1F
100
AcDbEntity
  8
Object
100
AcDbLine
 10
5.596383200294884
 20
10.05350852732361
 30
0.0
 11
5.551383200294884
 21
10.05350852732361
 31
0.0
  0
LINE
  5
4E3
330
1F
100
AcDbEntity
  8
Object
100
AcDbLine
 10
5.551383200294884
 20
10.05350852732361
 30
0.0
 11
5.516383200294884
 21
10.05350852732361
 31
0.0
  0
LINE
  5
4E4
330
1F
100
AcDbEntity
  8
Object
100
AcDbLine
 10
5.516383200294884
 20
10.05350852732361
 30
0.0
 11
5.493383200294884
 21
10.05350852732361
 31
0.0
  0
LINE
  5
4E5
330
1F
100
AcDbEntity
  8
Object
100
AcDbLine
 10
5.493383200294884
 20
10.05350852732361
 30
0.0
 11
5.485383200294884
 21
10.05350852732361
 31
0.0
  0
LINE
  5
4E6
330
1F
100
AcDbEntity
  8
Object
100
AcDbLine
 10
5.805383200294883
 20
10.04350852732361
 30
0.0
 11
5.805383200294883
 21
10.05350852732361
 31
0.0
  0
LINE
  5
4E7
330
1F
100
AcDbEntity
  8
Object
100
AcDbLine
 10
5.485383200294884
 20
10.05350852732361
 30
0.0
 11
5.485383200294884
 21
10.04350852732361
 31
0.0
  0
LINE
  5
4E8
330
1F
100
AcDbEntity
  8
Object
100
AcDbLine
 10
5.805383200294883
 20
10.05350852732361
 30
0.0
 11
5.798383200294884
 21
10.05350852732361
 31
0.0
  0
LINE
  5
4E9
330
1F
100
AcDbEntity
  8
Object
100
AcDbLine
 10
5.798383200294884
 20
10.05350852732361
 30
0.0
 11
5.775383200294884
 21
10.05350852732361
 31
0.0
  0
LINE
  5
4EA
330
1F
100
AcDbEntity
  8
Object
100
AcDbLine
 10
5.775383200294884
 20
10.05350852732361
 30
0.0
 11
5.740383200294884
 21
10.05350852732361
 31
0.0
  0
LINE
  5
4EB
330
1F
100
AcDbEntity
  8
Object
100
AcDbLine
 10
5.740383200294884
 20
10.05350852732361
 30
0.0
 11
5.695383200294884
 21
10.05350852732361
 31
0.0
  0
LINE
  5
4EC
330
1F
100
AcDbEntity
  8
Object
100
AcDbLine
 10
5.695383200294884
 20
10.05350852732361
 30
0.0
 11
5.645383200294883
 21
10.05350852732361
 31
0.0
  0
LINE
  5
4ED
330
1F
100
AcDbEntity
  8
Object
100
AcDbLine
 10
5.645383200294883
 20
10.05350852732361
 30
0.0
 11
5.596383200294884
 21
10.05350852732361
 31
0.0
  0
LINE
  5
4EE
330
1F
100
AcDbEntity
  8
Object
100
AcDbLine
 10
5.596383200294884
 20
10.05350852732361
 30
0.0
 11
5.551383200294884
 21
10.05350852732361
 31
0.0
  0
LINE
  5
4EF
330
1F
100
AcDbEntity
  8
Object
100
AcDbLine
 10
5.551383200294884
 20
10.05350852732361
 30
0.0
 11
5.516383200294884
 21
10.05350852732361
 31
0.0
  0
LINE
  5
4F0
330
1F
100
AcDbEntity
  8
Object
100
AcDbLine
 10
5.516383200294884
 20
10.05350852732361
 30
0.0
 11
5.493383200294884
 21
10.05350852732361
 31
0.0
  0
LINE
  5
4F1
330
1F
100
AcDbEntity
  8
Object
100
AcDbLine
 10
5.493383200294884
 20
10.05350852732361
 30
0.0
 11
5.485383200294884
 21
10.05350852732361
 31
0.0
  0
LINE
  5
4F2
330
1F
100
AcDbEntity
  8
Object
100
AcDbLine
 10
8.744383200294883
 20
10.04350852732361
 30
0.0
 11
8.617383200294884
 21
10.04350852732361
 31
0.0
  0
LINE
  5
4F3
330
1F
100
AcDbEntity
  8
Object
100
AcDbLine
 10
8.613383200294883
 20
10.04350852732361
 30
0.0
 11
8.616383200294883
 21
10.04350852732361
 31
0.0
  0
LINE
  5
4F4
330
1F
100
AcDbEntity
  8
Object
100
AcDbLine
 10
8.616383200294883
 20
10.04350852732361
 30
0.0
 11
8.617383200294884
 21
10.04350852732361
 31
0.0
  0
LINE
  5
4F5
330
1F
100
AcDbEntity
  8
Object
100
AcDbLine
 10
8.613383200294883
 20
10.04350852732361
 30
0.0
 11
8.599383200294884
 21
10.04350852732361
 31
0.0
  0
LINE
  5
4F6
330
1F
100
AcDbEntity
  8
Object
100
AcDbLine
 10
8.599383200294884
 20
10.04350852732361
 30
0.0
 11
8.577383200294883
 21
10.04350852732361
 31
0.0
  0
LINE
  5
4F7
330
1F
100
AcDbEntity
  8
Object
100
AcDbLine
 10
8.577383200294883
 20
10.04350852732361
 30
0.0
 11
8.549383200294883
 21
10.04350852732361
 31
0.0
  0
LINE
  5
4F8
330
1F
100
AcDbEntity
  8
Object
100
AcDbLine
 10
8.549383200294883
 20
10.04350852732361
 30
0.0
 11
8.517383200294883
 21
10.04350852732361
 31
0.0
  0
LINE
  5
4F9
330
1F
100
AcDbEntity
  8
Object
100
AcDbLine
 10
8.517383200294883
 20
10.04350852732361
 30
0.0
 11
2.772383200294884
 21
10.04350852732361
 31
0.0
  0
LINE
  5
4FA
330
1F
100
AcDbEntity
  8
Object
100
AcDbLine
 10
2.772383200294884
 20
10.04350852732361
 30
0.0
 11
2.735383200294883
 21
10.04350852732361
 31
0.0
  0
LINE
  5
4FB
330
1F
100
AcDbEntity
  8
Object
100
AcDbLine
 10
2.735383200294883
 20
10.04350852732361
 30
0.0
 11
2.703383200294883
 21
10.04350852732361
 31
0.0
  0
LINE
  5
4FC
330
1F
100
AcDbEntity
  8
Object
100
AcDbLine
 10
2.703383200294883
 20
10.04350852732361
 30
0.0
 11
2.681383200294884
 21
10.04350852732361
 31
0.0
  0
LINE
  5
4FD
330
1F
100
AcDbEntity
  8
Object
100
AcDbLine
 10
2.681383200294884
 20
10.04350852732361
 30
0.0
 11
2.674383200294883
 21
10.04350852732361
 31
0.0
  0
LINE
  5
4FE
330
1F
100
AcDbEntity
  8
Object
100
AcDbLine
 10
2.674383200294883
 20
10.04350852732361
 30
0.0
 11
2.673383200294884
 21
10.04350852732361
 31
0.0
  0
LINE
  5
4FF
330
1F
100
AcDbEntity
  8
Object
100
AcDbLine
 10
2.673383200294884
 20
10.04350852732361
 30
0.0
 11
2.555383200294883
 21
10.04350852732361
 31
0.0
  0
LINE
  5
500
330
1F
100
AcDbEntity
  8
Object
100
AcDbLine
 10
6.168383200294884
 20
10.04350852732361
 30
0.0
 11
6.168383200294884
 21
10.05350852732361
 31
0.0
  0
LINE
  5
501
330
1F
100
AcDbEntity
  8
Object
100
AcDbLine
 10
6.168383200294884
 20
10.05350852732361
 30
0.0
 11
6.047383200294883
 21
10.05350852732361
 31
0.0
  0
LINE
  5
502
330
1F
100
AcDbEntity
  8
Object
100
AcDbLine
 10
5.449383200294883
 20
10.04350852732361
 30
0.0
 11
5.449383200294883
 21
10.05350852732361
 31
0.0
  0
LINE
  5
503
330
1F
100
AcDbEntity
  8
Object
100
AcDbLine
 10
5.449383200294883
 20
10.05350852732361
 30
0.0
 11
5.367383200294884
 21
10.05350852732361
 31
0.0
  0
LINE
  5
504
330
1F
100
AcDbEntity
  8
Object
100
AcDbLine
 10
4.935383200294883
 20
10.05350852732361
 30
0.0
 11
4.935383200294883
 21
10.04350852732361
 31
0.0
  0
LINE
  5
505
330
1F
100
AcDbEntity
  8
Object
100
AcDbLine
 10
5.254383200294883
 20
10.05350852732361
 30
0.0
 11
5.225383200294883
 21
10.05350852732361
 31
0.0
  0
LINE
  5
506
330
1F
100
AcDbEntity
  8
Object
100
AcDbLine
 10
6.047383200294883
 20
10.04350852732361
 30
0.0
 11
6.047383200294883
 21
10.05350852732361
 31
0.0
  0
LINE
  5
507
330
1F
100
AcDbEntity
  8
Object
100
AcDbLine
 10
6.004383200294883
 20
10.04350852732361
 30
0.0
 11
6.004383200294883
 21
10.05350852732361
 31
0.0
  0
LINE
  5
508
330
1F
100
AcDbEntity
  8
Object
100
AcDbLine
 10
6.004383200294883
 20
10.05350852732361
 30
0.0
 11
6.047383200294883
 21
10.05350852732361
 31
0.0
  0
LINE
  5
509
330
1F
100
AcDbEntity
  8
Object
100
AcDbLine
 10
8.641383200294884
 20
9.555508527323613
 30
0.0
 11
8.643383200294884
 21
9.557508527323614
 31
0.0
  0
LINE
  5
50A
330
1F
100
AcDbEntity
  8
Object
100
AcDbLine
 10
8.616383200294883
 20
10.04350852732361
 30
0.0
 11
8.617383200294884
 21
10.04350852732361
 31
0.0
  0
LINE
  5
50B
330
1F
100
AcDbEntity
  8
Object
100
AcDbLine
 10
8.617383200294884
 20
10.04350852732361
 30
0.0
 11
8.643383200294884
 21
9.557508527323614
 31
0.0
  0
LINE
  5
50C
330
1F
100
AcDbEntity
  8
Object
100
AcDbLine
 10
2.674383200294883
 20
10.04350852732361
 30
0.0
 11
2.647383200294884
 21
9.542508527323613
 31
0.0
  0
LINE
  5
50D
330
1F
100
AcDbEntity
  8
Object
100
AcDbLine
 10
6.231383200294883
 20
10.05350852732361
 30
0.0
 11
6.231383200294883
 21
10.04350852732361
 31
0.0
  0
LINE
  5
50E
330
1F
100
AcDbEntity
  8
Object
100
AcDbLine
 10
4.918383200294884
 20
10.04350852732361
 30
0.0
 11
4.918383200294884
 21
10.05350852732361
 31
0.0
  0
LINE
  5
50F
330
1F
100
AcDbEntity
  8
Object
100
AcDbLine
 10
4.918383200294884
 20
10.05350852732361
 30
0.0
 11
4.935383200294883
 21
10.05350852732361
 31
0.0
  0
LINE
  5
510
330
1F
100
AcDbEntity
  8
Object
100
AcDbLine
 10
2.735383200294883
 20
10.04350852732361
 30
0.0
 11
2.772383200294884
 21
10.04350852732361
 31
0.0
  0
LINE
  5
511
330
1F
100
AcDbEntity
  8
Object
100
AcDbLine
 10
2.772383200294884
 20
10.04350852732361
 30
0.0
 11
2.772383200294884
 21
9.542508527323613
 31
0.0
  0
LINE
  5
512
330
1F
100
AcDbEntity
  8
Object
100
AcDbLine
 10
2.735383200294883
 20
10.04350852732361
 30
0.0
 11
2.703383200294883
 21
10.04350852732361
 31
0.0
  0
LINE
  5
513
330
1F
100
AcDbEntity
  8
Object
100
AcDbLine
 10
2.703383200294883
 20
10.04350852732361
 30
0.0
 11
2.681383200294884
 21
10.04350852732361
 31
0.0
  0
LINE
  5
514
330
1F
100
AcDbEntity
  8
Object
100
AcDbLine
 10
2.681383200294884
 20
10.04350852732361
 30
0.0
 11
2.674383200294883
 21
10.04350852732361
 31
0.0
  0
LINE
  5
515
330
1F
100
AcDbEntity
  8
Object
100
AcDbLine
 10
2.674383200294883
 20
10.04350852732361
 30
0.0
 11
2.647383200294884
 21
9.542508527323613
 31
0.0
  0
LINE
  5
516
330
1F
100
AcDbEntity
  8
Object
100
AcDbLine
 10
5.037383200294883
 20
10.04350852732361
 30
0.0
 11
5.037383200294883
 21
10.05350852732361
 31
0.0
  0
LINE
  5
517
330
1F
100
AcDbEntity
  8
Object
100
AcDbLine
 10
6.168383200294884
 20
10.04350852732361
 30
0.0
 11
6.168383200294884
 21
10.05350852732361
 31
0.0
  0
LINE
  5
518
330
1F
100
AcDbEntity
  8
Object
100
AcDbLine
 10
5.326383200294883
 20
10.05350852732361
 30
0.0
 11
5.326383200294883
 21
10.04350852732361
 31
0.0
  0
LINE
  5
519
330
1F
100
AcDbEntity
  8
Object
100
AcDbLine
 10
5.367383200294884
 20
10.04350852732361
 30
0.0
 11
5.367383200294884
 21
10.05350852732361
 31
0.0
  0
LINE
  5
51A
330
1F
100
AcDbEntity
  8
Object
100
AcDbLine
 10
5.326383200294883
 20
10.04350852732361
 30
0.0
 11
5.326383200294883
 21
10.05350852732361
 31
0.0
  0
LINE
  5
51B
330
1F
100
AcDbEntity
  8
Object
100
AcDbLine
 10
5.326383200294883
 20
10.05350852732361
 30
0.0
 11
5.367383200294884
 21
10.05350852732361
 31
0.0
  0
LINE
  5
51C
330
1F
100
AcDbEntity
  8
Object
100
AcDbLine
 10
5.254383200294883
 20
10.04350852732361
 30
0.0
 11
5.254383200294883
 21
10.05350852732361
 31
0.0
  0
LINE
  5
51D
330
1F
100
AcDbEntity
  8
Object
100
AcDbLine
 10
4.956383200294883
 20
10.04350852732361
 30
0.0
 11
4.956383200294883
 21
10.05350852732361
 31
0.0
  0
LINE
  5
51E
330
1F
100
AcDbEntity
  8
Object
100
AcDbLine
 10
4.935383200294883
 20
10.04350852732361
 30
0.0
 11
4.935383200294883
 21
10.05350852732361
 31
0.0
  0
LINE
  5
51F
330
1F
100
AcDbEntity
  8
Object
100
AcDbLine
 10
4.935383200294883
 20
10.05350852732361
 30
0.0
 11
4.956383200294883
 21
10.05350852732361
 31
0.0
  0
LINE
  5
520
330
1F
100
AcDbEntity
  8
Object
100
AcDbLine
 10
2.772383200294884
 20
10.04350852732361
 30
0.0
 11
8.517383200294883
 21
10.04350852732361
 31
0.0
  0
LINE
  5
521
330
1F
100
AcDbEntity
  8
Object
100
AcDbLine
 10
8.517383200294883
 20
10.04350852732361
 30
0.0
 11
8.517383200294883
 21
9.542508527323613
 31
0.0
  0
LINE
  5
522
330
1F
100
AcDbEntity
  8
Object
100
AcDbLine
 10
6.004383200294883
 20
10.05350852732361
 30
0.0
 11
6.004383200294883
 21
10.04350852732361
 31
0.0
  0
LINE
  5
523
330
1F
100
AcDbEntity
  8
Object
100
AcDbLine
 10
5.933383200294883
 20
10.04350852732361
 30
0.0
 11
5.933383200294883
 21
10.05350852732361
 31
0.0
  0
LINE
  5
524
330
1F
100
AcDbEntity
  8
Object
100
AcDbLine
 10
5.485383200294884
 20
10.05350852732361
 30
0.0
 11
5.449383200294883
 21
10.05350852732361
 31
0.0
  0
LINE
  5
525
330
1F
100
AcDbEntity
  8
Object
100
AcDbLine
 10
8.613383200294883
 20
10.04350852732361
 30
0.0
 11
8.616383200294883
 21
10.04350852732361
 31
0.0
  0
LINE
  5
526
330
1F
100
AcDbEntity
  8
Object
100
AcDbLine
 10
8.616383200294883
 20
10.04350852732361
 30
0.0
 11
8.642383200294883
 21
9.542508527323613
 31
0.0
  0
LINE
  5
527
330
1F
100
AcDbEntity
  8
Object
100
AcDbLine
 10
8.613383200294883
 20
10.04350852732361
 30
0.0
 11
8.599383200294884
 21
10.04350852732361
 31
0.0
  0
LINE
  5
528
330
1F
100
AcDbEntity
  8
Object
100
AcDbLine
 10
8.599383200294884
 20
10.04350852732361
 30
0.0
 11
8.577383200294883
 21
10.04350852732361
 31
0.0
  0
LINE
  5
529
330
1F
100
AcDbEntity
  8
Object
100
AcDbLine
 10
8.577383200294883
 20
10.04350852732361
 30
0.0
 11
8.549383200294883
 21
10.04350852732361
 31
0.0
  0
LINE
  5
52A
330
1F
100
AcDbEntity
  8
Object
100
AcDbLine
 10
8.549383200294883
 20
10.04350852732361
 30
0.0
 11
8.517383200294883
 21
10.04350852732361
 31
0.0
  0
LINE
  5
52B
330
1F
100
AcDbEntity
  8
Object
100
AcDbLine
 10
5.126383200294884
 20
10.04350852732361
 30
0.0
 11
5.126383200294884
 21
10.05350852732361
 31
0.0
  0
LINE
  5
52C
330
1F
100
AcDbEntity
  8
Object
100
AcDbLine
 10
5.097383200294883
 20
10.04350852732361
 30
0.0
 11
5.097383200294883
 21
10.05350852732361
 31
0.0
  0
LINE
  5
52D
330
1F
100
AcDbEntity
  8
Object
100
AcDbLine
 10
5.097383200294883
 20
10.05350852732361
 30
0.0
 11
5.126383200294884
 21
10.05350852732361
 31
0.0
  0
LINE
  5
52E
330
1F
100
AcDbEntity
  8
Object
100
AcDbLine
 10
5.805383200294883
 20
10.05350852732361
 30
0.0
 11
5.933383200294883
 21
10.05350852732361
 31
0.0
  0
LINE
  5
52F
330
1F
100
AcDbEntity
  8
Object
100
AcDbLine
 10
5.933383200294883
 20
10.05350852732361
 30
0.0
 11
5.933383200294883
 21
10.04350852732361
 31
0.0
  0
LINE
  5
530
330
1F
100
AcDbEntity
  8
Object
100
AcDbLine
 10
5.037383200294883
 20
10.04350852732361
 30
0.0
 11
5.037383200294883
 21
10.05350852732361
 31
0.0
  0
LINE
  5
531
330
1F
100
AcDbEntity
  8
Object
100
AcDbLine
 10
5.037383200294883
 20
10.05350852732361
 30
0.0
 11
4.956383200294883
 21
10.05350852732361
 31
0.0
  0
LINE
  5
532
330
1F
100
AcDbEntity
  8
Object
100
AcDbLine
 10
8.770383200294883
 20
9.944508527323613
 30
0.0
 11
8.777383200294883
 21
9.557508527323614
 31
0.0
  0
LINE
  5
533
330
1F
100
AcDbEntity
  8
Object
100
AcDbLine
 10
8.777383200294883
 20
9.557508527323614
 30
0.0
 11
8.643383200294884
 21
9.557508527323614
 31
0.0
  0
LINE
  5
534
330
1F
100
AcDbEntity
  8
Object
100
AcDbLine
 10
8.617383200294884
 20
10.04350852732361
 30
0.0
 11
8.744383200294883
 21
10.04350852732361
 31
0.0
  0
LINE
  5
535
330
1F
100
AcDbEntity
  8
Object
100
AcDbLine
 10
8.744383200294883
 20
10.04350852732361
 30
0.0
 11
8.770383200294883
 21
9.944508527323613
 31
0.0
  0
LINE
  5
536
330
1F
100
AcDbEntity
  8
Object
100
AcDbLine
 10
2.528383200294884
 20
9.944508527323613
 30
0.0
 11
2.555383200294883
 21
10.04350852732361
 31
0.0
  0
LINE
  5
537
330
1F
100
AcDbEntity
  8
Object
100
AcDbLine
 10
2.555383200294883
 20
10.04350852732361
 30
0.0
 11
2.673383200294884
 21
10.04350852732361
 31
0.0
  0
LINE
  5
538
330
1F
100
AcDbEntity
  8
Object
100
AcDbLine
 10
2.673383200294884
 20
10.04350852732361
 30
0.0
 11
2.647383200294884
 21
9.557508527323614
 31
0.0
  0
LINE
  5
539
330
1F
100
AcDbEntity
  8
Object
100
AcDbLine
 10
2.528383200294884
 20
9.944508527323613
 30
0.0
 11
2.521383200294884
 21
9.557508527323614
 31
0.0
  0
LINE
  5
53A
330
1F
100
AcDbEntity
  8
Object
100
AcDbLine
 10
6.373383200294884
 20
10.04350852732361
 30
0.0
 11
6.373383200294884
 21
10.05350852732361
 31
0.0
  0
LINE
  5
53B
330
1F
100
AcDbEntity
  8
Object
100
AcDbLine
 10
5.225383200294883
 20
10.04350852732361
 30
0.0
 11
5.225383200294883
 21
10.05350852732361
 31
0.0
  0
LINE
  5
53C
330
1F
100
AcDbEntity
  8
Object
100
AcDbLine
 10
5.225383200294883
 20
10.05350852732361
 30
0.0
 11
5.175383200294883
 21
10.05350852732361
 31
0.0
  0
LINE
  5
53D
330
1F
100
AcDbEntity
  8
Object
100
AcDbLine
 10
6.373383200294884
 20
10.04350852732361
 30
0.0
 11
6.373383200294884
 21
10.05350852732361
 31
0.0
  0
LINE
  5
53E
330
1F
100
AcDbEntity
  8
Object
100
AcDbLine
 10
6.231383200294883
 20
10.04350852732361
 30
0.0
 11
6.231383200294883
 21
10.05350852732361
 31
0.0
  0
LINE
  5
53F
330
1F
100
AcDbEntity
  8
Object
100
AcDbLine
 10
6.231383200294883
 20
10.05350852732361
 30
0.0
 11
6.373383200294884
 21
10.05350852732361
 31
0.0
  0
LINE
  5
540
330
1F
100
AcDbEntity
  8
Object
100
AcDbLine
 10
4.918383200294884
 20
10.05350852732361
 30
0.0
 11
4.918383200294884
 21
10.04350852732361
 31
0.0
  0
LINE
  5
541
330
1F
100
AcDbEntity
  8
Object
100
AcDbLine
 10
2.674383200294883
 20
10.04350852732361
 30
0.0
 11
2.673383200294884
 21
10.04350852732361
 31
0.0
  0
LINE
  5
542
330
1F
100
AcDbEntity
  8
Object
100
AcDbLine
 10
5.175383200294883
 20
10.04350852732361
 30
0.0
 11
5.175383200294883
 21
10.05350852732361
 31
0.0
  0
LINE
  5
543
330
1F
100
AcDbEntity
  8
Object
100
AcDbLine
 10
5.175383200294883
 20
10.05350852732361
 30
0.0
 11
5.126383200294884
 21
10.05350852732361
 31
0.0
  0
LINE
  5
544
330
1F
100
AcDbEntity
  8
Object
100
AcDbLine
 10
6.373383200294884
 20
10.05350852732361
 30
0.0
 11
6.231383200294883
 21
10.05350852732361
 31
0.0
  0
LINE
  5
545
330
1F
100
AcDbEntity
  8
Object
100
AcDbLine
 10
6.168383200294884
 20
10.05350852732361
 30
0.0
 11
6.047383200294883
 21
10.05350852732361
 31
0.0
  0
LINE
  5
546
330
1F
100
AcDbEntity
  8
Object
100
AcDbLine
 10
6.047383200294883
 20
10.05350852732361
 30
0.0
 11
6.004383200294883
 21
10.05350852732361
 31
0.0
  0
LINE
  5
547
330
1F
100
AcDbEntity
  8
Object
100
AcDbLine
 10
5.485383200294884
 20
10.05350852732361
 30
0.0
 11
5.449383200294883
 21
10.05350852732361
 31
0.0
  0
LINE
  5
548
330
1F
100
AcDbEntity
  8
Object
100
AcDbLine
 10
5.449383200294883
 20
10.05350852732361
 30
0.0
 11
5.367383200294884
 21
10.05350852732361
 31
0.0
  0
LINE
  5
549
330
1F
100
AcDbEntity
  8
Object
100
AcDbLine
 10
5.367383200294884
 20
10.05350852732361
 30
0.0
 11
5.326383200294883
 21
10.05350852732361
 31
0.0
  0
LINE
  5
54A
330
1F
100
AcDbEntity
  8
Object
100
AcDbLine
 10
5.037383200294883
 20
10.05350852732361
 30
0.0
 11
4.956383200294883
 21
10.05350852732361
 31
0.0
  0
LINE
  5
54B
330
1F
100
AcDbEntity
  8
Object
100
AcDbLine
 10
4.956383200294883
 20
10.05350852732361
 30
0.0
 11
4.935383200294883
 21
10.05350852732361
 31
0.0
  0
LINE
  5
54C
330
1F
100
AcDbEntity
  8
Object
100
AcDbLine
 10
4.935383200294883
 20
10.05350852732361
 30
0.0
 11
4.918383200294884
 21
10.05350852732361
 31
0.0
  0
LINE
  5
54D
330
1F
100
AcDbEntity
  8
Object
100
AcDbLine
 10
5.254383200294883
 20
10.05350852732361
 30
0.0
 11
5.225383200294883
 21
10.05350852732361
 31
0.0
  0
LINE
  5
54E
330
1F
100
AcDbEntity
  8
Object
100
AcDbLine
 10
5.225383200294883
 20
10.05350852732361
 30
0.0
 11
5.175383200294883
 21
10.05350852732361
 31
0.0
  0
LINE
  5
54F
330
1F
100
AcDbEntity
  8
Object
100
AcDbLine
 10
5.175383200294883
 20
10.05350852732361
 30
0.0
 11
5.126383200294884
 21
10.05350852732361
 31
0.0
  0
LINE
  5
550
330
1F
100
AcDbEntity
  8
Object
100
AcDbLine
 10
5.126383200294884
 20
10.05350852732361
 30
0.0
 11
5.097383200294883
 21
10.05350852732361
 31
0.0
  0
LINE
  5
551
330
1F
100
AcDbEntity
  8
Object
100
AcDbLine
 10
8.777383200294883
 20
9.557508527323614
 30
0.0
 11
8.779383200294883
 21
9.552508527323613
 31
0.0
  0
LINE
  5
552
330
1F
100
AcDbEntity
  8
Object
100
AcDbLine
 10
8.779383200294883
 20
9.552508527323613
 30
0.0
 11
8.782383200294884
 21
9.547508527323614
 31
0.0
  0
LINE
  5
553
330
1F
100
AcDbEntity
  8
Object
100
AcDbLine
 10
8.782383200294884
 20
9.547508527323614
 30
0.0
 11
8.788383200294884
 21
9.543508527323613
 31
0.0
  0
LINE
  5
554
330
1F
100
AcDbEntity
  8
Object
100
AcDbLine
 10
8.788383200294884
 20
9.543508527323613
 30
0.0
 11
8.794383200294884
 21
9.542508527323613
 31
0.0
  0
LINE
  5
555
330
1F
100
AcDbEntity
  8
Object
100
AcDbLine
 10
5.933383200294883
 20
10.05350852732361
 30
0.0
 11
5.805383200294883
 21
10.05350852732361
 31
0.0
  0
LINE
  5
556
330
1F
100
AcDbEntity
  8
Object
100
AcDbLine
 10
2.648383200294883
 20
9.556508527323614
 30
0.0
 11
2.647383200294884
 21
9.557508527323614
 31
0.0
  0
LINE
  5
557
330
1F
100
AcDbEntity
  8
Object
100
AcDbLine
 10
2.520383200294883
 20
9.552508527323613
 30
0.0
 11
2.521383200294884
 21
9.557508527323614
 31
0.0
  0
LINE
  5
558
330
1F
100
AcDbEntity
  8
Object
100
AcDbLine
 10
2.521383200294884
 20
9.557508527323614
 30
0.0
 11
2.647383200294884
 21
9.557508527323614
 31
0.0
  0
LINE
  5
559
330
1F
100
AcDbEntity
  8
Object
100
AcDbLine
 10
2.520383200294883
 20
9.552508527323613
 30
0.0
 11
2.516383200294884
 21
9.547508527323614
 31
0.0
  0
LINE
  5
55A
330
1F
100
AcDbEntity
  8
Object
100
AcDbLine
 10
2.516383200294884
 20
9.547508527323614
 30
0.0
 11
2.511383200294883
 21
9.543508527323613
 31
0.0
  0
LINE
  5
55B
330
1F
100
AcDbEntity
  8
Object
100
AcDbLine
 10
2.511383200294883
 20
9.543508527323613
 30
0.0
 11
2.505383200294883
 21
9.542508527323613
 31
0.0
  0
LINE
  5
55C
330
1F
100
AcDbEntity
  8
Object
100
AcDbLine
 10
2.968383200294884
 20
10.16850852732361
 30
0.0
 11
3.051383200294884
 21
10.16850852732361
 31
0.0
  0
LINE
  5
55D
330
1F
100
AcDbEntity
  8
Object
100
AcDbLine
 10
3.051383200294884
 20
10.16850852732361
 30
0.0
 11
3.051383200294884
 21
10.04350852732361
 31
0.0
  0
LINE
  5
55E
330
1F
100
AcDbEntity
  8
Object
100
AcDbLine
 10
2.968383200294884
 20
10.16850852732361
 30
0.0
 11
2.887383200294884
 21
10.16850852732361
 31
0.0
  0
LINE
  5
55F
330
1F
100
AcDbEntity
  8
Object
100
AcDbLine
 10
2.887383200294884
 20
10.16850852732361
 30
0.0
 11
2.810383200294884
 21
10.16850852732361
 31
0.0
  0
LINE
  5
560
330
1F
100
AcDbEntity
  8
Object
100
AcDbLine
 10
2.810383200294884
 20
10.16850852732361
 30
0.0
 11
2.741383200294883
 21
10.16850852732361
 31
0.0
  0
LINE
  5
561
330
1F
100
AcDbEntity
  8
Object
100
AcDbLine
 10
2.741383200294883
 20
10.16850852732361
 30
0.0
 11
2.680383200294883
 21
10.16850852732361
 31
0.0
  0
LINE
  5
562
330
1F
100
AcDbEntity
  8
Object
100
AcDbLine
 10
2.680383200294883
 20
10.16850852732361
 30
0.0
 11
2.629383200294883
 21
10.16850852732361
 31
0.0
  0
LINE
  5
563
330
1F
100
AcDbEntity
  8
Object
100
AcDbLine
 10
2.629383200294883
 20
10.16850852732361
 30
0.0
 11
2.590383200294883
 21
10.16850852732361
 31
0.0
  0
LINE
  5
564
330
1F
100
AcDbEntity
  8
Object
100
AcDbLine
 10
2.590383200294883
 20
10.16850852732361
 30
0.0
 11
2.564383200294884
 21
10.16850852732361
 31
0.0
  0
LINE
  5
565
330
1F
100
AcDbEntity
  8
Object
100
AcDbLine
 10
2.564383200294884
 20
10.16850852732361
 30
0.0
 11
2.551383200294884
 21
10.16850852732361
 31
0.0
  0
LINE
  5
566
330
1F
100
AcDbEntity
  8
Object
100
AcDbLine
 10
8.735383200294883
 20
10.16850852732361
 30
0.0
 11
8.747383200294883
 21
10.16850852732361
 31
0.0
  0
LINE
  5
567
330
1F
100
AcDbEntity
  8
Object
100
AcDbLine
 10
8.747383200294883
 20
10.16850852732361
 30
0.0
 11
8.745383200294883
 21
10.03850852732361
 31
0.0
  0
LINE
  5
568
330
1F
100
AcDbEntity
  8
Object
100
AcDbLine
 10
8.735383200294883
 20
10.16850852732361
 30
0.0
 11
8.708383200294884
 21
10.16850852732361
 31
0.0
  0
LINE
  5
569
330
1F
100
AcDbEntity
  8
Object
100
AcDbLine
 10
8.708383200294884
 20
10.16850852732361
 30
0.0
 11
8.669383200294884
 21
10.16850852732361
 31
0.0
  0
LINE
  5
56A
330
1F
100
AcDbEntity
  8
Object
100
AcDbLine
 10
8.669383200294884
 20
10.16850852732361
 30
0.0
 11
8.618383200294884
 21
10.16850852732361
 31
0.0
  0
LINE
  5
56B
330
1F
100
AcDbEntity
  8
Object
100
AcDbLine
 10
8.618383200294884
 20
10.16850852732361
 30
0.0
 11
8.557383200294884
 21
10.16850852732361
 31
0.0
  0
LINE
  5
56C
330
1F
100
AcDbEntity
  8
Object
100
AcDbLine
 10
8.557383200294884
 20
10.16850852732361
 30
0.0
 11
8.488383200294883
 21
10.16850852732361
 31
0.0
  0
LINE
  5
56D
330
1F
100
AcDbEntity
  8
Object
100
AcDbLine
 10
8.488383200294883
 20
10.16850852732361
 30
0.0
 11
8.412383200294884
 21
10.16850852732361
 31
0.0
  0
LINE
  5
56E
330
1F
100
AcDbEntity
  8
Object
100
AcDbLine
 10
8.412383200294884
 20
10.16850852732361
 30
0.0
 11
8.331383200294883
 21
10.16850852732361
 31
0.0
  0
LINE
  5
56F
330
1F
100
AcDbEntity
  8
Object
100
AcDbLine
 10
8.331383200294883
 20
10.16850852732361
 30
0.0
 11
8.248383200294883
 21
10.16850852732361
 31
0.0
  0
LINE
  5
570
330
1F
100
AcDbEntity
  8
Object
100
AcDbLine
 10
3.198383200294884
 20
10.04350852732361
 30
0.0
 11
3.196383200294883
 21
10.16850852732361
 31
0.0
  0
LINE
  5
571
330
1F
100
AcDbEntity
  8
Object
100
AcDbLine
 10
4.660383200294884
 20
10.16850852732361
 30
0.0
 11
6.638383200294883
 21
10.16850852732361
 31
0.0
  0
LINE
  5
572
330
1F
100
AcDbEntity
  8
Object
100
AcDbLine
 10
6.638383200294883
 20
10.16850852732361
 30
0.0
 11
6.640383200294883
 21
10.04350852732361
 31
0.0
  0
LINE
  5
573
330
1F
100
AcDbEntity
  8
Object
100
AcDbLine
 10
4.660383200294884
 20
10.16850852732361
 30
0.0
 11
4.657383200294884
 21
10.04350852732361
 31
0.0
  0
LINE
  5
574
330
1F
100
AcDbEntity
  8
Object
100
AcDbLine
 10
8.093383200294884
 20
10.16850852732361
 30
0.0
 11
8.248383200294883
 21
10.16850852732361
 31
0.0
  0
LINE
  5
575
330
1F
100
AcDbEntity
  8
Object
100
AcDbLine
 10
8.248383200294883
 20
10.16850852732361
 30
0.0
 11
8.248383200294883
 21
10.04350852732361
 31
0.0
  0
LINE
  5
576
330
1F
100
AcDbEntity
  8
Object
100
AcDbLine
 10
8.093383200294884
 20
10.16850852732361
 30
0.0
 11
8.091383200294883
 21
10.04350852732361
 31
0.0
  0
LINE
  5
577
330
1F
100
AcDbEntity
  8
Object
100
AcDbLine
 10
3.051383200294884
 20
10.16850852732361
 30
0.0
 11
3.196383200294883
 21
10.16850852732361
 31
0.0
  0
LINE
  5
578
330
1F
100
AcDbEntity
  8
Object
100
AcDbLine
 10
3.196383200294883
 20
10.16850852732361
 30
0.0
 11
3.198383200294884
 21
10.04350852732361
 31
0.0
  0
LINE
  5
579
330
1F
100
AcDbEntity
  8
Object
100
AcDbLine
 10
4.660383200294884
 20
10.16850852732361
 30
0.0
 11
4.657383200294884
 21
10.04350852732361
 31
0.0
  0
LINE
  5
57A
330
1F
100
AcDbEntity
  8
Object
100
AcDbLine
 10
8.958383200294884
 20
10.11250852732361
 30
0.0
 11
8.958383200294884
 21
10.13250852732361
 31
0.0
  0
LINE
  5
57B
330
1F
100
AcDbEntity
  8
Object
100
AcDbLine
 10
8.955383200294884
 20
10.15950852732361
 30
0.0
 11
8.957383200294884
 21
10.14850852732361
 31
0.0
  0
LINE
  5
57C
330
1F
100
AcDbEntity
  8
Object
100
AcDbLine
 10
8.957383200294884
 20
10.14850852732361
 30
0.0
 11
8.958383200294884
 21
10.13250852732361
 31
0.0
  0
LINE
  5
57D
330
1F
100
AcDbEntity
  8
Object
100
AcDbLine
 10
8.959383200294883
 20
10.09050852732361
 30
0.0
 11
8.958383200294884
 21
10.11250852732361
 31
0.0
  0
LINE
  5
57E
330
1F
100
AcDbEntity
  8
Object
100
AcDbLine
 10
8.955383200294884
 20
10.15950852732361
 30
0.0
 11
8.954383200294884
 21
10.16650852732361
 31
0.0
  0
LINE
  5
57F
330
1F
100
AcDbEntity
  8
Object
100
AcDbLine
 10
8.959383200294883
 20
10.09050852732361
 30
0.0
 11
8.959383200294883
 21
10.06750852732361
 31
0.0
  0
LINE
  5
580
330
1F
100
AcDbEntity
  8
Object
100
AcDbLine
 10
8.959383200294883
 20
10.06750852732361
 30
0.0
 11
8.959383200294883
 21
10.04550852732361
 31
0.0
  0
LINE
  5
581
330
1F
100
AcDbEntity
  8
Object
100
AcDbLine
 10
8.954383200294884
 20
10.16650852732361
 30
0.0
 11
8.952383200294883
 21
10.16850852732361
 31
0.0
  0
LINE
  5
582
330
1F
100
AcDbEntity
  8
Object
100
AcDbLine
 10
8.951383200294884
 20
9.542508527323613
 30
0.0
 11
8.959383200294883
 21
10.04550852732361
 31
0.0
  0
LINE
  5
583
330
1F
100
AcDbEntity
  8
Object
100
AcDbLine
 10
8.952383200294883
 20
10.16850852732361
 30
0.0
 11
8.747383200294883
 21
10.16850852732361
 31
0.0
  0
LINE
  5
584
330
1F
100
AcDbEntity
  8
Object
100
AcDbLine
 10
6.640383200294883
 20
10.04350852732361
 30
0.0
 11
6.638383200294883
 21
10.16850852732361
 31
0.0
  0
LINE
  5
585
330
1F
100
AcDbEntity
  8
Object
100
AcDbLine
 10
9.109383200294884
 20
9.542508527323613
 30
0.0
 11
9.101383200294884
 21
9.542508527323613
 31
0.0
  0
LINE
  5
586
330
1F
100
AcDbEntity
  8
Object
100
AcDbLine
 10
9.101383200294884
 20
9.542508527323613
 30
0.0
 11
9.078383200294883
 21
9.542508527323613
 31
0.0
  0
LINE
  5
587
330
1F
100
AcDbEntity
  8
Object
100
AcDbLine
 10
9.078383200294883
 20
9.542508527323613
 30
0.0
 11
9.042383200294883
 21
9.542508527323613
 31
0.0
  0
LINE
  5
588
330
1F
100
AcDbEntity
  8
Object
100
AcDbLine
 10
9.042383200294883
 20
9.542508527323613
 30
0.0
 11
8.992383200294884
 21
9.542508527323613
 31
0.0
  0
LINE
  5
589
330
1F
100
AcDbEntity
  8
Object
100
AcDbLine
 10
8.992383200294884
 20
9.542508527323613
 30
0.0
 11
8.930383200294883
 21
9.542508527323613
 31
0.0
  0
LINE
  5
58A
330
1F
100
AcDbEntity
  8
Object
100
AcDbLine
 10
8.930383200294883
 20
9.542508527323613
 30
0.0
 11
8.858383200294884
 21
9.542508527323613
 31
0.0
  0
LINE
  5
58B
330
1F
100
AcDbEntity
  8
Object
100
AcDbLine
 10
8.858383200294884
 20
9.542508527323613
 30
0.0
 11
8.779383200294883
 21
9.542508527323613
 31
0.0
  0
LINE
  5
58C
330
1F
100
AcDbEntity
  8
Object
100
AcDbLine
 10
8.779383200294883
 20
9.542508527323613
 30
0.0
 11
8.695383200294884
 21
9.542508527323613
 31
0.0
  0
LINE
  5
58D
330
1F
100
AcDbEntity
  8
Object
100
AcDbLine
 10
8.695383200294884
 20
9.542508527323613
 30
0.0
 11
8.608383200294884
 21
9.542508527323613
 31
0.0
  0
LINE
  5
58E
330
1F
100
AcDbEntity
  8
Object
100
AcDbLine
 10
8.608383200294884
 20
9.542508527323613
 30
0.0
 11
2.690383200294883
 21
9.542508527323613
 31
0.0
  0
LINE
  5
58F
330
1F
100
AcDbEntity
  8
Object
100
AcDbLine
 10
2.690383200294883
 20
9.542508527323613
 30
0.0
 11
2.608383200294884
 21
9.542508527323613
 31
0.0
  0
LINE
  5
590
330
1F
100
AcDbEntity
  8
Object
100
AcDbLine
 10
2.608383200294884
 20
9.542508527323613
 30
0.0
 11
2.529383200294883
 21
9.542508527323613
 31
0.0
  0
LINE
  5
591
330
1F
100
AcDbEntity
  8
Object
100
AcDbLine
 10
2.529383200294883
 20
9.542508527323613
 30
0.0
 11
2.454383200294884
 21
9.542508527323613
 31
0.0
  0
LINE
  5
592
330
1F
100
AcDbEntity
  8
Object
100
AcDbLine
 10
2.454383200294884
 20
9.542508527323613
 30
0.0
 11
2.385383200294883
 21
9.542508527323613
 31
0.0
  0
LINE
  5
593
330
1F
100
AcDbEntity
  8
Object
100
AcDbLine
 10
2.385383200294883
 20
9.542508527323613
 30
0.0
 11
2.324383200294883
 21
9.542508527323613
 31
0.0
  0
LINE
  5
594
330
1F
100
AcDbEntity
  8
Object
100
AcDbLine
 10
2.324383200294883
 20
9.542508527323613
 30
0.0
 11
2.273383200294883
 21
9.542508527323613
 31
0.0
  0
LINE
  5
595
330
1F
100
AcDbEntity
  8
Object
100
AcDbLine
 10
2.273383200294883
 20
9.542508527323613
 30
0.0
 11
2.234383200294884
 21
9.542508527323613
 31
0.0
  0
LINE
  5
596
330
1F
100
AcDbEntity
  8
Object
100
AcDbLine
 10
2.234383200294884
 20
9.542508527323613
 30
0.0
 11
2.206383200294883
 21
9.542508527323613
 31
0.0
  0
LINE
  5
597
330
1F
100
AcDbEntity
  8
Object
100
AcDbLine
 10
2.206383200294883
 20
9.542508527323613
 30
0.0
 11
2.192383200294884
 21
9.542508527323613
 31
0.0
  0
LINE
  5
598
330
1F
100
AcDbEntity
  8
Object
100
AcDbLine
 10
2.192383200294884
 20
9.542508527323613
 30
0.0
 11
2.191383200294882
 21
9.542508527323613
 31
0.0
  0
LINE
  5
599
330
1F
100
AcDbEntity
  8
Object
100
AcDbLine
 10
2.346383200294884
 20
10.16850852732361
 30
0.0
 11
2.551383200294884
 21
10.16850852732361
 31
0.0
  0
LINE
  5
59A
330
1F
100
AcDbEntity
  8
Object
100
AcDbLine
 10
2.551383200294884
 20
10.16850852732361
 30
0.0
 11
2.553383200294884
 21
10.03850852732361
 31
0.0
  0
LINE
  5
59B
330
1F
100
AcDbEntity
  8
Object
100
AcDbLine
 10
8.093383200294884
 20
10.16850852732361
 30
0.0
 11
8.091383200294883
 21
10.04350852732361
 31
0.0
  0
LINE
  5
59C
330
1F
100
AcDbEntity
  8
Object
100
AcDbLine
 10
3.196383200294883
 20
10.16850852732361
 30
0.0
 11
3.051383200294884
 21
10.16850852732361
 31
0.0
  0
LINE
  5
59D
330
1F
100
AcDbEntity
  8
Object
100
AcDbLine
 10
3.051383200294884
 20
10.16850852732361
 30
0.0
 11
2.968383200294884
 21
10.16850852732361
 31
0.0
  0
LINE
  5
59E
330
1F
100
AcDbEntity
  8
Object
100
AcDbLine
 10
2.968383200294884
 20
10.16850852732361
 30
0.0
 11
2.887383200294884
 21
10.16850852732361
 31
0.0
  0
LINE
  5
59F
330
1F
100
AcDbEntity
  8
Object
100
AcDbLine
 10
2.887383200294884
 20
10.16850852732361
 30
0.0
 11
2.810383200294884
 21
10.16850852732361
 31
0.0
  0
LINE
  5
5A0
330
1F
100
AcDbEntity
  8
Object
100
AcDbLine
 10
2.810383200294884
 20
10.16850852732361
 30
0.0
 11
2.741383200294883
 21
10.16850852732361
 31
0.0
  0
LINE
  5
5A1
330
1F
100
AcDbEntity
  8
Object
100
AcDbLine
 10
2.741383200294883
 20
10.16850852732361
 30
0.0
 11
2.680383200294883
 21
10.16850852732361
 31
0.0
  0
LINE
  5
5A2
330
1F
100
AcDbEntity
  8
Object
100
AcDbLine
 10
2.680383200294883
 20
10.16850852732361
 30
0.0
 11
2.629383200294883
 21
10.16850852732361
 31
0.0
  0
LINE
  5
5A3
330
1F
100
AcDbEntity
  8
Object
100
AcDbLine
 10
2.629383200294883
 20
10.16850852732361
 30
0.0
 11
2.590383200294883
 21
10.16850852732361
 31
0.0
  0
LINE
  5
5A4
330
1F
100
AcDbEntity
  8
Object
100
AcDbLine
 10
2.590383200294883
 20
10.16850852732361
 30
0.0
 11
2.564383200294884
 21
10.16850852732361
 31
0.0
  0
LINE
  5
5A5
330
1F
100
AcDbEntity
  8
Object
100
AcDbLine
 10
2.564383200294884
 20
10.16850852732361
 30
0.0
 11
2.551383200294884
 21
10.16850852732361
 31
0.0
  0
LINE
  5
5A6
330
1F
100
AcDbEntity
  8
Object
100
AcDbLine
 10
2.551383200294884
 20
10.16850852732361
 30
0.0
 11
2.346383200294884
 21
10.16850852732361
 31
0.0
  0
LINE
  5
5A7
330
1F
100
AcDbEntity
  8
Object
100
AcDbLine
 10
2.346383200294884
 20
10.16850852732361
 30
0.0
 11
2.243383200294884
 21
10.16850852732361
 31
0.0
  0
LINE
  5
5A8
330
1F
100
AcDbEntity
  8
Object
100
AcDbLine
 10
9.056383200294883
 20
10.16850852732361
 30
0.0
 11
8.952383200294883
 21
10.16850852732361
 31
0.0
  0
LINE
  5
5A9
330
1F
100
AcDbEntity
  8
Object
100
AcDbLine
 10
8.952383200294883
 20
10.16850852732361
 30
0.0
 11
8.747383200294883
 21
10.16850852732361
 31
0.0
  0
LINE
  5
5AA
330
1F
100
AcDbEntity
  8
Object
100
AcDbLine
 10
8.747383200294883
 20
10.16850852732361
 30
0.0
 11
8.735383200294883
 21
10.16850852732361
 31
0.0
  0
LINE
  5
5AB
330
1F
100
AcDbEntity
  8
Object
100
AcDbLine
 10
8.735383200294883
 20
10.16850852732361
 30
0.0
 11
8.708383200294884
 21
10.16850852732361
 31
0.0
  0
LINE
  5
5AC
330
1F
100
AcDbEntity
  8
Object
100
AcDbLine
 10
8.708383200294884
 20
10.16850852732361
 30
0.0
 11
8.669383200294884
 21
10.16850852732361
 31
0.0
  0
LINE
  5
5AD
330
1F
100
AcDbEntity
  8
Object
100
AcDbLine
 10
8.669383200294884
 20
10.16850852732361
 30
0.0
 11
8.618383200294884
 21
10.16850852732361
 31
0.0
  0
LINE
  5
5AE
330
1F
100
AcDbEntity
  8
Object
100
AcDbLine
 10
8.618383200294884
 20
10.16850852732361
 30
0.0
 11
8.557383200294884
 21
10.16850852732361
 31
0.0
  0
LINE
  5
5AF
330
1F
100
AcDbEntity
  8
Object
100
AcDbLine
 10
8.557383200294884
 20
10.16850852732361
 30
0.0
 11
8.488383200294883
 21
10.16850852732361
 31
0.0
  0
LINE
  5
5B0
330
1F
100
AcDbEntity
  8
Object
100
AcDbLine
 10
8.488383200294883
 20
10.16850852732361
 30
0.0
 11
8.412383200294884
 21
10.16850852732361
 31
0.0
  0
LINE
  5
5B1
330
1F
100
AcDbEntity
  8
Object
100
AcDbLine
 10
8.412383200294884
 20
10.16850852732361
 30
0.0
 11
8.331383200294883
 21
10.16850852732361
 31
0.0
  0
LINE
  5
5B2
330
1F
100
AcDbEntity
  8
Object
100
AcDbLine
 10
8.331383200294883
 20
10.16850852732361
 30
0.0
 11
8.248383200294883
 21
10.16850852732361
 31
0.0
  0
LINE
  5
5B3
330
1F
100
AcDbEntity
  8
Object
100
AcDbLine
 10
8.248383200294883
 20
10.16850852732361
 30
0.0
 11
8.093383200294884
 21
10.16850852732361
 31
0.0
  0
LINE
  5
5B4
330
1F
100
AcDbEntity
  8
Object
100
AcDbLine
 10
6.638383200294883
 20
10.16850852732361
 30
0.0
 11
4.660383200294884
 21
10.16850852732361
 31
0.0
  0
LINE
  5
5B5
330
1F
100
AcDbEntity
  8
Object
100
AcDbLine
 10
8.959383200294883
 20
10.04550852732361
 30
0.0
 11
9.067383200294884
 21
10.04550852732361
 31
0.0
  0
LINE
  5
5B6
330
1F
100
AcDbEntity
  8
Object
100
AcDbLine
 10
9.067383200294884
 20
10.04550852732361
 30
0.0
 11
9.076383200294884
 21
9.542508527323613
 31
0.0
  0
LINE
  5
5B7
330
1F
100
AcDbEntity
  8
Object
100
AcDbLine
 10
9.066383200294884
 20
10.06750852732361
 30
0.0
 11
9.065383200294883
 21
10.09050852732361
 31
0.0
  0
LINE
  5
5B8
330
1F
100
AcDbEntity
  8
Object
100
AcDbLine
 10
9.065383200294883
 20
10.09050852732361
 30
0.0
 11
9.064383200294884
 21
10.11250852732361
 31
0.0
  0
LINE
  5
5B9
330
1F
100
AcDbEntity
  8
Object
100
AcDbLine
 10
9.067383200294884
 20
10.04550852732361
 30
0.0
 11
9.066383200294884
 21
10.06750852732361
 31
0.0
  0
LINE
  5
5BA
330
1F
100
AcDbEntity
  8
Object
100
AcDbLine
 10
9.064383200294884
 20
10.11250852732361
 30
0.0
 11
9.062383200294883
 21
10.13250852732361
 31
0.0
  0
LINE
  5
5BB
330
1F
100
AcDbEntity
  8
Object
100
AcDbLine
 10
9.062383200294883
 20
10.13250852732361
 30
0.0
 11
9.061383200294883
 21
10.14850852732361
 31
0.0
  0
LINE
  5
5BC
330
1F
100
AcDbEntity
  8
Object
100
AcDbLine
 10
9.061383200294883
 20
10.14850852732361
 30
0.0
 11
9.059383200294883
 21
10.15950852732361
 31
0.0
  0
LINE
  5
5BD
330
1F
100
AcDbEntity
  8
Object
100
AcDbLine
 10
9.059383200294883
 20
10.15950852732361
 30
0.0
 11
9.057383200294884
 21
10.16650852732361
 31
0.0
  0
LINE
  5
5BE
330
1F
100
AcDbEntity
  8
Object
100
AcDbLine
 10
9.057383200294884
 20
10.16650852732361
 30
0.0
 11
9.056383200294883
 21
10.16850852732361
 31
0.0
  0
LINE
  5
5BF
102
{ACAD_REACTORS
330
650
102
}
330
1F
100
AcDbEntity
  8
Object
100
AcDbLine
 10
9.056383200294883
 20
10.16850852732361
 30
0.0
 11
8.952383200294883
 21
10.16850852732361
 31
0.0
  0
LINE
  5
5C0
330
1F
100
AcDbEntity
  8
Object
100
AcDbLine
 10
2.608383200294884
 20
9.542508527323613
 30
0.0
 11
2.690383200294883
 21
9.542508527323613
 31
0.0
  0
LINE
  5
5C1
330
1F
100
AcDbEntity
  8
Object
100
AcDbLine
 10
2.690383200294883
 20
9.542508527323613
 30
0.0
 11
2.690383200294883
 21
9.447508527323613
 31
0.0
  0
LINE
  5
5C2
330
1F
100
AcDbEntity
  8
Object
100
AcDbLine
 10
2.690383200294883
 20
9.447508527323613
 30
0.0
 11
2.608383200294884
 21
9.447508527323613
 31
0.0
  0
LINE
  5
5C3
330
1F
100
AcDbEntity
  8
Object
100
AcDbLine
 10
2.608383200294884
 20
9.542508527323613
 30
0.0
 11
2.529383200294883
 21
9.542508527323613
 31
0.0
  0
LINE
  5
5C4
330
1F
100
AcDbEntity
  8
Object
100
AcDbLine
 10
2.608383200294884
 20
9.447508527323613
 30
0.0
 11
2.529383200294883
 21
9.447508527323613
 31
0.0
  0
LINE
  5
5C5
330
1F
100
AcDbEntity
  8
Object
100
AcDbLine
 10
2.529383200294883
 20
9.447508527323613
 30
0.0
 11
2.454383200294884
 21
9.447508527323613
 31
0.0
  0
LINE
  5
5C6
330
1F
100
AcDbEntity
  8
Object
100
AcDbLine
 10
2.529383200294883
 20
9.542508527323613
 30
0.0
 11
2.454383200294884
 21
9.542508527323613
 31
0.0
  0
LINE
  5
5C7
330
1F
100
AcDbEntity
  8
Object
100
AcDbLine
 10
2.454383200294884
 20
9.542508527323613
 30
0.0
 11
2.385383200294883
 21
9.542508527323613
 31
0.0
  0
LINE
  5
5C8
330
1F
100
AcDbEntity
  8
Object
100
AcDbLine
 10
2.454383200294884
 20
9.447508527323613
 30
0.0
 11
2.386383200294883
 21
9.447508527323613
 31
0.0
  0
LINE
  5
5C9
330
1F
100
AcDbEntity
  8
Object
100
AcDbLine
 10
2.386383200294883
 20
9.447508527323613
 30
0.0
 11
2.325383200294883
 21
9.447508527323613
 31
0.0
  0
LINE
  5
5CA
330
1F
100
AcDbEntity
  8
Object
100
AcDbLine
 10
2.385383200294883
 20
9.542508527323613
 30
0.0
 11
2.324383200294883
 21
9.542508527323613
 31
0.0
  0
LINE
  5
5CB
330
1F
100
AcDbEntity
  8
Object
100
AcDbLine
 10
2.324383200294883
 20
9.542508527323613
 30
0.0
 11
2.273383200294883
 21
9.542508527323613
 31
0.0
  0
LINE
  5
5CC
330
1F
100
AcDbEntity
  8
Object
100
AcDbLine
 10
2.325383200294883
 20
9.447508527323613
 30
0.0
 11
2.275383200294884
 21
9.447508527323613
 31
0.0
  0
LINE
  5
5CD
330
1F
100
AcDbEntity
  8
Object
100
AcDbLine
 10
2.275383200294884
 20
9.447508527323613
 30
0.0
 11
2.235383200294883
 21
9.447508527323613
 31
0.0
  0
LINE
  5
5CE
330
1F
100
AcDbEntity
  8
Object
100
AcDbLine
 10
2.273383200294883
 20
9.542508527323613
 30
0.0
 11
2.234383200294884
 21
9.542508527323613
 31
0.0
  0
LINE
  5
5CF
330
1F
100
AcDbEntity
  8
Object
100
AcDbLine
 10
2.234383200294884
 20
9.542508527323613
 30
0.0
 11
2.206383200294883
 21
9.542508527323613
 31
0.0
  0
LINE
  5
5D0
330
1F
100
AcDbEntity
  8
Object
100
AcDbLine
 10
2.235383200294883
 20
9.447508527323613
 30
0.0
 11
2.208383200294884
 21
9.447508527323613
 31
0.0
  0
LINE
  5
5D1
330
1F
100
AcDbEntity
  8
Object
100
AcDbLine
 10
2.208383200294884
 20
9.447508527323613
 30
0.0
 11
2.194383200294883
 21
9.447508527323613
 31
0.0
  0
LINE
  5
5D2
330
1F
100
AcDbEntity
  8
Object
100
AcDbLine
 10
2.206383200294883
 20
9.542508527323613
 30
0.0
 11
2.192383200294884
 21
9.542508527323613
 31
0.0
  0
LINE
  5
5D3
330
1F
100
AcDbEntity
  8
Object
100
AcDbLine
 10
2.192383200294884
 20
9.542508527323613
 30
0.0
 11
2.191383200294882
 21
9.542508527323613
 31
0.0
  0
LINE
  5
5D4
330
1F
100
AcDbEntity
  8
Object
100
AcDbLine
 10
2.194383200294883
 20
9.447508527323613
 30
0.0
 11
2.193383200294883
 21
9.447508527323613
 31
0.0
  0
LINE
  5
5D5
330
1F
100
AcDbEntity
  8
Object
100
AcDbLine
 10
2.193383200294883
 20
9.447508527323613
 30
0.0
 11
2.191383200294882
 21
9.542508527323613
 31
0.0
  0
LINE
  5
5D6
330
1F
100
AcDbEntity
  8
Object
100
AcDbLine
 10
2.232383200294883
 20
10.04550852732361
 30
0.0
 11
2.339383200294884
 21
10.04550852732361
 31
0.0
  0
LINE
  5
5D7
330
1F
100
AcDbEntity
  8
Object
100
AcDbLine
 10
2.339383200294884
 20
10.04550852732361
 30
0.0
 11
2.348383200294883
 21
9.542508527323613
 31
0.0
  0
LINE
  5
5D8
330
1F
100
AcDbEntity
  8
Object
100
AcDbLine
 10
2.232383200294883
 20
10.04550852732361
 30
0.0
 11
2.222383200294883
 21
9.542508527323613
 31
0.0
  0
LINE
  5
5D9
330
1F
100
AcDbEntity
  8
Object
100
AcDbLine
 10
9.101383200294884
 20
9.542508527323613
 30
0.0
 11
9.109383200294884
 21
9.542508527323613
 31
0.0
  0
LINE
  5
5DA
330
1F
100
AcDbEntity
  8
Object
100
AcDbLine
 10
9.109383200294884
 20
9.542508527323613
 30
0.0
 11
9.107383200294883
 21
9.447508527323613
 31
0.0
  0
LINE
  5
5DB
330
1F
100
AcDbEntity
  8
Object
100
AcDbLine
 10
9.107383200294883
 20
9.447508527323613
 30
0.0
 11
9.099383200294884
 21
9.447508527323613
 31
0.0
  0
LINE
  5
5DC
330
1F
100
AcDbEntity
  8
Object
100
AcDbLine
 10
9.101383200294884
 20
9.542508527323613
 30
0.0
 11
9.078383200294883
 21
9.542508527323613
 31
0.0
  0
LINE
  5
5DD
330
1F
100
AcDbEntity
  8
Object
100
AcDbLine
 10
9.099383200294884
 20
9.447508527323613
 30
0.0
 11
9.077383200294883
 21
9.447508527323613
 31
0.0
  0
LINE
  5
5DE
330
1F
100
AcDbEntity
  8
Object
100
AcDbLine
 10
9.077383200294883
 20
9.447508527323613
 30
0.0
 11
9.040383200294883
 21
9.447508527323613
 31
0.0
  0
LINE
  5
5DF
330
1F
100
AcDbEntity
  8
Object
100
AcDbLine
 10
9.078383200294883
 20
9.542508527323613
 30
0.0
 11
9.042383200294883
 21
9.542508527323613
 31
0.0
  0
LINE
  5
5E0
330
1F
100
AcDbEntity
  8
Object
100
AcDbLine
 10
9.042383200294883
 20
9.542508527323613
 30
0.0
 11
8.992383200294884
 21
9.542508527323613
 31
0.0
  0
LINE
  5
5E1
330
1F
100
AcDbEntity
  8
Object
100
AcDbLine
 10
8.990383200294884
 20
9.447508527323613
 30
0.0
 11
9.040383200294883
 21
9.447508527323613
 31
0.0
  0
LINE
  5
5E2
330
1F
100
AcDbEntity
  8
Object
100
AcDbLine
 10
8.992383200294884
 20
9.542508527323613
 30
0.0
 11
8.930383200294883
 21
9.542508527323613
 31
0.0
  0
LINE
  5
5E3
330
1F
100
AcDbEntity
  8
Object
100
AcDbLine
 10
8.929383200294884
 20
9.447508527323613
 30
0.0
 11
8.990383200294884
 21
9.447508527323613
 31
0.0
  0
LINE
  5
5E4
330
1F
100
AcDbEntity
  8
Object
100
AcDbLine
 10
8.930383200294883
 20
9.542508527323613
 30
0.0
 11
8.858383200294884
 21
9.542508527323613
 31
0.0
  0
LINE
  5
5E5
330
1F
100
AcDbEntity
  8
Object
100
AcDbLine
 10
8.858383200294884
 20
9.447508527323613
 30
0.0
 11
8.929383200294884
 21
9.447508527323613
 31
0.0
  0
LINE
  5
5E6
330
1F
100
AcDbEntity
  8
Object
100
AcDbLine
 10
8.858383200294884
 20
9.542508527323613
 30
0.0
 11
8.779383200294883
 21
9.542508527323613
 31
0.0
  0
LINE
  5
5E7
330
1F
100
AcDbEntity
  8
Object
100
AcDbLine
 10
8.858383200294884
 20
9.447508527323613
 30
0.0
 11
8.779383200294883
 21
9.447508527323613
 31
0.0
  0
LINE
  5
5E8
330
1F
100
AcDbEntity
  8
Object
100
AcDbLine
 10
8.779383200294883
 20
9.447508527323613
 30
0.0
 11
8.695383200294884
 21
9.447508527323613
 31
0.0
  0
LINE
  5
5E9
330
1F
100
AcDbEntity
  8
Object
100
AcDbLine
 10
8.779383200294883
 20
9.542508527323613
 30
0.0
 11
8.695383200294884
 21
9.542508527323613
 31
0.0
  0
LINE
  5
5EA
330
1F
100
AcDbEntity
  8
Object
100
AcDbLine
 10
8.695383200294884
 20
9.542508527323613
 30
0.0
 11
8.608383200294884
 21
9.542508527323613
 31
0.0
  0
LINE
  5
5EB
330
1F
100
AcDbEntity
  8
Object
100
AcDbLine
 10
8.695383200294884
 20
9.447508527323613
 30
0.0
 11
8.608383200294884
 21
9.447508527323613
 31
0.0
  0
LINE
  5
5EC
330
1F
100
AcDbEntity
  8
Object
100
AcDbLine
 10
8.608383200294884
 20
9.447508527323613
 30
0.0
 11
8.608383200294884
 21
9.542508527323613
 31
0.0
  0
LINE
  5
5ED
330
1F
100
AcDbEntity
  8
Object
100
AcDbLine
 10
2.690383200294883
 20
9.447508527323613
 30
0.0
 11
8.608383200294884
 21
9.447508527323613
 31
0.0
  0
LINE
  5
5EE
330
1F
100
AcDbEntity
  8
Object
100
AcDbLine
 10
8.608383200294884
 20
9.542508527323613
 30
0.0
 11
2.690383200294883
 21
9.542508527323613
 31
0.0
  0
LINE
  5
5EF
330
1F
100
AcDbEntity
  8
Object
100
AcDbLine
 10
2.243383200294884
 20
10.16850852732361
 30
0.0
 11
2.346383200294884
 21
10.16850852732361
 31
0.0
  0
LINE
  5
5F0
330
1F
100
AcDbEntity
  8
Object
100
AcDbLine
 10
2.346383200294884
 20
10.16850852732361
 30
0.0
 11
2.345383200294882
 21
10.16650852732361
 31
0.0
  0
LINE
  5
5F1
330
1F
100
AcDbEntity
  8
Object
100
AcDbLine
 10
2.345383200294882
 20
10.16650852732361
 30
0.0
 11
2.343383200294884
 21
10.15950852732361
 31
0.0
  0
LINE
  5
5F2
330
1F
100
AcDbEntity
  8
Object
100
AcDbLine
 10
2.343383200294884
 20
10.15950852732361
 30
0.0
 11
2.342383200294884
 21
10.14850852732361
 31
0.0
  0
LINE
  5
5F3
330
1F
100
AcDbEntity
  8
Object
100
AcDbLine
 10
2.342383200294884
 20
10.14850852732361
 30
0.0
 11
2.341383200294883
 21
10.13250852732361
 31
0.0
  0
LINE
  5
5F4
330
1F
100
AcDbEntity
  8
Object
100
AcDbLine
 10
2.341383200294883
 20
10.13250852732361
 30
0.0
 11
2.340383200294883
 21
10.11250852732361
 31
0.0
  0
LINE
  5
5F5
330
1F
100
AcDbEntity
  8
Object
100
AcDbLine
 10
2.236383200294884
 20
10.13250852732361
 30
0.0
 11
2.234383200294884
 21
10.11250852732361
 31
0.0
  0
LINE
  5
5F6
330
1F
100
AcDbEntity
  8
Object
100
AcDbLine
 10
2.339383200294884
 20
10.09050852732361
 30
0.0
 11
2.340383200294883
 21
10.11250852732361
 31
0.0
  0
LINE
  5
5F7
330
1F
100
AcDbEntity
  8
Object
100
AcDbLine
 10
2.234383200294884
 20
10.11250852732361
 30
0.0
 11
2.233383200294884
 21
10.09050852732361
 31
0.0
  0
LINE
  5
5F8
330
1F
100
AcDbEntity
  8
Object
100
AcDbLine
 10
2.339383200294884
 20
10.09050852732361
 30
0.0
 11
2.339383200294884
 21
10.06750852732361
 31
0.0
  0
LINE
  5
5F9
330
1F
100
AcDbEntity
  8
Object
100
AcDbLine
 10
2.339383200294884
 20
10.06750852732361
 30
0.0
 11
2.339383200294884
 21
10.04550852732361
 31
0.0
  0
LINE
  5
5FA
330
1F
100
AcDbEntity
  8
Object
100
AcDbLine
 10
2.233383200294884
 20
10.09050852732361
 30
0.0
 11
2.232383200294883
 21
10.06750852732361
 31
0.0
  0
LINE
  5
5FB
330
1F
100
AcDbEntity
  8
Object
100
AcDbLine
 10
2.232383200294883
 20
10.06750852732361
 30
0.0
 11
2.232383200294883
 21
10.04550852732361
 31
0.0
  0
LINE
  5
5FC
330
1F
100
AcDbEntity
  8
Object
100
AcDbLine
 10
2.239383200294884
 20
10.15950852732361
 30
0.0
 11
2.238383200294883
 21
10.14850852732361
 31
0.0
  0
LINE
  5
5FD
330
1F
100
AcDbEntity
  8
Object
100
AcDbLine
 10
2.238383200294883
 20
10.14850852732361
 30
0.0
 11
2.236383200294884
 21
10.13250852732361
 31
0.0
  0
LINE
  5
5FE
330
1F
100
AcDbEntity
  8
Object
100
AcDbLine
 10
2.239383200294884
 20
10.15950852732361
 30
0.0
 11
2.241383200294883
 21
10.16650852732361
 31
0.0
  0
LINE
  5
5FF
330
1F
100
AcDbEntity
  8
Object
100
AcDbLine
 10
2.241383200294883
 20
10.16650852732361
 30
0.0
 11
2.243383200294884
 21
10.16850852732361
 31
0.0
  0
LINE
  5
600
330
1F
100
AcDbEntity
  8
Object
100
AcDbLine
 10
9.077383200294883
 20
9.417508527323613
 30
0.0
 11
9.070383200294884
 21
9.417508527323613
 31
0.0
  0
LINE
  5
601
330
1F
100
AcDbEntity
  8
Object
100
AcDbLine
 10
9.070383200294884
 20
9.417508527323613
 30
0.0
 11
9.049383200294883
 21
9.417508527323613
 31
0.0
  0
LINE
  5
602
330
1F
100
AcDbEntity
  8
Object
100
AcDbLine
 10
9.049383200294883
 20
9.417508527323613
 30
0.0
 11
9.014383200294883
 21
9.417508527323613
 31
0.0
  0
LINE
  5
603
330
1F
100
AcDbEntity
  8
Object
100
AcDbLine
 10
9.014383200294883
 20
9.417508527323613
 30
0.0
 11
8.967383200294884
 21
9.417508527323613
 31
0.0
  0
LINE
  5
604
330
1F
100
AcDbEntity
  8
Object
100
AcDbLine
 10
8.967383200294884
 20
9.417508527323613
 30
0.0
 11
8.910383200294884
 21
9.417508527323613
 31
0.0
  0
LINE
  5
605
330
1F
100
AcDbEntity
  8
Object
100
AcDbLine
 10
8.910383200294884
 20
9.417508527323613
 30
0.0
 11
8.843383200294884
 21
9.417508527323613
 31
0.0
  0
LINE
  5
606
330
1F
100
AcDbEntity
  8
Object
100
AcDbLine
 10
8.843383200294884
 20
9.417508527323613
 30
0.0
 11
8.769383200294884
 21
9.417508527323613
 31
0.0
  0
LINE
  5
607
330
1F
100
AcDbEntity
  8
Object
100
AcDbLine
 10
8.769383200294884
 20
9.417508527323613
 30
0.0
 11
8.690383200294883
 21
9.417508527323613
 31
0.0
  0
LINE
  5
608
330
1F
100
AcDbEntity
  8
Object
100
AcDbLine
 10
8.690383200294883
 20
9.417508527323613
 30
0.0
 11
8.608383200294884
 21
9.417508527323613
 31
0.0
  0
LINE
  5
609
330
1F
100
AcDbEntity
  8
Object
100
AcDbLine
 10
8.530383200294883
 20
9.417508527323613
 30
0.0
 11
8.539383200294883
 21
9.417508527323613
 31
0.0
  0
LINE
  5
60A
330
1F
100
AcDbEntity
  8
Object
100
AcDbLine
 10
8.608383200294884
 20
9.417508527323613
 30
0.0
 11
2.690383200294883
 21
9.417508527323613
 31
0.0
  0
LINE
  5
60B
330
1F
100
AcDbEntity
  8
Object
100
AcDbLine
 10
2.690383200294883
 20
9.417508527323613
 30
0.0
 11
2.605383200294884
 21
9.417508527323613
 31
0.0
  0
LINE
  5
60C
330
1F
100
AcDbEntity
  8
Object
100
AcDbLine
 10
2.605383200294884
 20
9.417508527323613
 30
0.0
 11
2.523383200294883
 21
9.417508527323613
 31
0.0
  0
LINE
  5
60D
330
1F
100
AcDbEntity
  8
Object
100
AcDbLine
 10
2.523383200294883
 20
9.417508527323613
 30
0.0
 11
2.446383200294883
 21
9.417508527323613
 31
0.0
  0
LINE
  5
60E
330
1F
100
AcDbEntity
  8
Object
100
AcDbLine
 10
2.446383200294883
 20
9.417508527323613
 30
0.0
 11
2.378383200294884
 21
9.417508527323613
 31
0.0
  0
LINE
  5
60F
330
1F
100
AcDbEntity
  8
Object
100
AcDbLine
 10
2.378383200294884
 20
9.417508527323613
 30
0.0
 11
2.320383200294884
 21
9.417508527323613
 31
0.0
  0
LINE
  5
610
330
1F
100
AcDbEntity
  8
Object
100
AcDbLine
 10
2.320383200294884
 20
9.417508527323613
 30
0.0
 11
2.274383200294884
 21
9.417508527323613
 31
0.0
  0
LINE
  5
611
330
1F
100
AcDbEntity
  8
Object
100
AcDbLine
 10
2.274383200294884
 20
9.417508527323613
 30
0.0
 11
2.242383200294884
 21
9.417508527323613
 31
0.0
  0
LINE
  5
612
330
1F
100
AcDbEntity
  8
Object
100
AcDbLine
 10
2.242383200294884
 20
9.417508527323613
 30
0.0
 11
2.224383200294884
 21
9.417508527323613
 31
0.0
  0
LINE
  5
613
330
1F
100
AcDbEntity
  8
Object
100
AcDbLine
 10
2.224383200294884
 20
9.417508527323613
 30
0.0
 11
2.223383200294883
 21
9.417508527323613
 31
0.0
  0
LINE
  5
614
330
1F
100
AcDbEntity
  8
Object
100
AcDbLine
 10
2.690383200294883
 20
9.432508527323614
 30
0.0
 11
2.690383200294883
 21
9.421508527323613
 31
0.0
  0
LINE
  5
615
330
1F
100
AcDbEntity
  8
Object
100
AcDbLine
 10
2.690383200294883
 20
9.421508527323613
 30
0.0
 11
2.690383200294883
 21
9.417508527323613
 31
0.0
  0
LINE
  5
616
330
1F
100
AcDbEntity
  8
Object
100
AcDbLine
 10
2.690383200294883
 20
9.432508527323614
 30
0.0
 11
2.690383200294883
 21
9.447508527323613
 31
0.0
  0
LINE
  5
617
330
1F
100
AcDbEntity
  8
Object
100
AcDbLine
 10
2.690383200294883
 20
9.417508527323613
 30
0.0
 11
2.605383200294884
 21
9.417508527323613
 31
0.0
  0
LINE
  5
618
330
1F
100
AcDbEntity
  8
Object
100
AcDbLine
 10
2.605383200294884
 20
9.417508527323613
 30
0.0
 11
2.523383200294883
 21
9.417508527323613
 31
0.0
  0
LINE
  5
619
330
1F
100
AcDbEntity
  8
Object
100
AcDbLine
 10
2.523383200294883
 20
9.417508527323613
 30
0.0
 11
2.446383200294883
 21
9.417508527323613
 31
0.0
  0
LINE
  5
61A
330
1F
100
AcDbEntity
  8
Object
100
AcDbLine
 10
2.446383200294883
 20
9.417508527323613
 30
0.0
 11
2.378383200294884
 21
9.417508527323613
 31
0.0
  0
LINE
  5
61B
330
1F
100
AcDbEntity
  8
Object
100
AcDbLine
 10
2.378383200294884
 20
9.417508527323613
 30
0.0
 11
2.320383200294884
 21
9.417508527323613
 31
0.0
  0
LINE
  5
61C
330
1F
100
AcDbEntity
  8
Object
100
AcDbLine
 10
2.320383200294884
 20
9.417508527323613
 30
0.0
 11
2.274383200294884
 21
9.417508527323613
 31
0.0
  0
LINE
  5
61D
330
1F
100
AcDbEntity
  8
Object
100
AcDbLine
 10
2.274383200294884
 20
9.417508527323613
 30
0.0
 11
2.242383200294884
 21
9.417508527323613
 31
0.0
  0
LINE
  5
61E
330
1F
100
AcDbEntity
  8
Object
100
AcDbLine
 10
2.242383200294884
 20
9.417508527323613
 30
0.0
 11
2.224383200294884
 21
9.417508527323613
 31
0.0
  0
LINE
  5
61F
330
1F
100
AcDbEntity
  8
Object
100
AcDbLine
 10
2.224383200294884
 20
9.417508527323613
 30
0.0
 11
2.223383200294883
 21
9.417508527323613
 31
0.0
  0
LINE
  5
620
330
1F
100
AcDbEntity
  8
Object
100
AcDbLine
 10
2.223383200294883
 20
9.417508527323613
 30
0.0
 11
2.206383200294883
 21
9.421508527323613
 31
0.0
  0
LINE
  5
621
330
1F
100
AcDbEntity
  8
Object
100
AcDbLine
 10
2.206383200294883
 20
9.421508527323613
 30
0.0
 11
2.195383200294884
 21
9.432508527323614
 31
0.0
  0
LINE
  5
622
330
1F
100
AcDbEntity
  8
Object
100
AcDbLine
 10
2.195383200294884
 20
9.432508527323614
 30
0.0
 11
2.193383200294883
 21
9.447508527323613
 31
0.0
  0
LINE
  5
623
330
1F
100
AcDbEntity
  8
Object
100
AcDbLine
 10
9.107383200294883
 20
9.447508527323613
 30
0.0
 11
9.103383200294883
 21
9.432508527323614
 31
0.0
  0
LINE
  5
624
330
1F
100
AcDbEntity
  8
Object
100
AcDbLine
 10
9.103383200294883
 20
9.432508527323614
 30
0.0
 11
9.092383200294884
 21
9.421508527323613
 31
0.0
  0
LINE
  5
625
330
1F
100
AcDbEntity
  8
Object
100
AcDbLine
 10
9.092383200294884
 20
9.421508527323613
 30
0.0
 11
9.077383200294883
 21
9.417508527323613
 31
0.0
  0
LINE
  5
626
330
1F
100
AcDbEntity
  8
Object
100
AcDbLine
 10
9.077383200294883
 20
9.417508527323613
 30
0.0
 11
9.070383200294884
 21
9.417508527323613
 31
0.0
  0
LINE
  5
627
330
1F
100
AcDbEntity
  8
Object
100
AcDbLine
 10
9.070383200294884
 20
9.417508527323613
 30
0.0
 11
9.049383200294883
 21
9.417508527323613
 31
0.0
  0
LINE
  5
628
330
1F
100
AcDbEntity
  8
Object
100
AcDbLine
 10
9.049383200294883
 20
9.417508527323613
 30
0.0
 11
9.014383200294883
 21
9.417508527323613
 31
0.0
  0
LINE
  5
629
330
1F
100
AcDbEntity
  8
Object
100
AcDbLine
 10
9.014383200294883
 20
9.417508527323613
 30
0.0
 11
8.967383200294884
 21
9.417508527323613
 31
0.0
  0
LINE
  5
62A
330
1F
100
AcDbEntity
  8
Object
100
AcDbLine
 10
8.967383200294884
 20
9.417508527323613
 30
0.0
 11
8.910383200294884
 21
9.417508527323613
 31
0.0
  0
LINE
  5
62B
330
1F
100
AcDbEntity
  8
Object
100
AcDbLine
 10
8.910383200294884
 20
9.417508527323613
 30
0.0
 11
8.843383200294884
 21
9.417508527323613
 31
0.0
  0
LINE
  5
62C
330
1F
100
AcDbEntity
  8
Object
100
AcDbLine
 10
8.843383200294884
 20
9.417508527323613
 30
0.0
 11
8.769383200294884
 21
9.417508527323613
 31
0.0
  0
LINE
  5
62D
330
1F
100
AcDbEntity
  8
Object
100
AcDbLine
 10
8.769383200294884
 20
9.417508527323613
 30
0.0
 11
8.690383200294883
 21
9.417508527323613
 31
0.0
  0
LINE
  5
62E
330
1F
100
AcDbEntity
  8
Object
100
AcDbLine
 10
8.690383200294883
 20
9.417508527323613
 30
0.0
 11
8.608383200294884
 21
9.417508527323613
 31
0.0
  0
LINE
  5
62F
330
1F
100
AcDbEntity
  8
Object
100
AcDbLine
 10
8.608383200294884
 20
9.432508527323614
 30
0.0
 11
8.608383200294884
 21
9.421508527323613
 31
0.0
  0
LINE
  5
630
330
1F
100
AcDbEntity
  8
Object
100
AcDbLine
 10
8.608383200294884
 20
9.421508527323613
 30
0.0
 11
8.608383200294884
 21
9.417508527323613
 31
0.0
  0
LINE
  5
631
330
1F
100
AcDbEntity
  8
Object
100
AcDbLine
 10
8.608383200294884
 20
9.417508527323613
 30
0.0
 11
2.690383200294883
 21
9.417508527323613
 31
0.0
  0
LINE
  5
632
330
1F
100
AcDbEntity
  8
Object
100
AcDbLine
 10
8.608383200294884
 20
9.432508527323614
 30
0.0
 11
8.608383200294884
 21
9.447508527323613
 31
0.0
  0
DIMENSION
  5
634
102
{ACAD_XDICTIONARY
360
644
102
}
102
{ACAD_REACTORS
330
650
102
}
330
1F
100
AcDbEntity
  8
Dimension
100
AcDbDimension
  2
*D1
 10
9.968618901296473
 20
10.16850852732361
 30
0.0
 11
10.63907942761226
 21
10.35600852732361
 31
0.0
 70
    32
 71
     5
 42
0.7469999999999999
  3
Standard
100
AcDbAlignedDimension
 13
9.092383200294884
 23
9.421508527323613
 33
0.0
 14
9.056383200294883
 24
10.16850852732361
 34
0.0
 50
90.0
100
AcDbRotatedDimension
  0
DIMENSION
  5
656
102
{ACAD_XDICTIONARY
360
664
102
}
102
{ACAD_REACTORS
330
66F
102
}
330
1F
100
AcDbEntity
  8
Dimension
100
AcDbDimension
  2
*D2
 10
9.109383200294884
 20
8.670120271788473
 30
0.0
 11
5.650383200294883
 21
8.670120271788473
 31
0.0
 70
    32
 71
     5
 42
6.918000000000001
  3
Standard
100
AcDbAlignedDimension
 13
2.191383200294882
 23
7.498565233277788
 33
0.0
 14
9.109383200294884
 24
7.533565233277788
 34
0.0
100
AcDbRotatedDimension
  0
DIMENSION
  5
68A
102
{ACAD_XDICTIONARY
360
698
102
}
102
{ACAD_REACTORS
330
6A3
102
}
330
1F
100
AcDbEntity
  8
Dimension
100
AcDbDimension
  2
*D3
 10
12.39124434226333
 20
8.031565233277788
 30
0.0
 11
12.39124434226332
 21
5.71856523327779
 31
0.0
 70
    32
 71
     5
 42
4.626000000000001
  3
Standard
100
AcDbAlignedDimension
 13
13.64938320029488
 23
3.405565233277788
 33
0.0
 14
13.55338320029488
 24
8.031565233277788
 34
0.0
 50
90.0
100
AcDbRotatedDimension
  0
TEXT
  5
6A4
330
1F
100
AcDbEntity
  8
Text
100
AcDbText
 10
5.200579938737355
 20
9.056672798712412
 30
0.0
 40
0.125
  1
TOP VIEW
100
AcDbText
  0
TEXT
  5
6A5
330
1F
100
AcDbEntity
  8
Text
100
AcDbText
 10
5.126601903612268
 20
3.029100111148895
 30
0.0
 40
0.125
  1
FRONT VIEW
100
AcDbText
  0
TEXT
  5
6A6
330
1F
100
AcDbEntity
  8
Text
100
AcDbText
 10
13.205002644991
 20
3.035300680441496
 30
0.0
 40
0.125
  1
RIGHT SIDE VIEW
100
AcDbText
  0
TEXT
  5
6A8
330
1F
100
AcDbEntity
  8
Title Block
100
AcDbText
 10
12.77669501265555
 20
2.672489851525506
 30
0.0
 40
0.05
  1
FILENAME:
100
AcDbText
  0
TEXT
  5
6A9
330
1F
100
AcDbEntity
  8
Title Block
100
AcDbText
 10
12.76928502872825
 20
2.076224967549324
 30
0.0
 40
0.35
  1
PANDUIT
100
AcDbText
  0
TEXT
  5
6AA
330
1F
100
AcDbEntity
  8
Title Block
100
AcDbText
 10
14.72182039882138
 20
2.061410940562984
 30
0.0
 40
0.125
  1
CORP. TINLEY PARK, IL
100
AcDbText
  0
TEXT
  5
6AB
330
1F
100
AcDbEntity
  8
Title Block
100
AcDbText
 10
12.78039997670862
 20
1.916974097093918
 30
0.0
 40
0.05
  1
TITLE:
100
AcDbText
  0
MTEXT
  5
6AC
330
1F
100
AcDbEntity
  8
Title Block
100
AcDbMText
 10
14.0
 20
1.372215793536346
 30
0.0
 40
0.075
 41
2.5
 71
     5
 72
     5
  1
UNLESS OTHERWISE SPECIFIED,\PDIMENSIONAL TOLERANCES ARE:       
 73
     1
 44
1.0
1001
ACAD
1000
MTEXTBEGIN
1070
    73
1070
     1
1070
    44
1040
1.0
1070
    74
1070
     0
1000
MTEXTEND
  0
MTEXT
  5
6AD
330
1F
100
AcDbEntity
  8
Title Block
100
AcDbMText
 10
13.39237986661002
 20
1.13148770848363
 30
0.0
 40
0.075
 41
2.5
 71
     5
 72
     5
  1
(.X)\P(.XX)
 73
     1
 44
1.0
1001
ACAD
1000
MTEXTBEGIN
1070
    73
1070
     1
1070
    44
1040
1.0
1070
    74
1070
     0
1000
MTEXTEND
  0
MTEXT
  5
6AE
330
1F
100
AcDbEntity
  8
Title Block
100
AcDbMText
 10
14.40014005312412
 20
1.13148770848363
 30
0.0
 40
0.075
 41
2.5
 71
     5
 72
     5
  1
(.XXX)\PANGLES:
 73
     1
 44
1.0
1001
ACAD
1000
MTEXTBEGIN
1070
    73
1070
     1
1070
    44
1040
1.0
1070
    74
1070
     0
1000
MTEXTEND
  0
MTEXT
  5
6AF
330
1F
100
AcDbEntity
  8
Title Block
100
AcDbMText
 10
16.0
 20
1.249999999999998
 30
0.0
 40
0.06
 41
1.5
 71
     5
 72
     5
  1
UNLESS OTHERWISE SPECIFIED,\PALL DIMENSIONS ARE GIVEN IN INCHES, THIRD ANGLE PROJECTION
 73
     1
 44
1.0
1001
ACAD
1000
MTEXTBEGIN
1070
    73
1070
     1
1070
    44
1040
1.0
1070
    74
1070
     0
1000
MTEXTEND
  0
TEXT
  5
6B0
330
1F
100
AcDbEntity
  8
Title Block
100
AcDbText
 10
12.76076445430619
 20
0.9281373372752295
 30
0.0
 40
0.05
  1
DRAWN BY:
100
AcDbText
  0
TEXT
  5
6B1
330
1F
100
AcDbEntity
  8
Title Block
100
AcDbText
 10
12.76446947418044
 20
0.681143186563501
 30
0.0
 40
0.05
  1
DATE:
100
AcDbText
  0
TEXT
  5
6B2
330
1F
100
AcDbEntity
  8
Title Block
100
AcDbText
 10
12.7681744382335
 20
0.430445533831795
 30
0.0
 40
0.05
  1
CHECKED BY:
100
AcDbText
  0
TEXT
  5
6B3
330
1F
100
AcDbEntity
  8
Title Block
100
AcDbText
 10
13.52028959313307
 20
0.9281373372752295
 30
0.0
 40
0.05
  1
MATERIAL:
100
AcDbText
  0
TEXT
  5
6B4
330
1F
100
AcDbEntity
  8
Title Block
100
AcDbText
 10
15.26534493878154
 20
0.9281373372752295
 30
0.0
 40
0.05
  1
SCALE:
100
AcDbText
  0
TEXT
  5
6B5
330
1F
100
AcDbEntity
  8
Title Block
100
AcDbText
 10
15.26534493878154
 20
0.6725952630489989
 30
0.0
 40
0.05
  1
DRAWING NUMBER:
100
AcDbText
  0
TEXT
  5
6B6
330
1F
100
AcDbEntity
  8
Title Block
100
AcDbText
 10
16.34942622928998
 20
0.6762987650689798
 30
0.0
 40
0.05
  1
DRAWING
100
AcDbText
  0
TEXT
  5
6B7
330
1F
100
AcDbEntity
  8
Title Block
100
AcDbText
 10
16.42723125590086
 20
0.2811642688682008
 30
0.0
 40
0.05
  1
SIZE
100
AcDbText
  0
TEXT
  5
6B8
330
1F
100
AcDbEntity
  8
Title Block
100
AcDbText
 10
16.40622108086223
 20
0.3826699445861035
 30
0.0
 40
0.25
  1
B
100
AcDbText
  0
MTEXT
  5
6B9
330
1F
100
AcDbEntity
  8
Title Block
100
AcDbMText
 10
6.375000000000003
 20
0.3749999999999982
 30
0.0
 40
0.05
 41
0.25
 71
     5
 72
     5
  1
REV
 73
     1
 44
1.0
1001
ACAD
1000
MTEXTBEGIN
1070
    73
1070
     1
1070
    44
1040
1.0
1070
    74
1070
     0
1000
MTEXTEND
  0
MTEXT
  5
6BA
330
1F
100
AcDbEntity
  8
Title Block
100
AcDbMText
 10
6.750000000000003
 20
0.3749999999999982
 30
0.0
 40
0.05
 41
0.5
 71
     5
 72
     5
  1
DATE
 73
     1
 44
1.0
1001
ACAD
1000
MTEXTBEGIN
1070
    73
1070
     1
1070
    44
1040
1.0
1070
    74
1070
     0
1000
MTEXTEND
  0
MTEXT
  5
6BB
330
1F
100
AcDbEntity
  8
Title Block
100
AcDbMText
 10
7.190000000000003
 20
0.3749999999999982
 30
0.0
 40
0.05
 41
0.38
 71
     5
 72
     5
  1
BY
 73
     1
 44
1.0
1001
ACAD
1000
MTEXTBEGIN
1070
    73
1070
     1
1070
    44
1040
1.0
1070
    74
1070
     0
1000
MTEXTEND
  0
MTEXT
  5
6BC
330
1F
100
AcDbEntity
  8
Title Block
100
AcDbMText
 10
7.565000000000003
 20
0.3749999999999982
 30
0.0
 40
0.05
 41
0.38
 71
     5
 72
     5
  1
CHK
 73
     1
 44
1.0
1001
ACAD
1000
MTEXTBEGIN
1070
    73
1070
     1
1070
    44
1040
1.0
1070
    74
1070
     0
1000
MTEXTEND
  0
MTEXT
  5
6BD
330
1F
100
AcDbEntity
  8
Title Block
100
AcDbMText
 10
9.125000000000003
 20
0.3749999999999982
 30
0.0
 40
0.05
 41
2.75
 71
     5
 72
     5
  1
DESCRIPTION
 73
     1
 44
1.0
1001
ACAD
1000
MTEXTBEGIN
1070
    73
1070
     1
1070
    44
1040
1.0
1070
    74
1070
     0
1000
MTEXTEND
  0
MTEXT
  5
6BE
330
1F
100
AcDbEntity
  8
Title Block
100
AcDbMText
 10
11.065
 20
0.3749999999999982
 30
0.0
 40
0.05
 41
1.129999999999999
 71
     5
 72
     5
  1
ECN   -   R
 73
     1
 44
1.0
1001
ACAD
1000
MTEXTBEGIN
1070
    73
1070
     1
1070
    44
1040
1.0
1070
    74
1070
     0
1000
MTEXTEND
  0
MTEXT
  5
6BF
330
1F
100
AcDbEntity
  8
Title Block
100
AcDbMText
 10
11.815
 20
0.3749999999999982
 30
0.0
 40
0.05
 41
0.38
 71
     5
 72
     5
  1
CUST
 73
     1
 44
1.0
1001
ACAD
1000
MTEXTBEGIN
1070
    73
1070
     1
1070
    44
1040
1.0
1070
    74
1070
     0
1000
MTEXTEND
  0
MTEXT
  5
6C0
330
1F
100
AcDbEntity
  8
Title Block
100
AcDbMText
 10
12.19
 20
0.3749999999999982
 30
0.0
 40
0.05
 41
0.38
 71
     5
 72
     5
  1
SUP
 73
     1
 44
1.0
1001
ACAD
1000
MTEXTBEGIN
1070
    73
1070
     1
1070
    44
1040
1.0
1070
    74
1070
     0
1000
MTEXTEND
  0
LINE
  5
6C1
330
1F
100
AcDbEntity
  8
Title Block
100
AcDbLine
 10
16.75
 20
2.749999999999997
 30
0.0
 11
6.250000000000003
 21
2.749999999999999
 31
0.0
  0
LINE
  5
6C2
330
1F
100
AcDbEntity
  8
Title Block
100
AcDbLine
 10
12.75
 20
2.749999999999998
 30
0.0
 11
12.75
 21
0.2499999999999982
 31
0.0
  0
LINE
  5
6C3
330
1F
100
AcDbEntity
  8
Title Block
100
AcDbLine
 10
16.75
 20
2.499999999999997
 30
0.0
 11
6.250000000000003
 21
2.499999999999999
 31
0.0
  0
LINE
  5
6C4
330
1F
100
AcDbEntity
  8
Title Block
100
AcDbLine
 10
12.75
 20
2.249999999999998
 30
0.0
 11
6.250000000000003
 21
2.249999999999999
 31
0.0
  0
LINE
  5
6C5
330
1F
100
AcDbEntity
  8
Title Block
100
AcDbLine
 10
16.75
 20
1.999999999999997
 30
0.0
 11
6.250000000000003
 21
1.999999999999999
 31
0.0
  0
LINE
  5
6C6
330
1F
100
AcDbEntity
  8
Title Block
100
AcDbLine
 10
12.75
 20
1.749999999999998
 30
0.0
 11
6.250000000000003
 21
1.749999999999999
 31
0.0
  0
LINE
  5
6C7
330
1F
100
AcDbEntity
  8
Title Block
100
AcDbLine
 10
16.75
 20
1.499999999999997
 30
0.0
 11
6.250000000000003
 21
1.499999999999999
 31
0.0
  0
LINE
  5
6C8
330
1F
100
AcDbEntity
  8
Title Block
100
AcDbLine
 10
12.75
 20
1.249999999999998
 30
0.0
 11
6.250000000000003
 21
1.249999999999999
 31
0.0
  0
LINE
  5
6C9
330
1F
100
AcDbEntity
  8
Title Block
100
AcDbLine
 10
16.75
 20
0.9999999999999978
 30
0.0
 11
6.250000000000003
 21
0.9999999999999991
 31
0.0
  0
LINE
  5
6CA
330
1F
100
AcDbEntity
  8
Title Block
100
AcDbLine
 10
13.5
 20
0.7499999999999983
 30
0.0
 11
6.250000000000003
 21
0.7499999999999992
 31
0.0
  0
LINE
  5
6CB
330
1F
100
AcDbEntity
  8
Title Block
100
AcDbLine
 10
13.5
 20
0.4999999999999983
 30
0.0
 11
6.250000000000003
 21
0.4999999999999992
 31
0.0
  0
LINE
  5
6CC
330
1F
100
AcDbEntity
  8
Title Block
100
AcDbLine
 10
6.250000000000003
 20
0.2499999999999982
 30
0.0
 11
6.250000000000003
 21
2.749999999999999
 31
0.0
  0
LINE
  5
6CD
330
1F
100
AcDbEntity
  8
Title Block
100
AcDbLine
 10
6.500000000000003
 20
0.2499999999999982
 30
0.0
 11
6.500000000000003
 21
2.75
 31
0.0
  0
LINE
  5
6CE
330
1F
100
AcDbEntity
  8
Title Block
100
AcDbLine
 10
7.000000000000003
 20
0.2499999999999982
 30
0.0
 11
7.000000000000003
 21
2.75
 31
0.0
  0
LINE
  5
6CF
330
1F
100
AcDbEntity
  8
Title Block
100
AcDbLine
 10
7.375000000000003
 20
0.2499999999999982
 30
0.0
 11
7.375000000000003
 21
2.75
 31
0.0
  0
LINE
  5
6D0
330
1F
100
AcDbEntity
  8
Title Block
100
AcDbLine
 10
7.750000000000003
 20
0.2499999999999982
 30
0.0
 11
7.750000000000003
 21
2.75
 31
0.0
  0
LINE
  5
6D1
330
1F
100
AcDbEntity
  8
Title Block
100
AcDbLine
 10
12.375
 20
2.749999999999998
 30
0.0
 11
12.375
 21
0.2499999999999982
 31
0.0
  0
LINE
  5
6D2
330
1F
100
AcDbEntity
  8
Title Block
100
AcDbLine
 10
12.0
 20
2.749999999999998
 30
0.0
 11
12.0
 21
0.2499999999999982
 31
0.0
  0
LINE
  5
6D3
330
1F
100
AcDbEntity
  8
Title Block
100
AcDbLine
 10
11.625
 20
2.749999999999998
 30
0.0
 11
11.625
 21
0.2499999999999982
 31
0.0
  0
LINE
  5
6D4
330
1F
100
AcDbEntity
  8
Title Block
100
AcDbLine
 10
11.25
 20
2.749999999999998
 30
0.0
 11
11.25
 21
0.4999999999999984
 31
0.0
  0
LINE
  5
6D5
330
1F
100
AcDbEntity
  8
Title Block
100
AcDbLine
 10
10.5
 20
2.749999999999998
 30
0.0
 11
10.5
 21
0.2499999999999982
 31
0.0
  0
LINE
  5
6D6
330
1F
100
AcDbEntity
  8
Title Block
100
AcDbLine
 10
15.25
 20
0.7499999999999983
 30
0.0
 11
15.25
 21
1.499999999999997
 31
0.0
  0
LINE
  5
6D7
330
1F
100
AcDbEntity
  8
Title Block
100
AcDbLine
 10
15.25
 20
0.7499999999999983
 30
0.0
 11
15.25
 21
0.2499999999999982
 31
0.0
  0
LINE
  5
6D8
330
1F
100
AcDbEntity
  8
Title Block
100
AcDbLine
 10
15.25
 20
0.7499999999999983
 30
0.0
 11
16.75
 21
0.7499999999999983
 31
0.0
  0
LINE
  5
6D9
330
1F
100
AcDbEntity
  8
Title Block
100
AcDbLine
 10
13.5
 20
0.4999999999999983
 30
0.0
 11
13.5
 21
0.2499999999999982
 31
0.0
  0
LINE
  5
6DA
330
1F
100
AcDbEntity
  8
Title Block
100
AcDbLine
 10
13.5
 20
0.4999999999999983
 30
0.0
 11
13.5
 21
0.9999999999999982
 31
0.0
  0
LINE
  5
6DB
330
1F
100
AcDbEntity
  8
Title Block
100
AcDbLine
 10
16.25
 20
0.7499999999999983
 30
0.0
 11
16.25
 21
0.2499999999999982
 31
0.0
  0
LWPOLYLINE
  5
6DC
330
1F
100
AcDbEntity
  8
Title Block
100
AcDbPolyline
 90
        5
 70
     0
 43
0.01
 10
16.75
 20
0.2499999999999982
 10
16.75
 20
10.75
 10
0.2500000000000035
 20
10.75
 10
0.25
 20
0.25
 10
16.75
 20
0.2499999999999982
  0
POINT
  5
6DD
330
1F
100
AcDbEntity
  8
Title Block
100
AcDbPoint
 10
17.0
 20
-0.0000000000000018
 30
0.0
  0
POINT
  5
6DE
330
1F
100
AcDbEntity
  8
Title Block
100
AcDbPoint
 10
0.0
 20
0.0
 30
0.0
  0
POINT
  5
6DF
330
1F
100
AcDbEntity
  8
Title Block
100
AcDbPoint
 10
0.0000000000000036
 20
11.0
 30
0.0
  0
POINT
  5
6E0
330
1F
100
AcDbEntity
  8
Title Block
100
AcDbPoint
 10
17.0
 20
11.0
 30
0.0
  0
MTEXT
  5
6E1
330
1F
100
AcDbEntity
  8
Text
100
AcDbMText
 10
6.376628153647693
 20
0.6232951697642469
 30
0.0
 40
0.09
 41
0.25
 71
     5
 72
     5
  1
R
 73
     1
 44
1.0
1001
ACAD
1000
MTEXTBEGIN
1070
    73
1070
     1
1070
    44
1040
1.0
1070
    74
1070
     0
1000
MTEXTEND
  0
MTEXT
  5
6E2
330
1F
100
AcDbEntity
  8
Text
100
AcDbMText
 10
6.751628153647693
 20
0.6232951697642469
 30
0.0
 40
0.07
 41
0.5
 71
     5
 72
     5
  1
10-30-00
 73
     1
 44
1.0
1001
ACAD
1000
MTEXTBEGIN
1070
    73
1070
     1
1070
    44
1040
1.0
1070
    74
1070
     0
1000
MTEXTEND
  0
MTEXT
  5
6E3
330
1F
100
AcDbEntity
  8
Text
100
AcDbMText
 10
7.189128153647693
 20
0.6232951697642469
 30
0.0
 40
0.09
 41
0.375
 71
     5
 72
     5
  1
MSO
 73
     1
 44
1.0
1001
ACAD
1000
MTEXTBEGIN
1070
    73
1070
     1
1070
    44
1040
1.0
1070
    74
1070
     0
1000
MTEXTEND
  0
MTEXT
  5
6E4
330
1F
100
AcDbEntity
  8
Text
100
AcDbMText
 10
7.564128153647693
 20
0.6232951697642469
 30
0.0
 40
0.09
 41
0.375
 71
     5
 72
     5
  1
HIW
 73
     1
 44
1.0
1001
ACAD
1000
MTEXTBEGIN
1070
    73
1070
     1
1070
    44
1040
1.0
1070
    74
1070
     0
1000
MTEXTEND
  0
MTEXT
  5
6E5
330
1F
100
AcDbEntity
  8
Text
100
AcDbMText
 10
9.126628153647693
 20
0.6232951697642464
 30
0.0
 40
0.09
 41
2.75
 71
     5
 72
     5
  1
DRAWING RELEASED
 73
     1
 44
1.0
1001
ACAD
1000
MTEXTBEGIN
1070
    73
1070
     1
1070
    44
1040
1.0
1070
    74
1070
     0
1000
MTEXTEND
  0
MTEXT
  5
6E6
330
1F
100
AcDbEntity
  8
Text
100
AcDbMText
 10
13.47662815364769
 20
0.8482951697642459
 30
0.0
 40
0.09
 41
0.75
 71
     6
 72
     5
  1
MSO
 73
     1
 44
1.0
1001
ACAD
1000
MTEXTBEGIN
1070
    73
1070
     1
1070
    44
1040
1.0
1070
    74
1070
     0
1000
MTEXTEND
  0
MTEXT
  5
6E7
330
1F
100
AcDbEntity
  8
Text
100
AcDbMText
 10
13.47662815364769
 20
0.5982951697642458
 30
0.0
 40
0.09
 41
0.75
 71
     6
 72
     5
  1
10-30-00
 73
     1
 44
1.0
1001
ACAD
1000
MTEXTBEGIN
1070
    73
1070
     1
1070
    44
1040
1.0
1070
    74
1070
     0
1000
MTEXTEND
  0
MTEXT
  5
6E8
330
1F
100
AcDbEntity
  8
Text
100
AcDbMText
 10
13.47662815364769
 20
0.348295169764246
 30
0.0
 40
0.09
 41
0.75
 71
     6
 72
     5
  1
HIW
 73
     1
 44
1.0
1001
ACAD
1000
MTEXTBEGIN
1070
    73
1070
     1
1070
    44
1040
1.0
1070
    74
1070
     0
1000
MTEXTEND
  0
MTEXT
  5
6E9
330
1F
100
AcDbEntity
  8
Text
100
AcDbMText
 10
14.75162815364769
 20
2.623295169764245
 30
0.0
 40
0.09
 41
4.0
 71
     5
 72
     5
  1
FREC6X4.dwg
 73
     1
 44
1.0
1001
ACAD
1000
MTEXTBEGIN
1070
    73
1070
     1
1070
    44
1040
1.0
1070
    74
1070
     0
1000
MTEXTEND
  0
MTEXT
  5
6EA
330
1F
100
AcDbEntity
  8
Text
100
AcDbMText
 10
14.75162815364769
 20
1.748295169764245
 30
0.0
 40
0.09
 41
4.0
 71
     5
 72
     5
  1
FIBERRUNNER 6x4 END CAP\P(FREC6X4)\PMARKETING DRAWING
 73
     1
 44
1.0
1001
ACAD
1000
MTEXTBEGIN
1070
    73
1070
     1
1070
    44
1040
1.0
1070
    74
1070
     0
1000
MTEXTEND
  0
MTEXT
  5
6EB
330
1F
100
AcDbEntity
  8
Text
100
AcDbMText
 10
16.00162815364769
 20
0.8732951697642457
 30
0.0
 40
0.12
 41
1.5
 71
     5
 72
     5
  1
FULL
 73
     1
 44
1.0
1001
ACAD
1000
MTEXTBEGIN
1070
    73
1070
     1
1070
    44
1040
1.0
1070
    74
1070
     0
1000
MTEXTEND
  0
MTEXT
  5
6EC
330
1F
100
AcDbEntity
  8
Text
100
AcDbMText
 10
15.75162815364769
 20
0.498295169764246
 30
0.0
 40
0.12
 41
1.0
 71
     5
 72
     5
  1
36897-259
 73
     1
 44
1.0
1001
ACAD
1000
MTEXTBEGIN
1070
    73
1070
     1
1070
    44
1040
1.0
1070
    74
1070
     0
1000
MTEXTEND
  0
MTEXT
  5
6EF
330
1F
100
AcDbEntity
  8
Text
100
AcDbMText
 10
6.376628153647693
 20
0.8732951697642468
 30
0.0
 40
0.09
 41
0.25
 71
     5
 72
     5
  1
1
 73
     1
 44
1.0
1001
ACAD
1000
MTEXTBEGIN
1070
    73
1070
     1
1070
    44
1040
1.0
1070
    74
1070
     0
1000
MTEXTEND
  0
MTEXT
  5
6F0
330
1F
100
AcDbEntity
  8
Text
100
AcDbMText
 10
6.751628153647693
 20
0.8732951697642468
 30
0.0
 40
0.07
 41
0.5
 71
     5
 72
     5
  1
2-2-06
 73
     1
 44
1.0
1001
ACAD
1000
MTEXTBEGIN
1070
    73
1070
     1
1070
    44
1040
1.0
1070
    74
1070
     0
1000
MTEXTEND
  0
MTEXT
  5
6F1
330
1F
100
AcDbEntity
  8
Text
100
AcDbMText
 10
7.189128153647693
 20
0.8732951697642468
 30
0.0
 40
0.09
 41
0.375
 71
     5
 72
     5
  1
MSO
 73
     1
 44
1.0
1001
ACAD
1000
MTEXTBEGIN
1070
    73
1070
     1
1070
    44
1040
1.0
1070
    74
1070
     0
1000
MTEXTEND
  0
MTEXT
  5
6F2
330
1F
100
AcDbEntity
  8
Text
100
AcDbMText
 10
7.564128153647693
 20
0.8732951697642468
 30
0.0
 40
0.07
 41
0.375
 71
     5
 72
     5
  1
DJWA
 73
     1
 44
1.0
1001
ACAD
1000
MTEXTBEGIN
1070
    73
1070
     1
1070
    44
1040
1.0
1070
    74
1070
     0
1000
MTEXTEND
  0
MTEXT
  5
6F3
330
1F
100
AcDbEntity
  8
Text
100
AcDbMText
 10
7.776628153647694
 20
0.8732951697642462
 30
0.0
 40
0.07
 41
2.75
 71
     4
 72
     5
  1
A. REVISED PART GEOMETRY.
 73
     1
 44
1.0
1001
ACAD
1000
MTEXTBEGIN
1070
    73
1070
     1
1070
    44
1040
1.0
1070
    74
1070
     0
1000
MTEXTEND
  0
LINE
  5
6F7
330
1F
100
AcDbEntity
  8
Text
100
AcDbLine
 10
12.89625346333993
 20
2.9493780464141
 30
0.0
 11
13.19625346333993
 21
2.9493780464141
 31
0.0
  0
LINE
  5
6F8
330
1F
100
AcDbEntity
  8
Text
100
AcDbLine
 10
13.19625346333993
 20
2.9493780464141
 30
0.0
 11
13.04625346333993
 21
3.209185667549434
 31
0.0
  0
LINE
  5
6F9
330
1F
100
AcDbEntity
  8
Text
100
AcDbLine
 10
12.89625346333993
 20
2.9493780464141
 30
0.0
 11
13.04625346333993
 21
3.209185667549434
 31
0.0
  0
TEXT
  5
6FB
330
1F
100
AcDbEntity
  8
Text
100
AcDbText
 10
13.01135269913391
 20
3.007319303811666
 30
0.0
 40
0.09
  1
A
100
AcDbText
  0
LINE
  5
6FC
330
1F
100
AcDbEntity
  8
Text
100
AcDbLine
 10
4.80500246438256
 20
2.9493780464141
 30
0.0
 11
5.105002464382561
 21
2.9493780464141
 31
0.0
  0
LINE
  5
6FD
330
1F
100
AcDbEntity
  8
Text
100
AcDbLine
 10
5.105002464382561
 20
2.9493780464141
 30
0.0
 11
4.955002464382559
 21
3.209185667549434
 31
0.0
  0
LINE
  5
6FE
330
1F
100
AcDbEntity
  8
Text
100
AcDbLine
 10
4.805002464382559
 20
2.9493780464141
 30
0.0
 11
4.955002464382559
 21
3.209185667549434
 31
0.0
  0
TEXT
  5
6FF
330
1F
100
AcDbEntity
  8
Text
100
AcDbText
 10
4.920101700176545
 20
3.007319303811666
 30
0.0
 40
0.09
  1
A
100
AcDbText
  0
LINE
  5
700
330
1F
100
AcDbEntity
  8
Text
100
AcDbLine
 10
4.916050655899795
 20
8.992136078934592
 30
0.0
 11
5.216050655899795
 21
8.992136078934592
 31
0.0
  0
LINE
  5
701
330
1F
100
AcDbEntity
  8
Text
100
AcDbLine
 10
5.216050655899795
 20
8.992136078934592
 30
0.0
 11
5.066050655899793
 21
9.251943700069926
 31
0.0
  0
LINE
  5
702
330
1F
100
AcDbEntity
  8
Text
100
AcDbLine
 10
4.916050655899793
 20
8.992136078934592
 30
0.0
 11
5.066050655899793
 21
9.251943700069926
 31
0.0
  0
TEXT
  5
703
330
1F
100
AcDbEntity
  8
Text
100
AcDbText
 10
5.031149891693779
 20
9.050077336332158
 30
0.0
 40
0.09
  1
A
100
AcDbText
  0
ENDSEC
  0
SECTION
  2
OBJECTS
  0
DICTIONARY
  5
C
330
0
100
AcDbDictionary
281
     1
  3
ACAD_COLOR
350
73
  3
ACAD_GROUP
350
D
  3
ACAD_LAYOUT
350
1A
  3
ACAD_MATERIAL
350
72
  3
ACAD_MLINESTYLE
350
17
  3
ACAD_PLOTSETTINGS
350
19
  3
ACAD_PLOTSTYLENAME
350
E
  3
ACAD_TABLESTYLE
350
86
  3
ACDBHEADERROUNDTRIPXREC
350
76A
  3
AcDbVariableDictionary
350
66
  0
DICTIONARY
  5
6ED
330
1F
100
AcDbDictionary
280
     1
281
     1
  3
ACAD_SORTENTS
360
6EE
  0
DICTIONARY
  5
644
330
634
100
AcDbDictionary
280
     1
281
     1
  3
ACAD_DIMASSOC
360
650
  0
DICTIONARY
  5
664
330
656
100
AcDbDictionary
280
     1
281
     1
  3
ACAD_DIMASSOC
360
66F
  0
DICTIONARY
  5
698
330
68A
100
AcDbDictionary
280
     1
281
     1
  3
ACAD_DIMASSOC
360
6A3
  0
DICTIONARY
  5
73
102
{ACAD_REACTORS
330
C
102
}
330
C
100
AcDbDictionary
281
     1
  0
DICTIONARY
  5
D
102
{ACAD_REACTORS
330
C
102
}
330
C
100
AcDbDictionary
281
     1
  0
DICTIONARY
  5
1A
102
{ACAD_REACTORS
330
C
102
}
330
C
100
AcDbDictionary
281
     1
  3
Layout1
350
59
  3
Layout2
350
5E
  3
Model
350
22
  0
DICTIONARY
  5
72
102
{ACAD_REACTORS
330
C
102
}
330
C
100
AcDbDictionary
281
     1
  0
DICTIONARY
  5
17
102
{ACAD_REACTORS
330
C
102
}
330
C
100
AcDbDictionary
281
     1
  3
Standard
350
18
  0
DICTIONARY
  5
19
102
{ACAD_REACTORS
330
C
102
}
330
C
100
AcDbDictionary
281
     1
  0
ACDBDICTIONARYWDFLT
  5
E
102
{ACAD_REACTORS
330
C
102
}
330
C
100
AcDbDictionary
281
     1
  3
Normal
350
F
100
AcDbDictionaryWithDefault
340
F
  0
DICTIONARY
  5
86
102
{ACAD_REACTORS
330
C
102
}
330
C
100
AcDbDictionary
281
     1
  3
Standard
350
87
  0
DICTIONARY
  5
76A
102
{ACAD_REACTORS
330
C
102
}
330
C
100
AcDbDictionary
281
     1
  0
DICTIONARY
  5
66
102
{ACAD_REACTORS
330
C
102
}
330
C
100
AcDbDictionary
281
     1
  3
CTABLESTYLE
350
6F5
  3
DIMASSOC
350
67
  3
HIDETEXT
350
6B
  3
PROJECTNAME
350
768
  0
SORTENTSTABLE
  5
6EE
102
{ACAD_REACTORS
330
6ED
102
}
330
6ED
100
AcDbSortentsTable
330
1F
331
4C2
  5
4C2
331
484
  5
484
331
44E
  5
44E
331
3F9
  5
3F9
331
3BB
  5
3BB
331
39C
  5
39C
331
3DA
  5
3DA
331
410
  5
410
331
42F
  5
42F
331
46D
  5
46D
331
4A3
  5
4A3
331
4E1
  5
4E1
331
4F8
  5
4F8
331
6BB
  5
6BB
331
617
  5
617
331
5C2
  5
5C2
331
584
  5
584
331
5A3
  5
5A3
331
5E1
  5
5E1
331
5F8
  5
5F8
331
6DA
  5
6DA
331
36E
  5
36E
331
330
  5
330
331
2DB
  5
2DB
331
267
  5
267
331
286
  5
286
331
2BC
  5
2BC
331
2FA
  5
2FA
331
34F
  5
34F
331
38D
  5
38D
331
4E2
  5
4E2
331
4A4
  5
4A4
331
46E
  5
46E
331
430
  5
430
331
3DB
  5
3DB
331
39D
  5
39D
331
3BC
  5
3BC
331
3FA
  5
3FA
331
411
  5
411
331
44F
  5
44F
331
485
  5
485
331
4C3
  5
4C3
331
4F9
  5
4F9
331
518
  5
518
331
6DB
  5
6DB
331
6BC
  5
6BC
331
5E2
  5
5E2
331
5A4
  5
5A4
331
585
  5
585
331
5C3
  5
5C3
331
5F9
  5
5F9
331
618
  5
618
331
38E
  5
38E
331
350
  5
350
331
331
  5
331
331
2BD
  5
2BD
331
287
  5
287
331
2DC
  5
2DC
331
2FB
  5
2FB
331
36F
  5
36F
331
4FA
  5
4FA
331
4C4
  5
4C4
331
486
  5
486
331
450
  5
450
331
3FB
  5
3FB
331
3BD
  5
3BD
331
39E
  5
39E
331
3DC
  5
3DC
331
412
  5
412
331
431
  5
431
331
46F
  5
46F
331
4A5
  5
4A5
331
4E3
  5
4E3
331
519
  5
519
331
538
  5
538
331
6BD
  5
6BD
331
5FA
  5
5FA
331
5C4
  5
5C4
331
586
  5
586
331
5A5
  5
5A5
331
5E3
  5
5E3
331
619
  5
619
331
6DC
  5
6DC
331
370
  5
370
331
332
  5
332
331
2DD
  5
2DD
331
2BE
  5
2BE
331
2FC
  5
2FC
331
351
  5
351
331
38F
  5
38F
331
539
  5
539
331
4E4
  5
4E4
331
4A6
  5
4A6
331
432
  5
432
331
3DD
  5
3DD
331
39F
  5
39F
331
3BE
  5
3BE
331
3FC
  5
3FC
331
413
  5
413
331
451
  5
451
331
470
  5
470
331
487
  5
487
331
4C5
  5
4C5
331
4FB
  5
4FB
331
51A
  5
51A
331
558
  5
558
331
6DD
  5
6DD
331
6BE
  5
6BE
331
5E4
  5
5E4
331
5A6
  5
5A6
331
587
  5
587
331
5C5
  5
5C5
331
5FB
  5
5FB
331
61A
  5
61A
331
352
  5
352
331
2FD
  5
2FD
331
2BF
  5
2BF
331
2DE
  5
2DE
331
333
  5
333
331
371
  5
371
331
559
  5
559
331
4FC
  5
4FC
331
4C6
  5
4C6
331
452
  5
452
331
3FD
  5
3FD
331
3BF
  5
3BF
331
3A0
  5
3A0
331
3DE
  5
3DE
331
414
  5
414
331
433
  5
433
331
471
  5
471
331
488
  5
488
331
4A7
  5
4A7
331
4E5
  5
4E5
331
51B
  5
51B
331
53A
  5
53A
331
6BF
  5
6BF
331
5FC
  5
5FC
331
5C6
  5
5C6
331
588
  5
588
331
5A7
  5
5A7
331
5E5
  5
5E5
331
61B
  5
61B
331
6DE
  5
6DE
331
372
  5
372
331
334
  5
334
331
2DF
  5
2DF
331
2FE
  5
2FE
331
353
  5
353
331
51C
  5
51C
331
4E6
  5
4E6
331
4A8
  5
4A8
331
434
  5
434
331
3DF
  5
3DF
331
3A1
  5
3A1
331
3C0
  5
3C0
331
3FE
  5
3FE
331
415
  5
415
331
453
  5
453
331
472
  5
472
331
489
  5
489
331
4C7
  5
4C7
331
4FD
  5
4FD
331
53B
  5
53B
331
55A
  5
55A
331
6DF
  5
6DF
331
61C
  5
61C
331
5E6
  5
5E6
331
5A8
  5
5A8
331
589
  5
589
331
5C7
  5
5C7
331
5FD
  5
5FD
331
68A
  5
68A
331
6C0
  5
6C0
331
354
  5
354
331
2FF
  5
2FF
331
335
  5
335
331
373
  5
373
331
55B
  5
55B
331
4FE
  5
4FE
331
4C8
  5
4C8
331
454
  5
454
331
3FF
  5
3FF
331
3C1
  5
3C1
331
3A2
  5
3A2
331
3E0
  5
3E0
331
416
  5
416
331
435
  5
435
331
473
  5
473
331
48A
  5
48A
331
4A9
  5
4A9
331
4E7
  5
4E7
331
51D
  5
51D
331
53C
  5
53C
331
6C1
  5
6C1
331
5FE
  5
5FE
331
5C8
  5
5C8
331
58A
  5
58A
331
5A9
  5
5A9
331
5E7
  5
5E7
331
61D
  5
61D
331
6E0
  5
6E0
331
374
  5
374
331
336
  5
336
331
355
  5
355
331
51E
  5
51E
331
4E8
  5
4E8
331
48B
  5
48B
331
417
  5
417
331
3E1
  5
3E1
331
3A3
  5
3A3
331
3C2
  5
3C2
331
400
  5
400
331
436
  5
436
331
455
  5
455
331
474
  5
474
331
4AA
  5
4AA
331
4C9
  5
4C9
331
4FF
  5
4FF
331
53D
  5
53D
331
55C
  5
55C
331
6E1
  5
6E1
331
61E
  5
61E
331
5FF
  5
5FF
331
58B
  5
58B
331
5AA
  5
5AA
331
5C9
  5
5C9
331
6C2
  5
6C2
331
356
  5
356
331
337
  5
337
331
375
  5
375
331
53E
  5
53E
331
4E9
  5
4E9
331
4CA
  5
4CA
331
456
  5
456
331
401
  5
401
331
3C3
  5
3C3
331
3A4
  5
3A4
331
3E2
  5
3E2
331
418
  5
418
331
437
  5
437
331
475
  5
475
331
48C
  5
48C
331
4AB
  5
4AB
331
500
  5
500
331
51F
  5
51F
331
55D
  5
55D
331
6C3
  5
6C3
331
600
  5
600
331
5CA
  5
5CA
331
58C
  5
58C
331
5AB
  5
5AB
331
61F
  5
61F
331
6A4
  5
6A4
331
6E2
  5
6E2
331
376
  5
376
331
357
  5
357
331
520
  5
520
331
4EA
  5
4EA
331
48D
  5
48D
331
419
  5
419
331
3E3
  5
3E3
331
3A5
  5
3A5
331
3C4
  5
3C4
331
402
  5
402
331
438
  5
438
331
457
  5
457
331
476
  5
476
331
4AC
  5
4AC
331
4CB
  5
4CB
331
501
  5
501
331
53F
  5
53F
331
55E
  5
55E
331
6E3
  5
6E3
331
620
  5
620
331
601
  5
601
331
58D
  5
58D
331
5AC
  5
5AC
331
5CB
  5
5CB
331
6A5
  5
6A5
331
6C4
  5
6C4
331
377
  5
377
331
540
  5
540
331
4EB
  5
4EB
331
4AD
  5
4AD
331
477
  5
477
331
439
  5
439
331
403
  5
403
331
3C5
  5
3C5
331
3A6
  5
3A6
331
3E4
  5
3E4
331
41A
  5
41A
331
458
  5
458
331
48E
  5
48E
331
4CC
  5
4CC
331
502
  5
502
331
521
  5
521
331
55F
  5
55F
331
6E4
  5
6E4
331
6C5
  5
6C5
331
602
  5
602
331
5AD
  5
5AD
331
58E
  5
58E
331
5CC
  5
5CC
331
621
  5
621
331
6A6
  5
6A6
331
560
  5
560
331
522
  5
522
331
4EC
  5
4EC
331
48F
  5
48F
331
478
  5
478
331
41B
  5
41B
331
3E5
  5
3E5
331
3A7
  5
3A7
331
3C6
  5
3C6
331
404
  5
404
331
43A
  5
43A
331
459
  5
459
331
4AE
  5
4AE
331
4CD
  5
4CD
331
503
  5
503
331
541
  5
541
331
6E5
  5
6E5
331
622
  5
622
331
603
  5
603
331
58F
  5
58F
331
5AE
  5
5AE
331
5CD
  5
5CD
331
6C6
  5
6C6
331
542
  5
542
331
4ED
  5
4ED
331
4AF
  5
4AF
331
479
  5
479
331
43B
  5
43B
331
405
  5
405
331
3A8
  5
3A8
331
3C7
  5
3C7
331
3E6
  5
3E6
331
41C
  5
41C
331
45A
  5
45A
331
490
  5
490
331
4CE
  5
4CE
331
504
  5
504
331
523
  5
523
331
561
  5
561
331
6E6
  5
6E6
331
6A8
  5
6A8
331
604
  5
604
331
5AF
  5
5AF
331
5CE
  5
5CE
331
623
  5
623
331
6C7
  5
6C7
331
562
  5
562
331
524
  5
524
331
4CF
  5
4CF
331
47A
  5
47A
331
45B
  5
45B
331
406
  5
406
331
3E7
  5
3E7
331
3A9
  5
3A9
331
3C8
  5
3C8
331
41D
  5
41D
331
43C
  5
43C
331
491
  5
491
331
4B0
  5
4B0
331
4EE
  5
4EE
331
505
  5
505
331
543
  5
543
331
6C8
  5
6C8
331
624
  5
624
331
5CF
  5
5CF
331
605
  5
605
331
6A9
  5
6A9
331
6E7
  5
6E7
331
544
  5
544
331
4EF
  5
4EF
331
4B1
  5
4B1
331
47B
  5
47B
331
43D
  5
43D
331
407
  5
407
331
3AA
  5
3AA
331
3C9
  5
3C9
331
3E8
  5
3E8
331
41E
  5
41E
331
45C
  5
45C
331
492
  5
492
331
4D0
  5
4D0
331
506
  5
506
331
525
  5
525
331
563
  5
563
331
6E8
  5
6E8
331
6AA
  5
6AA
331
606
  5
606
331
625
  5
625
331
6C9
  5
6C9
331
564
  5
564
331
526
  5
526
331
4D1
  5
4D1
331
47C
  5
47C
331
45D
  5
45D
331
41F
  5
41F
331
3CA
  5
3CA
331
3AB
  5
3AB
331
3E9
  5
3E9
331
43E
  5
43E
331
493
  5
493
331
4B2
  5
4B2
331
4F0
  5
4F0
331
507
  5
507
331
545
  5
545
331
6CA
  5
6CA
331
626
  5
626
331
607
  5
607
331
6AB
  5
6AB
331
6E9
  5
6E9
331
546
  5
546
331
4F1
  5
4F1
331
4B3
  5
4B3
331
47D
  5
47D
331
43F
  5
43F
331
420
  5
420
331
3AC
  5
3AC
331
3CB
  5
3CB
331
3EA
  5
3EA
331
45E
  5
45E
331
494
  5
494
331
4D2
  5
4D2
331
508
  5
508
331
527
  5
527
331
565
  5
565
331
6EA
  5
6EA
331
6AC
  5
6AC
331
656
  5
656
331
627
  5
627
331
6CB
  5
6CB
331
566
  5
566
331
528
  5
528
331
4D3
  5
4D3
331
47E
  5
47E
331
45F
  5
45F
331
421
  5
421
331
3CC
  5
3CC
331
3AD
  5
3AD
331
3EB
  5
3EB
331
440
  5
440
331
495
  5
495
331
4B4
  5
4B4
331
4F2
  5
4F2
331
509
  5
509
331
547
  5
547
331
6CC
  5
6CC
331
6AD
  5
6AD
331
6EB
  5
6EB
331
548
  5
548
331
4F3
  5
4F3
331
4B5
  5
4B5
331
47F
  5
47F
331
441
  5
441
331
3EC
  5
3EC
331
3AE
  5
3AE
331
3CD
  5
3CD
331
422
  5
422
331
460
  5
460
331
496
  5
496
331
4D4
  5
4D4
331
50A
  5
50A
331
529
  5
529
331
567
  5
567
331
6EC
  5
6EC
331
6AE
  5
6AE
331
6CD
  5
6CD
331
568
  5
568
331
50B
  5
50B
331
4D5
  5
4D5
331
461
  5
461
331
423
  5
423
331
3CE
  5
3CE
331
3AF
  5
3AF
331
3ED
  5
3ED
331
442
  5
442
331
497
  5
497
331
4B6
  5
4B6
331
4F4
  5
4F4
331
52A
  5
52A
331
549
  5
549
331
6CE
  5
6CE
331
6AF
  5
6AF
331
569
  5
569
331
54A
  5
54A
331
4F5
  5
4F5
331
4B7
  5
4B7
331
443
  5
443
331
3EE
  5
3EE
331
3CF
  5
3CF
331
424
  5
424
331
462
  5
462
331
498
  5
498
331
4D6
  5
4D6
331
50C
  5
50C
331
52B
  5
52B
331
6CF
  5
6CF
331
56A
  5
56A
331
50D
  5
50D
331
4D7
  5
4D7
331
463
  5
463
331
425
  5
425
331
3EF
  5
3EF
331
444
  5
444
331
499
  5
499
331
4B8
  5
4B8
331
4F6
  5
4F6
331
52C
  5
52C
331
54B
  5
54B
331
56B
  5
56B
331
52D
  5
52D
331
4F7
  5
4F7
331
4B9
  5
4B9
331
445
  5
445
331
426
  5
426
331
464
  5
464
331
49A
  5
49A
331
4D8
  5
4D8
331
50E
  5
50E
331
54C
  5
54C
331
56C
  5
56C
331
50F
  5
50F
331
4D9
  5
4D9
331
465
  5
465
331
427
  5
427
331
446
  5
446
331
49B
  5
49B
331
4BA
  5
4BA
331
52E
  5
52E
331
54D
  5
54D
331
56D
  5
56D
331
52F
  5
52F
331
510
  5
510
331
49C
  5
49C
331
447
  5
447
331
466
  5
466
331
4BB
  5
4BB
331
4DA
  5
4DA
331
54E
  5
54E
331
54F
  5
54F
331
511
  5
511
331
4DB
  5
4DB
331
467
  5
467
331
49D
  5
49D
331
4BC
  5
4BC
331
530
  5
530
331
56E
  5
56E
331
56F
  5
56F
331
531
  5
531
331
512
  5
512
331
49E
  5
49E
331
4BD
  5
4BD
331
4DC
  5
4DC
331
550
  5
550
331
551
  5
551
331
513
  5
513
331
4BE
  5
4BE
331
49F
  5
49F
331
4DD
  5
4DD
331
532
  5
532
331
533
  5
533
331
514
  5
514
331
4BF
  5
4BF
331
4DE
  5
4DE
331
552
  5
552
331
1B0
  5
1B0
331
553
  5
553
331
515
  5
515
331
4DF
  5
4DF
331
534
  5
534
331
1B1
  5
1B1
331
1D0
  5
1D0
331
535
  5
535
331
516
  5
516
331
554
  5
554
331
1D1
  5
1D1
331
1B2
  5
1B2
331
1F0
  5
1F0
331
555
  5
555
331
517
  5
517
331
536
  5
536
331
1F1
  5
1F1
331
1B3
  5
1B3
331
1D2
  5
1D2
331
210
  5
210
331
537
  5
537
331
556
  5
556
331
211
  5
211
331
1B4
  5
1B4
331
1D3
  5
1D3
331
1F2
  5
1F2
331
228
  5
228
331
1A6
  5
1A6
331
557
  5
557
331
229
  5
229
331
1F3
  5
1F3
331
1B5
  5
1B5
331
1D4
  5
1D4
331
212
  5
212
331
248
  5
248
331
1A7
  5
1A7
331
249
  5
249
331
213
  5
213
331
1B6
  5
1B6
331
1D5
  5
1D5
331
1F4
  5
1F4
331
22A
  5
22A
331
268
  5
268
331
1A8
  5
1A8
331
269
  5
269
331
22B
  5
22B
331
1D6
  5
1D6
331
1B7
  5
1B7
331
1F5
  5
1F5
331
214
  5
214
331
24A
  5
24A
331
288
  5
288
331
1A9
  5
1A9
331
289
  5
289
331
24B
  5
24B
331
215
  5
215
331
1B8
  5
1B8
331
1D7
  5
1D7
331
1F6
  5
1F6
331
22C
  5
22C
331
26A
  5
26A
331
2A0
  5
2A0
331
1AA
  5
1AA
331
2A1
  5
2A1
331
26B
  5
26B
331
22D
  5
22D
331
1D8
  5
1D8
331
1B9
  5
1B9
331
1F7
  5
1F7
331
216
  5
216
331
24C
  5
24C
331
28A
  5
28A
331
2C0
  5
2C0
331
1AB
  5
1AB
331
2C1
  5
2C1
331
28B
  5
28B
331
24D
  5
24D
331
1F8
  5
1F8
331
1BA
  5
1BA
331
1D9
  5
1D9
331
217
  5
217
331
22E
  5
22E
331
26C
  5
26C
331
2A2
  5
2A2
331
2E0
  5
2E0
331
1AC
  5
1AC
331
2E1
  5
2E1
331
2A3
  5
2A3
331
26D
  5
26D
331
218
  5
218
331
1DA
  5
1DA
331
1BB
  5
1BB
331
1F9
  5
1F9
331
22F
  5
22F
331
24E
  5
24E
331
28C
  5
28C
331
2C2
  5
2C2
331
300
  5
300
331
1AD
  5
1AD
331
301
  5
301
331
2C3
  5
2C3
331
28D
  5
28D
331
24F
  5
24F
331
1FA
  5
1FA
331
1BC
  5
1BC
331
1DB
  5
1DB
331
219
  5
219
331
230
  5
230
331
26E
  5
26E
331
2A4
  5
2A4
331
2E2
  5
2E2
331
318
  5
318
331
1AE
  5
1AE
331
319
  5
319
331
2E3
  5
2E3
331
2A5
  5
2A5
331
26F
  5
26F
331
21A
  5
21A
331
1DC
  5
1DC
331
1BD
  5
1BD
331
1FB
  5
1FB
331
231
  5
231
331
250
  5
250
331
28E
  5
28E
331
2C4
  5
2C4
331
302
  5
302
331
338
  5
338
331
1AF
  5
1AF
331
339
  5
339
331
303
  5
303
331
2C5
  5
2C5
331
28F
  5
28F
331
251
  5
251
331
1FC
  5
1FC
331
1BE
  5
1BE
331
1DD
  5
1DD
331
21B
  5
21B
331
232
  5
232
331
270
  5
270
331
2A6
  5
2A6
331
2E4
  5
2E4
331
31A
  5
31A
331
358
  5
358
331
378
  5
378
331
31B
  5
31B
331
2E5
  5
2E5
331
271
  5
271
331
21C
  5
21C
331
1DE
  5
1DE
331
1BF
  5
1BF
331
1FD
  5
1FD
331
233
  5
233
331
252
  5
252
331
290
  5
290
331
2A7
  5
2A7
331
2C6
  5
2C6
331
304
  5
304
331
33A
  5
33A
331
359
  5
359
331
33B
  5
33B
331
305
  5
305
331
2A8
  5
2A8
331
234
  5
234
331
1FE
  5
1FE
331
1C0
  5
1C0
331
1DF
  5
1DF
331
21D
  5
21D
331
253
  5
253
331
272
  5
272
331
291
  5
291
331
2C7
  5
2C7
331
2E6
  5
2E6
331
31C
  5
31C
331
35A
  5
35A
331
379
  5
379
331
570
  5
570
331
35B
  5
35B
331
31D
  5
31D
331
2E7
  5
2E7
331
273
  5
273
331
21E
  5
21E
331
1E0
  5
1E0
331
1C1
  5
1C1
331
1FF
  5
1FF
331
235
  5
235
331
254
  5
254
331
292
  5
292
331
2A9
  5
2A9
331
2C8
  5
2C8
331
306
  5
306
331
33C
  5
33C
331
37A
  5
37A
331
571
  5
571
331
590
  5
590
331
591
  5
591
331
33D
  5
33D
331
307
  5
307
331
2AA
  5
2AA
331
236
  5
236
331
200
  5
200
331
1C2
  5
1C2
331
1E1
  5
1E1
331
21F
  5
21F
331
255
  5
255
331
274
  5
274
331
293
  5
293
331
2C9
  5
2C9
331
2E8
  5
2E8
331
31E
  5
31E
331
35C
  5
35C
331
37B
  5
37B
331
572
  5
572
331
5B0
  5
5B0
331
5B1
  5
5B1
331
35D
  5
35D
331
308
  5
308
331
2CA
  5
2CA
331
256
  5
256
331
220
  5
220
331
1E2
  5
1E2
331
1C3
  5
1C3
331
201
  5
201
331
237
  5
237
331
275
  5
275
331
294
  5
294
331
2AB
  5
2AB
331
2E9
  5
2E9
331
31F
  5
31F
331
33E
  5
33E
331
37C
  5
37C
331
573
  5
573
331
592
  5
592
331
5D0
  5
5D0
331
5D1
  5
5D1
331
593
  5
593
331
574
  5
574
331
5B2
  5
5B2
331
5E8
  5
5E8
331
37D
  5
37D
331
33F
  5
33F
331
309
  5
309
331
2AC
  5
2AC
331
238
  5
238
331
202
  5
202
331
1C4
  5
1C4
331
1E3
  5
1E3
331
221
  5
221
331
257
  5
257
331
276
  5
276
331
295
  5
295
331
2CB
  5
2CB
331
2EA
  5
2EA
331
320
  5
320
331
35E
  5
35E
331
5E9
  5
5E9
331
5B3
  5
5B3
331
575
  5
575
331
594
  5
594
331
5D2
  5
5D2
331
608
  5
608
331
35F
  5
35F
331
30A
  5
30A
331
2CC
  5
2CC
331
258
  5
258
331
222
  5
222
331
1C5
  5
1C5
331
1E4
  5
1E4
331
203
  5
203
331
239
  5
239
331
277
  5
277
331
296
  5
296
331
2AD
  5
2AD
331
2EB
  5
2EB
331
321
  5
321
331
340
  5
340
331
37E
  5
37E
331
628
  5
628
331
5D3
  5
5D3
331
595
  5
595
331
576
  5
576
331
5B4
  5
5B4
331
5EA
  5
5EA
331
609
  5
609
331
37F
  5
37F
331
341
  5
341
331
2EC
  5
2EC
331
297
  5
297
331
278
  5
278
331
223
  5
223
331
204
  5
204
331
1C6
  5
1C6
331
1E5
  5
1E5
331
23A
  5
23A
331
259
  5
259
331
2AE
  5
2AE
331
2CD
  5
2CD
331
30B
  5
30B
331
322
  5
322
331
360
  5
360
331
5EB
  5
5EB
331
5B5
  5
5B5
331
577
  5
577
331
596
  5
596
331
5D4
  5
5D4
331
60A
  5
60A
331
629
  5
629
331
361
  5
361
331
30C
  5
30C
331
2CE
  5
2CE
331
298
  5
298
331
25A
  5
25A
331
224
  5
224
331
1C7
  5
1C7
331
1E6
  5
1E6
331
205
  5
205
331
23B
  5
23B
331
279
  5
279
331
2AF
  5
2AF
331
2ED
  5
2ED
331
323
  5
323
331
342
  5
342
331
380
  5
380
331
390
  5
390
331
60B
  5
60B
331
5D5
  5
5D5
331
597
  5
597
331
578
  5
578
331
5B6
  5
5B6
331
5EC
  5
5EC
331
62A
  5
62A
331
381
  5
381
331
343
  5
343
331
2EE
  5
2EE
331
299
  5
299
331
27A
  5
27A
331
225
  5
225
331
1E7
  5
1E7
331
1C8
  5
1C8
331
206
  5
206
331
23C
  5
23C
331
25B
  5
25B
331
2B0
  5
2B0
331
2CF
  5
2CF
331
30D
  5
30D
331
324
  5
324
331
362
  5
362
331
3B0
  5
3B0
331
391
  5
391
331
6B0
  5
6B0
331
5ED
  5
5ED
331
5B7
  5
5B7
331
579
  5
579
331
598
  5
598
331
5D6
  5
5D6
331
60C
  5
60C
331
62B
  5
62B
331
363
  5
363
331
30E
  5
30E
331
2D0
  5
2D0
331
29A
  5
29A
331
25C
  5
25C
331
226
  5
226
331
1C9
  5
1C9
331
1E8
  5
1E8
331
207
  5
207
331
23D
  5
23D
331
27B
  5
27B
331
2B1
  5
2B1
331
2EF
  5
2EF
331
325
  5
325
331
344
  5
344
331
382
  5
382
331
3D0
  5
3D0
331
392
  5
392
331
3B1
  5
3B1
331
6D0
  5
6D0
331
60D
  5
60D
331
5D7
  5
5D7
331
57A
  5
57A
331
599
  5
599
331
5B8
  5
5B8
331
5EE
  5
5EE
331
62C
  5
62C
331
6B1
  5
6B1
331
383
  5
383
331
345
  5
345
331
2F0
  5
2F0
331
29B
  5
29B
331
27C
  5
27C
331
227
  5
227
331
1E9
  5
1E9
331
1CA
  5
1CA
331
208
  5
208
331
23E
  5
23E
331
25D
  5
25D
331
2B2
  5
2B2
331
2D1
  5
2D1
331
30F
  5
30F
331
326
  5
326
331
364
  5
364
331
3F0
  5
3F0
331
3B2
  5
3B2
331
393
  5
393
331
3D1
  5
3D1
331
62D
  5
62D
331
5D8
  5
5D8
331
5B9
  5
5B9
331
57B
  5
57B
331
59A
  5
59A
331
5EF
  5
5EF
331
60E
  5
60E
331
6B2
  5
6B2
331
6D1
  5
6D1
331
365
  5
365
331
310
  5
310
331
2D2
  5
2D2
331
29C
  5
29C
331
25E
  5
25E
331
209
  5
209
331
1CB
  5
1CB
331
1EA
  5
1EA
331
23F
  5
23F
331
27D
  5
27D
331
2B3
  5
2B3
331
2F1
  5
2F1
331
327
  5
327
331
346
  5
346
331
384
  5
384
331
408
  5
408
331
3D2
  5
3D2
331
394
  5
394
331
3B3
  5
3B3
331
3F1
  5
3F1
331
6D2
  5
6D2
331
60F
  5
60F
331
5D9
  5
5D9
331
57C
  5
57C
331
59B
  5
59B
331
5BA
  5
5BA
331
5F0
  5
5F0
331
62E
  5
62E
331
6B3
  5
6B3
331
385
  5
385
331
328
  5
328
331
2F2
  5
2F2
331
29D
  5
29D
331
27E
  5
27E
331
240
  5
240
331
1EB
  5
1EB
331
1CC
  5
1CC
331
20A
  5
20A
331
25F
  5
25F
331
2B4
  5
2B4
331
2D3
  5
2D3
331
311
  5
311
331
347
  5
347
331
366
  5
366
331
428
  5
428
331
3F2
  5
3F2
331
3B4
  5
3B4
331
395
  5
395
331
3D3
  5
3D3
331
409
  5
409
331
6D3
  5
6D3
331
62F
  5
62F
331
5DA
  5
5DA
331
59C
  5
59C
331
57D
  5
57D
331
5BB
  5
5BB
331
5F1
  5
5F1
331
610
  5
610
331
6B4
  5
6B4
331
386
  5
386
331
367
  5
367
331
312
  5
312
331
2D4
  5
2D4
331
29E
  5
29E
331
260
  5
260
331
20B
  5
20B
331
1CD
  5
1CD
331
1EC
  5
1EC
331
241
  5
241
331
27F
  5
27F
331
2B5
  5
2B5
331
2F3
  5
2F3
331
329
  5
329
331
348
  5
348
331
40A
  5
40A
331
3D4
  5
3D4
331
396
  5
396
331
3B5
  5
3B5
331
3F3
  5
3F3
331
429
  5
429
331
448
  5
448
331
6D4
  5
6D4
331
611
  5
611
331
5DB
  5
5DB
331
57E
  5
57E
331
59D
  5
59D
331
5BC
  5
5BC
331
5F2
  5
5F2
331
630
  5
630
331
6B5
  5
6B5
331
387
  5
387
331
32A
  5
32A
331
2F4
  5
2F4
331
29F
  5
29F
331
280
  5
280
331
242
  5
242
331
1ED
  5
1ED
331
1CE
  5
1CE
331
20C
  5
20C
331
261
  5
261
331
2B6
  5
2B6
331
2D5
  5
2D5
331
313
  5
313
331
349
  5
349
331
368
  5
368
331
42A
  5
42A
331
3F4
  5
3F4
331
397
  5
397
331
3B6
  5
3B6
331
3D5
  5
3D5
331
40B
  5
40B
331
449
  5
449
331
468
  5
468
331
6D5
  5
6D5
331
631
  5
631
331
5DC
  5
5DC
331
59E
  5
59E
331
57F
  5
57F
331
5BD
  5
5BD
331
5F3
  5
5F3
331
612
  5
612
331
6B6
  5
6B6
331
388
  5
388
331
34A
  5
34A
331
314
  5
314
331
2D6
  5
2D6
331
262
  5
262
331
20D
  5
20D
331
1CF
  5
1CF
331
1EE
  5
1EE
331
243
  5
243
331
281
  5
281
331
2B7
  5
2B7
331
2F5
  5
2F5
331
32B
  5
32B
331
369
  5
369
331
480
  5
480
331
44A
  5
44A
331
40C
  5
40C
331
3D6
  5
3D6
331
398
  5
398
331
3B7
  5
3B7
331
3F5
  5
3F5
331
42B
  5
42B
331
469
  5
469
331
6D6
  5
6D6
331
613
  5
613
331
5BE
  5
5BE
331
580
  5
580
331
59F
  5
59F
331
5DD
  5
5DD
331
5F4
  5
5F4
331
632
  5
632
331
6B7
  5
6B7
331
389
  5
389
331
32C
  5
32C
331
2F6
  5
2F6
331
282
  5
282
331
244
  5
244
331
1EF
  5
1EF
331
20E
  5
20E
331
263
  5
263
331
2B8
  5
2B8
331
2D7
  5
2D7
331
315
  5
315
331
34B
  5
34B
331
36A
  5
36A
331
4A0
  5
4A0
331
481
  5
481
331
42C
  5
42C
331
3F6
  5
3F6
331
399
  5
399
331
3B8
  5
3B8
331
3D7
  5
3D7
331
40D
  5
40D
331
44B
  5
44B
331
46A
  5
46A
331
6D7
  5
6D7
331
6B8
  5
6B8
331
5DE
  5
5DE
331
5A0
  5
5A0
331
581
  5
581
331
5BF
  5
5BF
331
5F5
  5
5F5
331
614
  5
614
331
38A
  5
38A
331
34C
  5
34C
331
316
  5
316
331
2B9
  5
2B9
331
245
  5
245
331
20F
  5
20F
331
264
  5
264
331
283
  5
283
331
2D8
  5
2D8
331
2F7
  5
2F7
331
32D
  5
32D
331
36B
  5
36B
331
4C0
  5
4C0
331
482
  5
482
331
44C
  5
44C
331
40E
  5
40E
331
3B9
  5
3B9
331
39A
  5
39A
331
3D8
  5
3D8
331
3F7
  5
3F7
331
42D
  5
42D
331
46B
  5
46B
331
4A1
  5
4A1
331
6B9
  5
6B9
331
615
  5
615
331
5C0
  5
5C0
331
582
  5
582
331
5A1
  5
5A1
331
5DF
  5
5DF
331
5F6
  5
5F6
331
634
  5
634
331
6D8
  5
6D8
331
36C
  5
36C
331
317
  5
317
331
2F8
  5
2F8
331
284
  5
284
331
246
  5
246
331
265
  5
265
331
2BA
  5
2BA
331
2D9
  5
2D9
331
32E
  5
32E
331
34D
  5
34D
331
38B
  5
38B
331
4E0
  5
4E0
331
4A2
  5
4A2
331
46C
  5
46C
331
42E
  5
42E
331
3F8
  5
3F8
331
39B
  5
39B
331
3BA
  5
3BA
331
3D9
  5
3D9
331
40F
  5
40F
331
44D
  5
44D
331
483
  5
483
331
4C1
  5
4C1
331
6D9
  5
6D9
331
6BA
  5
6BA
331
5E0
  5
5E0
331
5A2
  5
5A2
331
583
  5
583
331
5C1
  5
5C1
331
5F7
  5
5F7
331
616
  5
616
331
38C
  5
38C
331
34E
  5
34E
331
32F
  5
32F
331
2BB
  5
2BB
331
247
  5
247
331
266
  5
266
331
285
  5
285
331
2DA
  5
2DA
331
2F9
  5
2F9
331
36D
  5
36D
  0
DIMASSOC
  5
650
102
{ACAD_REACTORS
330
644
102
}
330
644
100
AcDbDimAssoc
330
634
 90
        2
 70
     0
 71
     0
  1
AcDbOsnapPointRef
 72
    13
331
5BF
 73
     2
 91
        0
 40
0.0
 10
0.0
 20
0.0
 30
2.000000000000000E+50
 75
     0
  0
DIMASSOC
  5
66F
102
{ACAD_REACTORS
330
664
102
}
330
664
100
AcDbDimAssoc
330
656
 90
        1
 70
     0
 71
     0
  1
AcDbOsnapPointRef
 72
     1
331
2B6
 73
     2
 91
        0
 40
1.0
 10
0.0
 20
0.0
 30
2.000000000000000E+50
 75
     0
  0
DIMASSOC
  5
6A3
102
{ACAD_REACTORS
330
698
102
}
330
698
100
AcDbDimAssoc
330
68A
 90
        1
 70
     0
 71
     0
  1
AcDbOsnapPointRef
 72
     1
331
214
 73
     2
 91
        0
 40
1.0
 10
0.0
 20
0.0
 30
2.000000000000000E+50
 75
     0
  0
LAYOUT
  5
59
102
{ACAD_XDICTIONARY
360
76D
102
}
102
{ACAD_REACTORS
330
1A
102
}
330
1A
100
AcDbPlotSettings
  1

  2
None
  4

  6

 40
0.0
 41
0.0
 42
0.0
 43
0.0
 44
0.0
 45
0.0
 46
0.0
 47
0.0
 48
0.0
 49
0.0
140
0.0
141
0.0
142
1.0
143
1.0
 70
   688
 72
     0
 73
     0
 74
     5
  7

 75
    16
147
1.0
148
0.0
149
0.0
100
AcDbLayout
  1
Layout1
 70
     1
 71
     1
 10
0.0
 20
0.0
 11
12.0
 21
9.0
 12
0.0
 22
0.0
 32
0.0
 14
0.0
 24
0.0
 34
0.0
 15
0.0
 25
0.0
 35
0.0
146
0.0
 13
0.0
 23
0.0
 33
0.0
 16
1.0
 26
0.0
 36
0.0
 17
0.0
 27
1.0
 37
0.0
 76
     0
330
58
  0
LAYOUT
  5
5E
102
{ACAD_XDICTIONARY
360
76F
102
}
102
{ACAD_REACTORS
330
1A
102
}
330
1A
100
AcDbPlotSettings
  1

  2
None
  4

  6

 40
0.0
 41
0.0
 42
0.0
 43
0.0
 44
0.0
 45
0.0
 46
0.0
 47
0.0
 48
0.0
 49
0.0
140
0.0
141
0.0
142
1.0
143
1.0
 70
   688
 72
     0
 73
     0
 74
     5
  7

 75
    16
147
1.0
148
0.0
149
0.0
100
AcDbLayout
  1
Layout2
 70
     1
 71
     2
 10
0.0
 20
0.0
 11
12.0
 21
9.0
 12
0.0
 22
0.0
 32
0.0
 14
0.0
 24
0.0
 34
0.0
 15
0.0
 25
0.0
 35
0.0
146
0.0
 13
0.0
 23
0.0
 33
0.0
 16
1.0
 26
0.0
 36
0.0
 17
0.0
 27
1.0
 37
0.0
 76
     0
330
5D
  0
LAYOUT
  5
22
102
{ACAD_XDICTIONARY
360
76B
102
}
102
{ACAD_REACTORS
330
1A
102
}
330
1A
100
AcDbPlotSettings
  1

  2
none_device
  4
ANSI_A_(8.50_x_11.00_Inches)
  6

 40
6.349999904632568
 41
19.04999923706055
 42
6.350006103515625
 43
19.04998779296875
 44
215.8999938964844
 45
279.3999938964844
 46
0.0
 47
0.0
 48
0.0
 49
0.0
140
0.0
141
0.0
142
1.0
143
2.584895464708373
 70
 11952
 72
     0
 73
     1
 74
     0
  7

 75
     0
147
0.3868628397755418
148
0.0
149
0.0
100
AcDbLayout
  1
Model
 70
     1
 71
     0
 10
0.0
 20
0.0
 11
12.0
 21
9.0
 12
0.0
 22
0.0
 32
0.0
 14
0.0
 24
0.0
 34
0.0
 15
0.0
 25
0.0
 35
0.0
146
0.0
 13
0.0
 23
0.0
 33
0.0
 16
1.0
 26
0.0
 36
0.0
 17
0.0
 27
1.0
 37
0.0
 76
     0
330
1F
  0
MLINESTYLE
  5
18
102
{ACAD_REACTORS
330
17
102
}
330
17
100
AcDbMlineStyle
  2
STANDARD
 70
     0
  3

 62
   256
 51
90.0
 52
90.0
 71
     2
 49
0.5
 62
   256
  6
BYLAYER
 49
-0.5
 62
   256
  6
BYLAYER
  0
ACDBPLACEHOLDER
  5
F
102
{ACAD_REACTORS
330
E
102
}
330
E
  0
TABLESTYLE
  5
87
102
{ACAD_REACTORS
330
86
102
}
330
86
100
AcDbTableStyle
  3
Standard
 70
     0
 71
     0
 40
0.06
 41
0.06
280
     0
281
     0
  7
Standard
140
0.18
170
     2
 62
     0
 63
     7
283
     0
274
    -2
284
     1
 64
     0
275
    -2
285
     1
 65
     0
276
    -2
286
     1
 66
     0
277
    -2
287
     1
 67
     0
278
    -2
288
     1
 68
     0
279
    -2
289
     1
 69
     0
  7
Standard
140
0.25
170
     5
 62
     0
 63
     7
283
     0
274
    -2
284
     1
 64
     0
275
    -2
285
     1
 65
     0
276
    -2
286
     1
 66
     0
277
    -2
287
     1
 67
     0
278
    -2
288
     1
 68
     0
279
    -2
289
     1
 69
     0
  7
Standard
140
0.18
170
     5
 62
     0
 63
     7
283
     0
274
    -2
284
     1
 64
     0
275
    -2
285
     1
 65
     0
276
    -2
286
     1
 66
     0
277
    -2
287
     1
 67
     0
278
    -2
288
     1
 68
     0
279
    -2
289
     1
 69
     0
  0
DICTIONARYVAR
  5
6F5
102
{ACAD_REACTORS
330
66
102
}
330
66
100
DictionaryVariables
280
     0
  1
STANDARD
  0
DICTIONARYVAR
  5
67
102
{ACAD_REACTORS
330
66
102
}
330
66
100
DictionaryVariables
280
     0
  1
2
  0
DICTIONARYVAR
  5
6B
102
{ACAD_REACTORS
330
66
102
}
330
66
100
DictionaryVariables
280
     0
  1
1
  0
DICTIONARYVAR
  5
768
102
{ACAD_REACTORS
330
66
102
}
330
66
100
DictionaryVariables
280
     0
  1

  0
DICTIONARY
  5
76D
330
59
100
AcDbDictionary
280
     1
281
     1
  3
ACAD_XREC_ROUNDTRIP
360
76E
  0
DICTIONARY
  5
76F
330
5E
100
AcDbDictionary
280
     1
281
     1
  3
ACAD_XREC_ROUNDTRIP
360
770
  0
DICTIONARY
  5
76B
330
22
100
AcDbDictionary
280
     1
281
     1
  3
ACAD_XREC_ROUNDTRIP
360
76C
  0
XRECORD
  5
76E
102
{ACAD_REACTORS
330
76D
102
}
330
76D
100
AcDbXrecord
280
     1
102
SHADEPLOT
 70
     0
102
SHADEPLOTRESLEVEL
 70
     2
102
SHADEPLOTCUSTOMDPI
 70
   300
  0
XRECORD
  5
770
102
{ACAD_REACTORS
330
76F
102
}
330
76F
100
AcDbXrecord
280
     1
102
SHADEPLOT
 70
     0
102
SHADEPLOTRESLEVEL
 70
     2
102
SHADEPLOTCUSTOMDPI
 70
   300
  0
XRECORD
  5
76C
102
{ACAD_REACTORS
330
76B
102
}
330
76B
100
AcDbXrecord
280
     1
102
SHADEPLOT
 70
     0
102
SHADEPLOTRESLEVEL
 70
     2
102
SHADEPLOTCUSTOMDPI
 70
   300
  0
ENDSEC
  0
EOF
