  0
SECTION
  2
HEADER
  9
$ACADVER
  1
AC1015
  9
$ACADMAINTVER
 70
    20
  9
$DWGCODEPAGE
  3
ANSI_1252
  9
$INSBASE
 10
0.0
 20
0.0
 30
0.0
  9
$EXTMIN
 10
-0.075
 20
-0.0750000000000018
 30
0.0
  9
$EXTMAX
 10
17.075
 20
11.075
 30
0.0
  9
$LIMMIN
 10
0.0
 20
0.0
  9
$LIMMAX
 10
12.0
 20
9.0
  9
$ORTHOMODE
 70
     0
  9
$REGENMODE
 70
     1
  9
$FILLMODE
 70
     1
  9
$QTEXTMODE
 70
     0
  9
$MIRRTEXT
 70
     0
  9
$LTSCALE
 40
1.0
  9
$ATTMODE
 70
     1
  9
$TEXTSIZE
 40
0.09
  9
$TRACEWID
 40
0.05
  9
$TEXTSTYLE
  7
Standard
  9
$CLAYER
  8
0
  9
$CELTYPE
  6
ByLayer
  9
$CECOLOR
 62
   256
  9
$CELTSCALE
 40
1.0
  9
$DISPSILH
 70
     0
  9
$DIMSCALE
 40
1.0
  9
$DIMASZ
 40
0.125
  9
$DIMEXO
 40
0.0625
  9
$DIMDLI
 40
0.38
  9
$DIMRND
 40
0.0
  9
$DIMDLE
 40
0.0
  9
$DIMEXE
 40
0.125
  9
$DIMTP
 40
0.0
  9
$DIMTM
 40
0.0
  9
$DIMTXT
 40
0.09
  9
$DIMCEN
 40
0.09
  9
$DIMTSZ
 40
0.0
  9
$DIMTOL
 70
     0
  9
$DIMLIM
 70
     0
  9
$DIMTIH
 70
     1
  9
$DIMTOH
 70
     1
  9
$DIMSE1
 70
     0
  9
$DIMSE2
 70
     0
  9
$DIMTAD
 70
     0
  9
$DIMZIN
 70
     0
  9
$DIMBLK
  1

  9
$DIMASO
 70
     1
  9
$DIMSHO
 70
     1
  9
$DIMPOST
  1

  9
$DIMAPOST
  1
mm
  9
$DIMALT
 70
     1
  9
$DIMALTD
 70
     1
  9
$DIMALTF
 40
25.4
  9
$DIMLFAC
 40
1.0
  9
$DIMTOFL
 70
     0
  9
$DIMTVP
 40
0.0
  9
$DIMTIX
 70
     0
  9
$DIMSOXD
 70
     0
  9
$DIMSAH
 70
     0
  9
$DIMBLK1
  1

  9
$DIMBLK2
  1

  9
$DIMSTYLE
  2
Standard
  9
$DIMCLRD
 70
     0
  9
$DIMCLRE
 70
     0
  9
$DIMCLRT
 70
     0
  9
$DIMTFAC
 40
1.0
  9
$DIMGAP
 40
0.09
  9
$DIMJUST
 70
     0
  9
$DIMSD1
 70
     0
  9
$DIMSD2
 70
     0
  9
$DIMTOLJ
 70
     1
  9
$DIMTZIN
 70
     0
  9
$DIMALTZ
 70
     0
  9
$DIMALTTZ
 70
     0
  9
$DIMUPT
 70
     0
  9
$DIMDEC
 70
     2
  9
$DIMTDEC
 70
     2
  9
$DIMALTU
 70
     2
  9
$DIMALTTD
 70
     1
  9
$DIMTXSTY
  7
Standard
  9
$DIMAUNIT
 70
     0
  9
$DIMADEC
 70
     0
  9
$DIMALTRND
 40
0.0
  9
$DIMAZIN
 70
     0
  9
$DIMDSEP
 70
    46
  9
$DIMATFIT
 70
     3
  9
$DIMFRAC
 70
     0
  9
$DIMLDRBLK
  1

  9
$DIMLUNIT
 70
     2
  9
$DIMLWD
 70
    -2
  9
$DIMLWE
 70
    -2
  9
$DIMTMOVE
 70
     0
  9
$LUNITS
 70
     2
  9
$LUPREC
 70
     4
  9
$SKETCHINC
 40
0.1
  9
$FILLETRAD
 40
0.0
  9
$AUNITS
 70
     0
  9
$AUPREC
 70
     0
  9
$MENU
  1
.
  9
$ELEVATION
 40
0.0
  9
$PELEVATION
 40
0.0
  9
$THICKNESS
 40
0.0
  9
$LIMCHECK
 70
     0
  9
$CHAMFERA
 40
0.0
  9
$CHAMFERB
 40
0.0
  9
$CHAMFERC
 40
0.0
  9
$CHAMFERD
 40
0.0
  9
$SKPOLY
 70
     0
  9
$TDCREATE
 40
2454118.395966134
  9
$TDUCREATE
 40
2454118.604299468
  9
$TDUPDATE
 40
2454294.668156354
  9
$TDUUPDATE
 40
2454294.876489688
  9
$TDINDWG
 40
0.0235692130
  9
$TDUSRTIMER
 40
0.0235675810
  9
$USRTIMER
 70
     1
  9
$ANGBASE
 50
0.0
  9
$ANGDIR
 70
     0
  9
$PDMODE
 70
     2
  9
$PDSIZE
 40
0.075
  9
$PLINEWID
 40
0.0
  9
$SPLFRAME
 70
     0
  9
$SPLINETYPE
 70
     6
  9
$SPLINESEGS
 70
     8
  9
$HANDSEED
  5
617
  9
$SURFTAB1
 70
     6
  9
$SURFTAB2
 70
     6
  9
$SURFTYPE
 70
     6
  9
$SURFU
 70
     6
  9
$SURFV
 70
     6
  9
$UCSBASE
  2

  9
$UCSNAME
  2

  9
$UCSORG
 10
0.0
 20
0.0
 30
0.0
  9
$UCSXDIR
 10
1.0
 20
0.0
 30
0.0
  9
$UCSYDIR
 10
0.0
 20
1.0
 30
0.0
  9
$UCSORTHOREF
  2

  9
$UCSORTHOVIEW
 70
     0
  9
$UCSORGTOP
 10
0.0
 20
0.0
 30
0.0
  9
$UCSORGBOTTOM
 10
0.0
 20
0.0
 30
0.0
  9
$UCSORGLEFT
 10
0.0
 20
0.0
 30
0.0
  9
$UCSORGRIGHT
 10
0.0
 20
0.0
 30
0.0
  9
$UCSORGFRONT
 10
0.0
 20
0.0
 30
0.0
  9
$UCSORGBACK
 10
0.0
 20
0.0
 30
0.0
  9
$PUCSBASE
  2

  9
$PUCSNAME
  2

  9
$PUCSORG
 10
0.0
 20
0.0
 30
0.0
  9
$PUCSXDIR
 10
1.0
 20
0.0
 30
0.0
  9
$PUCSYDIR
 10
0.0
 20
1.0
 30
0.0
  9
$PUCSORTHOREF
  2

  9
$PUCSORTHOVIEW
 70
     0
  9
$PUCSORGTOP
 10
0.0
 20
0.0
 30
0.0
  9
$PUCSORGBOTTOM
 10
0.0
 20
0.0
 30
0.0
  9
$PUCSORGLEFT
 10
0.0
 20
0.0
 30
0.0
  9
$PUCSORGRIGHT
 10
0.0
 20
0.0
 30
0.0
  9
$PUCSORGFRONT
 10
0.0
 20
0.0
 30
0.0
  9
$PUCSORGBACK
 10
0.0
 20
0.0
 30
0.0
  9
$USERI1
 70
     0
  9
$USERI2
 70
     0
  9
$USERI3
 70
     0
  9
$USERI4
 70
     0
  9
$USERI5
 70
     0
  9
$USERR1
 40
0.0
  9
$USERR2
 40
0.0
  9
$USERR3
 40
0.0
  9
$USERR4
 40
0.0
  9
$USERR5
 40
0.0
  9
$WORLDVIEW
 70
     1
  9
$SHADEDGE
 70
     3
  9
$SHADEDIF
 70
    70
  9
$TILEMODE
 70
     1
  9
$MAXACTVP
 70
    64
  9
$PINSBASE
 10
0.0
 20
0.0
 30
0.0
  9
$PLIMCHECK
 70
     0
  9
$PEXTMIN
 10
0.0
 20
0.0
 30
0.0
  9
$PEXTMAX
 10
0.0
 20
0.0
 30
0.0
  9
$PLIMMIN
 10
0.0
 20
0.0
  9
$PLIMMAX
 10
12.0
 20
9.0
  9
$UNITMODE
 70
     0
  9
$VISRETAIN
 70
     1
  9
$PLINEGEN
 70
     0
  9
$PSLTSCALE
 70
     1
  9
$TREEDEPTH
 70
  3020
  9
$CMLSTYLE
  2
Standard
  9
$CMLJUST
 70
     0
  9
$CMLSCALE
 40
1.0
  9
$PROXYGRAPHICS
 70
     1
  9
$MEASUREMENT
 70
     0
  9
$CELWEIGHT
370
    -1
  9
$ENDCAPS
280
     0
  9
$JOINSTYLE
280
     0
  9
$LWDISPLAY
290
     0
  9
$INSUNITS
 70
     1
  9
$HYPERLINKBASE
  1

  9
$STYLESHEET
  1

  9
$XEDIT
290
     1
  9
$CEPSNTYPE
380
     0
  9
$PSTYLEMODE
290
     1
  9
$FINGERPRINTGUID
  2
{E2E98CCD-CAC5-49CE-9332-4BBE5499E8E2}
  9
$VERSIONGUID
  2
{77203646-894D-43D1-A4AE-61C96010D224}
  9
$EXTNAMES
290
     1
  9
$PSVPSCALE
 40
0.0
  9
$OLESTARTUP
290
     0
  0
ENDSEC
  0
SECTION
  2
CLASSES
  0
CLASS
  1
ACDBDICTIONARYWDFLT
  2
AcDbDictionaryWithDefault
  3
ObjectDBX Classes
 90
        0
280
     0
281
     0
  0
CLASS
  1
ACDBPLACEHOLDER
  2
AcDbPlaceHolder
  3
ObjectDBX Classes
 90
        0
280
     0
281
     0
  0
CLASS
  1
LAYOUT
  2
AcDbLayout
  3
ObjectDBX Classes
 90
        0
280
     0
281
     0
  0
CLASS
  1
DICTIONARYVAR
  2
AcDbDictionaryVar
  3
ObjectDBX Classes
 90
        0
280
     0
281
     0
  0
CLASS
  1
TABLESTYLE
  2
AcDbTableStyle
  3
ObjectDBX Classes
 90
     2047
280
     0
281
     0
  0
CLASS
  1
SORTENTSTABLE
  2
AcDbSortentsTable
  3
ObjectDBX Classes
 90
        0
280
     0
281
     0
  0
CLASS
  1
DIMASSOC
  2
AcDbDimAssoc
  3
"AcDbDimAssoc|Product Desc:     AcDim ARX App For Dimension|Company:          Autodesk, Inc.|WEB Address:      www.autodesk.com"
 90
        0
280
     0
281
     0
  0
ENDSEC
  0
SECTION
  2
TABLES
  0
TABLE
  2
VPORT
  5
8
330
0
100
AcDbSymbolTable
 70
     2
  0
VPORT
  5
60F
330
8
100
AcDbSymbolTableRecord
100
AcDbViewportTableRecord
  2
*Active
 70
     0
 10
0.0
 20
0.0
 11
1.0
 21
1.0
 12
8.500000120734295
 22
5.892601647291356
 13
0.0
 23
0.0
 14
0.5
 24
0.5
 15
0.5
 25
0.5
 16
0.0
 26
0.0
 36
1.0
 17
0.0
 27
0.0
 37
0.0
 40
12.00689511849154
 41
1.499364675984752
 42
50.0
 43
0.0
 44
0.0
 50
0.0
 51
0.0
 71
     0
 72
  1000
 73
     1
 74
     3
 75
     0
 76
     0
 77
     0
 78
     0
281
     0
 65
     1
110
0.0
120
0.0
130
0.0
111
1.0
121
0.0
131
0.0
112
0.0
122
1.0
132
0.0
 79
     0
146
0.0
  0
ENDTAB
  0
TABLE
  2
LTYPE
  5
5
330
0
100
AcDbSymbolTable
 70
     1
  0
LTYPE
  5
14
330
5
100
AcDbSymbolTableRecord
100
AcDbLinetypeTableRecord
  2
ByBlock
 70
     0
  3

 72
    65
 73
     0
 40
0.0
  0
LTYPE
  5
15
330
5
100
AcDbSymbolTableRecord
100
AcDbLinetypeTableRecord
  2
ByLayer
 70
     0
  3

 72
    65
 73
     0
 40
0.0
  0
LTYPE
  5
16
330
5
100
AcDbSymbolTableRecord
100
AcDbLinetypeTableRecord
  2
Continuous
 70
     0
  3
Solid line
 72
    65
 73
     0
 40
0.0
  0
ENDTAB
  0
TABLE
  2
LAYER
  5
2
330
0
100
AcDbSymbolTable
 70
     6
  0
LAYER
  5
10
330
2
100
AcDbSymbolTableRecord
100
AcDbLayerTableRecord
  2
0
 70
     0
 62
     7
  6
Continuous
370
    -3
390
F
  0
LAYER
  5
98
330
2
100
AcDbSymbolTableRecord
100
AcDbLayerTableRecord
  2
Title Block
 70
     0
 62
     3
  6
Continuous
370
    -3
390
F
  0
LAYER
  5
99
330
2
100
AcDbSymbolTableRecord
100
AcDbLayerTableRecord
  2
Dimension
 70
     0
 62
     6
  6
Continuous
370
    -3
390
F
  0
LAYER
  5
9A
330
2
100
AcDbSymbolTableRecord
100
AcDbLayerTableRecord
  2
Text
 70
     0
 62
     1
  6
Continuous
370
    -3
390
F
  0
LAYER
  5
9B
330
2
100
AcDbSymbolTableRecord
100
AcDbLayerTableRecord
  2
Object
 70
     0
 62
     5
  6
Continuous
370
    -3
390
F
  0
LAYER
  5
9D
330
2
100
AcDbSymbolTableRecord
100
AcDbLayerTableRecord
  2
Defpoints
 70
     0
 62
     7
  6
Continuous
290
     0
370
    -3
390
F
  0
ENDTAB
  0
TABLE
  2
STYLE
  5
3
330
0
100
AcDbSymbolTable
 70
     1
  0
STYLE
  5
11
330
3
100
AcDbSymbolTableRecord
100
AcDbTextStyleTableRecord
  2
Standard
 70
     0
 40
0.0
 41
1.0
 50
0.0
 71
     0
 42
0.09
  3
technic_.ttf
  4

1001
ACAD
1000
Technic
1071
      514
  0
ENDTAB
  0
TABLE
  2
VIEW
  5
6
330
0
100
AcDbSymbolTable
 70
     0
  0
ENDTAB
  0
TABLE
  2
UCS
  5
7
330
0
100
AcDbSymbolTable
 70
     0
  0
ENDTAB
  0
TABLE
  2
APPID
  5
9
330
0
100
AcDbSymbolTable
 70
     4
  0
APPID
  5
12
330
9
100
AcDbSymbolTableRecord
100
AcDbRegAppTableRecord
  2
ACAD
 70
     0
  0
APPID
  5
9E
330
9
100
AcDbSymbolTableRecord
100
AcDbRegAppTableRecord
  2
DCO15
 70
     0
  0
APPID
  5
9F
330
9
100
AcDbSymbolTableRecord
100
AcDbRegAppTableRecord
  2
AcAecLayerStandard
 70
     0
  0
APPID
  5
A0
330
9
100
AcDbSymbolTableRecord
100
AcDbRegAppTableRecord
  2
ACAD_DSTYLE_DIMTEXT_FILL
 70
     0
  0
ENDTAB
  0
TABLE
  2
DIMSTYLE
  5
A
330
0
100
AcDbSymbolTable
 70
     1
100
AcDbDimStyleTable
 71
     1
340
27
  0
DIMSTYLE
105
27
102
{ACAD_REACTORS
330
135
330
513
330
52E
330
54B
102
}
330
A
100
AcDbSymbolTableRecord
100
AcDbDimStyleTableRecord
  2
Standard
 70
     0
  4
mm
 41
0.125
 44
0.125
140
0.09
170
     1
171
     1
271
     2
272
     2
274
     1
340
11
  0
ENDTAB
  0
TABLE
  2
BLOCK_RECORD
  5
1
330
0
100
AcDbSymbolTable
 70
     5
  0
BLOCK_RECORD
  5
1F
102
{ACAD_XDICTIONARY
360
148
102
}
330
1
100
AcDbSymbolTableRecord
100
AcDbBlockTableRecord
  2
*Model_Space
340
22
  0
BLOCK_RECORD
  5
58
330
1
100
AcDbSymbolTableRecord
100
AcDbBlockTableRecord
  2
*Paper_Space
340
59
  0
BLOCK_RECORD
  5
5D
330
1
100
AcDbSymbolTableRecord
100
AcDbBlockTableRecord
  2
*Paper_Space0
340
5E
  0
BLOCK_RECORD
  5
13B
330
1
100
AcDbSymbolTableRecord
100
AcDbBlockTableRecord
  2
*D1
340
0
  0
BLOCK_RECORD
  5
514
330
1
100
AcDbSymbolTableRecord
100
AcDbBlockTableRecord
  2
*D2
340
0
  0
BLOCK_RECORD
  5
52F
330
1
100
AcDbSymbolTableRecord
100
AcDbBlockTableRecord
  2
*D3
340
0
  0
BLOCK_RECORD
  5
54C
330
1
100
AcDbSymbolTableRecord
100
AcDbBlockTableRecord
  2
*D4
340
0
  0
ENDTAB
  0
ENDSEC
  0
SECTION
  2
BLOCKS
  0
BLOCK
  5
20
330
1F
100
AcDbEntity
  8
0
100
AcDbBlockBegin
  2
*Model_Space
 70
     0
 10
0.0
 20
0.0
 30
0.0
  3
*Model_Space
  1

  0
ENDBLK
  5
21
330
1F
100
AcDbEntity
  8
0
100
AcDbBlockEnd
  0
BLOCK
  5
5A
330
58
100
AcDbEntity
 67
     1
  8
0
100
AcDbBlockBegin
  2
*Paper_Space
 70
     0
 10
0.0
 20
0.0
 30
0.0
  3
*Paper_Space
  1

  0
ENDBLK
  5
5B
330
58
100
AcDbEntity
 67
     1
  8
0
100
AcDbBlockEnd
  0
BLOCK
  5
5F
330
5D
100
AcDbEntity
  8
0
100
AcDbBlockBegin
  2
*Paper_Space0
 70
     0
 10
0.0
 20
0.0
 30
0.0
  3
*Paper_Space0
  1

  0
ENDBLK
  5
60
330
5D
100
AcDbEntity
  8
0
100
AcDbBlockEnd
  0
BLOCK
  5
146
330
13B
100
AcDbEntity
  8
0
100
AcDbBlockBegin
  2
*D1
 70
     1
 10
0.0
 20
0.0
 30
0.0
  3
*D1
  1

  0
LINE
  5
567
330
13B
100
AcDbEntity
  8
Dimension
 62
     0
370
    -2
100
AcDbLine
 10
8.123957890809009
 20
8.025402550944544
 30
0.0
 11
9.380633383436739
 21
8.025402550944544
 31
0.0
  0
LINE
  5
568
330
13B
100
AcDbEntity
  8
Dimension
 62
     0
370
    -2
100
AcDbLine
 10
8.123957890809009
 20
9.275402550944544
 30
0.0
 11
9.380633383436739
 21
9.275402550944544
 31
0.0
  0
LINE
  5
569
330
13B
100
AcDbEntity
  8
Dimension
 62
     0
370
    -2
100
AcDbLine
 10
9.255633383436739
 20
8.150402550944544
 30
0.0
 11
9.255633383436739
 21
8.497376235155071
 31
0.0
  0
LINE
  5
56A
330
13B
100
AcDbEntity
  8
Dimension
 62
     0
370
    -2
100
AcDbLine
 10
9.255633383436739
 20
9.150402550944544
 30
0.0
 11
9.255633383436739
 21
8.803428866734018
 31
0.0
  0
SOLID
  5
56B
330
13B
100
AcDbEntity
  8
Dimension
 62
     0
100
AcDbTrace
 10
9.234800050103405
 20
8.150402550944544
 30
0.0
 11
9.276466716770073
 21
8.150402550944544
 31
0.0
 12
9.255633383436739
 22
8.025402550944544
 32
0.0
 13
9.255633383436739
 23
8.025402550944544
 33
0.0
  0
SOLID
  5
56C
330
13B
100
AcDbEntity
  8
Dimension
 62
     0
100
AcDbTrace
 10
9.234800050103405
 20
9.150402550944544
 30
0.0
 11
9.276466716770073
 21
9.150402550944544
 31
0.0
 12
9.255633383436739
 22
9.275402550944544
 32
0.0
 13
9.255633383436739
 23
9.275402550944544
 33
0.0
  0
MTEXT
  5
56D
330
13B
100
AcDbEntity
  8
Dimension
 62
     0
100
AcDbMText
 10
9.255633383436737
 20
8.650402550944546
 30
0.0
 40
0.09
 41
0.0
 71
     5
 72
     1
  1
\A1;1.25 [31.8mm]
 73
     1
 44
1.0
1001
ACAD
1000
MTEXTBEGIN
1070
    73
1070
     1
1070
    44
1040
1.0
1070
    74
1070
     0
1000
MTEXTEND
  0
POINT
  5
56E
330
13B
100
AcDbEntity
  8
Defpoints
 62
     0
100
AcDbPoint
 10
8.061457890809009
 20
8.025402550944544
 30
0.0
  0
POINT
  5
56F
330
13B
100
AcDbEntity
  8
Defpoints
 62
     0
100
AcDbPoint
 10
8.061457890809009
 20
9.275402550944544
 30
0.0
  0
POINT
  5
570
330
13B
100
AcDbEntity
  8
Defpoints
 62
     0
100
AcDbPoint
 10
9.255633383436739
 20
9.275402550944544
 30
0.0
  0
ENDBLK
  5
147
330
13B
100
AcDbEntity
  8
0
100
AcDbBlockEnd
  0
BLOCK
  5
51F
330
514
100
AcDbEntity
  8
0
100
AcDbBlockBegin
  2
*D2
 70
     1
 10
0.0
 20
0.0
 30
0.0
  3
*D2
  1

  0
LINE
  5
571
330
514
100
AcDbEntity
  8
Dimension
 62
     0
370
    -2
100
AcDbLine
 10
2.248457890809008
 20
4.773902550944544
 30
0.0
 11
2.248457890809008
 21
5.427175706722188
 31
0.0
  0
LINE
  5
572
330
514
100
AcDbEntity
  8
Dimension
 62
     0
370
    -2
100
AcDbLine
 10
8.248457890809008
 20
4.773902550944544
 30
0.0
 11
8.248457890809008
 21
5.427175706722188
 31
0.0
  0
LINE
  5
573
330
514
100
AcDbEntity
  8
Dimension
 62
     0
370
    -2
100
AcDbLine
 10
2.373457890809008
 20
5.302175706722188
 30
0.0
 11
4.726747364493219
 21
5.302175706722188
 31
0.0
  0
LINE
  5
574
330
514
100
AcDbEntity
  8
Dimension
 62
     0
370
    -2
100
AcDbLine
 10
8.123457890809008
 20
5.302175706722188
 30
0.0
 11
5.770168417124798
 21
5.302175706722188
 31
0.0
  0
SOLID
  5
575
330
514
100
AcDbEntity
  8
Dimension
 62
     0
100
AcDbTrace
 10
2.373457890809008
 20
5.323009040055521
 30
0.0
 11
2.373457890809008
 21
5.281342373388855
 31
0.0
 12
2.248457890809008
 22
5.302175706722188
 32
0.0
 13
2.248457890809008
 23
5.302175706722188
 33
0.0
  0
SOLID
  5
576
330
514
100
AcDbEntity
  8
Dimension
 62
     0
100
AcDbTrace
 10
8.123457890809008
 20
5.323009040055521
 30
0.0
 11
8.123457890809008
 21
5.281342373388855
 31
0.0
 12
8.248457890809008
 22
5.302175706722188
 32
0.0
 13
8.248457890809008
 23
5.302175706722188
 33
0.0
  0
MTEXT
  5
577
330
514
100
AcDbEntity
  8
Dimension
 62
     0
100
AcDbMText
 10
5.248457890809008
 20
5.302175706722188
 30
0.0
 40
0.09
 41
0.0
 71
     5
 72
     1
  1
\A1;6.00 [152.4mm]
 73
     1
 44
1.0
1001
ACAD
1000
MTEXTBEGIN
1070
    73
1070
     1
1070
    44
1040
1.0
1070
    74
1070
     0
1000
MTEXTEND
  0
POINT
  5
578
330
514
100
AcDbEntity
  8
Defpoints
 62
     0
100
AcDbPoint
 10
2.248457890809008
 20
4.711402550944544
 30
0.0
  0
POINT
  5
579
330
514
100
AcDbEntity
  8
Defpoints
 62
     0
100
AcDbPoint
 10
8.248457890809008
 20
4.711402550944544
 30
0.0
  0
POINT
  5
57A
330
514
100
AcDbEntity
  8
Defpoints
 62
     0
100
AcDbPoint
 10
8.248457890809008
 20
5.302175706722188
 30
0.0
  0
ENDBLK
  5
520
330
514
100
AcDbEntity
  8
0
100
AcDbBlockEnd
  0
BLOCK
  5
53B
330
52F
100
AcDbEntity
  8
0
100
AcDbBlockBegin
  2
*D3
 70
     1
 10
0.0
 20
0.0
 30
0.0
  3
*D3
  1

  0
LINE
  5
57B
330
52F
100
AcDbEntity
  8
Dimension
 62
     0
370
    -2
100
AcDbLine
 10
12.81095789080901
 20
4.711402550944544
 30
0.0
 11
12.10075908568888
 21
4.711402550944544
 31
0.0
  0
LINE
  5
57C
330
52F
100
AcDbEntity
  8
Dimension
 62
     0
370
    -2
100
AcDbLine
 10
12.81095789080901
 20
4.591402550944544
 30
0.0
 11
12.10075908568888
 21
4.591402550944544
 31
0.0
  0
LINE
  5
57D
330
52F
100
AcDbEntity
  8
Dimension
 62
     0
370
    -2
100
AcDbLine
 10
12.22575908568888
 20
4.836402550944544
 30
0.0
 11
12.22575908568888
 21
4.961402550944544
 31
0.0
  0
LINE
  5
57E
330
52F
100
AcDbEntity
  8
Dimension
 62
     0
370
    -2
100
AcDbLine
 10
12.22575908568888
 20
4.466402550944544
 30
0.0
 11
12.22575908568888
 21
4.341402550944544
 31
0.0
  0
LINE
  5
57F
330
52F
100
AcDbEntity
  8
Dimension
 62
     0
370
    -2
100
AcDbLine
 10
12.22575908568888
 20
4.341402550944544
 30
0.0
 11
12.10075908568888
 21
4.341402550944544
 31
0.0
  0
SOLID
  5
580
330
52F
100
AcDbEntity
  8
Dimension
 62
     0
100
AcDbTrace
 10
12.20492575235555
 20
4.836402550944544
 30
0.0
 11
12.24659241902222
 21
4.836402550944544
 31
0.0
 12
12.22575908568888
 22
4.711402550944544
 32
0.0
 13
12.22575908568888
 23
4.711402550944544
 33
0.0
  0
SOLID
  5
581
330
52F
100
AcDbEntity
  8
Dimension
 62
     0
100
AcDbTrace
 10
12.20492575235555
 20
4.466402550944544
 30
0.0
 11
12.24659241902222
 21
4.466402550944544
 31
0.0
 12
12.22575908568888
 22
4.591402550944544
 32
0.0
 13
12.22575908568888
 23
4.591402550944544
 33
0.0
  0
MTEXT
  5
582
330
52F
100
AcDbEntity
  8
Dimension
 62
     0
100
AcDbMText
 10
11.65740382253099
 20
4.341402550944546
 30
0.0
 40
0.09
 41
0.0
 71
     5
 72
     1
  1
\A1;0.12 [3.0mm]
 73
     1
 44
1.0
1001
ACAD
1000
MTEXTBEGIN
1070
    73
1070
     1
1070
    44
1040
1.0
1070
    74
1070
     0
1000
MTEXTEND
  0
POINT
  5
583
330
52F
100
AcDbEntity
  8
Defpoints
 62
     0
100
AcDbPoint
 10
12.87345789080901
 20
4.711402550944544
 30
0.0
  0
POINT
  5
584
330
52F
100
AcDbEntity
  8
Defpoints
 62
     0
100
AcDbPoint
 10
12.87345789080901
 20
4.591402550944544
 30
0.0
  0
POINT
  5
585
330
52F
100
AcDbEntity
  8
Defpoints
 62
     0
100
AcDbPoint
 10
12.22575908568888
 20
4.591402550944544
 30
0.0
  0
ENDBLK
  5
53C
330
52F
100
AcDbEntity
  8
0
100
AcDbBlockEnd
  0
BLOCK
  5
557
330
54C
100
AcDbEntity
  8
0
100
AcDbBlockBegin
  2
*D4
 70
     1
 10
0.0
 20
0.0
 30
0.0
  3
*D4
  1

  0
LINE
  5
5FD
330
54C
100
AcDbEntity
  8
Dimension
 62
     0
370
    -2
100
AcDbLine
 10
3.521457890809008
 20
8.009902550944545
 30
0.0
 11
3.521457890809008
 21
7.389181957078779
 31
0.0
  0
LINE
  5
5FE
330
54C
100
AcDbEntity
  8
Dimension
 62
     0
370
    -2
100
AcDbLine
 10
2.975457890809009
 20
8.009902550944545
 30
0.0
 11
2.975457890809009
 21
7.389181957078779
 31
0.0
  0
LINE
  5
5FF
330
54C
100
AcDbEntity
  8
Dimension
 62
     0
370
    -2
100
AcDbLine
 10
3.396457890809008
 20
7.514181957078779
 30
0.0
 11
3.100457890809009
 21
7.514181957078779
 31
0.0
  0
LINE
  5
600
330
54C
100
AcDbEntity
  8
Dimension
 62
     0
370
    -2
100
AcDbLine
 10
2.975457890809009
 20
7.514181957078779
 30
0.0
 11
2.850457890809009
 21
7.514181957078779
 31
0.0
  0
SOLID
  5
601
330
54C
100
AcDbEntity
  8
Dimension
 62
     0
100
AcDbTrace
 10
3.396457890809008
 20
7.535015290412112
 30
0.0
 11
3.396457890809008
 21
7.493348623745446
 31
0.0
 12
3.521457890809008
 22
7.514181957078779
 32
0.0
 13
3.521457890809008
 23
7.514181957078779
 33
0.0
  0
SOLID
  5
602
330
54C
100
AcDbEntity
  8
Dimension
 62
     0
100
AcDbTrace
 10
3.100457890809009
 20
7.535015290412112
 30
0.0
 11
3.100457890809009
 21
7.493348623745446
 31
0.0
 12
2.975457890809009
 22
7.514181957078779
 32
0.0
 13
2.975457890809009
 23
7.514181957078779
 33
0.0
  0
MTEXT
  5
603
330
54C
100
AcDbEntity
  8
Dimension
 62
     0
100
AcDbMText
 10
2.364734206598482
 20
7.514181957078779
 30
0.0
 40
0.09
 41
0.0
 71
     5
 72
     1
  1
\A1;0.55 [13.9mm]
 73
     1
 44
1.0
1001
ACAD
1000
MTEXTBEGIN
1070
    73
1070
     1
1070
    44
1040
1.0
1070
    74
1070
     0
1000
MTEXTEND
  0
POINT
  5
604
330
54C
100
AcDbEntity
  8
Defpoints
 62
     0
100
AcDbPoint
 10
3.521457890809008
 20
8.072402550944545
 30
0.0
  0
POINT
  5
605
330
54C
100
AcDbEntity
  8
Defpoints
 62
     0
100
AcDbPoint
 10
2.975457890809009
 20
8.072402550944545
 30
0.0
  0
POINT
  5
606
330
54C
100
AcDbEntity
  8
Defpoints
 62
     0
100
AcDbPoint
 10
2.975457890809009
 20
7.514181957078779
 30
0.0
  0
ENDBLK
  5
558
330
54C
100
AcDbEntity
  8
0
100
AcDbBlockEnd
  0
ENDSEC
  0
SECTION
  2
ENTITIES
  0
TEXT
  5
F1
330
1F
100
AcDbEntity
  8
Title Block
100
AcDbText
 10
12.77669501265555
 20
2.672489851525506
 30
0.0
 40
0.05
  1
FILENAME:
100
AcDbText
  0
TEXT
  5
F2
330
1F
100
AcDbEntity
  8
Title Block
100
AcDbText
 10
12.76928502872825
 20
2.076224967549324
 30
0.0
 40
0.35
  1
PANDUIT
100
AcDbText
  0
TEXT
  5
F3
330
1F
100
AcDbEntity
  8
Title Block
100
AcDbText
 10
14.72182039882138
 20
2.061410940562984
 30
0.0
 40
0.125
  1
CORP. TINLEY PARK, IL
100
AcDbText
  0
TEXT
  5
F4
330
1F
100
AcDbEntity
  8
Title Block
100
AcDbText
 10
12.78039997670862
 20
1.916974097093918
 30
0.0
 40
0.05
  1
TITLE:
100
AcDbText
  0
MTEXT
  5
F5
330
1F
100
AcDbEntity
  8
Title Block
100
AcDbMText
 10
14.0
 20
1.372215793536346
 30
0.0
 40
0.075
 41
2.5
 71
     5
 72
     5
  1
UNLESS OTHERWISE SPECIFIED,\PDIMENSIONAL TOLERANCES ARE:       
 73
     1
 44
1.0
1001
ACAD
1000
MTEXTBEGIN
1070
    73
1070
     1
1070
    44
1040
1.0
1070
    74
1070
     0
1000
MTEXTEND
  0
MTEXT
  5
F6
330
1F
100
AcDbEntity
  8
Title Block
100
AcDbMText
 10
13.39237986661002
 20
1.13148770848363
 30
0.0
 40
0.075
 41
2.5
 71
     5
 72
     5
  1
(.X)\P(.XX)
 73
     1
 44
1.0
1001
ACAD
1000
MTEXTBEGIN
1070
    73
1070
     1
1070
    44
1040
1.0
1070
    74
1070
     0
1000
MTEXTEND
  0
MTEXT
  5
F7
330
1F
100
AcDbEntity
  8
Title Block
100
AcDbMText
 10
14.40014005312412
 20
1.13148770848363
 30
0.0
 40
0.075
 41
2.5
 71
     5
 72
     5
  1
(.XXX)\PANGLES:
 73
     1
 44
1.0
1001
ACAD
1000
MTEXTBEGIN
1070
    73
1070
     1
1070
    44
1040
1.0
1070
    74
1070
     0
1000
MTEXTEND
  0
MTEXT
  5
F8
330
1F
100
AcDbEntity
  8
Title Block
100
AcDbMText
 10
16.0
 20
1.249999999999998
 30
0.0
 40
0.06
 41
1.5
 71
     5
 72
     5
  1
UNLESS OTHERWISE SPECIFIED,\PALL DIMENSIONS ARE GIVEN IN INCHES, THIRD ANGLE PROJECTION
 73
     1
 44
1.0
1001
ACAD
1000
MTEXTBEGIN
1070
    73
1070
     1
1070
    44
1040
1.0
1070
    74
1070
     0
1000
MTEXTEND
  0
TEXT
  5
F9
330
1F
100
AcDbEntity
  8
Title Block
100
AcDbText
 10
12.76076445430619
 20
0.9281373372752295
 30
0.0
 40
0.05
  1
DRAWN BY:
100
AcDbText
  0
TEXT
  5
FA
330
1F
100
AcDbEntity
  8
Title Block
100
AcDbText
 10
12.76446947418044
 20
0.681143186563501
 30
0.0
 40
0.05
  1
DATE:
100
AcDbText
  0
TEXT
  5
FB
330
1F
100
AcDbEntity
  8
Title Block
100
AcDbText
 10
12.7681744382335
 20
0.430445533831795
 30
0.0
 40
0.05
  1
CHECKED BY:
100
AcDbText
  0
TEXT
  5
FC
330
1F
100
AcDbEntity
  8
Title Block
100
AcDbText
 10
13.52028959313307
 20
0.9281373372752295
 30
0.0
 40
0.05
  1
MATERIAL:
100
AcDbText
  0
TEXT
  5
FD
330
1F
100
AcDbEntity
  8
Title Block
100
AcDbText
 10
15.26534493878154
 20
0.9281373372752295
 30
0.0
 40
0.05
  1
SCALE:
100
AcDbText
  0
TEXT
  5
FE
330
1F
100
AcDbEntity
  8
Title Block
100
AcDbText
 10
15.26534493878154
 20
0.6725952630489989
 30
0.0
 40
0.05
  1
DRAWING NUMBER:
100
AcDbText
  0
TEXT
  5
FF
330
1F
100
AcDbEntity
  8
Title Block
100
AcDbText
 10
16.34942622928998
 20
0.6762987650689798
 30
0.0
 40
0.05
  1
DRAWING
100
AcDbText
  0
TEXT
  5
100
330
1F
100
AcDbEntity
  8
Title Block
100
AcDbText
 10
16.42723125590086
 20
0.2811642688682008
 30
0.0
 40
0.05
  1
SIZE
100
AcDbText
  0
TEXT
  5
101
330
1F
100
AcDbEntity
  8
Title Block
100
AcDbText
 10
16.40622108086223
 20
0.3826699445861035
 30
0.0
 40
0.25
  1
B
100
AcDbText
  0
MTEXT
  5
102
330
1F
100
AcDbEntity
  8
Title Block
100
AcDbMText
 10
6.375000000000003
 20
0.3749999999999982
 30
0.0
 40
0.05
 41
0.25
 71
     5
 72
     5
  1
REV
 73
     1
 44
1.0
1001
ACAD
1000
MTEXTBEGIN
1070
    73
1070
     1
1070
    44
1040
1.0
1070
    74
1070
     0
1000
MTEXTEND
  0
MTEXT
  5
103
330
1F
100
AcDbEntity
  8
Title Block
100
AcDbMText
 10
6.750000000000003
 20
0.3749999999999982
 30
0.0
 40
0.05
 41
0.5
 71
     5
 72
     5
  1
DATE
 73
     1
 44
1.0
1001
ACAD
1000
MTEXTBEGIN
1070
    73
1070
     1
1070
    44
1040
1.0
1070
    74
1070
     0
1000
MTEXTEND
  0
MTEXT
  5
104
330
1F
100
AcDbEntity
  8
Title Block
100
AcDbMText
 10
7.190000000000003
 20
0.3749999999999982
 30
0.0
 40
0.05
 41
0.38
 71
     5
 72
     5
  1
BY
 73
     1
 44
1.0
1001
ACAD
1000
MTEXTBEGIN
1070
    73
1070
     1
1070
    44
1040
1.0
1070
    74
1070
     0
1000
MTEXTEND
  0
MTEXT
  5
105
330
1F
100
AcDbEntity
  8
Title Block
100
AcDbMText
 10
7.565000000000003
 20
0.3749999999999982
 30
0.0
 40
0.05
 41
0.38
 71
     5
 72
     5
  1
CHK
 73
     1
 44
1.0
1001
ACAD
1000
MTEXTBEGIN
1070
    73
1070
     1
1070
    44
1040
1.0
1070
    74
1070
     0
1000
MTEXTEND
  0
MTEXT
  5
106
330
1F
100
AcDbEntity
  8
Title Block
100
AcDbMText
 10
9.125000000000003
 20
0.3749999999999982
 30
0.0
 40
0.05
 41
2.75
 71
     5
 72
     5
  1
DESCRIPTION
 73
     1
 44
1.0
1001
ACAD
1000
MTEXTBEGIN
1070
    73
1070
     1
1070
    44
1040
1.0
1070
    74
1070
     0
1000
MTEXTEND
  0
MTEXT
  5
107
330
1F
100
AcDbEntity
  8
Title Block
100
AcDbMText
 10
11.065
 20
0.3749999999999982
 30
0.0
 40
0.05
 41
1.129999999999999
 71
     5
 72
     5
  1
ECN   -   R
 73
     1
 44
1.0
1001
ACAD
1000
MTEXTBEGIN
1070
    73
1070
     1
1070
    44
1040
1.0
1070
    74
1070
     0
1000
MTEXTEND
  0
MTEXT
  5
108
330
1F
100
AcDbEntity
  8
Title Block
100
AcDbMText
 10
11.815
 20
0.3749999999999982
 30
0.0
 40
0.05
 41
0.38
 71
     5
 72
     5
  1
CUST
 73
     1
 44
1.0
1001
ACAD
1000
MTEXTBEGIN
1070
    73
1070
     1
1070
    44
1040
1.0
1070
    74
1070
     0
1000
MTEXTEND
  0
MTEXT
  5
109
330
1F
100
AcDbEntity
  8
Title Block
100
AcDbMText
 10
12.19
 20
0.3749999999999982
 30
0.0
 40
0.05
 41
0.38
 71
     5
 72
     5
  1
SUP
 73
     1
 44
1.0
1001
ACAD
1000
MTEXTBEGIN
1070
    73
1070
     1
1070
    44
1040
1.0
1070
    74
1070
     0
1000
MTEXTEND
  0
LINE
  5
10A
330
1F
100
AcDbEntity
  8
Title Block
100
AcDbLine
 10
16.75
 20
2.749999999999997
 30
0.0
 11
6.250000000000003
 21
2.749999999999999
 31
0.0
  0
LINE
  5
10B
330
1F
100
AcDbEntity
  8
Title Block
100
AcDbLine
 10
12.75
 20
2.749999999999998
 30
0.0
 11
12.75
 21
0.2499999999999982
 31
0.0
  0
LINE
  5
10C
330
1F
100
AcDbEntity
  8
Title Block
100
AcDbLine
 10
16.75
 20
2.499999999999997
 30
0.0
 11
6.250000000000003
 21
2.499999999999999
 31
0.0
  0
LINE
  5
10D
330
1F
100
AcDbEntity
  8
Title Block
100
AcDbLine
 10
12.75
 20
2.249999999999998
 30
0.0
 11
6.250000000000003
 21
2.249999999999999
 31
0.0
  0
LINE
  5
10E
330
1F
100
AcDbEntity
  8
Title Block
100
AcDbLine
 10
16.75
 20
1.999999999999997
 30
0.0
 11
6.250000000000003
 21
1.999999999999999
 31
0.0
  0
LINE
  5
10F
330
1F
100
AcDbEntity
  8
Title Block
100
AcDbLine
 10
12.75
 20
1.749999999999998
 30
0.0
 11
6.250000000000003
 21
1.749999999999999
 31
0.0
  0
LINE
  5
110
330
1F
100
AcDbEntity
  8
Title Block
100
AcDbLine
 10
16.75
 20
1.499999999999997
 30
0.0
 11
6.250000000000003
 21
1.499999999999999
 31
0.0
  0
LINE
  5
111
330
1F
100
AcDbEntity
  8
Title Block
100
AcDbLine
 10
12.75
 20
1.249999999999998
 30
0.0
 11
6.250000000000003
 21
1.249999999999999
 31
0.0
  0
LINE
  5
112
330
1F
100
AcDbEntity
  8
Title Block
100
AcDbLine
 10
16.75
 20
0.9999999999999978
 30
0.0
 11
6.250000000000003
 21
0.9999999999999991
 31
0.0
  0
LINE
  5
113
330
1F
100
AcDbEntity
  8
Title Block
100
AcDbLine
 10
13.5
 20
0.7499999999999983
 30
0.0
 11
6.250000000000003
 21
0.7499999999999992
 31
0.0
  0
LINE
  5
114
330
1F
100
AcDbEntity
  8
Title Block
100
AcDbLine
 10
13.5
 20
0.4999999999999983
 30
0.0
 11
6.250000000000003
 21
0.4999999999999992
 31
0.0
  0
LINE
  5
115
330
1F
100
AcDbEntity
  8
Title Block
100
AcDbLine
 10
6.250000000000003
 20
0.2499999999999982
 30
0.0
 11
6.250000000000003
 21
2.749999999999999
 31
0.0
  0
LINE
  5
116
330
1F
100
AcDbEntity
  8
Title Block
100
AcDbLine
 10
6.500000000000003
 20
0.2499999999999982
 30
0.0
 11
6.500000000000003
 21
2.75
 31
0.0
  0
LINE
  5
117
330
1F
100
AcDbEntity
  8
Title Block
100
AcDbLine
 10
7.000000000000003
 20
0.2499999999999982
 30
0.0
 11
7.000000000000003
 21
2.75
 31
0.0
  0
LINE
  5
118
330
1F
100
AcDbEntity
  8
Title Block
100
AcDbLine
 10
7.375000000000003
 20
0.2499999999999982
 30
0.0
 11
7.375000000000003
 21
2.75
 31
0.0
  0
LINE
  5
119
330
1F
100
AcDbEntity
  8
Title Block
100
AcDbLine
 10
7.750000000000003
 20
0.2499999999999982
 30
0.0
 11
7.750000000000003
 21
2.75
 31
0.0
  0
LINE
  5
11A
330
1F
100
AcDbEntity
  8
Title Block
100
AcDbLine
 10
12.375
 20
2.749999999999998
 30
0.0
 11
12.375
 21
0.2499999999999982
 31
0.0
  0
LINE
  5
11B
330
1F
100
AcDbEntity
  8
Title Block
100
AcDbLine
 10
12.0
 20
2.749999999999998
 30
0.0
 11
12.0
 21
0.2499999999999982
 31
0.0
  0
LINE
  5
11C
330
1F
100
AcDbEntity
  8
Title Block
100
AcDbLine
 10
11.625
 20
2.749999999999998
 30
0.0
 11
11.625
 21
0.2499999999999982
 31
0.0
  0
LINE
  5
11D
330
1F
100
AcDbEntity
  8
Title Block
100
AcDbLine
 10
11.25
 20
2.749999999999998
 30
0.0
 11
11.25
 21
0.4999999999999984
 31
0.0
  0
LINE
  5
11E
330
1F
100
AcDbEntity
  8
Title Block
100
AcDbLine
 10
10.5
 20
2.749999999999998
 30
0.0
 11
10.5
 21
0.2499999999999982
 31
0.0
  0
LINE
  5
11F
330
1F
100
AcDbEntity
  8
Title Block
100
AcDbLine
 10
15.25
 20
0.7499999999999983
 30
0.0
 11
15.25
 21
1.499999999999997
 31
0.0
  0
LINE
  5
120
330
1F
100
AcDbEntity
  8
Title Block
100
AcDbLine
 10
15.25
 20
0.7499999999999983
 30
0.0
 11
15.25
 21
0.2499999999999982
 31
0.0
  0
LINE
  5
121
330
1F
100
AcDbEntity
  8
Title Block
100
AcDbLine
 10
15.25
 20
0.7499999999999983
 30
0.0
 11
16.75
 21
0.7499999999999983
 31
0.0
  0
LINE
  5
122
330
1F
100
AcDbEntity
  8
Title Block
100
AcDbLine
 10
13.5
 20
0.4999999999999983
 30
0.0
 11
13.5
 21
0.2499999999999982
 31
0.0
  0
LINE
  5
123
330
1F
100
AcDbEntity
  8
Title Block
100
AcDbLine
 10
13.5
 20
0.4999999999999983
 30
0.0
 11
13.5
 21
0.9999999999999982
 31
0.0
  0
LINE
  5
124
330
1F
100
AcDbEntity
  8
Title Block
100
AcDbLine
 10
16.25
 20
0.7499999999999983
 30
0.0
 11
16.25
 21
0.2499999999999982
 31
0.0
  0
LWPOLYLINE
  5
125
330
1F
100
AcDbEntity
  8
Title Block
100
AcDbPolyline
 90
        5
 70
     0
 43
0.01
 10
16.75
 20
0.2499999999999982
 10
16.75
 20
10.75
 10
0.2500000000000035
 20
10.75
 10
0.25
 20
0.25
 10
16.75
 20
0.2499999999999982
  0
POINT
  5
126
330
1F
100
AcDbEntity
  8
Title Block
100
AcDbPoint
 10
17.0
 20
-0.0000000000000018
 30
0.0
  0
POINT
  5
127
330
1F
100
AcDbEntity
  8
Title Block
100
AcDbPoint
 10
0.0
 20
0.0
 30
0.0
  0
POINT
  5
128
330
1F
100
AcDbEntity
  8
Title Block
100
AcDbPoint
 10
0.0000000000000036
 20
11.0
 30
0.0
  0
POINT
  5
129
330
1F
100
AcDbEntity
  8
Title Block
100
AcDbPoint
 10
17.0
 20
11.0
 30
0.0
  0
MTEXT
  5
12A
330
1F
100
AcDbEntity
  8
Text
100
AcDbMText
 10
6.376628153647693
 20
0.6232951697642469
 30
0.0
 40
0.09
 41
0.25
 71
     5
 72
     5
  1
R
 73
     1
 44
1.0
1001
ACAD
1000
MTEXTBEGIN
1070
    73
1070
     1
1070
    44
1040
1.0
1070
    74
1070
     0
1000
MTEXTEND
  0
MTEXT
  5
12B
330
1F
100
AcDbEntity
  8
Text
100
AcDbMText
 10
6.751628153647693
 20
0.6232951697642469
 30
0.0
 40
0.07
 41
0.5
 71
     5
 72
     5
  1
1-10-01
 73
     1
 44
1.0
1001
ACAD
1000
MTEXTBEGIN
1070
    73
1070
     1
1070
    44
1040
1.0
1070
    74
1070
     0
1000
MTEXTEND
  0
MTEXT
  5
12C
330
1F
100
AcDbEntity
  8
Text
100
AcDbMText
 10
7.189128153647693
 20
0.6232951697642469
 30
0.0
 40
0.09
 41
0.375
 71
     5
 72
     5
  1
MSO
 73
     1
 44
1.0
1001
ACAD
1000
MTEXTBEGIN
1070
    73
1070
     1
1070
    44
1040
1.0
1070
    74
1070
     0
1000
MTEXTEND
  0
MTEXT
  5
12D
330
1F
100
AcDbEntity
  8
Text
100
AcDbMText
 10
9.126628153647693
 20
0.6232951697642464
 30
0.0
 40
0.09
 41
2.75
 71
     5
 72
     5
  1
DRAWING RELEASED
 73
     1
 44
1.0
1001
ACAD
1000
MTEXTBEGIN
1070
    73
1070
     1
1070
    44
1040
1.0
1070
    74
1070
     0
1000
MTEXTEND
  0
MTEXT
  5
12E
330
1F
100
AcDbEntity
  8
Text
100
AcDbMText
 10
13.47662815364769
 20
0.8482951697642459
 30
0.0
 40
0.09
 41
0.75
 71
     6
 72
     5
  1
MSO
 73
     1
 44
1.0
1001
ACAD
1000
MTEXTBEGIN
1070
    73
1070
     1
1070
    44
1040
1.0
1070
    74
1070
     0
1000
MTEXTEND
  0
MTEXT
  5
12F
330
1F
100
AcDbEntity
  8
Text
100
AcDbMText
 10
13.47662815364769
 20
0.5982951697642458
 30
0.0
 40
0.09
 41
0.75
 71
     6
 72
     5
  1
1-10-01
 73
     1
 44
1.0
1001
ACAD
1000
MTEXTBEGIN
1070
    73
1070
     1
1070
    44
1040
1.0
1070
    74
1070
     0
1000
MTEXTEND
  0
MTEXT
  5
130
330
1F
100
AcDbEntity
  8
Text
100
AcDbMText
 10
13.47662815364769
 20
0.348295169764246
 30
0.0
 40
0.09
 41
0.75
 71
     6
 72
     5
  1
HIW
 73
     1
 44
1.0
1001
ACAD
1000
MTEXTBEGIN
1070
    73
1070
     1
1070
    44
1040
1.0
1070
    74
1070
     0
1000
MTEXTEND
  0
MTEXT
  5
131
330
1F
100
AcDbEntity
  8
Text
100
AcDbMText
 10
14.75162815364769
 20
2.623295169764245
 30
0.0
 40
0.09
 41
4.0
 71
     5
 72
     5
  1
FTRBE12.dwg
 73
     1
 44
1.0
1001
ACAD
1000
MTEXTBEGIN
1070
    73
1070
     1
1070
    44
1040
1.0
1070
    74
1070
     0
1000
MTEXTEND
  0
MTEXT
  5
132
330
1F
100
AcDbEntity
  8
Text
100
AcDbMText
 10
14.75162815364769
 20
1.748295169764245
 30
0.0
 40
0.09
 41
4.0
 71
     5
 72
     5
  1
FIBER-DUCT 2x2, 4x4 AND FIBERRUNNER 2x2 EXISTING\PTHREADED ROD BRACKET - {\H0.7x;\S1#2;}" (M12) THREADED ROD\P(FTRBE12, FTRBE12M) MARKETING DRAWING
 73
     1
 44
1.0
1001
ACAD
1000
MTEXTBEGIN
1070
    73
1070
     1
1070
    44
1040
1.0
1070
    74
1070
     1
1000
MTEXTEND
  0
MTEXT
  5
133
330
1F
100
AcDbEntity
  8
Text
100
AcDbMText
 10
16.00162815364769
 20
0.8732951697642457
 30
0.0
 40
0.12
 41
1.5
 71
     5
 72
     5
  1
FULL
 73
     1
 44
1.0
1001
ACAD
1000
MTEXTBEGIN
1070
    73
1070
     1
1070
    44
1040
1.0
1070
    74
1070
     0
1000
MTEXTEND
  0
MTEXT
  5
134
330
1F
100
AcDbEntity
  8
Text
100
AcDbMText
 10
15.75162815364769
 20
0.498295169764246
 30
0.0
 40
0.12
 41
1.0
 71
     5
 72
     5
  1
36897-643
 73
     1
 44
1.0
1001
ACAD
1000
MTEXTBEGIN
1070
    73
1070
     1
1070
    44
1040
1.0
1070
    74
1070
     0
1000
MTEXTEND
  0
DIMENSION
  5
135
330
1F
100
AcDbEntity
  8
Dimension
100
AcDbDimension
  2
*D1
 10
9.255633383436739
 20
9.275402550944544
 30
0.0
 11
9.255633383436737
 21
8.650402550944546
 31
0.0
 70
   160
 71
     5
 42
1.25
  3
Standard
100
AcDbAlignedDimension
 13
8.061457890809009
 23
8.025402550944544
 33
0.0
 14
8.061457890809009
 24
9.275402550944544
 34
0.0
 50
90.0
100
AcDbRotatedDimension
  0
MTEXT
  5
136
330
1F
100
AcDbEntity
  8
Text
100
AcDbMText
 10
11.77512911207421
 20
10.41196922660284
 30
0.0
 40
0.09
 41
4.638480538969798
 71
     1
 72
     5
  3
{\LNOTES:}\P\P1. THE FIBER-DUCT 2x2, 4x4 AND FIBERRUNNER 2x2 EXISTING THREADED\P   ROD BRACKET - {\H0.6878x;\S1#2;}" (M12) THREADED ROD INCLUDES:\P\P   ONE (1) BRACKET,\P   TWO (2) {\H0.6878x;\S1#2;}-13 SPLIT LOCK NUTS (FTRBE12 ONLY),\P   TWO (2) M12
  1
x1.75 SPLIT LOCK NUTS (FTRBE12M ONLY),\P   TWO (2) #10-32x{\H0.6878x;\S1#2;} PAN HEAD SLOTTED MACHINE SCREWS,\P   TWO (2) #10-32 HEX MACHINE SCREW NUTS,\P   TWO (2) #10 HELICAL SPRING LOCKWASHERS.
 73
     1
 44
1.0
1001
ACAD
1000
MTEXTBEGIN
1070
    73
1070
     1
1070
    44
1040
1.0
1070
    74
1070
     1
1000
MTEXTEND
  0
TEXT
  5
137
330
1F
100
AcDbEntity
  8
Text
100
AcDbText
 10
4.807474747644974
 20
7.554801452870695
 30
0.0
 40
0.125
  1
TOP VIEW
100
AcDbText
  0
TEXT
  5
138
330
1F
100
AcDbEntity
  8
Text
100
AcDbText
 10
4.689144336381559
 20
4.089356915928439
 30
0.0
 40
0.125
  1
FRONT VIEW
100
AcDbText
  0
TEXT
  5
139
330
1F
100
AcDbEntity
  8
Text
100
AcDbText
 10
12.7829968661567
 20
4.090140694983719
 30
0.0
 40
0.125
  1
RIGHT SIDE VIEW
100
AcDbText
  0
MTEXT
  5
13A
330
1F
100
AcDbEntity
  8
Text
100
AcDbMText
 10
7.560400281422712
 20
0.6262490740326632
 30
0.0
 40
0.09
 41
0.375
 71
     5
 72
     5
  1
HIW
 73
     1
 44
1.0
1001
ACAD
1000
MTEXTBEGIN
1070
    73
1070
     1
1070
    44
1040
1.0
1070
    74
1070
     0
1000
MTEXTEND
  0
LINE
  5
22B
330
1F
100
AcDbEntity
  8
Object
100
AcDbLine
 10
14.12345789080901
 20
4.711402550944544
 30
0.0
 11
13.93645789080901
 21
4.711402550944544
 31
0.0
  0
LINE
  5
22C
330
1F
100
AcDbEntity
  8
Object
100
AcDbLine
 10
13.93645789080901
 20
4.711402550944544
 30
0.0
 11
13.06045789080901
 21
4.711402550944544
 31
0.0
  0
LINE
  5
22D
330
1F
100
AcDbEntity
  8
Object
100
AcDbLine
 10
13.06045789080901
 20
4.711402550944544
 30
0.0
 11
12.87345789080901
 21
4.711402550944544
 31
0.0
  0
LINE
  5
22E
330
1F
100
AcDbEntity
  8
Object
100
AcDbLine
 10
13.06045789080901
 20
4.711402550944544
 30
0.0
 11
13.93645789080901
 21
4.711402550944544
 31
0.0
  0
LINE
  5
22F
330
1F
100
AcDbEntity
  8
Object
100
AcDbLine
 10
13.93645789080901
 20
4.711402550944544
 30
0.0
 11
13.93645789080901
 21
4.591402550944544
 31
0.0
  0
LINE
  5
230
330
1F
100
AcDbEntity
  8
Object
100
AcDbLine
 10
13.93645789080901
 20
4.591402550944544
 30
0.0
 11
13.06045789080901
 21
4.591402550944544
 31
0.0
  0
LINE
  5
231
330
1F
100
AcDbEntity
  8
Object
100
AcDbLine
 10
14.12345789080901
 20
4.591402550944544
 30
0.0
 11
14.12345789080901
 21
4.711402550944544
 31
0.0
  0
LINE
  5
232
330
1F
100
AcDbEntity
  8
Object
100
AcDbLine
 10
12.87345789080901
 20
4.711402550944544
 30
0.0
 11
12.87345789080901
 21
4.591402550944544
 31
0.0
  0
LINE
  5
233
330
1F
100
AcDbEntity
  8
Object
100
AcDbLine
 10
12.87345789080901
 20
4.591402550944544
 30
0.0
 11
13.06045789080901
 21
4.591402550944544
 31
0.0
  0
LINE
  5
234
330
1F
100
AcDbEntity
  8
Object
100
AcDbLine
 10
12.87345789080901
 20
4.591402550944544
 30
0.0
 11
12.87345789080901
 21
4.711402550944544
 31
0.0
  0
LINE
  5
235
102
{ACAD_REACTORS
330
549
102
}
330
1F
100
AcDbEntity
  8
Object
100
AcDbLine
 10
12.87345789080901
 20
4.711402550944544
 30
0.0
 11
13.06045789080901
 21
4.711402550944544
 31
0.0
  0
LINE
  5
236
330
1F
100
AcDbEntity
  8
Object
100
AcDbLine
 10
13.06045789080901
 20
4.711402550944544
 30
0.0
 11
13.06045789080901
 21
4.591402550944544
 31
0.0
  0
LINE
  5
237
330
1F
100
AcDbEntity
  8
Object
100
AcDbLine
 10
13.93645789080901
 20
4.591402550944544
 30
0.0
 11
14.12345789080901
 21
4.591402550944544
 31
0.0
  0
LINE
  5
238
330
1F
100
AcDbEntity
  8
Object
100
AcDbLine
 10
13.93645789080901
 20
4.711402550944544
 30
0.0
 11
14.12345789080901
 21
4.711402550944544
 31
0.0
  0
LINE
  5
239
330
1F
100
AcDbEntity
  8
Object
100
AcDbLine
 10
14.12345789080901
 20
4.711402550944544
 30
0.0
 11
14.12345789080901
 21
4.591402550944544
 31
0.0
  0
LINE
  5
23A
330
1F
100
AcDbEntity
  8
Object
100
AcDbLine
 10
14.12345789080901
 20
4.591402550944544
 30
0.0
 11
13.93645789080901
 21
4.591402550944544
 31
0.0
  0
LINE
  5
23B
330
1F
100
AcDbEntity
  8
Object
100
AcDbLine
 10
13.93645789080901
 20
4.591402550944544
 30
0.0
 11
13.06045789080901
 21
4.591402550944544
 31
0.0
  0
LINE
  5
23C
102
{ACAD_REACTORS
330
549
102
}
330
1F
100
AcDbEntity
  8
Object
100
AcDbLine
 10
13.06045789080901
 20
4.591402550944544
 30
0.0
 11
12.87345789080901
 21
4.591402550944544
 31
0.0
  0
LINE
  5
23D
330
1F
100
AcDbEntity
  8
Object
100
AcDbLine
 10
8.248457890809008
 20
4.711402550944544
 30
0.0
 11
8.061457890809009
 21
4.711402550944544
 31
0.0
  0
LINE
  5
23E
330
1F
100
AcDbEntity
  8
Object
100
AcDbLine
 10
8.061457890809009
 20
4.711402550944544
 30
0.0
 11
3.568457890809009
 21
4.711402550944544
 31
0.0
  0
LINE
  5
23F
330
1F
100
AcDbEntity
  8
Object
100
AcDbLine
 10
3.568457890809009
 20
4.711402550944544
 30
0.0
 11
3.550457890809008
 21
4.711402550944544
 31
0.0
  0
LINE
  5
240
330
1F
100
AcDbEntity
  8
Object
100
AcDbLine
 10
3.550457890809008
 20
4.711402550944544
 30
0.0
 11
3.535457890809008
 21
4.711402550944544
 31
0.0
  0
LINE
  5
241
330
1F
100
AcDbEntity
  8
Object
100
AcDbLine
 10
3.535457890809008
 20
4.711402550944544
 30
0.0
 11
3.525457890809009
 21
4.711402550944544
 31
0.0
  0
LINE
  5
242
330
1F
100
AcDbEntity
  8
Object
100
AcDbLine
 10
3.525457890809009
 20
4.711402550944544
 30
0.0
 11
3.521457890809008
 21
4.711402550944544
 31
0.0
  0
LINE
  5
243
330
1F
100
AcDbEntity
  8
Object
100
AcDbLine
 10
3.521457890809008
 20
4.711402550944544
 30
0.0
 11
3.518457890809008
 21
4.711402550944544
 31
0.0
  0
LINE
  5
244
330
1F
100
AcDbEntity
  8
Object
100
AcDbLine
 10
3.518457890809008
 20
4.711402550944544
 30
0.0
 11
3.507457890809009
 21
4.711402550944544
 31
0.0
  0
LINE
  5
245
330
1F
100
AcDbEntity
  8
Object
100
AcDbLine
 10
3.507457890809009
 20
4.711402550944544
 30
0.0
 11
3.489457890809008
 21
4.711402550944544
 31
0.0
  0
LINE
  5
246
330
1F
100
AcDbEntity
  8
Object
100
AcDbLine
 10
3.489457890809008
 20
4.711402550944544
 30
0.0
 11
3.464457890809008
 21
4.711402550944544
 31
0.0
  0
LINE
  5
247
330
1F
100
AcDbEntity
  8
Object
100
AcDbLine
 10
3.464457890809008
 20
4.711402550944544
 30
0.0
 11
3.433457890809009
 21
4.711402550944544
 31
0.0
  0
LINE
  5
248
330
1F
100
AcDbEntity
  8
Object
100
AcDbLine
 10
3.433457890809009
 20
4.711402550944544
 30
0.0
 11
3.398457890809009
 21
4.711402550944544
 31
0.0
  0
LINE
  5
249
330
1F
100
AcDbEntity
  8
Object
100
AcDbLine
 10
3.398457890809009
 20
4.711402550944544
 30
0.0
 11
3.358457890809008
 21
4.711402550944544
 31
0.0
  0
LINE
  5
24A
330
1F
100
AcDbEntity
  8
Object
100
AcDbLine
 10
3.358457890809008
 20
4.711402550944544
 30
0.0
 11
3.315457890809009
 21
4.711402550944544
 31
0.0
  0
LINE
  5
24B
330
1F
100
AcDbEntity
  8
Object
100
AcDbLine
 10
3.315457890809009
 20
4.711402550944544
 30
0.0
 11
3.271457890809008
 21
4.711402550944544
 31
0.0
  0
LINE
  5
24C
330
1F
100
AcDbEntity
  8
Object
100
AcDbLine
 10
3.271457890809008
 20
4.711402550944544
 30
0.0
 11
3.226457890809008
 21
4.711402550944544
 31
0.0
  0
LINE
  5
24D
330
1F
100
AcDbEntity
  8
Object
100
AcDbLine
 10
3.226457890809008
 20
4.711402550944544
 30
0.0
 11
3.181457890809008
 21
4.711402550944544
 31
0.0
  0
LINE
  5
24E
330
1F
100
AcDbEntity
  8
Object
100
AcDbLine
 10
3.181457890809008
 20
4.711402550944544
 30
0.0
 11
3.139457890809008
 21
4.711402550944544
 31
0.0
  0
LINE
  5
24F
330
1F
100
AcDbEntity
  8
Object
100
AcDbLine
 10
3.139457890809008
 20
4.711402550944544
 30
0.0
 11
3.099457890809009
 21
4.711402550944544
 31
0.0
  0
LINE
  5
250
330
1F
100
AcDbEntity
  8
Object
100
AcDbLine
 10
3.099457890809009
 20
4.711402550944544
 30
0.0
 11
3.064457890809009
 21
4.711402550944544
 31
0.0
  0
LINE
  5
251
330
1F
100
AcDbEntity
  8
Object
100
AcDbLine
 10
3.064457890809009
 20
4.711402550944544
 30
0.0
 11
3.033457890809009
 21
4.711402550944544
 31
0.0
  0
LINE
  5
252
330
1F
100
AcDbEntity
  8
Object
100
AcDbLine
 10
3.033457890809009
 20
4.711402550944544
 30
0.0
 11
3.008457890809008
 21
4.711402550944544
 31
0.0
  0
LINE
  5
253
330
1F
100
AcDbEntity
  8
Object
100
AcDbLine
 10
3.008457890809008
 20
4.711402550944544
 30
0.0
 11
2.990457890809008
 21
4.711402550944544
 31
0.0
  0
LINE
  5
254
330
1F
100
AcDbEntity
  8
Object
100
AcDbLine
 10
2.990457890809008
 20
4.711402550944544
 30
0.0
 11
2.979457890809008
 21
4.711402550944544
 31
0.0
  0
LINE
  5
255
330
1F
100
AcDbEntity
  8
Object
100
AcDbLine
 10
2.979457890809008
 20
4.711402550944544
 30
0.0
 11
2.975457890809009
 21
4.711402550944544
 31
0.0
  0
LINE
  5
256
330
1F
100
AcDbEntity
  8
Object
100
AcDbLine
 10
2.975457890809009
 20
4.711402550944544
 30
0.0
 11
2.972457890809009
 21
4.711402550944544
 31
0.0
  0
LINE
  5
257
330
1F
100
AcDbEntity
  8
Object
100
AcDbLine
 10
2.972457890809009
 20
4.711402550944544
 30
0.0
 11
2.962457890809009
 21
4.711402550944544
 31
0.0
  0
LINE
  5
258
330
1F
100
AcDbEntity
  8
Object
100
AcDbLine
 10
2.962457890809009
 20
4.711402550944544
 30
0.0
 11
2.947457890809008
 21
4.711402550944544
 31
0.0
  0
LINE
  5
259
330
1F
100
AcDbEntity
  8
Object
100
AcDbLine
 10
2.947457890809008
 20
4.711402550944544
 30
0.0
 11
2.929457890809008
 21
4.711402550944544
 31
0.0
  0
LINE
  5
25A
330
1F
100
AcDbEntity
  8
Object
100
AcDbLine
 10
2.929457890809008
 20
4.711402550944544
 30
0.0
 11
2.435457890809008
 21
4.711402550944544
 31
0.0
  0
LINE
  5
25B
330
1F
100
AcDbEntity
  8
Object
100
AcDbLine
 10
2.435457890809008
 20
4.711402550944544
 30
0.0
 11
2.248457890809008
 21
4.711402550944544
 31
0.0
  0
LINE
  5
25C
330
1F
100
AcDbEntity
  8
Object
100
AcDbLine
 10
8.248457890809008
 20
4.591402550944544
 30
0.0
 11
8.248457890809008
 21
4.711402550944544
 31
0.0
  0
LINE
  5
25D
330
1F
100
AcDbEntity
  8
Object
100
AcDbLine
 10
3.550457890809008
 20
4.711402550944544
 30
0.0
 11
3.568457890809009
 21
4.711402550944544
 31
0.0
  0
LINE
  5
25E
330
1F
100
AcDbEntity
  8
Object
100
AcDbLine
 10
3.568457890809009
 20
4.711402550944544
 30
0.0
 11
3.568457890809009
 21
4.591402550944544
 31
0.0
  0
LINE
  5
25F
330
1F
100
AcDbEntity
  8
Object
100
AcDbLine
 10
3.568457890809009
 20
4.591402550944544
 30
0.0
 11
3.550457890809008
 21
4.591402550944544
 31
0.0
  0
LINE
  5
260
330
1F
100
AcDbEntity
  8
Object
100
AcDbLine
 10
3.550457890809008
 20
4.591402550944544
 30
0.0
 11
3.535457890809008
 21
4.591402550944544
 31
0.0
  0
LINE
  5
261
330
1F
100
AcDbEntity
  8
Object
100
AcDbLine
 10
3.550457890809008
 20
4.711402550944544
 30
0.0
 11
3.535457890809008
 21
4.711402550944544
 31
0.0
  0
LINE
  5
262
330
1F
100
AcDbEntity
  8
Object
100
AcDbLine
 10
3.535457890809008
 20
4.711402550944544
 30
0.0
 11
3.525457890809009
 21
4.711402550944544
 31
0.0
  0
LINE
  5
263
330
1F
100
AcDbEntity
  8
Object
100
AcDbLine
 10
3.535457890809008
 20
4.591402550944544
 30
0.0
 11
3.525457890809009
 21
4.591402550944544
 31
0.0
  0
LINE
  5
264
330
1F
100
AcDbEntity
  8
Object
100
AcDbLine
 10
3.525457890809009
 20
4.591402550944544
 30
0.0
 11
3.521457890809008
 21
4.591402550944544
 31
0.0
  0
LINE
  5
265
330
1F
100
AcDbEntity
  8
Object
100
AcDbLine
 10
3.521457890809008
 20
4.591402550944544
 30
0.0
 11
3.521457890809008
 21
4.711402550944544
 31
0.0
  0
LINE
  5
266
330
1F
100
AcDbEntity
  8
Object
100
AcDbLine
 10
3.521457890809008
 20
4.711402550944544
 30
0.0
 11
3.525457890809009
 21
4.711402550944544
 31
0.0
  0
LINE
  5
267
330
1F
100
AcDbEntity
  8
Object
100
AcDbLine
 10
2.975457890809009
 20
4.591402550944544
 30
0.0
 11
2.975457890809009
 21
4.711402550944544
 31
0.0
  0
LINE
  5
268
330
1F
100
AcDbEntity
  8
Object
100
AcDbLine
 10
2.248457890809008
 20
4.711402550944544
 30
0.0
 11
2.248457890809008
 21
4.591402550944544
 31
0.0
  0
LINE
  5
269
330
1F
100
AcDbEntity
  8
Object
100
AcDbLine
 10
8.061457890809009
 20
4.711402550944544
 30
0.0
 11
8.061457890809009
 21
4.591402550944544
 31
0.0
  0
LINE
  5
26A
330
1F
100
AcDbEntity
  8
Object
100
AcDbLine
 10
8.061457890809009
 20
4.591402550944544
 30
0.0
 11
3.568457890809009
 21
4.591402550944544
 31
0.0
  0
LINE
  5
26B
330
1F
100
AcDbEntity
  8
Object
100
AcDbLine
 10
8.061457890809009
 20
4.711402550944544
 30
0.0
 11
3.568457890809009
 21
4.711402550944544
 31
0.0
  0
LINE
  5
26C
330
1F
100
AcDbEntity
  8
Object
100
AcDbLine
 10
2.972457890809009
 20
4.711402550944544
 30
0.0
 11
2.975457890809009
 21
4.711402550944544
 31
0.0
  0
LINE
  5
26D
330
1F
100
AcDbEntity
  8
Object
100
AcDbLine
 10
2.975457890809009
 20
4.711402550944544
 30
0.0
 11
2.975457890809009
 21
4.591402550944544
 31
0.0
  0
LINE
  5
26E
330
1F
100
AcDbEntity
  8
Object
100
AcDbLine
 10
2.975457890809009
 20
4.591402550944544
 30
0.0
 11
2.972457890809009
 21
4.591402550944544
 31
0.0
  0
LINE
  5
26F
330
1F
100
AcDbEntity
  8
Object
100
AcDbLine
 10
2.972457890809009
 20
4.591402550944544
 30
0.0
 11
2.962457890809009
 21
4.591402550944544
 31
0.0
  0
LINE
  5
270
330
1F
100
AcDbEntity
  8
Object
100
AcDbLine
 10
2.972457890809009
 20
4.711402550944544
 30
0.0
 11
2.962457890809009
 21
4.711402550944544
 31
0.0
  0
LINE
  5
271
330
1F
100
AcDbEntity
  8
Object
100
AcDbLine
 10
2.962457890809009
 20
4.711402550944544
 30
0.0
 11
2.947457890809008
 21
4.711402550944544
 31
0.0
  0
LINE
  5
272
330
1F
100
AcDbEntity
  8
Object
100
AcDbLine
 10
2.962457890809009
 20
4.591402550944544
 30
0.0
 11
2.947457890809008
 21
4.591402550944544
 31
0.0
  0
LINE
  5
273
330
1F
100
AcDbEntity
  8
Object
100
AcDbLine
 10
2.947457890809008
 20
4.591402550944544
 30
0.0
 11
2.929457890809008
 21
4.591402550944544
 31
0.0
  0
LINE
  5
274
330
1F
100
AcDbEntity
  8
Object
100
AcDbLine
 10
2.947457890809008
 20
4.711402550944544
 30
0.0
 11
2.929457890809008
 21
4.711402550944544
 31
0.0
  0
LINE
  5
275
330
1F
100
AcDbEntity
  8
Object
100
AcDbLine
 10
8.061457890809009
 20
4.591402550944544
 30
0.0
 11
8.248457890809008
 21
4.591402550944544
 31
0.0
  0
LINE
  5
276
330
1F
100
AcDbEntity
  8
Object
100
AcDbLine
 10
8.061457890809009
 20
4.711402550944544
 30
0.0
 11
8.248457890809008
 21
4.711402550944544
 31
0.0
  0
LINE
  5
277
102
{ACAD_REACTORS
330
52C
102
}
330
1F
100
AcDbEntity
  8
Object
100
AcDbLine
 10
8.248457890809008
 20
4.711402550944544
 30
0.0
 11
8.248457890809008
 21
4.591402550944544
 31
0.0
  0
LINE
  5
278
330
1F
100
AcDbEntity
  8
Object
100
AcDbLine
 10
3.521457890809008
 20
4.711402550944544
 30
0.0
 11
3.518457890809008
 21
4.711402550944544
 31
0.0
  0
LINE
  5
279
330
1F
100
AcDbEntity
  8
Object
100
AcDbLine
 10
3.521457890809008
 20
4.591402550944544
 30
0.0
 11
3.518457890809008
 21
4.591402550944544
 31
0.0
  0
LINE
  5
27A
330
1F
100
AcDbEntity
  8
Object
100
AcDbLine
 10
3.518457890809008
 20
4.591402550944544
 30
0.0
 11
3.507457890809009
 21
4.591402550944544
 31
0.0
  0
LINE
  5
27B
330
1F
100
AcDbEntity
  8
Object
100
AcDbLine
 10
3.518457890809008
 20
4.711402550944544
 30
0.0
 11
3.507457890809009
 21
4.711402550944544
 31
0.0
  0
LINE
  5
27C
330
1F
100
AcDbEntity
  8
Object
100
AcDbLine
 10
3.507457890809009
 20
4.711402550944544
 30
0.0
 11
3.489457890809008
 21
4.711402550944544
 31
0.0
  0
LINE
  5
27D
330
1F
100
AcDbEntity
  8
Object
100
AcDbLine
 10
3.507457890809009
 20
4.591402550944544
 30
0.0
 11
3.489457890809008
 21
4.591402550944544
 31
0.0
  0
LINE
  5
27E
330
1F
100
AcDbEntity
  8
Object
100
AcDbLine
 10
3.489457890809008
 20
4.591402550944544
 30
0.0
 11
3.464457890809008
 21
4.591402550944544
 31
0.0
  0
LINE
  5
27F
330
1F
100
AcDbEntity
  8
Object
100
AcDbLine
 10
3.489457890809008
 20
4.711402550944544
 30
0.0
 11
3.464457890809008
 21
4.711402550944544
 31
0.0
  0
LINE
  5
280
330
1F
100
AcDbEntity
  8
Object
100
AcDbLine
 10
3.464457890809008
 20
4.711402550944544
 30
0.0
 11
3.433457890809009
 21
4.711402550944544
 31
0.0
  0
LINE
  5
281
330
1F
100
AcDbEntity
  8
Object
100
AcDbLine
 10
3.464457890809008
 20
4.591402550944544
 30
0.0
 11
3.433457890809009
 21
4.591402550944544
 31
0.0
  0
LINE
  5
282
330
1F
100
AcDbEntity
  8
Object
100
AcDbLine
 10
3.433457890809009
 20
4.591402550944544
 30
0.0
 11
3.398457890809009
 21
4.591402550944544
 31
0.0
  0
LINE
  5
283
330
1F
100
AcDbEntity
  8
Object
100
AcDbLine
 10
3.433457890809009
 20
4.711402550944544
 30
0.0
 11
3.398457890809009
 21
4.711402550944544
 31
0.0
  0
LINE
  5
284
330
1F
100
AcDbEntity
  8
Object
100
AcDbLine
 10
3.398457890809009
 20
4.711402550944544
 30
0.0
 11
3.358457890809008
 21
4.711402550944544
 31
0.0
  0
LINE
  5
285
330
1F
100
AcDbEntity
  8
Object
100
AcDbLine
 10
3.398457890809009
 20
4.591402550944544
 30
0.0
 11
3.358457890809008
 21
4.591402550944544
 31
0.0
  0
LINE
  5
286
330
1F
100
AcDbEntity
  8
Object
100
AcDbLine
 10
3.358457890809008
 20
4.591402550944544
 30
0.0
 11
3.315457890809009
 21
4.591402550944544
 31
0.0
  0
LINE
  5
287
330
1F
100
AcDbEntity
  8
Object
100
AcDbLine
 10
3.358457890809008
 20
4.711402550944544
 30
0.0
 11
3.315457890809009
 21
4.711402550944544
 31
0.0
  0
LINE
  5
288
330
1F
100
AcDbEntity
  8
Object
100
AcDbLine
 10
3.315457890809009
 20
4.711402550944544
 30
0.0
 11
3.271457890809008
 21
4.711402550944544
 31
0.0
  0
LINE
  5
289
330
1F
100
AcDbEntity
  8
Object
100
AcDbLine
 10
3.315457890809009
 20
4.591402550944544
 30
0.0
 11
3.271457890809008
 21
4.591402550944544
 31
0.0
  0
LINE
  5
28A
330
1F
100
AcDbEntity
  8
Object
100
AcDbLine
 10
3.271457890809008
 20
4.591402550944544
 30
0.0
 11
3.226457890809008
 21
4.591402550944544
 31
0.0
  0
LINE
  5
28B
330
1F
100
AcDbEntity
  8
Object
100
AcDbLine
 10
3.271457890809008
 20
4.711402550944544
 30
0.0
 11
3.226457890809008
 21
4.711402550944544
 31
0.0
  0
LINE
  5
28C
330
1F
100
AcDbEntity
  8
Object
100
AcDbLine
 10
3.226457890809008
 20
4.711402550944544
 30
0.0
 11
3.181457890809008
 21
4.711402550944544
 31
0.0
  0
LINE
  5
28D
330
1F
100
AcDbEntity
  8
Object
100
AcDbLine
 10
3.226457890809008
 20
4.591402550944544
 30
0.0
 11
3.181457890809008
 21
4.591402550944544
 31
0.0
  0
LINE
  5
28E
330
1F
100
AcDbEntity
  8
Object
100
AcDbLine
 10
3.181457890809008
 20
4.591402550944544
 30
0.0
 11
3.139457890809008
 21
4.591402550944544
 31
0.0
  0
LINE
  5
28F
330
1F
100
AcDbEntity
  8
Object
100
AcDbLine
 10
3.181457890809008
 20
4.711402550944544
 30
0.0
 11
3.139457890809008
 21
4.711402550944544
 31
0.0
  0
LINE
  5
290
330
1F
100
AcDbEntity
  8
Object
100
AcDbLine
 10
3.139457890809008
 20
4.711402550944544
 30
0.0
 11
3.099457890809009
 21
4.711402550944544
 31
0.0
  0
LINE
  5
291
330
1F
100
AcDbEntity
  8
Object
100
AcDbLine
 10
3.139457890809008
 20
4.591402550944544
 30
0.0
 11
3.099457890809009
 21
4.591402550944544
 31
0.0
  0
LINE
  5
292
330
1F
100
AcDbEntity
  8
Object
100
AcDbLine
 10
3.099457890809009
 20
4.591402550944544
 30
0.0
 11
3.064457890809009
 21
4.591402550944544
 31
0.0
  0
LINE
  5
293
330
1F
100
AcDbEntity
  8
Object
100
AcDbLine
 10
3.099457890809009
 20
4.711402550944544
 30
0.0
 11
3.064457890809009
 21
4.711402550944544
 31
0.0
  0
LINE
  5
294
330
1F
100
AcDbEntity
  8
Object
100
AcDbLine
 10
3.064457890809009
 20
4.711402550944544
 30
0.0
 11
3.033457890809009
 21
4.711402550944544
 31
0.0
  0
LINE
  5
295
330
1F
100
AcDbEntity
  8
Object
100
AcDbLine
 10
3.064457890809009
 20
4.591402550944544
 30
0.0
 11
3.033457890809009
 21
4.591402550944544
 31
0.0
  0
LINE
  5
296
330
1F
100
AcDbEntity
  8
Object
100
AcDbLine
 10
3.033457890809009
 20
4.591402550944544
 30
0.0
 11
3.008457890809008
 21
4.591402550944544
 31
0.0
  0
LINE
  5
297
330
1F
100
AcDbEntity
  8
Object
100
AcDbLine
 10
3.033457890809009
 20
4.711402550944544
 30
0.0
 11
3.008457890809008
 21
4.711402550944544
 31
0.0
  0
LINE
  5
298
330
1F
100
AcDbEntity
  8
Object
100
AcDbLine
 10
3.008457890809008
 20
4.711402550944544
 30
0.0
 11
2.990457890809008
 21
4.711402550944544
 31
0.0
  0
LINE
  5
299
330
1F
100
AcDbEntity
  8
Object
100
AcDbLine
 10
3.008457890809008
 20
4.591402550944544
 30
0.0
 11
2.990457890809008
 21
4.591402550944544
 31
0.0
  0
LINE
  5
29A
330
1F
100
AcDbEntity
  8
Object
100
AcDbLine
 10
2.990457890809008
 20
4.591402550944544
 30
0.0
 11
2.979457890809008
 21
4.591402550944544
 31
0.0
  0
LINE
  5
29B
330
1F
100
AcDbEntity
  8
Object
100
AcDbLine
 10
2.990457890809008
 20
4.711402550944544
 30
0.0
 11
2.979457890809008
 21
4.711402550944544
 31
0.0
  0
LINE
  5
29C
330
1F
100
AcDbEntity
  8
Object
100
AcDbLine
 10
2.975457890809009
 20
4.591402550944544
 30
0.0
 11
2.979457890809008
 21
4.591402550944544
 31
0.0
  0
LINE
  5
29D
330
1F
100
AcDbEntity
  8
Object
100
AcDbLine
 10
2.979457890809008
 20
4.711402550944544
 30
0.0
 11
2.975457890809009
 21
4.711402550944544
 31
0.0
  0
LINE
  5
29E
330
1F
100
AcDbEntity
  8
Object
100
AcDbLine
 10
2.435457890809008
 20
4.711402550944544
 30
0.0
 11
2.929457890809008
 21
4.711402550944544
 31
0.0
  0
LINE
  5
29F
330
1F
100
AcDbEntity
  8
Object
100
AcDbLine
 10
2.929457890809008
 20
4.711402550944544
 30
0.0
 11
2.929457890809008
 21
4.591402550944544
 31
0.0
  0
LINE
  5
2A0
330
1F
100
AcDbEntity
  8
Object
100
AcDbLine
 10
2.929457890809008
 20
4.591402550944544
 30
0.0
 11
2.435457890809008
 21
4.591402550944544
 31
0.0
  0
LINE
  5
2A1
330
1F
100
AcDbEntity
  8
Object
100
AcDbLine
 10
2.435457890809008
 20
4.591402550944544
 30
0.0
 11
2.248457890809008
 21
4.591402550944544
 31
0.0
  0
LINE
  5
2A2
330
1F
100
AcDbEntity
  8
Object
100
AcDbLine
 10
2.248457890809008
 20
4.591402550944544
 30
0.0
 11
2.248457890809008
 21
4.711402550944544
 31
0.0
  0
LINE
  5
2A3
102
{ACAD_REACTORS
330
52C
102
}
330
1F
100
AcDbEntity
  8
Object
100
AcDbLine
 10
2.248457890809008
 20
4.711402550944544
 30
0.0
 11
2.435457890809008
 21
4.711402550944544
 31
0.0
  0
LINE
  5
2A4
330
1F
100
AcDbEntity
  8
Object
100
AcDbLine
 10
2.435457890809008
 20
4.711402550944544
 30
0.0
 11
2.435457890809008
 21
4.591402550944544
 31
0.0
  0
LINE
  5
2A5
330
1F
100
AcDbEntity
  8
Object
100
AcDbLine
 10
3.521457890809008
 20
4.711402550944544
 30
0.0
 11
3.521457890809008
 21
4.591402550944544
 31
0.0
  0
LINE
  5
2A6
330
1F
100
AcDbEntity
  8
Object
100
AcDbLine
 10
8.248457890809008
 20
4.591402550944544
 30
0.0
 11
8.061457890809009
 21
4.591402550944544
 31
0.0
  0
LINE
  5
2A7
330
1F
100
AcDbEntity
  8
Object
100
AcDbLine
 10
8.061457890809009
 20
4.591402550944544
 30
0.0
 11
3.568457890809009
 21
4.591402550944544
 31
0.0
  0
LINE
  5
2A8
330
1F
100
AcDbEntity
  8
Object
100
AcDbLine
 10
3.568457890809009
 20
4.591402550944544
 30
0.0
 11
3.550457890809008
 21
4.591402550944544
 31
0.0
  0
LINE
  5
2A9
330
1F
100
AcDbEntity
  8
Object
100
AcDbLine
 10
3.550457890809008
 20
4.591402550944544
 30
0.0
 11
3.535457890809008
 21
4.591402550944544
 31
0.0
  0
LINE
  5
2AA
330
1F
100
AcDbEntity
  8
Object
100
AcDbLine
 10
3.535457890809008
 20
4.591402550944544
 30
0.0
 11
3.525457890809009
 21
4.591402550944544
 31
0.0
  0
LINE
  5
2AB
330
1F
100
AcDbEntity
  8
Object
100
AcDbLine
 10
3.525457890809009
 20
4.591402550944544
 30
0.0
 11
3.521457890809008
 21
4.591402550944544
 31
0.0
  0
LINE
  5
2AC
330
1F
100
AcDbEntity
  8
Object
100
AcDbLine
 10
3.521457890809008
 20
4.591402550944544
 30
0.0
 11
3.518457890809008
 21
4.591402550944544
 31
0.0
  0
LINE
  5
2AD
330
1F
100
AcDbEntity
  8
Object
100
AcDbLine
 10
3.518457890809008
 20
4.591402550944544
 30
0.0
 11
3.507457890809009
 21
4.591402550944544
 31
0.0
  0
LINE
  5
2AE
330
1F
100
AcDbEntity
  8
Object
100
AcDbLine
 10
3.507457890809009
 20
4.591402550944544
 30
0.0
 11
3.489457890809008
 21
4.591402550944544
 31
0.0
  0
LINE
  5
2AF
330
1F
100
AcDbEntity
  8
Object
100
AcDbLine
 10
3.489457890809008
 20
4.591402550944544
 30
0.0
 11
3.464457890809008
 21
4.591402550944544
 31
0.0
  0
LINE
  5
2B0
330
1F
100
AcDbEntity
  8
Object
100
AcDbLine
 10
3.464457890809008
 20
4.591402550944544
 30
0.0
 11
3.433457890809009
 21
4.591402550944544
 31
0.0
  0
LINE
  5
2B1
330
1F
100
AcDbEntity
  8
Object
100
AcDbLine
 10
3.433457890809009
 20
4.591402550944544
 30
0.0
 11
3.398457890809009
 21
4.591402550944544
 31
0.0
  0
LINE
  5
2B2
330
1F
100
AcDbEntity
  8
Object
100
AcDbLine
 10
3.398457890809009
 20
4.591402550944544
 30
0.0
 11
3.358457890809008
 21
4.591402550944544
 31
0.0
  0
LINE
  5
2B3
330
1F
100
AcDbEntity
  8
Object
100
AcDbLine
 10
3.358457890809008
 20
4.591402550944544
 30
0.0
 11
3.315457890809009
 21
4.591402550944544
 31
0.0
  0
LINE
  5
2B4
330
1F
100
AcDbEntity
  8
Object
100
AcDbLine
 10
3.315457890809009
 20
4.591402550944544
 30
0.0
 11
3.271457890809008
 21
4.591402550944544
 31
0.0
  0
LINE
  5
2B5
330
1F
100
AcDbEntity
  8
Object
100
AcDbLine
 10
3.271457890809008
 20
4.591402550944544
 30
0.0
 11
3.226457890809008
 21
4.591402550944544
 31
0.0
  0
LINE
  5
2B6
330
1F
100
AcDbEntity
  8
Object
100
AcDbLine
 10
3.226457890809008
 20
4.591402550944544
 30
0.0
 11
3.181457890809008
 21
4.591402550944544
 31
0.0
  0
LINE
  5
2B7
330
1F
100
AcDbEntity
  8
Object
100
AcDbLine
 10
3.181457890809008
 20
4.591402550944544
 30
0.0
 11
3.139457890809008
 21
4.591402550944544
 31
0.0
  0
LINE
  5
2B8
330
1F
100
AcDbEntity
  8
Object
100
AcDbLine
 10
3.139457890809008
 20
4.591402550944544
 30
0.0
 11
3.099457890809009
 21
4.591402550944544
 31
0.0
  0
LINE
  5
2B9
330
1F
100
AcDbEntity
  8
Object
100
AcDbLine
 10
3.099457890809009
 20
4.591402550944544
 30
0.0
 11
3.064457890809009
 21
4.591402550944544
 31
0.0
  0
LINE
  5
2BA
330
1F
100
AcDbEntity
  8
Object
100
AcDbLine
 10
3.064457890809009
 20
4.591402550944544
 30
0.0
 11
3.033457890809009
 21
4.591402550944544
 31
0.0
  0
LINE
  5
2BB
330
1F
100
AcDbEntity
  8
Object
100
AcDbLine
 10
3.033457890809009
 20
4.591402550944544
 30
0.0
 11
3.008457890809008
 21
4.591402550944544
 31
0.0
  0
LINE
  5
2BC
330
1F
100
AcDbEntity
  8
Object
100
AcDbLine
 10
3.008457890809008
 20
4.591402550944544
 30
0.0
 11
2.990457890809008
 21
4.591402550944544
 31
0.0
  0
LINE
  5
2BD
330
1F
100
AcDbEntity
  8
Object
100
AcDbLine
 10
2.990457890809008
 20
4.591402550944544
 30
0.0
 11
2.979457890809008
 21
4.591402550944544
 31
0.0
  0
LINE
  5
2BE
330
1F
100
AcDbEntity
  8
Object
100
AcDbLine
 10
2.979457890809008
 20
4.591402550944544
 30
0.0
 11
2.975457890809009
 21
4.591402550944544
 31
0.0
  0
LINE
  5
2BF
330
1F
100
AcDbEntity
  8
Object
100
AcDbLine
 10
2.975457890809009
 20
4.591402550944544
 30
0.0
 11
2.972457890809009
 21
4.591402550944544
 31
0.0
  0
LINE
  5
2C0
330
1F
100
AcDbEntity
  8
Object
100
AcDbLine
 10
2.972457890809009
 20
4.591402550944544
 30
0.0
 11
2.962457890809009
 21
4.591402550944544
 31
0.0
  0
LINE
  5
2C1
330
1F
100
AcDbEntity
  8
Object
100
AcDbLine
 10
2.962457890809009
 20
4.591402550944544
 30
0.0
 11
2.947457890809008
 21
4.591402550944544
 31
0.0
  0
LINE
  5
2C2
330
1F
100
AcDbEntity
  8
Object
100
AcDbLine
 10
2.947457890809008
 20
4.591402550944544
 30
0.0
 11
2.929457890809008
 21
4.591402550944544
 31
0.0
  0
LINE
  5
2C3
330
1F
100
AcDbEntity
  8
Object
100
AcDbLine
 10
2.929457890809008
 20
4.591402550944544
 30
0.0
 11
2.435457890809008
 21
4.591402550944544
 31
0.0
  0
LINE
  5
2C4
330
1F
100
AcDbEntity
  8
Object
100
AcDbLine
 10
2.435457890809008
 20
4.591402550944544
 30
0.0
 11
2.248457890809008
 21
4.591402550944544
 31
0.0
  0
LINE
  5
2C5
330
1F
100
AcDbEntity
  8
Object
100
AcDbLine
 10
6.742457890809008
 20
9.077402550944544
 30
0.0
 11
6.742457890809008
 21
8.952402550944544
 31
0.0
  0
LINE
  5
2C6
330
1F
100
AcDbEntity
  8
Object
100
AcDbLine
 10
6.742457890809008
 20
8.952402550944544
 30
0.0
 11
6.834457890809009
 21
8.952402550944544
 31
0.0
  0
LINE
  5
2C7
330
1F
100
AcDbEntity
  8
Object
100
AcDbLine
 10
8.248457890809008
 20
8.212402550944545
 30
0.0
 11
8.248457890809008
 21
9.088402550944543
 31
0.0
  0
LINE
  5
2C8
330
1F
100
AcDbEntity
  8
Object
100
AcDbLine
 10
7.933457890809009
 20
8.677402550944545
 30
0.0
 11
7.936457890809009
 21
8.650402550944544
 31
0.0
  0
LINE
  5
2C9
330
1F
100
AcDbEntity
  8
Object
100
AcDbLine
 10
7.936457890809009
 20
8.650402550944544
 30
0.0
 11
7.933457890809009
 21
8.623402550944543
 31
0.0
  0
LINE
  5
2CA
330
1F
100
AcDbEntity
  8
Object
100
AcDbLine
 10
7.922457890809008
 20
8.702402550944544
 30
0.0
 11
7.933457890809009
 21
8.677402550944545
 31
0.0
  0
LINE
  5
2CB
330
1F
100
AcDbEntity
  8
Object
100
AcDbLine
 10
7.933457890809009
 20
8.623402550944543
 30
0.0
 11
7.922457890809008
 21
8.597402550944543
 31
0.0
  0
LINE
  5
2CC
330
1F
100
AcDbEntity
  8
Object
100
AcDbLine
 10
7.906457890809009
 20
8.724402550944544
 30
0.0
 11
7.922457890809008
 21
8.702402550944544
 31
0.0
  0
LINE
  5
2CD
330
1F
100
AcDbEntity
  8
Object
100
AcDbLine
 10
7.922457890809008
 20
8.597402550944543
 30
0.0
 11
7.906457890809009
 21
8.575402550944545
 31
0.0
  0
LINE
  5
2CE
330
1F
100
AcDbEntity
  8
Object
100
AcDbLine
 10
7.884457890809009
 20
8.741402550944545
 30
0.0
 11
7.906457890809009
 21
8.724402550944544
 31
0.0
  0
LINE
  5
2CF
330
1F
100
AcDbEntity
  8
Object
100
AcDbLine
 10
7.906457890809009
 20
8.575402550944545
 30
0.0
 11
7.884457890809009
 21
8.559402550944543
 31
0.0
  0
LINE
  5
2D0
330
1F
100
AcDbEntity
  8
Object
100
AcDbLine
 10
8.248457890809008
 20
9.088402550944543
 30
0.0
 11
8.061457890809009
 21
9.275402550944544
 31
0.0
  0
LINE
  5
2D1
330
1F
100
AcDbEntity
  8
Object
100
AcDbLine
 10
7.859457890809008
 20
8.751402550944543
 30
0.0
 11
7.884457890809009
 21
8.741402550944545
 31
0.0
  0
LINE
  5
2D2
330
1F
100
AcDbEntity
  8
Object
100
AcDbLine
 10
7.884457890809009
 20
8.559402550944543
 30
0.0
 11
7.859457890809008
 21
8.548402550944544
 31
0.0
  0
LINE
  5
2D3
330
1F
100
AcDbEntity
  8
Object
100
AcDbLine
 10
8.061457890809009
 20
8.025402550944544
 30
0.0
 11
8.248457890809008
 21
8.212402550944545
 31
0.0
  0
LINE
  5
2D4
330
1F
100
AcDbEntity
  8
Object
100
AcDbLine
 10
7.831457890809009
 20
8.755402550944545
 30
0.0
 11
7.859457890809008
 21
8.751402550944543
 31
0.0
  0
LINE
  5
2D5
330
1F
100
AcDbEntity
  8
Object
100
AcDbLine
 10
7.859457890809008
 20
8.548402550944544
 30
0.0
 11
7.831457890809009
 21
8.545402550944544
 31
0.0
  0
LINE
  5
2D6
330
1F
100
AcDbEntity
  8
Object
100
AcDbLine
 10
7.032457890809008
 20
9.064402550944544
 30
0.0
 11
7.032457890809008
 21
9.020402550944545
 31
0.0
  0
LINE
  5
2D7
330
1F
100
AcDbEntity
  8
Object
100
AcDbLine
 10
7.032457890809008
 20
8.964402550944544
 30
0.0
 11
7.032457890809008
 21
8.952402550944544
 31
0.0
  0
LINE
  5
2D8
330
1F
100
AcDbEntity
  8
Object
100
AcDbLine
 10
7.006457890809008
 20
9.077402550944544
 30
0.0
 11
7.032457890809008
 21
9.064402550944544
 31
0.0
  0
LINE
  5
2D9
330
1F
100
AcDbEntity
  8
Object
100
AcDbLine
 10
6.992457890809008
 20
9.065402550944543
 30
0.0
 11
7.017457890809009
 21
9.052402550944545
 31
0.0
  0
LINE
  5
2DA
330
1F
100
AcDbEntity
  8
Object
100
AcDbLine
 10
7.017457890809009
 20
9.052402550944545
 30
0.0
 11
7.017457890809009
 21
9.032402550944544
 31
0.0
  0
LINE
  5
2DB
330
1F
100
AcDbEntity
  8
Object
100
AcDbLine
 10
6.992457890809008
 20
9.065402550944543
 30
0.0
 11
6.969457890809009
 21
9.065402550944543
 31
0.0
  0
LINE
  5
2DC
330
1F
100
AcDbEntity
  8
Object
100
AcDbLine
 10
6.953457890809009
 20
9.077402550944544
 30
0.0
 11
7.006457890809008
 21
9.077402550944544
 31
0.0
  0
LINE
  5
2DD
330
1F
100
AcDbEntity
  8
Object
100
AcDbLine
 10
7.032457890809008
 20
9.020402550944545
 30
0.0
 11
6.943457890809009
 21
8.974402550944544
 31
0.0
  0
LINE
  5
2DE
330
1F
100
AcDbEntity
  8
Object
100
AcDbLine
 10
6.943457890809009
 20
9.042402550944544
 30
0.0
 11
6.943457890809009
 21
9.052402550944545
 31
0.0
  0
LINE
  5
2DF
330
1F
100
AcDbEntity
  8
Object
100
AcDbLine
 10
6.943457890809009
 20
9.052402550944545
 30
0.0
 11
6.969457890809009
 21
9.065402550944543
 31
0.0
  0
LINE
  5
2E0
330
1F
100
AcDbEntity
  8
Object
100
AcDbLine
 10
7.032457890809008
 20
8.964402550944544
 30
0.0
 11
6.943457890809009
 21
8.964402550944544
 31
0.0
  0
LINE
  5
2E1
330
1F
100
AcDbEntity
  8
Object
100
AcDbLine
 10
6.943457890809009
 20
8.964402550944544
 30
0.0
 11
6.943457890809009
 21
8.974402550944544
 31
0.0
  0
LINE
  5
2E2
330
1F
100
AcDbEntity
  8
Object
100
AcDbLine
 10
6.943457890809009
 20
9.042402550944544
 30
0.0
 11
6.927457890809009
 21
9.042402550944544
 31
0.0
  0
LINE
  5
2E3
330
1F
100
AcDbEntity
  8
Object
100
AcDbLine
 10
6.927457890809009
 20
8.986402550944545
 30
0.0
 11
7.017457890809009
 21
9.032402550944544
 31
0.0
  0
LINE
  5
2E4
330
1F
100
AcDbEntity
  8
Object
100
AcDbLine
 10
6.887457890809009
 20
8.964402550944544
 30
0.0
 11
6.887457890809009
 21
8.952402550944544
 31
0.0
  0
LINE
  5
2E5
330
1F
100
AcDbEntity
  8
Object
100
AcDbLine
 10
6.927457890809009
 20
8.952402550944544
 30
0.0
 11
6.927457890809009
 21
8.986402550944545
 31
0.0
  0
LINE
  5
2E6
330
1F
100
AcDbEntity
  8
Object
100
AcDbLine
 10
6.887457890809009
 20
8.964402550944544
 30
0.0
 11
6.884457890809009
 21
8.964402550944544
 31
0.0
  0
LINE
  5
2E7
330
1F
100
AcDbEntity
  8
Object
100
AcDbLine
 10
6.884457890809009
 20
8.964402550944544
 30
0.0
 11
6.884457890809009
 21
9.077402550944544
 31
0.0
  0
LINE
  5
2E8
330
1F
100
AcDbEntity
  8
Object
100
AcDbLine
 10
6.953457890809009
 20
9.077402550944544
 30
0.0
 11
6.927457890809009
 21
9.064402550944544
 31
0.0
  0
LINE
  5
2E9
330
1F
100
AcDbEntity
  8
Object
100
AcDbLine
 10
6.927457890809009
 20
9.064402550944544
 30
0.0
 11
6.927457890809009
 21
9.042402550944544
 31
0.0
  0
LINE
  5
2EA
330
1F
100
AcDbEntity
  8
Object
100
AcDbLine
 10
6.878457890809008
 20
9.077402550944544
 30
0.0
 11
6.884457890809009
 21
9.077402550944544
 31
0.0
  0
LINE
  5
2EB
330
1F
100
AcDbEntity
  8
Object
100
AcDbLine
 10
6.875457890809008
 20
9.045402550944544
 30
0.0
 11
6.878457890809008
 21
9.051402550944544
 31
0.0
  0
LINE
  5
2EC
330
1F
100
AcDbEntity
  8
Object
100
AcDbLine
 10
6.878457890809008
 20
9.051402550944544
 30
0.0
 11
6.878457890809008
 21
8.964402550944544
 31
0.0
  0
LINE
  5
2ED
330
1F
100
AcDbEntity
  8
Object
100
AcDbLine
 10
6.878457890809008
 20
8.964402550944544
 30
0.0
 11
6.873457890809008
 21
8.964402550944544
 31
0.0
  0
LINE
  5
2EE
330
1F
100
AcDbEntity
  8
Object
100
AcDbLine
 10
6.873457890809008
 20
8.964402550944544
 30
0.0
 11
6.873457890809008
 21
8.952402550944544
 31
0.0
  0
LINE
  5
2EF
330
1F
100
AcDbEntity
  8
Object
100
AcDbLine
 10
6.878457890809008
 20
9.077402550944544
 30
0.0
 11
6.871457890809009
 21
9.058402550944546
 31
0.0
  0
LINE
  5
2F0
330
1F
100
AcDbEntity
  8
Object
100
AcDbLine
 10
6.871457890809009
 20
9.058402550944546
 30
0.0
 11
6.875457890809008
 21
9.045402550944544
 31
0.0
  0
LINE
  5
2F1
330
1F
100
AcDbEntity
  8
Object
100
AcDbLine
 10
6.834457890809009
 20
9.077402550944544
 30
0.0
 11
6.834457890809009
 21
9.065402550944543
 31
0.0
  0
LINE
  5
2F2
330
1F
100
AcDbEntity
  8
Object
100
AcDbLine
 10
6.834457890809009
 20
8.964402550944544
 30
0.0
 11
6.834457890809009
 21
8.952402550944544
 31
0.0
  0
LINE
  5
2F3
330
1F
100
AcDbEntity
  8
Object
100
AcDbLine
 10
6.812457890809008
 20
9.010402550944544
 30
0.0
 11
6.812457890809008
 21
9.020402550944545
 31
0.0
  0
LINE
  5
2F4
330
1F
100
AcDbEntity
  8
Object
100
AcDbLine
 10
6.812457890809008
 20
9.020402550944545
 30
0.0
 11
6.757457890809009
 21
9.020402550944545
 31
0.0
  0
LINE
  5
2F5
330
1F
100
AcDbEntity
  8
Object
100
AcDbLine
 10
6.757457890809009
 20
9.020402550944545
 30
0.0
 11
6.757457890809009
 21
9.065402550944543
 31
0.0
  0
LINE
  5
2F6
330
1F
100
AcDbEntity
  8
Object
100
AcDbLine
 10
6.757457890809009
 20
9.065402550944543
 30
0.0
 11
6.834457890809009
 21
9.065402550944543
 31
0.0
  0
LINE
  5
2F7
330
1F
100
AcDbEntity
  8
Object
100
AcDbLine
 10
6.834457890809009
 20
8.964402550944544
 30
0.0
 11
6.757457890809009
 21
8.964402550944544
 31
0.0
  0
LINE
  5
2F8
330
1F
100
AcDbEntity
  8
Object
100
AcDbLine
 10
6.757457890809009
 20
8.964402550944544
 30
0.0
 11
6.757457890809009
 21
9.010402550944544
 31
0.0
  0
LINE
  5
2F9
330
1F
100
AcDbEntity
  8
Object
100
AcDbLine
 10
6.757457890809009
 20
9.010402550944544
 30
0.0
 11
6.812457890809008
 21
9.010402550944544
 31
0.0
  0
LINE
  5
2FA
330
1F
100
AcDbEntity
  8
Object
100
AcDbLine
 10
6.742457890809008
 20
9.077402550944544
 30
0.0
 11
6.834457890809009
 21
9.077402550944544
 31
0.0
  0
LINE
  5
2FB
330
1F
100
AcDbEntity
  8
Object
100
AcDbLine
 10
6.703457890809009
 20
9.013402550944544
 30
0.0
 11
6.703457890809009
 21
8.965402550944544
 31
0.0
  0
LINE
  5
2FC
330
1F
100
AcDbEntity
  8
Object
100
AcDbLine
 10
6.742457890809008
 20
8.952402550944544
 30
0.0
 11
6.742457890809008
 21
9.077402550944544
 31
0.0
  0
LINE
  5
2FD
330
1F
100
AcDbEntity
  8
Object
100
AcDbLine
 10
6.692457890809008
 20
9.065402550944543
 30
0.0
 11
6.692457890809008
 21
9.025402550944544
 31
0.0
  0
LINE
  5
2FE
330
1F
100
AcDbEntity
  8
Object
100
AcDbLine
 10
6.703457890809009
 20
9.013402550944544
 30
0.0
 11
6.690457890809009
 21
9.021402550944543
 31
0.0
  0
LINE
  5
2FF
330
1F
100
AcDbEntity
  8
Object
100
AcDbLine
 10
6.690457890809009
 20
9.021402550944543
 30
0.0
 11
6.692457890809008
 21
9.025402550944544
 31
0.0
  0
LINE
  5
300
330
1F
100
AcDbEntity
  8
Object
100
AcDbLine
 10
6.703457890809009
 20
8.965402550944544
 30
0.0
 11
6.682457890809009
 21
8.952402550944544
 31
0.0
  0
LINE
  5
301
330
1F
100
AcDbEntity
  8
Object
100
AcDbLine
 10
6.692457890809008
 20
9.065402550944543
 30
0.0
 11
6.682457890809009
 21
9.077402550944544
 31
0.0
  0
LINE
  5
302
330
1F
100
AcDbEntity
  8
Object
100
AcDbLine
 10
6.682457890809009
 20
9.077402550944544
 30
0.0
 11
6.598457890809008
 21
9.077402550944544
 31
0.0
  0
LINE
  5
303
330
1F
100
AcDbEntity
  8
Object
100
AcDbLine
 10
6.834457890809009
 20
8.952402550944544
 30
0.0
 11
6.742457890809008
 21
8.952402550944544
 31
0.0
  0
LINE
  5
304
330
1F
100
AcDbEntity
  8
Object
100
AcDbLine
 10
6.682457890809009
 20
8.952402550944544
 30
0.0
 11
6.598457890809008
 21
8.952402550944544
 31
0.0
  0
LINE
  5
305
330
1F
100
AcDbEntity
  8
Object
100
AcDbLine
 10
7.032457890809008
 20
8.952402550944544
 30
0.0
 11
6.927457890809009
 21
8.952402550944544
 31
0.0
  0
LINE
  5
306
330
1F
100
AcDbEntity
  8
Object
100
AcDbLine
 10
6.573457890809009
 20
8.755402550944545
 30
0.0
 11
7.831457890809009
 21
8.755402550944545
 31
0.0
  0
LINE
  5
307
330
1F
100
AcDbEntity
  8
Object
100
AcDbLine
 10
6.887457890809009
 20
8.952402550944544
 30
0.0
 11
6.873457890809008
 21
8.952402550944544
 31
0.0
  0
LINE
  5
308
330
1F
100
AcDbEntity
  8
Object
100
AcDbLine
 10
7.831457890809009
 20
8.545402550944544
 30
0.0
 11
6.573457890809009
 21
8.545402550944544
 31
0.0
  0
LINE
  5
309
330
1F
100
AcDbEntity
  8
Object
100
AcDbLine
 10
6.558457890809009
 20
9.063402550944545
 30
0.0
 11
6.558457890809009
 21
9.023402550944545
 31
0.0
  0
LINE
  5
30A
330
1F
100
AcDbEntity
  8
Object
100
AcDbLine
 10
6.598457890809008
 20
8.952402550944544
 30
0.0
 11
6.598457890809008
 21
9.077402550944544
 31
0.0
  0
LINE
  5
30B
330
1F
100
AcDbEntity
  8
Object
100
AcDbLine
 10
6.546457890809008
 20
8.751402550944543
 30
0.0
 11
6.573457890809009
 21
8.755402550944545
 31
0.0
  0
LINE
  5
30C
330
1F
100
AcDbEntity
  8
Object
100
AcDbLine
 10
6.541457890809009
 20
8.952402550944544
 30
0.0
 11
6.558457890809009
 21
8.952402550944544
 31
0.0
  0
LINE
  5
30D
330
1F
100
AcDbEntity
  8
Object
100
AcDbLine
 10
6.558457890809009
 20
8.952402550944544
 30
0.0
 11
6.536457890809009
 21
9.012402550944544
 31
0.0
  0
LINE
  5
30E
330
1F
100
AcDbEntity
  8
Object
100
AcDbLine
 10
6.536457890809009
 20
9.012402550944544
 30
0.0
 11
6.558457890809009
 21
9.023402550944545
 31
0.0
  0
LINE
  5
30F
330
1F
100
AcDbEntity
  8
Object
100
AcDbLine
 10
6.530457890809008
 20
9.077402550944544
 30
0.0
 11
6.558457890809009
 21
9.063402550944545
 31
0.0
  0
LINE
  5
310
330
1F
100
AcDbEntity
  8
Object
100
AcDbLine
 10
6.541457890809009
 20
8.952402550944544
 30
0.0
 11
6.521457890809008
 21
9.010402550944544
 31
0.0
  0
LINE
  5
311
330
1F
100
AcDbEntity
  8
Object
100
AcDbLine
 10
6.468457890809008
 20
8.952402550944544
 30
0.0
 11
6.468457890809008
 21
9.010402550944544
 31
0.0
  0
LINE
  5
312
330
1F
100
AcDbEntity
  8
Object
100
AcDbLine
 10
6.468457890809008
 20
9.010402550944544
 30
0.0
 11
6.521457890809008
 21
9.010402550944544
 31
0.0
  0
LINE
  5
313
330
1F
100
AcDbEntity
  8
Object
100
AcDbLine
 10
6.520457890809009
 20
8.741402550944545
 30
0.0
 11
6.546457890809008
 21
8.751402550944543
 31
0.0
  0
LINE
  5
314
330
1F
100
AcDbEntity
  8
Object
100
AcDbLine
 10
6.453457890809009
 20
9.077402550944544
 30
0.0
 11
6.530457890809008
 21
9.077402550944544
 31
0.0
  0
LINE
  5
315
330
1F
100
AcDbEntity
  8
Object
100
AcDbLine
 10
6.499457890809009
 20
8.724402550944544
 30
0.0
 11
6.520457890809009
 21
8.741402550944545
 31
0.0
  0
LINE
  5
316
330
1F
100
AcDbEntity
  8
Object
100
AcDbLine
 10
6.468457890809008
 20
8.952402550944544
 30
0.0
 11
6.453457890809009
 21
8.952402550944544
 31
0.0
  0
LINE
  5
317
330
1F
100
AcDbEntity
  8
Object
100
AcDbLine
 10
6.413457890809008
 20
9.077402550944544
 30
0.0
 11
6.413457890809008
 21
9.065402550944543
 31
0.0
  0
LINE
  5
318
330
1F
100
AcDbEntity
  8
Object
100
AcDbLine
 10
6.453457890809009
 20
8.952402550944544
 30
0.0
 11
6.453457890809009
 21
9.077402550944544
 31
0.0
  0
LINE
  5
319
330
1F
100
AcDbEntity
  8
Object
100
AcDbLine
 10
6.382457890809009
 20
8.952402550944544
 30
0.0
 11
6.382457890809009
 21
9.065402550944543
 31
0.0
  0
LINE
  5
31A
330
1F
100
AcDbEntity
  8
Object
100
AcDbLine
 10
6.382457890809009
 20
9.065402550944543
 30
0.0
 11
6.413457890809008
 21
9.065402550944543
 31
0.0
  0
LINE
  5
31B
330
1F
100
AcDbEntity
  8
Object
100
AcDbLine
 10
6.482457890809008
 20
8.702402550944544
 30
0.0
 11
6.499457890809009
 21
8.724402550944544
 31
0.0
  0
LINE
  5
31C
330
1F
100
AcDbEntity
  8
Object
100
AcDbLine
 10
6.382457890809009
 20
8.952402550944544
 30
0.0
 11
6.368457890809009
 21
8.952402550944544
 31
0.0
  0
LINE
  5
31D
330
1F
100
AcDbEntity
  8
Object
100
AcDbLine
 10
6.337457890809009
 20
9.077402550944544
 30
0.0
 11
6.413457890809008
 21
9.077402550944544
 31
0.0
  0
LINE
  5
31E
330
1F
100
AcDbEntity
  8
Object
100
AcDbLine
 10
6.337457890809009
 20
9.065402550944543
 30
0.0
 11
6.368457890809009
 21
9.065402550944543
 31
0.0
  0
LINE
  5
31F
330
1F
100
AcDbEntity
  8
Object
100
AcDbLine
 10
6.368457890809009
 20
9.065402550944543
 30
0.0
 11
6.368457890809009
 21
8.952402550944544
 31
0.0
  0
LINE
  5
320
330
1F
100
AcDbEntity
  8
Object
100
AcDbLine
 10
6.297457890809009
 20
9.077402550944544
 30
0.0
 11
6.297457890809009
 21
9.065402550944543
 31
0.0
  0
LINE
  5
321
330
1F
100
AcDbEntity
  8
Object
100
AcDbLine
 10
6.337457890809009
 20
9.065402550944543
 30
0.0
 11
6.337457890809009
 21
9.077402550944544
 31
0.0
  0
LINE
  5
322
330
1F
100
AcDbEntity
  8
Object
100
AcDbLine
 10
6.276457890809009
 20
9.020402550944545
 30
0.0
 11
6.276457890809009
 21
9.010402550944544
 31
0.0
  0
LINE
  5
323
330
1F
100
AcDbEntity
  8
Object
100
AcDbLine
 10
6.297457890809009
 20
9.065402550944543
 30
0.0
 11
6.220457890809009
 21
9.065402550944543
 31
0.0
  0
LINE
  5
324
330
1F
100
AcDbEntity
  8
Object
100
AcDbLine
 10
6.276457890809009
 20
9.020402550944545
 30
0.0
 11
6.220457890809009
 21
9.020402550944545
 31
0.0
  0
LINE
  5
325
330
1F
100
AcDbEntity
  8
Object
100
AcDbLine
 10
6.220457890809009
 20
9.020402550944545
 30
0.0
 11
6.220457890809009
 21
9.065402550944543
 31
0.0
  0
LINE
  5
326
330
1F
100
AcDbEntity
  8
Object
100
AcDbLine
 10
6.220457890809009
 20
8.952402550944544
 30
0.0
 11
6.220457890809009
 21
9.010402550944544
 31
0.0
  0
LINE
  5
327
330
1F
100
AcDbEntity
  8
Object
100
AcDbLine
 10
6.220457890809009
 20
9.010402550944544
 30
0.0
 11
6.276457890809009
 21
9.010402550944544
 31
0.0
  0
LINE
  5
328
330
1F
100
AcDbEntity
  8
Object
100
AcDbLine
 10
6.482457890809008
 20
8.702402550944544
 30
0.0
 11
6.472457890809009
 21
8.677402550944545
 31
0.0
  0
LINE
  5
329
330
1F
100
AcDbEntity
  8
Object
100
AcDbLine
 10
6.472457890809009
 20
8.677402550944545
 30
0.0
 11
6.468457890809008
 21
8.650402550944544
 31
0.0
  0
LINE
  5
32A
330
1F
100
AcDbEntity
  8
Object
100
AcDbLine
 10
6.206457890809009
 20
9.077402550944544
 30
0.0
 11
6.297457890809009
 21
9.077402550944544
 31
0.0
  0
LINE
  5
32B
330
1F
100
AcDbEntity
  8
Object
100
AcDbLine
 10
6.220457890809009
 20
8.952402550944544
 30
0.0
 11
6.206457890809009
 21
8.952402550944544
 31
0.0
  0
LINE
  5
32C
330
1F
100
AcDbEntity
  8
Object
100
AcDbLine
 10
6.007457890809009
 20
9.077402550944544
 30
0.0
 11
6.007457890809009
 21
9.065402550944543
 31
0.0
  0
LINE
  5
32D
330
1F
100
AcDbEntity
  8
Object
100
AcDbLine
 10
6.206457890809009
 20
8.952402550944544
 30
0.0
 11
6.206457890809009
 21
9.077402550944544
 31
0.0
  0
LINE
  5
32E
330
1F
100
AcDbEntity
  8
Object
100
AcDbLine
 10
5.976457890809008
 20
8.952402550944544
 30
0.0
 11
5.976457890809008
 21
9.065402550944543
 31
0.0
  0
LINE
  5
32F
330
1F
100
AcDbEntity
  8
Object
100
AcDbLine
 10
5.976457890809008
 20
9.065402550944543
 30
0.0
 11
6.007457890809009
 21
9.065402550944543
 31
0.0
  0
LINE
  5
330
330
1F
100
AcDbEntity
  8
Object
100
AcDbLine
 10
5.931457890809008
 20
9.077402550944544
 30
0.0
 11
6.007457890809009
 21
9.077402550944544
 31
0.0
  0
LINE
  5
331
330
1F
100
AcDbEntity
  8
Object
100
AcDbLine
 10
5.931457890809008
 20
9.065402550944543
 30
0.0
 11
5.963457890809008
 21
9.065402550944543
 31
0.0
  0
LINE
  5
332
330
1F
100
AcDbEntity
  8
Object
100
AcDbLine
 10
5.963457890809008
 20
9.065402550944543
 30
0.0
 11
5.963457890809008
 21
8.952402550944544
 31
0.0
  0
LINE
  5
333
330
1F
100
AcDbEntity
  8
Object
100
AcDbLine
 10
5.891457890809008
 20
9.077402550944544
 30
0.0
 11
5.891457890809008
 21
9.065402550944543
 31
0.0
  0
LINE
  5
334
330
1F
100
AcDbEntity
  8
Object
100
AcDbLine
 10
5.891457890809008
 20
8.964402550944544
 30
0.0
 11
5.891457890809008
 21
8.952402550944544
 31
0.0
  0
LINE
  5
335
330
1F
100
AcDbEntity
  8
Object
100
AcDbLine
 10
5.931457890809008
 20
9.065402550944543
 30
0.0
 11
5.931457890809008
 21
9.077402550944544
 31
0.0
  0
LINE
  5
336
330
1F
100
AcDbEntity
  8
Object
100
AcDbLine
 10
5.891457890809008
 20
9.065402550944543
 30
0.0
 11
5.889457890809008
 21
9.065402550944543
 31
0.0
  0
LINE
  5
337
330
1F
100
AcDbEntity
  8
Object
100
AcDbLine
 10
5.891457890809008
 20
8.964402550944544
 30
0.0
 11
5.889457890809008
 21
8.964402550944544
 31
0.0
  0
LINE
  5
338
330
1F
100
AcDbEntity
  8
Object
100
AcDbLine
 10
5.889457890809008
 20
8.964402550944544
 30
0.0
 11
5.889457890809008
 21
9.065402550944543
 31
0.0
  0
LINE
  5
339
330
1F
100
AcDbEntity
  8
Object
100
AcDbLine
 10
5.880457890809008
 20
8.964402550944544
 30
0.0
 11
5.882457890809009
 21
8.964402550944544
 31
0.0
  0
LINE
  5
33A
330
1F
100
AcDbEntity
  8
Object
100
AcDbLine
 10
5.880457890809008
 20
9.065402550944543
 30
0.0
 11
5.882457890809009
 21
9.065402550944543
 31
0.0
  0
LINE
  5
33B
330
1F
100
AcDbEntity
  8
Object
100
AcDbLine
 10
5.882457890809009
 20
9.065402550944543
 30
0.0
 11
5.882457890809009
 21
8.964402550944544
 31
0.0
  0
LINE
  5
33C
330
1F
100
AcDbEntity
  8
Object
100
AcDbLine
 10
5.891457890809008
 20
9.077402550944544
 30
0.0
 11
5.880457890809008
 21
9.077402550944544
 31
0.0
  0
LINE
  5
33D
330
1F
100
AcDbEntity
  8
Object
100
AcDbLine
 10
5.880457890809008
 20
9.077402550944544
 30
0.0
 11
5.880457890809008
 21
9.065402550944543
 31
0.0
  0
LINE
  5
33E
330
1F
100
AcDbEntity
  8
Object
100
AcDbLine
 10
5.840457890809008
 20
9.077402550944544
 30
0.0
 11
5.840457890809008
 21
8.978402550944544
 31
0.0
  0
LINE
  5
33F
330
1F
100
AcDbEntity
  8
Object
100
AcDbLine
 10
5.880457890809008
 20
8.952402550944544
 30
0.0
 11
5.880457890809008
 21
8.964402550944544
 31
0.0
  0
LINE
  5
340
330
1F
100
AcDbEntity
  8
Object
100
AcDbLine
 10
5.825457890809008
 20
9.077402550944544
 30
0.0
 11
5.840457890809008
 21
9.077402550944544
 31
0.0
  0
LINE
  5
341
330
1F
100
AcDbEntity
  8
Object
100
AcDbLine
 10
5.840457890809008
 20
8.978402550944544
 30
0.0
 11
5.816457890809008
 21
8.952402550944544
 31
0.0
  0
LINE
  5
342
330
1F
100
AcDbEntity
  8
Object
100
AcDbLine
 10
5.825457890809008
 20
9.077402550944544
 30
0.0
 11
5.825457890809008
 21
8.986402550944545
 31
0.0
  0
LINE
  5
343
330
1F
100
AcDbEntity
  8
Object
100
AcDbLine
 10
5.825457890809008
 20
8.986402550944545
 30
0.0
 11
5.804457890809008
 21
8.964402550944544
 31
0.0
  0
LINE
  5
344
330
1F
100
AcDbEntity
  8
Object
100
AcDbLine
 10
5.804457890809008
 20
8.964402550944544
 30
0.0
 11
5.771457890809008
 21
8.964402550944544
 31
0.0
  0
LINE
  5
345
330
1F
100
AcDbEntity
  8
Object
100
AcDbLine
 10
5.771457890809008
 20
8.964402550944544
 30
0.0
 11
5.751457890809009
 21
8.986402550944545
 31
0.0
  0
LINE
  5
346
330
1F
100
AcDbEntity
  8
Object
100
AcDbLine
 10
5.751457890809009
 20
8.986402550944545
 30
0.0
 11
5.751457890809009
 21
9.077402550944544
 31
0.0
  0
LINE
  5
347
330
1F
100
AcDbEntity
  8
Object
100
AcDbLine
 10
5.751457890809009
 20
9.077402550944544
 30
0.0
 11
5.735457890809009
 21
9.077402550944544
 31
0.0
  0
LINE
  5
348
330
1F
100
AcDbEntity
  8
Object
100
AcDbLine
 10
5.714457890809009
 20
8.623402550944543
 30
0.0
 11
5.718457890809008
 21
8.650402550944544
 31
0.0
  0
LINE
  5
349
330
1F
100
AcDbEntity
  8
Object
100
AcDbLine
 10
5.718457890809008
 20
8.650402550944544
 30
0.0
 11
5.714457890809009
 21
8.677402550944545
 31
0.0
  0
LINE
  5
34A
330
1F
100
AcDbEntity
  8
Object
100
AcDbLine
 10
6.472457890809009
 20
8.623402550944543
 30
0.0
 11
6.468457890809008
 21
8.650402550944544
 31
0.0
  0
LINE
  5
34B
330
1F
100
AcDbEntity
  8
Object
100
AcDbLine
 10
5.976457890809008
 20
8.952402550944544
 30
0.0
 11
5.963457890809008
 21
8.952402550944544
 31
0.0
  0
LINE
  5
34C
330
1F
100
AcDbEntity
  8
Object
100
AcDbLine
 10
6.482457890809008
 20
8.597402550944543
 30
0.0
 11
6.472457890809009
 21
8.623402550944543
 31
0.0
  0
LINE
  5
34D
330
1F
100
AcDbEntity
  8
Object
100
AcDbLine
 10
5.714457890809009
 20
8.623402550944543
 30
0.0
 11
5.704457890809009
 21
8.597402550944543
 31
0.0
  0
LINE
  5
34E
330
1F
100
AcDbEntity
  8
Object
100
AcDbLine
 10
5.704457890809009
 20
8.702402550944544
 30
0.0
 11
5.714457890809009
 21
8.677402550944545
 31
0.0
  0
LINE
  5
34F
330
1F
100
AcDbEntity
  8
Object
100
AcDbLine
 10
6.499457890809009
 20
8.575402550944545
 30
0.0
 11
6.482457890809008
 21
8.597402550944543
 31
0.0
  0
LINE
  5
350
330
1F
100
AcDbEntity
  8
Object
100
AcDbLine
 10
5.891457890809008
 20
8.952402550944544
 30
0.0
 11
5.880457890809008
 21
8.952402550944544
 31
0.0
  0
LINE
  5
351
330
1F
100
AcDbEntity
  8
Object
100
AcDbLine
 10
5.695457890809008
 20
9.046402550944545
 30
0.0
 11
5.695457890809008
 21
8.983402550944544
 31
0.0
  0
LINE
  5
352
330
1F
100
AcDbEntity
  8
Object
100
AcDbLine
 10
5.735457890809009
 20
8.978402550944544
 30
0.0
 11
5.735457890809009
 21
9.077402550944544
 31
0.0
  0
LINE
  5
353
330
1F
100
AcDbEntity
  8
Object
100
AcDbLine
 10
5.687457890809008
 20
8.724402550944544
 30
0.0
 11
5.704457890809009
 21
8.702402550944544
 31
0.0
  0
LINE
  5
354
330
1F
100
AcDbEntity
  8
Object
100
AcDbLine
 10
5.704457890809009
 20
8.597402550944543
 30
0.0
 11
5.687457890809008
 21
8.575402550944545
 31
0.0
  0
LINE
  5
355
330
1F
100
AcDbEntity
  8
Object
100
AcDbLine
 10
6.520457890809009
 20
8.559402550944543
 30
0.0
 11
6.499457890809009
 21
8.575402550944545
 31
0.0
  0
LINE
  5
356
330
1F
100
AcDbEntity
  8
Object
100
AcDbLine
 10
5.816457890809008
 20
8.952402550944544
 30
0.0
 11
5.759457890809009
 21
8.952402550944544
 31
0.0
  0
LINE
  5
357
330
1F
100
AcDbEntity
  8
Object
100
AcDbLine
 10
5.695457890809008
 20
8.983402550944544
 30
0.0
 11
5.667457890809009
 21
8.952402550944544
 31
0.0
  0
LINE
  5
358
330
1F
100
AcDbEntity
  8
Object
100
AcDbLine
 10
5.667457890809009
 20
9.077402550944544
 30
0.0
 11
5.695457890809008
 21
9.046402550944545
 31
0.0
  0
LINE
  5
359
330
1F
100
AcDbEntity
  8
Object
100
AcDbLine
 10
5.759457890809009
 20
8.952402550944544
 30
0.0
 11
5.735457890809009
 21
8.978402550944544
 31
0.0
  0
LINE
  5
35A
330
1F
100
AcDbEntity
  8
Object
100
AcDbLine
 10
5.665457890809008
 20
8.741402550944545
 30
0.0
 11
5.687457890809008
 21
8.724402550944544
 31
0.0
  0
LINE
  5
35B
330
1F
100
AcDbEntity
  8
Object
100
AcDbLine
 10
5.687457890809008
 20
8.575402550944545
 30
0.0
 11
5.665457890809008
 21
8.559402550944543
 31
0.0
  0
LINE
  5
35C
330
1F
100
AcDbEntity
  8
Object
100
AcDbLine
 10
6.546457890809008
 20
8.548402550944544
 30
0.0
 11
6.520457890809009
 21
8.559402550944543
 31
0.0
  0
LINE
  5
35D
330
1F
100
AcDbEntity
  8
Object
100
AcDbLine
 10
5.665457890809008
 20
8.559402550944543
 30
0.0
 11
5.640457890809009
 21
8.548402550944544
 31
0.0
  0
LINE
  5
35E
330
1F
100
AcDbEntity
  8
Object
100
AcDbLine
 10
5.665457890809008
 20
8.741402550944545
 30
0.0
 11
5.640457890809009
 21
8.751402550944543
 31
0.0
  0
LINE
  5
35F
330
1F
100
AcDbEntity
  8
Object
100
AcDbLine
 10
5.640457890809009
 20
8.751402550944543
 30
0.0
 11
5.613457890809009
 21
8.755402550944545
 31
0.0
  0
LINE
  5
360
330
1F
100
AcDbEntity
  8
Object
100
AcDbLine
 10
5.640457890809009
 20
8.548402550944544
 30
0.0
 11
5.613457890809009
 21
8.545402550944544
 31
0.0
  0
LINE
  5
361
330
1F
100
AcDbEntity
  8
Object
100
AcDbLine
 10
6.573457890809009
 20
8.545402550944544
 30
0.0
 11
6.546457890809008
 21
8.548402550944544
 31
0.0
  0
LINE
  5
362
330
1F
100
AcDbEntity
  8
Object
100
AcDbLine
 10
5.590457890809008
 20
9.077402550944544
 30
0.0
 11
5.667457890809009
 21
9.077402550944544
 31
0.0
  0
LINE
  5
363
330
1F
100
AcDbEntity
  8
Object
100
AcDbLine
 10
5.667457890809009
 20
8.952402550944544
 30
0.0
 11
5.590457890809008
 21
8.952402550944544
 31
0.0
  0
LINE
  5
364
330
1F
100
AcDbEntity
  8
Object
100
AcDbLine
 10
5.551457890809008
 20
9.077402550944544
 30
0.0
 11
5.551457890809008
 21
8.952402550944544
 31
0.0
  0
LINE
  5
365
330
1F
100
AcDbEntity
  8
Object
100
AcDbLine
 10
5.590457890809008
 20
8.952402550944544
 30
0.0
 11
5.590457890809008
 21
9.077402550944544
 31
0.0
  0
LINE
  5
366
330
1F
100
AcDbEntity
  8
Object
100
AcDbLine
 10
5.535457890809008
 20
9.077402550944544
 30
0.0
 11
5.551457890809008
 21
9.077402550944544
 31
0.0
  0
LINE
  5
367
330
1F
100
AcDbEntity
  8
Object
100
AcDbLine
 10
5.551457890809008
 20
8.952402550944544
 30
0.0
 11
5.535457890809008
 21
8.952402550944544
 31
0.0
  0
LINE
  5
368
330
1F
100
AcDbEntity
  8
Object
100
AcDbLine
 10
5.535457890809008
 20
9.077402550944544
 30
0.0
 11
5.535457890809008
 21
8.981402550944544
 31
0.0
  0
LINE
  5
369
330
1F
100
AcDbEntity
  8
Object
100
AcDbLine
 10
5.535457890809008
 20
8.981402550944544
 30
0.0
 11
5.461457890809009
 21
9.077402550944544
 31
0.0
  0
LINE
  5
36A
330
1F
100
AcDbEntity
  8
Object
100
AcDbLine
 10
5.461457890809009
 20
8.952402550944544
 30
0.0
 11
5.461457890809009
 21
9.049402550944545
 31
0.0
  0
LINE
  5
36B
330
1F
100
AcDbEntity
  8
Object
100
AcDbLine
 10
5.461457890809009
 20
9.049402550944545
 30
0.0
 11
5.535457890809008
 21
8.952402550944544
 31
0.0
  0
LINE
  5
36C
330
1F
100
AcDbEntity
  8
Object
100
AcDbLine
 10
5.446457890809009
 20
9.077402550944544
 30
0.0
 11
5.461457890809009
 21
9.077402550944544
 31
0.0
  0
LINE
  5
36D
330
1F
100
AcDbEntity
  8
Object
100
AcDbLine
 10
5.461457890809009
 20
8.952402550944544
 30
0.0
 11
5.446457890809009
 21
8.952402550944544
 31
0.0
  0
LINE
  5
36E
330
1F
100
AcDbEntity
  8
Object
100
AcDbLine
 10
5.446457890809009
 20
8.952402550944544
 30
0.0
 11
5.446457890809009
 21
9.077402550944544
 31
0.0
  0
LINE
  5
36F
330
1F
100
AcDbEntity
  8
Object
100
AcDbLine
 10
5.389457890809008
 20
8.952402550944544
 30
0.0
 11
5.406457890809009
 21
8.952402550944544
 31
0.0
  0
LINE
  5
370
330
1F
100
AcDbEntity
  8
Object
100
AcDbLine
 10
5.406457890809009
 20
8.952402550944544
 30
0.0
 11
5.361457890809009
 21
9.077402550944544
 31
0.0
  0
LINE
  5
371
330
1F
100
AcDbEntity
  8
Object
100
AcDbLine
 10
5.361457890809009
 20
9.077402550944544
 30
0.0
 11
5.344457890809009
 21
9.077402550944544
 31
0.0
  0
LINE
  5
372
330
1F
100
AcDbEntity
  8
Object
100
AcDbLine
 10
5.324457890809008
 20
8.974402550944544
 30
0.0
 11
5.381457890809008
 21
8.974402550944544
 31
0.0
  0
LINE
  5
373
330
1F
100
AcDbEntity
  8
Object
100
AcDbLine
 10
5.381457890809008
 20
8.974402550944544
 30
0.0
 11
5.389457890809008
 21
8.952402550944544
 31
0.0
  0
LINE
  5
374
330
1F
100
AcDbEntity
  8
Object
100
AcDbLine
 10
5.324457890809008
 20
8.974402550944544
 30
0.0
 11
5.315457890809009
 21
8.952402550944544
 31
0.0
  0
LINE
  5
375
330
1F
100
AcDbEntity
  8
Object
100
AcDbLine
 10
5.315457890809009
 20
8.952402550944544
 30
0.0
 11
5.298457890809008
 21
8.952402550944544
 31
0.0
  0
LINE
  5
376
330
1F
100
AcDbEntity
  8
Object
100
AcDbLine
 10
5.259457890809009
 20
9.063402550944545
 30
0.0
 11
5.259457890809009
 21
9.023402550944545
 31
0.0
  0
LINE
  5
377
330
1F
100
AcDbEntity
  8
Object
100
AcDbLine
 10
5.298457890809008
 20
8.952402550944544
 30
0.0
 11
5.344457890809009
 21
9.077402550944544
 31
0.0
  0
LINE
  5
378
330
1F
100
AcDbEntity
  8
Object
100
AcDbLine
 10
5.259457890809009
 20
9.023402550944545
 30
0.0
 11
5.231457890809008
 21
9.010402550944544
 31
0.0
  0
LINE
  5
379
330
1F
100
AcDbEntity
  8
Object
100
AcDbLine
 10
5.231457890809008
 20
9.077402550944544
 30
0.0
 11
5.259457890809009
 21
9.063402550944545
 31
0.0
  0
LINE
  5
37A
330
1F
100
AcDbEntity
  8
Object
100
AcDbLine
 10
5.169457890809009
 20
8.952402550944544
 30
0.0
 11
5.169457890809009
 21
9.010402550944544
 31
0.0
  0
LINE
  5
37B
330
1F
100
AcDbEntity
  8
Object
100
AcDbLine
 10
5.169457890809009
 20
9.010402550944544
 30
0.0
 11
5.231457890809008
 21
9.010402550944544
 31
0.0
  0
LINE
  5
37C
330
1F
100
AcDbEntity
  8
Object
100
AcDbLine
 10
5.169457890809009
 20
8.952402550944544
 30
0.0
 11
5.154457890809008
 21
8.952402550944544
 31
0.0
  0
LINE
  5
37D
330
1F
100
AcDbEntity
  8
Object
100
AcDbLine
 10
4.354457890809008
 20
8.755402550944545
 30
0.0
 11
5.613457890809009
 21
8.755402550944545
 31
0.0
  0
LINE
  5
37E
330
1F
100
AcDbEntity
  8
Object
100
AcDbLine
 10
5.154457890809008
 20
8.952402550944544
 30
0.0
 11
5.154457890809008
 21
9.077402550944544
 31
0.0
  0
LINE
  5
37F
330
1F
100
AcDbEntity
  8
Object
100
AcDbLine
 10
4.327457890809008
 20
8.751402550944543
 30
0.0
 11
4.354457890809008
 21
8.755402550944545
 31
0.0
  0
LINE
  5
380
330
1F
100
AcDbEntity
  8
Object
100
AcDbLine
 10
4.264457890809008
 20
8.597402550944543
 30
0.0
 11
4.280457890809008
 21
8.575402550944545
 31
0.0
  0
LINE
  5
381
330
1F
100
AcDbEntity
  8
Object
100
AcDbLine
 10
4.280457890809008
 20
8.575402550944545
 30
0.0
 11
4.302457890809009
 21
8.559402550944543
 31
0.0
  0
LINE
  5
382
330
1F
100
AcDbEntity
  8
Object
100
AcDbLine
 10
4.302457890809009
 20
8.559402550944543
 30
0.0
 11
4.327457890809008
 21
8.548402550944544
 31
0.0
  0
LINE
  5
383
330
1F
100
AcDbEntity
  8
Object
100
AcDbLine
 10
4.327457890809008
 20
8.548402550944544
 30
0.0
 11
4.354457890809008
 21
8.545402550944544
 31
0.0
  0
LINE
  5
384
330
1F
100
AcDbEntity
  8
Object
100
AcDbLine
 10
4.354457890809008
 20
8.545402550944544
 30
0.0
 11
5.613457890809009
 21
8.545402550944544
 31
0.0
  0
LINE
  5
385
330
1F
100
AcDbEntity
  8
Object
100
AcDbLine
 10
8.061457890809009
 20
8.025402550944544
 30
0.0
 11
3.568457890809009
 21
8.025402550944544
 31
0.0
  0
LINE
  5
386
330
1F
100
AcDbEntity
  8
Object
100
AcDbLine
 10
3.568457890809009
 20
8.025402550944544
 30
0.0
 11
3.550457890809008
 21
8.028402550944544
 31
0.0
  0
LINE
  5
387
330
1F
100
AcDbEntity
  8
Object
100
AcDbLine
 10
3.550457890809008
 20
8.028402550944544
 30
0.0
 11
3.535457890809008
 21
8.038402550944544
 31
0.0
  0
LINE
  5
388
330
1F
100
AcDbEntity
  8
Object
100
AcDbLine
 10
3.535457890809008
 20
8.038402550944544
 30
0.0
 11
3.525457890809009
 21
8.054402550944544
 31
0.0
  0
LINE
  5
389
330
1F
100
AcDbEntity
  8
Object
100
AcDbLine
 10
4.249457890809009
 20
8.650402550944544
 30
0.0
 11
4.253457890809008
 21
8.623402550944543
 31
0.0
  0
LINE
  5
38A
330
1F
100
AcDbEntity
  8
Object
100
AcDbLine
 10
4.253457890809008
 20
8.623402550944543
 30
0.0
 11
4.264457890809008
 21
8.597402550944543
 31
0.0
  0
LINE
  5
38B
330
1F
100
AcDbEntity
  8
Object
100
AcDbLine
 10
3.525457890809009
 20
8.054402550944544
 30
0.0
 11
3.521457890809008
 21
8.072402550944545
 31
0.0
  0
LINE
  5
38C
330
1F
100
AcDbEntity
  8
Object
100
AcDbLine
 10
3.521457890809008
 20
8.072402550944545
 30
0.0
 11
3.521457890809008
 21
8.650402550944544
 31
0.0
  0
LINE
  5
38D
330
1F
100
AcDbEntity
  8
Object
100
AcDbLine
 10
3.521457890809008
 20
8.650402550944544
 30
0.0
 11
3.518457890809008
 21
8.695402550944544
 31
0.0
  0
LINE
  5
38E
330
1F
100
AcDbEntity
  8
Object
100
AcDbLine
 10
4.249457890809009
 20
8.650402550944544
 30
0.0
 11
4.253457890809008
 21
8.677402550944545
 31
0.0
  0
LINE
  5
38F
330
1F
100
AcDbEntity
  8
Object
100
AcDbLine
 10
4.253457890809008
 20
8.677402550944545
 30
0.0
 11
4.264457890809008
 21
8.702402550944544
 31
0.0
  0
LINE
  5
390
330
1F
100
AcDbEntity
  8
Object
100
AcDbLine
 10
3.518457890809008
 20
8.695402550944544
 30
0.0
 11
3.507457890809009
 21
8.738402550944545
 31
0.0
  0
LINE
  5
391
330
1F
100
AcDbEntity
  8
Object
100
AcDbLine
 10
3.507457890809009
 20
8.738402550944545
 30
0.0
 11
3.489457890809008
 21
8.780402550944543
 31
0.0
  0
LINE
  5
392
330
1F
100
AcDbEntity
  8
Object
100
AcDbLine
 10
4.264457890809008
 20
8.702402550944544
 30
0.0
 11
4.280457890809008
 21
8.724402550944544
 31
0.0
  0
LINE
  5
393
330
1F
100
AcDbEntity
  8
Object
100
AcDbLine
 10
4.280457890809008
 20
8.724402550944544
 30
0.0
 11
4.302457890809009
 21
8.741402550944545
 31
0.0
  0
LINE
  5
394
330
1F
100
AcDbEntity
  8
Object
100
AcDbLine
 10
3.489457890809008
 20
8.780402550944543
 30
0.0
 11
3.464457890809008
 21
8.817402550944544
 31
0.0
  0
LINE
  5
395
330
1F
100
AcDbEntity
  8
Object
100
AcDbLine
 10
3.464457890809008
 20
8.817402550944544
 30
0.0
 11
3.433457890809009
 21
8.851402550944545
 31
0.0
  0
LINE
  5
396
330
1F
100
AcDbEntity
  8
Object
100
AcDbLine
 10
3.433457890809009
 20
8.851402550944545
 30
0.0
 11
3.398457890809009
 21
8.878402550944544
 31
0.0
  0
LINE
  5
397
330
1F
100
AcDbEntity
  8
Object
100
AcDbLine
 10
4.302457890809009
 20
8.741402550944545
 30
0.0
 11
4.327457890809008
 21
8.751402550944543
 31
0.0
  0
LINE
  5
398
330
1F
100
AcDbEntity
  8
Object
100
AcDbLine
 10
3.398457890809009
 20
8.878402550944544
 30
0.0
 11
3.358457890809008
 21
8.900402550944544
 31
0.0
  0
LINE
  5
399
330
1F
100
AcDbEntity
  8
Object
100
AcDbLine
 10
3.358457890809008
 20
8.900402550944544
 30
0.0
 11
3.315457890809009
 21
8.914402550944544
 31
0.0
  0
LINE
  5
39A
330
1F
100
AcDbEntity
  8
Object
100
AcDbLine
 10
2.975457890809009
 20
8.072402550944545
 30
0.0
 11
2.972457890809009
 21
8.054402550944544
 31
0.0
  0
LINE
  5
39B
330
1F
100
AcDbEntity
  8
Object
100
AcDbLine
 10
2.972457890809009
 20
8.054402550944544
 30
0.0
 11
2.962457890809009
 21
8.038402550944544
 31
0.0
  0
LINE
  5
39C
330
1F
100
AcDbEntity
  8
Object
100
AcDbLine
 10
2.962457890809009
 20
8.038402550944544
 30
0.0
 11
2.947457890809008
 21
8.028402550944544
 31
0.0
  0
LINE
  5
39D
330
1F
100
AcDbEntity
  8
Object
100
AcDbLine
 10
2.947457890809008
 20
8.028402550944544
 30
0.0
 11
2.929457890809008
 21
8.025402550944544
 31
0.0
  0
LINE
  5
39E
330
1F
100
AcDbEntity
  8
Object
100
AcDbLine
 10
8.061457890809009
 20
9.275402550944544
 30
0.0
 11
2.435457890809008
 21
9.275402550944544
 31
0.0
  0
LINE
  5
39F
330
1F
100
AcDbEntity
  8
Object
100
AcDbLine
 10
3.315457890809009
 20
8.914402550944544
 30
0.0
 11
3.271457890809008
 21
8.922402550944545
 31
0.0
  0
LINE
  5
3A0
330
1F
100
AcDbEntity
  8
Object
100
AcDbLine
 10
3.271457890809008
 20
8.922402550944545
 30
0.0
 11
3.226457890809008
 21
8.922402550944545
 31
0.0
  0
LINE
  5
3A1
330
1F
100
AcDbEntity
  8
Object
100
AcDbLine
 10
3.226457890809008
 20
8.922402550944545
 30
0.0
 11
3.181457890809008
 21
8.914402550944544
 31
0.0
  0
LINE
  5
3A2
330
1F
100
AcDbEntity
  8
Object
100
AcDbLine
 10
3.181457890809008
 20
8.914402550944544
 30
0.0
 11
3.139457890809008
 21
8.900402550944544
 31
0.0
  0
LINE
  5
3A3
330
1F
100
AcDbEntity
  8
Object
100
AcDbLine
 10
3.139457890809008
 20
8.900402550944544
 30
0.0
 11
3.099457890809009
 21
8.878402550944544
 31
0.0
  0
LINE
  5
3A4
330
1F
100
AcDbEntity
  8
Object
100
AcDbLine
 10
3.099457890809009
 20
8.878402550944544
 30
0.0
 11
3.064457890809009
 21
8.851402550944545
 31
0.0
  0
LINE
  5
3A5
330
1F
100
AcDbEntity
  8
Object
100
AcDbLine
 10
5.154457890809008
 20
9.077402550944544
 30
0.0
 11
5.231457890809008
 21
9.077402550944544
 31
0.0
  0
LINE
  5
3A6
330
1F
100
AcDbEntity
  8
Object
100
AcDbLine
 10
3.064457890809009
 20
8.851402550944545
 30
0.0
 11
3.033457890809009
 21
8.817402550944544
 31
0.0
  0
LINE
  5
3A7
330
1F
100
AcDbEntity
  8
Object
100
AcDbLine
 10
3.033457890809009
 20
8.817402550944544
 30
0.0
 11
3.008457890809008
 21
8.780402550944543
 31
0.0
  0
LINE
  5
3A8
330
1F
100
AcDbEntity
  8
Object
100
AcDbLine
 10
3.008457890809008
 20
8.780402550944543
 30
0.0
 11
2.990457890809008
 21
8.738402550944545
 31
0.0
  0
LINE
  5
3A9
330
1F
100
AcDbEntity
  8
Object
100
AcDbLine
 10
2.435457890809008
 20
8.025402550944544
 30
0.0
 11
2.929457890809008
 21
8.025402550944544
 31
0.0
  0
LINE
  5
3AA
330
1F
100
AcDbEntity
  8
Object
100
AcDbLine
 10
2.975457890809009
 20
8.072402550944545
 30
0.0
 11
2.975457890809009
 21
8.650402550944544
 31
0.0
  0
LINE
  5
3AB
330
1F
100
AcDbEntity
  8
Object
100
AcDbLine
 10
2.990457890809008
 20
8.738402550944545
 30
0.0
 11
2.979457890809008
 21
8.695402550944544
 31
0.0
  0
LINE
  5
3AC
330
1F
100
AcDbEntity
  8
Object
100
AcDbLine
 10
2.979457890809008
 20
8.695402550944544
 30
0.0
 11
2.975457890809009
 21
8.650402550944544
 31
0.0
  0
LINE
  5
3AD
330
1F
100
AcDbEntity
  8
Object
100
AcDbLine
 10
2.435457890809008
 20
9.275402550944544
 30
0.0
 11
2.248457890809008
 21
9.088402550944543
 31
0.0
  0
LINE
  5
3AE
330
1F
100
AcDbEntity
  8
Object
100
AcDbLine
 10
2.248457890809008
 20
9.088402550944543
 30
0.0
 11
2.248457890809008
 21
8.212402550944545
 31
0.0
  0
LINE
  5
3AF
330
1F
100
AcDbEntity
  8
Object
100
AcDbLine
 10
2.248457890809008
 20
8.212402550944545
 30
0.0
 11
2.435457890809008
 21
8.025402550944544
 31
0.0
  0
LINE
  5
3B0
330
1F
100
AcDbEntity
  8
Object
100
AcDbLine
 10
6.742457890809008
 20
9.077402550944544
 30
0.0
 11
6.834457890809009
 21
9.077402550944544
 31
0.0
  0
LINE
  5
3B1
330
1F
100
AcDbEntity
  8
Object
100
AcDbLine
 10
6.757457890809009
 20
9.020402550944545
 30
0.0
 11
6.812457890809008
 21
9.020402550944545
 31
0.0
  0
LINE
  5
3B2
330
1F
100
AcDbEntity
  8
Object
100
AcDbLine
 10
6.834457890809009
 20
9.077402550944544
 30
0.0
 11
6.834457890809009
 21
9.065402550944543
 31
0.0
  0
LINE
  5
3B3
330
1F
100
AcDbEntity
  8
Object
100
AcDbLine
 10
6.812457890809008
 20
9.010402550944544
 30
0.0
 11
6.757457890809009
 21
9.010402550944544
 31
0.0
  0
LINE
  5
3B4
330
1F
100
AcDbEntity
  8
Object
100
AcDbLine
 10
6.757457890809009
 20
9.010402550944544
 30
0.0
 11
6.757457890809009
 21
8.964402550944544
 31
0.0
  0
LINE
  5
3B5
330
1F
100
AcDbEntity
  8
Object
100
AcDbLine
 10
6.757457890809009
 20
9.065402550944543
 30
0.0
 11
6.757457890809009
 21
9.020402550944545
 31
0.0
  0
LINE
  5
3B6
330
1F
100
AcDbEntity
  8
Object
100
AcDbLine
 10
6.757457890809009
 20
8.964402550944544
 30
0.0
 11
6.834457890809009
 21
8.964402550944544
 31
0.0
  0
LINE
  5
3B7
330
1F
100
AcDbEntity
  8
Object
100
AcDbLine
 10
6.834457890809009
 20
9.065402550944543
 30
0.0
 11
6.757457890809009
 21
9.065402550944543
 31
0.0
  0
LINE
  5
3B8
330
1F
100
AcDbEntity
  8
Object
100
AcDbLine
 10
6.812457890809008
 20
9.020402550944545
 30
0.0
 11
6.812457890809008
 21
9.010402550944544
 31
0.0
  0
LINE
  5
3B9
330
1F
100
AcDbEntity
  8
Object
100
AcDbLine
 10
6.834457890809009
 20
8.964402550944544
 30
0.0
 11
6.834457890809009
 21
8.952402550944544
 31
0.0
  0
LINE
  5
3BA
330
1F
100
AcDbEntity
  8
Object
100
AcDbLine
 10
8.248457890809008
 20
8.212402550944545
 30
0.0
 11
8.248457890809008
 21
9.088402550944543
 31
0.0
  0
LINE
  5
3BB
330
1F
100
AcDbEntity
  8
Object
100
AcDbLine
 10
5.840457890809008
 20
9.077402550944544
 30
0.0
 11
5.840457890809008
 21
8.978402550944544
 31
0.0
  0
LINE
  5
3BC
330
1F
100
AcDbEntity
  8
Object
100
AcDbLine
 10
6.007457890809009
 20
9.065402550944543
 30
0.0
 11
5.976457890809008
 21
9.065402550944543
 31
0.0
  0
LINE
  5
3BD
330
1F
100
AcDbEntity
  8
Object
100
AcDbLine
 10
6.382457890809009
 20
8.952402550944544
 30
0.0
 11
6.368457890809009
 21
8.952402550944544
 31
0.0
  0
LINE
  5
3BE
330
1F
100
AcDbEntity
  8
Object
100
AcDbLine
 10
6.558457890809009
 20
9.063402550944545
 30
0.0
 11
6.558457890809009
 21
9.023402550944545
 31
0.0
  0
LINE
  5
3BF
330
1F
100
AcDbEntity
  8
Object
100
AcDbLine
 10
6.453457890809009
 20
8.952402550944544
 30
0.0
 11
6.453457890809009
 21
9.077402550944544
 31
0.0
  0
LINE
  5
3C0
330
1F
100
AcDbEntity
  8
Object
100
AcDbLine
 10
6.878457890809008
 20
8.964402550944544
 30
0.0
 11
6.878457890809008
 21
9.051402550944544
 31
0.0
  0
LINE
  5
3C1
330
1F
100
AcDbEntity
  8
Object
100
AcDbLine
 10
5.751457890809009
 20
9.077402550944544
 30
0.0
 11
5.751457890809009
 21
8.986402550944545
 31
0.0
  0
LINE
  5
3C2
330
1F
100
AcDbEntity
  8
Object
100
AcDbLine
 10
5.891457890809008
 20
9.065402550944543
 30
0.0
 11
5.889457890809008
 21
9.065402550944543
 31
0.0
  0
LINE
  5
3C3
330
1F
100
AcDbEntity
  8
Object
100
AcDbLine
 10
6.220457890809009
 20
9.020402550944545
 30
0.0
 11
6.276457890809009
 21
9.020402550944545
 31
0.0
  0
LINE
  5
3C4
330
1F
100
AcDbEntity
  8
Object
100
AcDbLine
 10
6.413457890809008
 20
9.077402550944544
 30
0.0
 11
6.413457890809008
 21
9.065402550944543
 31
0.0
  0
LINE
  5
3C5
330
1F
100
AcDbEntity
  8
Object
100
AcDbLine
 10
6.536457890809009
 20
9.012402550944544
 30
0.0
 11
6.558457890809009
 21
8.952402550944544
 31
0.0
  0
LINE
  5
3C6
330
1F
100
AcDbEntity
  8
Object
100
AcDbLine
 10
6.690457890809009
 20
9.021402550944543
 30
0.0
 11
6.703457890809009
 21
9.013402550944544
 31
0.0
  0
LINE
  5
3C7
330
1F
100
AcDbEntity
  8
Object
100
AcDbLine
 10
6.943457890809009
 20
8.974402550944544
 30
0.0
 11
6.943457890809009
 21
8.964402550944544
 31
0.0
  0
LINE
  5
3C8
330
1F
100
AcDbEntity
  8
Object
100
AcDbLine
 10
6.573457890809009
 20
8.545402550944544
 30
0.0
 11
6.546457890809008
 21
8.548402550944544
 31
0.0
  0
LINE
  5
3C9
330
1F
100
AcDbEntity
  8
Object
100
AcDbLine
 10
6.573457890809009
 20
8.755402550944545
 30
0.0
 11
6.546457890809008
 21
8.751402550944543
 31
0.0
  0
LINE
  5
3CA
330
1F
100
AcDbEntity
  8
Object
100
AcDbLine
 10
6.546457890809008
 20
8.751402550944543
 30
0.0
 11
6.520457890809009
 21
8.741402550944545
 31
0.0
  0
LINE
  5
3CB
330
1F
100
AcDbEntity
  8
Object
100
AcDbLine
 10
6.546457890809008
 20
8.548402550944544
 30
0.0
 11
6.520457890809009
 21
8.559402550944543
 31
0.0
  0
LINE
  5
3CC
330
1F
100
AcDbEntity
  8
Object
100
AcDbLine
 10
6.520457890809009
 20
8.559402550944543
 30
0.0
 11
6.499457890809009
 21
8.575402550944545
 31
0.0
  0
LINE
  5
3CD
330
1F
100
AcDbEntity
  8
Object
100
AcDbLine
 10
6.520457890809009
 20
8.741402550944545
 30
0.0
 11
6.499457890809009
 21
8.724402550944544
 31
0.0
  0
LINE
  5
3CE
330
1F
100
AcDbEntity
  8
Object
100
AcDbLine
 10
6.499457890809009
 20
8.724402550944544
 30
0.0
 11
6.482457890809008
 21
8.702402550944544
 31
0.0
  0
LINE
  5
3CF
330
1F
100
AcDbEntity
  8
Object
100
AcDbLine
 10
6.499457890809009
 20
8.575402550944545
 30
0.0
 11
6.482457890809008
 21
8.597402550944543
 31
0.0
  0
LINE
  5
3D0
330
1F
100
AcDbEntity
  8
Object
100
AcDbLine
 10
6.482457890809008
 20
8.597402550944543
 30
0.0
 11
6.472457890809009
 21
8.623402550944543
 31
0.0
  0
LINE
  5
3D1
330
1F
100
AcDbEntity
  8
Object
100
AcDbLine
 10
6.472457890809009
 20
8.677402550944545
 30
0.0
 11
6.482457890809008
 21
8.702402550944544
 31
0.0
  0
LINE
  5
3D2
330
1F
100
AcDbEntity
  8
Object
100
AcDbLine
 10
6.472457890809009
 20
8.623402550944543
 30
0.0
 11
6.468457890809008
 21
8.650402550944544
 31
0.0
  0
LINE
  5
3D3
330
1F
100
AcDbEntity
  8
Object
100
AcDbLine
 10
6.468457890809008
 20
8.650402550944544
 30
0.0
 11
6.472457890809009
 21
8.677402550944545
 31
0.0
  0
LINE
  5
3D4
330
1F
100
AcDbEntity
  8
Object
100
AcDbLine
 10
5.154457890809008
 20
8.952402550944544
 30
0.0
 11
5.154457890809008
 21
9.077402550944544
 31
0.0
  0
LINE
  5
3D5
330
1F
100
AcDbEntity
  8
Object
100
AcDbLine
 10
5.590457890809008
 20
8.952402550944544
 30
0.0
 11
5.590457890809008
 21
9.077402550944544
 31
0.0
  0
LINE
  5
3D6
330
1F
100
AcDbEntity
  8
Object
100
AcDbLine
 10
5.804457890809008
 20
8.964402550944544
 30
0.0
 11
5.825457890809008
 21
8.986402550944545
 31
0.0
  0
LINE
  5
3D7
330
1F
100
AcDbEntity
  8
Object
100
AcDbLine
 10
5.882457890809009
 20
9.065402550944543
 30
0.0
 11
5.880457890809008
 21
9.065402550944543
 31
0.0
  0
LINE
  5
3D8
330
1F
100
AcDbEntity
  8
Object
100
AcDbLine
 10
4.354457890809008
 20
8.755402550944545
 30
0.0
 11
5.613457890809009
 21
8.755402550944545
 31
0.0
  0
LINE
  5
3D9
330
1F
100
AcDbEntity
  8
Object
100
AcDbLine
 10
5.816457890809008
 20
8.952402550944544
 30
0.0
 11
5.759457890809009
 21
8.952402550944544
 31
0.0
  0
LINE
  5
3DA
330
1F
100
AcDbEntity
  8
Object
100
AcDbLine
 10
5.825457890809008
 20
9.077402550944544
 30
0.0
 11
5.840457890809008
 21
9.077402550944544
 31
0.0
  0
LINE
  5
3DB
330
1F
100
AcDbEntity
  8
Object
100
AcDbLine
 10
6.206457890809009
 20
8.952402550944544
 30
0.0
 11
6.206457890809009
 21
9.077402550944544
 31
0.0
  0
LINE
  5
3DC
330
1F
100
AcDbEntity
  8
Object
100
AcDbLine
 10
6.368457890809009
 20
9.065402550944543
 30
0.0
 11
6.337457890809009
 21
9.065402550944543
 31
0.0
  0
LINE
  5
3DD
330
1F
100
AcDbEntity
  8
Object
100
AcDbLine
 10
6.541457890809009
 20
8.952402550944544
 30
0.0
 11
6.521457890809008
 21
9.010402550944544
 31
0.0
  0
LINE
  5
3DE
330
1F
100
AcDbEntity
  8
Object
100
AcDbLine
 10
6.530457890809008
 20
9.077402550944544
 30
0.0
 11
6.558457890809009
 21
9.063402550944545
 31
0.0
  0
LINE
  5
3DF
330
1F
100
AcDbEntity
  8
Object
100
AcDbLine
 10
6.468457890809008
 20
8.952402550944544
 30
0.0
 11
6.453457890809009
 21
8.952402550944544
 31
0.0
  0
LINE
  5
3E0
330
1F
100
AcDbEntity
  8
Object
100
AcDbLine
 10
6.887457890809009
 20
8.964402550944544
 30
0.0
 11
6.887457890809009
 21
8.952402550944544
 31
0.0
  0
LINE
  5
3E1
330
1F
100
AcDbEntity
  8
Object
100
AcDbLine
 10
6.875457890809008
 20
9.045402550944544
 30
0.0
 11
6.871457890809009
 21
9.058402550944546
 31
0.0
  0
LINE
  5
3E2
330
1F
100
AcDbEntity
  8
Object
100
AcDbLine
 10
4.354457890809008
 20
8.545402550944544
 30
0.0
 11
4.327457890809008
 21
8.548402550944544
 31
0.0
  0
LINE
  5
3E3
330
1F
100
AcDbEntity
  8
Object
100
AcDbLine
 10
4.354457890809008
 20
8.755402550944545
 30
0.0
 11
4.327457890809008
 21
8.751402550944543
 31
0.0
  0
LINE
  5
3E4
330
1F
100
AcDbEntity
  8
Object
100
AcDbLine
 10
4.327457890809008
 20
8.751402550944543
 30
0.0
 11
4.302457890809009
 21
8.741402550944545
 31
0.0
  0
LINE
  5
3E5
330
1F
100
AcDbEntity
  8
Object
100
AcDbLine
 10
4.327457890809008
 20
8.548402550944544
 30
0.0
 11
4.302457890809009
 21
8.559402550944543
 31
0.0
  0
LINE
  5
3E6
330
1F
100
AcDbEntity
  8
Object
100
AcDbLine
 10
4.302457890809009
 20
8.559402550944543
 30
0.0
 11
4.280457890809008
 21
8.575402550944545
 31
0.0
  0
LINE
  5
3E7
330
1F
100
AcDbEntity
  8
Object
100
AcDbLine
 10
4.302457890809009
 20
8.741402550944545
 30
0.0
 11
4.280457890809008
 21
8.724402550944544
 31
0.0
  0
LINE
  5
3E8
330
1F
100
AcDbEntity
  8
Object
100
AcDbLine
 10
4.280457890809008
 20
8.724402550944544
 30
0.0
 11
4.264457890809008
 21
8.702402550944544
 31
0.0
  0
LINE
  5
3E9
330
1F
100
AcDbEntity
  8
Object
100
AcDbLine
 10
4.280457890809008
 20
8.575402550944545
 30
0.0
 11
4.264457890809008
 21
8.597402550944543
 31
0.0
  0
LINE
  5
3EA
330
1F
100
AcDbEntity
  8
Object
100
AcDbLine
 10
4.264457890809008
 20
8.597402550944543
 30
0.0
 11
4.253457890809008
 21
8.623402550944543
 31
0.0
  0
LINE
  5
3EB
330
1F
100
AcDbEntity
  8
Object
100
AcDbLine
 10
4.253457890809008
 20
8.677402550944545
 30
0.0
 11
4.264457890809008
 21
8.702402550944544
 31
0.0
  0
LINE
  5
3EC
330
1F
100
AcDbEntity
  8
Object
100
AcDbLine
 10
4.253457890809008
 20
8.623402550944543
 30
0.0
 11
4.249457890809009
 21
8.650402550944544
 31
0.0
  0
LINE
  5
3ED
330
1F
100
AcDbEntity
  8
Object
100
AcDbLine
 10
4.249457890809009
 20
8.650402550944544
 30
0.0
 11
4.253457890809008
 21
8.677402550944545
 31
0.0
  0
LINE
  5
3EE
330
1F
100
AcDbEntity
  8
Object
100
AcDbLine
 10
5.344457890809009
 20
9.077402550944544
 30
0.0
 11
5.361457890809009
 21
9.077402550944544
 31
0.0
  0
LINE
  5
3EF
330
1F
100
AcDbEntity
  8
Object
100
AcDbLine
 10
5.461457890809009
 20
9.049402550944545
 30
0.0
 11
5.461457890809009
 21
8.952402550944544
 31
0.0
  0
LINE
  5
3F0
330
1F
100
AcDbEntity
  8
Object
100
AcDbLine
 10
5.891457890809008
 20
9.077402550944544
 30
0.0
 11
5.891457890809008
 21
9.065402550944543
 31
0.0
  0
LINE
  5
3F1
330
1F
100
AcDbEntity
  8
Object
100
AcDbLine
 10
5.931457890809008
 20
9.065402550944543
 30
0.0
 11
5.931457890809008
 21
9.077402550944544
 31
0.0
  0
LINE
  5
3F2
330
1F
100
AcDbEntity
  8
Object
100
AcDbLine
 10
6.337457890809009
 20
9.077402550944544
 30
0.0
 11
6.413457890809008
 21
9.077402550944544
 31
0.0
  0
LINE
  5
3F3
330
1F
100
AcDbEntity
  8
Object
100
AcDbLine
 10
7.032457890809008
 20
9.020402550944545
 30
0.0
 11
6.943457890809009
 21
8.974402550944544
 31
0.0
  0
LINE
  5
3F4
330
1F
100
AcDbEntity
  8
Object
100
AcDbLine
 10
6.953457890809009
 20
9.077402550944544
 30
0.0
 11
7.006457890809008
 21
9.077402550944544
 31
0.0
  0
LINE
  5
3F5
330
1F
100
AcDbEntity
  8
Object
100
AcDbLine
 10
5.718457890809008
 20
8.650402550944544
 30
0.0
 11
5.714457890809009
 21
8.677402550944545
 31
0.0
  0
LINE
  5
3F6
330
1F
100
AcDbEntity
  8
Object
100
AcDbLine
 10
5.714457890809009
 20
8.677402550944545
 30
0.0
 11
5.704457890809009
 21
8.702402550944544
 31
0.0
  0
LINE
  5
3F7
330
1F
100
AcDbEntity
  8
Object
100
AcDbLine
 10
5.704457890809009
 20
8.702402550944544
 30
0.0
 11
5.687457890809008
 21
8.724402550944544
 31
0.0
  0
LINE
  5
3F8
330
1F
100
AcDbEntity
  8
Object
100
AcDbLine
 10
5.687457890809008
 20
8.724402550944544
 30
0.0
 11
5.665457890809008
 21
8.741402550944545
 31
0.0
  0
LINE
  5
3F9
330
1F
100
AcDbEntity
  8
Object
100
AcDbLine
 10
5.665457890809008
 20
8.741402550944545
 30
0.0
 11
5.640457890809009
 21
8.751402550944543
 31
0.0
  0
LINE
  5
3FA
330
1F
100
AcDbEntity
  8
Object
100
AcDbLine
 10
5.640457890809009
 20
8.751402550944543
 30
0.0
 11
5.613457890809009
 21
8.755402550944545
 31
0.0
  0
LINE
  5
3FB
330
1F
100
AcDbEntity
  8
Object
100
AcDbLine
 10
8.061457890809009
 20
9.275402550944544
 30
0.0
 11
2.435457890809008
 21
9.275402550944544
 31
0.0
  0
LINE
  5
3FC
330
1F
100
AcDbEntity
  8
Object
100
AcDbLine
 10
5.169457890809009
 20
8.952402550944544
 30
0.0
 11
5.154457890809008
 21
8.952402550944544
 31
0.0
  0
LINE
  5
3FD
330
1F
100
AcDbEntity
  8
Object
100
AcDbLine
 10
5.231457890809008
 20
9.077402550944544
 30
0.0
 11
5.259457890809009
 21
9.063402550944545
 31
0.0
  0
LINE
  5
3FE
330
1F
100
AcDbEntity
  8
Object
100
AcDbLine
 10
5.590457890809008
 20
9.077402550944544
 30
0.0
 11
5.667457890809009
 21
9.077402550944544
 31
0.0
  0
LINE
  5
3FF
330
1F
100
AcDbEntity
  8
Object
100
AcDbLine
 10
5.735457890809009
 20
9.077402550944544
 30
0.0
 11
5.751457890809009
 21
9.077402550944544
 31
0.0
  0
LINE
  5
400
330
1F
100
AcDbEntity
  8
Object
100
AcDbLine
 10
5.771457890809008
 20
8.964402550944544
 30
0.0
 11
5.804457890809008
 21
8.964402550944544
 31
0.0
  0
LINE
  5
401
330
1F
100
AcDbEntity
  8
Object
100
AcDbLine
 10
6.558457890809009
 20
9.023402550944545
 30
0.0
 11
6.536457890809009
 21
9.012402550944544
 31
0.0
  0
LINE
  5
402
330
1F
100
AcDbEntity
  8
Object
100
AcDbLine
 10
6.873457890809008
 20
8.952402550944544
 30
0.0
 11
6.873457890809008
 21
8.964402550944544
 31
0.0
  0
LINE
  5
403
330
1F
100
AcDbEntity
  8
Object
100
AcDbLine
 10
6.878457890809008
 20
9.077402550944544
 30
0.0
 11
6.884457890809009
 21
9.077402550944544
 31
0.0
  0
LINE
  5
404
330
1F
100
AcDbEntity
  8
Object
100
AcDbLine
 10
5.324457890809008
 20
8.974402550944544
 30
0.0
 11
5.315457890809009
 21
8.952402550944544
 31
0.0
  0
LINE
  5
405
330
1F
100
AcDbEntity
  8
Object
100
AcDbLine
 10
5.406457890809009
 20
8.952402550944544
 30
0.0
 11
5.389457890809008
 21
8.952402550944544
 31
0.0
  0
LINE
  5
406
330
1F
100
AcDbEntity
  8
Object
100
AcDbLine
 10
5.759457890809009
 20
8.952402550944544
 30
0.0
 11
5.735457890809009
 21
8.978402550944544
 31
0.0
  0
LINE
  5
407
330
1F
100
AcDbEntity
  8
Object
100
AcDbLine
 10
5.825457890809008
 20
8.986402550944545
 30
0.0
 11
5.825457890809008
 21
9.077402550944544
 31
0.0
  0
LINE
  5
408
330
1F
100
AcDbEntity
  8
Object
100
AcDbLine
 10
5.880457890809008
 20
9.077402550944544
 30
0.0
 11
5.891457890809008
 21
9.077402550944544
 31
0.0
  0
LINE
  5
409
330
1F
100
AcDbEntity
  8
Object
100
AcDbLine
 10
6.220457890809009
 20
9.010402550944544
 30
0.0
 11
6.220457890809009
 21
8.952402550944544
 31
0.0
  0
LINE
  5
40A
330
1F
100
AcDbEntity
  8
Object
100
AcDbLine
 10
3.568457890809009
 20
8.025402550944544
 30
0.0
 11
3.550457890809008
 21
8.028402550944544
 31
0.0
  0
LINE
  5
40B
330
1F
100
AcDbEntity
  8
Object
100
AcDbLine
 10
3.550457890809008
 20
8.028402550944544
 30
0.0
 11
3.535457890809008
 21
8.038402550944544
 31
0.0
  0
LINE
  5
40C
330
1F
100
AcDbEntity
  8
Object
100
AcDbLine
 10
3.535457890809008
 20
8.038402550944544
 30
0.0
 11
3.525457890809009
 21
8.054402550944544
 31
0.0
  0
LINE
  5
40D
330
1F
100
AcDbEntity
  8
Object
100
AcDbLine
 10
3.525457890809009
 20
8.054402550944544
 30
0.0
 11
3.521457890809008
 21
8.072402550944545
 31
0.0
  0
LINE
  5
40E
330
1F
100
AcDbEntity
  8
Object
100
AcDbLine
 10
5.259457890809009
 20
9.023402550944545
 30
0.0
 11
5.231457890809008
 21
9.010402550944544
 31
0.0
  0
LINE
  5
40F
330
1F
100
AcDbEntity
  8
Object
100
AcDbLine
 10
5.735457890809009
 20
8.978402550944544
 30
0.0
 11
5.735457890809009
 21
9.077402550944544
 31
0.0
  0
LINE
  5
410
330
1F
100
AcDbEntity
  8
Object
100
AcDbLine
 10
5.840457890809008
 20
8.978402550944544
 30
0.0
 11
5.816457890809008
 21
8.952402550944544
 31
0.0
  0
LINE
  5
411
330
1F
100
AcDbEntity
  8
Object
100
AcDbLine
 10
6.558457890809009
 20
8.952402550944544
 30
0.0
 11
6.541457890809009
 21
8.952402550944544
 31
0.0
  0
LINE
  5
412
330
1F
100
AcDbEntity
  8
Object
100
AcDbLine
 10
6.453457890809009
 20
9.077402550944544
 30
0.0
 11
6.530457890809008
 21
9.077402550944544
 31
0.0
  0
LINE
  5
413
330
1F
100
AcDbEntity
  8
Object
100
AcDbLine
 10
6.884457890809009
 20
8.964402550944544
 30
0.0
 11
6.887457890809009
 21
8.964402550944544
 31
0.0
  0
LINE
  5
414
330
1F
100
AcDbEntity
  8
Object
100
AcDbLine
 10
6.878457890809008
 20
9.051402550944544
 30
0.0
 11
6.875457890809008
 21
9.045402550944544
 31
0.0
  0
LINE
  5
415
330
1F
100
AcDbEntity
  8
Object
100
AcDbLine
 10
2.975457890809009
 20
8.072402550944545
 30
0.0
 11
2.975457890809009
 21
8.650402550944544
 31
0.0
  0
LINE
  5
416
330
1F
100
AcDbEntity
  8
Object
100
AcDbLine
 10
2.248457890809008
 20
9.088402550944543
 30
0.0
 11
2.248457890809008
 21
8.212402550944545
 31
0.0
  0
LINE
  5
417
330
1F
100
AcDbEntity
  8
Object
100
AcDbLine
 10
3.568457890809009
 20
8.025402550944544
 30
0.0
 11
8.061457890809009
 21
8.025402550944544
 31
0.0
  0
LINE
  5
418
330
1F
100
AcDbEntity
  8
Object
100
AcDbLine
 10
5.154457890809008
 20
9.077402550944544
 30
0.0
 11
5.231457890809008
 21
9.077402550944544
 31
0.0
  0
LINE
  5
419
330
1F
100
AcDbEntity
  8
Object
100
AcDbLine
 10
5.381457890809008
 20
8.974402550944544
 30
0.0
 11
5.324457890809008
 21
8.974402550944544
 31
0.0
  0
LINE
  5
41A
330
1F
100
AcDbEntity
  8
Object
100
AcDbLine
 10
5.535457890809008
 20
8.981402550944544
 30
0.0
 11
5.535457890809008
 21
9.077402550944544
 31
0.0
  0
LINE
  5
41B
330
1F
100
AcDbEntity
  8
Object
100
AcDbLine
 10
5.931457890809008
 20
9.065402550944543
 30
0.0
 11
5.963457890809008
 21
9.065402550944543
 31
0.0
  0
LINE
  5
41C
330
1F
100
AcDbEntity
  8
Object
100
AcDbLine
 10
5.963457890809008
 20
9.065402550944543
 30
0.0
 11
5.963457890809008
 21
8.952402550944544
 31
0.0
  0
LINE
  5
41D
330
1F
100
AcDbEntity
  8
Object
100
AcDbLine
 10
6.682457890809009
 20
9.077402550944544
 30
0.0
 11
6.692457890809008
 21
9.065402550944543
 31
0.0
  0
LINE
  5
41E
330
1F
100
AcDbEntity
  8
Object
100
AcDbLine
 10
6.887457890809009
 20
8.952402550944544
 30
0.0
 11
6.873457890809008
 21
8.952402550944544
 31
0.0
  0
LINE
  5
41F
330
1F
100
AcDbEntity
  8
Object
100
AcDbLine
 10
6.943457890809009
 20
9.042402550944544
 30
0.0
 11
6.927457890809009
 21
9.042402550944544
 31
0.0
  0
LINE
  5
420
330
1F
100
AcDbEntity
  8
Object
100
AcDbLine
 10
5.718457890809008
 20
8.650402550944544
 30
0.0
 11
5.714457890809009
 21
8.623402550944543
 31
0.0
  0
LINE
  5
421
330
1F
100
AcDbEntity
  8
Object
100
AcDbLine
 10
5.714457890809009
 20
8.623402550944543
 30
0.0
 11
5.704457890809009
 21
8.597402550944543
 31
0.0
  0
LINE
  5
422
330
1F
100
AcDbEntity
  8
Object
100
AcDbLine
 10
5.704457890809009
 20
8.597402550944543
 30
0.0
 11
5.687457890809008
 21
8.575402550944545
 31
0.0
  0
LINE
  5
423
330
1F
100
AcDbEntity
  8
Object
100
AcDbLine
 10
5.687457890809008
 20
8.575402550944545
 30
0.0
 11
5.665457890809008
 21
8.559402550944543
 31
0.0
  0
LINE
  5
424
330
1F
100
AcDbEntity
  8
Object
100
AcDbLine
 10
5.665457890809008
 20
8.559402550944543
 30
0.0
 11
5.640457890809009
 21
8.548402550944544
 31
0.0
  0
LINE
  5
425
330
1F
100
AcDbEntity
  8
Object
100
AcDbLine
 10
5.640457890809009
 20
8.548402550944544
 30
0.0
 11
5.613457890809009
 21
8.545402550944544
 31
0.0
  0
LINE
  5
426
102
{ACAD_REACTORS
330
564
102
}
330
1F
100
AcDbEntity
  8
Object
100
AcDbLine
 10
2.975457890809009
 20
8.072402550944545
 30
0.0
 11
2.972457890809009
 21
8.054402550944544
 31
0.0
  0
LINE
  5
427
330
1F
100
AcDbEntity
  8
Object
100
AcDbLine
 10
2.972457890809009
 20
8.054402550944544
 30
0.0
 11
2.962457890809009
 21
8.038402550944544
 31
0.0
  0
LINE
  5
428
330
1F
100
AcDbEntity
  8
Object
100
AcDbLine
 10
2.962457890809009
 20
8.038402550944544
 30
0.0
 11
2.947457890809008
 21
8.028402550944544
 31
0.0
  0
LINE
  5
429
330
1F
100
AcDbEntity
  8
Object
100
AcDbLine
 10
2.947457890809008
 20
8.028402550944544
 30
0.0
 11
2.929457890809008
 21
8.025402550944544
 31
0.0
  0
LINE
  5
42A
330
1F
100
AcDbEntity
  8
Object
100
AcDbLine
 10
7.936457890809009
 20
8.650402550944544
 30
0.0
 11
7.933457890809009
 21
8.623402550944543
 31
0.0
  0
LINE
  5
42B
330
1F
100
AcDbEntity
  8
Object
100
AcDbLine
 10
7.933457890809009
 20
8.623402550944543
 30
0.0
 11
7.922457890809008
 21
8.597402550944543
 31
0.0
  0
LINE
  5
42C
330
1F
100
AcDbEntity
  8
Object
100
AcDbLine
 10
7.922457890809008
 20
8.597402550944543
 30
0.0
 11
7.906457890809009
 21
8.575402550944545
 31
0.0
  0
LINE
  5
42D
330
1F
100
AcDbEntity
  8
Object
100
AcDbLine
 10
7.906457890809009
 20
8.575402550944545
 30
0.0
 11
7.884457890809009
 21
8.559402550944543
 31
0.0
  0
LINE
  5
42E
330
1F
100
AcDbEntity
  8
Object
100
AcDbLine
 10
7.884457890809009
 20
8.559402550944543
 30
0.0
 11
7.859457890809008
 21
8.548402550944544
 31
0.0
  0
LINE
  5
42F
330
1F
100
AcDbEntity
  8
Object
100
AcDbLine
 10
7.859457890809008
 20
8.548402550944544
 30
0.0
 11
7.831457890809009
 21
8.545402550944544
 31
0.0
  0
LINE
  5
430
330
1F
100
AcDbEntity
  8
Object
100
AcDbLine
 10
5.169457890809009
 20
9.010402550944544
 30
0.0
 11
5.169457890809009
 21
8.952402550944544
 31
0.0
  0
LINE
  5
431
330
1F
100
AcDbEntity
  8
Object
100
AcDbLine
 10
5.695457890809008
 20
9.046402550944545
 30
0.0
 11
5.695457890809008
 21
8.983402550944544
 31
0.0
  0
LINE
  5
432
330
1F
100
AcDbEntity
  8
Object
100
AcDbLine
 10
5.889457890809008
 20
8.964402550944544
 30
0.0
 11
5.891457890809008
 21
8.964402550944544
 31
0.0
  0
LINE
  5
433
330
1F
100
AcDbEntity
  8
Object
100
AcDbLine
 10
6.682457890809009
 20
8.952402550944544
 30
0.0
 11
6.598457890809008
 21
8.952402550944544
 31
0.0
  0
LINE
  5
434
330
1F
100
AcDbEntity
  8
Object
100
AcDbLine
 10
6.871457890809009
 20
9.058402550944546
 30
0.0
 11
6.878457890809008
 21
9.077402550944544
 31
0.0
  0
LINE
  5
435
330
1F
100
AcDbEntity
  8
Object
100
AcDbLine
 10
7.017457890809009
 20
9.032402550944544
 30
0.0
 11
7.017457890809009
 21
9.052402550944545
 31
0.0
  0
LINE
  5
436
330
1F
100
AcDbEntity
  8
Object
100
AcDbLine
 10
8.061457890809009
 20
8.025402550944544
 30
0.0
 11
8.248457890809008
 21
8.212402550944545
 31
0.0
  0
LINE
  5
437
330
1F
100
AcDbEntity
  8
Object
100
AcDbLine
 10
5.361457890809009
 20
9.077402550944544
 30
0.0
 11
5.406457890809009
 21
8.952402550944544
 31
0.0
  0
LINE
  5
438
330
1F
100
AcDbEntity
  8
Object
100
AcDbLine
 10
5.551457890809008
 20
9.077402550944544
 30
0.0
 11
5.551457890809008
 21
8.952402550944544
 31
0.0
  0
LINE
  5
439
330
1F
100
AcDbEntity
  8
Object
100
AcDbLine
 10
5.446457890809009
 20
8.952402550944544
 30
0.0
 11
5.446457890809009
 21
9.077402550944544
 31
0.0
  0
LINE
  5
43A
330
1F
100
AcDbEntity
  8
Object
100
AcDbLine
 10
6.007457890809009
 20
9.065402550944543
 30
0.0
 11
6.007457890809009
 21
9.077402550944544
 31
0.0
  0
LINE
  5
43B
330
1F
100
AcDbEntity
  8
Object
100
AcDbLine
 10
6.007457890809009
 20
9.077402550944544
 30
0.0
 11
5.931457890809008
 21
9.077402550944544
 31
0.0
  0
LINE
  5
43C
330
1F
100
AcDbEntity
  8
Object
100
AcDbLine
 10
6.276457890809009
 20
9.010402550944544
 30
0.0
 11
6.220457890809009
 21
9.010402550944544
 31
0.0
  0
LINE
  5
43D
330
1F
100
AcDbEntity
  8
Object
100
AcDbLine
 10
6.884457890809009
 20
9.077402550944544
 30
0.0
 11
6.884457890809009
 21
8.964402550944544
 31
0.0
  0
LINE
  5
43E
330
1F
100
AcDbEntity
  8
Object
100
AcDbLine
 10
6.992457890809008
 20
9.065402550944543
 30
0.0
 11
6.969457890809009
 21
9.065402550944543
 31
0.0
  0
LINE
  5
43F
330
1F
100
AcDbEntity
  8
Object
100
AcDbLine
 10
7.936457890809009
 20
8.650402550944544
 30
0.0
 11
7.933457890809009
 21
8.677402550944545
 31
0.0
  0
LINE
  5
440
330
1F
100
AcDbEntity
  8
Object
100
AcDbLine
 10
7.933457890809009
 20
8.677402550944545
 30
0.0
 11
7.922457890809008
 21
8.702402550944544
 31
0.0
  0
LINE
  5
441
330
1F
100
AcDbEntity
  8
Object
100
AcDbLine
 10
7.922457890809008
 20
8.702402550944544
 30
0.0
 11
7.906457890809009
 21
8.724402550944544
 31
0.0
  0
LINE
  5
442
330
1F
100
AcDbEntity
  8
Object
100
AcDbLine
 10
7.906457890809009
 20
8.724402550944544
 30
0.0
 11
7.884457890809009
 21
8.741402550944545
 31
0.0
  0
LINE
  5
443
330
1F
100
AcDbEntity
  8
Object
100
AcDbLine
 10
7.884457890809009
 20
8.741402550944545
 30
0.0
 11
7.859457890809008
 21
8.751402550944543
 31
0.0
  0
LINE
  5
444
330
1F
100
AcDbEntity
  8
Object
100
AcDbLine
 10
7.859457890809008
 20
8.751402550944543
 30
0.0
 11
7.831457890809009
 21
8.755402550944545
 31
0.0
  0
LINE
  5
445
330
1F
100
AcDbEntity
  8
Object
100
AcDbLine
 10
5.259457890809009
 20
9.063402550944545
 30
0.0
 11
5.259457890809009
 21
9.023402550944545
 31
0.0
  0
LINE
  5
446
330
1F
100
AcDbEntity
  8
Object
100
AcDbLine
 10
5.389457890809008
 20
8.952402550944544
 30
0.0
 11
5.381457890809008
 21
8.974402550944544
 31
0.0
  0
LINE
  5
447
330
1F
100
AcDbEntity
  8
Object
100
AcDbLine
 10
5.298457890809008
 20
8.952402550944544
 30
0.0
 11
5.344457890809009
 21
9.077402550944544
 31
0.0
  0
LINE
  5
448
330
1F
100
AcDbEntity
  8
Object
100
AcDbLine
 10
5.891457890809008
 20
8.952402550944544
 30
0.0
 11
5.880457890809008
 21
8.952402550944544
 31
0.0
  0
LINE
  5
449
330
1F
100
AcDbEntity
  8
Object
100
AcDbLine
 10
5.963457890809008
 20
8.952402550944544
 30
0.0
 11
5.976457890809008
 21
8.952402550944544
 31
0.0
  0
LINE
  5
44A
330
1F
100
AcDbEntity
  8
Object
100
AcDbLine
 10
5.976457890809008
 20
8.952402550944544
 30
0.0
 11
5.976457890809008
 21
9.065402550944543
 31
0.0
  0
LINE
  5
44B
330
1F
100
AcDbEntity
  8
Object
100
AcDbLine
 10
6.297457890809009
 20
9.077402550944544
 30
0.0
 11
6.297457890809009
 21
9.065402550944543
 31
0.0
  0
LINE
  5
44C
330
1F
100
AcDbEntity
  8
Object
100
AcDbLine
 10
7.032457890809008
 20
8.952402550944544
 30
0.0
 11
6.927457890809009
 21
8.952402550944544
 31
0.0
  0
LINE
  5
44D
330
1F
100
AcDbEntity
  8
Object
100
AcDbLine
 10
5.231457890809008
 20
9.010402550944544
 30
0.0
 11
5.169457890809009
 21
9.010402550944544
 31
0.0
  0
LINE
  5
44E
330
1F
100
AcDbEntity
  8
Object
100
AcDbLine
 10
5.315457890809009
 20
8.952402550944544
 30
0.0
 11
5.298457890809008
 21
8.952402550944544
 31
0.0
  0
LINE
  5
44F
330
1F
100
AcDbEntity
  8
Object
100
AcDbLine
 10
5.461457890809009
 20
9.077402550944544
 30
0.0
 11
5.535457890809008
 21
8.981402550944544
 31
0.0
  0
LINE
  5
450
330
1F
100
AcDbEntity
  8
Object
100
AcDbLine
 10
5.667457890809009
 20
9.077402550944544
 30
0.0
 11
5.695457890809008
 21
9.046402550944545
 31
0.0
  0
LINE
  5
451
330
1F
100
AcDbEntity
  8
Object
100
AcDbLine
 10
6.220457890809009
 20
9.065402550944543
 30
0.0
 11
6.220457890809009
 21
9.020402550944545
 31
0.0
  0
LINE
  5
452
330
1F
100
AcDbEntity
  8
Object
100
AcDbLine
 10
6.382457890809009
 20
9.065402550944543
 30
0.0
 11
6.382457890809009
 21
8.952402550944544
 31
0.0
  0
LINE
  5
453
330
1F
100
AcDbEntity
  8
Object
100
AcDbLine
 10
6.682457890809009
 20
8.952402550944544
 30
0.0
 11
6.703457890809009
 21
8.965402550944544
 31
0.0
  0
LINE
  5
454
330
1F
100
AcDbEntity
  8
Object
100
AcDbLine
 10
6.703457890809009
 20
8.965402550944544
 30
0.0
 11
6.703457890809009
 21
9.013402550944544
 31
0.0
  0
LINE
  5
455
330
1F
100
AcDbEntity
  8
Object
100
AcDbLine
 10
6.692457890809008
 20
9.025402550944544
 30
0.0
 11
6.690457890809009
 21
9.021402550944543
 31
0.0
  0
LINE
  5
456
330
1F
100
AcDbEntity
  8
Object
100
AcDbLine
 10
6.598457890809008
 20
9.077402550944544
 30
0.0
 11
6.682457890809009
 21
9.077402550944544
 31
0.0
  0
LINE
  5
457
330
1F
100
AcDbEntity
  8
Object
100
AcDbLine
 10
6.873457890809008
 20
8.964402550944544
 30
0.0
 11
6.878457890809008
 21
8.964402550944544
 31
0.0
  0
LINE
  5
458
330
1F
100
AcDbEntity
  8
Object
100
AcDbLine
 10
7.006457890809008
 20
9.077402550944544
 30
0.0
 11
7.032457890809008
 21
9.064402550944544
 31
0.0
  0
LINE
  5
459
330
1F
100
AcDbEntity
  8
Object
100
AcDbLine
 10
6.943457890809009
 20
9.052402550944545
 30
0.0
 11
6.943457890809009
 21
9.042402550944544
 31
0.0
  0
LINE
  5
45A
330
1F
100
AcDbEntity
  8
Object
100
AcDbLine
 10
6.927457890809009
 20
8.986402550944545
 30
0.0
 11
7.017457890809009
 21
9.032402550944544
 31
0.0
  0
LINE
  5
45B
330
1F
100
AcDbEntity
  8
Object
100
AcDbLine
 10
8.248457890809008
 20
9.088402550944543
 30
0.0
 11
8.061457890809009
 21
9.275402550944544
 31
0.0
  0
LINE
  5
45C
330
1F
100
AcDbEntity
  8
Object
100
AcDbLine
 10
7.831457890809009
 20
8.545402550944544
 30
0.0
 11
6.573457890809009
 21
8.545402550944544
 31
0.0
  0
LINE
  5
45D
330
1F
100
AcDbEntity
  8
Object
100
AcDbLine
 10
5.535457890809008
 20
8.952402550944544
 30
0.0
 11
5.461457890809009
 21
9.049402550944545
 31
0.0
  0
LINE
  5
45E
330
1F
100
AcDbEntity
  8
Object
100
AcDbLine
 10
5.880457890809008
 20
8.964402550944544
 30
0.0
 11
5.882457890809009
 21
8.964402550944544
 31
0.0
  0
LINE
  5
45F
330
1F
100
AcDbEntity
  8
Object
100
AcDbLine
 10
6.220457890809009
 20
8.952402550944544
 30
0.0
 11
6.206457890809009
 21
8.952402550944544
 31
0.0
  0
LINE
  5
460
330
1F
100
AcDbEntity
  8
Object
100
AcDbLine
 10
6.468457890809008
 20
9.010402550944544
 30
0.0
 11
6.468457890809008
 21
8.952402550944544
 31
0.0
  0
LINE
  5
461
330
1F
100
AcDbEntity
  8
Object
100
AcDbLine
 10
3.521457890809008
 20
8.650402550944544
 30
0.0
 11
3.518457890809008
 21
8.695402550944544
 31
0.0
  0
LINE
  5
462
330
1F
100
AcDbEntity
  8
Object
100
AcDbLine
 10
3.518457890809008
 20
8.695402550944544
 30
0.0
 11
3.507457890809009
 21
8.738402550944545
 31
0.0
  0
LINE
  5
463
330
1F
100
AcDbEntity
  8
Object
100
AcDbLine
 10
3.507457890809009
 20
8.738402550944545
 30
0.0
 11
3.489457890809008
 21
8.780402550944543
 31
0.0
  0
LINE
  5
464
330
1F
100
AcDbEntity
  8
Object
100
AcDbLine
 10
3.489457890809008
 20
8.780402550944543
 30
0.0
 11
3.464457890809008
 21
8.817402550944544
 31
0.0
  0
LINE
  5
465
330
1F
100
AcDbEntity
  8
Object
100
AcDbLine
 10
3.464457890809008
 20
8.817402550944544
 30
0.0
 11
3.433457890809009
 21
8.851402550944545
 31
0.0
  0
LINE
  5
466
330
1F
100
AcDbEntity
  8
Object
100
AcDbLine
 10
3.433457890809009
 20
8.851402550944545
 30
0.0
 11
3.398457890809009
 21
8.878402550944544
 31
0.0
  0
LINE
  5
467
330
1F
100
AcDbEntity
  8
Object
100
AcDbLine
 10
3.398457890809009
 20
8.878402550944544
 30
0.0
 11
3.358457890809008
 21
8.900402550944544
 31
0.0
  0
LINE
  5
468
330
1F
100
AcDbEntity
  8
Object
100
AcDbLine
 10
3.358457890809008
 20
8.900402550944544
 30
0.0
 11
3.315457890809009
 21
8.914402550944544
 31
0.0
  0
LINE
  5
469
330
1F
100
AcDbEntity
  8
Object
100
AcDbLine
 10
3.315457890809009
 20
8.914402550944544
 30
0.0
 11
3.271457890809008
 21
8.922402550944545
 31
0.0
  0
LINE
  5
46A
330
1F
100
AcDbEntity
  8
Object
100
AcDbLine
 10
3.271457890809008
 20
8.922402550944545
 30
0.0
 11
3.226457890809008
 21
8.922402550944545
 31
0.0
  0
LINE
  5
46B
330
1F
100
AcDbEntity
  8
Object
100
AcDbLine
 10
3.226457890809008
 20
8.922402550944545
 30
0.0
 11
3.181457890809008
 21
8.914402550944544
 31
0.0
  0
LINE
  5
46C
330
1F
100
AcDbEntity
  8
Object
100
AcDbLine
 10
3.181457890809008
 20
8.914402550944544
 30
0.0
 11
3.139457890809008
 21
8.900402550944544
 31
0.0
  0
LINE
  5
46D
330
1F
100
AcDbEntity
  8
Object
100
AcDbLine
 10
3.139457890809008
 20
8.900402550944544
 30
0.0
 11
3.099457890809009
 21
8.878402550944544
 31
0.0
  0
LINE
  5
46E
330
1F
100
AcDbEntity
  8
Object
100
AcDbLine
 10
3.099457890809009
 20
8.878402550944544
 30
0.0
 11
3.064457890809009
 21
8.851402550944545
 31
0.0
  0
LINE
  5
46F
330
1F
100
AcDbEntity
  8
Object
100
AcDbLine
 10
3.064457890809009
 20
8.851402550944545
 30
0.0
 11
3.033457890809009
 21
8.817402550944544
 31
0.0
  0
LINE
  5
470
330
1F
100
AcDbEntity
  8
Object
100
AcDbLine
 10
3.033457890809009
 20
8.817402550944544
 30
0.0
 11
3.008457890809008
 21
8.780402550944543
 31
0.0
  0
LINE
  5
471
330
1F
100
AcDbEntity
  8
Object
100
AcDbLine
 10
3.008457890809008
 20
8.780402550944543
 30
0.0
 11
2.990457890809008
 21
8.738402550944545
 31
0.0
  0
LINE
  5
472
330
1F
100
AcDbEntity
  8
Object
100
AcDbLine
 10
2.990457890809008
 20
8.738402550944545
 30
0.0
 11
2.979457890809008
 21
8.695402550944544
 31
0.0
  0
LINE
  5
473
330
1F
100
AcDbEntity
  8
Object
100
AcDbLine
 10
2.979457890809008
 20
8.695402550944544
 30
0.0
 11
2.975457890809009
 21
8.650402550944544
 31
0.0
  0
LINE
  5
474
330
1F
100
AcDbEntity
  8
Object
100
AcDbLine
 10
2.435457890809008
 20
9.275402550944544
 30
0.0
 11
2.248457890809008
 21
9.088402550944543
 31
0.0
  0
LINE
  5
475
330
1F
100
AcDbEntity
  8
Object
100
AcDbLine
 10
5.535457890809008
 20
9.077402550944544
 30
0.0
 11
5.551457890809008
 21
9.077402550944544
 31
0.0
  0
LINE
  5
476
330
1F
100
AcDbEntity
  8
Object
100
AcDbLine
 10
5.461457890809009
 20
8.952402550944544
 30
0.0
 11
5.446457890809009
 21
8.952402550944544
 31
0.0
  0
LINE
  5
477
330
1F
100
AcDbEntity
  8
Object
100
AcDbLine
 10
5.667457890809009
 20
8.952402550944544
 30
0.0
 11
5.590457890809008
 21
8.952402550944544
 31
0.0
  0
LINE
  5
478
330
1F
100
AcDbEntity
  8
Object
100
AcDbLine
 10
5.882457890809009
 20
8.964402550944544
 30
0.0
 11
5.882457890809009
 21
9.065402550944543
 31
0.0
  0
LINE
  5
479
330
1F
100
AcDbEntity
  8
Object
100
AcDbLine
 10
5.889457890809008
 20
9.065402550944543
 30
0.0
 11
5.889457890809008
 21
8.964402550944544
 31
0.0
  0
LINE
  5
47A
330
1F
100
AcDbEntity
  8
Object
100
AcDbLine
 10
6.276457890809009
 20
9.020402550944545
 30
0.0
 11
6.276457890809009
 21
9.010402550944544
 31
0.0
  0
LINE
  5
47B
330
1F
100
AcDbEntity
  8
Object
100
AcDbLine
 10
6.206457890809009
 20
9.077402550944544
 30
0.0
 11
6.297457890809009
 21
9.077402550944544
 31
0.0
  0
LINE
  5
47C
330
1F
100
AcDbEntity
  8
Object
100
AcDbLine
 10
6.413457890809008
 20
9.065402550944543
 30
0.0
 11
6.382457890809009
 21
9.065402550944543
 31
0.0
  0
LINE
  5
47D
330
1F
100
AcDbEntity
  8
Object
100
AcDbLine
 10
6.368457890809009
 20
8.952402550944544
 30
0.0
 11
6.368457890809009
 21
9.065402550944543
 31
0.0
  0
LINE
  5
47E
330
1F
100
AcDbEntity
  8
Object
100
AcDbLine
 10
6.692457890809008
 20
9.065402550944543
 30
0.0
 11
6.692457890809008
 21
9.025402550944544
 31
0.0
  0
LINE
  5
47F
330
1F
100
AcDbEntity
  8
Object
100
AcDbLine
 10
6.927457890809009
 20
9.042402550944544
 30
0.0
 11
6.927457890809009
 21
9.064402550944544
 31
0.0
  0
LINE
  5
480
330
1F
100
AcDbEntity
  8
Object
100
AcDbLine
 10
7.017457890809009
 20
9.052402550944545
 30
0.0
 11
6.992457890809008
 21
9.065402550944543
 31
0.0
  0
LINE
  5
481
330
1F
100
AcDbEntity
  8
Object
100
AcDbLine
 10
7.032457890809008
 20
8.964402550944544
 30
0.0
 11
7.032457890809008
 21
8.952402550944544
 31
0.0
  0
LINE
  5
482
330
1F
100
AcDbEntity
  8
Object
100
AcDbLine
 10
5.613457890809009
 20
8.545402550944544
 30
0.0
 11
4.354457890809008
 21
8.545402550944544
 31
0.0
  0
LINE
  5
483
330
1F
100
AcDbEntity
  8
Object
100
AcDbLine
 10
2.929457890809008
 20
8.025402550944544
 30
0.0
 11
2.435457890809008
 21
8.025402550944544
 31
0.0
  0
LINE
  5
484
330
1F
100
AcDbEntity
  8
Object
100
AcDbLine
 10
2.435457890809008
 20
8.025402550944544
 30
0.0
 11
2.248457890809008
 21
8.212402550944545
 31
0.0
  0
LINE
  5
485
102
{ACAD_REACTORS
330
564
102
}
330
1F
100
AcDbEntity
  8
Object
100
AcDbLine
 10
3.521457890809008
 20
8.650402550944544
 30
0.0
 11
3.521457890809008
 21
8.072402550944545
 31
0.0
  0
LINE
  5
486
330
1F
100
AcDbEntity
  8
Object
100
AcDbLine
 10
6.573457890809009
 20
8.755402550944545
 30
0.0
 11
7.831457890809009
 21
8.755402550944545
 31
0.0
  0
LINE
  5
487
330
1F
100
AcDbEntity
  8
Object
100
AcDbLine
 10
5.695457890809008
 20
8.983402550944544
 30
0.0
 11
5.667457890809009
 21
8.952402550944544
 31
0.0
  0
LINE
  5
488
330
1F
100
AcDbEntity
  8
Object
100
AcDbLine
 10
5.891457890809008
 20
8.964402550944544
 30
0.0
 11
5.891457890809008
 21
8.952402550944544
 31
0.0
  0
LINE
  5
489
330
1F
100
AcDbEntity
  8
Object
100
AcDbLine
 10
7.032457890809008
 20
9.064402550944544
 30
0.0
 11
7.032457890809008
 21
9.020402550944545
 31
0.0
  0
LINE
  5
48A
330
1F
100
AcDbEntity
  8
Object
100
AcDbLine
 10
6.927457890809009
 20
9.064402550944544
 30
0.0
 11
6.953457890809009
 21
9.077402550944544
 31
0.0
  0
LINE
  5
48B
330
1F
100
AcDbEntity
  8
Object
100
AcDbLine
 10
5.551457890809008
 20
8.952402550944544
 30
0.0
 11
5.535457890809008
 21
8.952402550944544
 31
0.0
  0
LINE
  5
48C
330
1F
100
AcDbEntity
  8
Object
100
AcDbLine
 10
5.446457890809009
 20
9.077402550944544
 30
0.0
 11
5.461457890809009
 21
9.077402550944544
 31
0.0
  0
LINE
  5
48D
330
1F
100
AcDbEntity
  8
Object
100
AcDbLine
 10
5.751457890809009
 20
8.986402550944545
 30
0.0
 11
5.771457890809008
 21
8.964402550944544
 31
0.0
  0
LINE
  5
48E
330
1F
100
AcDbEntity
  8
Object
100
AcDbLine
 10
5.880457890809008
 20
9.065402550944543
 30
0.0
 11
5.880457890809008
 21
9.077402550944544
 31
0.0
  0
LINE
  5
48F
330
1F
100
AcDbEntity
  8
Object
100
AcDbLine
 10
5.880457890809008
 20
8.952402550944544
 30
0.0
 11
5.880457890809008
 21
8.964402550944544
 31
0.0
  0
LINE
  5
490
330
1F
100
AcDbEntity
  8
Object
100
AcDbLine
 10
6.297457890809009
 20
9.065402550944543
 30
0.0
 11
6.220457890809009
 21
9.065402550944543
 31
0.0
  0
LINE
  5
491
330
1F
100
AcDbEntity
  8
Object
100
AcDbLine
 10
6.337457890809009
 20
9.065402550944543
 30
0.0
 11
6.337457890809009
 21
9.077402550944544
 31
0.0
  0
LINE
  5
492
330
1F
100
AcDbEntity
  8
Object
100
AcDbLine
 10
6.521457890809008
 20
9.010402550944544
 30
0.0
 11
6.468457890809008
 21
9.010402550944544
 31
0.0
  0
LINE
  5
493
330
1F
100
AcDbEntity
  8
Object
100
AcDbLine
 10
6.598457890809008
 20
8.952402550944544
 30
0.0
 11
6.598457890809008
 21
9.077402550944544
 31
0.0
  0
LINE
  5
494
330
1F
100
AcDbEntity
  8
Object
100
AcDbLine
 10
6.969457890809009
 20
9.065402550944543
 30
0.0
 11
6.943457890809009
 21
9.052402550944545
 31
0.0
  0
LINE
  5
495
330
1F
100
AcDbEntity
  8
Object
100
AcDbLine
 10
6.927457890809009
 20
8.952402550944544
 30
0.0
 11
6.927457890809009
 21
8.986402550944545
 31
0.0
  0
LINE
  5
496
330
1F
100
AcDbEntity
  8
Object
100
AcDbLine
 10
6.943457890809009
 20
8.964402550944544
 30
0.0
 11
7.032457890809008
 21
8.964402550944544
 31
0.0
  0
LINE
  5
497
330
1F
100
AcDbEntity
  8
Object
100
AcDbLine
 10
6.468457890809008
 20
9.020402550944545
 30
0.0
 11
6.516457890809008
 21
9.020402550944545
 31
0.0
  0
LINE
  5
498
330
1F
100
AcDbEntity
  8
Object
100
AcDbLine
 10
6.516457890809008
 20
9.020402550944545
 30
0.0
 11
6.542457890809009
 21
9.034402550944545
 31
0.0
  0
LINE
  5
499
330
1F
100
AcDbEntity
  8
Object
100
AcDbLine
 10
6.516457890809008
 20
9.065402550944543
 30
0.0
 11
6.468457890809008
 21
9.065402550944543
 31
0.0
  0
LINE
  5
49A
330
1F
100
AcDbEntity
  8
Object
100
AcDbLine
 10
6.542457890809009
 20
9.034402550944545
 30
0.0
 11
6.542457890809009
 21
9.052402550944545
 31
0.0
  0
LINE
  5
49B
330
1F
100
AcDbEntity
  8
Object
100
AcDbLine
 10
6.468457890809008
 20
9.065402550944543
 30
0.0
 11
6.468457890809008
 21
9.020402550944545
 31
0.0
  0
LINE
  5
49C
330
1F
100
AcDbEntity
  8
Object
100
AcDbLine
 10
6.542457890809009
 20
9.052402550944545
 30
0.0
 11
6.516457890809008
 21
9.065402550944543
 31
0.0
  0
LINE
  5
49D
330
1F
100
AcDbEntity
  8
Object
100
AcDbLine
 10
6.613457890809009
 20
9.015402550944545
 30
0.0
 11
6.613457890809009
 21
8.964402550944544
 31
0.0
  0
LINE
  5
49E
330
1F
100
AcDbEntity
  8
Object
100
AcDbLine
 10
6.670457890809008
 20
9.065402550944543
 30
0.0
 11
6.613457890809009
 21
9.065402550944543
 31
0.0
  0
LINE
  5
49F
330
1F
100
AcDbEntity
  8
Object
100
AcDbLine
 10
6.687457890809008
 20
8.974402550944544
 30
0.0
 11
6.687457890809008
 21
9.003402550944544
 31
0.0
  0
LINE
  5
4A0
330
1F
100
AcDbEntity
  8
Object
100
AcDbLine
 10
6.676457890809008
 20
9.033402550944543
 30
0.0
 11
6.676457890809008
 21
9.059402550944543
 31
0.0
  0
LINE
  5
4A1
330
1F
100
AcDbEntity
  8
Object
100
AcDbLine
 10
6.687457890809008
 20
9.003402550944544
 30
0.0
 11
6.669457890809009
 21
9.015402550944545
 31
0.0
  0
LINE
  5
4A2
330
1F
100
AcDbEntity
  8
Object
100
AcDbLine
 10
6.613457890809009
 20
9.065402550944543
 30
0.0
 11
6.613457890809009
 21
9.025402550944544
 31
0.0
  0
LINE
  5
4A3
330
1F
100
AcDbEntity
  8
Object
100
AcDbLine
 10
6.676457890809008
 20
9.059402550944543
 30
0.0
 11
6.670457890809008
 21
9.065402550944543
 31
0.0
  0
LINE
  5
4A4
330
1F
100
AcDbEntity
  8
Object
100
AcDbLine
 10
6.669457890809009
 20
8.964402550944544
 30
0.0
 11
6.687457890809008
 21
8.974402550944544
 31
0.0
  0
LINE
  5
4A5
330
1F
100
AcDbEntity
  8
Object
100
AcDbLine
 10
6.670457890809008
 20
9.025402550944544
 30
0.0
 11
6.676457890809008
 21
9.033402550944543
 31
0.0
  0
LINE
  5
4A6
330
1F
100
AcDbEntity
  8
Object
100
AcDbLine
 10
6.613457890809009
 20
8.964402550944544
 30
0.0
 11
6.669457890809009
 21
8.964402550944544
 31
0.0
  0
LINE
  5
4A7
330
1F
100
AcDbEntity
  8
Object
100
AcDbLine
 10
6.669457890809009
 20
9.015402550944545
 30
0.0
 11
6.613457890809009
 21
9.015402550944545
 31
0.0
  0
LINE
  5
4A8
330
1F
100
AcDbEntity
  8
Object
100
AcDbLine
 10
6.613457890809009
 20
9.025402550944544
 30
0.0
 11
6.670457890809008
 21
9.025402550944544
 31
0.0
  0
LINE
  5
4A9
330
1F
100
AcDbEntity
  8
Object
100
AcDbLine
 10
5.217457890809009
 20
9.020402550944545
 30
0.0
 11
5.243457890809009
 21
9.034402550944545
 31
0.0
  0
LINE
  5
4AA
330
1F
100
AcDbEntity
  8
Object
100
AcDbLine
 10
5.217457890809009
 20
9.065402550944543
 30
0.0
 11
5.169457890809009
 21
9.065402550944543
 31
0.0
  0
LINE
  5
4AB
330
1F
100
AcDbEntity
  8
Object
100
AcDbLine
 10
5.243457890809009
 20
9.034402550944545
 30
0.0
 11
5.243457890809009
 21
9.052402550944545
 31
0.0
  0
LINE
  5
4AC
330
1F
100
AcDbEntity
  8
Object
100
AcDbLine
 10
5.169457890809009
 20
9.020402550944545
 30
0.0
 11
5.217457890809009
 21
9.020402550944545
 31
0.0
  0
LINE
  5
4AD
330
1F
100
AcDbEntity
  8
Object
100
AcDbLine
 10
5.243457890809009
 20
9.052402550944545
 30
0.0
 11
5.217457890809009
 21
9.065402550944543
 31
0.0
  0
LINE
  5
4AE
330
1F
100
AcDbEntity
  8
Object
100
AcDbLine
 10
5.169457890809009
 20
9.065402550944543
 30
0.0
 11
5.169457890809009
 21
9.020402550944545
 31
0.0
  0
LINE
  5
4AF
330
1F
100
AcDbEntity
  8
Object
100
AcDbLine
 10
5.680457890809009
 20
9.038402550944544
 30
0.0
 11
5.655457890809008
 21
9.065402550944543
 31
0.0
  0
LINE
  5
4B0
330
1F
100
AcDbEntity
  8
Object
100
AcDbLine
 10
5.606457890809008
 20
8.964402550944544
 30
0.0
 11
5.655457890809008
 21
8.964402550944544
 31
0.0
  0
LINE
  5
4B1
330
1F
100
AcDbEntity
  8
Object
100
AcDbLine
 10
5.655457890809008
 20
8.964402550944544
 30
0.0
 11
5.680457890809009
 21
8.991402550944545
 31
0.0
  0
LINE
  5
4B2
330
1F
100
AcDbEntity
  8
Object
100
AcDbLine
 10
5.680457890809009
 20
8.991402550944545
 30
0.0
 11
5.680457890809009
 21
9.038402550944544
 31
0.0
  0
LINE
  5
4B3
330
1F
100
AcDbEntity
  8
Object
100
AcDbLine
 10
5.655457890809008
 20
9.065402550944543
 30
0.0
 11
5.606457890809008
 21
9.065402550944543
 31
0.0
  0
LINE
  5
4B4
330
1F
100
AcDbEntity
  8
Object
100
AcDbLine
 10
5.606457890809008
 20
9.065402550944543
 30
0.0
 11
5.606457890809008
 21
8.964402550944544
 31
0.0
  0
LINE
  5
4B5
330
1F
100
AcDbEntity
  8
Object
100
AcDbLine
 10
5.377457890809009
 20
8.986402550944545
 30
0.0
 11
5.327457890809008
 21
8.986402550944545
 31
0.0
  0
LINE
  5
4B6
330
1F
100
AcDbEntity
  8
Object
100
AcDbLine
 10
5.327457890809008
 20
8.986402550944545
 30
0.0
 11
5.353457890809009
 21
9.054402550944544
 31
0.0
  0
LINE
  5
4B7
330
1F
100
AcDbEntity
  8
Object
100
AcDbLine
 10
5.353457890809009
 20
9.054402550944544
 30
0.0
 11
5.377457890809009
 21
8.986402550944545
 31
0.0
  0
LINE
  5
4B8
330
1F
100
AcDbEntity
  8
Object
100
AcDbLine
 10
6.516457890809008
 20
9.020402550944545
 30
0.0
 11
6.542457890809009
 21
9.034402550944545
 31
0.0
  0
LINE
  5
4B9
330
1F
100
AcDbEntity
  8
Object
100
AcDbLine
 10
6.516457890809008
 20
9.065402550944543
 30
0.0
 11
6.542457890809009
 21
9.052402550944545
 31
0.0
  0
LINE
  5
4BA
330
1F
100
AcDbEntity
  8
Object
100
AcDbLine
 10
6.542457890809009
 20
9.052402550944545
 30
0.0
 11
6.542457890809009
 21
9.034402550944545
 31
0.0
  0
LINE
  5
4BB
330
1F
100
AcDbEntity
  8
Object
100
AcDbLine
 10
6.516457890809008
 20
9.020402550944545
 30
0.0
 11
6.468457890809008
 21
9.020402550944545
 31
0.0
  0
LINE
  5
4BC
330
1F
100
AcDbEntity
  8
Object
100
AcDbLine
 10
6.468457890809008
 20
9.020402550944545
 30
0.0
 11
6.468457890809008
 21
9.065402550944543
 31
0.0
  0
LINE
  5
4BD
330
1F
100
AcDbEntity
  8
Object
100
AcDbLine
 10
6.468457890809008
 20
9.065402550944543
 30
0.0
 11
6.516457890809008
 21
9.065402550944543
 31
0.0
  0
LINE
  5
4BE
330
1F
100
AcDbEntity
  8
Object
100
AcDbLine
 10
6.669457890809009
 20
9.015402550944545
 30
0.0
 11
6.687457890809008
 21
9.003402550944544
 31
0.0
  0
LINE
  5
4BF
330
1F
100
AcDbEntity
  8
Object
100
AcDbLine
 10
6.687457890809008
 20
9.003402550944544
 30
0.0
 11
6.687457890809008
 21
8.974402550944544
 31
0.0
  0
LINE
  5
4C0
330
1F
100
AcDbEntity
  8
Object
100
AcDbLine
 10
6.687457890809008
 20
8.974402550944544
 30
0.0
 11
6.669457890809009
 21
8.964402550944544
 31
0.0
  0
LINE
  5
4C1
330
1F
100
AcDbEntity
  8
Object
100
AcDbLine
 10
6.669457890809009
 20
8.964402550944544
 30
0.0
 11
6.613457890809009
 21
8.964402550944544
 31
0.0
  0
LINE
  5
4C2
330
1F
100
AcDbEntity
  8
Object
100
AcDbLine
 10
6.613457890809009
 20
8.964402550944544
 30
0.0
 11
6.613457890809009
 21
9.015402550944545
 31
0.0
  0
LINE
  5
4C3
330
1F
100
AcDbEntity
  8
Object
100
AcDbLine
 10
6.613457890809009
 20
9.015402550944545
 30
0.0
 11
6.669457890809009
 21
9.015402550944545
 31
0.0
  0
LINE
  5
4C4
330
1F
100
AcDbEntity
  8
Object
100
AcDbLine
 10
6.670457890809008
 20
9.025402550944544
 30
0.0
 11
6.676457890809008
 21
9.033402550944543
 31
0.0
  0
LINE
  5
4C5
330
1F
100
AcDbEntity
  8
Object
100
AcDbLine
 10
6.670457890809008
 20
9.065402550944543
 30
0.0
 11
6.676457890809008
 21
9.059402550944543
 31
0.0
  0
LINE
  5
4C6
330
1F
100
AcDbEntity
  8
Object
100
AcDbLine
 10
6.676457890809008
 20
9.059402550944543
 30
0.0
 11
6.676457890809008
 21
9.033402550944543
 31
0.0
  0
LINE
  5
4C7
330
1F
100
AcDbEntity
  8
Object
100
AcDbLine
 10
6.670457890809008
 20
9.025402550944544
 30
0.0
 11
6.613457890809009
 21
9.025402550944544
 31
0.0
  0
LINE
  5
4C8
330
1F
100
AcDbEntity
  8
Object
100
AcDbLine
 10
6.613457890809009
 20
9.025402550944544
 30
0.0
 11
6.613457890809009
 21
9.065402550944543
 31
0.0
  0
LINE
  5
4C9
330
1F
100
AcDbEntity
  8
Object
100
AcDbLine
 10
6.613457890809009
 20
9.065402550944543
 30
0.0
 11
6.670457890809008
 21
9.065402550944543
 31
0.0
  0
LINE
  5
4CA
330
1F
100
AcDbEntity
  8
Object
100
AcDbLine
 10
5.217457890809009
 20
9.065402550944543
 30
0.0
 11
5.243457890809009
 21
9.052402550944545
 31
0.0
  0
LINE
  5
4CB
330
1F
100
AcDbEntity
  8
Object
100
AcDbLine
 10
5.243457890809009
 20
9.052402550944545
 30
0.0
 11
5.243457890809009
 21
9.034402550944545
 31
0.0
  0
LINE
  5
4CC
330
1F
100
AcDbEntity
  8
Object
100
AcDbLine
 10
5.243457890809009
 20
9.034402550944545
 30
0.0
 11
5.217457890809009
 21
9.020402550944545
 31
0.0
  0
LINE
  5
4CD
330
1F
100
AcDbEntity
  8
Object
100
AcDbLine
 10
5.217457890809009
 20
9.020402550944545
 30
0.0
 11
5.169457890809009
 21
9.020402550944545
 31
0.0
  0
LINE
  5
4CE
330
1F
100
AcDbEntity
  8
Object
100
AcDbLine
 10
5.169457890809009
 20
9.020402550944545
 30
0.0
 11
5.169457890809009
 21
9.065402550944543
 31
0.0
  0
LINE
  5
4CF
330
1F
100
AcDbEntity
  8
Object
100
AcDbLine
 10
5.169457890809009
 20
9.065402550944543
 30
0.0
 11
5.217457890809009
 21
9.065402550944543
 31
0.0
  0
LINE
  5
4D0
330
1F
100
AcDbEntity
  8
Object
100
AcDbLine
 10
5.655457890809008
 20
9.065402550944543
 30
0.0
 11
5.680457890809009
 21
9.038402550944544
 31
0.0
  0
LINE
  5
4D1
330
1F
100
AcDbEntity
  8
Object
100
AcDbLine
 10
5.680457890809009
 20
9.038402550944544
 30
0.0
 11
5.680457890809009
 21
8.991402550944545
 31
0.0
  0
LINE
  5
4D2
330
1F
100
AcDbEntity
  8
Object
100
AcDbLine
 10
5.680457890809009
 20
8.991402550944545
 30
0.0
 11
5.655457890809008
 21
8.964402550944544
 31
0.0
  0
LINE
  5
4D3
330
1F
100
AcDbEntity
  8
Object
100
AcDbLine
 10
5.655457890809008
 20
8.964402550944544
 30
0.0
 11
5.606457890809008
 21
8.964402550944544
 31
0.0
  0
LINE
  5
4D4
330
1F
100
AcDbEntity
  8
Object
100
AcDbLine
 10
5.606457890809008
 20
8.964402550944544
 30
0.0
 11
5.606457890809008
 21
9.065402550944543
 31
0.0
  0
LINE
  5
4D5
330
1F
100
AcDbEntity
  8
Object
100
AcDbLine
 10
5.606457890809008
 20
9.065402550944543
 30
0.0
 11
5.655457890809008
 21
9.065402550944543
 31
0.0
  0
LINE
  5
4D6
330
1F
100
AcDbEntity
  8
Object
100
AcDbLine
 10
5.327457890809008
 20
8.986402550944545
 30
0.0
 11
5.353457890809009
 21
9.054402550944544
 31
0.0
  0
LINE
  5
4D7
330
1F
100
AcDbEntity
  8
Object
100
AcDbLine
 10
5.353457890809009
 20
9.054402550944544
 30
0.0
 11
5.377457890809009
 21
8.986402550944545
 31
0.0
  0
LINE
  5
4D8
330
1F
100
AcDbEntity
  8
Object
100
AcDbLine
 10
5.377457890809009
 20
8.986402550944545
 30
0.0
 11
5.327457890809008
 21
8.986402550944545
 31
0.0
  0
DIMENSION
  5
513
102
{ACAD_XDICTIONARY
360
521
102
}
102
{ACAD_REACTORS
330
52C
102
}
330
1F
100
AcDbEntity
  8
Dimension
100
AcDbDimension
  2
*D2
 10
8.248457890809008
 20
5.302175706722188
 30
0.0
 11
5.248457890809008
 21
5.302175706722188
 31
0.0
 70
    32
 71
     5
 42
6.0
  3
Standard
100
AcDbAlignedDimension
 13
2.248457890809008
 23
4.711402550944544
 33
0.0
 14
8.248457890809008
 24
4.711402550944544
 34
0.0
100
AcDbRotatedDimension
  0
DIMENSION
  5
52E
102
{ACAD_XDICTIONARY
360
53D
102
}
102
{ACAD_REACTORS
330
549
102
}
330
1F
100
AcDbEntity
  8
Dimension
100
AcDbDimension
  2
*D3
 10
12.22575908568888
 20
4.591402550944544
 30
0.0
 11
11.65740382253099
 21
4.341402550944546
 31
0.0
 70
    32
 71
     5
 42
0.1200000000000001
  3
Standard
100
AcDbAlignedDimension
 13
12.87345789080901
 23
4.711402550944544
 33
0.0
 14
12.87345789080901
 24
4.591402550944544
 34
0.0
 50
90.0
100
AcDbRotatedDimension
  0
DIMENSION
  5
54B
102
{ACAD_XDICTIONARY
360
559
102
}
102
{ACAD_REACTORS
330
564
102
}
330
1F
100
AcDbEntity
  8
Dimension
100
AcDbDimension
  2
*D4
 10
2.975457890809009
 20
7.514181957078779
 30
0.0
 11
2.364734206598482
 21
7.514181957078779
 31
0.0
 70
    32
  1
0.55 [13.9mm]
 71
     5
 42
0.5459999999999994
  3
Standard
100
AcDbAlignedDimension
 13
3.521457890809008
 23
8.072402550944545
 33
0.0
 14
2.975457890809009
 24
8.072402550944545
 34
0.0
100
AcDbRotatedDimension
  0
MTEXT
  5
591
330
1F
100
AcDbEntity
  8
Text
100
AcDbMText
 10
6.376628153647693
 20
0.8732951697642468
 30
0.0
 40
0.09
 41
0.25
 71
     5
 72
     5
  1
1
 73
     1
 44
1.0
1001
ACAD
1000
MTEXTBEGIN
1070
    73
1070
     1
1070
    44
1040
1.0
1070
    74
1070
     0
1000
MTEXTEND
  0
MTEXT
  5
592
330
1F
100
AcDbEntity
  8
Text
100
AcDbMText
 10
6.751628153647693
 20
0.8732951697642468
 30
0.0
 40
0.07
 41
0.5
 71
     5
 72
     5
  1
1-17-07
 73
     1
 44
1.0
1001
ACAD
1000
MTEXTBEGIN
1070
    73
1070
     1
1070
    44
1040
1.0
1070
    74
1070
     0
1000
MTEXTEND
  0
MTEXT
  5
593
330
1F
100
AcDbEntity
  8
Text
100
AcDbMText
 10
7.189128153647693
 20
0.8732951697642468
 30
0.0
 40
0.09
 41
0.375
 71
     5
 72
     5
  1
MSO
 73
     1
 44
1.0
1001
ACAD
1000
MTEXTBEGIN
1070
    73
1070
     1
1070
    44
1040
1.0
1070
    74
1070
     0
1000
MTEXTEND
  0
MTEXT
  5
594
330
1F
100
AcDbEntity
  8
Text
100
AcDbMText
 10
7.776628153647694
 20
0.8732951697642462
 30
0.0
 40
0.07
 41
2.75
 71
     4
 72
     5
  1
B. REVISED DRAWING SIZE; WAS A-SIZE.\PA. REVISED DRAWING TITLE.
 73
     1
 44
1.0
1001
ACAD
1000
MTEXTBEGIN
1070
    73
1070
     1
1070
    44
1040
1.0
1070
    74
1070
     0
1000
MTEXTEND
  0
MTEXT
  5
595
330
1F
100
AcDbEntity
  8
Text
100
AcDbMText
 10
7.560400281422712
 20
0.8762490740326631
 30
0.0
 40
0.07
 41
0.375
 71
     5
 72
     5
  1
DJWA
 73
     1
 44
1.0
1001
ACAD
1000
MTEXTBEGIN
1070
    73
1070
     1
1070
    44
1040
1.0
1070
    74
1070
     0
1000
MTEXTEND
  0
MTEXT
  5
596
330
1F
100
AcDbEntity
  8
Text
100
AcDbMText
 10
6.376628153647693
 20
1.123295169764246
 30
0.0
 40
0.09
 41
0.25
 71
     5
 72
     5
  1
-
 73
     1
 44
1.0
1001
ACAD
1000
MTEXTBEGIN
1070
    73
1070
     1
1070
    44
1040
1.0
1070
    74
1070
     0
1000
MTEXTEND
  0
MTEXT
  5
597
330
1F
100
AcDbEntity
  8
Text
100
AcDbMText
 10
6.751628153647693
 20
1.123295169764246
 30
0.0
 40
0.07
 41
0.5
 71
     5
 72
     5
  1
--------
 73
     1
 44
1.0
1001
ACAD
1000
MTEXTBEGIN
1070
    73
1070
     1
1070
    44
1040
1.0
1070
    74
1070
     0
1000
MTEXTEND
  0
MTEXT
  5
598
330
1F
100
AcDbEntity
  8
Text
100
AcDbMText
 10
7.189128153647693
 20
1.123295169764246
 30
0.0
 40
0.09
 41
0.375
 71
     5
 72
     5
  1
---
 73
     1
 44
1.0
1001
ACAD
1000
MTEXTBEGIN
1070
    73
1070
     1
1070
    44
1040
1.0
1070
    74
1070
     0
1000
MTEXTEND
  0
MTEXT
  5
599
330
1F
100
AcDbEntity
  8
Text
100
AcDbMText
 10
7.776628153647694
 20
1.123295169764246
 30
0.0
 40
0.07
 41
2.75
 71
     4
 72
     5
  1
D. ADDED GENERAL NOTES.\PC. REVISED PART GEOMETRY.
 73
     1
 44
1.0
1001
ACAD
1000
MTEXTBEGIN
1070
    73
1070
     1
1070
    44
1040
1.0
1070
    74
1070
     0
1000
MTEXTEND
  0
MTEXT
  5
59A
330
1F
100
AcDbEntity
  8
Text
100
AcDbMText
 10
7.560400281422712
 20
1.126249074032663
 30
0.0
 40
0.07
 41
0.375
 71
     5
 72
     5
  1
----
 73
     1
 44
1.0
1001
ACAD
1000
MTEXTBEGIN
1070
    73
1070
     1
1070
    44
1040
1.0
1070
    74
1070
     0
1000
MTEXTEND
  0
LINE
  5
59F
330
1F
100
AcDbEntity
  8
Text
100
AcDbLine
 10
12.76412685299815
 20
1.514121171150497
 30
0.0
 11
13.06412685299816
 21
1.514121171150497
 31
0.0
  0
LINE
  5
5A0
330
1F
100
AcDbEntity
  8
Text
100
AcDbLine
 10
13.06412685299816
 20
1.514121171150497
 30
0.0
 11
12.91412685299816
 21
1.773928792285826
 31
0.0
  0
LINE
  5
5A1
330
1F
100
AcDbEntity
  8
Text
100
AcDbLine
 10
12.76412685299816
 20
1.514121171150497
 30
0.0
 11
12.91412685299816
 21
1.773928792285826
 31
0.0
  0
TEXT
  5
5A2
330
1F
100
AcDbEntity
  8
Text
100
AcDbText
 10
12.87369334007948
 20
1.564971197873321
 30
0.0
 40
0.09
  1
A
100
AcDbText
  0
LINE
  5
5AD
330
1F
100
AcDbEntity
  8
Text
100
AcDbLine
 10
16.35238419666863
 20
0.7575752289807181
 30
0.0
 11
16.65238419666863
 21
0.7575752289807181
 31
0.0
  0
LINE
  5
5AE
330
1F
100
AcDbEntity
  8
Text
100
AcDbLine
 10
16.65238419666863
 20
0.7575752289807181
 30
0.0
 11
16.50238419666863
 21
1.017382850116046
 31
0.0
  0
LINE
  5
5AF
330
1F
100
AcDbEntity
  8
Text
100
AcDbLine
 10
16.35238419666863
 20
0.7575752289807181
 30
0.0
 11
16.50238419666863
 21
1.017382850116046
 31
0.0
  0
TEXT
  5
5B0
330
1F
100
AcDbEntity
  8
Text
100
AcDbText
 10
16.46195068374995
 20
0.8084252557035416
 30
0.0
 40
0.09
  1
B
100
AcDbText
  0
LINE
  5
5B5
330
1F
100
AcDbEntity
  8
Text
100
AcDbLine
 10
12.47340333204193
 20
4.02918526214623
 30
0.0
 11
12.77340333204193
 21
4.02918526214623
 31
0.0
  0
LINE
  5
5B6
330
1F
100
AcDbEntity
  8
Text
100
AcDbLine
 10
12.77340333204193
 20
4.02918526214623
 30
0.0
 11
12.62340333204193
 21
4.288992883281558
 31
0.0
  0
LINE
  5
5B7
330
1F
100
AcDbEntity
  8
Text
100
AcDbLine
 10
12.47340333204193
 20
4.02918526214623
 30
0.0
 11
12.62340333204193
 21
4.288992883281558
 31
0.0
  0
TEXT
  5
5B8
330
1F
100
AcDbEntity
  8
Text
100
AcDbText
 10
12.58296981912325
 20
4.080035288869053
 30
0.0
 40
0.09
  1
C
100
AcDbText
  0
LINE
  5
5BC
330
1F
100
AcDbEntity
  8
Text
100
AcDbLine
 10
4.511292592183441
 20
7.484731629032802
 30
0.0
 11
4.811292592183441
 21
7.484731629032802
 31
0.0
  0
LINE
  5
5BD
330
1F
100
AcDbEntity
  8
Text
100
AcDbLine
 10
4.811292592183441
 20
7.484731629032802
 30
0.0
 11
4.661292592183443
 21
7.744539250168131
 31
0.0
  0
LINE
  5
5BE
330
1F
100
AcDbEntity
  8
Text
100
AcDbLine
 10
4.511292592183444
 20
7.484731629032802
 30
0.0
 11
4.661292592183443
 21
7.744539250168131
 31
0.0
  0
TEXT
  5
5BF
330
1F
100
AcDbEntity
  8
Text
100
AcDbText
 10
4.620859079264764
 20
7.535581655755626
 30
0.0
 40
0.09
  1
C
100
AcDbText
  0
LINE
  5
5C2
330
1F
100
AcDbEntity
  8
Text
100
AcDbLine
 10
4.379224331223941
 20
4.0348262415808
 30
0.0
 11
4.679224331223942
 21
4.0348262415808
 31
0.0
  0
LINE
  5
5C3
330
1F
100
AcDbEntity
  8
Text
100
AcDbLine
 10
4.679224331223942
 20
4.0348262415808
 30
0.0
 11
4.529224331223943
 21
4.294633862716128
 31
0.0
  0
LINE
  5
5C4
330
1F
100
AcDbEntity
  8
Text
100
AcDbLine
 10
4.379224331223944
 20
4.0348262415808
 30
0.0
 11
4.529224331223943
 21
4.294633862716128
 31
0.0
  0
TEXT
  5
5C5
330
1F
100
AcDbEntity
  8
Text
100
AcDbText
 10
4.488790818305265
 20
4.085676268303624
 30
0.0
 40
0.09
  1
C
100
AcDbText
  0
LINE
  5
5C6
330
1F
100
AcDbEntity
  8
Text
100
AcDbLine
 10
11.44418185649823
 20
10.21964540177524
 30
0.0
 11
11.74418185649823
 21
10.21964540177524
 31
0.0
  0
LINE
  5
5C7
330
1F
100
AcDbEntity
  8
Text
100
AcDbLine
 10
11.74418185649823
 20
10.21964540177524
 30
0.0
 11
11.59418185649823
 21
10.47945302291057
 31
0.0
  0
LINE
  5
5C8
330
1F
100
AcDbEntity
  8
Text
100
AcDbLine
 10
11.44418185649823
 20
10.21964540177524
 30
0.0
 11
11.59418185649823
 21
10.47945302291057
 31
0.0
  0
TEXT
  5
5C9
330
1F
100
AcDbEntity
  8
Text
100
AcDbText
 10
11.56136567038726
 20
10.26723218780074
 30
0.0
 40
0.09
  1
D
100
AcDbText
  0
MTEXT
  5
5EE
330
1F
100
AcDbEntity
  8
Text
100
AcDbMText
 10
6.376628153647693
 20
1.373295169764246
 30
0.0
 40
0.09
 41
0.25
 71
     5
 72
     5
  1
2
 73
     1
 44
1.0
1001
ACAD
1000
MTEXTBEGIN
1070
    73
1070
     1
1070
    44
1040
1.0
1070
    74
1070
     0
1000
MTEXTEND
  0
MTEXT
  5
5EF
330
1F
100
AcDbEntity
  8
Text
100
AcDbMText
 10
6.751628153647693
 20
1.373295169764246
 30
0.0
 40
0.07
 41
0.5
 71
     5
 72
     5
  1
6-7-07
 73
     1
 44
1.0
1001
ACAD
1000
MTEXTBEGIN
1070
    73
1070
     1
1070
    44
1040
1.0
1070
    74
1070
     0
1000
MTEXTEND
  0
MTEXT
  5
5F0
330
1F
100
AcDbEntity
  8
Text
100
AcDbMText
 10
7.189128153647693
 20
1.373295169764246
 30
0.0
 40
0.09
 41
0.375
 71
     5
 72
     5
  1
DTP
 73
     1
 44
1.0
1001
ACAD
1000
MTEXTBEGIN
1070
    73
1070
     1
1070
    44
1040
1.0
1070
    74
1070
     0
1000
MTEXTEND
  0
MTEXT
  5
5F1
330
1F
100
AcDbEntity
  8
Text
100
AcDbMText
 10
7.776628153647694
 20
1.373295169764246
 30
0.0
 40
0.07
 41
2.75
 71
     4
 72
     5
  1
E. REVISED DIMENSION
 73
     1
 44
1.0
1001
ACAD
1000
MTEXTBEGIN
1070
    73
1070
     1
1070
    44
1040
1.0
1070
    74
1070
     0
1000
MTEXTEND
  0
MTEXT
  5
5F2
330
1F
100
AcDbEntity
  8
Text
100
AcDbMText
 10
7.560400281422712
 20
1.376249074032663
 30
0.0
 40
0.07
 41
0.375
 71
     5
 72
     5
  1
DJWA
 73
     1
 44
1.0
1001
ACAD
1000
MTEXTBEGIN
1070
    73
1070
     1
1070
    44
1040
1.0
1070
    74
1070
     0
1000
MTEXTEND
  0
LINE
  5
5F3
330
1F
100
AcDbEntity
  8
Text
100
AcDbLine
 10
1.616671217832124
 20
7.386470100082561
 30
0.0
 11
1.916671217832124
 21
7.386470100082561
 31
0.0
  0
LINE
  5
5F4
330
1F
100
AcDbEntity
  8
Text
100
AcDbLine
 10
1.916671217832124
 20
7.386470100082561
 30
0.0
 11
1.766671217832126
 21
7.64627772121789
 31
0.0
  0
LINE
  5
5F5
330
1F
100
AcDbEntity
  8
Text
100
AcDbLine
 10
1.616671217832127
 20
7.386470100082561
 30
0.0
 11
1.766671217832126
 21
7.64627772121789
 31
0.0
  0
TEXT
  5
5F6
330
1F
100
AcDbEntity
  8
Text
100
AcDbText
 10
1.726237704913447
 20
7.437320126805385
 30
0.0
 40
0.09
  1
E
100
AcDbText
  0
ENDSEC
  0
SECTION
  2
OBJECTS
  0
DICTIONARY
  5
C
330
0
100
AcDbDictionary
281
     1
  3
ACAD_COLOR
350
73
  3
ACAD_GROUP
350
D
  3
ACAD_LAYOUT
350
1A
  3
ACAD_MATERIAL
350
72
  3
ACAD_MLINESTYLE
350
17
  3
ACAD_PLOTSETTINGS
350
19
  3
ACAD_PLOTSTYLENAME
350
E
  3
ACAD_TABLESTYLE
350
86
  3
ACDBHEADERROUNDTRIPXREC
350
610
  3
AcDbVariableDictionary
350
66
  0
DICTIONARY
  5
148
330
1F
100
AcDbDictionary
280
     1
281
     1
  3
ACAD_SORTENTS
360
149
  0
DICTIONARY
  5
521
330
513
100
AcDbDictionary
280
     1
281
     1
  3
ACAD_DIMASSOC
360
52C
  0
DICTIONARY
  5
53D
330
52E
100
AcDbDictionary
280
     1
281
     1
  3
ACAD_DIMASSOC
360
549
  0
DICTIONARY
  5
559
330
54B
100
AcDbDictionary
280
     1
281
     1
  3
ACAD_DIMASSOC
360
564
  0
DICTIONARY
  5
73
102
{ACAD_REACTORS
330
C
102
}
330
C
100
AcDbDictionary
281
     1
  0
DICTIONARY
  5
D
102
{ACAD_REACTORS
330
C
102
}
330
C
100
AcDbDictionary
281
     1
  0
DICTIONARY
  5
1A
102
{ACAD_REACTORS
330
C
102
}
330
C
100
AcDbDictionary
281
     1
  3
Layout1
350
59
  3
Layout2
350
5E
  3
Model
350
22
  0
DICTIONARY
  5
72
102
{ACAD_REACTORS
330
C
102
}
330
C
100
AcDbDictionary
281
     1
  0
DICTIONARY
  5
17
102
{ACAD_REACTORS
330
C
102
}
330
C
100
AcDbDictionary
281
     1
  3
Standard
350
18
  0
DICTIONARY
  5
19
102
{ACAD_REACTORS
330
C
102
}
330
C
100
AcDbDictionary
281
     1
  0
ACDBDICTIONARYWDFLT
  5
E
102
{ACAD_REACTORS
330
C
102
}
330
C
100
AcDbDictionary
281
     1
  3
Normal
350
F
100
AcDbDictionaryWithDefault
340
F
  0
DICTIONARY
  5
86
102
{ACAD_REACTORS
330
C
102
}
330
C
100
AcDbDictionary
281
     1
  3
Standard
350
87
  0
DICTIONARY
  5
610
102
{ACAD_REACTORS
330
C
102
}
330
C
100
AcDbDictionary
281
     1
  0
DICTIONARY
  5
66
102
{ACAD_REACTORS
330
C
102
}
330
C
100
AcDbDictionary
281
     1
  3
CTABLESTYLE
350
5D5
  3
DIMASSOC
350
67
  3
HIDETEXT
350
6B
  3
PROJECTNAME
350
60E
  0
SORTENTSTABLE
  5
149
102
{ACAD_REACTORS
330
148
102
}
330
148
100
AcDbSortentsTable
330
1F
331
124
  5
124
331
130
  5
130
331
118
  5
118
331
FD
  5
FD
331
10C
  5
10C
331
F1
  5
F1
331
131
  5
131
331
125
  5
125
331
119
  5
119
331
FE
  5
FE
331
10D
  5
10D
331
F2
  5
F2
331
132
  5
132
331
126
  5
126
331
11A
  5
11A
331
FF
  5
FF
331
10E
  5
10E
331
F3
  5
F3
331
133
  5
133
331
127
  5
127
331
11B
  5
11B
331
100
  5
100
331
10F
  5
10F
331
F4
  5
F4
331
134
  5
134
331
11C
  5
11C
331
128
  5
128
331
101
  5
101
331
110
  5
110
331
135
  5
135
331
F5
  5
F5
331
11D
  5
11D
331
129
  5
129
331
111
  5
111
331
102
  5
102
331
136
  5
136
331
F6
  5
F6
331
11E
  5
11E
331
12A
  5
12A
331
112
  5
112
331
103
  5
103
331
137
  5
137
331
F7
  5
F7
331
11F
  5
11F
331
12B
  5
12B
331
113
  5
113
331
104
  5
104
331
138
  5
138
331
F8
  5
F8
331
120
  5
120
331
12C
  5
12C
331
114
  5
114
331
105
  5
105
331
108
  5
108
331
139
  5
139
331
F9
  5
F9
331
121
  5
121
331
12D
  5
12D
331
106
  5
106
331
115
  5
115
331
FA
  5
FA
331
109
  5
109
331
13A
  5
13A
331
122
  5
122
331
12E
  5
12E
331
107
  5
107
331
116
  5
116
331
FB
  5
FB
331
10A
  5
10A
331
123
  5
123
331
12F
  5
12F
331
117
  5
117
331
FC
  5
FC
331
10B
  5
10B
  0
DIMASSOC
  5
52C
102
{ACAD_REACTORS
330
521
102
}
330
521
100
AcDbDimAssoc
330
513
 90
        3
 70
     0
 71
     0
  1
AcDbOsnapPointRef
 72
    13
331
2A3
 73
     2
 91
        0
 40
0.0
 10
0.0
 20
0.0
 30
2.000000000000000E+50
 75
     0
  1
AcDbOsnapPointRef
 72
    13
331
277
 73
     2
 91
        0
 40
0.0
 10
0.0
 20
0.0
 30
2.000000000000000E+50
 75
     0
  0
DIMASSOC
  5
549
102
{ACAD_REACTORS
330
53D
102
}
330
53D
100
AcDbDimAssoc
330
52E
 90
        3
 70
     0
 71
     0
  1
AcDbOsnapPointRef
 72
    13
331
235
 73
     2
 91
        0
 40
0.0
 10
0.0
 20
0.0
 30
2.000000000000000E+50
 75
     0
  1
AcDbOsnapPointRef
 72
     1
331
23C
 73
     2
 91
        0
 40
1.0
 10
0.0
 20
0.0
 30
2.000000000000000E+50
 75
     0
  0
DIMASSOC
  5
564
102
{ACAD_REACTORS
330
559
102
}
330
559
100
AcDbDimAssoc
330
54B
 90
        3
 70
     0
 71
     0
  1
AcDbOsnapPointRef
 72
     1
331
485
 73
     2
 91
        0
 40
1.0
 10
0.0
 20
0.0
 30
2.000000000000000E+50
 75
     0
  1
AcDbOsnapPointRef
 72
    13
331
426
 73
     2
 91
        0
 40
0.0
 10
0.0
 20
0.0
 30
2.000000000000000E+50
 75
     0
  0
LAYOUT
  5
59
102
{ACAD_XDICTIONARY
360
613
102
}
102
{ACAD_REACTORS
330
1A
102
}
330
1A
100
AcDbPlotSettings
  1

  2
None
  4

  6

 40
0.0
 41
0.0
 42
0.0
 43
0.0
 44
0.0
 45
0.0
 46
0.0
 47
0.0
 48
0.0
 49
0.0
140
0.0
141
0.0
142
1.0
143
1.0
 70
   688
 72
     0
 73
     0
 74
     5
  7

 75
    16
147
1.0
148
0.0
149
0.0
100
AcDbLayout
  1
Layout1
 70
     1
 71
     1
 10
0.0
 20
0.0
 11
12.0
 21
9.0
 12
0.0
 22
0.0
 32
0.0
 14
0.0
 24
0.0
 34
0.0
 15
0.0
 25
0.0
 35
0.0
146
0.0
 13
0.0
 23
0.0
 33
0.0
 16
1.0
 26
0.0
 36
0.0
 17
0.0
 27
1.0
 37
0.0
 76
     0
330
58
  0
LAYOUT
  5
5E
102
{ACAD_XDICTIONARY
360
615
102
}
102
{ACAD_REACTORS
330
1A
102
}
330
1A
100
AcDbPlotSettings
  1

  2
None
  4

  6

 40
0.0
 41
0.0
 42
0.0
 43
0.0
 44
0.0
 45
0.0
 46
0.0
 47
0.0
 48
0.0
 49
0.0
140
0.0
141
0.0
142
1.0
143
1.0
 70
   688
 72
     0
 73
     0
 74
     5
  7

 75
    16
147
1.0
148
0.0
149
0.0
100
AcDbLayout
  1
Layout2
 70
     1
 71
     2
 10
0.0
 20
0.0
 11
12.0
 21
9.0
 12
0.0
 22
0.0
 32
0.0
 14
0.0
 24
0.0
 34
0.0
 15
0.0
 25
0.0
 35
0.0
146
0.0
 13
0.0
 23
0.0
 33
0.0
 16
1.0
 26
0.0
 36
0.0
 17
0.0
 27
1.0
 37
0.0
 76
     0
330
5D
  0
LAYOUT
  5
22
102
{ACAD_XDICTIONARY
360
611
102
}
102
{ACAD_REACTORS
330
1A
102
}
330
1A
100
AcDbPlotSettings
  1

  2
none_device
  4
ANSI_A_(8.50_x_11.00_Inches)
  6

 40
6.349999904632568
 41
19.04999923706055
 42
6.350006103515625
 43
19.04998779296875
 44
215.8999938964844
 45
279.3999938964844
 46
0.0
 47
0.0
 48
0.0
 49
0.0
140
0.0
141
0.0
142
1.0
143
2.584895464708373
 70
 11952
 72
     0
 73
     1
 74
     0
  7

 75
     0
147
0.3868628397755418
148
0.0
149
0.0
100
AcDbLayout
  1
Model
 70
     1
 71
     0
 10
0.0
 20
0.0
 11
12.0
 21
9.0
 12
0.0
 22
0.0
 32
0.0
 14
0.0
 24
0.0
 34
0.0
 15
0.0
 25
0.0
 35
0.0
146
0.0
 13
0.0
 23
0.0
 33
0.0
 16
1.0
 26
0.0
 36
0.0
 17
0.0
 27
1.0
 37
0.0
 76
     0
330
1F
  0
MLINESTYLE
  5
18
102
{ACAD_REACTORS
330
17
102
}
330
17
100
AcDbMlineStyle
  2
STANDARD
 70
     0
  3

 62
   256
 51
90.0
 52
90.0
 71
     2
 49
0.5
 62
   256
  6
BYLAYER
 49
-0.5
 62
   256
  6
BYLAYER
  0
ACDBPLACEHOLDER
  5
F
102
{ACAD_REACTORS
330
E
102
}
330
E
  0
TABLESTYLE
  5
87
102
{ACAD_REACTORS
330
86
102
}
330
86
100
AcDbTableStyle
  3
Standard
 70
     0
 71
     0
 40
0.06
 41
0.06
280
     0
281
     0
  7
Standard
140
0.18
170
     2
 62
     0
 63
     7
283
     0
274
    -2
284
     1
 64
     0
275
    -2
285
     1
 65
     0
276
    -2
286
     1
 66
     0
277
    -2
287
     1
 67
     0
278
    -2
288
     1
 68
     0
279
    -2
289
     1
 69
     0
  7
Standard
140
0.25
170
     5
 62
     0
 63
     7
283
     0
274
    -2
284
     1
 64
     0
275
    -2
285
     1
 65
     0
276
    -2
286
     1
 66
     0
277
    -2
287
     1
 67
     0
278
    -2
288
     1
 68
     0
279
    -2
289
     1
 69
     0
  7
Standard
140
0.18
170
     5
 62
     0
 63
     7
283
     0
274
    -2
284
     1
 64
     0
275
    -2
285
     1
 65
     0
276
    -2
286
     1
 66
     0
277
    -2
287
     1
 67
     0
278
    -2
288
     1
 68
     0
279
    -2
289
     1
 69
     0
  0
DICTIONARYVAR
  5
5D5
102
{ACAD_REACTORS
330
66
102
}
330
66
100
DictionaryVariables
280
     0
  1
STANDARD
  0
DICTIONARYVAR
  5
67
102
{ACAD_REACTORS
330
66
102
}
330
66
100
DictionaryVariables
280
     0
  1
2
  0
DICTIONARYVAR
  5
6B
102
{ACAD_REACTORS
330
66
102
}
330
66
100
DictionaryVariables
280
     0
  1
1
  0
DICTIONARYVAR
  5
60E
102
{ACAD_REACTORS
330
66
102
}
330
66
100
DictionaryVariables
280
     0
  1

  0
DICTIONARY
  5
613
330
59
100
AcDbDictionary
280
     1
281
     1
  3
ACAD_XREC_ROUNDTRIP
360
614
  0
DICTIONARY
  5
615
330
5E
100
AcDbDictionary
280
     1
281
     1
  3
ACAD_XREC_ROUNDTRIP
360
616
  0
DICTIONARY
  5
611
330
22
100
AcDbDictionary
280
     1
281
     1
  3
ACAD_XREC_ROUNDTRIP
360
612
  0
XRECORD
  5
614
102
{ACAD_REACTORS
330
613
102
}
330
613
100
AcDbXrecord
280
     1
102
SHADEPLOT
 70
     0
102
SHADEPLOTRESLEVEL
 70
     2
102
SHADEPLOTCUSTOMDPI
 70
   300
  0
XRECORD
  5
616
102
{ACAD_REACTORS
330
615
102
}
330
615
100
AcDbXrecord
280
     1
102
SHADEPLOT
 70
     0
102
SHADEPLOTRESLEVEL
 70
     2
102
SHADEPLOTCUSTOMDPI
 70
   300
  0
XRECORD
  5
612
102
{ACAD_REACTORS
330
611
102
}
330
611
100
AcDbXrecord
280
     1
102
SHADEPLOT
 70
     0
102
SHADEPLOTRESLEVEL
 70
     2
102
SHADEPLOTCUSTOMDPI
 70
   300
  0
ENDSEC
  0
EOF
