  0
SECTION
  2
HEADER
  9
$ACADVER
  1
AC1015
  9
$ACADMAINTVER
 70
    20
  9
$DWGCODEPAGE
  3
ANSI_1252
  9
$INSBASE
 10
0.0
 20
0.0
 30
0.0
  9
$EXTMIN
 10
-0.075
 20
-0.075
 30
0.0
  9
$EXTMAX
 10
44.075
 20
34.07500000000001
 30
0.0
  9
$LIMMIN
 10
0.0
 20
0.0
  9
$LIMMAX
 10
12.0
 20
9.0
  9
$ORTHOMODE
 70
     0
  9
$REGENMODE
 70
     1
  9
$FILLMODE
 70
     1
  9
$QTEXTMODE
 70
     0
  9
$MIRRTEXT
 70
     1
  9
$LTSCALE
 40
1.0
  9
$ATTMODE
 70
     1
  9
$TEXTSIZE
 40
0.125
  9
$TRACEWID
 40
0.05
  9
$TEXTSTYLE
  7
STANDARD
  9
$CLAYER
  8
0
  9
$CELTYPE
  6
BYLAYER
  9
$CECOLOR
 62
   256
  9
$CELTSCALE
 40
1.0
  9
$DISPSILH
 70
     0
  9
$DIMSCALE
 40
1.0
  9
$DIMASZ
 40
0.125
  9
$DIMEXO
 40
0.0625
  9
$DIMDLI
 40
0.38
  9
$DIMRND
 40
0.0
  9
$DIMDLE
 40
0.0
  9
$DIMEXE
 40
0.125
  9
$DIMTP
 40
0.0
  9
$DIMTM
 40
0.0
  9
$DIMTXT
 40
0.09
  9
$DIMCEN
 40
0.09
  9
$DIMTSZ
 40
0.0
  9
$DIMTOL
 70
     0
  9
$DIMLIM
 70
     0
  9
$DIMTIH
 70
     1
  9
$DIMTOH
 70
     1
  9
$DIMSE1
 70
     0
  9
$DIMSE2
 70
     0
  9
$DIMTAD
 70
     0
  9
$DIMZIN
 70
     0
  9
$DIMBLK
  1

  9
$DIMASO
 70
     1
  9
$DIMSHO
 70
     1
  9
$DIMPOST
  1

  9
$DIMAPOST
  1
mm
  9
$DIMALT
 70
     1
  9
$DIMALTD
 70
     1
  9
$DIMALTF
 40
25.4
  9
$DIMLFAC
 40
1.0
  9
$DIMTOFL
 70
     0
  9
$DIMTVP
 40
0.0
  9
$DIMTIX
 70
     0
  9
$DIMSOXD
 70
     0
  9
$DIMSAH
 70
     0
  9
$DIMBLK1
  1

  9
$DIMBLK2
  1

  9
$DIMSTYLE
  2
STANDARD
  9
$DIMCLRD
 70
     0
  9
$DIMCLRE
 70
     0
  9
$DIMCLRT
 70
     0
  9
$DIMTFAC
 40
1.0
  9
$DIMGAP
 40
0.09
  9
$DIMJUST
 70
     0
  9
$DIMSD1
 70
     0
  9
$DIMSD2
 70
     0
  9
$DIMTOLJ
 70
     1
  9
$DIMTZIN
 70
     0
  9
$DIMALTZ
 70
     0
  9
$DIMALTTZ
 70
     0
  9
$DIMUPT
 70
     0
  9
$DIMDEC
 70
     2
  9
$DIMTDEC
 70
     2
  9
$DIMALTU
 70
     2
  9
$DIMALTTD
 70
     1
  9
$DIMTXSTY
  7
STANDARD
  9
$DIMAUNIT
 70
     0
  9
$DIMADEC
 70
     0
  9
$DIMALTRND
 40
0.0
  9
$DIMAZIN
 70
     0
  9
$DIMDSEP
 70
    46
  9
$DIMATFIT
 70
     3
  9
$DIMFRAC
 70
     0
  9
$DIMLDRBLK
  1

  9
$DIMLUNIT
 70
     2
  9
$DIMLWD
 70
    -2
  9
$DIMLWE
 70
    -2
  9
$DIMTMOVE
 70
     0
  9
$LUNITS
 70
     2
  9
$LUPREC
 70
     2
  9
$SKETCHINC
 40
0.1
  9
$FILLETRAD
 40
0.5
  9
$AUNITS
 70
     0
  9
$AUPREC
 70
     0
  9
$MENU
  1
.
  9
$ELEVATION
 40
0.0
  9
$PELEVATION
 40
0.0
  9
$THICKNESS
 40
0.0
  9
$LIMCHECK
 70
     0
  9
$CHAMFERA
 40
0.5
  9
$CHAMFERB
 40
0.5
  9
$CHAMFERC
 40
1.0
  9
$CHAMFERD
 40
0.0
  9
$SKPOLY
 70
     0
  9
$TDCREATE
 40
2451681.555436007
  9
$TDUCREATE
 40
2451681.763769340
  9
$TDUPDATE
 40
2454294.646287419
  9
$TDUUPDATE
 40
2454294.854620753
  9
$TDINDWG
 40
0.2332513657
  9
$TDUSRTIMER
 40
0.2332513657
  9
$USRTIMER
 70
     1
  9
$ANGBASE
 50
0.0
  9
$ANGDIR
 70
     0
  9
$PDMODE
 70
     2
  9
$PDSIZE
 40
0.075
  9
$PLINEWID
 40
0.0
  9
$SPLFRAME
 70
     0
  9
$SPLINETYPE
 70
     6
  9
$SPLINESEGS
 70
     8
  9
$HANDSEED
  5
579
  9
$SURFTAB1
 70
     6
  9
$SURFTAB2
 70
     6
  9
$SURFTYPE
 70
     6
  9
$SURFU
 70
     6
  9
$SURFV
 70
     6
  9
$UCSBASE
  2

  9
$UCSNAME
  2

  9
$UCSORG
 10
0.0
 20
0.0
 30
0.0
  9
$UCSXDIR
 10
1.0
 20
0.0
 30
0.0
  9
$UCSYDIR
 10
0.0
 20
1.0
 30
0.0
  9
$UCSORTHOREF
  2

  9
$UCSORTHOVIEW
 70
     1
  9
$UCSORGTOP
 10
0.0
 20
0.0
 30
0.0
  9
$UCSORGBOTTOM
 10
0.0
 20
0.0
 30
0.0
  9
$UCSORGLEFT
 10
0.0
 20
0.0
 30
0.0
  9
$UCSORGRIGHT
 10
0.0
 20
0.0
 30
0.0
  9
$UCSORGFRONT
 10
0.0
 20
0.0
 30
0.0
  9
$UCSORGBACK
 10
0.0
 20
0.0
 30
0.0
  9
$PUCSBASE
  2

  9
$PUCSNAME
  2

  9
$PUCSORG
 10
0.0
 20
0.0
 30
0.0
  9
$PUCSXDIR
 10
1.0
 20
0.0
 30
0.0
  9
$PUCSYDIR
 10
0.0
 20
1.0
 30
0.0
  9
$PUCSORTHOREF
  2

  9
$PUCSORTHOVIEW
 70
     0
  9
$PUCSORGTOP
 10
0.0
 20
0.0
 30
0.0
  9
$PUCSORGBOTTOM
 10
0.0
 20
0.0
 30
0.0
  9
$PUCSORGLEFT
 10
0.0
 20
0.0
 30
0.0
  9
$PUCSORGRIGHT
 10
0.0
 20
0.0
 30
0.0
  9
$PUCSORGFRONT
 10
0.0
 20
0.0
 30
0.0
  9
$PUCSORGBACK
 10
0.0
 20
0.0
 30
0.0
  9
$USERI1
 70
     0
  9
$USERI2
 70
     0
  9
$USERI3
 70
     0
  9
$USERI4
 70
     0
  9
$USERI5
 70
     0
  9
$USERR1
 40
0.0
  9
$USERR2
 40
0.0
  9
$USERR3
 40
0.0
  9
$USERR4
 40
0.0
  9
$USERR5
 40
0.0
  9
$WORLDVIEW
 70
     1
  9
$SHADEDGE
 70
     3
  9
$SHADEDIF
 70
    70
  9
$TILEMODE
 70
     1
  9
$MAXACTVP
 70
    48
  9
$PINSBASE
 10
0.0
 20
0.0
 30
0.0
  9
$PLIMCHECK
 70
     0
  9
$PEXTMIN
 10
1.000000000000000E+20
 20
1.000000000000000E+20
 30
1.000000000000000E+20
  9
$PEXTMAX
 10
-1.000000000000000E+20
 20
-1.000000000000000E+20
 30
-1.000000000000000E+20
  9
$PLIMMIN
 10
0.0
 20
0.0
  9
$PLIMMAX
 10
12.0
 20
9.0
  9
$UNITMODE
 70
     0
  9
$VISRETAIN
 70
     1
  9
$PLINEGEN
 70
     0
  9
$PSLTSCALE
 70
     1
  9
$TREEDEPTH
 70
  3020
  9
$CMLSTYLE
  2
STANDARD
  9
$CMLJUST
 70
     0
  9
$CMLSCALE
 40
1.0
  9
$PROXYGRAPHICS
 70
     1
  9
$MEASUREMENT
 70
     0
  9
$CELWEIGHT
370
    -1
  9
$ENDCAPS
280
     0
  9
$JOINSTYLE
280
     0
  9
$LWDISPLAY
290
     0
  9
$INSUNITS
 70
     0
  9
$HYPERLINKBASE
  1

  9
$STYLESHEET
  1

  9
$XEDIT
290
     1
  9
$CEPSNTYPE
380
     0
  9
$PSTYLEMODE
290
     1
  9
$FINGERPRINTGUID
  2
{B827B275-2F9A-40FA-A85C-600BE45E2DDE}
  9
$VERSIONGUID
  2
{4BC01F00-3268-4078-AA19-77139B930562}
  9
$EXTNAMES
290
     1
  9
$PSVPSCALE
 40
0.0
  9
$OLESTARTUP
290
     0
  0
ENDSEC
  0
SECTION
  2
CLASSES
  0
CLASS
  1
ACDBDICTIONARYWDFLT
  2
AcDbDictionaryWithDefault
  3
ObjectDBX Classes
 90
        0
280
     0
281
     0
  0
CLASS
  1
TABLESTYLE
  2
AcDbTableStyle
  3
ObjectDBX Classes
 90
     2047
280
     0
281
     0
  0
CLASS
  1
DICTIONARYVAR
  2
AcDbDictionaryVar
  3
ObjectDBX Classes
 90
        0
280
     0
281
     0
  0
CLASS
  1
ACDBPLACEHOLDER
  2
AcDbPlaceHolder
  3
ObjectDBX Classes
 90
        0
280
     0
281
     0
  0
CLASS
  1
LAYOUT
  2
AcDbLayout
  3
ObjectDBX Classes
 90
        0
280
     0
281
     0
  0
ENDSEC
  0
SECTION
  2
TABLES
  0
TABLE
  2
VPORT
  5
8
330
0
100
AcDbSymbolTable
 70
     2
  0
VPORT
  5
573
330
8
100
AcDbSymbolTableRecord
100
AcDbViewportTableRecord
  2
*Active
 70
     0
 10
0.0
 20
0.0
 11
1.0
 21
1.0
 12
22.00000041120087
 22
18.20253941531462
 13
0.0
 23
0.0
 14
0.5
 24
0.5
 15
0.5
 25
0.5
 16
0.0
 26
0.0
 36
1.0
 17
0.0
 27
0.0
 37
0.0
 40
36.77713482654877
 41
1.499364675984752
 42
50.0
 43
0.0
 44
0.0
 50
0.0
 51
0.0
 71
     0
 72
   100
 73
     1
 74
     1
 75
     0
 76
     0
 77
     0
 78
     0
281
     0
 65
     1
110
0.0
120
0.0
130
0.0
111
1.0
121
0.0
131
0.0
112
0.0
122
1.0
132
0.0
 79
     1
146
0.0
  0
ENDTAB
  0
TABLE
  2
LTYPE
  5
5
330
0
100
AcDbSymbolTable
 70
     1
  0
LTYPE
  5
12
330
5
100
AcDbSymbolTableRecord
100
AcDbLinetypeTableRecord
  2
BYBLOCK
 70
     0
  3

 72
    65
 73
     0
 40
0.0
  0
LTYPE
  5
13
330
5
100
AcDbSymbolTableRecord
100
AcDbLinetypeTableRecord
  2
BYLAYER
 70
     0
  3

 72
    65
 73
     0
 40
0.0
  0
LTYPE
  5
14
330
5
100
AcDbSymbolTableRecord
100
AcDbLinetypeTableRecord
  2
CONTINUOUS
 70
     0
  3
Solid line
 72
    65
 73
     0
 40
0.0
  0
ENDTAB
  0
TABLE
  2
LAYER
  5
2
102
{ACAD_XDICTIONARY
360
180
102
}
330
0
100
AcDbSymbolTable
 70
     6
  0
LAYER
  5
E
330
2
100
AcDbSymbolTableRecord
100
AcDbLayerTableRecord
  2
0
 70
     0
 62
     7
  6
CONTINUOUS
370
    -3
390
12F
  0
LAYER
  5
20
330
2
100
AcDbSymbolTableRecord
100
AcDbLayerTableRecord
  2
Title Block
 70
     0
 62
     3
  6
CONTINUOUS
370
    -3
390
12F
  0
LAYER
  5
21
330
2
100
AcDbSymbolTableRecord
100
AcDbLayerTableRecord
  2
Dimension
 70
     0
 62
     6
  6
CONTINUOUS
370
    -3
390
12F
  0
LAYER
  5
22
330
2
100
AcDbSymbolTableRecord
100
AcDbLayerTableRecord
  2
Text
 70
     0
 62
     1
  6
CONTINUOUS
370
    -3
390
12F
  0
LAYER
  5
23
330
2
100
AcDbSymbolTableRecord
100
AcDbLayerTableRecord
  2
Object
 70
     0
 62
     5
  6
CONTINUOUS
370
    -3
390
12F
  0
LAYER
  5
1A7
330
2
100
AcDbSymbolTableRecord
100
AcDbLayerTableRecord
  2
Defpoints
 70
     0
 62
     7
  6
CONTINUOUS
290
     0
370
    -3
390
12F
  0
ENDTAB
  0
TABLE
  2
STYLE
  5
3
330
0
100
AcDbSymbolTable
 70
     1
  0
STYLE
  5
F
330
3
100
AcDbSymbolTableRecord
100
AcDbTextStyleTableRecord
  2
STANDARD
 70
     0
 40
0.0
 41
1.0
 50
0.0
 71
     0
 42
0.125
  3
technic_.ttf
  4

1001
ACAD
1000
Technic
1071
      514
  0
ENDTAB
  0
TABLE
  2
VIEW
  5
6
330
0
100
AcDbSymbolTable
 70
     0
  0
ENDTAB
  0
TABLE
  2
UCS
  5
7
330
0
100
AcDbSymbolTable
 70
     0
  0
ENDTAB
  0
TABLE
  2
APPID
  5
9
330
0
100
AcDbSymbolTable
 70
     4
  0
APPID
  5
10
330
9
100
AcDbSymbolTableRecord
100
AcDbRegAppTableRecord
  2
ACAD
 70
     0
  0
APPID
  5
175
330
9
100
AcDbSymbolTableRecord
100
AcDbRegAppTableRecord
  2
DCO15
 70
     0
  0
APPID
  5
17F
330
9
100
AcDbSymbolTableRecord
100
AcDbRegAppTableRecord
  2
AcAecLayerStandard
 70
     0
  0
APPID
  5
1D7
330
9
100
AcDbSymbolTableRecord
100
AcDbRegAppTableRecord
  2
ACAD_DSTYLE_DIMTEXT_FILL
 70
     0
  0
ENDTAB
  0
TABLE
  2
DIMSTYLE
  5
A
330
0
100
AcDbSymbolTable
 70
     1
100
AcDbDimStyleTable
 71
     1
340
1D
  0
DIMSTYLE
105
1D
102
{ACAD_REACTORS
330
511
330
51F
330
52D
102
}
330
A
100
AcDbSymbolTableRecord
100
AcDbDimStyleTableRecord
  2
STANDARD
 70
     0
  4
mm
 41
0.125
 44
0.125
140
0.09
170
     1
171
     1
271
     2
272
     2
274
     1
340
F
  0
ENDTAB
  0
TABLE
  2
BLOCK_RECORD
  5
1
330
0
100
AcDbSymbolTable
 70
     3
  0
BLOCK_RECORD
  5
18
330
1
100
AcDbSymbolTableRecord
100
AcDbBlockTableRecord
  2
*MODEL_SPACE
340
136
  0
BLOCK_RECORD
  5
15
330
1
100
AcDbSymbolTableRecord
100
AcDbBlockTableRecord
  2
*PAPER_SPACE
340
137
  0
BLOCK_RECORD
  5
512
330
1
100
AcDbSymbolTableRecord
100
AcDbBlockTableRecord
  2
*D0
340
0
  0
BLOCK_RECORD
  5
520
330
1
100
AcDbSymbolTableRecord
100
AcDbBlockTableRecord
  2
*D1
340
0
  0
BLOCK_RECORD
  5
52E
330
1
100
AcDbSymbolTableRecord
100
AcDbBlockTableRecord
  2
*D2
340
0
  0
ENDTAB
  0
ENDSEC
  0
SECTION
  2
BLOCKS
  0
BLOCK
  5
19
330
18
100
AcDbEntity
  8
0
100
AcDbBlockBegin
  2
*MODEL_SPACE
 70
     0
 10
0.0
 20
0.0
 30
0.0
  3
*MODEL_SPACE
  1

  0
ENDBLK
  5
1A
330
18
100
AcDbEntity
  8
0
100
AcDbBlockEnd
  0
BLOCK
  5
16
330
15
100
AcDbEntity
 67
     1
  8
0
100
AcDbBlockBegin
  2
*PAPER_SPACE
 70
     0
 10
0.0
 20
0.0
 30
0.0
  3
*PAPER_SPACE
  1

  0
ENDBLK
  5
17
330
15
100
AcDbEntity
 67
     1
  8
0
100
AcDbBlockEnd
  0
BLOCK
  5
51D
330
512
100
AcDbEntity
  8
0
100
AcDbBlockBegin
  2
*D0
 70
     1
 10
0.0
 20
0.0
 30
0.0
  3
*D0
  1

  0
LINE
  5
545
330
512
100
AcDbEntity
  8
Dimension
 62
     0
370
    -2
100
AcDbLine
 10
27.48535714285714
 20
25.85285714285714
 30
0.0
 11
28.99913898835057
 21
25.85285714285714
 31
0.0
  0
LINE
  5
546
330
512
100
AcDbEntity
  8
Dimension
 62
     0
370
    -2
100
AcDbLine
 10
27.48535714285714
 20
24.22714285714286
 30
0.0
 11
28.99913898835057
 21
24.22714285714286
 31
0.0
  0
LINE
  5
547
330
512
100
AcDbEntity
  8
Dimension
 62
     0
370
    -2
100
AcDbLine
 10
28.87413898835056
 20
25.72785714285715
 30
0.0
 11
28.87413898835056
 21
25.19302631578947
 31
0.0
  0
LINE
  5
548
330
512
100
AcDbEntity
  8
Dimension
 62
     0
370
    -2
100
AcDbLine
 10
28.87413898835056
 20
24.35214285714286
 30
0.0
 11
28.87413898835056
 21
24.88697368421052
 31
0.0
  0
SOLID
  5
549
330
512
100
AcDbEntity
  8
Dimension
 62
     0
100
AcDbTrace
 10
28.85330565501723
 20
25.72785714285715
 30
0.0
 11
28.8949723216839
 21
25.72785714285715
 31
0.0
 12
28.87413898835056
 22
25.85285714285714
 32
0.0
 13
28.87413898835056
 23
25.85285714285714
 33
0.0
  0
SOLID
  5
54A
330
512
100
AcDbEntity
  8
Dimension
 62
     0
100
AcDbTrace
 10
28.85330565501723
 20
24.35214285714286
 30
0.0
 11
28.8949723216839
 21
24.35214285714286
 31
0.0
 12
28.87413898835056
 22
24.22714285714286
 32
0.0
 13
28.87413898835056
 23
24.22714285714286
 33
0.0
  0
MTEXT
  5
54B
330
512
100
AcDbEntity
  8
Dimension
 62
     0
100
AcDbMText
 10
28.87413898835056
 20
25.04000000000001
 30
0.0
 40
0.09
 41
0.0
 71
     5
 72
     1
  1
\A1;1.62 [41.3mm]
 73
     1
 44
1.0
1001
ACAD
1000
MTEXTBEGIN
1070
    73
1070
     1
1070
    44
1040
1.0
1070
    74
1070
     0
1000
MTEXTEND
  0
POINT
  5
54C
330
512
100
AcDbEntity
  8
Defpoints
 62
     0
100
AcDbPoint
 10
27.42285714285714
 20
25.85285714285714
 30
0.0
  0
POINT
  5
54D
330
512
100
AcDbEntity
  8
Defpoints
 62
     0
100
AcDbPoint
 10
27.42285714285714
 20
24.22714285714286
 30
0.0
  0
POINT
  5
54E
330
512
100
AcDbEntity
  8
Defpoints
 62
     0
100
AcDbPoint
 10
28.87413898835056
 20
24.22714285714286
 30
0.0
  0
ENDBLK
  5
51E
330
512
100
AcDbEntity
  8
0
100
AcDbBlockEnd
  0
BLOCK
  5
52B
330
520
100
AcDbEntity
  8
0
100
AcDbBlockBegin
  2
*D1
 70
     1
 10
0.0
 20
0.0
 30
0.0
  3
*D1
  1

  0
LINE
  5
54F
330
520
100
AcDbEntity
  8
Dimension
 62
     0
370
    -2
100
AcDbLine
 10
4.825714285714285
 20
10.41678571428571
 30
0.0
 11
4.825714285714285
 21
11.91261648376056
 31
0.0
  0
LINE
  5
550
330
520
100
AcDbEntity
  8
Dimension
 62
     0
370
    -2
100
AcDbLine
 10
27.42285714285715
 20
10.41678571428571
 30
0.0
 11
27.42285714285715
 21
11.91261648376056
 31
0.0
  0
LINE
  5
551
330
520
100
AcDbEntity
  8
Dimension
 62
     0
370
    -2
100
AcDbLine
 10
4.950714285714285
 20
11.78761648376056
 30
0.0
 11
15.54606203007519
 21
11.78761648376056
 31
0.0
  0
LINE
  5
552
330
520
100
AcDbEntity
  8
Dimension
 62
     0
370
    -2
100
AcDbLine
 10
27.29785714285715
 20
11.78761648376056
 30
0.0
 11
16.70250939849624
 21
11.78761648376056
 31
0.0
  0
SOLID
  5
553
330
520
100
AcDbEntity
  8
Dimension
 62
     0
100
AcDbTrace
 10
4.950714285714285
 20
11.80844981709389
 30
0.0
 11
4.950714285714285
 21
11.76678315042722
 31
0.0
 12
4.825714285714285
 22
11.78761648376056
 32
0.0
 13
4.825714285714285
 23
11.78761648376056
 33
0.0
  0
SOLID
  5
554
330
520
100
AcDbEntity
  8
Dimension
 62
     0
100
AcDbTrace
 10
27.29785714285715
 20
11.80844981709389
 30
0.0
 11
27.29785714285715
 21
11.76678315042722
 31
0.0
 12
27.42285714285715
 22
11.78761648376056
 32
0.0
 13
27.42285714285715
 23
11.78761648376056
 33
0.0
  0
MTEXT
  5
555
330
520
100
AcDbEntity
  8
Dimension
 62
     0
100
AcDbMText
 10
16.12428571428571
 20
11.78761648376056
 30
0.0
 40
0.09
 41
0.0
 71
     5
 72
     1
  1
\A1;22.59 [573.9mm]
 73
     1
 44
1.0
1001
ACAD
1000
MTEXTBEGIN
1070
    73
1070
     1
1070
    44
1040
1.0
1070
    74
1070
     0
1000
MTEXTEND
  0
POINT
  5
556
330
520
100
AcDbEntity
  8
Defpoints
 62
     0
100
AcDbPoint
 10
4.825714285714285
 20
10.35428571428571
 30
0.0
  0
POINT
  5
557
330
520
100
AcDbEntity
  8
Defpoints
 62
     0
100
AcDbPoint
 10
27.42285714285715
 20
10.35428571428571
 30
0.0
  0
POINT
  5
558
330
520
100
AcDbEntity
  8
Defpoints
 62
     0
100
AcDbPoint
 10
27.42285714285715
 20
11.78761648376056
 30
0.0
  0
ENDBLK
  5
52C
330
520
100
AcDbEntity
  8
0
100
AcDbBlockEnd
  0
BLOCK
  5
539
330
52E
100
AcDbEntity
  8
0
100
AcDbBlockBegin
  2
*D2
 70
     1
 10
0.0
 20
0.0
 30
0.0
  3
*D2
  1

  0
LINE
  5
53B
330
52E
100
AcDbEntity
  8
Dimension
 62
     0
370
    -2
100
AcDbLine
 10
37.18607142857143
 20
10.35428571428571
 30
0.0
 11
35.85456594213461
 21
10.35428571428571
 31
0.0
  0
LINE
  5
53C
330
52E
100
AcDbEntity
  8
Dimension
 62
     0
370
    -2
100
AcDbLine
 10
37.12464285714286
 20
8.728571428571427
 30
0.0
 11
35.85456594213461
 21
8.728571428571429
 31
0.0
  0
LINE
  5
53D
330
52E
100
AcDbEntity
  8
Dimension
 62
     0
370
    -2
100
AcDbLine
 10
35.97956594213461
 20
10.22928571428571
 30
0.0
 11
35.97956594213461
 21
9.694454887218045
 31
0.0
  0
LINE
  5
53E
330
52E
100
AcDbEntity
  8
Dimension
 62
     0
370
    -2
100
AcDbLine
 10
35.97956594213461
 20
8.853571428571429
 30
0.0
 11
35.97956594213461
 21
9.388402255639098
 31
0.0
  0
SOLID
  5
53F
330
52E
100
AcDbEntity
  8
Dimension
 62
     0
100
AcDbTrace
 10
35.95873260880128
 20
10.22928571428571
 30
0.0
 11
36.00039927546795
 21
10.22928571428571
 31
0.0
 12
35.97956594213461
 22
10.35428571428571
 32
0.0
 13
35.97956594213461
 23
10.35428571428571
 33
0.0
  0
SOLID
  5
540
330
52E
100
AcDbEntity
  8
Dimension
 62
     0
100
AcDbTrace
 10
35.95873260880128
 20
8.853571428571429
 30
0.0
 11
36.00039927546795
 21
8.853571428571427
 31
0.0
 12
35.97956594213461
 22
8.728571428571429
 32
0.0
 13
35.97956594213461
 23
8.728571428571429
 33
0.0
  0
MTEXT
  5
541
330
52E
100
AcDbEntity
  8
Dimension
 62
     0
100
AcDbMText
 10
35.97956594213461
 20
9.541428571428577
 30
0.0
 40
0.09
 41
0.0
 71
     5
 72
     1
  1
\A1;1.62 [41.3mm]
 73
     1
 44
1.0
1001
ACAD
1000
MTEXTBEGIN
1070
    73
1070
     1
1070
    44
1040
1.0
1070
    74
1070
     0
1000
MTEXTEND
  0
POINT
  5
542
330
52E
100
AcDbEntity
  8
Defpoints
 62
     0
100
AcDbPoint
 10
37.24857142857143
 20
10.35428571428571
 30
0.0
  0
POINT
  5
543
330
52E
100
AcDbEntity
  8
Defpoints
 62
     0
100
AcDbPoint
 10
37.18714285714286
 20
8.728571428571427
 30
0.0
  0
POINT
  5
544
330
52E
100
AcDbEntity
  8
Defpoints
 62
     0
100
AcDbPoint
 10
35.97956594213461
 20
8.728571428571429
 30
0.0
  0
ENDBLK
  5
53A
330
52E
100
AcDbEntity
  8
0
100
AcDbBlockEnd
  0
ENDSEC
  0
SECTION
  2
ENTITIES
  0
TEXT
  5
51
330
18
100
AcDbEntity
  8
Title Block
100
AcDbText
 10
39.77669501265554
 20
2.672489851525508
 30
0.0
 40
0.05
  1
FILENAME:
100
AcDbText
  0
TEXT
  5
52
330
18
100
AcDbEntity
  8
Title Block
100
AcDbText
 10
39.76928502872825
 20
2.076224967549325
 30
0.0
 40
0.35
  1
PANDUIT
100
AcDbText
  0
TEXT
  5
53
330
18
100
AcDbEntity
  8
Title Block
100
AcDbText
 10
41.72182039882137
 20
2.061410940562986
 30
0.0
 40
0.125
  1
CORP. TINLEY PARK, IL
100
AcDbText
  0
TEXT
  5
54
330
18
100
AcDbEntity
  8
Title Block
100
AcDbText
 10
39.78039997670861
 20
1.91697409709392
 30
0.0
 40
0.05
  1
TITLE:
100
AcDbText
  0
MTEXT
  5
57
330
18
100
AcDbEntity
  8
Title Block
100
AcDbMText
 10
41.0
 20
1.372215793536348
 30
0.0
 40
0.075
 41
2.5
 71
     5
 72
     5
  1
UNLESS OTHERWISE SPECIFIED,\PDIMENSIONAL TOLERANCES ARE:       
 73
     1
 44
1.0
1001
ACAD
1000
MTEXTBEGIN
1070
    73
1070
     1
1070
    44
1040
1.0
1070
    74
1070
     0
1000
MTEXTEND
  0
MTEXT
  5
58
330
18
100
AcDbEntity
  8
Title Block
100
AcDbMText
 10
40.39237986661001
 20
1.131487708483632
 30
0.0
 40
0.075
 41
2.5
 71
     5
 72
     5
  1
(.X)\P(.XX)
 73
     1
 44
1.0
1001
ACAD
1000
MTEXTBEGIN
1070
    73
1070
     1
1070
    44
1040
1.0
1070
    74
1070
     0
1000
MTEXTEND
  0
MTEXT
  5
59
330
18
100
AcDbEntity
  8
Title Block
100
AcDbMText
 10
41.40014005312411
 20
1.131487708483632
 30
0.0
 40
0.075
 41
2.5
 71
     5
 72
     5
  1
(.XXX)\PANGLES:
 73
     1
 44
1.0
1001
ACAD
1000
MTEXTBEGIN
1070
    73
1070
     1
1070
    44
1040
1.0
1070
    74
1070
     0
1000
MTEXTEND
  0
MTEXT
  5
5A
330
18
100
AcDbEntity
  8
Title Block
100
AcDbMText
 10
43.0
 20
1.25
 30
0.0
 40
0.06
 41
1.5
 71
     5
 72
     5
  1
UNLESS OTHERWISE SPECIFIED,\PALL DIMENSIONS ARE GIVEN IN INCHES, THIRD ANGLE PROJECTION
 73
     1
 44
1.0
1001
ACAD
1000
MTEXTBEGIN
1070
    73
1070
     1
1070
    44
1040
1.0
1070
    74
1070
     0
1000
MTEXTEND
  0
TEXT
  5
5E
330
18
100
AcDbEntity
  8
Title Block
100
AcDbText
 10
39.76076445430619
 20
0.9281373372752312
 30
0.0
 40
0.05
  1
DRAWN BY:
100
AcDbText
  0
TEXT
  5
5F
330
18
100
AcDbEntity
  8
Title Block
100
AcDbText
 10
39.76446947418043
 20
0.681143186563503
 30
0.0
 40
0.05
  1
DATE:
100
AcDbText
  0
TEXT
  5
60
330
18
100
AcDbEntity
  8
Title Block
100
AcDbText
 10
39.76817443823349
 20
0.4304455338317972
 30
0.0
 40
0.05
  1
CHECKED BY:
100
AcDbText
  0
TEXT
  5
62
330
18
100
AcDbEntity
  8
Title Block
100
AcDbText
 10
40.52028959313306
 20
0.9281373372752312
 30
0.0
 40
0.05
  1
MATERIAL:
100
AcDbText
  0
TEXT
  5
63
330
18
100
AcDbEntity
  8
Title Block
100
AcDbText
 10
42.26534493878154
 20
0.9281373372752312
 30
0.0
 40
0.05
  1
SCALE:
100
AcDbText
  0
TEXT
  5
64
330
18
100
AcDbEntity
  8
Title Block
100
AcDbText
 10
42.26534493878154
 20
0.6725952630490007
 30
0.0
 40
0.05
  1
DRAWING NUMBER:
100
AcDbText
  0
TEXT
  5
65
330
18
100
AcDbEntity
  8
Title Block
100
AcDbText
 10
43.34942622928998
 20
0.6762987650689816
 30
0.0
 40
0.05
  1
DRAWING
100
AcDbText
  0
TEXT
  5
66
330
18
100
AcDbEntity
  8
Title Block
100
AcDbText
 10
43.42723125590085
 20
0.2811642688682028
 30
0.0
 40
0.05
  1
SIZE
100
AcDbText
  0
TEXT
  5
67
330
18
100
AcDbEntity
  8
Title Block
100
AcDbText
 10
43.4049339528984
 20
0.3826699445861052
 30
0.0
 40
0.25
  1
E
100
AcDbText
  0
MTEXT
  5
68
330
18
100
AcDbEntity
  8
Title Block
100
AcDbMText
 10
33.375
 20
0.375
 30
0.0
 40
0.05
 41
0.25
 71
     5
 72
     5
  1
REV
 73
     1
 44
1.0
1001
ACAD
1000
MTEXTBEGIN
1070
    73
1070
     1
1070
    44
1040
1.0
1070
    74
1070
     0
1000
MTEXTEND
  0
MTEXT
  5
69
330
18
100
AcDbEntity
  8
Title Block
100
AcDbMText
 10
33.75
 20
0.375
 30
0.0
 40
0.05
 41
0.5
 71
     5
 72
     5
  1
DATE
 73
     1
 44
1.0
1001
ACAD
1000
MTEXTBEGIN
1070
    73
1070
     1
1070
    44
1040
1.0
1070
    74
1070
     0
1000
MTEXTEND
  0
MTEXT
  5
6A
330
18
100
AcDbEntity
  8
Title Block
100
AcDbMText
 10
34.19
 20
0.375
 30
0.0
 40
0.05
 41
0.38
 71
     5
 72
     5
  1
BY
 73
     1
 44
1.0
1001
ACAD
1000
MTEXTBEGIN
1070
    73
1070
     1
1070
    44
1040
1.0
1070
    74
1070
     0
1000
MTEXTEND
  0
MTEXT
  5
6B
330
18
100
AcDbEntity
  8
Title Block
100
AcDbMText
 10
34.565
 20
0.375
 30
0.0
 40
0.05
 41
0.38
 71
     5
 72
     5
  1
CHK
 73
     1
 44
1.0
1001
ACAD
1000
MTEXTBEGIN
1070
    73
1070
     1
1070
    44
1040
1.0
1070
    74
1070
     0
1000
MTEXTEND
  0
MTEXT
  5
6C
330
18
100
AcDbEntity
  8
Title Block
100
AcDbMText
 10
36.125
 20
0.375
 30
0.0
 40
0.05
 41
2.75
 71
     5
 72
     5
  1
DESCRIPTION
 73
     1
 44
1.0
1001
ACAD
1000
MTEXTBEGIN
1070
    73
1070
     1
1070
    44
1040
1.0
1070
    74
1070
     0
1000
MTEXTEND
  0
MTEXT
  5
6D
330
18
100
AcDbEntity
  8
Title Block
100
AcDbMText
 10
38.065
 20
0.375
 30
0.0
 40
0.05
 41
1.129999999999999
 71
     5
 72
     5
  1
ECN   -   R
 73
     1
 44
1.0
1001
ACAD
1000
MTEXTBEGIN
1070
    73
1070
     1
1070
    44
1040
1.0
1070
    74
1070
     0
1000
MTEXTEND
  0
MTEXT
  5
6E
330
18
100
AcDbEntity
  8
Title Block
100
AcDbMText
 10
38.815
 20
0.375
 30
0.0
 40
0.05
 41
0.38
 71
     5
 72
     5
  1
CUST
 73
     1
 44
1.0
1001
ACAD
1000
MTEXTBEGIN
1070
    73
1070
     1
1070
    44
1040
1.0
1070
    74
1070
     0
1000
MTEXTEND
  0
MTEXT
  5
6F
330
18
100
AcDbEntity
  8
Title Block
100
AcDbMText
 10
39.19
 20
0.375
 30
0.0
 40
0.05
 41
0.38
 71
     5
 72
     5
  1
SUP
 73
     1
 44
1.0
1001
ACAD
1000
MTEXTBEGIN
1070
    73
1070
     1
1070
    44
1040
1.0
1070
    74
1070
     0
1000
MTEXTEND
  0
LINE
  5
A5
330
18
100
AcDbEntity
  8
Title Block
100
AcDbLine
 10
43.75
 20
2.75
 30
0.0
 11
33.25
 21
2.75
 31
0.0
  0
LINE
  5
A6
330
18
100
AcDbEntity
  8
Title Block
100
AcDbLine
 10
39.75
 20
2.75
 30
0.0
 11
39.75
 21
0.25
 31
0.0
  0
LINE
  5
A7
330
18
100
AcDbEntity
  8
Title Block
100
AcDbLine
 10
43.75
 20
2.5
 30
0.0
 11
33.25
 21
2.5
 31
0.0
  0
LINE
  5
A8
330
18
100
AcDbEntity
  8
Title Block
100
AcDbLine
 10
39.75
 20
2.25
 30
0.0
 11
33.25
 21
2.25
 31
0.0
  0
LINE
  5
A9
330
18
100
AcDbEntity
  8
Title Block
100
AcDbLine
 10
43.75
 20
2.0
 30
0.0
 11
33.25
 21
2.0
 31
0.0
  0
LINE
  5
AA
330
18
100
AcDbEntity
  8
Title Block
100
AcDbLine
 10
39.75
 20
1.75
 30
0.0
 11
33.25
 21
1.75
 31
0.0
  0
LINE
  5
AB
330
18
100
AcDbEntity
  8
Title Block
100
AcDbLine
 10
43.75
 20
1.5
 30
0.0
 11
33.25
 21
1.5
 31
0.0
  0
LINE
  5
AC
330
18
100
AcDbEntity
  8
Title Block
100
AcDbLine
 10
39.75
 20
1.25
 30
0.0
 11
33.25
 21
1.25
 31
0.0
  0
LINE
  5
AD
330
18
100
AcDbEntity
  8
Title Block
100
AcDbLine
 10
43.75
 20
1.0
 30
0.0
 11
33.25
 21
1.0
 31
0.0
  0
LINE
  5
AE
330
18
100
AcDbEntity
  8
Title Block
100
AcDbLine
 10
40.49999999999999
 20
0.75
 30
0.0
 11
33.25
 21
0.7500000000000009
 31
0.0
  0
LINE
  5
AF
330
18
100
AcDbEntity
  8
Title Block
100
AcDbLine
 10
40.49999999999999
 20
0.5
 30
0.0
 11
33.25
 21
0.5000000000000009
 31
0.0
  0
LINE
  5
B6
330
18
100
AcDbEntity
  8
Title Block
100
AcDbLine
 10
33.25
 20
0.25
 30
0.0
 11
33.25
 21
2.75
 31
0.0
  0
LINE
  5
BC
330
18
100
AcDbEntity
  8
Title Block
100
AcDbLine
 10
33.5
 20
0.25
 30
0.0
 11
33.5
 21
2.750000000000001
 31
0.0
  0
LINE
  5
BD
330
18
100
AcDbEntity
  8
Title Block
100
AcDbLine
 10
34.0
 20
0.25
 30
0.0
 11
34.0
 21
2.750000000000001
 31
0.0
  0
LINE
  5
C0
330
18
100
AcDbEntity
  8
Title Block
100
AcDbLine
 10
34.375
 20
0.25
 30
0.0
 11
34.375
 21
2.750000000000001
 31
0.0
  0
LINE
  5
C1
330
18
100
AcDbEntity
  8
Title Block
100
AcDbLine
 10
34.75
 20
0.25
 30
0.0
 11
34.75
 21
2.750000000000001
 31
0.0
  0
LINE
  5
C2
330
18
100
AcDbEntity
  8
Title Block
100
AcDbLine
 10
39.375
 20
2.75
 30
0.0
 11
39.375
 21
0.25
 31
0.0
  0
LINE
  5
C3
330
18
100
AcDbEntity
  8
Title Block
100
AcDbLine
 10
39.0
 20
2.75
 30
0.0
 11
39.0
 21
0.25
 31
0.0
  0
LINE
  5
C4
330
18
100
AcDbEntity
  8
Title Block
100
AcDbLine
 10
38.625
 20
2.75
 30
0.0
 11
38.625
 21
0.25
 31
0.0
  0
LINE
  5
C5
330
18
100
AcDbEntity
  8
Title Block
100
AcDbLine
 10
38.25
 20
2.75
 30
0.0
 11
38.25
 21
0.5
 31
0.0
  0
LINE
  5
C6
330
18
100
AcDbEntity
  8
Title Block
100
AcDbLine
 10
37.5
 20
2.75
 30
0.0
 11
37.5
 21
0.25
 31
0.0
  0
LINE
  5
C7
330
18
100
AcDbEntity
  8
Title Block
100
AcDbLine
 10
42.25
 20
0.75
 30
0.0
 11
42.25
 21
1.5
 31
0.0
  0
LINE
  5
C8
330
18
100
AcDbEntity
  8
Title Block
100
AcDbLine
 10
42.25
 20
0.75
 30
0.0
 11
42.25
 21
0.25
 31
0.0
  0
LINE
  5
C9
330
18
100
AcDbEntity
  8
Title Block
100
AcDbLine
 10
42.25
 20
0.75
 30
0.0
 11
43.75
 21
0.75
 31
0.0
  0
LINE
  5
CA
330
18
100
AcDbEntity
  8
Title Block
100
AcDbLine
 10
40.49999999999999
 20
0.5
 30
0.0
 11
40.49999999999999
 21
0.25
 31
0.0
  0
LINE
  5
CB
330
18
100
AcDbEntity
  8
Title Block
100
AcDbLine
 10
40.49999999999999
 20
0.5
 30
0.0
 11
40.49999999999999
 21
1.0
 31
0.0
  0
LINE
  5
CD
330
18
100
AcDbEntity
  8
Title Block
100
AcDbLine
 10
43.25
 20
0.75
 30
0.0
 11
43.25
 21
0.25
 31
0.0
  0
LWPOLYLINE
  5
12A
330
18
100
AcDbEntity
  8
Title Block
100
AcDbPolyline
 90
        4
 70
     1
 43
0.01
 10
0.25
 20
0.25
 10
0.25
 20
33.75
 10
43.75
 20
33.75
 10
43.75
 20
0.25
  0
MTEXT
  5
14F
330
18
100
AcDbEntity
  8
Text
100
AcDbMText
 10
33.37371447412868
 20
0.626742149669739
 30
0.0
 40
0.09
 41
0.25
 71
     5
 72
     5
  1
R
 73
     1
 44
1.0
1001
ACAD
1000
MTEXTBEGIN
1070
    73
1070
     1
1070
    44
1040
1.0
1070
    74
1070
     0
1000
MTEXTEND
  0
MTEXT
  5
150
330
18
100
AcDbEntity
  8
Text
100
AcDbMText
 10
33.74871447412868
 20
0.626742149669739
 30
0.0
 40
0.07
 41
0.5
 71
     5
 72
     5
  1
7-5-07
 73
     1
 44
1.0
1001
ACAD
1000
MTEXTBEGIN
1070
    73
1070
     1
1070
    44
1040
1.0
1070
    74
1070
     0
1000
MTEXTEND
  0
MTEXT
  5
151
330
18
100
AcDbEntity
  8
Text
100
AcDbMText
 10
34.18621447412867
 20
0.626742149669739
 30
0.0
 40
0.09
 41
0.375
 71
     5
 72
     5
  1
DTP
 73
     1
 44
1.0
1001
ACAD
1000
MTEXTBEGIN
1070
    73
1070
     1
1070
    44
1040
1.0
1070
    74
1070
     0
1000
MTEXTEND
  0
MTEXT
  5
153
330
18
100
AcDbEntity
  8
Text
100
AcDbMText
 10
36.12371447412868
 20
0.6267421496697386
 30
0.0
 40
0.09
 41
2.75
 71
     5
 72
     5
  1
DRAWING RELEASED
 73
     1
 44
1.0
1001
ACAD
1000
MTEXTBEGIN
1070
    73
1070
     1
1070
    44
1040
1.0
1070
    74
1070
     0
1000
MTEXTEND
  0
MTEXT
  5
156
330
18
100
AcDbEntity
  8
Text
100
AcDbMText
 10
40.47371447412866
 20
0.851742149669738
 30
0.0
 40
0.09
 41
0.75
 71
     6
 72
     5
  1
DTP
 73
     1
 44
1.0
1001
ACAD
1000
MTEXTBEGIN
1070
    73
1070
     1
1070
    44
1040
1.0
1070
    74
1070
     0
1000
MTEXTEND
  0
MTEXT
  5
157
330
18
100
AcDbEntity
  8
Text
100
AcDbMText
 10
40.47371447412866
 20
0.6017421496697379
 30
0.0
 40
0.09
 41
0.75
 71
     6
 72
     5
  1
7-5-07
 73
     1
 44
1.0
1001
ACAD
1000
MTEXTBEGIN
1070
    73
1070
     1
1070
    44
1040
1.0
1070
    74
1070
     0
1000
MTEXTEND
  0
MTEXT
  5
158
330
18
100
AcDbEntity
  8
Text
100
AcDbMText
 10
40.47371447412866
 20
0.3517421496697382
 30
0.0
 40
0.09
 41
0.75
 71
     6
 72
     5
  1
DJWA
 73
     1
 44
1.0
1001
ACAD
1000
MTEXTBEGIN
1070
    73
1070
     1
1070
    44
1040
1.0
1070
    74
1070
     0
1000
MTEXTEND
  0
MTEXT
  5
159
330
18
100
AcDbEntity
  8
Text
100
AcDbMText
 10
41.74871447412868
 20
2.626742149669738
 30
0.0
 40
0.09
 41
4.0
 71
     5
 72
     5
  1
FR4PRB58.dwg
 73
     1
 44
1.0
1001
ACAD
1000
MTEXTBEGIN
1070
    73
1070
     1
1070
    44
1040
1.0
1070
    74
1070
     0
1000
MTEXTEND
  0
MTEXT
  5
15A
330
18
100
AcDbEntity
  8
Text
100
AcDbMText
 10
41.74871447412868
 20
1.751742149669738
 30
0.0
 40
0.09
 41
4.0
 71
     5
 72
     5
  1
FIBER ROUTING 4-POST RACK BRACKET \P-{\H0.7x;\S5#8;}" THREADED ROD (FR4PRB58)\PMARKETING DRAWING
 73
     1
 44
1.0
1001
ACAD
1000
MTEXTBEGIN
1070
    73
1070
     1
1070
    44
1040
1.0
1070
    74
1070
     1
1000
MTEXTEND
  0
MTEXT
  5
15B
330
18
100
AcDbEntity
  8
Text
100
AcDbMText
 10
42.99871447412868
 20
0.876742149669738
 30
0.0
 40
0.12
 41
1.5
 71
     5
 72
     5
  1
FULL
 73
     1
 44
1.0
1001
ACAD
1000
MTEXTBEGIN
1070
    73
1070
     1
1070
    44
1040
1.0
1070
    74
1070
     0
1000
MTEXTEND
  0
MTEXT
  5
15C
330
18
100
AcDbEntity
  8
Text
100
AcDbMText
 10
42.74871447412867
 20
0.5017421496697381
 30
0.0
 40
0.12
 41
1.0
 71
     5
 72
     5
  1
36897-1200
 73
     1
 44
1.0
1001
ACAD
1000
MTEXTBEGIN
1070
    73
1070
     1
1070
    44
1040
1.0
1070
    74
1070
     0
1000
MTEXTEND
  0
POINT
  5
16E
330
18
100
AcDbEntity
  8
Title Block
100
AcDbPoint
 10
0.0
 20
0.0
 30
0.0
  0
POINT
  5
16F
330
18
100
AcDbEntity
  8
Title Block
100
AcDbPoint
 10
44.0
 20
0.0
 30
0.0
  0
POINT
  5
170
330
18
100
AcDbEntity
  8
Title Block
100
AcDbPoint
 10
44.0
 20
34.0
 30
0.0
  0
POINT
  5
171
330
18
100
AcDbEntity
  8
Title Block
100
AcDbPoint
 10
0.0
 20
34.0
 30
0.0
  0
MTEXT
  5
2B9
330
18
100
AcDbEntity
  8
Text
100
AcDbMText
 10
38.16363324266537
 20
32.81281869232291
 30
0.0
 40
0.09
 41
5.640562673867776
 71
     1
 72
     5
  3
{\LNOTES:}\P\P1. THE FIBER ROUTING 4-POST RACK BRACKET KIT INCLUDES:\P   ONE (1) STRUT METAL FRAMING CHANNEL,\P   TWO (2) SQUARE NUT PEM SELF-CLINCHING ASSEMBLIES,\P   TWO (2) STRUT METAL FRAMING CHANNEL U-WASHERS - {\H0.7x;\S7#16;}" HOLE,\P   TWO (2
  3
) {\H0.7x;\S3#8;}" HELICAL SPRING LOCKWASHERS,\P   TWO (2) {\H0.7x;\S3#8;}-16x2{\H0.7x;\S1#2;}"HEX HEAD CAP SCREWS,\P   ONE (1) STRUT METAL FRAMING CHANNEL - 1{\H0.7x;\S1#16;}" HOLE,\P   ONE (1) {\H0.7x;\S5#8;}" HELICAL SPRING LOCKWASHER,\P   ONE (1)
  1
 {\H0.7x;\S5#8;}-11 HEAVY HEX NUT,\P   ONE (1) {\H0.7x;\S5#8;}-11 CHANNEL NUT WITHOUT SPRING.
 73
     1
 44
1.0
1001
ACAD
1000
MTEXTBEGIN
1070
    73
1070
     1
1070
    44
1040
1.0
1070
    74
1070
     1
1000
MTEXTEND
  0
TEXT
  5
2BA
330
18
100
AcDbEntity
  8
Text
100
AcDbText
 10
15.69322824984174
 20
23.62356956237724
 30
0.0
 40
0.125
  1
TOP VIEW
100
AcDbText
  0
TEXT
  5
2BB
330
18
100
AcDbEntity
  8
Text
100
AcDbText
 10
15.48776615924173
 20
8.247538879924466
 30
0.0
 40
0.125
  1
FRONT VIEW
100
AcDbText
  0
TEXT
  5
2BC
330
18
100
AcDbEntity
  8
Text
100
AcDbText
 10
37.17500701233307
 20
8.134247734941055
 30
0.0
 40
0.125
  1
RIGHT SIDE VIEW
100
AcDbText
  0
MTEXT
  5
2CC
330
18
100
AcDbEntity
  8
Text
100
AcDbMText
 10
34.56040028142271
 20
0.626249074032665
 30
0.0
 40
0.07
 41
0.375
 71
     5
 72
     5
  1
DJWA
 73
     1
 44
1.0
1001
ACAD
1000
MTEXTBEGIN
1070
    73
1070
     1
1070
    44
1040
1.0
1070
    74
1070
     0
1000
MTEXTEND
  0
LINE
  5
2DE
330
18
100
AcDbEntity
  8
Object
100
AcDbLine
 10
38.56142857142857
 20
8.728571428571427
 30
0.0
 11
38.07714285714286
 21
8.728571428571427
 31
0.0
  0
LINE
  5
2DF
330
18
100
AcDbEntity
  8
Object
100
AcDbLine
 10
38.07714285714286
 20
8.728571428571427
 30
0.0
 11
38.06714285714285
 21
8.728571428571427
 31
0.0
  0
LINE
  5
2E0
330
18
100
AcDbEntity
  8
Object
100
AcDbLine
 10
38.06714285714285
 20
8.728571428571427
 30
0.0
 11
38.03857142857143
 21
8.728571428571427
 31
0.0
  0
LINE
  5
2E1
330
18
100
AcDbEntity
  8
Object
100
AcDbLine
 10
38.03857142857143
 20
8.728571428571427
 30
0.0
 11
37.99428571428572
 21
8.728571428571427
 31
0.0
  0
LINE
  5
2E2
330
18
100
AcDbEntity
  8
Object
100
AcDbLine
 10
37.99428571428572
 20
8.728571428571427
 30
0.0
 11
37.93714285714286
 21
8.728571428571427
 31
0.0
  0
LINE
  5
2E3
330
18
100
AcDbEntity
  8
Object
100
AcDbLine
 10
37.93714285714286
 20
8.728571428571427
 30
0.0
 11
37.87428571428571
 21
8.728571428571427
 31
0.0
  0
LINE
  5
2E4
330
18
100
AcDbEntity
  8
Object
100
AcDbLine
 10
37.87428571428571
 20
8.728571428571427
 30
0.0
 11
37.81142857142857
 21
8.728571428571427
 31
0.0
  0
LINE
  5
2E5
330
18
100
AcDbEntity
  8
Object
100
AcDbLine
 10
37.81142857142857
 20
8.728571428571427
 30
0.0
 11
37.75428571428572
 21
8.728571428571427
 31
0.0
  0
LINE
  5
2E6
330
18
100
AcDbEntity
  8
Object
100
AcDbLine
 10
37.75428571428572
 20
8.728571428571427
 30
0.0
 11
37.71
 21
8.728571428571427
 31
0.0
  0
LINE
  5
2E7
330
18
100
AcDbEntity
  8
Object
100
AcDbLine
 10
37.71
 20
8.728571428571427
 30
0.0
 11
37.68142857142857
 21
8.728571428571427
 31
0.0
  0
LINE
  5
2E8
330
18
100
AcDbEntity
  8
Object
100
AcDbLine
 10
37.68142857142857
 20
8.728571428571427
 30
0.0
 11
37.67142857142857
 21
8.728571428571427
 31
0.0
  0
LINE
  5
2E9
330
18
100
AcDbEntity
  8
Object
100
AcDbLine
 10
37.67142857142857
 20
8.728571428571427
 30
0.0
 11
37.18714285714286
 21
8.728571428571427
 31
0.0
  0
LINE
  5
2EA
330
18
100
AcDbEntity
  8
Object
100
AcDbLine
 10
38.56142857142857
 20
8.838571428571428
 30
0.0
 11
38.07714285714286
 21
8.838571428571428
 31
0.0
  0
LINE
  5
2EB
330
18
100
AcDbEntity
  8
Object
100
AcDbLine
 10
38.07714285714286
 20
8.838571428571428
 30
0.0
 11
38.06714285714285
 21
8.838571428571428
 31
0.0
  0
LINE
  5
2EC
330
18
100
AcDbEntity
  8
Object
100
AcDbLine
 10
38.06714285714285
 20
8.838571428571428
 30
0.0
 11
38.03857142857143
 21
8.838571428571428
 31
0.0
  0
LINE
  5
2ED
330
18
100
AcDbEntity
  8
Object
100
AcDbLine
 10
38.03857142857143
 20
8.838571428571428
 30
0.0
 11
37.99428571428572
 21
8.838571428571428
 31
0.0
  0
LINE
  5
2EE
330
18
100
AcDbEntity
  8
Object
100
AcDbLine
 10
37.99428571428572
 20
8.838571428571428
 30
0.0
 11
37.93714285714286
 21
8.838571428571428
 31
0.0
  0
LINE
  5
2EF
330
18
100
AcDbEntity
  8
Object
100
AcDbLine
 10
37.93714285714286
 20
8.838571428571428
 30
0.0
 11
37.87428571428571
 21
8.838571428571428
 31
0.0
  0
LINE
  5
2F0
330
18
100
AcDbEntity
  8
Object
100
AcDbLine
 10
37.87428571428571
 20
8.838571428571428
 30
0.0
 11
37.81142857142857
 21
8.838571428571428
 31
0.0
  0
LINE
  5
2F1
330
18
100
AcDbEntity
  8
Object
100
AcDbLine
 10
37.81142857142857
 20
8.838571428571428
 30
0.0
 11
37.75428571428572
 21
8.838571428571428
 31
0.0
  0
LINE
  5
2F2
330
18
100
AcDbEntity
  8
Object
100
AcDbLine
 10
37.75428571428572
 20
8.838571428571428
 30
0.0
 11
37.71
 21
8.838571428571428
 31
0.0
  0
LINE
  5
2F3
330
18
100
AcDbEntity
  8
Object
100
AcDbLine
 10
37.71
 20
8.838571428571428
 30
0.0
 11
37.68142857142857
 21
8.838571428571428
 31
0.0
  0
LINE
  5
2F4
330
18
100
AcDbEntity
  8
Object
100
AcDbLine
 10
37.68142857142857
 20
8.838571428571428
 30
0.0
 11
37.67142857142857
 21
8.838571428571428
 31
0.0
  0
LINE
  5
2F5
330
18
100
AcDbEntity
  8
Object
100
AcDbLine
 10
37.67142857142857
 20
8.838571428571428
 30
0.0
 11
37.18714285714286
 21
8.838571428571428
 31
0.0
  0
LINE
  5
2F6
330
18
100
AcDbEntity
  8
Object
100
AcDbLine
 10
37.18714285714286
 20
8.728571428571427
 30
0.0
 11
37.13857142857143
 21
8.738571428571429
 31
0.0
  0
LINE
  5
2F7
330
18
100
AcDbEntity
  8
Object
100
AcDbLine
 10
37.13857142857143
 20
8.738571428571429
 30
0.0
 11
37.09857142857142
 21
8.765714285714285
 31
0.0
  0
LINE
  5
2F8
330
18
100
AcDbEntity
  8
Object
100
AcDbLine
 10
37.09857142857142
 20
8.765714285714285
 30
0.0
 11
37.07142857142857
 21
8.805714285714286
 31
0.0
  0
LINE
  5
2F9
330
18
100
AcDbEntity
  8
Object
100
AcDbLine
 10
37.07142857142857
 20
8.805714285714286
 30
0.0
 11
37.06142857142857
 21
8.854285714285714
 31
0.0
  0
LINE
  5
2FA
330
18
100
AcDbEntity
  8
Object
100
AcDbLine
 10
38.67714285714285
 20
10.22428571428571
 30
0.0
 11
38.68714285714286
 21
10.16571428571428
 31
0.0
  0
LINE
  5
2FB
330
18
100
AcDbEntity
  8
Object
100
AcDbLine
 10
38.68714285714286
 20
10.16571428571428
 30
0.0
 11
38.68714285714286
 21
8.854285714285714
 31
0.0
  0
LINE
  5
2FC
330
18
100
AcDbEntity
  8
Object
100
AcDbLine
 10
38.57714285714286
 20
10.16571428571428
 30
0.0
 11
38.57714285714286
 21
8.854285714285714
 31
0.0
  0
LINE
  5
2FD
330
18
100
AcDbEntity
  8
Object
100
AcDbLine
 10
38.67714285714285
 20
8.805714285714286
 30
0.0
 11
38.68714285714286
 21
8.854285714285714
 31
0.0
  0
LINE
  5
2FE
330
18
100
AcDbEntity
  8
Object
100
AcDbLine
 10
38.57714285714286
 20
8.854285714285714
 30
0.0
 11
38.57571428571429
 21
8.845714285714285
 31
0.0
  0
LINE
  5
2FF
330
18
100
AcDbEntity
  8
Object
100
AcDbLine
 10
38.67714285714285
 20
8.805714285714286
 30
0.0
 11
38.65
 21
8.765714285714285
 31
0.0
  0
LINE
  5
300
330
18
100
AcDbEntity
  8
Object
100
AcDbLine
 10
38.65
 20
8.765714285714285
 30
0.0
 11
38.61
 21
8.738571428571429
 31
0.0
  0
LINE
  5
301
330
18
100
AcDbEntity
  8
Object
100
AcDbLine
 10
38.57571428571429
 20
8.845714285714285
 30
0.0
 11
38.57
 21
8.839999999999999
 31
0.0
  0
LINE
  5
302
330
18
100
AcDbEntity
  8
Object
100
AcDbLine
 10
38.61
 20
10.31714285714286
 30
0.0
 11
38.65142857142858
 21
10.27571428571428
 31
0.0
  0
LINE
  5
303
330
18
100
AcDbEntity
  8
Object
100
AcDbLine
 10
38.65142857142858
 20
10.27571428571428
 30
0.0
 11
38.67714285714285
 21
10.22428571428571
 31
0.0
  0
LINE
  5
304
330
18
100
AcDbEntity
  8
Object
100
AcDbLine
 10
38.56714285714286
 20
10.20571428571428
 30
0.0
 11
38.57714285714286
 21
10.16571428571428
 31
0.0
  0
LINE
  5
305
330
18
100
AcDbEntity
  8
Object
100
AcDbLine
 10
38.57
 20
8.839999999999999
 30
0.0
 11
38.56142857142857
 21
8.838571428571428
 31
0.0
  0
LINE
  5
306
330
18
100
AcDbEntity
  8
Object
100
AcDbLine
 10
38.56142857142857
 20
8.728571428571427
 30
0.0
 11
38.61
 21
8.738571428571429
 31
0.0
  0
LINE
  5
307
330
18
100
AcDbEntity
  8
Object
100
AcDbLine
 10
38.53857142857143
 20
10.23428571428571
 30
0.0
 11
38.56714285714286
 21
10.20571428571428
 31
0.0
  0
LINE
  5
308
330
18
100
AcDbEntity
  8
Object
100
AcDbLine
 10
38.61
 20
10.31714285714286
 30
0.0
 11
38.55714285714286
 21
10.34428571428571
 31
0.0
  0
LINE
  5
309
330
18
100
AcDbEntity
  8
Object
100
AcDbLine
 10
38.55714285714286
 20
10.34428571428571
 30
0.0
 11
38.49857142857143
 21
10.35428571428571
 31
0.0
  0
LINE
  5
30A
330
18
100
AcDbEntity
  8
Object
100
AcDbLine
 10
38.53857142857143
 20
10.23428571428571
 30
0.0
 11
38.49857142857143
 21
10.24428571428571
 31
0.0
  0
LINE
  5
30B
330
18
100
AcDbEntity
  8
Object
100
AcDbLine
 10
38.49857142857143
 20
10.24428571428571
 30
0.0
 11
38.43714285714286
 21
10.24428571428571
 31
0.0
  0
LINE
  5
30C
330
18
100
AcDbEntity
  8
Object
100
AcDbLine
 10
38.49857142857143
 20
10.35428571428571
 30
0.0
 11
38.43714285714286
 21
10.35428571428571
 31
0.0
  0
LINE
  5
30D
330
18
100
AcDbEntity
  8
Object
100
AcDbLine
 10
38.42142857142857
 20
10.08857142857143
 30
0.0
 11
38.41857142857143
 21
10.08
 31
0.0
  0
LINE
  5
30E
330
18
100
AcDbEntity
  8
Object
100
AcDbLine
 10
38.41857142857143
 20
10.08
 30
0.0
 11
38.41285714285714
 21
10.07428571428571
 31
0.0
  0
LINE
  5
30F
330
18
100
AcDbEntity
  8
Object
100
AcDbLine
 10
38.41285714285714
 20
10.07428571428571
 30
0.0
 11
38.40571428571428
 21
10.07285714285714
 31
0.0
  0
LINE
  5
310
330
18
100
AcDbEntity
  8
Object
100
AcDbLine
 10
38.42857142857143
 20
10.24285714285714
 30
0.0
 11
38.43714285714286
 21
10.24428571428571
 31
0.0
  0
LINE
  5
311
330
18
100
AcDbEntity
  8
Object
100
AcDbLine
 10
38.43714285714286
 20
10.35428571428571
 30
0.0
 11
38.38857142857143
 21
10.34428571428571
 31
0.0
  0
LINE
  5
312
330
18
100
AcDbEntity
  8
Object
100
AcDbLine
 10
38.38857142857143
 20
10.34428571428571
 30
0.0
 11
38.34857142857142
 21
10.31714285714286
 31
0.0
  0
LINE
  5
313
330
18
100
AcDbEntity
  8
Object
100
AcDbLine
 10
38.42857142857143
 20
10.24285714285714
 30
0.0
 11
38.42285714285714
 21
10.23714285714286
 31
0.0
  0
LINE
  5
314
330
18
100
AcDbEntity
  8
Object
100
AcDbLine
 10
38.42285714285714
 20
10.23714285714286
 30
0.0
 11
38.42142857142857
 21
10.22857142857143
 31
0.0
  0
LINE
  5
315
330
18
100
AcDbEntity
  8
Object
100
AcDbLine
 10
38.34857142857142
 20
10.31714285714286
 30
0.0
 11
38.32142857142857
 21
10.27714285714286
 31
0.0
  0
LINE
  5
316
330
18
100
AcDbEntity
  8
Object
100
AcDbLine
 10
38.31142857142857
 20
10.22857142857143
 30
0.0
 11
38.31142857142857
 21
10.08857142857143
 31
0.0
  0
LINE
  5
317
330
18
100
AcDbEntity
  8
Object
100
AcDbLine
 10
38.42142857142857
 20
10.08857142857143
 30
0.0
 11
38.42142857142857
 21
10.22857142857143
 31
0.0
  0
LINE
  5
318
330
18
100
AcDbEntity
  8
Object
100
AcDbLine
 10
38.40571428571428
 20
10.07285714285714
 30
0.0
 11
38.32714285714286
 21
10.07285714285714
 31
0.0
  0
LINE
  5
319
330
18
100
AcDbEntity
  8
Object
100
AcDbLine
 10
38.32714285714286
 20
10.07285714285714
 30
0.0
 11
38.32
 21
10.07428571428571
 31
0.0
  0
LINE
  5
31A
330
18
100
AcDbEntity
  8
Object
100
AcDbLine
 10
38.32
 20
10.07428571428571
 30
0.0
 11
38.31428571428572
 21
10.08
 31
0.0
  0
LINE
  5
31B
330
18
100
AcDbEntity
  8
Object
100
AcDbLine
 10
38.31428571428572
 20
10.08
 30
0.0
 11
38.31142857142857
 21
10.08857142857143
 31
0.0
  0
LINE
  5
31C
330
18
100
AcDbEntity
  8
Object
100
AcDbLine
 10
38.32142857142857
 20
10.27714285714286
 30
0.0
 11
38.31142857142857
 21
10.22857142857143
 31
0.0
  0
LINE
  5
31D
330
18
100
AcDbEntity
  8
Object
100
AcDbLine
 10
38.56142857142857
 20
8.728571428571427
 30
0.0
 11
38.07714285714286
 21
8.728571428571427
 31
0.0
  0
LINE
  5
31E
330
18
100
AcDbEntity
  8
Object
100
AcDbLine
 10
38.07714285714286
 20
8.728571428571427
 30
0.0
 11
38.07714285714286
 21
8.838571428571428
 31
0.0
  0
LINE
  5
31F
330
18
100
AcDbEntity
  8
Object
100
AcDbLine
 10
38.07714285714286
 20
8.838571428571428
 30
0.0
 11
38.56142857142857
 21
8.838571428571428
 31
0.0
  0
LINE
  5
320
330
18
100
AcDbEntity
  8
Object
100
AcDbLine
 10
38.68714285714286
 20
8.854285714285714
 30
0.0
 11
38.67714285714285
 21
8.805714285714286
 31
0.0
  0
LINE
  5
321
330
18
100
AcDbEntity
  8
Object
100
AcDbLine
 10
38.67714285714285
 20
8.805714285714286
 30
0.0
 11
38.65
 21
8.765714285714285
 31
0.0
  0
LINE
  5
322
330
18
100
AcDbEntity
  8
Object
100
AcDbLine
 10
38.65
 20
8.765714285714285
 30
0.0
 11
38.61
 21
8.738571428571429
 31
0.0
  0
LINE
  5
323
330
18
100
AcDbEntity
  8
Object
100
AcDbLine
 10
38.61
 20
8.738571428571429
 30
0.0
 11
38.56142857142857
 21
8.728571428571427
 31
0.0
  0
LINE
  5
324
330
18
100
AcDbEntity
  8
Object
100
AcDbLine
 10
37.81142857142857
 20
8.838571428571428
 30
0.0
 11
37.87428571428571
 21
8.838571428571428
 31
0.0
  0
LINE
  5
325
330
18
100
AcDbEntity
  8
Object
100
AcDbLine
 10
37.87428571428571
 20
8.838571428571428
 30
0.0
 11
37.87428571428571
 21
8.728571428571427
 31
0.0
  0
LINE
  5
326
330
18
100
AcDbEntity
  8
Object
100
AcDbLine
 10
37.87428571428571
 20
8.728571428571427
 30
0.0
 11
37.81142857142857
 21
8.728571428571427
 31
0.0
  0
LINE
  5
327
330
18
100
AcDbEntity
  8
Object
100
AcDbLine
 10
37.81142857142857
 20
8.838571428571428
 30
0.0
 11
37.75428571428572
 21
8.838571428571428
 31
0.0
  0
LINE
  5
328
330
18
100
AcDbEntity
  8
Object
100
AcDbLine
 10
37.75428571428572
 20
8.728571428571427
 30
0.0
 11
37.81142857142857
 21
8.728571428571427
 31
0.0
  0
LINE
  5
329
330
18
100
AcDbEntity
  8
Object
100
AcDbLine
 10
37.75428571428572
 20
8.838571428571428
 30
0.0
 11
37.71
 21
8.838571428571428
 31
0.0
  0
LINE
  5
32A
330
18
100
AcDbEntity
  8
Object
100
AcDbLine
 10
37.75428571428572
 20
8.728571428571427
 30
0.0
 11
37.71
 21
8.728571428571427
 31
0.0
  0
LINE
  5
32B
330
18
100
AcDbEntity
  8
Object
100
AcDbLine
 10
37.71
 20
8.728571428571427
 30
0.0
 11
37.68142857142857
 21
8.728571428571427
 31
0.0
  0
LINE
  5
32C
330
18
100
AcDbEntity
  8
Object
100
AcDbLine
 10
37.71
 20
8.838571428571428
 30
0.0
 11
37.68142857142857
 21
8.838571428571428
 31
0.0
  0
LINE
  5
32D
330
18
100
AcDbEntity
  8
Object
100
AcDbLine
 10
37.68142857142857
 20
8.838571428571428
 30
0.0
 11
37.67142857142857
 21
8.838571428571428
 31
0.0
  0
LINE
  5
32E
330
18
100
AcDbEntity
  8
Object
100
AcDbLine
 10
37.67142857142857
 20
8.728571428571427
 30
0.0
 11
37.68142857142857
 21
8.728571428571427
 31
0.0
  0
LINE
  5
32F
330
18
100
AcDbEntity
  8
Object
100
AcDbLine
 10
38.06714285714285
 20
8.728571428571427
 30
0.0
 11
38.07714285714286
 21
8.728571428571427
 31
0.0
  0
LINE
  5
330
330
18
100
AcDbEntity
  8
Object
100
AcDbLine
 10
38.07714285714286
 20
8.838571428571428
 30
0.0
 11
38.06714285714285
 21
8.838571428571428
 31
0.0
  0
LINE
  5
331
330
18
100
AcDbEntity
  8
Object
100
AcDbLine
 10
38.06714285714285
 20
8.838571428571428
 30
0.0
 11
38.03857142857143
 21
8.838571428571428
 31
0.0
  0
LINE
  5
332
330
18
100
AcDbEntity
  8
Object
100
AcDbLine
 10
38.06714285714285
 20
8.728571428571427
 30
0.0
 11
38.03857142857143
 21
8.728571428571427
 31
0.0
  0
LINE
  5
333
330
18
100
AcDbEntity
  8
Object
100
AcDbLine
 10
38.03857142857143
 20
8.728571428571427
 30
0.0
 11
37.99428571428572
 21
8.728571428571427
 31
0.0
  0
LINE
  5
334
330
18
100
AcDbEntity
  8
Object
100
AcDbLine
 10
38.03857142857143
 20
8.838571428571428
 30
0.0
 11
37.99428571428572
 21
8.838571428571428
 31
0.0
  0
LINE
  5
335
330
18
100
AcDbEntity
  8
Object
100
AcDbLine
 10
37.99428571428572
 20
8.838571428571428
 30
0.0
 11
37.93714285714286
 21
8.838571428571428
 31
0.0
  0
LINE
  5
336
330
18
100
AcDbEntity
  8
Object
100
AcDbLine
 10
37.99428571428572
 20
8.728571428571427
 30
0.0
 11
37.93714285714286
 21
8.728571428571427
 31
0.0
  0
LINE
  5
337
330
18
100
AcDbEntity
  8
Object
100
AcDbLine
 10
37.93714285714286
 20
8.728571428571427
 30
0.0
 11
37.87428571428571
 21
8.728571428571427
 31
0.0
  0
LINE
  5
338
330
18
100
AcDbEntity
  8
Object
100
AcDbLine
 10
37.93714285714286
 20
8.838571428571428
 30
0.0
 11
37.87428571428571
 21
8.838571428571428
 31
0.0
  0
LINE
  5
339
330
18
100
AcDbEntity
  8
Object
100
AcDbLine
 10
37.67142857142857
 20
8.728571428571427
 30
0.0
 11
37.67142857142857
 21
8.838571428571428
 31
0.0
  0
LINE
  5
33A
330
18
100
AcDbEntity
  8
Object
100
AcDbLine
 10
37.43714285714286
 20
10.08857142857143
 30
0.0
 11
37.43428571428572
 21
10.08
 31
0.0
  0
LINE
  5
33B
330
18
100
AcDbEntity
  8
Object
100
AcDbLine
 10
37.43428571428572
 20
10.08
 30
0.0
 11
37.42857142857143
 21
10.07428571428571
 31
0.0
  0
LINE
  5
33C
330
18
100
AcDbEntity
  8
Object
100
AcDbLine
 10
37.42857142857143
 20
10.07428571428571
 30
0.0
 11
37.42142857142857
 21
10.07285714285714
 31
0.0
  0
LINE
  5
33D
330
18
100
AcDbEntity
  8
Object
100
AcDbLine
 10
37.34285714285714
 20
10.07285714285714
 30
0.0
 11
37.33571428571429
 21
10.07428571428571
 31
0.0
  0
LINE
  5
33E
330
18
100
AcDbEntity
  8
Object
100
AcDbLine
 10
37.33571428571429
 20
10.07428571428571
 30
0.0
 11
37.33
 21
10.08
 31
0.0
  0
LINE
  5
33F
330
18
100
AcDbEntity
  8
Object
100
AcDbLine
 10
37.42714285714285
 20
10.27714285714286
 30
0.0
 11
37.43714285714286
 21
10.22857142857143
 31
0.0
  0
LINE
  5
340
330
18
100
AcDbEntity
  8
Object
100
AcDbLine
 10
37.43714285714286
 20
10.22857142857143
 30
0.0
 11
37.43714285714286
 21
10.08857142857143
 31
0.0
  0
LINE
  5
341
330
18
100
AcDbEntity
  8
Object
100
AcDbLine
 10
37.34285714285714
 20
10.07285714285714
 30
0.0
 11
37.42142857142857
 21
10.07285714285714
 31
0.0
  0
LINE
  5
342
330
18
100
AcDbEntity
  8
Object
100
AcDbLine
 10
37.33
 20
10.08
 30
0.0
 11
37.32714285714286
 21
10.08857142857143
 31
0.0
  0
LINE
  5
343
330
18
100
AcDbEntity
  8
Object
100
AcDbLine
 10
37.32714285714286
 20
10.08857142857143
 30
0.0
 11
37.32714285714286
 21
10.22857142857143
 31
0.0
  0
LINE
  5
344
330
18
100
AcDbEntity
  8
Object
100
AcDbLine
 10
37.32714285714286
 20
10.22857142857143
 30
0.0
 11
37.32571428571429
 21
10.23714285714286
 31
0.0
  0
LINE
  5
345
330
18
100
AcDbEntity
  8
Object
100
AcDbLine
 10
37.42714285714285
 20
10.27714285714286
 30
0.0
 11
37.4
 21
10.31714285714286
 31
0.0
  0
LINE
  5
346
330
18
100
AcDbEntity
  8
Object
100
AcDbLine
 10
37.4
 20
10.31714285714286
 30
0.0
 11
37.36
 21
10.34428571428571
 31
0.0
  0
LINE
  5
347
330
18
100
AcDbEntity
  8
Object
100
AcDbLine
 10
37.32571428571429
 20
10.23714285714286
 30
0.0
 11
37.32
 21
10.24285714285714
 31
0.0
  0
LINE
  5
348
330
18
100
AcDbEntity
  8
Object
100
AcDbLine
 10
37.32
 20
10.24285714285714
 30
0.0
 11
37.31142857142857
 21
10.24428571428571
 31
0.0
  0
LINE
  5
349
330
18
100
AcDbEntity
  8
Object
100
AcDbLine
 10
37.36
 20
10.34428571428571
 30
0.0
 11
37.31142857142857
 21
10.35428571428571
 31
0.0
  0
LINE
  5
34A
330
18
100
AcDbEntity
  8
Object
100
AcDbLine
 10
37.31142857142857
 20
10.35428571428571
 30
0.0
 11
37.24857142857143
 21
10.35428571428571
 31
0.0
  0
LINE
  5
34B
330
18
100
AcDbEntity
  8
Object
100
AcDbLine
 10
37.24857142857143
 20
10.24428571428571
 30
0.0
 11
37.31142857142857
 21
10.24428571428571
 31
0.0
  0
LINE
  5
34C
330
18
100
AcDbEntity
  8
Object
100
AcDbLine
 10
37.24857142857143
 20
10.35428571428571
 30
0.0
 11
37.19142857142858
 21
10.34428571428571
 31
0.0
  0
LINE
  5
34D
330
18
100
AcDbEntity
  8
Object
100
AcDbLine
 10
37.21
 20
10.23428571428571
 30
0.0
 11
37.24857142857143
 21
10.24428571428571
 31
0.0
  0
LINE
  5
34E
330
18
100
AcDbEntity
  8
Object
100
AcDbLine
 10
37.18714285714286
 20
8.838571428571428
 30
0.0
 11
37.67142857142857
 21
8.838571428571428
 31
0.0
  0
LINE
  5
34F
330
18
100
AcDbEntity
  8
Object
100
AcDbLine
 10
37.67142857142857
 20
8.838571428571428
 30
0.0
 11
37.67142857142857
 21
8.728571428571427
 31
0.0
  0
LINE
  5
350
330
18
100
AcDbEntity
  8
Object
100
AcDbLine
 10
37.67142857142857
 20
8.728571428571427
 30
0.0
 11
37.18714285714286
 21
8.728571428571427
 31
0.0
  0
LINE
  5
351
330
18
100
AcDbEntity
  8
Object
100
AcDbLine
 10
37.19142857142858
 20
10.34428571428571
 30
0.0
 11
37.13857142857143
 21
10.31714285714286
 31
0.0
  0
LINE
  5
352
330
18
100
AcDbEntity
  8
Object
100
AcDbLine
 10
37.18714285714286
 20
8.838571428571428
 30
0.0
 11
37.17857142857143
 21
8.839999999999999
 31
0.0
  0
LINE
  5
353
330
18
100
AcDbEntity
  8
Object
100
AcDbLine
 10
37.18714285714286
 20
8.728571428571427
 30
0.0
 11
37.13857142857143
 21
8.738571428571429
 31
0.0
  0
LINE
  5
354
330
18
100
AcDbEntity
  8
Object
100
AcDbLine
 10
37.13857142857143
 20
8.738571428571429
 30
0.0
 11
37.09857142857142
 21
8.765714285714285
 31
0.0
  0
LINE
  5
355
330
18
100
AcDbEntity
  8
Object
100
AcDbLine
 10
37.17857142857143
 20
8.839999999999999
 30
0.0
 11
37.17285714285714
 21
8.845714285714285
 31
0.0
  0
LINE
  5
356
330
18
100
AcDbEntity
  8
Object
100
AcDbLine
 10
37.18142857142857
 20
10.20571428571428
 30
0.0
 11
37.21
 21
10.23428571428571
 31
0.0
  0
LINE
  5
357
330
18
100
AcDbEntity
  8
Object
100
AcDbLine
 10
37.13857142857143
 20
10.31714285714286
 30
0.0
 11
37.09714285714286
 21
10.27571428571428
 31
0.0
  0
LINE
  5
358
330
18
100
AcDbEntity
  8
Object
100
AcDbLine
 10
37.09714285714286
 20
10.27571428571428
 30
0.0
 11
37.07142857142857
 21
10.22428571428571
 31
0.0
  0
LINE
  5
359
330
18
100
AcDbEntity
  8
Object
100
AcDbLine
 10
37.17142857142857
 20
10.16571428571428
 30
0.0
 11
37.18142857142857
 21
10.20571428571428
 31
0.0
  0
LINE
  5
35A
330
18
100
AcDbEntity
  8
Object
100
AcDbLine
 10
37.17285714285714
 20
8.845714285714285
 30
0.0
 11
37.17142857142857
 21
8.854285714285714
 31
0.0
  0
LINE
  5
35B
330
18
100
AcDbEntity
  8
Object
100
AcDbLine
 10
37.07142857142857
 20
8.805714285714286
 30
0.0
 11
37.09857142857142
 21
8.765714285714285
 31
0.0
  0
LINE
  5
35C
330
18
100
AcDbEntity
  8
Object
100
AcDbLine
 10
37.07142857142857
 20
10.22428571428571
 30
0.0
 11
37.06142857142857
 21
10.16571428571428
 31
0.0
  0
LINE
  5
35D
330
18
100
AcDbEntity
  8
Object
100
AcDbLine
 10
37.07142857142857
 20
8.805714285714286
 30
0.0
 11
37.06142857142857
 21
8.854285714285714
 31
0.0
  0
LINE
  5
35E
330
18
100
AcDbEntity
  8
Object
100
AcDbLine
 10
37.06142857142857
 20
8.854285714285714
 30
0.0
 11
37.06142857142857
 21
10.16571428571428
 31
0.0
  0
LINE
  5
35F
330
18
100
AcDbEntity
  8
Object
100
AcDbLine
 10
37.17142857142857
 20
8.854285714285714
 30
0.0
 11
37.17142857142857
 21
10.16571428571428
 31
0.0
  0
LINE
  5
360
330
18
100
AcDbEntity
  8
Object
100
AcDbLine
 10
38.07714285714286
 20
8.838571428571428
 30
0.0
 11
38.07714285714286
 21
8.728571428571427
 31
0.0
  0
LINE
  5
361
330
18
100
AcDbEntity
  8
Object
100
AcDbLine
 10
37.18714285714286
 20
8.838571428571428
 30
0.0
 11
37.17857142857143
 21
8.839999999999999
 31
0.0
  0
LINE
  5
362
330
18
100
AcDbEntity
  8
Object
100
AcDbLine
 10
37.17857142857143
 20
8.839999999999999
 30
0.0
 11
37.17285714285714
 21
8.845714285714285
 31
0.0
  0
LINE
  5
363
330
18
100
AcDbEntity
  8
Object
100
AcDbLine
 10
37.17285714285714
 20
8.845714285714285
 30
0.0
 11
37.17142857142857
 21
8.854285714285714
 31
0.0
  0
LINE
  5
364
330
18
100
AcDbEntity
  8
Object
100
AcDbLine
 10
38.57714285714286
 20
8.854285714285714
 30
0.0
 11
38.57571428571429
 21
8.845714285714285
 31
0.0
  0
LINE
  5
365
330
18
100
AcDbEntity
  8
Object
100
AcDbLine
 10
38.57571428571429
 20
8.845714285714285
 30
0.0
 11
38.57
 21
8.839999999999999
 31
0.0
  0
LINE
  5
366
330
18
100
AcDbEntity
  8
Object
100
AcDbLine
 10
38.57
 20
8.839999999999999
 30
0.0
 11
38.56142857142857
 21
8.838571428571428
 31
0.0
  0
LINE
  5
367
330
18
100
AcDbEntity
  8
Object
100
AcDbLine
 10
38.68714285714286
 20
8.854285714285714
 30
0.0
 11
38.68714285714286
 21
10.16571428571428
 31
0.0
  0
LINE
  5
368
330
18
100
AcDbEntity
  8
Object
100
AcDbLine
 10
38.31142857142857
 20
10.22857142857143
 30
0.0
 11
38.31142857142857
 21
10.08857142857143
 31
0.0
  0
LINE
  5
369
330
18
100
AcDbEntity
  8
Object
100
AcDbLine
 10
38.43714285714286
 20
10.24428571428571
 30
0.0
 11
38.42857142857143
 21
10.24285714285714
 31
0.0
  0
LINE
  5
36A
330
18
100
AcDbEntity
  8
Object
100
AcDbLine
 10
38.42857142857143
 20
10.24285714285714
 30
0.0
 11
38.42285714285714
 21
10.23714285714286
 31
0.0
  0
LINE
  5
36B
330
18
100
AcDbEntity
  8
Object
100
AcDbLine
 10
38.42285714285714
 20
10.23714285714286
 30
0.0
 11
38.42142857142857
 21
10.22857142857143
 31
0.0
  0
LINE
  5
36C
330
18
100
AcDbEntity
  8
Object
100
AcDbLine
 10
38.57714285714286
 20
10.16571428571428
 30
0.0
 11
38.56714285714286
 21
10.20571428571428
 31
0.0
  0
LINE
  5
36D
330
18
100
AcDbEntity
  8
Object
100
AcDbLine
 10
38.56714285714286
 20
10.20571428571428
 30
0.0
 11
38.53857142857143
 21
10.23428571428571
 31
0.0
  0
LINE
  5
36E
330
18
100
AcDbEntity
  8
Object
100
AcDbLine
 10
38.53857142857143
 20
10.23428571428571
 30
0.0
 11
38.49857142857143
 21
10.24428571428571
 31
0.0
  0
LINE
  5
36F
330
18
100
AcDbEntity
  8
Object
100
AcDbLine
 10
38.49857142857143
 20
10.35428571428571
 30
0.0
 11
38.43714285714286
 21
10.35428571428571
 31
0.0
  0
LINE
  5
370
330
18
100
AcDbEntity
  8
Object
100
AcDbLine
 10
38.57714285714286
 20
10.16571428571428
 30
0.0
 11
38.57714285714286
 21
8.854285714285714
 31
0.0
  0
LINE
  5
371
330
18
100
AcDbEntity
  8
Object
100
AcDbLine
 10
38.43714285714286
 20
10.24428571428571
 30
0.0
 11
38.49857142857143
 21
10.24428571428571
 31
0.0
  0
LINE
  5
372
330
18
100
AcDbEntity
  8
Object
100
AcDbLine
 10
38.32714285714286
 20
10.07285714285714
 30
0.0
 11
38.32
 21
10.07428571428571
 31
0.0
  0
LINE
  5
373
330
18
100
AcDbEntity
  8
Object
100
AcDbLine
 10
38.32
 20
10.07428571428571
 30
0.0
 11
38.31428571428572
 21
10.08
 31
0.0
  0
LINE
  5
374
330
18
100
AcDbEntity
  8
Object
100
AcDbLine
 10
38.31428571428572
 20
10.08
 30
0.0
 11
38.31142857142857
 21
10.08857142857143
 31
0.0
  0
LINE
  5
375
330
18
100
AcDbEntity
  8
Object
100
AcDbLine
 10
38.42142857142857
 20
10.08857142857143
 30
0.0
 11
38.41857142857143
 21
10.08
 31
0.0
  0
LINE
  5
376
330
18
100
AcDbEntity
  8
Object
100
AcDbLine
 10
38.41857142857143
 20
10.08
 30
0.0
 11
38.41285714285714
 21
10.07428571428571
 31
0.0
  0
LINE
  5
377
330
18
100
AcDbEntity
  8
Object
100
AcDbLine
 10
38.41285714285714
 20
10.07428571428571
 30
0.0
 11
38.40571428571428
 21
10.07285714285714
 31
0.0
  0
LINE
  5
378
330
18
100
AcDbEntity
  8
Object
100
AcDbLine
 10
38.43714285714286
 20
10.35428571428571
 30
0.0
 11
38.38857142857143
 21
10.34428571428571
 31
0.0
  0
LINE
  5
379
330
18
100
AcDbEntity
  8
Object
100
AcDbLine
 10
38.38857142857143
 20
10.34428571428571
 30
0.0
 11
38.34857142857142
 21
10.31714285714286
 31
0.0
  0
LINE
  5
37A
330
18
100
AcDbEntity
  8
Object
100
AcDbLine
 10
38.34857142857142
 20
10.31714285714286
 30
0.0
 11
38.32142857142857
 21
10.27714285714286
 31
0.0
  0
LINE
  5
37B
330
18
100
AcDbEntity
  8
Object
100
AcDbLine
 10
38.32142857142857
 20
10.27714285714286
 30
0.0
 11
38.31142857142857
 21
10.22857142857143
 31
0.0
  0
LINE
  5
37C
330
18
100
AcDbEntity
  8
Object
100
AcDbLine
 10
38.42142857142857
 20
10.08857142857143
 30
0.0
 11
38.42142857142857
 21
10.22857142857143
 31
0.0
  0
LINE
  5
37D
330
18
100
AcDbEntity
  8
Object
100
AcDbLine
 10
38.68714285714286
 20
10.16571428571428
 30
0.0
 11
38.67714285714285
 21
10.22428571428571
 31
0.0
  0
LINE
  5
37E
330
18
100
AcDbEntity
  8
Object
100
AcDbLine
 10
38.67714285714285
 20
10.22428571428571
 30
0.0
 11
38.65142857142858
 21
10.27571428571428
 31
0.0
  0
LINE
  5
37F
330
18
100
AcDbEntity
  8
Object
100
AcDbLine
 10
38.65142857142858
 20
10.27571428571428
 30
0.0
 11
38.61
 21
10.31714285714286
 31
0.0
  0
LINE
  5
380
330
18
100
AcDbEntity
  8
Object
100
AcDbLine
 10
38.61
 20
10.31714285714286
 30
0.0
 11
38.55714285714286
 21
10.34428571428571
 31
0.0
  0
LINE
  5
381
330
18
100
AcDbEntity
  8
Object
100
AcDbLine
 10
38.55714285714286
 20
10.34428571428571
 30
0.0
 11
38.49857142857143
 21
10.35428571428571
 31
0.0
  0
LINE
  5
382
330
18
100
AcDbEntity
  8
Object
100
AcDbLine
 10
38.32714285714286
 20
10.07285714285714
 30
0.0
 11
38.40571428571428
 21
10.07285714285714
 31
0.0
  0
LINE
  5
383
330
18
100
AcDbEntity
  8
Object
100
AcDbLine
 10
37.06142857142857
 20
10.16571428571428
 30
0.0
 11
37.06142857142857
 21
8.854285714285714
 31
0.0
  0
LINE
  5
384
330
18
100
AcDbEntity
  8
Object
100
AcDbLine
 10
37.34285714285714
 20
10.07285714285714
 30
0.0
 11
37.33571428571429
 21
10.07428571428571
 31
0.0
  0
LINE
  5
385
330
18
100
AcDbEntity
  8
Object
100
AcDbLine
 10
37.33571428571429
 20
10.07428571428571
 30
0.0
 11
37.33
 21
10.08
 31
0.0
  0
LINE
  5
386
330
18
100
AcDbEntity
  8
Object
100
AcDbLine
 10
37.33
 20
10.08
 30
0.0
 11
37.32714285714286
 21
10.08857142857143
 31
0.0
  0
LINE
  5
387
330
18
100
AcDbEntity
  8
Object
100
AcDbLine
 10
37.43714285714286
 20
10.08857142857143
 30
0.0
 11
37.43428571428572
 21
10.08
 31
0.0
  0
LINE
  5
388
330
18
100
AcDbEntity
  8
Object
100
AcDbLine
 10
37.43428571428572
 20
10.08
 30
0.0
 11
37.42857142857143
 21
10.07428571428571
 31
0.0
  0
LINE
  5
389
330
18
100
AcDbEntity
  8
Object
100
AcDbLine
 10
37.42857142857143
 20
10.07428571428571
 30
0.0
 11
37.42142857142857
 21
10.07285714285714
 31
0.0
  0
LINE
  5
38A
330
18
100
AcDbEntity
  8
Object
100
AcDbLine
 10
37.24857142857143
 20
10.24428571428571
 30
0.0
 11
37.21
 21
10.23428571428571
 31
0.0
  0
LINE
  5
38B
330
18
100
AcDbEntity
  8
Object
100
AcDbLine
 10
37.21
 20
10.23428571428571
 30
0.0
 11
37.18142857142857
 21
10.20571428571428
 31
0.0
  0
LINE
  5
38C
330
18
100
AcDbEntity
  8
Object
100
AcDbLine
 10
37.18142857142857
 20
10.20571428571428
 30
0.0
 11
37.17142857142857
 21
10.16571428571428
 31
0.0
  0
LINE
  5
38D
330
18
100
AcDbEntity
  8
Object
100
AcDbLine
 10
37.34285714285714
 20
10.07285714285714
 30
0.0
 11
37.42142857142857
 21
10.07285714285714
 31
0.0
  0
LINE
  5
38E
330
18
100
AcDbEntity
  8
Object
100
AcDbLine
 10
37.24857142857143
 20
10.24428571428571
 30
0.0
 11
37.31142857142857
 21
10.24428571428571
 31
0.0
  0
LINE
  5
38F
330
18
100
AcDbEntity
  8
Object
100
AcDbLine
 10
37.32714285714286
 20
10.22857142857143
 30
0.0
 11
37.32714285714286
 21
10.08857142857143
 31
0.0
  0
LINE
  5
390
330
18
100
AcDbEntity
  8
Object
100
AcDbLine
 10
37.43714285714286
 20
10.22857142857143
 30
0.0
 11
37.42714285714285
 21
10.27714285714286
 31
0.0
  0
LINE
  5
391
330
18
100
AcDbEntity
  8
Object
100
AcDbLine
 10
37.42714285714285
 20
10.27714285714286
 30
0.0
 11
37.4
 21
10.31714285714286
 31
0.0
  0
LINE
  5
392
330
18
100
AcDbEntity
  8
Object
100
AcDbLine
 10
37.4
 20
10.31714285714286
 30
0.0
 11
37.36
 21
10.34428571428571
 31
0.0
  0
LINE
  5
393
330
18
100
AcDbEntity
  8
Object
100
AcDbLine
 10
37.36
 20
10.34428571428571
 30
0.0
 11
37.31142857142857
 21
10.35428571428571
 31
0.0
  0
LINE
  5
394
330
18
100
AcDbEntity
  8
Object
100
AcDbLine
 10
37.31142857142857
 20
10.35428571428571
 30
0.0
 11
37.24857142857143
 21
10.35428571428571
 31
0.0
  0
LINE
  5
395
330
18
100
AcDbEntity
  8
Object
100
AcDbLine
 10
37.17142857142857
 20
8.854285714285714
 30
0.0
 11
37.17142857142857
 21
10.16571428571428
 31
0.0
  0
LINE
  5
396
330
18
100
AcDbEntity
  8
Object
100
AcDbLine
 10
37.24857142857143
 20
10.35428571428571
 30
0.0
 11
37.19142857142858
 21
10.34428571428571
 31
0.0
  0
LINE
  5
397
330
18
100
AcDbEntity
  8
Object
100
AcDbLine
 10
37.19142857142858
 20
10.34428571428571
 30
0.0
 11
37.13857142857143
 21
10.31714285714286
 31
0.0
  0
LINE
  5
398
330
18
100
AcDbEntity
  8
Object
100
AcDbLine
 10
37.13857142857143
 20
10.31714285714286
 30
0.0
 11
37.09714285714286
 21
10.27571428571428
 31
0.0
  0
LINE
  5
399
330
18
100
AcDbEntity
  8
Object
100
AcDbLine
 10
37.09714285714286
 20
10.27571428571428
 30
0.0
 11
37.07142857142857
 21
10.22428571428571
 31
0.0
  0
LINE
  5
39A
330
18
100
AcDbEntity
  8
Object
100
AcDbLine
 10
37.07142857142857
 20
10.22428571428571
 30
0.0
 11
37.06142857142857
 21
10.16571428571428
 31
0.0
  0
LINE
  5
39B
330
18
100
AcDbEntity
  8
Object
100
AcDbLine
 10
37.43714285714286
 20
10.08857142857143
 30
0.0
 11
37.43714285714286
 21
10.22857142857143
 31
0.0
  0
LINE
  5
39C
330
18
100
AcDbEntity
  8
Object
100
AcDbLine
 10
37.32714285714286
 20
10.22857142857143
 30
0.0
 11
37.32571428571429
 21
10.23714285714286
 31
0.0
  0
LINE
  5
39D
330
18
100
AcDbEntity
  8
Object
100
AcDbLine
 10
37.32571428571429
 20
10.23714285714286
 30
0.0
 11
37.32
 21
10.24285714285714
 31
0.0
  0
LINE
  5
39E
330
18
100
AcDbEntity
  8
Object
100
AcDbLine
 10
37.32
 20
10.24285714285714
 30
0.0
 11
37.31142857142857
 21
10.24428571428571
 31
0.0
  0
LINE
  5
39F
330
18
100
AcDbEntity
  8
Object
100
AcDbLine
 10
4.825714285714285
 20
8.728571428571427
 30
0.0
 11
27.42285714285714
 21
8.728571428571427
 31
0.0
  0
LINE
  5
3A0
330
18
100
AcDbEntity
  8
Object
100
AcDbLine
 10
4.825714285714285
 20
8.805714285714286
 30
0.0
 11
4.825714285714285
 21
8.765714285714285
 31
0.0
  0
LINE
  5
3A1
330
18
100
AcDbEntity
  8
Object
100
AcDbLine
 10
27.42285714285714
 20
8.805714285714286
 30
0.0
 11
27.42285714285714
 21
8.765714285714285
 31
0.0
  0
LINE
  5
3A2
330
18
100
AcDbEntity
  8
Object
100
AcDbLine
 10
27.42285714285714
 20
8.765714285714285
 30
0.0
 11
27.42285714285714
 21
8.738571428571429
 31
0.0
  0
LINE
  5
3A3
330
18
100
AcDbEntity
  8
Object
100
AcDbLine
 10
27.42285714285714
 20
8.738571428571429
 30
0.0
 11
27.42285714285714
 21
8.728571428571427
 31
0.0
  0
LINE
  5
3A4
330
18
100
AcDbEntity
  8
Object
100
AcDbLine
 10
27.42285714285714
 20
8.728571428571427
 30
0.0
 11
4.825714285714285
 21
8.728571428571427
 31
0.0
  0
LINE
  5
3A5
330
18
100
AcDbEntity
  8
Object
100
AcDbLine
 10
4.825714285714285
 20
8.728571428571427
 30
0.0
 11
4.825714285714285
 21
8.738571428571429
 31
0.0
  0
LINE
  5
3A6
330
18
100
AcDbEntity
  8
Object
100
AcDbLine
 10
4.825714285714285
 20
8.738571428571429
 30
0.0
 11
4.825714285714285
 21
8.765714285714285
 31
0.0
  0
LINE
  5
3A7
330
18
100
AcDbEntity
  8
Object
100
AcDbLine
 10
27.42285714285714
 20
8.805714285714286
 30
0.0
 11
27.42285714285714
 21
8.854285714285714
 31
0.0
  0
LINE
  5
3A8
330
18
100
AcDbEntity
  8
Object
100
AcDbLine
 10
4.825714285714285
 20
8.805714285714286
 30
0.0
 11
4.825714285714285
 21
8.854285714285714
 31
0.0
  0
LINE
  5
3A9
330
18
100
AcDbEntity
  8
Object
100
AcDbLine
 10
4.825714285714285
 20
8.854285714285714
 30
0.0
 11
27.42285714285714
 21
8.854285714285714
 31
0.0
  0
LINE
  5
3AA
330
18
100
AcDbEntity
  8
Object
100
AcDbLine
 10
4.825714285714285
 20
10.16571428571428
 30
0.0
 11
4.825714285714285
 21
8.854285714285714
 31
0.0
  0
LINE
  5
3AB
330
18
100
AcDbEntity
  8
Object
100
AcDbLine
 10
4.825714285714285
 20
8.765714285714285
 30
0.0
 11
4.825714285714285
 21
8.738571428571429
 31
0.0
  0
LINE
  5
3AC
330
18
100
AcDbEntity
  8
Object
100
AcDbLine
 10
4.825714285714285
 20
10.27571428571428
 30
0.0
 11
4.825714285714285
 21
10.22428571428571
 31
0.0
  0
LINE
  5
3AD
330
18
100
AcDbEntity
  8
Object
100
AcDbLine
 10
4.825714285714285
 20
10.35428571428571
 30
0.0
 11
4.825714285714285
 21
10.34428571428571
 31
0.0
  0
LINE
  5
3AE
330
18
100
AcDbEntity
  8
Object
100
AcDbLine
 10
4.825714285714285
 20
10.34428571428571
 30
0.0
 11
4.825714285714285
 21
10.31714285714286
 31
0.0
  0
LINE
  5
3AF
330
18
100
AcDbEntity
  8
Object
100
AcDbLine
 10
4.825714285714285
 20
10.31714285714286
 30
0.0
 11
4.825714285714285
 21
10.27571428571428
 31
0.0
  0
LINE
  5
3B0
330
18
100
AcDbEntity
  8
Object
100
AcDbLine
 10
4.825714285714285
 20
10.22428571428571
 30
0.0
 11
4.825714285714285
 21
10.16571428571428
 31
0.0
  0
LINE
  5
3B1
330
18
100
AcDbEntity
  8
Object
100
AcDbLine
 10
4.825714285714285
 20
8.854285714285714
 30
0.0
 11
4.825714285714285
 21
8.805714285714286
 31
0.0
  0
LINE
  5
3B2
330
18
100
AcDbEntity
  8
Object
100
AcDbLine
 10
4.825714285714285
 20
8.805714285714286
 30
0.0
 11
4.825714285714285
 21
8.765714285714285
 31
0.0
  0
LINE
  5
3B3
330
18
100
AcDbEntity
  8
Object
100
AcDbLine
 10
4.825714285714285
 20
8.738571428571429
 30
0.0
 11
4.825714285714285
 21
8.728571428571427
 31
0.0
  0
LINE
  5
3B4
330
18
100
AcDbEntity
  8
Object
100
AcDbLine
 10
27.42285714285714
 20
8.738571428571429
 30
0.0
 11
27.42285714285714
 21
8.765714285714285
 31
0.0
  0
LINE
  5
3B5
330
18
100
AcDbEntity
  8
Object
100
AcDbLine
 10
27.42285714285714
 20
8.805714285714286
 30
0.0
 11
27.42285714285714
 21
8.854285714285714
 31
0.0
  0
LINE
  5
3B6
330
18
100
AcDbEntity
  8
Object
100
AcDbLine
 10
27.42285714285714
 20
8.854285714285714
 30
0.0
 11
27.42285714285714
 21
10.16571428571428
 31
0.0
  0
LINE
  5
3B7
330
18
100
AcDbEntity
  8
Object
100
AcDbLine
 10
27.42285714285714
 20
10.16571428571428
 30
0.0
 11
27.42285714285714
 21
10.22428571428571
 31
0.0
  0
LINE
  5
3B8
330
18
100
AcDbEntity
  8
Object
100
AcDbLine
 10
27.42285714285714
 20
10.27571428571428
 30
0.0
 11
27.42285714285714
 21
10.31714285714286
 31
0.0
  0
LINE
  5
3B9
330
18
100
AcDbEntity
  8
Object
100
AcDbLine
 10
27.42285714285714
 20
10.31714285714286
 30
0.0
 11
27.42285714285714
 21
10.34428571428571
 31
0.0
  0
LINE
  5
3BA
330
18
100
AcDbEntity
  8
Object
100
AcDbLine
 10
27.42285714285714
 20
10.34428571428571
 30
0.0
 11
27.42285714285714
 21
10.35428571428571
 31
0.0
  0
LINE
  5
3BB
330
18
100
AcDbEntity
  8
Object
100
AcDbLine
 10
27.42285714285714
 20
10.22428571428571
 30
0.0
 11
27.42285714285714
 21
10.27571428571428
 31
0.0
  0
LINE
  5
3BC
330
18
100
AcDbEntity
  8
Object
100
AcDbLine
 10
27.42285714285714
 20
8.765714285714285
 30
0.0
 11
27.42285714285714
 21
8.805714285714286
 31
0.0
  0
LINE
  5
3BD
330
18
100
AcDbEntity
  8
Object
100
AcDbLine
 10
27.42285714285714
 20
8.728571428571427
 30
0.0
 11
27.42285714285714
 21
8.738571428571429
 31
0.0
  0
LINE
  5
3BE
330
18
100
AcDbEntity
  8
Object
100
AcDbLine
 10
27.42285714285714
 20
8.854285714285714
 30
0.0
 11
27.42285714285714
 21
10.16571428571428
 31
0.0
  0
LINE
  5
3BF
330
18
100
AcDbEntity
  8
Object
100
AcDbLine
 10
4.825714285714285
 20
8.854285714285714
 30
0.0
 11
4.825714285714285
 21
10.16571428571428
 31
0.0
  0
LINE
  5
3C0
330
18
100
AcDbEntity
  8
Object
100
AcDbLine
 10
4.825714285714285
 20
10.16571428571428
 30
0.0
 11
27.42285714285714
 21
10.16571428571428
 31
0.0
  0
LINE
  5
3C1
330
18
100
AcDbEntity
  8
Object
100
AcDbLine
 10
27.42285714285714
 20
10.35428571428571
 30
0.0
 11
4.825714285714285
 21
10.35428571428571
 31
0.0
  0
LINE
  5
3C2
330
18
100
AcDbEntity
  8
Object
100
AcDbLine
 10
4.825714285714285
 20
10.34428571428571
 30
0.0
 11
4.825714285714285
 21
10.31714285714286
 31
0.0
  0
LINE
  5
3C3
330
18
100
AcDbEntity
  8
Object
100
AcDbLine
 10
27.42285714285714
 20
10.31714285714286
 30
0.0
 11
27.42285714285714
 21
10.34428571428571
 31
0.0
  0
LINE
  5
3C4
330
18
100
AcDbEntity
  8
Object
100
AcDbLine
 10
4.825714285714285
 20
10.27571428571428
 30
0.0
 11
4.825714285714285
 21
10.22428571428571
 31
0.0
  0
LINE
  5
3C5
330
18
100
AcDbEntity
  8
Object
100
AcDbLine
 10
27.42285714285714
 20
10.27571428571428
 30
0.0
 11
27.42285714285714
 21
10.22428571428571
 31
0.0
  0
LINE
  5
3C6
330
18
100
AcDbEntity
  8
Object
100
AcDbLine
 10
27.42285714285714
 20
10.22428571428571
 30
0.0
 11
27.42285714285714
 21
10.16571428571428
 31
0.0
  0
LINE
  5
3C7
330
18
100
AcDbEntity
  8
Object
100
AcDbLine
 10
4.825714285714285
 20
10.22428571428571
 30
0.0
 11
4.825714285714285
 21
10.16571428571428
 31
0.0
  0
LINE
  5
3C8
330
18
100
AcDbEntity
  8
Object
100
AcDbLine
 10
27.42285714285714
 20
10.27571428571428
 30
0.0
 11
27.42285714285714
 21
10.31714285714286
 31
0.0
  0
LINE
  5
3C9
330
18
100
AcDbEntity
  8
Object
100
AcDbLine
 10
4.825714285714285
 20
10.31714285714286
 30
0.0
 11
4.825714285714285
 21
10.27571428571428
 31
0.0
  0
LINE
  5
3CA
330
18
100
AcDbEntity
  8
Object
100
AcDbLine
 10
4.825714285714285
 20
10.34428571428571
 30
0.0
 11
4.825714285714285
 21
10.35428571428571
 31
0.0
  0
LINE
  5
3CB
330
18
100
AcDbEntity
  8
Object
100
AcDbLine
 10
4.825714285714285
 20
10.35428571428571
 30
0.0
 11
27.42285714285714
 21
10.35428571428571
 31
0.0
  0
LINE
  5
3CC
330
18
100
AcDbEntity
  8
Object
100
AcDbLine
 10
27.42285714285714
 20
10.35428571428571
 30
0.0
 11
27.42285714285714
 21
10.34428571428571
 31
0.0
  0
LINE
  5
3CD
330
18
100
AcDbEntity
  8
Object
100
AcDbLine
 10
4.825714285714285
 20
25.24285714285714
 30
0.0
 11
7.419999999999999
 21
25.24285714285714
 31
0.0
  0
LINE
  5
3CE
330
18
100
AcDbEntity
  8
Object
100
AcDbLine
 10
7.614285714285713
 20
25.10285714285715
 30
0.0
 11
7.622857142857142
 21
25.04
 31
0.0
  0
LINE
  5
3CF
330
18
100
AcDbEntity
  8
Object
100
AcDbLine
 10
7.622857142857142
 20
25.04
 30
0.0
 11
7.614285714285713
 21
24.97714285714286
 31
0.0
  0
LINE
  5
3D0
330
18
100
AcDbEntity
  8
Object
100
AcDbLine
 10
7.585714285714285
 20
25.15857142857143
 30
0.0
 11
7.614285714285713
 21
25.10285714285715
 31
0.0
  0
LINE
  5
3D1
330
18
100
AcDbEntity
  8
Object
100
AcDbLine
 10
7.614285714285713
 20
24.97714285714286
 30
0.0
 11
7.585714285714285
 21
24.92
 31
0.0
  0
LINE
  5
3D2
330
18
100
AcDbEntity
  8
Object
100
AcDbLine
 10
7.54
 20
25.20428571428571
 30
0.0
 11
7.585714285714285
 21
25.15857142857143
 31
0.0
  0
LINE
  5
3D3
330
18
100
AcDbEntity
  8
Object
100
AcDbLine
 10
7.585714285714285
 20
24.92
 30
0.0
 11
7.54
 21
24.87571428571428
 31
0.0
  0
LINE
  5
3D4
330
18
100
AcDbEntity
  8
Object
100
AcDbLine
 10
7.54
 20
24.87571428571428
 30
0.0
 11
7.482857142857143
 21
24.84714285714286
 31
0.0
  0
LINE
  5
3D5
330
18
100
AcDbEntity
  8
Object
100
AcDbLine
 10
7.54
 20
25.20428571428571
 30
0.0
 11
7.482857142857143
 21
25.23285714285715
 31
0.0
  0
LINE
  5
3D6
330
18
100
AcDbEntity
  8
Object
100
AcDbLine
 10
7.482857142857143
 20
25.23285714285715
 30
0.0
 11
7.419999999999999
 21
25.24285714285714
 31
0.0
  0
LINE
  5
3D7
330
18
100
AcDbEntity
  8
Object
100
AcDbLine
 10
7.482857142857143
 20
24.84714285714286
 30
0.0
 11
7.419999999999999
 21
24.83714285714286
 31
0.0
  0
LINE
  5
3D8
330
18
100
AcDbEntity
  8
Object
100
AcDbLine
 10
27.42285714285714
 20
25.47714285714286
 30
0.0
 11
27.42285714285714
 21
25.24285714285714
 31
0.0
  0
LINE
  5
3D9
330
18
100
AcDbEntity
  8
Object
100
AcDbLine
 10
27.42285714285714
 20
25.24285714285714
 30
0.0
 11
24.82857142857143
 21
25.24285714285714
 31
0.0
  0
LINE
  5
3DA
330
18
100
AcDbEntity
  8
Object
100
AcDbLine
 10
24.82857142857143
 20
24.83714285714286
 30
0.0
 11
27.42285714285714
 21
24.83714285714286
 31
0.0
  0
LINE
  5
3DB
330
18
100
AcDbEntity
  8
Object
100
AcDbLine
 10
27.42285714285714
 20
24.83714285714286
 30
0.0
 11
27.42285714285714
 21
24.60285714285714
 31
0.0
  0
LINE
  5
3DC
330
18
100
AcDbEntity
  8
Object
100
AcDbLine
 10
24.63428571428571
 20
25.10285714285715
 30
0.0
 11
24.62571428571429
 21
25.04
 31
0.0
  0
LINE
  5
3DD
330
18
100
AcDbEntity
  8
Object
100
AcDbLine
 10
24.62571428571429
 20
25.04
 30
0.0
 11
24.63428571428571
 21
24.97714285714286
 31
0.0
  0
LINE
  5
3DE
330
18
100
AcDbEntity
  8
Object
100
AcDbLine
 10
23.61428571428572
 20
24.97714285714286
 30
0.0
 11
23.62571428571428
 21
25.04
 31
0.0
  0
LINE
  5
3DF
330
18
100
AcDbEntity
  8
Object
100
AcDbLine
 10
23.62571428571428
 20
25.04
 30
0.0
 11
23.61428571428572
 21
25.10285714285715
 31
0.0
  0
LINE
  5
3E0
330
18
100
AcDbEntity
  8
Object
100
AcDbLine
 10
23.61428571428572
 20
24.97714285714286
 30
0.0
 11
23.58571428571428
 21
24.92
 31
0.0
  0
LINE
  5
3E1
330
18
100
AcDbEntity
  8
Object
100
AcDbLine
 10
23.58571428571428
 20
25.15857142857143
 30
0.0
 11
23.61428571428572
 21
25.10285714285715
 31
0.0
  0
LINE
  5
3E2
330
18
100
AcDbEntity
  8
Object
100
AcDbLine
 10
24.63428571428571
 20
25.10285714285715
 30
0.0
 11
24.66285714285714
 21
25.15857142857143
 31
0.0
  0
LINE
  5
3E3
330
18
100
AcDbEntity
  8
Object
100
AcDbLine
 10
24.63428571428571
 20
24.97714285714286
 30
0.0
 11
24.66285714285714
 21
24.92
 31
0.0
  0
LINE
  5
3E4
330
18
100
AcDbEntity
  8
Object
100
AcDbLine
 10
24.66285714285714
 20
24.92
 30
0.0
 11
24.70857142857143
 21
24.87571428571428
 31
0.0
  0
LINE
  5
3E5
330
18
100
AcDbEntity
  8
Object
100
AcDbLine
 10
23.58571428571428
 20
24.92
 30
0.0
 11
23.54
 21
24.87571428571428
 31
0.0
  0
LINE
  5
3E6
330
18
100
AcDbEntity
  8
Object
100
AcDbLine
 10
24.66285714285714
 20
25.15857142857143
 30
0.0
 11
24.70857142857143
 21
25.20428571428571
 31
0.0
  0
LINE
  5
3E7
330
18
100
AcDbEntity
  8
Object
100
AcDbLine
 10
23.54
 20
25.20428571428571
 30
0.0
 11
23.58571428571428
 21
25.15857142857143
 31
0.0
  0
LINE
  5
3E8
330
18
100
AcDbEntity
  8
Object
100
AcDbLine
 10
24.76571428571429
 20
24.84714285714286
 30
0.0
 11
24.70857142857143
 21
24.87571428571428
 31
0.0
  0
LINE
  5
3E9
330
18
100
AcDbEntity
  8
Object
100
AcDbLine
 10
23.48285714285714
 20
25.23285714285715
 30
0.0
 11
23.54
 21
25.20428571428571
 31
0.0
  0
LINE
  5
3EA
330
18
100
AcDbEntity
  8
Object
100
AcDbLine
 10
24.82857142857143
 20
25.24285714285714
 30
0.0
 11
24.76571428571429
 21
25.23285714285715
 31
0.0
  0
LINE
  5
3EB
330
18
100
AcDbEntity
  8
Object
100
AcDbLine
 10
24.76571428571429
 20
25.23285714285715
 30
0.0
 11
24.70857142857143
 21
25.20428571428571
 31
0.0
  0
LINE
  5
3EC
330
18
100
AcDbEntity
  8
Object
100
AcDbLine
 10
23.54
 20
24.87571428571428
 30
0.0
 11
23.48285714285714
 21
24.84714285714286
 31
0.0
  0
LINE
  5
3ED
330
18
100
AcDbEntity
  8
Object
100
AcDbLine
 10
24.82857142857143
 20
24.83714285714286
 30
0.0
 11
24.76571428571429
 21
24.84714285714286
 31
0.0
  0
LINE
  5
3EE
330
18
100
AcDbEntity
  8
Object
100
AcDbLine
 10
23.48285714285714
 20
24.84714285714286
 30
0.0
 11
23.42
 21
24.83714285714286
 31
0.0
  0
LINE
  5
3EF
330
18
100
AcDbEntity
  8
Object
100
AcDbLine
 10
23.48285714285714
 20
25.23285714285715
 30
0.0
 11
23.42
 21
25.24285714285714
 31
0.0
  0
LINE
  5
3F0
330
18
100
AcDbEntity
  8
Object
100
AcDbLine
 10
23.42
 20
25.24285714285714
 30
0.0
 11
20.82857142857143
 21
25.24285714285714
 31
0.0
  0
LINE
  5
3F1
330
18
100
AcDbEntity
  8
Object
100
AcDbLine
 10
23.42
 20
24.83714285714286
 30
0.0
 11
20.82857142857143
 21
24.83714285714286
 31
0.0
  0
LINE
  5
3F2
330
18
100
AcDbEntity
  8
Object
100
AcDbLine
 10
20.63428571428572
 20
25.10285714285715
 30
0.0
 11
20.62571428571429
 21
25.04
 31
0.0
  0
LINE
  5
3F3
330
18
100
AcDbEntity
  8
Object
100
AcDbLine
 10
20.62571428571429
 20
25.04
 30
0.0
 11
20.63428571428572
 21
24.97714285714286
 31
0.0
  0
LINE
  5
3F4
330
18
100
AcDbEntity
  8
Object
100
AcDbLine
 10
19.61428571428571
 20
24.97714285714286
 30
0.0
 11
19.62571428571428
 21
25.04
 31
0.0
  0
LINE
  5
3F5
330
18
100
AcDbEntity
  8
Object
100
AcDbLine
 10
19.62571428571428
 20
25.04
 30
0.0
 11
19.61428571428571
 21
25.10285714285715
 31
0.0
  0
LINE
  5
3F6
330
18
100
AcDbEntity
  8
Object
100
AcDbLine
 10
20.66285714285714
 20
24.92
 30
0.0
 11
20.63428571428572
 21
24.97714285714286
 31
0.0
  0
LINE
  5
3F7
330
18
100
AcDbEntity
  8
Object
100
AcDbLine
 10
19.61428571428571
 20
24.97714285714286
 30
0.0
 11
19.58571428571428
 21
24.92
 31
0.0
  0
LINE
  5
3F8
330
18
100
AcDbEntity
  8
Object
100
AcDbLine
 10
19.58571428571428
 20
25.15857142857143
 30
0.0
 11
19.61428571428571
 21
25.10285714285715
 31
0.0
  0
LINE
  5
3F9
330
18
100
AcDbEntity
  8
Object
100
AcDbLine
 10
20.70857142857143
 20
25.20428571428571
 30
0.0
 11
20.66285714285714
 21
25.15857142857143
 31
0.0
  0
LINE
  5
3FA
330
18
100
AcDbEntity
  8
Object
100
AcDbLine
 10
20.66285714285714
 20
25.15857142857143
 30
0.0
 11
20.63428571428572
 21
25.10285714285715
 31
0.0
  0
LINE
  5
3FB
330
18
100
AcDbEntity
  8
Object
100
AcDbLine
 10
20.70857142857143
 20
24.87571428571428
 30
0.0
 11
20.66285714285714
 21
24.92
 31
0.0
  0
LINE
  5
3FC
330
18
100
AcDbEntity
  8
Object
100
AcDbLine
 10
20.70857142857143
 20
25.20428571428571
 30
0.0
 11
20.76571428571428
 21
25.23285714285715
 31
0.0
  0
LINE
  5
3FD
330
18
100
AcDbEntity
  8
Object
100
AcDbLine
 10
19.54
 20
25.20428571428571
 30
0.0
 11
19.58571428571428
 21
25.15857142857143
 31
0.0
  0
LINE
  5
3FE
330
18
100
AcDbEntity
  8
Object
100
AcDbLine
 10
19.58571428571428
 20
24.92
 30
0.0
 11
19.54
 21
24.87571428571428
 31
0.0
  0
LINE
  5
3FF
330
18
100
AcDbEntity
  8
Object
100
AcDbLine
 10
20.76571428571428
 20
24.84714285714286
 30
0.0
 11
20.70857142857143
 21
24.87571428571428
 31
0.0
  0
LINE
  5
400
330
18
100
AcDbEntity
  8
Object
100
AcDbLine
 10
19.54
 20
24.87571428571428
 30
0.0
 11
19.48285714285714
 21
24.84714285714286
 31
0.0
  0
LINE
  5
401
330
18
100
AcDbEntity
  8
Object
100
AcDbLine
 10
19.48285714285714
 20
25.23285714285715
 30
0.0
 11
19.54
 21
25.20428571428571
 31
0.0
  0
LINE
  5
402
330
18
100
AcDbEntity
  8
Object
100
AcDbLine
 10
20.82857142857143
 20
24.83714285714286
 30
0.0
 11
20.76571428571428
 21
24.84714285714286
 31
0.0
  0
LINE
  5
403
330
18
100
AcDbEntity
  8
Object
100
AcDbLine
 10
19.48285714285714
 20
24.84714285714286
 30
0.0
 11
19.42
 21
24.83714285714286
 31
0.0
  0
LINE
  5
404
330
18
100
AcDbEntity
  8
Object
100
AcDbLine
 10
19.42
 20
25.24285714285714
 30
0.0
 11
19.48285714285714
 21
25.23285714285715
 31
0.0
  0
LINE
  5
405
330
18
100
AcDbEntity
  8
Object
100
AcDbLine
 10
20.76571428571428
 20
25.23285714285715
 30
0.0
 11
20.82857142857143
 21
25.24285714285714
 31
0.0
  0
LINE
  5
406
330
18
100
AcDbEntity
  8
Object
100
AcDbLine
 10
16.82857142857143
 20
25.24285714285714
 30
0.0
 11
19.42
 21
25.24285714285714
 31
0.0
  0
LINE
  5
407
330
18
100
AcDbEntity
  8
Object
100
AcDbLine
 10
19.42
 20
24.83714285714286
 30
0.0
 11
16.82857142857143
 21
24.83714285714286
 31
0.0
  0
LINE
  5
408
330
18
100
AcDbEntity
  8
Object
100
AcDbLine
 10
16.63428571428571
 20
25.10285714285715
 30
0.0
 11
16.62285714285714
 21
25.04
 31
0.0
  0
LINE
  5
409
330
18
100
AcDbEntity
  8
Object
100
AcDbLine
 10
16.62285714285714
 20
25.04
 30
0.0
 11
16.63428571428571
 21
24.97714285714286
 31
0.0
  0
LINE
  5
40A
330
18
100
AcDbEntity
  8
Object
100
AcDbLine
 10
15.61428571428571
 20
25.10285714285715
 30
0.0
 11
15.62285714285714
 21
25.04
 31
0.0
  0
LINE
  5
40B
330
18
100
AcDbEntity
  8
Object
100
AcDbLine
 10
16.66285714285714
 20
24.92
 30
0.0
 11
16.63428571428571
 21
24.97714285714286
 31
0.0
  0
LINE
  5
40C
330
18
100
AcDbEntity
  8
Object
100
AcDbLine
 10
15.62285714285714
 20
25.04
 30
0.0
 11
15.61428571428571
 21
24.97714285714286
 31
0.0
  0
LINE
  5
40D
330
18
100
AcDbEntity
  8
Object
100
AcDbLine
 10
16.63428571428571
 20
25.10285714285715
 30
0.0
 11
16.66285714285714
 21
25.15857142857143
 31
0.0
  0
LINE
  5
40E
330
18
100
AcDbEntity
  8
Object
100
AcDbLine
 10
15.61428571428571
 20
24.97714285714286
 30
0.0
 11
15.58571428571428
 21
24.92
 31
0.0
  0
LINE
  5
40F
330
18
100
AcDbEntity
  8
Object
100
AcDbLine
 10
15.58571428571428
 20
25.15857142857143
 30
0.0
 11
15.61428571428571
 21
25.10285714285715
 31
0.0
  0
LINE
  5
410
330
18
100
AcDbEntity
  8
Object
100
AcDbLine
 10
15.58571428571428
 20
24.92
 30
0.0
 11
15.54
 21
24.87571428571428
 31
0.0
  0
LINE
  5
411
330
18
100
AcDbEntity
  8
Object
100
AcDbLine
 10
16.66285714285714
 20
25.15857142857143
 30
0.0
 11
16.70857142857142
 21
25.20428571428571
 31
0.0
  0
LINE
  5
412
330
18
100
AcDbEntity
  8
Object
100
AcDbLine
 10
16.66285714285714
 20
24.92
 30
0.0
 11
16.70857142857142
 21
24.87571428571428
 31
0.0
  0
LINE
  5
413
330
18
100
AcDbEntity
  8
Object
100
AcDbLine
 10
16.70857142857142
 20
24.87571428571428
 30
0.0
 11
16.76571428571428
 21
24.84714285714286
 31
0.0
  0
LINE
  5
414
330
18
100
AcDbEntity
  8
Object
100
AcDbLine
 10
15.58571428571428
 20
25.15857142857143
 30
0.0
 11
15.54
 21
25.20428571428571
 31
0.0
  0
LINE
  5
415
330
18
100
AcDbEntity
  8
Object
100
AcDbLine
 10
15.54
 20
25.20428571428571
 30
0.0
 11
15.48285714285714
 21
25.23285714285715
 31
0.0
  0
LINE
  5
416
330
18
100
AcDbEntity
  8
Object
100
AcDbLine
 10
15.54
 20
24.87571428571428
 30
0.0
 11
15.48285714285714
 21
24.84714285714286
 31
0.0
  0
LINE
  5
417
330
18
100
AcDbEntity
  8
Object
100
AcDbLine
 10
16.70857142857142
 20
25.20428571428571
 30
0.0
 11
16.76571428571428
 21
25.23285714285715
 31
0.0
  0
LINE
  5
418
330
18
100
AcDbEntity
  8
Object
100
AcDbLine
 10
16.82857142857143
 20
24.83714285714286
 30
0.0
 11
16.76571428571428
 21
24.84714285714286
 31
0.0
  0
LINE
  5
419
330
18
100
AcDbEntity
  8
Object
100
AcDbLine
 10
16.76571428571428
 20
25.23285714285715
 30
0.0
 11
16.82857142857143
 21
25.24285714285714
 31
0.0
  0
LINE
  5
41A
330
18
100
AcDbEntity
  8
Object
100
AcDbLine
 10
15.48285714285714
 20
24.84714285714286
 30
0.0
 11
15.42
 21
24.83714285714286
 31
0.0
  0
LINE
  5
41B
330
18
100
AcDbEntity
  8
Object
100
AcDbLine
 10
15.42
 20
25.24285714285714
 30
0.0
 11
15.48285714285714
 21
25.23285714285715
 31
0.0
  0
LINE
  5
41C
330
18
100
AcDbEntity
  8
Object
100
AcDbLine
 10
12.63428571428571
 20
25.10285714285715
 30
0.0
 11
12.62285714285714
 21
25.04
 31
0.0
  0
LINE
  5
41D
330
18
100
AcDbEntity
  8
Object
100
AcDbLine
 10
12.62285714285714
 20
25.04
 30
0.0
 11
12.63428571428571
 21
24.97714285714286
 31
0.0
  0
LINE
  5
41E
330
18
100
AcDbEntity
  8
Object
100
AcDbLine
 10
11.61428571428571
 20
25.10285714285715
 30
0.0
 11
11.62285714285714
 21
25.04
 31
0.0
  0
LINE
  5
41F
330
18
100
AcDbEntity
  8
Object
100
AcDbLine
 10
11.62285714285714
 20
25.04
 30
0.0
 11
11.61428571428571
 21
24.97714285714286
 31
0.0
  0
LINE
  5
420
330
18
100
AcDbEntity
  8
Object
100
AcDbLine
 10
12.66285714285714
 20
24.92
 30
0.0
 11
12.63428571428571
 21
24.97714285714286
 31
0.0
  0
LINE
  5
421
330
18
100
AcDbEntity
  8
Object
100
AcDbLine
 10
11.61428571428571
 20
24.97714285714286
 30
0.0
 11
11.58571428571428
 21
24.92
 31
0.0
  0
LINE
  5
422
330
18
100
AcDbEntity
  8
Object
100
AcDbLine
 10
11.58571428571428
 20
25.15857142857143
 30
0.0
 11
11.61428571428571
 21
25.10285714285715
 31
0.0
  0
LINE
  5
423
330
18
100
AcDbEntity
  8
Object
100
AcDbLine
 10
12.63428571428571
 20
25.10285714285715
 30
0.0
 11
12.66285714285714
 21
25.15857142857143
 31
0.0
  0
LINE
  5
424
330
18
100
AcDbEntity
  8
Object
100
AcDbLine
 10
12.76571428571428
 20
25.23285714285715
 30
0.0
 11
12.70857142857143
 21
25.20428571428571
 31
0.0
  0
LINE
  5
425
330
18
100
AcDbEntity
  8
Object
100
AcDbLine
 10
12.70857142857143
 20
25.20428571428571
 30
0.0
 11
12.66285714285714
 21
25.15857142857143
 31
0.0
  0
LINE
  5
426
330
18
100
AcDbEntity
  8
Object
100
AcDbLine
 10
11.58571428571428
 20
24.92
 30
0.0
 11
11.54
 21
24.87571428571428
 31
0.0
  0
LINE
  5
427
330
18
100
AcDbEntity
  8
Object
100
AcDbLine
 10
12.66285714285714
 20
24.92
 30
0.0
 11
12.70857142857143
 21
24.87571428571428
 31
0.0
  0
LINE
  5
428
330
18
100
AcDbEntity
  8
Object
100
AcDbLine
 10
12.70857142857143
 20
24.87571428571428
 30
0.0
 11
12.76571428571428
 21
24.84714285714286
 31
0.0
  0
LINE
  5
429
330
18
100
AcDbEntity
  8
Object
100
AcDbLine
 10
11.54
 20
25.20428571428571
 30
0.0
 11
11.58571428571428
 21
25.15857142857143
 31
0.0
  0
LINE
  5
42A
330
18
100
AcDbEntity
  8
Object
100
AcDbLine
 10
11.54
 20
24.87571428571428
 30
0.0
 11
11.48285714285714
 21
24.84714285714286
 31
0.0
  0
LINE
  5
42B
330
18
100
AcDbEntity
  8
Object
100
AcDbLine
 10
11.48285714285714
 20
25.23285714285715
 30
0.0
 11
11.54
 21
25.20428571428571
 31
0.0
  0
LINE
  5
42C
330
18
100
AcDbEntity
  8
Object
100
AcDbLine
 10
12.82857142857143
 20
24.83714285714286
 30
0.0
 11
12.76571428571428
 21
24.84714285714286
 31
0.0
  0
LINE
  5
42D
330
18
100
AcDbEntity
  8
Object
100
AcDbLine
 10
12.76571428571428
 20
25.23285714285715
 30
0.0
 11
12.82857142857143
 21
25.24285714285714
 31
0.0
  0
LINE
  5
42E
330
18
100
AcDbEntity
  8
Object
100
AcDbLine
 10
11.48285714285714
 20
24.84714285714286
 30
0.0
 11
11.42
 21
24.83714285714286
 31
0.0
  0
LINE
  5
42F
330
18
100
AcDbEntity
  8
Object
100
AcDbLine
 10
11.42
 20
25.24285714285714
 30
0.0
 11
11.48285714285714
 21
25.23285714285715
 31
0.0
  0
LINE
  5
430
330
18
100
AcDbEntity
  8
Object
100
AcDbLine
 10
8.634285714285713
 20
25.10285714285715
 30
0.0
 11
8.622857142857142
 21
25.04
 31
0.0
  0
LINE
  5
431
330
18
100
AcDbEntity
  8
Object
100
AcDbLine
 10
8.622857142857142
 20
25.04
 30
0.0
 11
8.634285714285713
 21
24.97714285714286
 31
0.0
  0
LINE
  5
432
330
18
100
AcDbEntity
  8
Object
100
AcDbLine
 10
7.614285714285713
 20
24.97714285714286
 30
0.0
 11
7.622857142857142
 21
25.04
 31
0.0
  0
LINE
  5
433
330
18
100
AcDbEntity
  8
Object
100
AcDbLine
 10
7.622857142857142
 20
25.04
 30
0.0
 11
7.614285714285713
 21
25.10285714285715
 31
0.0
  0
LINE
  5
434
330
18
100
AcDbEntity
  8
Object
100
AcDbLine
 10
8.708571428571428
 20
25.20428571428571
 30
0.0
 11
8.662857142857143
 21
25.15857142857143
 31
0.0
  0
LINE
  5
435
330
18
100
AcDbEntity
  8
Object
100
AcDbLine
 10
8.662857142857143
 20
25.15857142857143
 30
0.0
 11
8.634285714285713
 21
25.10285714285715
 31
0.0
  0
LINE
  5
436
330
18
100
AcDbEntity
  8
Object
100
AcDbLine
 10
8.634285714285713
 20
24.97714285714286
 30
0.0
 11
8.662857142857143
 21
24.92
 31
0.0
  0
LINE
  5
437
330
18
100
AcDbEntity
  8
Object
100
AcDbLine
 10
8.662857142857143
 20
24.92
 30
0.0
 11
8.708571428571428
 21
24.87571428571428
 31
0.0
  0
LINE
  5
438
330
18
100
AcDbEntity
  8
Object
100
AcDbLine
 10
7.614285714285713
 20
24.97714285714286
 30
0.0
 11
7.585714285714285
 21
24.92
 31
0.0
  0
LINE
  5
439
330
18
100
AcDbEntity
  8
Object
100
AcDbLine
 10
7.614285714285713
 20
25.10285714285715
 30
0.0
 11
7.585714285714285
 21
25.15857142857143
 31
0.0
  0
LINE
  5
43A
330
18
100
AcDbEntity
  8
Object
100
AcDbLine
 10
7.585714285714285
 20
25.15857142857143
 30
0.0
 11
7.54
 21
25.20428571428571
 31
0.0
  0
LINE
  5
43B
330
18
100
AcDbEntity
  8
Object
100
AcDbLine
 10
8.762857142857143
 20
24.84714285714286
 30
0.0
 11
8.708571428571428
 21
24.87571428571428
 31
0.0
  0
LINE
  5
43C
330
18
100
AcDbEntity
  8
Object
100
AcDbLine
 10
7.585714285714285
 20
24.92
 30
0.0
 11
7.54
 21
24.87571428571428
 31
0.0
  0
LINE
  5
43D
330
18
100
AcDbEntity
  8
Object
100
AcDbLine
 10
8.708571428571428
 20
25.20428571428571
 30
0.0
 11
8.762857142857143
 21
25.23285714285715
 31
0.0
  0
LINE
  5
43E
330
18
100
AcDbEntity
  8
Object
100
AcDbLine
 10
7.54
 20
24.87571428571428
 30
0.0
 11
7.482857142857143
 21
24.84714285714286
 31
0.0
  0
LINE
  5
43F
330
18
100
AcDbEntity
  8
Object
100
AcDbLine
 10
7.482857142857143
 20
25.23285714285715
 30
0.0
 11
7.54
 21
25.20428571428571
 31
0.0
  0
LINE
  5
440
330
18
100
AcDbEntity
  8
Object
100
AcDbLine
 10
7.482857142857143
 20
24.84714285714286
 30
0.0
 11
7.419999999999999
 21
24.83714285714286
 31
0.0
  0
LINE
  5
441
330
18
100
AcDbEntity
  8
Object
100
AcDbLine
 10
8.825714285714285
 20
24.83714285714286
 30
0.0
 11
8.762857142857143
 21
24.84714285714286
 31
0.0
  0
LINE
  5
442
330
18
100
AcDbEntity
  8
Object
100
AcDbLine
 10
8.762857142857143
 20
25.23285714285715
 30
0.0
 11
8.825714285714285
 21
25.24285714285714
 31
0.0
  0
LINE
  5
443
330
18
100
AcDbEntity
  8
Object
100
AcDbLine
 10
7.419999999999999
 20
25.24285714285714
 30
0.0
 11
7.482857142857143
 21
25.23285714285715
 31
0.0
  0
LINE
  5
444
330
18
100
AcDbEntity
  8
Object
100
AcDbLine
 10
12.82857142857143
 20
25.24285714285714
 30
0.0
 11
15.42
 21
25.24285714285714
 31
0.0
  0
LINE
  5
445
330
18
100
AcDbEntity
  8
Object
100
AcDbLine
 10
8.825714285714285
 20
25.24285714285714
 30
0.0
 11
11.42
 21
25.24285714285714
 31
0.0
  0
LINE
  5
446
330
18
100
AcDbEntity
  8
Object
100
AcDbLine
 10
15.42
 20
24.83714285714286
 30
0.0
 11
12.82857142857143
 21
24.83714285714286
 31
0.0
  0
LINE
  5
447
330
18
100
AcDbEntity
  8
Object
100
AcDbLine
 10
11.42
 20
24.83714285714286
 30
0.0
 11
8.825714285714285
 21
24.83714285714286
 31
0.0
  0
LINE
  5
448
330
18
100
AcDbEntity
  8
Object
100
AcDbLine
 10
7.419999999999999
 20
25.24285714285714
 30
0.0
 11
4.825714285714285
 21
25.24285714285714
 31
0.0
  0
LINE
  5
449
330
18
100
AcDbEntity
  8
Object
100
AcDbLine
 10
4.825714285714285
 20
25.24285714285714
 30
0.0
 11
4.825714285714285
 21
25.47714285714286
 31
0.0
  0
LINE
  5
44A
330
18
100
AcDbEntity
  8
Object
100
AcDbLine
 10
4.825714285714285
 20
24.60285714285714
 30
0.0
 11
4.825714285714285
 21
24.83714285714286
 31
0.0
  0
LINE
  5
44B
330
18
100
AcDbEntity
  8
Object
100
AcDbLine
 10
4.825714285714285
 20
24.83714285714286
 30
0.0
 11
7.419999999999999
 21
24.83714285714286
 31
0.0
  0
LINE
  5
44C
330
18
100
AcDbEntity
  8
Object
100
AcDbLine
 10
4.825714285714285
 20
25.84285714285714
 30
0.0
 11
4.825714285714285
 21
25.81714285714286
 31
0.0
  0
LINE
  5
44D
330
18
100
AcDbEntity
  8
Object
100
AcDbLine
 10
4.825714285714285
 20
25.81714285714286
 30
0.0
 11
4.825714285714285
 21
25.77571428571429
 31
0.0
  0
LINE
  5
44E
330
18
100
AcDbEntity
  8
Object
100
AcDbLine
 10
4.825714285714285
 20
25.72285714285714
 30
0.0
 11
4.825714285714285
 21
25.66428571428572
 31
0.0
  0
LINE
  5
44F
330
18
100
AcDbEntity
  8
Object
100
AcDbLine
 10
4.825714285714285
 20
25.66428571428572
 30
0.0
 11
4.825714285714285
 21
25.60285714285714
 31
0.0
  0
LINE
  5
450
330
18
100
AcDbEntity
  8
Object
100
AcDbLine
 10
4.825714285714285
 20
25.55428571428572
 30
0.0
 11
4.825714285714285
 21
25.51428571428572
 31
0.0
  0
LINE
  5
451
330
18
100
AcDbEntity
  8
Object
100
AcDbLine
 10
4.825714285714285
 20
25.47714285714286
 30
0.0
 11
4.825714285714285
 21
25.48714285714286
 31
0.0
  0
LINE
  5
452
330
18
100
AcDbEntity
  8
Object
100
AcDbLine
 10
4.825714285714285
 20
25.48714285714286
 30
0.0
 11
4.825714285714285
 21
25.51428571428572
 31
0.0
  0
LINE
  5
453
330
18
100
AcDbEntity
  8
Object
100
AcDbLine
 10
4.825714285714285
 20
25.60285714285714
 30
0.0
 11
4.825714285714285
 21
25.55428571428572
 31
0.0
  0
LINE
  5
454
330
18
100
AcDbEntity
  8
Object
100
AcDbLine
 10
4.825714285714285
 20
25.77571428571429
 30
0.0
 11
4.825714285714285
 21
25.72285714285714
 31
0.0
  0
LINE
  5
455
330
18
100
AcDbEntity
  8
Object
100
AcDbLine
 10
4.825714285714285
 20
25.85285714285714
 30
0.0
 11
4.825714285714285
 21
25.84285714285714
 31
0.0
  0
LINE
  5
456
330
18
100
AcDbEntity
  8
Object
100
AcDbLine
 10
4.825714285714285
 20
25.47714285714286
 30
0.0
 11
4.825714285714285
 21
25.24285714285714
 31
0.0
  0
LINE
  5
457
330
18
100
AcDbEntity
  8
Object
100
AcDbLine
 10
7.419999999999999
 20
24.83714285714286
 30
0.0
 11
4.825714285714285
 21
24.83714285714286
 31
0.0
  0
LINE
  5
458
330
18
100
AcDbEntity
  8
Object
100
AcDbLine
 10
16.82857142857143
 20
24.83714285714286
 30
0.0
 11
16.76571428571428
 21
24.84714285714286
 31
0.0
  0
LINE
  5
459
330
18
100
AcDbEntity
  8
Object
100
AcDbLine
 10
16.76571428571428
 20
24.84714285714286
 30
0.0
 11
16.70857142857142
 21
24.87571428571428
 31
0.0
  0
LINE
  5
45A
330
18
100
AcDbEntity
  8
Object
100
AcDbLine
 10
16.70857142857142
 20
24.87571428571428
 30
0.0
 11
16.66285714285714
 21
24.92
 31
0.0
  0
LINE
  5
45B
330
18
100
AcDbEntity
  8
Object
100
AcDbLine
 10
16.66285714285714
 20
24.92
 30
0.0
 11
16.63428571428571
 21
24.97714285714286
 31
0.0
  0
LINE
  5
45C
330
18
100
AcDbEntity
  8
Object
100
AcDbLine
 10
16.63428571428571
 20
24.97714285714286
 30
0.0
 11
16.62285714285714
 21
25.04
 31
0.0
  0
LINE
  5
45D
330
18
100
AcDbEntity
  8
Object
100
AcDbLine
 10
20.82857142857143
 20
25.24285714285714
 30
0.0
 11
20.76571428571428
 21
25.23285714285715
 31
0.0
  0
LINE
  5
45E
330
18
100
AcDbEntity
  8
Object
100
AcDbLine
 10
20.76571428571428
 20
25.23285714285715
 30
0.0
 11
20.70857142857143
 21
25.20428571428571
 31
0.0
  0
LINE
  5
45F
330
18
100
AcDbEntity
  8
Object
100
AcDbLine
 10
20.70857142857143
 20
25.20428571428571
 30
0.0
 11
20.66285714285714
 21
25.15857142857143
 31
0.0
  0
LINE
  5
460
330
18
100
AcDbEntity
  8
Object
100
AcDbLine
 10
20.66285714285714
 20
25.15857142857143
 30
0.0
 11
20.63428571428572
 21
25.10285714285715
 31
0.0
  0
LINE
  5
461
330
18
100
AcDbEntity
  8
Object
100
AcDbLine
 10
20.63428571428572
 20
25.10285714285715
 30
0.0
 11
20.62571428571429
 21
25.04
 31
0.0
  0
LINE
  5
462
330
18
100
AcDbEntity
  8
Object
100
AcDbLine
 10
11.42
 20
24.83714285714286
 30
0.0
 11
8.825714285714285
 21
24.83714285714286
 31
0.0
  0
LINE
  5
463
330
18
100
AcDbEntity
  8
Object
100
AcDbLine
 10
8.825714285714285
 20
24.83714285714286
 30
0.0
 11
8.762857142857143
 21
24.84714285714286
 31
0.0
  0
LINE
  5
464
330
18
100
AcDbEntity
  8
Object
100
AcDbLine
 10
8.762857142857143
 20
24.84714285714286
 30
0.0
 11
8.708571428571428
 21
24.87571428571428
 31
0.0
  0
LINE
  5
465
330
18
100
AcDbEntity
  8
Object
100
AcDbLine
 10
8.708571428571428
 20
24.87571428571428
 30
0.0
 11
8.662857142857143
 21
24.92
 31
0.0
  0
LINE
  5
466
330
18
100
AcDbEntity
  8
Object
100
AcDbLine
 10
8.662857142857143
 20
24.92
 30
0.0
 11
8.634285714285713
 21
24.97714285714286
 31
0.0
  0
LINE
  5
467
330
18
100
AcDbEntity
  8
Object
100
AcDbLine
 10
8.634285714285713
 20
24.97714285714286
 30
0.0
 11
8.622857142857142
 21
25.04
 31
0.0
  0
LINE
  5
468
330
18
100
AcDbEntity
  8
Object
100
AcDbLine
 10
27.42285714285714
 20
25.77571428571429
 30
0.0
 11
27.42285714285714
 21
25.81714285714286
 31
0.0
  0
LINE
  5
469
330
18
100
AcDbEntity
  8
Object
100
AcDbLine
 10
27.42285714285714
 20
25.66428571428572
 30
0.0
 11
27.42285714285714
 21
25.72285714285714
 31
0.0
  0
LINE
  5
46A
330
18
100
AcDbEntity
  8
Object
100
AcDbLine
 10
27.42285714285714
 20
25.51428571428572
 30
0.0
 11
27.42285714285714
 21
25.55428571428572
 31
0.0
  0
LINE
  5
46B
330
18
100
AcDbEntity
  8
Object
100
AcDbLine
 10
27.42285714285714
 20
25.47714285714286
 30
0.0
 11
27.42285714285714
 21
25.48714285714286
 31
0.0
  0
LINE
  5
46C
330
18
100
AcDbEntity
  8
Object
100
AcDbLine
 10
27.42285714285714
 20
25.48714285714286
 30
0.0
 11
27.42285714285714
 21
25.51428571428572
 31
0.0
  0
LINE
  5
46D
330
18
100
AcDbEntity
  8
Object
100
AcDbLine
 10
27.42285714285714
 20
25.55428571428572
 30
0.0
 11
27.42285714285714
 21
25.60285714285714
 31
0.0
  0
LINE
  5
46E
330
18
100
AcDbEntity
  8
Object
100
AcDbLine
 10
27.42285714285714
 20
25.60285714285714
 30
0.0
 11
27.42285714285714
 21
25.66428571428572
 31
0.0
  0
LINE
  5
46F
330
18
100
AcDbEntity
  8
Object
100
AcDbLine
 10
27.42285714285714
 20
25.72285714285714
 30
0.0
 11
27.42285714285714
 21
25.77571428571429
 31
0.0
  0
LINE
  5
470
330
18
100
AcDbEntity
  8
Object
100
AcDbLine
 10
27.42285714285714
 20
25.81714285714286
 30
0.0
 11
27.42285714285714
 21
25.84285714285714
 31
0.0
  0
LINE
  5
471
330
18
100
AcDbEntity
  8
Object
100
AcDbLine
 10
27.42285714285714
 20
25.84285714285714
 30
0.0
 11
27.42285714285714
 21
25.85285714285714
 31
0.0
  0
LINE
  5
472
330
18
100
AcDbEntity
  8
Object
100
AcDbLine
 10
27.42285714285714
 20
25.24285714285714
 30
0.0
 11
27.42285714285714
 21
25.47714285714286
 31
0.0
  0
LINE
  5
473
330
18
100
AcDbEntity
  8
Object
100
AcDbLine
 10
12.82857142857143
 20
25.24285714285714
 30
0.0
 11
12.76571428571428
 21
25.23285714285715
 31
0.0
  0
LINE
  5
474
330
18
100
AcDbEntity
  8
Object
100
AcDbLine
 10
12.76571428571428
 20
25.23285714285715
 30
0.0
 11
12.70857142857143
 21
25.20428571428571
 31
0.0
  0
LINE
  5
475
330
18
100
AcDbEntity
  8
Object
100
AcDbLine
 10
12.70857142857143
 20
25.20428571428571
 30
0.0
 11
12.66285714285714
 21
25.15857142857143
 31
0.0
  0
LINE
  5
476
330
18
100
AcDbEntity
  8
Object
100
AcDbLine
 10
12.66285714285714
 20
25.15857142857143
 30
0.0
 11
12.63428571428571
 21
25.10285714285715
 31
0.0
  0
LINE
  5
477
330
18
100
AcDbEntity
  8
Object
100
AcDbLine
 10
12.63428571428571
 20
25.10285714285715
 30
0.0
 11
12.62285714285714
 21
25.04
 31
0.0
  0
LINE
  5
478
330
18
100
AcDbEntity
  8
Object
100
AcDbLine
 10
23.61428571428572
 20
25.10285714285715
 30
0.0
 11
23.62571428571428
 21
25.04
 31
0.0
  0
LINE
  5
479
330
18
100
AcDbEntity
  8
Object
100
AcDbLine
 10
23.62571428571428
 20
25.04
 30
0.0
 11
23.61428571428572
 21
24.97714285714286
 31
0.0
  0
LINE
  5
47A
330
18
100
AcDbEntity
  8
Object
100
AcDbLine
 10
23.58571428571428
 20
25.15857142857143
 30
0.0
 11
23.61428571428572
 21
25.10285714285715
 31
0.0
  0
LINE
  5
47B
330
18
100
AcDbEntity
  8
Object
100
AcDbLine
 10
23.61428571428572
 20
24.97714285714286
 30
0.0
 11
23.58571428571428
 21
24.92
 31
0.0
  0
LINE
  5
47C
330
18
100
AcDbEntity
  8
Object
100
AcDbLine
 10
23.54
 20
25.20428571428571
 30
0.0
 11
23.58571428571428
 21
25.15857142857143
 31
0.0
  0
LINE
  5
47D
330
18
100
AcDbEntity
  8
Object
100
AcDbLine
 10
23.58571428571428
 20
24.92
 30
0.0
 11
23.54
 21
24.87571428571428
 31
0.0
  0
LINE
  5
47E
330
18
100
AcDbEntity
  8
Object
100
AcDbLine
 10
23.54
 20
24.87571428571428
 30
0.0
 11
23.48285714285714
 21
24.84714285714286
 31
0.0
  0
LINE
  5
47F
330
18
100
AcDbEntity
  8
Object
100
AcDbLine
 10
23.54
 20
25.20428571428571
 30
0.0
 11
23.48285714285714
 21
25.23285714285715
 31
0.0
  0
LINE
  5
480
330
18
100
AcDbEntity
  8
Object
100
AcDbLine
 10
23.48285714285714
 20
25.23285714285715
 30
0.0
 11
23.42
 21
25.24285714285714
 31
0.0
  0
LINE
  5
481
330
18
100
AcDbEntity
  8
Object
100
AcDbLine
 10
23.48285714285714
 20
24.84714285714286
 30
0.0
 11
23.42
 21
24.83714285714286
 31
0.0
  0
LINE
  5
482
330
18
100
AcDbEntity
  8
Object
100
AcDbLine
 10
20.82857142857143
 20
24.83714285714286
 30
0.0
 11
20.76571428571428
 21
24.84714285714286
 31
0.0
  0
LINE
  5
483
330
18
100
AcDbEntity
  8
Object
100
AcDbLine
 10
20.76571428571428
 20
24.84714285714286
 30
0.0
 11
20.70857142857143
 21
24.87571428571428
 31
0.0
  0
LINE
  5
484
330
18
100
AcDbEntity
  8
Object
100
AcDbLine
 10
20.70857142857143
 20
24.87571428571428
 30
0.0
 11
20.66285714285714
 21
24.92
 31
0.0
  0
LINE
  5
485
330
18
100
AcDbEntity
  8
Object
100
AcDbLine
 10
20.66285714285714
 20
24.92
 30
0.0
 11
20.63428571428572
 21
24.97714285714286
 31
0.0
  0
LINE
  5
486
330
18
100
AcDbEntity
  8
Object
100
AcDbLine
 10
20.63428571428572
 20
24.97714285714286
 30
0.0
 11
20.62571428571429
 21
25.04
 31
0.0
  0
LINE
  5
487
330
18
100
AcDbEntity
  8
Object
100
AcDbLine
 10
15.42
 20
24.83714285714286
 30
0.0
 11
12.82857142857143
 21
24.83714285714286
 31
0.0
  0
LINE
  5
488
330
18
100
AcDbEntity
  8
Object
100
AcDbLine
 10
20.82857142857143
 20
25.24285714285714
 30
0.0
 11
23.42
 21
25.24285714285714
 31
0.0
  0
LINE
  5
489
330
18
100
AcDbEntity
  8
Object
100
AcDbLine
 10
16.82857142857143
 20
25.24285714285714
 30
0.0
 11
16.76571428571428
 21
25.23285714285715
 31
0.0
  0
LINE
  5
48A
330
18
100
AcDbEntity
  8
Object
100
AcDbLine
 10
16.76571428571428
 20
25.23285714285715
 30
0.0
 11
16.70857142857142
 21
25.20428571428571
 31
0.0
  0
LINE
  5
48B
330
18
100
AcDbEntity
  8
Object
100
AcDbLine
 10
16.70857142857142
 20
25.20428571428571
 30
0.0
 11
16.66285714285714
 21
25.15857142857143
 31
0.0
  0
LINE
  5
48C
330
18
100
AcDbEntity
  8
Object
100
AcDbLine
 10
16.66285714285714
 20
25.15857142857143
 30
0.0
 11
16.63428571428571
 21
25.10285714285715
 31
0.0
  0
LINE
  5
48D
330
18
100
AcDbEntity
  8
Object
100
AcDbLine
 10
16.63428571428571
 20
25.10285714285715
 30
0.0
 11
16.62285714285714
 21
25.04
 31
0.0
  0
LINE
  5
48E
330
18
100
AcDbEntity
  8
Object
100
AcDbLine
 10
12.82857142857143
 20
25.24285714285714
 30
0.0
 11
15.42
 21
25.24285714285714
 31
0.0
  0
LINE
  5
48F
330
18
100
AcDbEntity
  8
Object
100
AcDbLine
 10
11.61428571428571
 20
25.10285714285715
 30
0.0
 11
11.62285714285714
 21
25.04
 31
0.0
  0
LINE
  5
490
330
18
100
AcDbEntity
  8
Object
100
AcDbLine
 10
11.62285714285714
 20
25.04
 30
0.0
 11
11.61428571428571
 21
24.97714285714286
 31
0.0
  0
LINE
  5
491
330
18
100
AcDbEntity
  8
Object
100
AcDbLine
 10
11.58571428571428
 20
25.15857142857143
 30
0.0
 11
11.61428571428571
 21
25.10285714285715
 31
0.0
  0
LINE
  5
492
330
18
100
AcDbEntity
  8
Object
100
AcDbLine
 10
11.61428571428571
 20
24.97714285714286
 30
0.0
 11
11.58571428571428
 21
24.92
 31
0.0
  0
LINE
  5
493
330
18
100
AcDbEntity
  8
Object
100
AcDbLine
 10
11.54
 20
25.20428571428571
 30
0.0
 11
11.58571428571428
 21
25.15857142857143
 31
0.0
  0
LINE
  5
494
330
18
100
AcDbEntity
  8
Object
100
AcDbLine
 10
11.58571428571428
 20
24.92
 30
0.0
 11
11.54
 21
24.87571428571428
 31
0.0
  0
LINE
  5
495
330
18
100
AcDbEntity
  8
Object
100
AcDbLine
 10
11.54
 20
24.87571428571428
 30
0.0
 11
11.48285714285714
 21
24.84714285714286
 31
0.0
  0
LINE
  5
496
330
18
100
AcDbEntity
  8
Object
100
AcDbLine
 10
11.54
 20
25.20428571428571
 30
0.0
 11
11.48285714285714
 21
25.23285714285715
 31
0.0
  0
LINE
  5
497
330
18
100
AcDbEntity
  8
Object
100
AcDbLine
 10
11.48285714285714
 20
25.23285714285715
 30
0.0
 11
11.42
 21
25.24285714285714
 31
0.0
  0
LINE
  5
498
330
18
100
AcDbEntity
  8
Object
100
AcDbLine
 10
11.48285714285714
 20
24.84714285714286
 30
0.0
 11
11.42
 21
24.83714285714286
 31
0.0
  0
LINE
  5
499
330
18
100
AcDbEntity
  8
Object
100
AcDbLine
 10
4.825714285714285
 20
24.26285714285715
 30
0.0
 11
4.825714285714285
 21
24.23714285714286
 31
0.0
  0
LINE
  5
49A
330
18
100
AcDbEntity
  8
Object
100
AcDbLine
 10
4.825714285714285
 20
24.41428571428572
 30
0.0
 11
4.825714285714285
 21
24.35714285714286
 31
0.0
  0
LINE
  5
49B
330
18
100
AcDbEntity
  8
Object
100
AcDbLine
 10
4.825714285714285
 20
24.56571428571429
 30
0.0
 11
4.825714285714285
 21
24.52571428571429
 31
0.0
  0
LINE
  5
49C
330
18
100
AcDbEntity
  8
Object
100
AcDbLine
 10
4.825714285714285
 20
24.60285714285714
 30
0.0
 11
4.825714285714285
 21
24.59285714285714
 31
0.0
  0
LINE
  5
49D
330
18
100
AcDbEntity
  8
Object
100
AcDbLine
 10
4.825714285714285
 20
24.59285714285714
 30
0.0
 11
4.825714285714285
 21
24.56571428571429
 31
0.0
  0
LINE
  5
49E
330
18
100
AcDbEntity
  8
Object
100
AcDbLine
 10
4.825714285714285
 20
24.52571428571429
 30
0.0
 11
4.825714285714285
 21
24.47714285714286
 31
0.0
  0
LINE
  5
49F
330
18
100
AcDbEntity
  8
Object
100
AcDbLine
 10
4.825714285714285
 20
24.47714285714286
 30
0.0
 11
4.825714285714285
 21
24.41428571428572
 31
0.0
  0
LINE
  5
4A0
330
18
100
AcDbEntity
  8
Object
100
AcDbLine
 10
4.825714285714285
 20
24.35714285714286
 30
0.0
 11
4.825714285714285
 21
24.30428571428572
 31
0.0
  0
LINE
  5
4A1
330
18
100
AcDbEntity
  8
Object
100
AcDbLine
 10
4.825714285714285
 20
24.30428571428572
 30
0.0
 11
4.825714285714285
 21
24.26285714285715
 31
0.0
  0
LINE
  5
4A2
330
18
100
AcDbEntity
  8
Object
100
AcDbLine
 10
4.825714285714285
 20
24.23714285714286
 30
0.0
 11
4.825714285714285
 21
24.22714285714286
 31
0.0
  0
LINE
  5
4A3
330
18
100
AcDbEntity
  8
Object
100
AcDbLine
 10
4.825714285714285
 20
24.83714285714286
 30
0.0
 11
4.825714285714285
 21
24.60285714285714
 31
0.0
  0
LINE
  5
4A4
330
18
100
AcDbEntity
  8
Object
100
AcDbLine
 10
19.42
 20
24.83714285714286
 30
0.0
 11
16.82857142857143
 21
24.83714285714286
 31
0.0
  0
LINE
  5
4A5
330
18
100
AcDbEntity
  8
Object
100
AcDbLine
 10
15.61428571428571
 20
25.10285714285715
 30
0.0
 11
15.62285714285714
 21
25.04
 31
0.0
  0
LINE
  5
4A6
330
18
100
AcDbEntity
  8
Object
100
AcDbLine
 10
15.62285714285714
 20
25.04
 30
0.0
 11
15.61428571428571
 21
24.97714285714286
 31
0.0
  0
LINE
  5
4A7
330
18
100
AcDbEntity
  8
Object
100
AcDbLine
 10
15.58571428571428
 20
25.15857142857143
 30
0.0
 11
15.61428571428571
 21
25.10285714285715
 31
0.0
  0
LINE
  5
4A8
330
18
100
AcDbEntity
  8
Object
100
AcDbLine
 10
15.61428571428571
 20
24.97714285714286
 30
0.0
 11
15.58571428571428
 21
24.92
 31
0.0
  0
LINE
  5
4A9
330
18
100
AcDbEntity
  8
Object
100
AcDbLine
 10
15.54
 20
25.20428571428571
 30
0.0
 11
15.58571428571428
 21
25.15857142857143
 31
0.0
  0
LINE
  5
4AA
330
18
100
AcDbEntity
  8
Object
100
AcDbLine
 10
15.58571428571428
 20
24.92
 30
0.0
 11
15.54
 21
24.87571428571428
 31
0.0
  0
LINE
  5
4AB
330
18
100
AcDbEntity
  8
Object
100
AcDbLine
 10
15.54
 20
24.87571428571428
 30
0.0
 11
15.48285714285714
 21
24.84714285714286
 31
0.0
  0
LINE
  5
4AC
330
18
100
AcDbEntity
  8
Object
100
AcDbLine
 10
15.54
 20
25.20428571428571
 30
0.0
 11
15.48285714285714
 21
25.23285714285715
 31
0.0
  0
LINE
  5
4AD
330
18
100
AcDbEntity
  8
Object
100
AcDbLine
 10
15.48285714285714
 20
25.23285714285715
 30
0.0
 11
15.42
 21
25.24285714285714
 31
0.0
  0
LINE
  5
4AE
330
18
100
AcDbEntity
  8
Object
100
AcDbLine
 10
15.48285714285714
 20
24.84714285714286
 30
0.0
 11
15.42
 21
24.83714285714286
 31
0.0
  0
LINE
  5
4AF
330
18
100
AcDbEntity
  8
Object
100
AcDbLine
 10
12.82857142857143
 20
24.83714285714286
 30
0.0
 11
12.76571428571428
 21
24.84714285714286
 31
0.0
  0
LINE
  5
4B0
330
18
100
AcDbEntity
  8
Object
100
AcDbLine
 10
12.76571428571428
 20
24.84714285714286
 30
0.0
 11
12.70857142857143
 21
24.87571428571428
 31
0.0
  0
LINE
  5
4B1
330
18
100
AcDbEntity
  8
Object
100
AcDbLine
 10
12.70857142857143
 20
24.87571428571428
 30
0.0
 11
12.66285714285714
 21
24.92
 31
0.0
  0
LINE
  5
4B2
330
18
100
AcDbEntity
  8
Object
100
AcDbLine
 10
12.66285714285714
 20
24.92
 30
0.0
 11
12.63428571428571
 21
24.97714285714286
 31
0.0
  0
LINE
  5
4B3
330
18
100
AcDbEntity
  8
Object
100
AcDbLine
 10
12.63428571428571
 20
24.97714285714286
 30
0.0
 11
12.62285714285714
 21
25.04
 31
0.0
  0
LINE
  5
4B4
330
18
100
AcDbEntity
  8
Object
100
AcDbLine
 10
16.82857142857143
 20
25.24285714285714
 30
0.0
 11
19.42
 21
25.24285714285714
 31
0.0
  0
LINE
  5
4B5
330
18
100
AcDbEntity
  8
Object
100
AcDbLine
 10
8.825714285714285
 20
25.24285714285714
 30
0.0
 11
8.762857142857143
 21
25.23285714285715
 31
0.0
  0
LINE
  5
4B6
330
18
100
AcDbEntity
  8
Object
100
AcDbLine
 10
8.762857142857143
 20
25.23285714285715
 30
0.0
 11
8.708571428571428
 21
25.20428571428571
 31
0.0
  0
LINE
  5
4B7
330
18
100
AcDbEntity
  8
Object
100
AcDbLine
 10
8.708571428571428
 20
25.20428571428571
 30
0.0
 11
8.662857142857143
 21
25.15857142857143
 31
0.0
  0
LINE
  5
4B8
330
18
100
AcDbEntity
  8
Object
100
AcDbLine
 10
8.662857142857143
 20
25.15857142857143
 30
0.0
 11
8.634285714285713
 21
25.10285714285715
 31
0.0
  0
LINE
  5
4B9
330
18
100
AcDbEntity
  8
Object
100
AcDbLine
 10
8.634285714285713
 20
25.10285714285715
 30
0.0
 11
8.622857142857142
 21
25.04
 31
0.0
  0
LINE
  5
4BA
330
18
100
AcDbEntity
  8
Object
100
AcDbLine
 10
8.825714285714285
 20
25.24285714285714
 30
0.0
 11
11.42
 21
25.24285714285714
 31
0.0
  0
LINE
  5
4BB
330
18
100
AcDbEntity
  8
Object
100
AcDbLine
 10
24.82857142857143
 20
24.83714285714286
 30
0.0
 11
24.76571428571429
 21
24.84714285714286
 31
0.0
  0
LINE
  5
4BC
330
18
100
AcDbEntity
  8
Object
100
AcDbLine
 10
24.76571428571429
 20
24.84714285714286
 30
0.0
 11
24.70857142857143
 21
24.87571428571428
 31
0.0
  0
LINE
  5
4BD
330
18
100
AcDbEntity
  8
Object
100
AcDbLine
 10
24.70857142857143
 20
24.87571428571428
 30
0.0
 11
24.66285714285714
 21
24.92
 31
0.0
  0
LINE
  5
4BE
330
18
100
AcDbEntity
  8
Object
100
AcDbLine
 10
24.66285714285714
 20
24.92
 30
0.0
 11
24.63428571428571
 21
24.97714285714286
 31
0.0
  0
LINE
  5
4BF
330
18
100
AcDbEntity
  8
Object
100
AcDbLine
 10
24.63428571428571
 20
24.97714285714286
 30
0.0
 11
24.62571428571429
 21
25.04
 31
0.0
  0
LINE
  5
4C0
330
18
100
AcDbEntity
  8
Object
100
AcDbLine
 10
24.82857142857143
 20
25.24285714285714
 30
0.0
 11
24.76571428571429
 21
25.23285714285715
 31
0.0
  0
LINE
  5
4C1
330
18
100
AcDbEntity
  8
Object
100
AcDbLine
 10
24.76571428571429
 20
25.23285714285715
 30
0.0
 11
24.70857142857143
 21
25.20428571428571
 31
0.0
  0
LINE
  5
4C2
330
18
100
AcDbEntity
  8
Object
100
AcDbLine
 10
24.70857142857143
 20
25.20428571428571
 30
0.0
 11
24.66285714285714
 21
25.15857142857143
 31
0.0
  0
LINE
  5
4C3
330
18
100
AcDbEntity
  8
Object
100
AcDbLine
 10
24.66285714285714
 20
25.15857142857143
 30
0.0
 11
24.63428571428571
 21
25.10285714285715
 31
0.0
  0
LINE
  5
4C4
330
18
100
AcDbEntity
  8
Object
100
AcDbLine
 10
24.63428571428571
 20
25.10285714285715
 30
0.0
 11
24.62571428571429
 21
25.04
 31
0.0
  0
LINE
  5
4C5
330
18
100
AcDbEntity
  8
Object
100
AcDbLine
 10
19.61428571428571
 20
25.10285714285715
 30
0.0
 11
19.62571428571428
 21
25.04
 31
0.0
  0
LINE
  5
4C6
330
18
100
AcDbEntity
  8
Object
100
AcDbLine
 10
19.62571428571428
 20
25.04
 30
0.0
 11
19.61428571428571
 21
24.97714285714286
 31
0.0
  0
LINE
  5
4C7
330
18
100
AcDbEntity
  8
Object
100
AcDbLine
 10
19.61428571428571
 20
24.97714285714286
 30
0.0
 11
19.58571428571428
 21
24.92
 31
0.0
  0
LINE
  5
4C8
330
18
100
AcDbEntity
  8
Object
100
AcDbLine
 10
19.61428571428571
 20
25.10285714285715
 30
0.0
 11
19.58571428571428
 21
25.15857142857143
 31
0.0
  0
LINE
  5
4C9
330
18
100
AcDbEntity
  8
Object
100
AcDbLine
 10
19.58571428571428
 20
25.15857142857143
 30
0.0
 11
19.54
 21
25.20428571428571
 31
0.0
  0
LINE
  5
4CA
330
18
100
AcDbEntity
  8
Object
100
AcDbLine
 10
19.58571428571428
 20
24.92
 30
0.0
 11
19.54
 21
24.87571428571428
 31
0.0
  0
LINE
  5
4CB
330
18
100
AcDbEntity
  8
Object
100
AcDbLine
 10
19.54
 20
24.87571428571428
 30
0.0
 11
19.48285714285714
 21
24.84714285714286
 31
0.0
  0
LINE
  5
4CC
330
18
100
AcDbEntity
  8
Object
100
AcDbLine
 10
19.54
 20
25.20428571428571
 30
0.0
 11
19.48285714285714
 21
25.23285714285715
 31
0.0
  0
LINE
  5
4CD
330
18
100
AcDbEntity
  8
Object
100
AcDbLine
 10
19.48285714285714
 20
25.23285714285715
 30
0.0
 11
19.42
 21
25.24285714285714
 31
0.0
  0
LINE
  5
4CE
330
18
100
AcDbEntity
  8
Object
100
AcDbLine
 10
19.48285714285714
 20
24.84714285714286
 30
0.0
 11
19.42
 21
24.83714285714286
 31
0.0
  0
LINE
  5
4CF
330
18
100
AcDbEntity
  8
Object
100
AcDbLine
 10
27.42285714285714
 20
24.83714285714286
 30
0.0
 11
24.82857142857143
 21
24.83714285714286
 31
0.0
  0
LINE
  5
4D0
330
18
100
AcDbEntity
  8
Object
100
AcDbLine
 10
23.42
 20
24.83714285714286
 30
0.0
 11
20.82857142857143
 21
24.83714285714286
 31
0.0
  0
LINE
  5
4D1
330
18
100
AcDbEntity
  8
Object
100
AcDbLine
 10
27.42285714285714
 20
24.22714285714286
 30
0.0
 11
27.42285714285714
 21
24.23714285714286
 31
0.0
  0
LINE
  5
4D2
330
18
100
AcDbEntity
  8
Object
100
AcDbLine
 10
27.42285714285714
 20
24.26285714285715
 30
0.0
 11
27.42285714285714
 21
24.30428571428572
 31
0.0
  0
LINE
  5
4D3
330
18
100
AcDbEntity
  8
Object
100
AcDbLine
 10
27.42285714285714
 20
24.30428571428572
 30
0.0
 11
27.42285714285714
 21
24.35714285714286
 31
0.0
  0
LINE
  5
4D4
330
18
100
AcDbEntity
  8
Object
100
AcDbLine
 10
27.42285714285714
 20
24.35714285714286
 30
0.0
 11
27.42285714285714
 21
24.41428571428572
 31
0.0
  0
LINE
  5
4D5
330
18
100
AcDbEntity
  8
Object
100
AcDbLine
 10
27.42285714285714
 20
24.41428571428572
 30
0.0
 11
27.42285714285714
 21
24.47714285714286
 31
0.0
  0
LINE
  5
4D6
330
18
100
AcDbEntity
  8
Object
100
AcDbLine
 10
27.42285714285714
 20
24.52571428571429
 30
0.0
 11
27.42285714285714
 21
24.56571428571429
 31
0.0
  0
LINE
  5
4D7
330
18
100
AcDbEntity
  8
Object
100
AcDbLine
 10
27.42285714285714
 20
24.60285714285714
 30
0.0
 11
27.42285714285714
 21
24.59285714285714
 31
0.0
  0
LINE
  5
4D8
330
18
100
AcDbEntity
  8
Object
100
AcDbLine
 10
27.42285714285714
 20
24.59285714285714
 30
0.0
 11
27.42285714285714
 21
24.56571428571429
 31
0.0
  0
LINE
  5
4D9
330
18
100
AcDbEntity
  8
Object
100
AcDbLine
 10
27.42285714285714
 20
24.47714285714286
 30
0.0
 11
27.42285714285714
 21
24.52571428571429
 31
0.0
  0
LINE
  5
4DA
330
18
100
AcDbEntity
  8
Object
100
AcDbLine
 10
27.42285714285714
 20
24.23714285714286
 30
0.0
 11
27.42285714285714
 21
24.26285714285715
 31
0.0
  0
LINE
  5
4DB
330
18
100
AcDbEntity
  8
Object
100
AcDbLine
 10
27.42285714285714
 20
24.60285714285714
 30
0.0
 11
27.42285714285714
 21
24.83714285714286
 31
0.0
  0
LINE
  5
4DC
330
18
100
AcDbEntity
  8
Object
100
AcDbLine
 10
24.82857142857143
 20
25.24285714285714
 30
0.0
 11
27.42285714285714
 21
25.24285714285714
 31
0.0
  0
LINE
  5
4DD
330
18
100
AcDbEntity
  8
Object
100
AcDbLine
 10
27.42285714285714
 20
25.85285714285714
 30
0.0
 11
4.825714285714285
 21
25.85285714285714
 31
0.0
  0
LINE
  5
4DE
330
18
100
AcDbEntity
  8
Object
100
AcDbLine
 10
4.825714285714285
 20
25.47714285714286
 30
0.0
 11
27.42285714285714
 21
25.47714285714286
 31
0.0
  0
LINE
  5
4DF
330
18
100
AcDbEntity
  8
Object
100
AcDbLine
 10
4.825714285714285
 20
25.66428571428572
 30
0.0
 11
27.42285714285714
 21
25.66428571428572
 31
0.0
  0
LINE
  5
4E0
330
18
100
AcDbEntity
  8
Object
100
AcDbLine
 10
27.42285714285714
 20
25.66428571428572
 30
0.0
 11
27.42285714285714
 21
25.60285714285714
 31
0.0
  0
LINE
  5
4E1
330
18
100
AcDbEntity
  8
Object
100
AcDbLine
 10
27.42285714285714
 20
25.60285714285714
 30
0.0
 11
4.825714285714285
 21
25.60285714285714
 31
0.0
  0
LINE
  5
4E2
330
18
100
AcDbEntity
  8
Object
100
AcDbLine
 10
4.825714285714285
 20
25.60285714285714
 30
0.0
 11
4.825714285714285
 21
25.66428571428572
 31
0.0
  0
LINE
  5
4E3
330
18
100
AcDbEntity
  8
Object
100
AcDbLine
 10
4.825714285714285
 20
25.55428571428572
 30
0.0
 11
4.825714285714285
 21
25.51428571428572
 31
0.0
  0
LINE
  5
4E4
330
18
100
AcDbEntity
  8
Object
100
AcDbLine
 10
27.42285714285714
 20
25.51428571428572
 30
0.0
 11
27.42285714285714
 21
25.55428571428572
 31
0.0
  0
LINE
  5
4E5
330
18
100
AcDbEntity
  8
Object
100
AcDbLine
 10
4.825714285714285
 20
25.48714285714286
 30
0.0
 11
4.825714285714285
 21
25.47714285714286
 31
0.0
  0
LINE
  5
4E6
330
18
100
AcDbEntity
  8
Object
100
AcDbLine
 10
27.42285714285714
 20
25.48714285714286
 30
0.0
 11
27.42285714285714
 21
25.47714285714286
 31
0.0
  0
LINE
  5
4E7
330
18
100
AcDbEntity
  8
Object
100
AcDbLine
 10
27.42285714285714
 20
25.47714285714286
 30
0.0
 11
4.825714285714285
 21
25.47714285714286
 31
0.0
  0
LINE
  5
4E8
330
18
100
AcDbEntity
  8
Object
100
AcDbLine
 10
27.42285714285714
 20
25.48714285714286
 30
0.0
 11
27.42285714285714
 21
25.51428571428572
 31
0.0
  0
LINE
  5
4E9
330
18
100
AcDbEntity
  8
Object
100
AcDbLine
 10
4.825714285714285
 20
25.51428571428572
 30
0.0
 11
4.825714285714285
 21
25.48714285714286
 31
0.0
  0
LINE
  5
4EA
330
18
100
AcDbEntity
  8
Object
100
AcDbLine
 10
27.42285714285714
 20
25.55428571428572
 30
0.0
 11
27.42285714285714
 21
25.60285714285714
 31
0.0
  0
LINE
  5
4EB
330
18
100
AcDbEntity
  8
Object
100
AcDbLine
 10
4.825714285714285
 20
25.60285714285714
 30
0.0
 11
4.825714285714285
 21
25.55428571428572
 31
0.0
  0
LINE
  5
4EC
330
18
100
AcDbEntity
  8
Object
100
AcDbLine
 10
4.825714285714285
 20
25.84285714285714
 30
0.0
 11
4.825714285714285
 21
25.81714285714286
 31
0.0
  0
LINE
  5
4ED
330
18
100
AcDbEntity
  8
Object
100
AcDbLine
 10
27.42285714285714
 20
25.81714285714286
 30
0.0
 11
27.42285714285714
 21
25.84285714285714
 31
0.0
  0
LINE
  5
4EE
330
18
100
AcDbEntity
  8
Object
100
AcDbLine
 10
4.825714285714285
 20
25.77571428571429
 30
0.0
 11
4.825714285714285
 21
25.72285714285714
 31
0.0
  0
LINE
  5
4EF
330
18
100
AcDbEntity
  8
Object
100
AcDbLine
 10
27.42285714285714
 20
25.77571428571429
 30
0.0
 11
27.42285714285714
 21
25.72285714285714
 31
0.0
  0
LINE
  5
4F0
330
18
100
AcDbEntity
  8
Object
100
AcDbLine
 10
27.42285714285714
 20
25.72285714285714
 30
0.0
 11
27.42285714285714
 21
25.66428571428572
 31
0.0
  0
LINE
  5
4F1
330
18
100
AcDbEntity
  8
Object
100
AcDbLine
 10
4.825714285714285
 20
25.72285714285714
 30
0.0
 11
4.825714285714285
 21
25.66428571428572
 31
0.0
  0
LINE
  5
4F2
330
18
100
AcDbEntity
  8
Object
100
AcDbLine
 10
27.42285714285714
 20
25.77571428571429
 30
0.0
 11
27.42285714285714
 21
25.81714285714286
 31
0.0
  0
LINE
  5
4F3
330
18
100
AcDbEntity
  8
Object
100
AcDbLine
 10
4.825714285714285
 20
25.81714285714286
 30
0.0
 11
4.825714285714285
 21
25.77571428571429
 31
0.0
  0
LINE
  5
4F4
330
18
100
AcDbEntity
  8
Object
100
AcDbLine
 10
27.42285714285714
 20
25.84285714285714
 30
0.0
 11
27.42285714285714
 21
25.85285714285714
 31
0.0
  0
LINE
  5
4F5
330
18
100
AcDbEntity
  8
Object
100
AcDbLine
 10
4.825714285714285
 20
25.84285714285714
 30
0.0
 11
4.825714285714285
 21
25.85285714285714
 31
0.0
  0
LINE
  5
4F6
330
18
100
AcDbEntity
  8
Object
100
AcDbLine
 10
4.825714285714285
 20
25.85285714285714
 30
0.0
 11
27.42285714285714
 21
25.85285714285714
 31
0.0
  0
LINE
  5
4F7
330
18
100
AcDbEntity
  8
Object
100
AcDbLine
 10
4.825714285714285
 20
24.22714285714286
 30
0.0
 11
27.42285714285714
 21
24.22714285714286
 31
0.0
  0
LINE
  5
4F8
330
18
100
AcDbEntity
  8
Object
100
AcDbLine
 10
4.825714285714285
 20
24.59285714285714
 30
0.0
 11
4.825714285714285
 21
24.56571428571429
 31
0.0
  0
LINE
  5
4F9
330
18
100
AcDbEntity
  8
Object
100
AcDbLine
 10
27.42285714285714
 20
24.56571428571429
 30
0.0
 11
27.42285714285714
 21
24.59285714285714
 31
0.0
  0
LINE
  5
4FA
330
18
100
AcDbEntity
  8
Object
100
AcDbLine
 10
4.825714285714285
 20
24.52571428571429
 30
0.0
 11
4.825714285714285
 21
24.47714285714286
 31
0.0
  0
LINE
  5
4FB
330
18
100
AcDbEntity
  8
Object
100
AcDbLine
 10
27.42285714285714
 20
24.52571428571429
 30
0.0
 11
27.42285714285714
 21
24.47714285714286
 31
0.0
  0
LINE
  5
4FC
330
18
100
AcDbEntity
  8
Object
100
AcDbLine
 10
27.42285714285714
 20
24.47714285714286
 30
0.0
 11
4.825714285714285
 21
24.47714285714286
 31
0.0
  0
LINE
  5
4FD
330
18
100
AcDbEntity
  8
Object
100
AcDbLine
 10
27.42285714285714
 20
24.52571428571429
 30
0.0
 11
27.42285714285714
 21
24.56571428571429
 31
0.0
  0
LINE
  5
4FE
330
18
100
AcDbEntity
  8
Object
100
AcDbLine
 10
4.825714285714285
 20
24.56571428571429
 30
0.0
 11
4.825714285714285
 21
24.52571428571429
 31
0.0
  0
LINE
  5
4FF
330
18
100
AcDbEntity
  8
Object
100
AcDbLine
 10
27.42285714285714
 20
24.59285714285714
 30
0.0
 11
27.42285714285714
 21
24.60285714285714
 31
0.0
  0
LINE
  5
500
330
18
100
AcDbEntity
  8
Object
100
AcDbLine
 10
4.825714285714285
 20
24.59285714285714
 30
0.0
 11
4.825714285714285
 21
24.60285714285714
 31
0.0
  0
LINE
  5
501
330
18
100
AcDbEntity
  8
Object
100
AcDbLine
 10
4.825714285714285
 20
24.60285714285714
 30
0.0
 11
27.42285714285714
 21
24.60285714285714
 31
0.0
  0
LINE
  5
502
330
18
100
AcDbEntity
  8
Object
100
AcDbLine
 10
27.42285714285714
 20
24.47714285714286
 30
0.0
 11
27.42285714285714
 21
24.41428571428572
 31
0.0
  0
LINE
  5
503
330
18
100
AcDbEntity
  8
Object
100
AcDbLine
 10
27.42285714285714
 20
24.41428571428572
 30
0.0
 11
4.825714285714285
 21
24.41428571428572
 31
0.0
  0
LINE
  5
504
330
18
100
AcDbEntity
  8
Object
100
AcDbLine
 10
4.825714285714285
 20
24.41428571428572
 30
0.0
 11
4.825714285714285
 21
24.47714285714286
 31
0.0
  0
LINE
  5
505
330
18
100
AcDbEntity
  8
Object
100
AcDbLine
 10
4.825714285714285
 20
24.35714285714286
 30
0.0
 11
4.825714285714285
 21
24.30428571428572
 31
0.0
  0
LINE
  5
506
330
18
100
AcDbEntity
  8
Object
100
AcDbLine
 10
27.42285714285714
 20
24.30428571428572
 30
0.0
 11
27.42285714285714
 21
24.35714285714286
 31
0.0
  0
LINE
  5
507
330
18
100
AcDbEntity
  8
Object
100
AcDbLine
 10
4.825714285714285
 20
24.26285714285715
 30
0.0
 11
4.825714285714285
 21
24.23714285714286
 31
0.0
  0
LINE
  5
508
330
18
100
AcDbEntity
  8
Object
100
AcDbLine
 10
27.42285714285714
 20
24.26285714285715
 30
0.0
 11
27.42285714285714
 21
24.23714285714286
 31
0.0
  0
LINE
  5
509
330
18
100
AcDbEntity
  8
Object
100
AcDbLine
 10
27.42285714285714
 20
24.23714285714286
 30
0.0
 11
27.42285714285714
 21
24.22714285714286
 31
0.0
  0
LINE
  5
50A
330
18
100
AcDbEntity
  8
Object
100
AcDbLine
 10
27.42285714285714
 20
24.22714285714286
 30
0.0
 11
4.825714285714285
 21
24.22714285714286
 31
0.0
  0
LINE
  5
50B
330
18
100
AcDbEntity
  8
Object
100
AcDbLine
 10
4.825714285714285
 20
24.22714285714286
 30
0.0
 11
4.825714285714285
 21
24.23714285714286
 31
0.0
  0
LINE
  5
50C
330
18
100
AcDbEntity
  8
Object
100
AcDbLine
 10
27.42285714285714
 20
24.26285714285715
 30
0.0
 11
27.42285714285714
 21
24.30428571428572
 31
0.0
  0
LINE
  5
50D
330
18
100
AcDbEntity
  8
Object
100
AcDbLine
 10
4.825714285714285
 20
24.30428571428572
 30
0.0
 11
4.825714285714285
 21
24.26285714285715
 31
0.0
  0
LINE
  5
50E
330
18
100
AcDbEntity
  8
Object
100
AcDbLine
 10
4.825714285714285
 20
24.41428571428572
 30
0.0
 11
4.825714285714285
 21
24.35714285714286
 31
0.0
  0
LINE
  5
50F
330
18
100
AcDbEntity
  8
Object
100
AcDbLine
 10
27.42285714285714
 20
24.35714285714286
 30
0.0
 11
27.42285714285714
 21
24.41428571428572
 31
0.0
  0
LINE
  5
510
330
18
100
AcDbEntity
  8
Object
100
AcDbLine
 10
27.42285714285714
 20
24.60285714285714
 30
0.0
 11
4.825714285714285
 21
24.60285714285714
 31
0.0
  0
DIMENSION
  5
511
330
18
100
AcDbEntity
  8
Dimension
100
AcDbDimension
  2
*D0
 10
28.87413898835056
 20
24.22714285714286
 30
0.0
 11
28.87413898835056
 21
25.04000000000001
 31
0.0
 70
    32
  1
1.62 [41.3mm]
 71
     5
 42
1.625714285714284
  3
STANDARD
100
AcDbAlignedDimension
 13
27.42285714285714
 23
25.85285714285714
 33
0.0
 14
27.42285714285714
 24
24.22714285714286
 34
0.0
 50
90.0
100
AcDbRotatedDimension
  0
DIMENSION
  5
51F
330
18
100
AcDbEntity
  8
Dimension
100
AcDbDimension
  2
*D1
 10
27.42285714285715
 20
11.78761648376056
 30
0.0
 11
16.12428571428571
 21
11.78761648376056
 31
0.0
 70
    32
  1
22.59 [573.9mm]
 71
     5
 42
22.59714285714286
  3
STANDARD
100
AcDbAlignedDimension
 13
4.825714285714285
 23
10.35428571428571
 33
0.0
 14
27.42285714285715
 24
10.35428571428571
 34
0.0
100
AcDbRotatedDimension
  0
DIMENSION
  5
52D
330
18
100
AcDbEntity
  8
Dimension
100
AcDbDimension
  2
*D2
 10
35.97956594213461
 20
8.728571428571429
 30
0.0
 11
35.97956594213461
 21
9.541428571428577
 31
0.0
 70
    32
  1
1.62 [41.3mm]
 71
     5
 42
1.625714285714286
  3
STANDARD
100
AcDbAlignedDimension
 13
37.24857142857143
 23
10.35428571428571
 33
0.0
 14
37.18714285714286
 24
8.728571428571427
 34
0.0
 50
90.0
100
AcDbRotatedDimension
  0
ENDSEC
  0
SECTION
  2
OBJECTS
  0
DICTIONARY
  5
C
330
0
100
AcDbDictionary
281
     1
  3
ACAD_COLOR
350
131
  3
ACAD_GROUP
350
D
  3
ACAD_LAYOUT
350
134
  3
ACAD_MATERIAL
350
130
  3
ACAD_MLINESTYLE
350
1B
  3
ACAD_PLOTSETTINGS
350
135
  3
ACAD_PLOTSTYLENAME
350
12E
  3
ACAD_TABLESTYLE
350
132
  3
ACDBHEADERROUNDTRIPXREC
350
574
  3
AcDbVariableDictionary
350
160
  3
ASE_INDEX_DICTIONARY
350
174
  0
DICTIONARY
  5
180
330
2
100
AcDbDictionary
280
     1
281
     1
  3
ACAD_LAYERFILTERS
360
184
  3
ACLYDICTIONARY
360
183
  0
DICTIONARY
  5
131
102
{ACAD_REACTORS
330
C
102
}
330
C
100
AcDbDictionary
281
     1
  0
DICTIONARY
  5
D
102
{ACAD_REACTORS
330
C
102
}
330
C
100
AcDbDictionary
281
     1
  0
DICTIONARY
  5
134
102
{ACAD_REACTORS
330
C
102
}
330
C
100
AcDbDictionary
281
     1
  3
Layout1
350
137
  3
Model
350
136
  0
DICTIONARY
  5
130
102
{ACAD_REACTORS
330
C
102
}
330
C
100
AcDbDictionary
281
     1
  0
DICTIONARY
  5
1B
102
{ACAD_REACTORS
330
C
102
}
330
C
100
AcDbDictionary
281
     1
  3
STANDARD
350
1C
  0
DICTIONARY
  5
135
102
{ACAD_REACTORS
330
C
102
}
330
C
100
AcDbDictionary
281
     1
  0
ACDBDICTIONARYWDFLT
  5
12E
102
{ACAD_REACTORS
330
C
102
}
330
C
100
AcDbDictionary
281
     1
  3
Normal
350
12F
100
AcDbDictionaryWithDefault
340
12F
  0
DICTIONARY
  5
132
102
{ACAD_REACTORS
330
C
102
}
330
C
100
AcDbDictionary
281
     1
  3
Standard
350
133
  0
DICTIONARY
  5
574
102
{ACAD_REACTORS
330
C
102
}
330
C
100
AcDbDictionary
281
     1
  0
DICTIONARY
  5
160
102
{ACAD_REACTORS
330
C
102
}
330
C
100
AcDbDictionary
281
     1
  3
CTABLESTYLE
350
161
  3
DIMASSOC
350
571
  3
PROJECTNAME
350
572
  0
DICTIONARY
  5
174
102
{ACAD_REACTORS
330
C
102
}
330
C
100
AcDbDictionary
281
     1
  3
ASEBlockHierarchyIndexRecord
350
176
1001
DCO15
1040
1529148180.742
  0
DICTIONARY
  5
184
102
{ACAD_REACTORS
330
180
102
}
330
180
100
AcDbDictionary
281
     1
  0
DICTIONARY
  5
183
102
{ACAD_REACTORS
330
180
102
}
330
180
100
AcDbDictionary
281
     1
1001
ACAD
1000
<All
  0
LAYOUT
  5
137
102
{ACAD_XDICTIONARY
360
577
102
}
102
{ACAD_REACTORS
330
134
102
}
330
134
100
AcDbPlotSettings
  1

  2
\\RSENG\RSplotter4NT
  4

  6

 40
0.0
 41
0.0
 42
0.0
 43
0.0
 44
0.0
 45
0.0
 46
0.0
 47
0.0
 48
0.0
 49
0.0
140
0.0
141
0.0
142
1.0
143
1.0
 70
   688
 72
     0
 73
     0
 74
     5
  7
Symantec Fax Starter Edition
 75
    16
147
1.0
148
0.0
149
0.0
100
AcDbLayout
  1
Layout1
 70
     1
 71
     1
 10
0.0
 20
0.0
 11
12.0
 21
9.0
 12
0.0
 22
0.0
 32
0.0
 14
1.000000000000000E+20
 24
1.000000000000000E+20
 34
1.000000000000000E+20
 15
-1.000000000000000E+20
 25
-1.000000000000000E+20
 35
-1.000000000000000E+20
146
0.0
 13
0.0
 23
0.0
 33
0.0
 16
1.0
 26
0.0
 36
0.0
 17
0.0
 27
1.0
 37
0.0
 76
     0
330
15
  0
LAYOUT
  5
136
102
{ACAD_XDICTIONARY
360
575
102
}
102
{ACAD_REACTORS
330
134
102
}
330
134
100
AcDbPlotSettings
  1

  2
\\RSENG\RSplotter4NT
  4

  6

 40
0.0
 41
0.0
 42
0.0
 43
0.0
 44
0.0
 45
0.0
 46
0.0
 47
0.0
 48
0.0
 49
0.0
140
0.0
141
0.0
142
1.0
143
1.0
 70
  1712
 72
     0
 73
     0
 74
     0
  7
Symantec Fax Starter Edition
 75
     0
147
1.0
148
0.0
149
0.0
100
AcDbLayout
  1
Model
 70
     1
 71
     0
 10
0.0
 20
0.0
 11
12.0
 21
9.0
 12
0.0
 22
0.0
 32
0.0
 14
0.0
 24
0.0
 34
0.0
 15
0.0
 25
0.0
 35
0.0
146
0.0
 13
0.0
 23
0.0
 33
0.0
 16
1.0
 26
0.0
 36
0.0
 17
0.0
 27
1.0
 37
0.0
 76
     0
330
18
  0
MLINESTYLE
  5
1C
102
{ACAD_REACTORS
330
1B
102
}
330
1B
100
AcDbMlineStyle
  2
STANDARD
 70
     0
  3

 62
   256
 51
90.0
 52
90.0
 71
     2
 49
0.5
 62
   256
  6
BYLAYER
 49
-0.5
 62
   256
  6
BYLAYER
  0
ACDBPLACEHOLDER
  5
12F
102
{ACAD_REACTORS
330
12E
102
}
330
12E
  0
TABLESTYLE
  5
133
102
{ACAD_REACTORS
330
132
102
}
330
132
100
AcDbTableStyle
  3
Standard
 70
     0
 71
     0
 40
0.06
 41
0.06
280
     0
281
     0
  7
STANDARD
140
0.18
170
     2
 62
     0
 63
     7
283
     0
274
    -2
284
     1
 64
     0
275
    -2
285
     1
 65
     0
276
    -2
286
     1
 66
     0
277
    -2
287
     1
 67
     0
278
    -2
288
     1
 68
     0
279
    -2
289
     1
 69
     0
  7
STANDARD
140
0.25
170
     5
 62
     0
 63
     7
283
     0
274
    -2
284
     1
 64
     0
275
    -2
285
     1
 65
     0
276
    -2
286
     1
 66
     0
277
    -2
287
     1
 67
     0
278
    -2
288
     1
 68
     0
279
    -2
289
     1
 69
     0
  7
STANDARD
140
0.18
170
     5
 62
     0
 63
     7
283
     0
274
    -2
284
     1
 64
     0
275
    -2
285
     1
 65
     0
276
    -2
286
     1
 66
     0
277
    -2
287
     1
 67
     0
278
    -2
288
     1
 68
     0
279
    -2
289
     1
 69
     0
  0
DICTIONARYVAR
  5
161
102
{ACAD_REACTORS
330
160
102
}
330
160
100
DictionaryVariables
280
     0
  1
STANDARD
  0
DICTIONARYVAR
  5
571
102
{ACAD_REACTORS
330
160
102
}
330
160
100
DictionaryVariables
280
     0
  1
1
  0
DICTIONARYVAR
  5
572
102
{ACAD_REACTORS
330
160
102
}
330
160
100
DictionaryVariables
280
     0
  1

  0
XRECORD
  5
176
102
{ACAD_REACTORS
330
174
102
}
330
174
100
AcDbXrecord
280
     1
  0
DICTIONARY
  5
577
330
137
100
AcDbDictionary
280
     1
281
     1
  3
ACAD_XREC_ROUNDTRIP
360
578
  0
DICTIONARY
  5
575
330
136
100
AcDbDictionary
280
     1
281
     1
  3
ACAD_XREC_ROUNDTRIP
360
576
  0
XRECORD
  5
578
102
{ACAD_REACTORS
330
577
102
}
330
577
100
AcDbXrecord
280
     1
102
SHADEPLOT
 70
     0
102
SHADEPLOTRESLEVEL
 70
     2
102
SHADEPLOTCUSTOMDPI
 70
   300
  0
XRECORD
  5
576
102
{ACAD_REACTORS
330
575
102
}
330
575
100
AcDbXrecord
280
     1
102
SHADEPLOT
 70
     0
102
SHADEPLOTRESLEVEL
 70
     2
102
SHADEPLOTCUSTOMDPI
 70
   300
  0
ENDSEC
  0
EOF
