  0
SECTION
  2
HEADER
  9
$ACADVER
  1
AC1015
  9
$ACADMAINTVER
 70
    20
  9
$DWGCODEPAGE
  3
ANSI_1252
  9
$INSBASE
 10
0.0
 20
0.0
 30
0.0
  9
$EXTMIN
 10
-0.025
 20
-0.0250000000000018
 30
0.0
  9
$EXTMAX
 10
17.025
 20
11.025
 30
0.0
  9
$LIMMIN
 10
0.0
 20
0.0
  9
$LIMMAX
 10
12.0
 20
9.0
  9
$ORTHOMODE
 70
     0
  9
$REGENMODE
 70
     1
  9
$FILLMODE
 70
     1
  9
$QTEXTMODE
 70
     0
  9
$MIRRTEXT
 70
     0
  9
$LTSCALE
 40
1.0
  9
$ATTMODE
 70
     1
  9
$TEXTSIZE
 40
0.09
  9
$TRACEWID
 40
0.05
  9
$TEXTSTYLE
  7
Standard
  9
$CLAYER
  8
0
  9
$CELTYPE
  6
ByLayer
  9
$CECOLOR
 62
   256
  9
$CELTSCALE
 40
1.0
  9
$DISPSILH
 70
     0
  9
$DIMSCALE
 40
1.0
  9
$DIMASZ
 40
0.1875
  9
$DIMEXO
 40
0.0625
  9
$DIMDLI
 40
0.38
  9
$DIMRND
 40
0.0
  9
$DIMDLE
 40
0.0
  9
$DIMEXE
 40
0.125
  9
$DIMTP
 40
0.0
  9
$DIMTM
 40
0.0
  9
$DIMTXT
 40
0.125
  9
$DIMCEN
 40
0.09
  9
$DIMTSZ
 40
0.0
  9
$DIMTOL
 70
     0
  9
$DIMLIM
 70
     0
  9
$DIMTIH
 70
     1
  9
$DIMTOH
 70
     1
  9
$DIMSE1
 70
     0
  9
$DIMSE2
 70
     0
  9
$DIMTAD
 70
     0
  9
$DIMZIN
 70
     0
  9
$DIMBLK
  1

  9
$DIMASO
 70
     1
  9
$DIMSHO
 70
     1
  9
$DIMPOST
  1

  9
$DIMAPOST
  1
mm
  9
$DIMALT
 70
     1
  9
$DIMALTD
 70
     1
  9
$DIMALTF
 40
25.4
  9
$DIMLFAC
 40
1.0
  9
$DIMTOFL
 70
     0
  9
$DIMTVP
 40
0.0
  9
$DIMTIX
 70
     0
  9
$DIMSOXD
 70
     0
  9
$DIMSAH
 70
     0
  9
$DIMBLK1
  1

  9
$DIMBLK2
  1

  9
$DIMSTYLE
  2
Standard
  9
$DIMCLRD
 70
     0
  9
$DIMCLRE
 70
     0
  9
$DIMCLRT
 70
     0
  9
$DIMTFAC
 40
1.0
  9
$DIMGAP
 40
0.09
  9
$DIMJUST
 70
     0
  9
$DIMSD1
 70
     0
  9
$DIMSD2
 70
     0
  9
$DIMTOLJ
 70
     1
  9
$DIMTZIN
 70
     0
  9
$DIMALTZ
 70
     0
  9
$DIMALTTZ
 70
     0
  9
$DIMUPT
 70
     0
  9
$DIMDEC
 70
     2
  9
$DIMTDEC
 70
     2
  9
$DIMALTU
 70
     2
  9
$DIMALTTD
 70
     1
  9
$DIMTXSTY
  7
Standard
  9
$DIMAUNIT
 70
     0
  9
$DIMADEC
 70
     0
  9
$DIMALTRND
 40
0.0
  9
$DIMAZIN
 70
     0
  9
$DIMDSEP
 70
    46
  9
$DIMATFIT
 70
     3
  9
$DIMFRAC
 70
     0
  9
$DIMLDRBLK
  1

  9
$DIMLUNIT
 70
     2
  9
$DIMLWD
 70
    -2
  9
$DIMLWE
 70
    -2
  9
$DIMTMOVE
 70
     0
  9
$LUNITS
 70
     2
  9
$LUPREC
 70
     4
  9
$SKETCHINC
 40
0.1
  9
$FILLETRAD
 40
0.0
  9
$AUNITS
 70
     0
  9
$AUPREC
 70
     0
  9
$MENU
  1
.
  9
$ELEVATION
 40
0.0
  9
$PELEVATION
 40
0.0
  9
$THICKNESS
 40
0.0
  9
$LIMCHECK
 70
     0
  9
$CHAMFERA
 40
0.0
  9
$CHAMFERB
 40
0.0
  9
$CHAMFERC
 40
0.0
  9
$CHAMFERD
 40
0.0
  9
$SKPOLY
 70
     0
  9
$TDCREATE
 40
2453503.465556875
  9
$TDUCREATE
 40
2453503.673890208
  9
$TDUPDATE
 40
2454294.558436991
  9
$TDUUPDATE
 40
2454294.766770324
  9
$TDINDWG
 40
0.0332579861
  9
$TDUSRTIMER
 40
0.0332579861
  9
$USRTIMER
 70
     1
  9
$ANGBASE
 50
0.0
  9
$ANGDIR
 70
     0
  9
$PDMODE
 70
     2
  9
$PDSIZE
 40
0.025
  9
$PLINEWID
 40
0.0
  9
$SPLFRAME
 70
     0
  9
$SPLINETYPE
 70
     6
  9
$SPLINESEGS
 70
     8
  9
$HANDSEED
  5
76A
  9
$SURFTAB1
 70
     6
  9
$SURFTAB2
 70
     6
  9
$SURFTYPE
 70
     6
  9
$SURFU
 70
     6
  9
$SURFV
 70
     6
  9
$UCSBASE
  2

  9
$UCSNAME
  2

  9
$UCSORG
 10
0.0
 20
0.0
 30
0.0
  9
$UCSXDIR
 10
1.0
 20
0.0
 30
0.0
  9
$UCSYDIR
 10
0.0
 20
1.0
 30
0.0
  9
$UCSORTHOREF
  2

  9
$UCSORTHOVIEW
 70
     0
  9
$UCSORGTOP
 10
0.0
 20
0.0
 30
0.0
  9
$UCSORGBOTTOM
 10
0.0
 20
0.0
 30
0.0
  9
$UCSORGLEFT
 10
0.0
 20
0.0
 30
0.0
  9
$UCSORGRIGHT
 10
0.0
 20
0.0
 30
0.0
  9
$UCSORGFRONT
 10
0.0
 20
0.0
 30
0.0
  9
$UCSORGBACK
 10
0.0
 20
0.0
 30
0.0
  9
$PUCSBASE
  2

  9
$PUCSNAME
  2

  9
$PUCSORG
 10
0.0
 20
0.0
 30
0.0
  9
$PUCSXDIR
 10
1.0
 20
0.0
 30
0.0
  9
$PUCSYDIR
 10
0.0
 20
1.0
 30
0.0
  9
$PUCSORTHOREF
  2

  9
$PUCSORTHOVIEW
 70
     0
  9
$PUCSORGTOP
 10
0.0
 20
0.0
 30
0.0
  9
$PUCSORGBOTTOM
 10
0.0
 20
0.0
 30
0.0
  9
$PUCSORGLEFT
 10
0.0
 20
0.0
 30
0.0
  9
$PUCSORGRIGHT
 10
0.0
 20
0.0
 30
0.0
  9
$PUCSORGFRONT
 10
0.0
 20
0.0
 30
0.0
  9
$PUCSORGBACK
 10
0.0
 20
0.0
 30
0.0
  9
$USERI1
 70
     0
  9
$USERI2
 70
     0
  9
$USERI3
 70
     0
  9
$USERI4
 70
     0
  9
$USERI5
 70
     0
  9
$USERR1
 40
0.0
  9
$USERR2
 40
0.0
  9
$USERR3
 40
0.0
  9
$USERR4
 40
0.0
  9
$USERR5
 40
0.0
  9
$WORLDVIEW
 70
     1
  9
$SHADEDGE
 70
     3
  9
$SHADEDIF
 70
    70
  9
$TILEMODE
 70
     1
  9
$MAXACTVP
 70
    64
  9
$PINSBASE
 10
0.0
 20
0.0
 30
0.0
  9
$PLIMCHECK
 70
     0
  9
$PEXTMIN
 10
0.0
 20
0.0
 30
0.0
  9
$PEXTMAX
 10
0.0
 20
0.0
 30
0.0
  9
$PLIMMIN
 10
0.0
 20
0.0
  9
$PLIMMAX
 10
12.0
 20
9.0
  9
$UNITMODE
 70
     0
  9
$VISRETAIN
 70
     1
  9
$PLINEGEN
 70
     0
  9
$PSLTSCALE
 70
     1
  9
$TREEDEPTH
 70
  3020
  9
$CMLSTYLE
  2
Standard
  9
$CMLJUST
 70
     0
  9
$CMLSCALE
 40
1.0
  9
$PROXYGRAPHICS
 70
     1
  9
$MEASUREMENT
 70
     0
  9
$CELWEIGHT
370
    -1
  9
$ENDCAPS
280
     0
  9
$JOINSTYLE
280
     0
  9
$LWDISPLAY
290
     0
  9
$INSUNITS
 70
     1
  9
$HYPERLINKBASE
  1

  9
$STYLESHEET
  1

  9
$XEDIT
290
     1
  9
$CEPSNTYPE
380
     0
  9
$PSTYLEMODE
290
     1
  9
$FINGERPRINTGUID
  2
{19F4C2D8-AF65-4C6C-82F2-21CC2E1FDB13}
  9
$VERSIONGUID
  2
{BE2ADC51-9E9C-494D-B157-27320281A17E}
  9
$EXTNAMES
290
     1
  9
$PSVPSCALE
 40
0.0
  9
$OLESTARTUP
290
     0
  0
ENDSEC
  0
SECTION
  2
CLASSES
  0
CLASS
  1
ACDBDICTIONARYWDFLT
  2
AcDbDictionaryWithDefault
  3
ObjectDBX Classes
 90
        0
280
     0
281
     0
  0
CLASS
  1
ACDBPLACEHOLDER
  2
AcDbPlaceHolder
  3
ObjectDBX Classes
 90
        0
280
     0
281
     0
  0
CLASS
  1
LAYOUT
  2
AcDbLayout
  3
ObjectDBX Classes
 90
        0
280
     0
281
     0
  0
CLASS
  1
DICTIONARYVAR
  2
AcDbDictionaryVar
  3
ObjectDBX Classes
 90
        0
280
     0
281
     0
  0
CLASS
  1
TABLESTYLE
  2
AcDbTableStyle
  3
ObjectDBX Classes
 90
     2047
280
     0
281
     0
  0
CLASS
  1
SORTENTSTABLE
  2
AcDbSortentsTable
  3
ObjectDBX Classes
 90
        0
280
     0
281
     0
  0
CLASS
  1
DIMASSOC
  2
AcDbDimAssoc
  3
"AcDbDimAssoc|Product Desc:     AcDim ARX App For Dimension|Company:          Autodesk, Inc.|WEB Address:      www.autodesk.com"
 90
        0
280
     0
281
     0
  0
ENDSEC
  0
SECTION
  2
TABLES
  0
TABLE
  2
VPORT
  5
8
330
0
100
AcDbSymbolTable
 70
     2
  0
VPORT
  5
762
330
8
100
AcDbSymbolTableRecord
100
AcDbViewportTableRecord
  2
*Active
 70
     0
 10
0.0
 20
0.0
 11
1.0
 21
1.0
 12
8.500000122517183
 22
5.889114183258643
 13
0.0
 23
0.0
 14
0.5
 24
0.5
 15
0.5
 25
0.5
 16
0.0
 26
0.0
 36
1.0
 17
0.0
 27
0.0
 37
0.0
 40
11.9002382948815
 41
1.499364675984752
 42
50.0
 43
0.0
 44
0.0
 50
0.0
 51
0.0
 71
     0
 72
  1000
 73
     1
 74
     3
 75
     0
 76
     0
 77
     0
 78
     0
281
     0
 65
     1
110
0.0
120
0.0
130
0.0
111
1.0
121
0.0
131
0.0
112
0.0
122
1.0
132
0.0
 79
     0
146
0.0
  0
ENDTAB
  0
TABLE
  2
LTYPE
  5
5
330
0
100
AcDbSymbolTable
 70
     1
  0
LTYPE
  5
14
330
5
100
AcDbSymbolTableRecord
100
AcDbLinetypeTableRecord
  2
ByBlock
 70
     0
  3

 72
    65
 73
     0
 40
0.0
  0
LTYPE
  5
15
330
5
100
AcDbSymbolTableRecord
100
AcDbLinetypeTableRecord
  2
ByLayer
 70
     0
  3

 72
    65
 73
     0
 40
0.0
  0
LTYPE
  5
16
330
5
100
AcDbSymbolTableRecord
100
AcDbLinetypeTableRecord
  2
Continuous
 70
     0
  3
Solid line
 72
    65
 73
     0
 40
0.0
  0
ENDTAB
  0
TABLE
  2
LAYER
  5
2
330
0
100
AcDbSymbolTable
 70
     6
  0
LAYER
  5
10
330
2
100
AcDbSymbolTableRecord
100
AcDbLayerTableRecord
  2
0
 70
     0
 62
     7
  6
Continuous
370
    -3
390
F
  0
LAYER
  5
8B
330
2
100
AcDbSymbolTableRecord
100
AcDbLayerTableRecord
  2
Title Block
 70
     0
 62
     3
  6
Continuous
370
    -3
390
F
  0
LAYER
  5
8C
330
2
100
AcDbSymbolTableRecord
100
AcDbLayerTableRecord
  2
Dimension
 70
     0
 62
     6
  6
Continuous
370
    -3
390
F
  0
LAYER
  5
8D
330
2
100
AcDbSymbolTableRecord
100
AcDbLayerTableRecord
  2
Text
 70
     0
 62
     1
  6
Continuous
370
    -3
390
F
  0
LAYER
  5
8E
330
2
100
AcDbSymbolTableRecord
100
AcDbLayerTableRecord
  2
Object
 70
     0
 62
     5
  6
Continuous
370
    -3
390
F
  0
LAYER
  5
63C
330
2
100
AcDbSymbolTableRecord
100
AcDbLayerTableRecord
  2
Defpoints
 70
     0
 62
     7
  6
Continuous
290
     0
370
    -3
390
F
  0
ENDTAB
  0
TABLE
  2
STYLE
  5
3
330
0
100
AcDbSymbolTable
 70
     1
  0
STYLE
  5
11
330
3
100
AcDbSymbolTableRecord
100
AcDbTextStyleTableRecord
  2
Standard
 70
     0
 40
0.0
 41
1.0
 50
0.0
 71
     0
 42
0.09
  3
technic_.ttf
  4

1001
ACAD
1000
Technic
1071
      514
  0
ENDTAB
  0
TABLE
  2
VIEW
  5
6
330
0
100
AcDbSymbolTable
 70
     0
  0
ENDTAB
  0
TABLE
  2
UCS
  5
7
330
0
100
AcDbSymbolTable
 70
     0
  0
ENDTAB
  0
TABLE
  2
APPID
  5
9
330
0
100
AcDbSymbolTable
 70
     4
  0
APPID
  5
12
330
9
100
AcDbSymbolTableRecord
100
AcDbRegAppTableRecord
  2
ACAD
 70
     0
  0
APPID
  5
90
330
9
100
AcDbSymbolTableRecord
100
AcDbRegAppTableRecord
  2
DCO15
 70
     0
  0
APPID
  5
91
330
9
100
AcDbSymbolTableRecord
100
AcDbRegAppTableRecord
  2
AcAecLayerStandard
 70
     0
  0
APPID
  5
DE
330
9
100
AcDbSymbolTableRecord
100
AcDbRegAppTableRecord
  2
ACAD_DSTYLE_DIMTEXT_FILL
 70
     0
  0
ENDTAB
  0
TABLE
  2
DIMSTYLE
  5
A
330
0
100
AcDbSymbolTable
 70
     1
100
AcDbDimStyleTable
 71
     1
340
27
  0
DIMSTYLE
105
27
102
{ACAD_REACTORS
330
63B
330
65C
330
6C1
102
}
330
A
100
AcDbSymbolTableRecord
100
AcDbDimStyleTableRecord
  2
Standard
 70
     0
  4
mm
 41
0.1875
 44
0.125
140
0.125
170
     1
171
     1
271
     2
272
     2
274
     1
340
11
  0
ENDTAB
  0
TABLE
  2
BLOCK_RECORD
  5
1
330
0
100
AcDbSymbolTable
 70
     4
  0
BLOCK_RECORD
  5
1F
102
{ACAD_XDICTIONARY
360
636
102
}
330
1
100
AcDbSymbolTableRecord
100
AcDbBlockTableRecord
  2
*Model_Space
340
22
  0
BLOCK_RECORD
  5
58
330
1
100
AcDbSymbolTableRecord
100
AcDbBlockTableRecord
  2
*Paper_Space
340
59
  0
BLOCK_RECORD
  5
5D
330
1
100
AcDbSymbolTableRecord
100
AcDbBlockTableRecord
  2
*Paper_Space0
340
5E
  0
BLOCK_RECORD
  5
63D
330
1
100
AcDbSymbolTableRecord
100
AcDbBlockTableRecord
  2
*D1
340
0
  0
BLOCK_RECORD
  5
65D
330
1
100
AcDbSymbolTableRecord
100
AcDbBlockTableRecord
  2
*D2
340
0
  0
BLOCK_RECORD
  5
6C2
330
1
100
AcDbSymbolTableRecord
100
AcDbBlockTableRecord
  2
*D3
340
0
  0
ENDTAB
  0
ENDSEC
  0
SECTION
  2
BLOCKS
  0
BLOCK
  5
20
330
1F
100
AcDbEntity
  8
0
100
AcDbBlockBegin
  2
*Model_Space
 70
     0
 10
0.0
 20
0.0
 30
0.0
  3
*Model_Space
  1

  0
ENDBLK
  5
21
330
1F
100
AcDbEntity
  8
0
100
AcDbBlockEnd
  0
BLOCK
  5
5A
330
58
100
AcDbEntity
 67
     1
  8
0
100
AcDbBlockBegin
  2
*Paper_Space
 70
     0
 10
0.0
 20
0.0
 30
0.0
  3
*Paper_Space
  1

  0
ENDBLK
  5
5B
330
58
100
AcDbEntity
 67
     1
  8
0
100
AcDbBlockEnd
  0
BLOCK
  5
5F
330
5D
100
AcDbEntity
  8
0
100
AcDbBlockBegin
  2
*Paper_Space0
 70
     0
 10
0.0
 20
0.0
 30
0.0
  3
*Paper_Space0
  1

  0
ENDBLK
  5
60
330
5D
100
AcDbEntity
  8
0
100
AcDbBlockEnd
  0
BLOCK
  5
648
330
63D
100
AcDbEntity
  8
0
100
AcDbBlockBegin
  2
*D1
 70
     1
 10
0.0
 20
0.0
 30
0.0
  3
*D1
  1

  0
LINE
  5
71A
330
63D
100
AcDbEntity
  8
Dimension
 62
     0
370
    -2
100
AcDbLine
 10
1.839945995840857
 20
8.408321739459584
 30
0.0
 11
1.839945995840857
 21
9.446515212140184
 31
0.0
  0
LINE
  5
71B
330
63D
100
AcDbEntity
  8
Dimension
 62
     0
370
    -2
100
AcDbLine
 10
6.084945995840858
 20
8.408321739459584
 30
0.0
 11
6.084945995840858
 21
9.446515212140184
 31
0.0
  0
LINE
  5
71C
330
63D
100
AcDbEntity
  8
Dimension
 62
     0
370
    -2
100
AcDbLine
 10
2.027445995840857
 20
9.321515212140184
 30
0.0
 11
3.271842925665418
 21
9.321515212140184
 31
0.0
  0
LINE
  5
71D
330
63D
100
AcDbEntity
  8
Dimension
 62
     0
370
    -2
100
AcDbLine
 10
5.897445995840858
 20
9.321515212140184
 30
0.0
 11
4.653049066016295
 21
9.321515212140184
 31
0.0
  0
SOLID
  5
71E
330
63D
100
AcDbEntity
  8
Dimension
 62
     0
100
AcDbTrace
 10
2.027445995840857
 20
9.352765212140184
 30
0.0
 11
2.027445995840857
 21
9.290265212140184
 31
0.0
 12
1.839945995840857
 22
9.321515212140184
 32
0.0
 13
1.839945995840857
 23
9.321515212140184
 33
0.0
  0
SOLID
  5
71F
330
63D
100
AcDbEntity
  8
Dimension
 62
     0
100
AcDbTrace
 10
5.897445995840858
 20
9.352765212140184
 30
0.0
 11
5.897445995840858
 21
9.290265212140184
 31
0.0
 12
6.084945995840858
 22
9.321515212140184
 32
0.0
 13
6.084945995840858
 23
9.321515212140184
 33
0.0
  0
MTEXT
  5
720
330
63D
100
AcDbEntity
  8
Dimension
 62
     0
100
AcDbMText
 10
3.962445995840857
 20
9.321515212140184
 30
0.0
 40
0.125
 41
0.0
 71
     5
 72
     1
  1
\A1;4.20 [106.7mm]
 73
     1
 44
1.0
1001
ACAD
1000
MTEXTBEGIN
1070
    73
1070
     1
1070
    44
1040
1.0
1070
    74
1070
     0
1000
MTEXTEND
  0
POINT
  5
721
330
63D
100
AcDbEntity
  8
Defpoints
 62
     0
100
AcDbPoint
 10
1.839945995840857
 20
8.345821739459584
 30
0.0
  0
POINT
  5
722
330
63D
100
AcDbEntity
  8
Defpoints
 62
     0
100
AcDbPoint
 10
6.084945995840858
 20
8.345821739459584
 30
0.0
  0
POINT
  5
723
330
63D
100
AcDbEntity
  8
Defpoints
 62
     0
100
AcDbPoint
 10
6.084945995840858
 20
9.321515212140184
 30
0.0
  0
ENDBLK
  5
649
330
63D
100
AcDbEntity
  8
0
100
AcDbBlockEnd
  0
BLOCK
  5
668
330
65D
100
AcDbEntity
  8
0
100
AcDbBlockBegin
  2
*D2
 70
     1
 10
0.0
 20
0.0
 30
0.0
  3
*D2
  1

  0
LINE
  5
724
330
65D
100
AcDbEntity
  8
Dimension
 62
     0
370
    -2
100
AcDbLine
 10
6.037445995840856
 20
4.387821739459583
 30
0.0
 11
7.366722067703228
 21
4.387821739459583
 31
0.0
  0
LINE
  5
725
330
65D
100
AcDbEntity
  8
Dimension
 62
     0
370
    -2
100
AcDbLine
 10
5.947445995840856
 20
8.382821739459583
 30
0.0
 11
7.366722067703229
 21
8.382821739459583
 31
0.0
  0
LINE
  5
726
330
65D
100
AcDbEntity
  8
Dimension
 62
     0
370
    -2
100
AcDbLine
 10
7.241722067703228
 20
4.575321739459583
 30
0.0
 11
7.241722067703229
 21
6.20778518975198
 31
0.0
  0
LINE
  5
727
330
65D
100
AcDbEntity
  8
Dimension
 62
     0
370
    -2
100
AcDbLine
 10
7.241722067703229
 20
8.195321739459583
 30
0.0
 11
7.241722067703229
 21
6.562858289167184
 31
0.0
  0
SOLID
  5
728
330
65D
100
AcDbEntity
  8
Dimension
 62
     0
100
AcDbTrace
 10
7.210472067703228
 20
4.575321739459583
 30
0.0
 11
7.272972067703228
 21
4.575321739459583
 31
0.0
 12
7.241722067703228
 22
4.387821739459583
 32
0.0
 13
7.241722067703228
 23
4.387821739459583
 33
0.0
  0
SOLID
  5
729
330
65D
100
AcDbEntity
  8
Dimension
 62
     0
100
AcDbTrace
 10
7.210472067703229
 20
8.195321739459583
 30
0.0
 11
7.272972067703229
 21
8.195321739459583
 31
0.0
 12
7.241722067703229
 22
8.382821739459583
 32
0.0
 13
7.241722067703229
 23
8.382821739459583
 33
0.0
  0
MTEXT
  5
72A
330
65D
100
AcDbEntity
  8
Dimension
 62
     0
100
AcDbMText
 10
7.241722067703227
 20
6.385321739459584
 30
0.0
 40
0.125
 41
0.0
 71
     5
 72
     1
  1
\A1;4.00 [101.6mm]
 73
     1
 44
1.0
1001
ACAD
1000
MTEXTBEGIN
1070
    73
1070
     1
1070
    44
1040
1.0
1070
    74
1070
     0
1000
MTEXTEND
  0
POINT
  5
72B
330
65D
100
AcDbEntity
  8
Defpoints
 62
     0
100
AcDbPoint
 10
5.974945995840856
 20
4.387821739459583
 30
0.0
  0
POINT
  5
72C
330
65D
100
AcDbEntity
  8
Defpoints
 62
     0
100
AcDbPoint
 10
5.884945995840856
 20
8.382821739459583
 30
0.0
  0
POINT
  5
72D
330
65D
100
AcDbEntity
  8
Defpoints
 62
     0
100
AcDbPoint
 10
7.241722067703229
 20
8.382821739459583
 30
0.0
  0
ENDBLK
  5
669
330
65D
100
AcDbEntity
  8
0
100
AcDbBlockEnd
  0
BLOCK
  5
6CD
330
6C2
100
AcDbEntity
  8
0
100
AcDbBlockBegin
  2
*D3
 70
     1
 10
0.0
 20
0.0
 30
0.0
  3
*D3
  1

  0
LINE
  5
72E
330
6C2
100
AcDbEntity
  8
Dimension
 62
     0
370
    -2
100
AcDbLine
 10
2.257445995840857
 20
6.389821739459583
 30
0.0
 11
2.444945995840857
 21
6.389821739459583
 31
0.0
  0
LINE
  5
72F
330
6C2
100
AcDbEntity
  8
Dimension
 62
     0
370
    -2
100
AcDbLine
 10
1.767445995840857
 20
6.389821739459583
 30
0.0
 11
1.579945995840857
 21
6.389821739459583
 31
0.0
  0
SOLID
  5
730
330
6C2
100
AcDbEntity
  8
Dimension
 62
     0
100
AcDbTrace
 10
2.257445995840857
 20
6.421071739459583
 30
0.0
 11
2.257445995840857
 21
6.358571739459583
 31
0.0
 12
2.069945995840857
 22
6.389821739459583
 32
0.0
 13
2.069945995840857
 23
6.389821739459583
 33
0.0
  0
SOLID
  5
731
330
6C2
100
AcDbEntity
  8
Dimension
 62
     0
100
AcDbTrace
 10
1.767445995840857
 20
6.421071739459583
 30
0.0
 11
1.767445995840857
 21
6.358571739459583
 31
0.0
 12
1.954945995840857
 22
6.389821739459583
 32
0.0
 13
1.954945995840857
 23
6.389821739459583
 33
0.0
  0
MTEXT
  5
732
330
6C2
100
AcDbEntity
  8
Dimension
 62
     0
100
AcDbMText
 10
1.00109365665957
 20
6.389821739459583
 30
0.0
 40
0.125
 41
0.0
 71
     5
 72
     1
  1
\A1;0.10 [2.7mm]
 73
     1
 44
1.0
1001
ACAD
1000
MTEXTBEGIN
1070
    73
1070
     1
1070
    44
1040
1.0
1070
    74
1070
     0
1000
MTEXTEND
  0
POINT
  5
733
330
6C2
100
AcDbEntity
  8
Defpoints
 62
     0
100
AcDbPoint
 10
2.069945995840857
 20
6.389821739459583
 30
0.0
  0
POINT
  5
734
330
6C2
100
AcDbEntity
  8
Defpoints
 62
     0
100
AcDbPoint
 10
1.954945995840857
 20
6.389821739459583
 30
0.0
  0
POINT
  5
735
330
6C2
100
AcDbEntity
  8
Defpoints
 62
     0
100
AcDbPoint
 10
1.954945995840857
 20
6.389821739459583
 30
0.0
  0
ENDBLK
  5
6CE
330
6C2
100
AcDbEntity
  8
0
100
AcDbBlockEnd
  0
ENDSEC
  0
SECTION
  2
ENTITIES
  0
LINE
  5
1AA
330
1F
100
AcDbEntity
  8
Object
100
AcDbLine
 10
15.9031990589075
 20
4.387821739459583
 30
0.0
 11
8.901199058907499
 21
4.387821739459583
 31
0.0
  0
LINE
  5
1AB
330
1F
100
AcDbEntity
  8
Object
100
AcDbLine
 10
8.901199058907499
 20
4.442821739459583
 30
0.0
 11
8.901199058907499
 21
4.415821739459583
 31
0.0
  0
LINE
  5
1AC
330
1F
100
AcDbEntity
  8
Object
100
AcDbLine
 10
8.901199058907499
 20
4.471821739459583
 30
0.0
 11
8.901199058907499
 21
4.493821739459583
 31
0.0
  0
LINE
  5
1AD
330
1F
100
AcDbEntity
  8
Object
100
AcDbLine
 10
8.901199058907499
 20
4.493821739459583
 30
0.0
 11
8.901199058907499
 21
4.502821739459584
 31
0.0
  0
LINE
  5
1AE
330
1F
100
AcDbEntity
  8
Object
100
AcDbLine
 10
8.901199058907499
 20
4.502821739459584
 30
0.0
 11
15.9031990589075
 21
4.502821739459584
 31
0.0
  0
LINE
  5
1AF
330
1F
100
AcDbEntity
  8
Object
100
AcDbLine
 10
8.901199058907499
 20
4.471821739459583
 30
0.0
 11
8.901199058907499
 21
4.442821739459583
 31
0.0
  0
LINE
  5
1B0
330
1F
100
AcDbEntity
  8
Object
100
AcDbLine
 10
8.901199058907499
 20
4.415821739459583
 30
0.0
 11
8.901199058907499
 21
4.394821739459583
 31
0.0
  0
LINE
  5
1B1
330
1F
100
AcDbEntity
  8
Object
100
AcDbLine
 10
15.9031990589075
 20
4.387821739459583
 30
0.0
 11
8.901199058907499
 21
4.387821739459583
 31
0.0
  0
LINE
  5
1B2
330
1F
100
AcDbEntity
  8
Object
100
AcDbLine
 10
8.901199058907499
 20
4.387821739459583
 30
0.0
 11
8.901199058907499
 21
4.394821739459583
 31
0.0
  0
LINE
  5
1B3
330
1F
100
AcDbEntity
  8
Object
100
AcDbLine
 10
8.901199058907499
 20
4.507821739459583
 30
0.0
 11
8.901199058907499
 21
4.512821739459583
 31
0.0
  0
LINE
  5
1B4
330
1F
100
AcDbEntity
  8
Object
100
AcDbLine
 10
8.901199058907499
 20
4.512821739459583
 30
0.0
 11
8.901199058907499
 21
4.744821739459583
 31
0.0
  0
LINE
  5
1B5
330
1F
100
AcDbEntity
  8
Object
100
AcDbLine
 10
8.901199058907499
 20
4.507821739459583
 30
0.0
 11
8.901199058907499
 21
4.503821739459583
 31
0.0
  0
LINE
  5
1B6
330
1F
100
AcDbEntity
  8
Object
100
AcDbLine
 10
8.901199058907499
 20
4.503821739459583
 30
0.0
 11
8.901199058907499
 21
4.502821739459584
 31
0.0
  0
LINE
  5
1B7
330
1F
100
AcDbEntity
  8
Object
100
AcDbLine
 10
8.901199058907499
 20
4.471821739459583
 30
0.0
 11
8.901199058907499
 21
4.493821739459583
 31
0.0
  0
LINE
  5
1B8
330
1F
100
AcDbEntity
  8
Object
100
AcDbLine
 10
8.901199058907499
 20
4.493821739459583
 30
0.0
 11
8.901199058907499
 21
4.502821739459584
 31
0.0
  0
LINE
  5
1B9
330
1F
100
AcDbEntity
  8
Object
100
AcDbLine
 10
8.901199058907499
 20
4.471821739459583
 30
0.0
 11
8.901199058907499
 21
4.442821739459583
 31
0.0
  0
LINE
  5
1BA
330
1F
100
AcDbEntity
  8
Object
100
AcDbLine
 10
8.901199058907499
 20
4.442821739459583
 30
0.0
 11
8.901199058907499
 21
4.415821739459583
 31
0.0
  0
LINE
  5
1BB
330
1F
100
AcDbEntity
  8
Object
100
AcDbLine
 10
8.901199058907499
 20
4.415821739459583
 30
0.0
 11
8.901199058907499
 21
4.394821739459583
 31
0.0
  0
LINE
  5
1BC
330
1F
100
AcDbEntity
  8
Object
100
AcDbLine
 10
8.901199058907499
 20
4.394821739459583
 30
0.0
 11
8.901199058907499
 21
4.387821739459583
 31
0.0
  0
LINE
  5
1BD
330
1F
100
AcDbEntity
  8
Object
100
AcDbLine
 10
8.901199058907499
 20
4.503821739459583
 30
0.0
 11
8.901199058907499
 21
4.507821739459583
 31
0.0
  0
LINE
  5
1BE
330
1F
100
AcDbEntity
  8
Object
100
AcDbLine
 10
8.901199058907499
 20
4.507821739459583
 30
0.0
 11
8.901199058907499
 21
4.512821739459583
 31
0.0
  0
LINE
  5
1BF
330
1F
100
AcDbEntity
  8
Object
100
AcDbLine
 10
8.901199058907499
 20
4.512821739459583
 30
0.0
 11
15.9031990589075
 21
4.512821739459583
 31
0.0
  0
LINE
  5
1C0
330
1F
100
AcDbEntity
  8
Object
100
AcDbLine
 10
15.9031990589075
 20
4.502821739459584
 30
0.0
 11
8.901199058907499
 21
4.502821739459584
 31
0.0
  0
LINE
  5
1C1
330
1F
100
AcDbEntity
  8
Object
100
AcDbLine
 10
8.901199058907499
 20
4.502821739459584
 30
0.0
 11
8.901199058907499
 21
4.503821739459583
 31
0.0
  0
LINE
  5
1C2
330
1F
100
AcDbEntity
  8
Object
100
AcDbLine
 10
15.9031990589075
 20
4.502821739459584
 30
0.0
 11
8.901199058907499
 21
4.502821739459584
 31
0.0
  0
LINE
  5
1C3
330
1F
100
AcDbEntity
  8
Object
100
AcDbLine
 10
15.9031990589075
 20
8.110821739459584
 30
0.0
 11
15.9011990589075
 21
8.101821739459584
 31
0.0
  0
LINE
  5
1C4
330
1F
100
AcDbEntity
  8
Object
100
AcDbLine
 10
15.9031990589075
 20
8.083821739459583
 30
0.0
 11
15.9011990589075
 21
8.090821739459583
 31
0.0
  0
LINE
  5
1C5
330
1F
100
AcDbEntity
  8
Object
100
AcDbLine
 10
15.9011990589075
 20
8.090821739459583
 30
0.0
 11
15.8911990589075
 21
8.061821739459583
 31
0.0
  0
LINE
  5
1C6
330
1F
100
AcDbEntity
  8
Object
100
AcDbLine
 10
15.8911990589075
 20
8.061821739459583
 30
0.0
 11
15.8681990589075
 21
8.040821739459584
 31
0.0
  0
LINE
  5
1C7
330
1F
100
AcDbEntity
  8
Object
100
AcDbLine
 10
15.8681990589075
 20
8.040821739459584
 30
0.0
 11
15.8391990589075
 21
8.033821739459583
 31
0.0
  0
LINE
  5
1C8
330
1F
100
AcDbEntity
  8
Object
100
AcDbLine
 10
15.8391990589075
 20
8.033821739459583
 30
0.0
 11
15.7751990589075
 21
8.033821739459583
 31
0.0
  0
LINE
  5
1C9
330
1F
100
AcDbEntity
  8
Object
100
AcDbLine
 10
15.8701990589075
 20
8.149821739459582
 30
0.0
 11
15.8851990589075
 21
8.137821739459583
 31
0.0
  0
LINE
  5
1CA
330
1F
100
AcDbEntity
  8
Object
100
AcDbLine
 10
15.8851990589075
 20
8.137821739459583
 30
0.0
 11
15.8961990589075
 21
8.120821739459582
 31
0.0
  0
LINE
  5
1CB
330
1F
100
AcDbEntity
  8
Object
100
AcDbLine
 10
15.8961990589075
 20
8.120821739459582
 30
0.0
 11
15.9011990589075
 21
8.101821739459584
 31
0.0
  0
LINE
  5
1CC
330
1F
100
AcDbEntity
  8
Object
100
AcDbLine
 10
15.8701990589075
 20
8.149821739459582
 30
0.0
 11
15.7771990589075
 21
8.203821739459584
 31
0.0
  0
LINE
  5
1CD
330
1F
100
AcDbEntity
  8
Object
100
AcDbLine
 10
15.7601990589075
 20
8.029821739459583
 30
0.0
 11
15.7751990589075
 21
8.033821739459583
 31
0.0
  0
LINE
  5
1CE
330
1F
100
AcDbEntity
  8
Object
100
AcDbLine
 10
15.7451990589075
 20
4.775821739459583
 30
0.0
 11
15.7451990589075
 21
8.003821739459583
 31
0.0
  0
LINE
  5
1CF
330
1F
100
AcDbEntity
  8
Object
100
AcDbLine
 10
15.0571990589075
 20
8.003821739459583
 30
0.0
 11
15.0571990589075
 21
4.775821739459583
 31
0.0
  0
LINE
  5
1D0
330
1F
100
AcDbEntity
  8
Object
100
AcDbLine
 10
15.7491990589075
 20
4.760821739459583
 30
0.0
 11
15.7451990589075
 21
4.775821739459583
 31
0.0
  0
LINE
  5
1D1
330
1F
100
AcDbEntity
  8
Object
100
AcDbLine
 10
15.0531990589075
 20
8.018821739459584
 30
0.0
 11
15.0571990589075
 21
8.003821739459583
 31
0.0
  0
LINE
  5
1D2
330
1F
100
AcDbEntity
  8
Object
100
AcDbLine
 10
15.7451990589075
 20
8.003821739459583
 30
0.0
 11
15.7491990589075
 21
8.018821739459584
 31
0.0
  0
LINE
  5
1D3
330
1F
100
AcDbEntity
  8
Object
100
AcDbLine
 10
15.0571990589075
 20
4.775821739459583
 30
0.0
 11
15.0531990589075
 21
4.760821739459583
 31
0.0
  0
LINE
  5
1D4
330
1F
100
AcDbEntity
  8
Object
100
AcDbLine
 10
15.7611990589075
 20
4.748821739459583
 30
0.0
 11
15.7491990589075
 21
4.760821739459583
 31
0.0
  0
LINE
  5
1D5
330
1F
100
AcDbEntity
  8
Object
100
AcDbLine
 10
15.7491990589075
 20
8.018821739459584
 30
0.0
 11
15.7601990589075
 21
8.029821739459583
 31
0.0
  0
LINE
  5
1D6
330
1F
100
AcDbEntity
  8
Object
100
AcDbLine
 10
15.0421990589075
 20
8.029821739459583
 30
0.0
 11
15.0531990589075
 21
8.018821739459584
 31
0.0
  0
LINE
  5
1D7
330
1F
100
AcDbEntity
  8
Object
100
AcDbLine
 10
15.0531990589075
 20
4.760821739459583
 30
0.0
 11
15.0411990589075
 21
4.748821739459583
 31
0.0
  0
LINE
  5
1D8
330
1F
100
AcDbEntity
  8
Object
100
AcDbLine
 10
15.0261990589075
 20
8.240821739459583
 30
0.0
 11
15.0261990589075
 21
8.203821739459584
 31
0.0
  0
LINE
  5
1D9
330
1F
100
AcDbEntity
  8
Object
100
AcDbLine
 10
15.7771990589075
 20
8.203821739459584
 30
0.0
 11
15.7771990589075
 21
8.240821739459583
 31
0.0
  0
LINE
  5
1DA
330
1F
100
AcDbEntity
  8
Object
100
AcDbLine
 10
15.0411990589075
 20
4.748821739459583
 30
0.0
 11
15.0261990589075
 21
4.744821739459583
 31
0.0
  0
LINE
  5
1DB
330
1F
100
AcDbEntity
  8
Object
100
AcDbLine
 10
15.7761990589075
 20
4.744821739459583
 30
0.0
 11
15.7611990589075
 21
4.748821739459583
 31
0.0
  0
LINE
  5
1DC
330
1F
100
AcDbEntity
  8
Object
100
AcDbLine
 10
15.0271990589075
 20
8.033821739459583
 30
0.0
 11
14.9631990589075
 21
8.033821739459583
 31
0.0
  0
LINE
  5
1DD
330
1F
100
AcDbEntity
  8
Object
100
AcDbLine
 10
14.9631990589075
 20
8.033821739459583
 30
0.0
 11
14.9341990589075
 21
8.040821739459584
 31
0.0
  0
LINE
  5
1DE
330
1F
100
AcDbEntity
  8
Object
100
AcDbLine
 10
15.0271990589075
 20
8.033821739459583
 30
0.0
 11
15.0421990589075
 21
8.029821739459583
 31
0.0
  0
LINE
  5
1DF
330
1F
100
AcDbEntity
  8
Object
100
AcDbLine
 10
15.0261990589075
 20
8.203821739459584
 30
0.0
 11
14.9321990589075
 21
8.149821739459582
 31
0.0
  0
LINE
  5
1E0
330
1F
100
AcDbEntity
  8
Object
100
AcDbLine
 10
14.9321990589075
 20
8.149821739459582
 30
0.0
 11
14.9171990589075
 21
8.137821739459583
 31
0.0
  0
LINE
  5
1E1
330
1F
100
AcDbEntity
  8
Object
100
AcDbLine
 10
14.9111990589075
 20
8.061821739459583
 30
0.0
 11
14.9341990589075
 21
8.040821739459584
 31
0.0
  0
LINE
  5
1E2
330
1F
100
AcDbEntity
  8
Object
100
AcDbLine
 10
14.9171990589075
 20
8.137821739459583
 30
0.0
 11
14.9061990589075
 21
8.120821739459582
 31
0.0
  0
LINE
  5
1E3
330
1F
100
AcDbEntity
  8
Object
100
AcDbLine
 10
14.9061990589075
 20
8.120821739459582
 30
0.0
 11
14.9011990589075
 21
8.101821739459584
 31
0.0
  0
LINE
  5
1E4
330
1F
100
AcDbEntity
  8
Object
100
AcDbLine
 10
14.9111990589075
 20
8.061821739459583
 30
0.0
 11
14.9011990589075
 21
8.090821739459583
 31
0.0
  0
LINE
  5
1E5
330
1F
100
AcDbEntity
  8
Object
100
AcDbLine
 10
14.9011990589075
 20
8.090821739459583
 30
0.0
 11
14.8911990589075
 21
8.061821739459583
 31
0.0
  0
LINE
  5
1E6
330
1F
100
AcDbEntity
  8
Object
100
AcDbLine
 10
14.8911990589075
 20
8.061821739459583
 30
0.0
 11
14.8681990589075
 21
8.040821739459584
 31
0.0
  0
LINE
  5
1E7
330
1F
100
AcDbEntity
  8
Object
100
AcDbLine
 10
14.8681990589075
 20
8.040821739459584
 30
0.0
 11
14.8391990589075
 21
8.033821739459583
 31
0.0
  0
LINE
  5
1E8
330
1F
100
AcDbEntity
  8
Object
100
AcDbLine
 10
14.8391990589075
 20
8.033821739459583
 30
0.0
 11
14.7751990589075
 21
8.033821739459583
 31
0.0
  0
LINE
  5
1E9
330
1F
100
AcDbEntity
  8
Object
100
AcDbLine
 10
14.8701990589075
 20
8.149821739459582
 30
0.0
 11
14.8851990589075
 21
8.137821739459583
 31
0.0
  0
LINE
  5
1EA
330
1F
100
AcDbEntity
  8
Object
100
AcDbLine
 10
14.8851990589075
 20
8.137821739459583
 30
0.0
 11
14.8961990589075
 21
8.120821739459582
 31
0.0
  0
LINE
  5
1EB
330
1F
100
AcDbEntity
  8
Object
100
AcDbLine
 10
14.8961990589075
 20
8.120821739459582
 30
0.0
 11
14.9011990589075
 21
8.101821739459584
 31
0.0
  0
LINE
  5
1EC
330
1F
100
AcDbEntity
  8
Object
100
AcDbLine
 10
14.8701990589075
 20
8.149821739459582
 30
0.0
 11
14.7771990589075
 21
8.203821739459584
 31
0.0
  0
LINE
  5
1ED
330
1F
100
AcDbEntity
  8
Object
100
AcDbLine
 10
14.7601990589075
 20
8.029821739459583
 30
0.0
 11
14.7751990589075
 21
8.033821739459583
 31
0.0
  0
LINE
  5
1EE
330
1F
100
AcDbEntity
  8
Object
100
AcDbLine
 10
14.0571990589075
 20
8.003821739459583
 30
0.0
 11
14.0571990589075
 21
4.775821739459583
 31
0.0
  0
LINE
  5
1EF
330
1F
100
AcDbEntity
  8
Object
100
AcDbLine
 10
14.7451990589075
 20
8.003821739459583
 30
0.0
 11
14.7451990589075
 21
4.775821739459583
 31
0.0
  0
LINE
  5
1F0
330
1F
100
AcDbEntity
  8
Object
100
AcDbLine
 10
14.7451990589075
 20
4.775821739459583
 30
0.0
 11
14.7491990589075
 21
4.760821739459583
 31
0.0
  0
LINE
  5
1F1
330
1F
100
AcDbEntity
  8
Object
100
AcDbLine
 10
14.0531990589075
 20
8.018821739459584
 30
0.0
 11
14.0571990589075
 21
8.003821739459583
 31
0.0
  0
LINE
  5
1F2
330
1F
100
AcDbEntity
  8
Object
100
AcDbLine
 10
14.7451990589075
 20
8.003821739459583
 30
0.0
 11
14.7491990589075
 21
8.018821739459584
 31
0.0
  0
LINE
  5
1F3
330
1F
100
AcDbEntity
  8
Object
100
AcDbLine
 10
14.0571990589075
 20
4.775821739459583
 30
0.0
 11
14.0531990589075
 21
4.760821739459583
 31
0.0
  0
LINE
  5
1F4
330
1F
100
AcDbEntity
  8
Object
100
AcDbLine
 10
14.7491990589075
 20
8.018821739459584
 30
0.0
 11
14.7601990589075
 21
8.029821739459583
 31
0.0
  0
LINE
  5
1F5
330
1F
100
AcDbEntity
  8
Object
100
AcDbLine
 10
14.0421990589075
 20
8.029821739459583
 30
0.0
 11
14.0531990589075
 21
8.018821739459584
 31
0.0
  0
LINE
  5
1F6
330
1F
100
AcDbEntity
  8
Object
100
AcDbLine
 10
14.0531990589075
 20
4.760821739459583
 30
0.0
 11
14.0411990589075
 21
4.748821739459583
 31
0.0
  0
LINE
  5
1F7
330
1F
100
AcDbEntity
  8
Object
100
AcDbLine
 10
14.7491990589075
 20
4.760821739459583
 30
0.0
 11
14.7611990589075
 21
4.748821739459583
 31
0.0
  0
LINE
  5
1F8
330
1F
100
AcDbEntity
  8
Object
100
AcDbLine
 10
14.7611990589075
 20
4.748821739459583
 30
0.0
 11
14.7761990589075
 21
4.744821739459583
 31
0.0
  0
LINE
  5
1F9
330
1F
100
AcDbEntity
  8
Object
100
AcDbLine
 10
14.0411990589075
 20
4.748821739459583
 30
0.0
 11
14.0261990589075
 21
4.744821739459583
 31
0.0
  0
LINE
  5
1FA
330
1F
100
AcDbEntity
  8
Object
100
AcDbLine
 10
14.0251990589075
 20
8.240821739459583
 30
0.0
 11
14.0251990589075
 21
8.203821739459584
 31
0.0
  0
LINE
  5
1FB
330
1F
100
AcDbEntity
  8
Object
100
AcDbLine
 10
14.7771990589075
 20
8.203821739459584
 30
0.0
 11
14.7771990589075
 21
8.240821739459583
 31
0.0
  0
LINE
  5
1FC
330
1F
100
AcDbEntity
  8
Object
100
AcDbLine
 10
14.0271990589075
 20
8.033821739459583
 30
0.0
 11
13.9631990589075
 21
8.033821739459583
 31
0.0
  0
LINE
  5
1FD
330
1F
100
AcDbEntity
  8
Object
100
AcDbLine
 10
13.9631990589075
 20
8.033821739459583
 30
0.0
 11
13.9341990589075
 21
8.040821739459584
 31
0.0
  0
LINE
  5
1FE
330
1F
100
AcDbEntity
  8
Object
100
AcDbLine
 10
14.0251990589075
 20
8.203821739459584
 30
0.0
 11
13.9321990589075
 21
8.149821739459582
 31
0.0
  0
LINE
  5
1FF
330
1F
100
AcDbEntity
  8
Object
100
AcDbLine
 10
14.0271990589075
 20
8.033821739459583
 30
0.0
 11
14.0421990589075
 21
8.029821739459583
 31
0.0
  0
LINE
  5
200
330
1F
100
AcDbEntity
  8
Object
100
AcDbLine
 10
13.9321990589075
 20
8.149821739459582
 30
0.0
 11
13.9171990589075
 21
8.137821739459583
 31
0.0
  0
LINE
  5
201
330
1F
100
AcDbEntity
  8
Object
100
AcDbLine
 10
13.9111990589075
 20
8.061821739459583
 30
0.0
 11
13.9341990589075
 21
8.040821739459584
 31
0.0
  0
LINE
  5
202
330
1F
100
AcDbEntity
  8
Object
100
AcDbLine
 10
13.9171990589075
 20
8.137821739459583
 30
0.0
 11
13.9061990589075
 21
8.120821739459582
 31
0.0
  0
LINE
  5
203
330
1F
100
AcDbEntity
  8
Object
100
AcDbLine
 10
13.9011990589075
 20
8.090821739459583
 30
0.0
 11
13.9111990589075
 21
8.061821739459583
 31
0.0
  0
LINE
  5
204
330
1F
100
AcDbEntity
  8
Object
100
AcDbLine
 10
13.9061990589075
 20
8.120821739459582
 30
0.0
 11
13.9011990589075
 21
8.101821739459584
 31
0.0
  0
LINE
  5
205
330
1F
100
AcDbEntity
  8
Object
100
AcDbLine
 10
13.9011990589075
 20
8.090821739459583
 30
0.0
 11
13.8911990589075
 21
8.061821739459583
 31
0.0
  0
LINE
  5
206
330
1F
100
AcDbEntity
  8
Object
100
AcDbLine
 10
13.8911990589075
 20
8.061821739459583
 30
0.0
 11
13.8681990589075
 21
8.040821739459584
 31
0.0
  0
LINE
  5
207
330
1F
100
AcDbEntity
  8
Object
100
AcDbLine
 10
13.8681990589075
 20
8.040821739459584
 30
0.0
 11
13.8391990589075
 21
8.033821739459583
 31
0.0
  0
LINE
  5
208
330
1F
100
AcDbEntity
  8
Object
100
AcDbLine
 10
13.8391990589075
 20
8.033821739459583
 30
0.0
 11
13.7751990589075
 21
8.033821739459583
 31
0.0
  0
LINE
  5
209
330
1F
100
AcDbEntity
  8
Object
100
AcDbLine
 10
13.8701990589075
 20
8.149821739459582
 30
0.0
 11
13.8851990589075
 21
8.137821739459583
 31
0.0
  0
LINE
  5
20A
330
1F
100
AcDbEntity
  8
Object
100
AcDbLine
 10
13.8851990589075
 20
8.137821739459583
 30
0.0
 11
13.8961990589075
 21
8.120821739459582
 31
0.0
  0
LINE
  5
20B
330
1F
100
AcDbEntity
  8
Object
100
AcDbLine
 10
13.8961990589075
 20
8.120821739459582
 30
0.0
 11
13.9011990589075
 21
8.101821739459584
 31
0.0
  0
LINE
  5
20C
330
1F
100
AcDbEntity
  8
Object
100
AcDbLine
 10
13.8701990589075
 20
8.149821739459582
 30
0.0
 11
13.7761990589075
 21
8.203821739459584
 31
0.0
  0
LINE
  5
20D
330
1F
100
AcDbEntity
  8
Object
100
AcDbLine
 10
13.7601990589075
 20
8.029821739459583
 30
0.0
 11
13.7751990589075
 21
8.033821739459583
 31
0.0
  0
LINE
  5
20E
330
1F
100
AcDbEntity
  8
Object
100
AcDbLine
 10
13.7451990589075
 20
8.003821739459583
 30
0.0
 11
13.7491990589075
 21
8.018821739459584
 31
0.0
  0
LINE
  5
20F
330
1F
100
AcDbEntity
  8
Object
100
AcDbLine
 10
13.0571990589075
 20
8.003821739459583
 30
0.0
 11
13.0571990589075
 21
4.775821739459583
 31
0.0
  0
LINE
  5
210
330
1F
100
AcDbEntity
  8
Object
100
AcDbLine
 10
13.7451990589075
 20
8.003821739459583
 30
0.0
 11
13.7451990589075
 21
4.775821739459583
 31
0.0
  0
LINE
  5
211
330
1F
100
AcDbEntity
  8
Object
100
AcDbLine
 10
13.7451990589075
 20
4.775821739459583
 30
0.0
 11
13.7491990589075
 21
4.760821739459583
 31
0.0
  0
LINE
  5
212
330
1F
100
AcDbEntity
  8
Object
100
AcDbLine
 10
13.0531990589075
 20
8.018821739459584
 30
0.0
 11
13.0571990589075
 21
8.003821739459583
 31
0.0
  0
LINE
  5
213
330
1F
100
AcDbEntity
  8
Object
100
AcDbLine
 10
13.0571990589075
 20
4.775821739459583
 30
0.0
 11
13.0531990589075
 21
4.760821739459583
 31
0.0
  0
LINE
  5
214
330
1F
100
AcDbEntity
  8
Object
100
AcDbLine
 10
13.0421990589075
 20
8.029821739459583
 30
0.0
 11
13.0531990589075
 21
8.018821739459584
 31
0.0
  0
LINE
  5
215
330
1F
100
AcDbEntity
  8
Object
100
AcDbLine
 10
13.7491990589075
 20
8.018821739459584
 30
0.0
 11
13.7601990589075
 21
8.029821739459583
 31
0.0
  0
LINE
  5
216
330
1F
100
AcDbEntity
  8
Object
100
AcDbLine
 10
13.7611990589075
 20
4.748821739459583
 30
0.0
 11
13.7491990589075
 21
4.760821739459583
 31
0.0
  0
LINE
  5
217
330
1F
100
AcDbEntity
  8
Object
100
AcDbLine
 10
13.0531990589075
 20
4.760821739459583
 30
0.0
 11
13.0411990589075
 21
4.748821739459583
 31
0.0
  0
LINE
  5
218
330
1F
100
AcDbEntity
  8
Object
100
AcDbLine
 10
13.0411990589075
 20
4.748821739459583
 30
0.0
 11
13.0261990589075
 21
4.744821739459583
 31
0.0
  0
LINE
  5
219
330
1F
100
AcDbEntity
  8
Object
100
AcDbLine
 10
13.7761990589075
 20
4.744821739459583
 30
0.0
 11
13.7611990589075
 21
4.748821739459583
 31
0.0
  0
LINE
  5
21A
330
1F
100
AcDbEntity
  8
Object
100
AcDbLine
 10
13.0251990589075
 20
8.240821739459583
 30
0.0
 11
13.0251990589075
 21
8.203821739459584
 31
0.0
  0
LINE
  5
21B
330
1F
100
AcDbEntity
  8
Object
100
AcDbLine
 10
13.7761990589075
 20
8.203821739459584
 30
0.0
 11
13.7761990589075
 21
8.240821739459583
 31
0.0
  0
LINE
  5
21C
330
1F
100
AcDbEntity
  8
Object
100
AcDbLine
 10
13.0271990589075
 20
8.033821739459583
 30
0.0
 11
12.9631990589075
 21
8.033821739459583
 31
0.0
  0
LINE
  5
21D
330
1F
100
AcDbEntity
  8
Object
100
AcDbLine
 10
12.9631990589075
 20
8.033821739459583
 30
0.0
 11
12.9341990589075
 21
8.040821739459584
 31
0.0
  0
LINE
  5
21E
330
1F
100
AcDbEntity
  8
Object
100
AcDbLine
 10
13.0271990589075
 20
8.033821739459583
 30
0.0
 11
13.0421990589075
 21
8.029821739459583
 31
0.0
  0
LINE
  5
21F
330
1F
100
AcDbEntity
  8
Object
100
AcDbLine
 10
13.0251990589075
 20
8.203821739459584
 30
0.0
 11
12.9321990589075
 21
8.149821739459582
 31
0.0
  0
LINE
  5
220
330
1F
100
AcDbEntity
  8
Object
100
AcDbLine
 10
12.9321990589075
 20
8.149821739459582
 30
0.0
 11
12.9171990589075
 21
8.137821739459583
 31
0.0
  0
LINE
  5
221
330
1F
100
AcDbEntity
  8
Object
100
AcDbLine
 10
12.9111990589075
 20
8.061821739459583
 30
0.0
 11
12.9341990589075
 21
8.040821739459584
 31
0.0
  0
LINE
  5
222
330
1F
100
AcDbEntity
  8
Object
100
AcDbLine
 10
12.9171990589075
 20
8.137821739459583
 30
0.0
 11
12.9061990589075
 21
8.120821739459582
 31
0.0
  0
LINE
  5
223
330
1F
100
AcDbEntity
  8
Object
100
AcDbLine
 10
12.9061990589075
 20
8.120821739459582
 30
0.0
 11
12.9011990589075
 21
8.101821739459584
 31
0.0
  0
LINE
  5
224
330
1F
100
AcDbEntity
  8
Object
100
AcDbLine
 10
12.9111990589075
 20
8.061821739459583
 30
0.0
 11
12.9011990589075
 21
8.090821739459583
 31
0.0
  0
LINE
  5
225
330
1F
100
AcDbEntity
  8
Object
100
AcDbLine
 10
12.9011990589075
 20
8.090821739459583
 30
0.0
 11
12.8911990589075
 21
8.061821739459583
 31
0.0
  0
LINE
  5
226
330
1F
100
AcDbEntity
  8
Object
100
AcDbLine
 10
12.8911990589075
 20
8.061821739459583
 30
0.0
 11
12.8681990589075
 21
8.040821739459584
 31
0.0
  0
LINE
  5
227
330
1F
100
AcDbEntity
  8
Object
100
AcDbLine
 10
12.8681990589075
 20
8.040821739459584
 30
0.0
 11
12.8381990589075
 21
8.033821739459583
 31
0.0
  0
LINE
  5
228
330
1F
100
AcDbEntity
  8
Object
100
AcDbLine
 10
12.8381990589075
 20
8.033821739459583
 30
0.0
 11
12.7751990589075
 21
8.033821739459583
 31
0.0
  0
LINE
  5
229
330
1F
100
AcDbEntity
  8
Object
100
AcDbLine
 10
12.8701990589075
 20
8.149821739459582
 30
0.0
 11
12.8851990589075
 21
8.137821739459583
 31
0.0
  0
LINE
  5
22A
330
1F
100
AcDbEntity
  8
Object
100
AcDbLine
 10
12.8851990589075
 20
8.137821739459583
 30
0.0
 11
12.8961990589075
 21
8.120821739459582
 31
0.0
  0
LINE
  5
22B
330
1F
100
AcDbEntity
  8
Object
100
AcDbLine
 10
12.8961990589075
 20
8.120821739459582
 30
0.0
 11
12.9011990589075
 21
8.101821739459584
 31
0.0
  0
LINE
  5
22C
330
1F
100
AcDbEntity
  8
Object
100
AcDbLine
 10
12.8701990589075
 20
8.149821739459582
 30
0.0
 11
12.7761990589075
 21
8.203821739459584
 31
0.0
  0
LINE
  5
22D
330
1F
100
AcDbEntity
  8
Object
100
AcDbLine
 10
12.7601990589075
 20
8.029821739459583
 30
0.0
 11
12.7751990589075
 21
8.033821739459583
 31
0.0
  0
LINE
  5
22E
330
1F
100
AcDbEntity
  8
Object
100
AcDbLine
 10
12.7451990589075
 20
8.003821739459583
 30
0.0
 11
12.7491990589075
 21
8.018821739459584
 31
0.0
  0
LINE
  5
22F
330
1F
100
AcDbEntity
  8
Object
100
AcDbLine
 10
12.0571990589075
 20
8.003821739459583
 30
0.0
 11
12.0571990589075
 21
4.775821739459583
 31
0.0
  0
LINE
  5
230
330
1F
100
AcDbEntity
  8
Object
100
AcDbLine
 10
12.7451990589075
 20
8.003821739459583
 30
0.0
 11
12.7451990589075
 21
4.775821739459583
 31
0.0
  0
LINE
  5
231
330
1F
100
AcDbEntity
  8
Object
100
AcDbLine
 10
12.7451990589075
 20
4.775821739459583
 30
0.0
 11
12.7491990589075
 21
4.760821739459583
 31
0.0
  0
LINE
  5
232
330
1F
100
AcDbEntity
  8
Object
100
AcDbLine
 10
12.0531990589075
 20
8.018821739459584
 30
0.0
 11
12.0571990589075
 21
8.003821739459583
 31
0.0
  0
LINE
  5
233
330
1F
100
AcDbEntity
  8
Object
100
AcDbLine
 10
12.7611990589075
 20
4.748821739459583
 30
0.0
 11
12.7491990589075
 21
4.760821739459583
 31
0.0
  0
LINE
  5
234
330
1F
100
AcDbEntity
  8
Object
100
AcDbLine
 10
12.0571990589075
 20
4.775821739459583
 30
0.0
 11
12.0531990589075
 21
4.760821739459583
 31
0.0
  0
LINE
  5
235
330
1F
100
AcDbEntity
  8
Object
100
AcDbLine
 10
12.0421990589075
 20
8.029821739459583
 30
0.0
 11
12.0531990589075
 21
8.018821739459584
 31
0.0
  0
LINE
  5
236
330
1F
100
AcDbEntity
  8
Object
100
AcDbLine
 10
12.7491990589075
 20
8.018821739459584
 30
0.0
 11
12.7601990589075
 21
8.029821739459583
 31
0.0
  0
LINE
  5
237
330
1F
100
AcDbEntity
  8
Object
100
AcDbLine
 10
12.0531990589075
 20
4.760821739459583
 30
0.0
 11
12.0411990589075
 21
4.748821739459583
 31
0.0
  0
LINE
  5
238
330
1F
100
AcDbEntity
  8
Object
100
AcDbLine
 10
12.7761990589075
 20
4.744821739459583
 30
0.0
 11
12.7611990589075
 21
4.748821739459583
 31
0.0
  0
LINE
  5
239
330
1F
100
AcDbEntity
  8
Object
100
AcDbLine
 10
12.0411990589075
 20
4.748821739459583
 30
0.0
 11
12.0261990589075
 21
4.744821739459583
 31
0.0
  0
LINE
  5
23A
330
1F
100
AcDbEntity
  8
Object
100
AcDbLine
 10
12.0251990589075
 20
8.240821739459583
 30
0.0
 11
12.0251990589075
 21
8.203821739459584
 31
0.0
  0
LINE
  5
23B
330
1F
100
AcDbEntity
  8
Object
100
AcDbLine
 10
12.7761990589075
 20
8.203821739459584
 30
0.0
 11
12.7761990589075
 21
8.240821739459583
 31
0.0
  0
LINE
  5
23C
330
1F
100
AcDbEntity
  8
Object
100
AcDbLine
 10
12.0271990589075
 20
8.033821739459583
 30
0.0
 11
11.9631990589075
 21
8.033821739459583
 31
0.0
  0
LINE
  5
23D
330
1F
100
AcDbEntity
  8
Object
100
AcDbLine
 10
11.9631990589075
 20
8.033821739459583
 30
0.0
 11
11.9341990589075
 21
8.040821739459584
 31
0.0
  0
LINE
  5
23E
330
1F
100
AcDbEntity
  8
Object
100
AcDbLine
 10
12.0251990589075
 20
8.203821739459584
 30
0.0
 11
11.9321990589075
 21
8.149821739459582
 31
0.0
  0
LINE
  5
23F
330
1F
100
AcDbEntity
  8
Object
100
AcDbLine
 10
12.0271990589075
 20
8.033821739459583
 30
0.0
 11
12.0421990589075
 21
8.029821739459583
 31
0.0
  0
LINE
  5
240
330
1F
100
AcDbEntity
  8
Object
100
AcDbLine
 10
11.9321990589075
 20
8.149821739459582
 30
0.0
 11
11.9161990589075
 21
8.137821739459583
 31
0.0
  0
LINE
  5
241
330
1F
100
AcDbEntity
  8
Object
100
AcDbLine
 10
11.9111990589075
 20
8.061821739459583
 30
0.0
 11
11.9341990589075
 21
8.040821739459584
 31
0.0
  0
LINE
  5
242
330
1F
100
AcDbEntity
  8
Object
100
AcDbLine
 10
11.9161990589075
 20
8.137821739459583
 30
0.0
 11
11.9061990589075
 21
8.120821739459582
 31
0.0
  0
LINE
  5
243
330
1F
100
AcDbEntity
  8
Object
100
AcDbLine
 10
11.9011990589075
 20
8.090821739459583
 30
0.0
 11
11.9111990589075
 21
8.061821739459583
 31
0.0
  0
LINE
  5
244
330
1F
100
AcDbEntity
  8
Object
100
AcDbLine
 10
11.9061990589075
 20
8.120821739459582
 30
0.0
 11
11.9011990589075
 21
8.101821739459584
 31
0.0
  0
LINE
  5
245
330
1F
100
AcDbEntity
  8
Object
100
AcDbLine
 10
11.9011990589075
 20
8.090821739459583
 30
0.0
 11
11.8911990589075
 21
8.061821739459583
 31
0.0
  0
LINE
  5
246
330
1F
100
AcDbEntity
  8
Object
100
AcDbLine
 10
11.8911990589075
 20
8.061821739459583
 30
0.0
 11
11.8681990589075
 21
8.040821739459584
 31
0.0
  0
LINE
  5
247
330
1F
100
AcDbEntity
  8
Object
100
AcDbLine
 10
11.8681990589075
 20
8.040821739459584
 30
0.0
 11
11.8381990589075
 21
8.033821739459583
 31
0.0
  0
LINE
  5
248
330
1F
100
AcDbEntity
  8
Object
100
AcDbLine
 10
11.8381990589075
 20
8.033821739459583
 30
0.0
 11
11.7751990589075
 21
8.033821739459583
 31
0.0
  0
LINE
  5
249
330
1F
100
AcDbEntity
  8
Object
100
AcDbLine
 10
11.8701990589075
 20
8.149821739459582
 30
0.0
 11
11.8851990589075
 21
8.137821739459583
 31
0.0
  0
LINE
  5
24A
330
1F
100
AcDbEntity
  8
Object
100
AcDbLine
 10
11.8851990589075
 20
8.137821739459583
 30
0.0
 11
11.8961990589075
 21
8.120821739459582
 31
0.0
  0
LINE
  5
24B
330
1F
100
AcDbEntity
  8
Object
100
AcDbLine
 10
11.8961990589075
 20
8.120821739459582
 30
0.0
 11
11.9011990589075
 21
8.101821739459584
 31
0.0
  0
LINE
  5
24C
330
1F
100
AcDbEntity
  8
Object
100
AcDbLine
 10
11.8701990589075
 20
8.149821739459582
 30
0.0
 11
11.7761990589075
 21
8.203821739459584
 31
0.0
  0
LINE
  5
24D
330
1F
100
AcDbEntity
  8
Object
100
AcDbLine
 10
11.7601990589075
 20
8.029821739459583
 30
0.0
 11
11.7751990589075
 21
8.033821739459583
 31
0.0
  0
LINE
  5
24E
330
1F
100
AcDbEntity
  8
Object
100
AcDbLine
 10
11.7451990589075
 20
8.003821739459583
 30
0.0
 11
11.7491990589075
 21
8.018821739459584
 31
0.0
  0
LINE
  5
24F
330
1F
100
AcDbEntity
  8
Object
100
AcDbLine
 10
11.0571990589075
 20
8.003821739459583
 30
0.0
 11
11.0571990589075
 21
4.775821739459583
 31
0.0
  0
LINE
  5
250
330
1F
100
AcDbEntity
  8
Object
100
AcDbLine
 10
11.7451990589075
 20
8.003821739459583
 30
0.0
 11
11.7451990589075
 21
4.775821739459583
 31
0.0
  0
LINE
  5
251
330
1F
100
AcDbEntity
  8
Object
100
AcDbLine
 10
11.7451990589075
 20
4.775821739459583
 30
0.0
 11
11.7491990589075
 21
4.760821739459583
 31
0.0
  0
LINE
  5
252
330
1F
100
AcDbEntity
  8
Object
100
AcDbLine
 10
11.0531990589075
 20
8.018821739459584
 30
0.0
 11
11.0571990589075
 21
8.003821739459583
 31
0.0
  0
LINE
  5
253
330
1F
100
AcDbEntity
  8
Object
100
AcDbLine
 10
11.7491990589075
 20
8.018821739459584
 30
0.0
 11
11.7601990589075
 21
8.029821739459583
 31
0.0
  0
LINE
  5
254
330
1F
100
AcDbEntity
  8
Object
100
AcDbLine
 10
11.7601990589075
 20
4.748821739459583
 30
0.0
 11
11.7491990589075
 21
4.760821739459583
 31
0.0
  0
LINE
  5
255
330
1F
100
AcDbEntity
  8
Object
100
AcDbLine
 10
11.0571990589075
 20
4.775821739459583
 30
0.0
 11
11.0531990589075
 21
4.760821739459583
 31
0.0
  0
LINE
  5
256
330
1F
100
AcDbEntity
  8
Object
100
AcDbLine
 10
11.0421990589075
 20
8.029821739459583
 30
0.0
 11
11.0531990589075
 21
8.018821739459584
 31
0.0
  0
LINE
  5
257
330
1F
100
AcDbEntity
  8
Object
100
AcDbLine
 10
11.0531990589075
 20
4.760821739459583
 30
0.0
 11
11.0411990589075
 21
4.748821739459583
 31
0.0
  0
LINE
  5
258
330
1F
100
AcDbEntity
  8
Object
100
AcDbLine
 10
11.7761990589075
 20
4.744821739459583
 30
0.0
 11
11.7601990589075
 21
4.748821739459583
 31
0.0
  0
LINE
  5
259
330
1F
100
AcDbEntity
  8
Object
100
AcDbLine
 10
11.0411990589075
 20
4.748821739459583
 30
0.0
 11
11.0261990589075
 21
4.744821739459583
 31
0.0
  0
LINE
  5
25A
330
1F
100
AcDbEntity
  8
Object
100
AcDbLine
 10
11.0251990589075
 20
8.240821739459583
 30
0.0
 11
11.0251990589075
 21
8.203821739459584
 31
0.0
  0
LINE
  5
25B
330
1F
100
AcDbEntity
  8
Object
100
AcDbLine
 10
11.7761990589075
 20
8.203821739459584
 30
0.0
 11
11.7761990589075
 21
8.240821739459583
 31
0.0
  0
LINE
  5
25C
330
1F
100
AcDbEntity
  8
Object
100
AcDbLine
 10
11.0271990589075
 20
8.033821739459583
 30
0.0
 11
10.9631990589075
 21
8.033821739459583
 31
0.0
  0
LINE
  5
25D
330
1F
100
AcDbEntity
  8
Object
100
AcDbLine
 10
10.9631990589075
 20
8.033821739459583
 30
0.0
 11
10.9341990589075
 21
8.040821739459584
 31
0.0
  0
LINE
  5
25E
330
1F
100
AcDbEntity
  8
Object
100
AcDbLine
 10
11.0271990589075
 20
8.033821739459583
 30
0.0
 11
11.0421990589075
 21
8.029821739459583
 31
0.0
  0
LINE
  5
25F
330
1F
100
AcDbEntity
  8
Object
100
AcDbLine
 10
11.0251990589075
 20
8.203821739459584
 30
0.0
 11
10.9321990589075
 21
8.149821739459582
 31
0.0
  0
LINE
  5
260
330
1F
100
AcDbEntity
  8
Object
100
AcDbLine
 10
10.9321990589075
 20
8.149821739459582
 30
0.0
 11
10.9161990589075
 21
8.137821739459583
 31
0.0
  0
LINE
  5
261
330
1F
100
AcDbEntity
  8
Object
100
AcDbLine
 10
10.9111990589075
 20
8.061821739459583
 30
0.0
 11
10.9341990589075
 21
8.040821739459584
 31
0.0
  0
LINE
  5
262
330
1F
100
AcDbEntity
  8
Object
100
AcDbLine
 10
10.9161990589075
 20
8.137821739459583
 30
0.0
 11
10.9061990589075
 21
8.120821739459582
 31
0.0
  0
LINE
  5
263
330
1F
100
AcDbEntity
  8
Object
100
AcDbLine
 10
10.9061990589075
 20
8.120821739459582
 30
0.0
 11
10.9011990589075
 21
8.101821739459584
 31
0.0
  0
LINE
  5
264
330
1F
100
AcDbEntity
  8
Object
100
AcDbLine
 10
10.9111990589075
 20
8.061821739459583
 30
0.0
 11
10.9011990589075
 21
8.090821739459583
 31
0.0
  0
LINE
  5
265
330
1F
100
AcDbEntity
  8
Object
100
AcDbLine
 10
10.9011990589075
 20
8.090821739459583
 30
0.0
 11
10.8911990589075
 21
8.061821739459583
 31
0.0
  0
LINE
  5
266
330
1F
100
AcDbEntity
  8
Object
100
AcDbLine
 10
10.8911990589075
 20
8.061821739459583
 30
0.0
 11
10.8681990589075
 21
8.040821739459584
 31
0.0
  0
LINE
  5
267
330
1F
100
AcDbEntity
  8
Object
100
AcDbLine
 10
10.8681990589075
 20
8.040821739459584
 30
0.0
 11
10.8381990589075
 21
8.033821739459583
 31
0.0
  0
LINE
  5
268
330
1F
100
AcDbEntity
  8
Object
100
AcDbLine
 10
10.8381990589075
 20
8.033821739459583
 30
0.0
 11
10.7751990589075
 21
8.033821739459583
 31
0.0
  0
LINE
  5
269
330
1F
100
AcDbEntity
  8
Object
100
AcDbLine
 10
10.8701990589075
 20
8.149821739459582
 30
0.0
 11
10.8851990589075
 21
8.137821739459583
 31
0.0
  0
LINE
  5
26A
330
1F
100
AcDbEntity
  8
Object
100
AcDbLine
 10
10.8851990589075
 20
8.137821739459583
 30
0.0
 11
10.8961990589075
 21
8.120821739459582
 31
0.0
  0
LINE
  5
26B
330
1F
100
AcDbEntity
  8
Object
100
AcDbLine
 10
10.8961990589075
 20
8.120821739459582
 30
0.0
 11
10.9011990589075
 21
8.101821739459584
 31
0.0
  0
LINE
  5
26C
330
1F
100
AcDbEntity
  8
Object
100
AcDbLine
 10
10.8701990589075
 20
8.149821739459582
 30
0.0
 11
10.7761990589075
 21
8.203821739459584
 31
0.0
  0
LINE
  5
26D
330
1F
100
AcDbEntity
  8
Object
100
AcDbLine
 10
10.7601990589075
 20
8.029821739459583
 30
0.0
 11
10.7751990589075
 21
8.033821739459583
 31
0.0
  0
LINE
  5
26E
330
1F
100
AcDbEntity
  8
Object
100
AcDbLine
 10
10.7451990589075
 20
8.003821739459583
 30
0.0
 11
10.7491990589075
 21
8.018821739459584
 31
0.0
  0
LINE
  5
26F
330
1F
100
AcDbEntity
  8
Object
100
AcDbLine
 10
10.0571990589075
 20
8.003821739459583
 30
0.0
 11
10.0571990589075
 21
4.775821739459583
 31
0.0
  0
LINE
  5
270
330
1F
100
AcDbEntity
  8
Object
100
AcDbLine
 10
10.7451990589075
 20
8.003821739459583
 30
0.0
 11
10.7451990589075
 21
4.775821739459583
 31
0.0
  0
LINE
  5
271
330
1F
100
AcDbEntity
  8
Object
100
AcDbLine
 10
10.7451990589075
 20
4.775821739459583
 30
0.0
 11
10.7491990589075
 21
4.760821739459583
 31
0.0
  0
LINE
  5
272
330
1F
100
AcDbEntity
  8
Object
100
AcDbLine
 10
10.0531990589075
 20
8.018821739459584
 30
0.0
 11
10.0571990589075
 21
8.003821739459583
 31
0.0
  0
LINE
  5
273
330
1F
100
AcDbEntity
  8
Object
100
AcDbLine
 10
10.7601990589075
 20
4.748821739459583
 30
0.0
 11
10.7491990589075
 21
4.760821739459583
 31
0.0
  0
LINE
  5
274
330
1F
100
AcDbEntity
  8
Object
100
AcDbLine
 10
10.0571990589075
 20
4.775821739459583
 30
0.0
 11
10.0531990589075
 21
4.760821739459583
 31
0.0
  0
LINE
  5
275
330
1F
100
AcDbEntity
  8
Object
100
AcDbLine
 10
10.0421990589075
 20
8.029821739459583
 30
0.0
 11
10.0531990589075
 21
8.018821739459584
 31
0.0
  0
LINE
  5
276
330
1F
100
AcDbEntity
  8
Object
100
AcDbLine
 10
10.7491990589075
 20
8.018821739459584
 30
0.0
 11
10.7601990589075
 21
8.029821739459583
 31
0.0
  0
LINE
  5
277
330
1F
100
AcDbEntity
  8
Object
100
AcDbLine
 10
10.0531990589075
 20
4.760821739459583
 30
0.0
 11
10.0411990589075
 21
4.748821739459583
 31
0.0
  0
LINE
  5
278
330
1F
100
AcDbEntity
  8
Object
100
AcDbLine
 10
10.7761990589075
 20
4.744821739459583
 30
0.0
 11
10.7601990589075
 21
4.748821739459583
 31
0.0
  0
LINE
  5
279
330
1F
100
AcDbEntity
  8
Object
100
AcDbLine
 10
10.0251990589075
 20
8.240821739459583
 30
0.0
 11
10.0251990589075
 21
8.203821739459584
 31
0.0
  0
LINE
  5
27A
330
1F
100
AcDbEntity
  8
Object
100
AcDbLine
 10
10.7761990589075
 20
8.203821739459584
 30
0.0
 11
10.7761990589075
 21
8.240821739459583
 31
0.0
  0
LINE
  5
27B
330
1F
100
AcDbEntity
  8
Object
100
AcDbLine
 10
10.0411990589075
 20
4.748821739459583
 30
0.0
 11
10.0251990589075
 21
4.744821739459583
 31
0.0
  0
LINE
  5
27C
330
1F
100
AcDbEntity
  8
Object
100
AcDbLine
 10
10.0271990589075
 20
8.033821739459583
 30
0.0
 11
9.963199058907498
 21
8.033821739459583
 31
0.0
  0
LINE
  5
27D
330
1F
100
AcDbEntity
  8
Object
100
AcDbLine
 10
9.963199058907498
 20
8.033821739459583
 30
0.0
 11
9.933199058907499
 21
8.040821739459584
 31
0.0
  0
LINE
  5
27E
330
1F
100
AcDbEntity
  8
Object
100
AcDbLine
 10
10.0251990589075
 20
8.203821739459584
 30
0.0
 11
9.932199058907499
 21
8.149821739459582
 31
0.0
  0
LINE
  5
27F
330
1F
100
AcDbEntity
  8
Object
100
AcDbLine
 10
10.0271990589075
 20
8.033821739459583
 30
0.0
 11
10.0421990589075
 21
8.029821739459583
 31
0.0
  0
LINE
  5
280
330
1F
100
AcDbEntity
  8
Object
100
AcDbLine
 10
9.932199058907499
 20
8.149821739459582
 30
0.0
 11
9.916199058907499
 21
8.137821739459583
 31
0.0
  0
LINE
  5
281
330
1F
100
AcDbEntity
  8
Object
100
AcDbLine
 10
9.911199058907499
 20
8.061821739459583
 30
0.0
 11
9.933199058907499
 21
8.040821739459584
 31
0.0
  0
LINE
  5
282
330
1F
100
AcDbEntity
  8
Object
100
AcDbLine
 10
9.916199058907499
 20
8.137821739459583
 30
0.0
 11
9.906199058907498
 21
8.120821739459582
 31
0.0
  0
LINE
  5
283
330
1F
100
AcDbEntity
  8
Object
100
AcDbLine
 10
9.901199058907499
 20
8.090821739459583
 30
0.0
 11
9.911199058907499
 21
8.061821739459583
 31
0.0
  0
LINE
  5
284
330
1F
100
AcDbEntity
  8
Object
100
AcDbLine
 10
9.906199058907498
 20
8.120821739459582
 30
0.0
 11
9.901199058907499
 21
8.101821739459584
 31
0.0
  0
LINE
  5
285
330
1F
100
AcDbEntity
  8
Object
100
AcDbLine
 10
9.901199058907499
 20
8.090821739459583
 30
0.0
 11
9.891199058907499
 21
8.061821739459583
 31
0.0
  0
LINE
  5
286
330
1F
100
AcDbEntity
  8
Object
100
AcDbLine
 10
9.891199058907499
 20
8.061821739459583
 30
0.0
 11
9.868199058907499
 21
8.040821739459584
 31
0.0
  0
LINE
  5
287
330
1F
100
AcDbEntity
  8
Object
100
AcDbLine
 10
9.868199058907499
 20
8.040821739459584
 30
0.0
 11
9.838199058907498
 21
8.033821739459583
 31
0.0
  0
LINE
  5
288
330
1F
100
AcDbEntity
  8
Object
100
AcDbLine
 10
9.838199058907498
 20
8.033821739459583
 30
0.0
 11
9.775199058907499
 21
8.033821739459583
 31
0.0
  0
LINE
  5
289
330
1F
100
AcDbEntity
  8
Object
100
AcDbLine
 10
9.870199058907498
 20
8.149821739459582
 30
0.0
 11
9.885199058907499
 21
8.137821739459583
 31
0.0
  0
LINE
  5
28A
330
1F
100
AcDbEntity
  8
Object
100
AcDbLine
 10
9.885199058907499
 20
8.137821739459583
 30
0.0
 11
9.896199058907498
 21
8.120821739459582
 31
0.0
  0
LINE
  5
28B
330
1F
100
AcDbEntity
  8
Object
100
AcDbLine
 10
9.896199058907498
 20
8.120821739459582
 30
0.0
 11
9.901199058907499
 21
8.101821739459584
 31
0.0
  0
LINE
  5
28C
330
1F
100
AcDbEntity
  8
Object
100
AcDbLine
 10
9.870199058907498
 20
8.149821739459582
 30
0.0
 11
9.776199058907499
 21
8.203821739459584
 31
0.0
  0
LINE
  5
28D
330
1F
100
AcDbEntity
  8
Object
100
AcDbLine
 10
9.760199058907499
 20
8.029821739459583
 30
0.0
 11
9.775199058907499
 21
8.033821739459583
 31
0.0
  0
LINE
  5
28E
330
1F
100
AcDbEntity
  8
Object
100
AcDbLine
 10
9.745199058907498
 20
8.003821739459583
 30
0.0
 11
9.749199058907498
 21
8.018821739459584
 31
0.0
  0
LINE
  5
28F
330
1F
100
AcDbEntity
  8
Object
100
AcDbLine
 10
9.057199058907499
 20
8.003821739459583
 30
0.0
 11
9.057199058907499
 21
4.775821739459583
 31
0.0
  0
LINE
  5
290
330
1F
100
AcDbEntity
  8
Object
100
AcDbLine
 10
9.745199058907498
 20
8.003821739459583
 30
0.0
 11
9.745199058907498
 21
4.775821739459583
 31
0.0
  0
LINE
  5
291
330
1F
100
AcDbEntity
  8
Object
100
AcDbLine
 10
9.745199058907498
 20
4.775821739459583
 30
0.0
 11
9.749199058907498
 21
4.760821739459583
 31
0.0
  0
LINE
  5
292
330
1F
100
AcDbEntity
  8
Object
100
AcDbLine
 10
9.053199058907498
 20
8.018821739459584
 30
0.0
 11
9.057199058907499
 21
8.003821739459583
 31
0.0
  0
LINE
  5
293
330
1F
100
AcDbEntity
  8
Object
100
AcDbLine
 10
9.760199058907499
 20
4.748821739459583
 30
0.0
 11
9.749199058907498
 21
4.760821739459583
 31
0.0
  0
LINE
  5
294
330
1F
100
AcDbEntity
  8
Object
100
AcDbLine
 10
9.057199058907499
 20
4.775821739459583
 30
0.0
 11
9.053199058907498
 21
4.760821739459583
 31
0.0
  0
LINE
  5
295
330
1F
100
AcDbEntity
  8
Object
100
AcDbLine
 10
9.749199058907498
 20
8.018821739459584
 30
0.0
 11
9.760199058907499
 21
8.029821739459583
 31
0.0
  0
LINE
  5
296
330
1F
100
AcDbEntity
  8
Object
100
AcDbLine
 10
9.042199058907499
 20
8.029821739459583
 30
0.0
 11
9.053199058907498
 21
8.018821739459584
 31
0.0
  0
LINE
  5
297
330
1F
100
AcDbEntity
  8
Object
100
AcDbLine
 10
9.053199058907498
 20
4.760821739459583
 30
0.0
 11
9.041199058907499
 21
4.748821739459583
 31
0.0
  0
LINE
  5
298
330
1F
100
AcDbEntity
  8
Object
100
AcDbLine
 10
9.025199058907499
 20
8.240821739459583
 30
0.0
 11
9.025199058907499
 21
8.203821739459584
 31
0.0
  0
LINE
  5
299
330
1F
100
AcDbEntity
  8
Object
100
AcDbLine
 10
9.776199058907499
 20
8.203821739459584
 30
0.0
 11
9.776199058907499
 21
8.240821739459583
 31
0.0
  0
LINE
  5
29A
330
1F
100
AcDbEntity
  8
Object
100
AcDbLine
 10
9.027199058907498
 20
8.033821739459583
 30
0.0
 11
8.963199058907498
 21
8.033821739459583
 31
0.0
  0
LINE
  5
29B
330
1F
100
AcDbEntity
  8
Object
100
AcDbLine
 10
8.963199058907498
 20
8.033821739459583
 30
0.0
 11
8.933199058907499
 21
8.040821739459584
 31
0.0
  0
LINE
  5
29C
330
1F
100
AcDbEntity
  8
Object
100
AcDbLine
 10
9.027199058907498
 20
8.033821739459583
 30
0.0
 11
9.042199058907499
 21
8.029821739459583
 31
0.0
  0
LINE
  5
29D
330
1F
100
AcDbEntity
  8
Object
100
AcDbLine
 10
9.025199058907499
 20
8.203821739459584
 30
0.0
 11
8.932199058907499
 21
8.149821739459582
 31
0.0
  0
LINE
  5
29E
330
1F
100
AcDbEntity
  8
Object
100
AcDbLine
 10
8.932199058907499
 20
8.149821739459582
 30
0.0
 11
8.916199058907499
 21
8.137821739459583
 31
0.0
  0
LINE
  5
29F
330
1F
100
AcDbEntity
  8
Object
100
AcDbLine
 10
8.911199058907499
 20
8.061821739459583
 30
0.0
 11
8.933199058907499
 21
8.040821739459584
 31
0.0
  0
LINE
  5
2A0
330
1F
100
AcDbEntity
  8
Object
100
AcDbLine
 10
8.916199058907499
 20
8.137821739459583
 30
0.0
 11
8.906199058907498
 21
8.120821739459582
 31
0.0
  0
LINE
  5
2A1
330
1F
100
AcDbEntity
  8
Object
100
AcDbLine
 10
8.911199058907499
 20
8.061821739459583
 30
0.0
 11
8.901199058907499
 21
8.090821739459583
 31
0.0
  0
LINE
  5
2A2
330
1F
100
AcDbEntity
  8
Object
100
AcDbLine
 10
8.901199058907499
 20
8.090821739459583
 30
0.0
 11
8.901199058907499
 21
8.101821739459584
 31
0.0
  0
LINE
  5
2A3
330
1F
100
AcDbEntity
  8
Object
100
AcDbLine
 10
8.901199058907499
 20
8.101821739459584
 30
0.0
 11
8.906199058907498
 21
8.120821739459582
 31
0.0
  0
LINE
  5
2A4
330
1F
100
AcDbEntity
  8
Object
100
AcDbLine
 10
9.760199058907499
 20
4.748821739459583
 30
0.0
 11
9.776199058907499
 21
4.744821739459583
 31
0.0
  0
LINE
  5
2A5
330
1F
100
AcDbEntity
  8
Object
100
AcDbLine
 10
9.776199058907499
 20
4.744821739459583
 30
0.0
 11
10.0251990589075
 21
4.744821739459583
 31
0.0
  0
LINE
  5
2A6
330
1F
100
AcDbEntity
  8
Object
100
AcDbLine
 10
11.0261990589075
 20
4.744821739459583
 30
0.0
 11
10.7761990589075
 21
4.744821739459583
 31
0.0
  0
LINE
  5
2A7
330
1F
100
AcDbEntity
  8
Object
100
AcDbLine
 10
12.0261990589075
 20
4.744821739459583
 30
0.0
 11
11.7761990589075
 21
4.744821739459583
 31
0.0
  0
LINE
  5
2A8
330
1F
100
AcDbEntity
  8
Object
100
AcDbLine
 10
13.0261990589075
 20
4.744821739459583
 30
0.0
 11
12.7761990589075
 21
4.744821739459583
 31
0.0
  0
LINE
  5
2A9
330
1F
100
AcDbEntity
  8
Object
100
AcDbLine
 10
14.0261990589075
 20
4.744821739459583
 30
0.0
 11
13.7761990589075
 21
4.744821739459583
 31
0.0
  0
LINE
  5
2AA
330
1F
100
AcDbEntity
  8
Object
100
AcDbLine
 10
15.0261990589075
 20
4.744821739459583
 30
0.0
 11
14.7761990589075
 21
4.744821739459583
 31
0.0
  0
LINE
  5
2AB
330
1F
100
AcDbEntity
  8
Object
100
AcDbLine
 10
15.9031990589075
 20
4.744821739459583
 30
0.0
 11
15.7761990589075
 21
4.744821739459583
 31
0.0
  0
LINE
  5
2AC
330
1F
100
AcDbEntity
  8
Object
100
AcDbLine
 10
8.901199058907499
 20
4.512821739459583
 30
0.0
 11
8.901199058907499
 21
4.744821739459583
 31
0.0
  0
LINE
  5
2AD
330
1F
100
AcDbEntity
  8
Object
100
AcDbLine
 10
8.901199058907499
 20
4.744821739459583
 30
0.0
 11
9.025199058907499
 21
4.744821739459583
 31
0.0
  0
LINE
  5
2AE
330
1F
100
AcDbEntity
  8
Object
100
AcDbLine
 10
9.025199058907499
 20
4.744821739459583
 30
0.0
 11
9.041199058907499
 21
4.748821739459583
 31
0.0
  0
LINE
  5
2AF
330
1F
100
AcDbEntity
  8
Object
100
AcDbLine
 10
9.025199058907499
 20
4.744821739459583
 30
0.0
 11
8.901199058907499
 21
4.744821739459583
 31
0.0
  0
LINE
  5
2B0
330
1F
100
AcDbEntity
  8
Object
100
AcDbLine
 10
9.775199058907499
 20
8.033821739459583
 30
0.0
 11
9.760199058907499
 21
8.029821739459583
 31
0.0
  0
LINE
  5
2B1
330
1F
100
AcDbEntity
  8
Object
100
AcDbLine
 10
9.760199058907499
 20
8.029821739459583
 30
0.0
 11
9.749199058907498
 21
8.018821739459584
 31
0.0
  0
LINE
  5
2B2
330
1F
100
AcDbEntity
  8
Object
100
AcDbLine
 10
9.749199058907498
 20
8.018821739459584
 30
0.0
 11
9.745199058907498
 21
8.003821739459583
 31
0.0
  0
LINE
  5
2B3
330
1F
100
AcDbEntity
  8
Object
100
AcDbLine
 10
12.7451990589075
 20
4.775821739459583
 30
0.0
 11
12.7451990589075
 21
8.003821739459583
 31
0.0
  0
LINE
  5
2B4
330
1F
100
AcDbEntity
  8
Object
100
AcDbLine
 10
11.9321990589075
 20
8.149821739459582
 30
0.0
 11
11.9161990589075
 21
8.137821739459583
 31
0.0
  0
LINE
  5
2B5
330
1F
100
AcDbEntity
  8
Object
100
AcDbLine
 10
11.9161990589075
 20
8.137821739459583
 30
0.0
 11
11.9061990589075
 21
8.120821739459582
 31
0.0
  0
LINE
  5
2B6
330
1F
100
AcDbEntity
  8
Object
100
AcDbLine
 10
11.9061990589075
 20
8.120821739459582
 30
0.0
 11
11.9011990589075
 21
8.101821739459584
 31
0.0
  0
LINE
  5
2B7
330
1F
100
AcDbEntity
  8
Object
100
AcDbLine
 10
10.0251990589075
 20
8.203821739459584
 30
0.0
 11
9.932199058907499
 21
8.149821739459582
 31
0.0
  0
LINE
  5
2B8
330
1F
100
AcDbEntity
  8
Object
100
AcDbLine
 10
9.775199058907499
 20
8.033821739459583
 30
0.0
 11
9.838199058907498
 21
8.033821739459583
 31
0.0
  0
LINE
  5
2B9
330
1F
100
AcDbEntity
  8
Object
100
AcDbLine
 10
9.963199058907498
 20
8.033821739459583
 30
0.0
 11
9.933199058907499
 21
8.040821739459584
 31
0.0
  0
LINE
  5
2BA
330
1F
100
AcDbEntity
  8
Object
100
AcDbLine
 10
9.933199058907499
 20
8.040821739459584
 30
0.0
 11
9.911199058907499
 21
8.061821739459583
 31
0.0
  0
LINE
  5
2BB
330
1F
100
AcDbEntity
  8
Object
100
AcDbLine
 10
9.911199058907499
 20
8.061821739459583
 30
0.0
 11
9.901199058907499
 21
8.090821739459583
 31
0.0
  0
LINE
  5
2BC
330
1F
100
AcDbEntity
  8
Object
100
AcDbLine
 10
10.7451990589075
 20
4.775821739459583
 30
0.0
 11
10.7451990589075
 21
8.003821739459583
 31
0.0
  0
LINE
  5
2BD
330
1F
100
AcDbEntity
  8
Object
100
AcDbLine
 10
12.0261990589075
 20
4.744821739459583
 30
0.0
 11
11.7761990589075
 21
4.744821739459583
 31
0.0
  0
LINE
  5
2BE
330
1F
100
AcDbEntity
  8
Object
100
AcDbLine
 10
13.9011990589075
 20
8.090821739459583
 30
0.0
 11
13.8911990589075
 21
8.061821739459583
 31
0.0
  0
LINE
  5
2BF
330
1F
100
AcDbEntity
  8
Object
100
AcDbLine
 10
13.8911990589075
 20
8.061821739459583
 30
0.0
 11
13.8681990589075
 21
8.040821739459584
 31
0.0
  0
LINE
  5
2C0
330
1F
100
AcDbEntity
  8
Object
100
AcDbLine
 10
13.8681990589075
 20
8.040821739459584
 30
0.0
 11
13.8391990589075
 21
8.033821739459583
 31
0.0
  0
LINE
  5
2C1
330
1F
100
AcDbEntity
  8
Object
100
AcDbLine
 10
14.0261990589075
 20
4.744821739459583
 30
0.0
 11
13.7761990589075
 21
4.744821739459583
 31
0.0
  0
LINE
  5
2C2
330
1F
100
AcDbEntity
  8
Object
100
AcDbLine
 10
15.8701990589075
 20
8.149821739459582
 30
0.0
 11
15.7771990589075
 21
8.203821739459584
 31
0.0
  0
LINE
  5
2C3
330
1F
100
AcDbEntity
  8
Object
100
AcDbLine
 10
15.7771990589075
 20
8.250821739459583
 30
0.0
 11
15.7771990589075
 21
8.345821739459584
 31
0.0
  0
LINE
  5
2C4
330
1F
100
AcDbEntity
  8
Object
100
AcDbLine
 10
15.7771990589075
 20
8.242821739459582
 30
0.0
 11
15.7771990589075
 21
8.240821739459583
 31
0.0
  0
LINE
  5
2C5
330
1F
100
AcDbEntity
  8
Object
100
AcDbLine
 10
15.7771990589075
 20
8.242821739459582
 30
0.0
 11
15.7771990589075
 21
8.245821739459582
 31
0.0
  0
LINE
  5
2C6
330
1F
100
AcDbEntity
  8
Object
100
AcDbLine
 10
15.7771990589075
 20
8.245821739459582
 30
0.0
 11
15.7771990589075
 21
8.250821739459583
 31
0.0
  0
LINE
  5
2C7
330
1F
100
AcDbEntity
  8
Object
100
AcDbLine
 10
15.7771990589075
 20
8.345821739459584
 30
0.0
 11
15.7771990589075
 21
8.350821739459583
 31
0.0
  0
LINE
  5
2C8
330
1F
100
AcDbEntity
  8
Object
100
AcDbLine
 10
15.7771990589075
 20
8.350821739459583
 30
0.0
 11
15.7771990589075
 21
8.354821739459584
 31
0.0
  0
LINE
  5
2C9
330
1F
100
AcDbEntity
  8
Object
100
AcDbLine
 10
15.7771990589075
 20
8.354821739459584
 30
0.0
 11
15.7771990589075
 21
8.355821739459583
 31
0.0
  0
LINE
  5
2CA
330
1F
100
AcDbEntity
  8
Object
100
AcDbLine
 10
15.7771990589075
 20
8.355821739459583
 30
0.0
 11
15.7771990589075
 21
8.382821739459583
 31
0.0
  0
LINE
  5
2CB
330
1F
100
AcDbEntity
  8
Object
100
AcDbLine
 10
15.7771990589075
 20
8.203821739459584
 30
0.0
 11
15.7771990589075
 21
8.240821739459583
 31
0.0
  0
LINE
  5
2CC
330
1F
100
AcDbEntity
  8
Object
100
AcDbLine
 10
13.9321990589075
 20
8.149821739459582
 30
0.0
 11
13.9171990589075
 21
8.137821739459583
 31
0.0
  0
LINE
  5
2CD
330
1F
100
AcDbEntity
  8
Object
100
AcDbLine
 10
13.9171990589075
 20
8.137821739459583
 30
0.0
 11
13.9061990589075
 21
8.120821739459582
 31
0.0
  0
LINE
  5
2CE
330
1F
100
AcDbEntity
  8
Object
100
AcDbLine
 10
13.9061990589075
 20
8.120821739459582
 30
0.0
 11
13.9011990589075
 21
8.101821739459584
 31
0.0
  0
LINE
  5
2CF
330
1F
100
AcDbEntity
  8
Object
100
AcDbLine
 10
11.7451990589075
 20
4.775821739459583
 30
0.0
 11
11.7451990589075
 21
8.003821739459583
 31
0.0
  0
LINE
  5
2D0
330
1F
100
AcDbEntity
  8
Object
100
AcDbLine
 10
12.7751990589075
 20
8.033821739459583
 30
0.0
 11
12.7601990589075
 21
8.029821739459583
 31
0.0
  0
LINE
  5
2D1
330
1F
100
AcDbEntity
  8
Object
100
AcDbLine
 10
12.7601990589075
 20
8.029821739459583
 30
0.0
 11
12.7491990589075
 21
8.018821739459584
 31
0.0
  0
LINE
  5
2D2
330
1F
100
AcDbEntity
  8
Object
100
AcDbLine
 10
12.7491990589075
 20
8.018821739459584
 30
0.0
 11
12.7451990589075
 21
8.003821739459583
 31
0.0
  0
LINE
  5
2D3
330
1F
100
AcDbEntity
  8
Object
100
AcDbLine
 10
13.0571990589075
 20
8.003821739459583
 30
0.0
 11
13.0531990589075
 21
8.018821739459584
 31
0.0
  0
LINE
  5
2D4
330
1F
100
AcDbEntity
  8
Object
100
AcDbLine
 10
13.0531990589075
 20
8.018821739459584
 30
0.0
 11
13.0421990589075
 21
8.029821739459583
 31
0.0
  0
LINE
  5
2D5
330
1F
100
AcDbEntity
  8
Object
100
AcDbLine
 10
13.0421990589075
 20
8.029821739459583
 30
0.0
 11
13.0271990589075
 21
8.033821739459583
 31
0.0
  0
LINE
  5
2D6
330
1F
100
AcDbEntity
  8
Object
100
AcDbLine
 10
13.7451990589075
 20
4.775821739459583
 30
0.0
 11
13.7451990589075
 21
8.003821739459583
 31
0.0
  0
LINE
  5
2D7
330
1F
100
AcDbEntity
  8
Object
100
AcDbLine
 10
15.7451990589075
 20
4.775821739459583
 30
0.0
 11
15.7451990589075
 21
8.003821739459583
 31
0.0
  0
LINE
  5
2D8
330
1F
100
AcDbEntity
  8
Object
100
AcDbLine
 10
15.0261990589075
 20
8.382821739459583
 30
0.0
 11
15.0261990589075
 21
8.381821739459583
 31
0.0
  0
LINE
  5
2D9
330
1F
100
AcDbEntity
  8
Object
100
AcDbLine
 10
15.0261990589075
 20
8.355821739459583
 30
0.0
 11
15.0261990589075
 21
8.354821739459584
 31
0.0
  0
LINE
  5
2DA
330
1F
100
AcDbEntity
  8
Object
100
AcDbLine
 10
15.0261990589075
 20
8.354821739459584
 30
0.0
 11
15.0261990589075
 21
8.350821739459583
 31
0.0
  0
LINE
  5
2DB
330
1F
100
AcDbEntity
  8
Object
100
AcDbLine
 10
15.0261990589075
 20
8.350821739459583
 30
0.0
 11
15.0261990589075
 21
8.345821739459584
 31
0.0
  0
LINE
  5
2DC
330
1F
100
AcDbEntity
  8
Object
100
AcDbLine
 10
15.0261990589075
 20
8.345821739459584
 30
0.0
 11
15.0261990589075
 21
8.250821739459583
 31
0.0
  0
LINE
  5
2DD
330
1F
100
AcDbEntity
  8
Object
100
AcDbLine
 10
15.0261990589075
 20
8.242821739459582
 30
0.0
 11
15.0261990589075
 21
8.245821739459582
 31
0.0
  0
LINE
  5
2DE
330
1F
100
AcDbEntity
  8
Object
100
AcDbLine
 10
15.0261990589075
 20
8.245821739459582
 30
0.0
 11
15.0261990589075
 21
8.250821739459583
 31
0.0
  0
LINE
  5
2DF
330
1F
100
AcDbEntity
  8
Object
100
AcDbLine
 10
15.0261990589075
 20
8.242821739459582
 30
0.0
 11
15.0261990589075
 21
8.240821739459583
 31
0.0
  0
LINE
  5
2E0
330
1F
100
AcDbEntity
  8
Object
100
AcDbLine
 10
15.0261990589075
 20
8.382821739459583
 30
0.0
 11
15.0261990589075
 21
8.355821739459583
 31
0.0
  0
LINE
  5
2E1
330
1F
100
AcDbEntity
  8
Object
100
AcDbLine
 10
15.0261990589075
 20
8.240821739459583
 30
0.0
 11
15.0261990589075
 21
8.203821739459584
 31
0.0
  0
LINE
  5
2E2
330
1F
100
AcDbEntity
  8
Object
100
AcDbLine
 10
10.9321990589075
 20
8.149821739459582
 30
0.0
 11
10.9161990589075
 21
8.137821739459583
 31
0.0
  0
LINE
  5
2E3
330
1F
100
AcDbEntity
  8
Object
100
AcDbLine
 10
10.9161990589075
 20
8.137821739459583
 30
0.0
 11
10.9061990589075
 21
8.120821739459582
 31
0.0
  0
LINE
  5
2E4
330
1F
100
AcDbEntity
  8
Object
100
AcDbLine
 10
10.9061990589075
 20
8.120821739459582
 30
0.0
 11
10.9011990589075
 21
8.101821739459584
 31
0.0
  0
LINE
  5
2E5
330
1F
100
AcDbEntity
  8
Object
100
AcDbLine
 10
10.7761990589075
 20
8.250821739459583
 30
0.0
 11
10.7761990589075
 21
8.345821739459584
 31
0.0
  0
LINE
  5
2E6
330
1F
100
AcDbEntity
  8
Object
100
AcDbLine
 10
10.7761990589075
 20
8.242821739459582
 30
0.0
 11
10.7761990589075
 21
8.240821739459583
 31
0.0
  0
LINE
  5
2E7
330
1F
100
AcDbEntity
  8
Object
100
AcDbLine
 10
10.7761990589075
 20
8.242821739459582
 30
0.0
 11
10.7761990589075
 21
8.245821739459582
 31
0.0
  0
LINE
  5
2E8
330
1F
100
AcDbEntity
  8
Object
100
AcDbLine
 10
10.7761990589075
 20
8.245821739459582
 30
0.0
 11
10.7761990589075
 21
8.250821739459583
 31
0.0
  0
LINE
  5
2E9
330
1F
100
AcDbEntity
  8
Object
100
AcDbLine
 10
10.7761990589075
 20
8.345821739459584
 30
0.0
 11
10.7761990589075
 21
8.350821739459583
 31
0.0
  0
LINE
  5
2EA
330
1F
100
AcDbEntity
  8
Object
100
AcDbLine
 10
10.7761990589075
 20
8.350821739459583
 30
0.0
 11
10.7761990589075
 21
8.354821739459584
 31
0.0
  0
LINE
  5
2EB
330
1F
100
AcDbEntity
  8
Object
100
AcDbLine
 10
10.7761990589075
 20
8.354821739459584
 30
0.0
 11
10.7761990589075
 21
8.355821739459583
 31
0.0
  0
LINE
  5
2EC
330
1F
100
AcDbEntity
  8
Object
100
AcDbLine
 10
10.7761990589075
 20
8.355821739459583
 30
0.0
 11
10.7761990589075
 21
8.382821739459583
 31
0.0
  0
LINE
  5
2ED
330
1F
100
AcDbEntity
  8
Object
100
AcDbLine
 10
10.7761990589075
 20
8.203821739459584
 30
0.0
 11
10.7761990589075
 21
8.240821739459583
 31
0.0
  0
LINE
  5
2EE
330
1F
100
AcDbEntity
  8
Object
100
AcDbLine
 10
9.025199058907499
 20
8.203821739459584
 30
0.0
 11
8.932199058907499
 21
8.149821739459582
 31
0.0
  0
LINE
  5
2EF
330
1F
100
AcDbEntity
  8
Object
100
AcDbLine
 10
10.7751990589075
 20
8.033821739459583
 30
0.0
 11
10.7601990589075
 21
8.029821739459583
 31
0.0
  0
LINE
  5
2F0
330
1F
100
AcDbEntity
  8
Object
100
AcDbLine
 10
10.7601990589075
 20
8.029821739459583
 30
0.0
 11
10.7491990589075
 21
8.018821739459584
 31
0.0
  0
LINE
  5
2F1
330
1F
100
AcDbEntity
  8
Object
100
AcDbLine
 10
10.7491990589075
 20
8.018821739459584
 30
0.0
 11
10.7451990589075
 21
8.003821739459583
 31
0.0
  0
LINE
  5
2F2
330
1F
100
AcDbEntity
  8
Object
100
AcDbLine
 10
11.0571990589075
 20
8.003821739459583
 30
0.0
 11
11.0531990589075
 21
8.018821739459584
 31
0.0
  0
LINE
  5
2F3
330
1F
100
AcDbEntity
  8
Object
100
AcDbLine
 10
11.0531990589075
 20
8.018821739459584
 30
0.0
 11
11.0421990589075
 21
8.029821739459583
 31
0.0
  0
LINE
  5
2F4
330
1F
100
AcDbEntity
  8
Object
100
AcDbLine
 10
11.0421990589075
 20
8.029821739459583
 30
0.0
 11
11.0271990589075
 21
8.033821739459583
 31
0.0
  0
LINE
  5
2F5
330
1F
100
AcDbEntity
  8
Object
100
AcDbLine
 10
11.9631990589075
 20
8.033821739459583
 30
0.0
 11
12.0271990589075
 21
8.033821739459583
 31
0.0
  0
LINE
  5
2F6
330
1F
100
AcDbEntity
  8
Object
100
AcDbLine
 10
12.9631990589075
 20
8.033821739459583
 30
0.0
 11
12.9341990589075
 21
8.040821739459584
 31
0.0
  0
LINE
  5
2F7
330
1F
100
AcDbEntity
  8
Object
100
AcDbLine
 10
12.9341990589075
 20
8.040821739459584
 30
0.0
 11
12.9111990589075
 21
8.061821739459583
 31
0.0
  0
LINE
  5
2F8
330
1F
100
AcDbEntity
  8
Object
100
AcDbLine
 10
12.9111990589075
 20
8.061821739459583
 30
0.0
 11
12.9011990589075
 21
8.090821739459583
 31
0.0
  0
LINE
  5
2F9
330
1F
100
AcDbEntity
  8
Object
100
AcDbLine
 10
14.9631990589075
 20
8.033821739459583
 30
0.0
 11
14.9341990589075
 21
8.040821739459584
 31
0.0
  0
LINE
  5
2FA
330
1F
100
AcDbEntity
  8
Object
100
AcDbLine
 10
14.9341990589075
 20
8.040821739459584
 30
0.0
 11
14.9111990589075
 21
8.061821739459583
 31
0.0
  0
LINE
  5
2FB
330
1F
100
AcDbEntity
  8
Object
100
AcDbLine
 10
14.9111990589075
 20
8.061821739459583
 30
0.0
 11
14.9011990589075
 21
8.090821739459583
 31
0.0
  0
LINE
  5
2FC
330
1F
100
AcDbEntity
  8
Object
100
AcDbLine
 10
15.0261990589075
 20
4.744821739459583
 30
0.0
 11
14.7761990589075
 21
4.744821739459583
 31
0.0
  0
LINE
  5
2FD
330
1F
100
AcDbEntity
  8
Object
100
AcDbLine
 10
14.7771990589075
 20
8.250821739459583
 30
0.0
 11
14.7771990589075
 21
8.345821739459584
 31
0.0
  0
LINE
  5
2FE
330
1F
100
AcDbEntity
  8
Object
100
AcDbLine
 10
14.7771990589075
 20
8.242821739459582
 30
0.0
 11
14.7771990589075
 21
8.240821739459583
 31
0.0
  0
LINE
  5
2FF
330
1F
100
AcDbEntity
  8
Object
100
AcDbLine
 10
14.7771990589075
 20
8.242821739459582
 30
0.0
 11
14.7771990589075
 21
8.245821739459582
 31
0.0
  0
LINE
  5
300
330
1F
100
AcDbEntity
  8
Object
100
AcDbLine
 10
14.7771990589075
 20
8.245821739459582
 30
0.0
 11
14.7771990589075
 21
8.250821739459583
 31
0.0
  0
LINE
  5
301
330
1F
100
AcDbEntity
  8
Object
100
AcDbLine
 10
14.7771990589075
 20
8.345821739459584
 30
0.0
 11
14.7771990589075
 21
8.350821739459583
 31
0.0
  0
LINE
  5
302
330
1F
100
AcDbEntity
  8
Object
100
AcDbLine
 10
14.7771990589075
 20
8.350821739459583
 30
0.0
 11
14.7771990589075
 21
8.354821739459584
 31
0.0
  0
LINE
  5
303
330
1F
100
AcDbEntity
  8
Object
100
AcDbLine
 10
14.7771990589075
 20
8.354821739459584
 30
0.0
 11
14.7771990589075
 21
8.355821739459583
 31
0.0
  0
LINE
  5
304
330
1F
100
AcDbEntity
  8
Object
100
AcDbLine
 10
14.7771990589075
 20
8.355821739459583
 30
0.0
 11
14.7771990589075
 21
8.382821739459583
 31
0.0
  0
LINE
  5
305
330
1F
100
AcDbEntity
  8
Object
100
AcDbLine
 10
14.7771990589075
 20
8.203821739459584
 30
0.0
 11
14.7771990589075
 21
8.240821739459583
 31
0.0
  0
LINE
  5
306
330
1F
100
AcDbEntity
  8
Object
100
AcDbLine
 10
12.7761990589075
 20
8.250821739459583
 30
0.0
 11
12.7761990589075
 21
8.345821739459584
 31
0.0
  0
LINE
  5
307
330
1F
100
AcDbEntity
  8
Object
100
AcDbLine
 10
12.7761990589075
 20
8.242821739459582
 30
0.0
 11
12.7761990589075
 21
8.240821739459583
 31
0.0
  0
LINE
  5
308
330
1F
100
AcDbEntity
  8
Object
100
AcDbLine
 10
12.7761990589075
 20
8.242821739459582
 30
0.0
 11
12.7761990589075
 21
8.245821739459582
 31
0.0
  0
LINE
  5
309
330
1F
100
AcDbEntity
  8
Object
100
AcDbLine
 10
12.7761990589075
 20
8.245821739459582
 30
0.0
 11
12.7761990589075
 21
8.250821739459583
 31
0.0
  0
LINE
  5
30A
330
1F
100
AcDbEntity
  8
Object
100
AcDbLine
 10
12.7761990589075
 20
8.345821739459584
 30
0.0
 11
12.7761990589075
 21
8.350821739459583
 31
0.0
  0
LINE
  5
30B
330
1F
100
AcDbEntity
  8
Object
100
AcDbLine
 10
12.7761990589075
 20
8.350821739459583
 30
0.0
 11
12.7761990589075
 21
8.354821739459584
 31
0.0
  0
LINE
  5
30C
330
1F
100
AcDbEntity
  8
Object
100
AcDbLine
 10
12.7761990589075
 20
8.354821739459584
 30
0.0
 11
12.7761990589075
 21
8.355821739459583
 31
0.0
  0
LINE
  5
30D
330
1F
100
AcDbEntity
  8
Object
100
AcDbLine
 10
12.7761990589075
 20
8.355821739459583
 30
0.0
 11
12.7761990589075
 21
8.382821739459583
 31
0.0
  0
LINE
  5
30E
330
1F
100
AcDbEntity
  8
Object
100
AcDbLine
 10
12.7761990589075
 20
8.203821739459584
 30
0.0
 11
12.7761990589075
 21
8.240821739459583
 31
0.0
  0
LINE
  5
30F
330
1F
100
AcDbEntity
  8
Object
100
AcDbLine
 10
11.9011990589075
 20
8.101821739459584
 30
0.0
 11
11.8961990589075
 21
8.120821739459582
 31
0.0
  0
LINE
  5
310
330
1F
100
AcDbEntity
  8
Object
100
AcDbLine
 10
11.8961990589075
 20
8.120821739459582
 30
0.0
 11
11.8851990589075
 21
8.137821739459583
 31
0.0
  0
LINE
  5
311
330
1F
100
AcDbEntity
  8
Object
100
AcDbLine
 10
11.8851990589075
 20
8.137821739459583
 30
0.0
 11
11.8701990589075
 21
8.149821739459582
 31
0.0
  0
LINE
  5
312
330
1F
100
AcDbEntity
  8
Object
100
AcDbLine
 10
12.9631990589075
 20
8.033821739459583
 30
0.0
 11
13.0271990589075
 21
8.033821739459583
 31
0.0
  0
LINE
  5
313
330
1F
100
AcDbEntity
  8
Object
100
AcDbLine
 10
14.9631990589075
 20
8.033821739459583
 30
0.0
 11
15.0271990589075
 21
8.033821739459583
 31
0.0
  0
LINE
  5
314
330
1F
100
AcDbEntity
  8
Object
100
AcDbLine
 10
13.9011990589075
 20
8.101821739459584
 30
0.0
 11
13.8961990589075
 21
8.120821739459582
 31
0.0
  0
LINE
  5
315
330
1F
100
AcDbEntity
  8
Object
100
AcDbLine
 10
13.8961990589075
 20
8.120821739459582
 30
0.0
 11
13.8851990589075
 21
8.137821739459583
 31
0.0
  0
LINE
  5
316
330
1F
100
AcDbEntity
  8
Object
100
AcDbLine
 10
13.8851990589075
 20
8.137821739459583
 30
0.0
 11
13.8701990589075
 21
8.149821739459582
 31
0.0
  0
LINE
  5
317
330
1F
100
AcDbEntity
  8
Object
100
AcDbLine
 10
12.0251990589075
 20
8.203821739459584
 30
0.0
 11
11.9321990589075
 21
8.149821739459582
 31
0.0
  0
LINE
  5
318
330
1F
100
AcDbEntity
  8
Object
100
AcDbLine
 10
10.0571990589075
 20
8.003821739459583
 30
0.0
 11
10.0531990589075
 21
8.018821739459584
 31
0.0
  0
LINE
  5
319
330
1F
100
AcDbEntity
  8
Object
100
AcDbLine
 10
10.0531990589075
 20
8.018821739459584
 30
0.0
 11
10.0421990589075
 21
8.029821739459583
 31
0.0
  0
LINE
  5
31A
330
1F
100
AcDbEntity
  8
Object
100
AcDbLine
 10
10.0421990589075
 20
8.029821739459583
 30
0.0
 11
10.0271990589075
 21
8.033821739459583
 31
0.0
  0
LINE
  5
31B
330
1F
100
AcDbEntity
  8
Object
100
AcDbLine
 10
10.0251990589075
 20
4.744821739459583
 30
0.0
 11
9.776199058907499
 21
4.744821739459583
 31
0.0
  0
LINE
  5
31C
330
1F
100
AcDbEntity
  8
Object
100
AcDbLine
 10
10.9631990589075
 20
8.033821739459583
 30
0.0
 11
11.0271990589075
 21
8.033821739459583
 31
0.0
  0
LINE
  5
31D
330
1F
100
AcDbEntity
  8
Object
100
AcDbLine
 10
12.7761990589075
 20
4.744821739459583
 30
0.0
 11
12.7611990589075
 21
4.748821739459583
 31
0.0
  0
LINE
  5
31E
330
1F
100
AcDbEntity
  8
Object
100
AcDbLine
 10
12.7611990589075
 20
4.748821739459583
 30
0.0
 11
12.7491990589075
 21
4.760821739459583
 31
0.0
  0
LINE
  5
31F
330
1F
100
AcDbEntity
  8
Object
100
AcDbLine
 10
12.7491990589075
 20
4.760821739459583
 30
0.0
 11
12.7451990589075
 21
4.775821739459583
 31
0.0
  0
LINE
  5
320
330
1F
100
AcDbEntity
  8
Object
100
AcDbLine
 10
13.9631990589075
 20
8.033821739459583
 30
0.0
 11
14.0271990589075
 21
8.033821739459583
 31
0.0
  0
LINE
  5
321
330
1F
100
AcDbEntity
  8
Object
100
AcDbLine
 10
15.7751990589075
 20
8.033821739459583
 30
0.0
 11
15.7601990589075
 21
8.029821739459583
 31
0.0
  0
LINE
  5
322
330
1F
100
AcDbEntity
  8
Object
100
AcDbLine
 10
15.7601990589075
 20
8.029821739459583
 30
0.0
 11
15.7491990589075
 21
8.018821739459584
 31
0.0
  0
LINE
  5
323
330
1F
100
AcDbEntity
  8
Object
100
AcDbLine
 10
15.7491990589075
 20
8.018821739459584
 30
0.0
 11
15.7451990589075
 21
8.003821739459583
 31
0.0
  0
LINE
  5
324
330
1F
100
AcDbEntity
  8
Object
100
AcDbLine
 10
13.7761990589075
 20
8.250821739459583
 30
0.0
 11
13.7761990589075
 21
8.345821739459584
 31
0.0
  0
LINE
  5
325
330
1F
100
AcDbEntity
  8
Object
100
AcDbLine
 10
13.7761990589075
 20
8.242821739459582
 30
0.0
 11
13.7761990589075
 21
8.240821739459583
 31
0.0
  0
LINE
  5
326
330
1F
100
AcDbEntity
  8
Object
100
AcDbLine
 10
13.7761990589075
 20
8.242821739459582
 30
0.0
 11
13.7761990589075
 21
8.245821739459582
 31
0.0
  0
LINE
  5
327
330
1F
100
AcDbEntity
  8
Object
100
AcDbLine
 10
13.7761990589075
 20
8.245821739459582
 30
0.0
 11
13.7761990589075
 21
8.250821739459583
 31
0.0
  0
LINE
  5
328
330
1F
100
AcDbEntity
  8
Object
100
AcDbLine
 10
13.7761990589075
 20
8.345821739459584
 30
0.0
 11
13.7761990589075
 21
8.350821739459583
 31
0.0
  0
LINE
  5
329
330
1F
100
AcDbEntity
  8
Object
100
AcDbLine
 10
13.7761990589075
 20
8.350821739459583
 30
0.0
 11
13.7761990589075
 21
8.354821739459584
 31
0.0
  0
LINE
  5
32A
330
1F
100
AcDbEntity
  8
Object
100
AcDbLine
 10
13.7761990589075
 20
8.354821739459584
 30
0.0
 11
13.7761990589075
 21
8.355821739459583
 31
0.0
  0
LINE
  5
32B
330
1F
100
AcDbEntity
  8
Object
100
AcDbLine
 10
13.7761990589075
 20
8.355821739459583
 30
0.0
 11
13.7761990589075
 21
8.382821739459583
 31
0.0
  0
LINE
  5
32C
330
1F
100
AcDbEntity
  8
Object
100
AcDbLine
 10
13.7761990589075
 20
8.203821739459584
 30
0.0
 11
13.7761990589075
 21
8.240821739459583
 31
0.0
  0
LINE
  5
32D
330
1F
100
AcDbEntity
  8
Object
100
AcDbLine
 10
12.8701990589075
 20
8.149821739459582
 30
0.0
 11
12.7761990589075
 21
8.203821739459584
 31
0.0
  0
LINE
  5
32E
330
1F
100
AcDbEntity
  8
Object
100
AcDbLine
 10
11.7761990589075
 20
8.250821739459583
 30
0.0
 11
11.7761990589075
 21
8.345821739459584
 31
0.0
  0
LINE
  5
32F
330
1F
100
AcDbEntity
  8
Object
100
AcDbLine
 10
11.7761990589075
 20
8.242821739459582
 30
0.0
 11
11.7761990589075
 21
8.240821739459583
 31
0.0
  0
LINE
  5
330
330
1F
100
AcDbEntity
  8
Object
100
AcDbLine
 10
11.7761990589075
 20
8.242821739459582
 30
0.0
 11
11.7761990589075
 21
8.245821739459582
 31
0.0
  0
LINE
  5
331
330
1F
100
AcDbEntity
  8
Object
100
AcDbLine
 10
11.7761990589075
 20
8.245821739459582
 30
0.0
 11
11.7761990589075
 21
8.250821739459583
 31
0.0
  0
LINE
  5
332
330
1F
100
AcDbEntity
  8
Object
100
AcDbLine
 10
11.7761990589075
 20
8.345821739459584
 30
0.0
 11
11.7761990589075
 21
8.350821739459583
 31
0.0
  0
LINE
  5
333
330
1F
100
AcDbEntity
  8
Object
100
AcDbLine
 10
11.7761990589075
 20
8.350821739459583
 30
0.0
 11
11.7761990589075
 21
8.354821739459584
 31
0.0
  0
LINE
  5
334
330
1F
100
AcDbEntity
  8
Object
100
AcDbLine
 10
11.7761990589075
 20
8.354821739459584
 30
0.0
 11
11.7761990589075
 21
8.355821739459583
 31
0.0
  0
LINE
  5
335
330
1F
100
AcDbEntity
  8
Object
100
AcDbLine
 10
11.7761990589075
 20
8.355821739459583
 30
0.0
 11
11.7761990589075
 21
8.382821739459583
 31
0.0
  0
LINE
  5
336
330
1F
100
AcDbEntity
  8
Object
100
AcDbLine
 10
11.7761990589075
 20
8.203821739459584
 30
0.0
 11
11.7761990589075
 21
8.240821739459583
 31
0.0
  0
LINE
  5
337
330
1F
100
AcDbEntity
  8
Object
100
AcDbLine
 10
9.745199058907498
 20
4.775821739459583
 30
0.0
 11
9.745199058907498
 21
8.003821739459583
 31
0.0
  0
LINE
  5
338
330
1F
100
AcDbEntity
  8
Object
100
AcDbLine
 10
12.9011990589075
 20
8.090821739459583
 30
0.0
 11
12.8911990589075
 21
8.061821739459583
 31
0.0
  0
LINE
  5
339
330
1F
100
AcDbEntity
  8
Object
100
AcDbLine
 10
12.8911990589075
 20
8.061821739459583
 30
0.0
 11
12.8681990589075
 21
8.040821739459584
 31
0.0
  0
LINE
  5
33A
330
1F
100
AcDbEntity
  8
Object
100
AcDbLine
 10
12.8681990589075
 20
8.040821739459584
 30
0.0
 11
12.8381990589075
 21
8.033821739459583
 31
0.0
  0
LINE
  5
33B
330
1F
100
AcDbEntity
  8
Object
100
AcDbLine
 10
14.0571990589075
 20
8.003821739459583
 30
0.0
 11
14.0571990589075
 21
4.775821739459583
 31
0.0
  0
LINE
  5
33C
330
1F
100
AcDbEntity
  8
Object
100
AcDbLine
 10
15.0261990589075
 20
8.203821739459584
 30
0.0
 11
14.9321990589075
 21
8.149821739459582
 31
0.0
  0
LINE
  5
33D
330
1F
100
AcDbEntity
  8
Object
100
AcDbLine
 10
8.932199058907499
 20
8.149821739459582
 30
0.0
 11
8.916199058907499
 21
8.137821739459583
 31
0.0
  0
LINE
  5
33E
330
1F
100
AcDbEntity
  8
Object
100
AcDbLine
 10
8.916199058907499
 20
8.137821739459583
 30
0.0
 11
8.906199058907498
 21
8.120821739459582
 31
0.0
  0
LINE
  5
33F
330
1F
100
AcDbEntity
  8
Object
100
AcDbLine
 10
8.906199058907498
 20
8.120821739459582
 30
0.0
 11
8.901199058907499
 21
8.101821739459584
 31
0.0
  0
LINE
  5
340
330
1F
100
AcDbEntity
  8
Object
100
AcDbLine
 10
10.7761990589075
 20
4.744821739459583
 30
0.0
 11
10.7601990589075
 21
4.748821739459583
 31
0.0
  0
LINE
  5
341
330
1F
100
AcDbEntity
  8
Object
100
AcDbLine
 10
10.7601990589075
 20
4.748821739459583
 30
0.0
 11
10.7491990589075
 21
4.760821739459583
 31
0.0
  0
LINE
  5
342
330
1F
100
AcDbEntity
  8
Object
100
AcDbLine
 10
10.7491990589075
 20
4.760821739459583
 30
0.0
 11
10.7451990589075
 21
4.775821739459583
 31
0.0
  0
LINE
  5
343
330
1F
100
AcDbEntity
  8
Object
100
AcDbLine
 10
10.9631990589075
 20
8.033821739459583
 30
0.0
 11
10.9341990589075
 21
8.040821739459584
 31
0.0
  0
LINE
  5
344
330
1F
100
AcDbEntity
  8
Object
100
AcDbLine
 10
10.9341990589075
 20
8.040821739459584
 30
0.0
 11
10.9111990589075
 21
8.061821739459583
 31
0.0
  0
LINE
  5
345
330
1F
100
AcDbEntity
  8
Object
100
AcDbLine
 10
10.9111990589075
 20
8.061821739459583
 30
0.0
 11
10.9011990589075
 21
8.090821739459583
 31
0.0
  0
LINE
  5
346
330
1F
100
AcDbEntity
  8
Object
100
AcDbLine
 10
12.0571990589075
 20
8.003821739459583
 30
0.0
 11
12.0571990589075
 21
4.775821739459583
 31
0.0
  0
LINE
  5
347
330
1F
100
AcDbEntity
  8
Object
100
AcDbLine
 10
14.7761990589075
 20
4.744821739459583
 30
0.0
 11
14.7611990589075
 21
4.748821739459583
 31
0.0
  0
LINE
  5
348
330
1F
100
AcDbEntity
  8
Object
100
AcDbLine
 10
14.7611990589075
 20
4.748821739459583
 30
0.0
 11
14.7491990589075
 21
4.760821739459583
 31
0.0
  0
LINE
  5
349
330
1F
100
AcDbEntity
  8
Object
100
AcDbLine
 10
14.7491990589075
 20
4.760821739459583
 30
0.0
 11
14.7451990589075
 21
4.775821739459583
 31
0.0
  0
LINE
  5
34A
330
1F
100
AcDbEntity
  8
Object
100
AcDbLine
 10
15.9011990589075
 20
8.101821739459584
 30
0.0
 11
15.8961990589075
 21
8.120821739459582
 31
0.0
  0
LINE
  5
34B
330
1F
100
AcDbEntity
  8
Object
100
AcDbLine
 10
15.8961990589075
 20
8.120821739459582
 30
0.0
 11
15.8851990589075
 21
8.137821739459583
 31
0.0
  0
LINE
  5
34C
330
1F
100
AcDbEntity
  8
Object
100
AcDbLine
 10
15.8851990589075
 20
8.137821739459583
 30
0.0
 11
15.8701990589075
 21
8.149821739459582
 31
0.0
  0
LINE
  5
34D
330
1F
100
AcDbEntity
  8
Object
100
AcDbLine
 10
14.8701990589075
 20
8.149821739459582
 30
0.0
 11
14.7771990589075
 21
8.203821739459584
 31
0.0
  0
LINE
  5
34E
330
1F
100
AcDbEntity
  8
Object
100
AcDbLine
 10
12.0571990589075
 20
4.775821739459583
 30
0.0
 11
12.0531990589075
 21
4.760821739459583
 31
0.0
  0
LINE
  5
34F
330
1F
100
AcDbEntity
  8
Object
100
AcDbLine
 10
12.0531990589075
 20
4.760821739459583
 30
0.0
 11
12.0411990589075
 21
4.748821739459583
 31
0.0
  0
LINE
  5
350
330
1F
100
AcDbEntity
  8
Object
100
AcDbLine
 10
12.0411990589075
 20
4.748821739459583
 30
0.0
 11
12.0261990589075
 21
4.744821739459583
 31
0.0
  0
LINE
  5
351
330
1F
100
AcDbEntity
  8
Object
100
AcDbLine
 10
13.0571990589075
 20
8.003821739459583
 30
0.0
 11
13.0571990589075
 21
4.775821739459583
 31
0.0
  0
LINE
  5
352
330
1F
100
AcDbEntity
  8
Object
100
AcDbLine
 10
13.7751990589075
 20
8.033821739459583
 30
0.0
 11
13.8391990589075
 21
8.033821739459583
 31
0.0
  0
LINE
  5
353
330
1F
100
AcDbEntity
  8
Object
100
AcDbLine
 10
14.9011990589075
 20
8.090821739459583
 30
0.0
 11
14.8911990589075
 21
8.061821739459583
 31
0.0
  0
LINE
  5
354
330
1F
100
AcDbEntity
  8
Object
100
AcDbLine
 10
14.8911990589075
 20
8.061821739459583
 30
0.0
 11
14.8681990589075
 21
8.040821739459584
 31
0.0
  0
LINE
  5
355
330
1F
100
AcDbEntity
  8
Object
100
AcDbLine
 10
14.8681990589075
 20
8.040821739459584
 30
0.0
 11
14.8391990589075
 21
8.033821739459583
 31
0.0
  0
LINE
  5
356
330
1F
100
AcDbEntity
  8
Object
100
AcDbLine
 10
15.7761990589075
 20
4.744821739459583
 30
0.0
 11
15.7611990589075
 21
4.748821739459583
 31
0.0
  0
LINE
  5
357
330
1F
100
AcDbEntity
  8
Object
100
AcDbLine
 10
15.7611990589075
 20
4.748821739459583
 30
0.0
 11
15.7491990589075
 21
4.760821739459583
 31
0.0
  0
LINE
  5
358
330
1F
100
AcDbEntity
  8
Object
100
AcDbLine
 10
15.7491990589075
 20
4.760821739459583
 30
0.0
 11
15.7451990589075
 21
4.775821739459583
 31
0.0
  0
LINE
  5
359
330
1F
100
AcDbEntity
  8
Object
100
AcDbLine
 10
15.9031990589075
 20
8.083821739459583
 30
0.0
 11
15.9011990589075
 21
8.090821739459583
 31
0.0
  0
LINE
  5
35A
330
1F
100
AcDbEntity
  8
Object
100
AcDbLine
 10
12.0251990589075
 20
8.382821739459583
 30
0.0
 11
12.0251990589075
 21
8.381821739459583
 31
0.0
  0
LINE
  5
35B
330
1F
100
AcDbEntity
  8
Object
100
AcDbLine
 10
12.0251990589075
 20
8.355821739459583
 30
0.0
 11
12.0251990589075
 21
8.354821739459584
 31
0.0
  0
LINE
  5
35C
330
1F
100
AcDbEntity
  8
Object
100
AcDbLine
 10
12.0251990589075
 20
8.354821739459584
 30
0.0
 11
12.0251990589075
 21
8.350821739459583
 31
0.0
  0
LINE
  5
35D
330
1F
100
AcDbEntity
  8
Object
100
AcDbLine
 10
12.0251990589075
 20
8.350821739459583
 30
0.0
 11
12.0251990589075
 21
8.345821739459584
 31
0.0
  0
LINE
  5
35E
330
1F
100
AcDbEntity
  8
Object
100
AcDbLine
 10
12.0251990589075
 20
8.345821739459584
 30
0.0
 11
12.0251990589075
 21
8.250821739459583
 31
0.0
  0
LINE
  5
35F
330
1F
100
AcDbEntity
  8
Object
100
AcDbLine
 10
12.0251990589075
 20
8.242821739459582
 30
0.0
 11
12.0251990589075
 21
8.245821739459582
 31
0.0
  0
LINE
  5
360
330
1F
100
AcDbEntity
  8
Object
100
AcDbLine
 10
12.0251990589075
 20
8.245821739459582
 30
0.0
 11
12.0251990589075
 21
8.250821739459583
 31
0.0
  0
LINE
  5
361
330
1F
100
AcDbEntity
  8
Object
100
AcDbLine
 10
12.0251990589075
 20
8.242821739459582
 30
0.0
 11
12.0251990589075
 21
8.240821739459583
 31
0.0
  0
LINE
  5
362
330
1F
100
AcDbEntity
  8
Object
100
AcDbLine
 10
12.0251990589075
 20
8.382821739459583
 30
0.0
 11
12.0251990589075
 21
8.355821739459583
 31
0.0
  0
LINE
  5
363
330
1F
100
AcDbEntity
  8
Object
100
AcDbLine
 10
12.0251990589075
 20
8.240821739459583
 30
0.0
 11
12.0251990589075
 21
8.203821739459584
 31
0.0
  0
LINE
  5
364
330
1F
100
AcDbEntity
  8
Object
100
AcDbLine
 10
11.0571990589075
 20
8.003821739459583
 30
0.0
 11
11.0571990589075
 21
4.775821739459583
 31
0.0
  0
LINE
  5
365
330
1F
100
AcDbEntity
  8
Object
100
AcDbLine
 10
11.0571990589075
 20
4.775821739459583
 30
0.0
 11
11.0531990589075
 21
4.760821739459583
 31
0.0
  0
LINE
  5
366
330
1F
100
AcDbEntity
  8
Object
100
AcDbLine
 10
11.0531990589075
 20
4.760821739459583
 30
0.0
 11
11.0411990589075
 21
4.748821739459583
 31
0.0
  0
LINE
  5
367
330
1F
100
AcDbEntity
  8
Object
100
AcDbLine
 10
11.0411990589075
 20
4.748821739459583
 30
0.0
 11
11.0261990589075
 21
4.744821739459583
 31
0.0
  0
LINE
  5
368
330
1F
100
AcDbEntity
  8
Object
100
AcDbLine
 10
12.0571990589075
 20
8.003821739459583
 30
0.0
 11
12.0531990589075
 21
8.018821739459584
 31
0.0
  0
LINE
  5
369
330
1F
100
AcDbEntity
  8
Object
100
AcDbLine
 10
12.0531990589075
 20
8.018821739459584
 30
0.0
 11
12.0421990589075
 21
8.029821739459583
 31
0.0
  0
LINE
  5
36A
330
1F
100
AcDbEntity
  8
Object
100
AcDbLine
 10
12.0421990589075
 20
8.029821739459583
 30
0.0
 11
12.0271990589075
 21
8.033821739459583
 31
0.0
  0
LINE
  5
36B
330
1F
100
AcDbEntity
  8
Object
100
AcDbLine
 10
14.9011990589075
 20
8.101821739459584
 30
0.0
 11
14.8961990589075
 21
8.120821739459582
 31
0.0
  0
LINE
  5
36C
330
1F
100
AcDbEntity
  8
Object
100
AcDbLine
 10
14.8961990589075
 20
8.120821739459582
 30
0.0
 11
14.8851990589075
 21
8.137821739459583
 31
0.0
  0
LINE
  5
36D
330
1F
100
AcDbEntity
  8
Object
100
AcDbLine
 10
14.8851990589075
 20
8.137821739459583
 30
0.0
 11
14.8701990589075
 21
8.149821739459582
 31
0.0
  0
LINE
  5
36E
330
1F
100
AcDbEntity
  8
Object
100
AcDbLine
 10
13.8701990589075
 20
8.149821739459582
 30
0.0
 11
13.7761990589075
 21
8.203821739459584
 31
0.0
  0
LINE
  5
36F
330
1F
100
AcDbEntity
  8
Object
100
AcDbLine
 10
12.9321990589075
 20
8.149821739459582
 30
0.0
 11
12.9171990589075
 21
8.137821739459583
 31
0.0
  0
LINE
  5
370
330
1F
100
AcDbEntity
  8
Object
100
AcDbLine
 10
12.9171990589075
 20
8.137821739459583
 30
0.0
 11
12.9061990589075
 21
8.120821739459582
 31
0.0
  0
LINE
  5
371
330
1F
100
AcDbEntity
  8
Object
100
AcDbLine
 10
12.9061990589075
 20
8.120821739459582
 30
0.0
 11
12.9011990589075
 21
8.101821739459584
 31
0.0
  0
LINE
  5
372
330
1F
100
AcDbEntity
  8
Object
100
AcDbLine
 10
12.9011990589075
 20
8.101821739459584
 30
0.0
 11
12.8961990589075
 21
8.120821739459582
 31
0.0
  0
LINE
  5
373
330
1F
100
AcDbEntity
  8
Object
100
AcDbLine
 10
12.8961990589075
 20
8.120821739459582
 30
0.0
 11
12.8851990589075
 21
8.137821739459583
 31
0.0
  0
LINE
  5
374
330
1F
100
AcDbEntity
  8
Object
100
AcDbLine
 10
12.8851990589075
 20
8.137821739459583
 30
0.0
 11
12.8701990589075
 21
8.149821739459582
 31
0.0
  0
LINE
  5
375
330
1F
100
AcDbEntity
  8
Object
100
AcDbLine
 10
11.8701990589075
 20
8.149821739459582
 30
0.0
 11
11.7761990589075
 21
8.203821739459584
 31
0.0
  0
LINE
  5
376
330
1F
100
AcDbEntity
  8
Object
100
AcDbLine
 10
9.776199058907499
 20
8.250821739459583
 30
0.0
 11
9.776199058907499
 21
8.345821739459584
 31
0.0
  0
LINE
  5
377
330
1F
100
AcDbEntity
  8
Object
100
AcDbLine
 10
9.776199058907499
 20
8.242821739459582
 30
0.0
 11
9.776199058907499
 21
8.240821739459583
 31
0.0
  0
LINE
  5
378
330
1F
100
AcDbEntity
  8
Object
100
AcDbLine
 10
9.776199058907499
 20
8.242821739459582
 30
0.0
 11
9.776199058907499
 21
8.245821739459582
 31
0.0
  0
LINE
  5
379
330
1F
100
AcDbEntity
  8
Object
100
AcDbLine
 10
9.776199058907499
 20
8.245821739459582
 30
0.0
 11
9.776199058907499
 21
8.250821739459583
 31
0.0
  0
LINE
  5
37A
330
1F
100
AcDbEntity
  8
Object
100
AcDbLine
 10
9.776199058907499
 20
8.345821739459584
 30
0.0
 11
9.776199058907499
 21
8.350821739459583
 31
0.0
  0
LINE
  5
37B
330
1F
100
AcDbEntity
  8
Object
100
AcDbLine
 10
9.776199058907499
 20
8.350821739459583
 30
0.0
 11
9.776199058907499
 21
8.354821739459584
 31
0.0
  0
LINE
  5
37C
330
1F
100
AcDbEntity
  8
Object
100
AcDbLine
 10
9.776199058907499
 20
8.354821739459584
 30
0.0
 11
9.776199058907499
 21
8.355821739459583
 31
0.0
  0
LINE
  5
37D
330
1F
100
AcDbEntity
  8
Object
100
AcDbLine
 10
9.776199058907499
 20
8.355821739459583
 30
0.0
 11
9.776199058907499
 21
8.382821739459583
 31
0.0
  0
LINE
  5
37E
330
1F
100
AcDbEntity
  8
Object
100
AcDbLine
 10
9.776199058907499
 20
8.203821739459584
 30
0.0
 11
9.776199058907499
 21
8.240821739459583
 31
0.0
  0
LINE
  5
37F
330
1F
100
AcDbEntity
  8
Object
100
AcDbLine
 10
8.963199058907498
 20
8.033821739459583
 30
0.0
 11
9.027199058907498
 21
8.033821739459583
 31
0.0
  0
LINE
  5
380
330
1F
100
AcDbEntity
  8
Object
100
AcDbLine
 10
9.057199058907499
 20
4.775821739459583
 30
0.0
 11
9.053199058907498
 21
4.760821739459583
 31
0.0
  0
LINE
  5
381
330
1F
100
AcDbEntity
  8
Object
100
AcDbLine
 10
9.053199058907498
 20
4.760821739459583
 30
0.0
 11
9.041199058907499
 21
4.748821739459583
 31
0.0
  0
LINE
  5
382
330
1F
100
AcDbEntity
  8
Object
100
AcDbLine
 10
9.041199058907499
 20
4.748821739459583
 30
0.0
 11
9.025199058907499
 21
4.744821739459583
 31
0.0
  0
LINE
  5
383
330
1F
100
AcDbEntity
  8
Object
100
AcDbLine
 10
10.9011990589075
 20
8.090821739459583
 30
0.0
 11
10.8911990589075
 21
8.061821739459583
 31
0.0
  0
LINE
  5
384
330
1F
100
AcDbEntity
  8
Object
100
AcDbLine
 10
10.8911990589075
 20
8.061821739459583
 30
0.0
 11
10.8681990589075
 21
8.040821739459584
 31
0.0
  0
LINE
  5
385
330
1F
100
AcDbEntity
  8
Object
100
AcDbLine
 10
10.8681990589075
 20
8.040821739459584
 30
0.0
 11
10.8381990589075
 21
8.033821739459583
 31
0.0
  0
LINE
  5
386
330
1F
100
AcDbEntity
  8
Object
100
AcDbLine
 10
11.9011990589075
 20
8.090821739459583
 30
0.0
 11
11.8911990589075
 21
8.061821739459583
 31
0.0
  0
LINE
  5
387
330
1F
100
AcDbEntity
  8
Object
100
AcDbLine
 10
11.8911990589075
 20
8.061821739459583
 30
0.0
 11
11.8681990589075
 21
8.040821739459584
 31
0.0
  0
LINE
  5
388
330
1F
100
AcDbEntity
  8
Object
100
AcDbLine
 10
11.8681990589075
 20
8.040821739459584
 30
0.0
 11
11.8381990589075
 21
8.033821739459583
 31
0.0
  0
LINE
  5
389
330
1F
100
AcDbEntity
  8
Object
100
AcDbLine
 10
15.0571990589075
 20
8.003821739459583
 30
0.0
 11
15.0531990589075
 21
8.018821739459584
 31
0.0
  0
LINE
  5
38A
330
1F
100
AcDbEntity
  8
Object
100
AcDbLine
 10
15.0531990589075
 20
8.018821739459584
 30
0.0
 11
15.0421990589075
 21
8.029821739459583
 31
0.0
  0
LINE
  5
38B
330
1F
100
AcDbEntity
  8
Object
100
AcDbLine
 10
15.0421990589075
 20
8.029821739459583
 30
0.0
 11
15.0271990589075
 21
8.033821739459583
 31
0.0
  0
LINE
  5
38C
330
1F
100
AcDbEntity
  8
Object
100
AcDbLine
 10
13.0251990589075
 20
8.382821739459583
 30
0.0
 11
13.0251990589075
 21
8.381821739459583
 31
0.0
  0
LINE
  5
38D
330
1F
100
AcDbEntity
  8
Object
100
AcDbLine
 10
13.0251990589075
 20
8.355821739459583
 30
0.0
 11
13.0251990589075
 21
8.354821739459584
 31
0.0
  0
LINE
  5
38E
330
1F
100
AcDbEntity
  8
Object
100
AcDbLine
 10
13.0251990589075
 20
8.354821739459584
 30
0.0
 11
13.0251990589075
 21
8.350821739459583
 31
0.0
  0
LINE
  5
38F
330
1F
100
AcDbEntity
  8
Object
100
AcDbLine
 10
13.0251990589075
 20
8.350821739459583
 30
0.0
 11
13.0251990589075
 21
8.345821739459584
 31
0.0
  0
LINE
  5
390
330
1F
100
AcDbEntity
  8
Object
100
AcDbLine
 10
13.0251990589075
 20
8.345821739459584
 30
0.0
 11
13.0251990589075
 21
8.250821739459583
 31
0.0
  0
LINE
  5
391
330
1F
100
AcDbEntity
  8
Object
100
AcDbLine
 10
13.0251990589075
 20
8.242821739459582
 30
0.0
 11
13.0251990589075
 21
8.245821739459582
 31
0.0
  0
LINE
  5
392
330
1F
100
AcDbEntity
  8
Object
100
AcDbLine
 10
13.0251990589075
 20
8.245821739459582
 30
0.0
 11
13.0251990589075
 21
8.250821739459583
 31
0.0
  0
LINE
  5
393
330
1F
100
AcDbEntity
  8
Object
100
AcDbLine
 10
13.0251990589075
 20
8.242821739459582
 30
0.0
 11
13.0251990589075
 21
8.240821739459583
 31
0.0
  0
LINE
  5
394
330
1F
100
AcDbEntity
  8
Object
100
AcDbLine
 10
13.0251990589075
 20
8.382821739459583
 30
0.0
 11
13.0251990589075
 21
8.355821739459583
 31
0.0
  0
LINE
  5
395
330
1F
100
AcDbEntity
  8
Object
100
AcDbLine
 10
13.0251990589075
 20
8.240821739459583
 30
0.0
 11
13.0251990589075
 21
8.203821739459584
 31
0.0
  0
LINE
  5
396
330
1F
100
AcDbEntity
  8
Object
100
AcDbLine
 10
11.0251990589075
 20
8.382821739459583
 30
0.0
 11
11.0251990589075
 21
8.381821739459583
 31
0.0
  0
LINE
  5
397
330
1F
100
AcDbEntity
  8
Object
100
AcDbLine
 10
11.0251990589075
 20
8.355821739459583
 30
0.0
 11
11.0251990589075
 21
8.354821739459584
 31
0.0
  0
LINE
  5
398
330
1F
100
AcDbEntity
  8
Object
100
AcDbLine
 10
11.0251990589075
 20
8.354821739459584
 30
0.0
 11
11.0251990589075
 21
8.350821739459583
 31
0.0
  0
LINE
  5
399
330
1F
100
AcDbEntity
  8
Object
100
AcDbLine
 10
11.0251990589075
 20
8.350821739459583
 30
0.0
 11
11.0251990589075
 21
8.345821739459584
 31
0.0
  0
LINE
  5
39A
330
1F
100
AcDbEntity
  8
Object
100
AcDbLine
 10
11.0251990589075
 20
8.345821739459584
 30
0.0
 11
11.0251990589075
 21
8.250821739459583
 31
0.0
  0
LINE
  5
39B
330
1F
100
AcDbEntity
  8
Object
100
AcDbLine
 10
11.0251990589075
 20
8.242821739459582
 30
0.0
 11
11.0251990589075
 21
8.245821739459582
 31
0.0
  0
LINE
  5
39C
330
1F
100
AcDbEntity
  8
Object
100
AcDbLine
 10
11.0251990589075
 20
8.245821739459582
 30
0.0
 11
11.0251990589075
 21
8.250821739459583
 31
0.0
  0
LINE
  5
39D
330
1F
100
AcDbEntity
  8
Object
100
AcDbLine
 10
11.0251990589075
 20
8.242821739459582
 30
0.0
 11
11.0251990589075
 21
8.240821739459583
 31
0.0
  0
LINE
  5
39E
330
1F
100
AcDbEntity
  8
Object
100
AcDbLine
 10
11.0251990589075
 20
8.382821739459583
 30
0.0
 11
11.0251990589075
 21
8.355821739459583
 31
0.0
  0
LINE
  5
39F
330
1F
100
AcDbEntity
  8
Object
100
AcDbLine
 10
11.0251990589075
 20
8.240821739459583
 30
0.0
 11
11.0251990589075
 21
8.203821739459584
 31
0.0
  0
LINE
  5
3A0
330
1F
100
AcDbEntity
  8
Object
100
AcDbLine
 10
10.9011990589075
 20
8.101821739459584
 30
0.0
 11
10.8961990589075
 21
8.120821739459582
 31
0.0
  0
LINE
  5
3A1
330
1F
100
AcDbEntity
  8
Object
100
AcDbLine
 10
10.8961990589075
 20
8.120821739459582
 30
0.0
 11
10.8851990589075
 21
8.137821739459583
 31
0.0
  0
LINE
  5
3A2
330
1F
100
AcDbEntity
  8
Object
100
AcDbLine
 10
10.8851990589075
 20
8.137821739459583
 30
0.0
 11
10.8701990589075
 21
8.149821739459582
 31
0.0
  0
LINE
  5
3A3
330
1F
100
AcDbEntity
  8
Object
100
AcDbLine
 10
9.776199058907499
 20
4.744821739459583
 30
0.0
 11
9.760199058907499
 21
4.748821739459583
 31
0.0
  0
LINE
  5
3A4
330
1F
100
AcDbEntity
  8
Object
100
AcDbLine
 10
9.760199058907499
 20
4.748821739459583
 30
0.0
 11
9.749199058907498
 21
4.760821739459583
 31
0.0
  0
LINE
  5
3A5
330
1F
100
AcDbEntity
  8
Object
100
AcDbLine
 10
9.749199058907498
 20
4.760821739459583
 30
0.0
 11
9.745199058907498
 21
4.775821739459583
 31
0.0
  0
LINE
  5
3A6
330
1F
100
AcDbEntity
  8
Object
100
AcDbLine
 10
10.0571990589075
 20
8.003821739459583
 30
0.0
 11
10.0571990589075
 21
4.775821739459583
 31
0.0
  0
LINE
  5
3A7
330
1F
100
AcDbEntity
  8
Object
100
AcDbLine
 10
14.0571990589075
 20
8.003821739459583
 30
0.0
 11
14.0531990589075
 21
8.018821739459584
 31
0.0
  0
LINE
  5
3A8
330
1F
100
AcDbEntity
  8
Object
100
AcDbLine
 10
14.0531990589075
 20
8.018821739459584
 30
0.0
 11
14.0421990589075
 21
8.029821739459583
 31
0.0
  0
LINE
  5
3A9
330
1F
100
AcDbEntity
  8
Object
100
AcDbLine
 10
14.0421990589075
 20
8.029821739459583
 30
0.0
 11
14.0271990589075
 21
8.033821739459583
 31
0.0
  0
LINE
  5
3AA
330
1F
100
AcDbEntity
  8
Object
100
AcDbLine
 10
14.7751990589075
 20
8.033821739459583
 30
0.0
 11
14.7601990589075
 21
8.029821739459583
 31
0.0
  0
LINE
  5
3AB
330
1F
100
AcDbEntity
  8
Object
100
AcDbLine
 10
14.7601990589075
 20
8.029821739459583
 30
0.0
 11
14.7491990589075
 21
8.018821739459584
 31
0.0
  0
LINE
  5
3AC
330
1F
100
AcDbEntity
  8
Object
100
AcDbLine
 10
14.7491990589075
 20
8.018821739459584
 30
0.0
 11
14.7451990589075
 21
8.003821739459583
 31
0.0
  0
LINE
  5
3AD
330
1F
100
AcDbEntity
  8
Object
100
AcDbLine
 10
14.0251990589075
 20
8.382821739459583
 30
0.0
 11
14.0251990589075
 21
8.381821739459583
 31
0.0
  0
LINE
  5
3AE
330
1F
100
AcDbEntity
  8
Object
100
AcDbLine
 10
14.0251990589075
 20
8.355821739459583
 30
0.0
 11
14.0251990589075
 21
8.354821739459584
 31
0.0
  0
LINE
  5
3AF
330
1F
100
AcDbEntity
  8
Object
100
AcDbLine
 10
14.0251990589075
 20
8.354821739459584
 30
0.0
 11
14.0251990589075
 21
8.350821739459583
 31
0.0
  0
LINE
  5
3B0
330
1F
100
AcDbEntity
  8
Object
100
AcDbLine
 10
14.0251990589075
 20
8.350821739459583
 30
0.0
 11
14.0251990589075
 21
8.345821739459584
 31
0.0
  0
LINE
  5
3B1
330
1F
100
AcDbEntity
  8
Object
100
AcDbLine
 10
14.0251990589075
 20
8.345821739459584
 30
0.0
 11
14.0251990589075
 21
8.250821739459583
 31
0.0
  0
LINE
  5
3B2
330
1F
100
AcDbEntity
  8
Object
100
AcDbLine
 10
14.0251990589075
 20
8.242821739459582
 30
0.0
 11
14.0251990589075
 21
8.245821739459582
 31
0.0
  0
LINE
  5
3B3
330
1F
100
AcDbEntity
  8
Object
100
AcDbLine
 10
14.0251990589075
 20
8.245821739459582
 30
0.0
 11
14.0251990589075
 21
8.250821739459583
 31
0.0
  0
LINE
  5
3B4
330
1F
100
AcDbEntity
  8
Object
100
AcDbLine
 10
14.0251990589075
 20
8.242821739459582
 30
0.0
 11
14.0251990589075
 21
8.240821739459583
 31
0.0
  0
LINE
  5
3B5
330
1F
100
AcDbEntity
  8
Object
100
AcDbLine
 10
14.0251990589075
 20
8.382821739459583
 30
0.0
 11
14.0251990589075
 21
8.355821739459583
 31
0.0
  0
LINE
  5
3B6
330
1F
100
AcDbEntity
  8
Object
100
AcDbLine
 10
14.0251990589075
 20
8.240821739459583
 30
0.0
 11
14.0251990589075
 21
8.203821739459584
 31
0.0
  0
LINE
  5
3B7
330
1F
100
AcDbEntity
  8
Object
100
AcDbLine
 10
9.870199058907498
 20
8.149821739459582
 30
0.0
 11
9.776199058907499
 21
8.203821739459584
 31
0.0
  0
LINE
  5
3B8
330
1F
100
AcDbEntity
  8
Object
100
AcDbLine
 10
9.901199058907499
 20
8.090821739459583
 30
0.0
 11
9.891199058907499
 21
8.061821739459583
 31
0.0
  0
LINE
  5
3B9
330
1F
100
AcDbEntity
  8
Object
100
AcDbLine
 10
9.891199058907499
 20
8.061821739459583
 30
0.0
 11
9.868199058907499
 21
8.040821739459584
 31
0.0
  0
LINE
  5
3BA
330
1F
100
AcDbEntity
  8
Object
100
AcDbLine
 10
9.868199058907499
 20
8.040821739459584
 30
0.0
 11
9.838199058907498
 21
8.033821739459583
 31
0.0
  0
LINE
  5
3BB
330
1F
100
AcDbEntity
  8
Object
100
AcDbLine
 10
10.0571990589075
 20
4.775821739459583
 30
0.0
 11
10.0531990589075
 21
4.760821739459583
 31
0.0
  0
LINE
  5
3BC
330
1F
100
AcDbEntity
  8
Object
100
AcDbLine
 10
10.0531990589075
 20
4.760821739459583
 30
0.0
 11
10.0411990589075
 21
4.748821739459583
 31
0.0
  0
LINE
  5
3BD
330
1F
100
AcDbEntity
  8
Object
100
AcDbLine
 10
10.0411990589075
 20
4.748821739459583
 30
0.0
 11
10.0251990589075
 21
4.744821739459583
 31
0.0
  0
LINE
  5
3BE
330
1F
100
AcDbEntity
  8
Object
100
AcDbLine
 10
11.0261990589075
 20
4.744821739459583
 30
0.0
 11
10.7761990589075
 21
4.744821739459583
 31
0.0
  0
LINE
  5
3BF
330
1F
100
AcDbEntity
  8
Object
100
AcDbLine
 10
12.7751990589075
 20
8.033821739459583
 30
0.0
 11
12.8381990589075
 21
8.033821739459583
 31
0.0
  0
LINE
  5
3C0
330
1F
100
AcDbEntity
  8
Object
100
AcDbLine
 10
15.9011990589075
 20
8.090821739459583
 30
0.0
 11
15.8911990589075
 21
8.061821739459583
 31
0.0
  0
LINE
  5
3C1
330
1F
100
AcDbEntity
  8
Object
100
AcDbLine
 10
15.8911990589075
 20
8.061821739459583
 30
0.0
 11
15.8681990589075
 21
8.040821739459584
 31
0.0
  0
LINE
  5
3C2
330
1F
100
AcDbEntity
  8
Object
100
AcDbLine
 10
15.8681990589075
 20
8.040821739459584
 30
0.0
 11
15.8391990589075
 21
8.033821739459583
 31
0.0
  0
LINE
  5
3C3
330
1F
100
AcDbEntity
  8
Object
100
AcDbLine
 10
14.9321990589075
 20
8.149821739459582
 30
0.0
 11
14.9171990589075
 21
8.137821739459583
 31
0.0
  0
LINE
  5
3C4
330
1F
100
AcDbEntity
  8
Object
100
AcDbLine
 10
14.9171990589075
 20
8.137821739459583
 30
0.0
 11
14.9061990589075
 21
8.120821739459582
 31
0.0
  0
LINE
  5
3C5
330
1F
100
AcDbEntity
  8
Object
100
AcDbLine
 10
14.9061990589075
 20
8.120821739459582
 30
0.0
 11
14.9011990589075
 21
8.101821739459584
 31
0.0
  0
LINE
  5
3C6
330
1F
100
AcDbEntity
  8
Object
100
AcDbLine
 10
10.0251990589075
 20
8.382821739459583
 30
0.0
 11
10.0251990589075
 21
8.381821739459583
 31
0.0
  0
LINE
  5
3C7
330
1F
100
AcDbEntity
  8
Object
100
AcDbLine
 10
10.0251990589075
 20
8.355821739459583
 30
0.0
 11
10.0251990589075
 21
8.354821739459584
 31
0.0
  0
LINE
  5
3C8
330
1F
100
AcDbEntity
  8
Object
100
AcDbLine
 10
10.0251990589075
 20
8.354821739459584
 30
0.0
 11
10.0251990589075
 21
8.350821739459583
 31
0.0
  0
LINE
  5
3C9
330
1F
100
AcDbEntity
  8
Object
100
AcDbLine
 10
10.0251990589075
 20
8.350821739459583
 30
0.0
 11
10.0251990589075
 21
8.345821739459584
 31
0.0
  0
LINE
  5
3CA
330
1F
100
AcDbEntity
  8
Object
100
AcDbLine
 10
10.0251990589075
 20
8.345821739459584
 30
0.0
 11
10.0251990589075
 21
8.250821739459583
 31
0.0
  0
LINE
  5
3CB
330
1F
100
AcDbEntity
  8
Object
100
AcDbLine
 10
10.0251990589075
 20
8.242821739459582
 30
0.0
 11
10.0251990589075
 21
8.245821739459582
 31
0.0
  0
LINE
  5
3CC
330
1F
100
AcDbEntity
  8
Object
100
AcDbLine
 10
10.0251990589075
 20
8.245821739459582
 30
0.0
 11
10.0251990589075
 21
8.250821739459583
 31
0.0
  0
LINE
  5
3CD
330
1F
100
AcDbEntity
  8
Object
100
AcDbLine
 10
10.0251990589075
 20
8.242821739459582
 30
0.0
 11
10.0251990589075
 21
8.240821739459583
 31
0.0
  0
LINE
  5
3CE
330
1F
100
AcDbEntity
  8
Object
100
AcDbLine
 10
10.0251990589075
 20
8.382821739459583
 30
0.0
 11
10.0251990589075
 21
8.355821739459583
 31
0.0
  0
LINE
  5
3CF
330
1F
100
AcDbEntity
  8
Object
100
AcDbLine
 10
10.0251990589075
 20
8.240821739459583
 30
0.0
 11
10.0251990589075
 21
8.203821739459584
 31
0.0
  0
LINE
  5
3D0
330
1F
100
AcDbEntity
  8
Object
100
AcDbLine
 10
8.963199058907498
 20
8.033821739459583
 30
0.0
 11
8.933199058907499
 21
8.040821739459584
 31
0.0
  0
LINE
  5
3D1
330
1F
100
AcDbEntity
  8
Object
100
AcDbLine
 10
8.933199058907499
 20
8.040821739459584
 30
0.0
 11
8.911199058907499
 21
8.061821739459583
 31
0.0
  0
LINE
  5
3D2
330
1F
100
AcDbEntity
  8
Object
100
AcDbLine
 10
8.911199058907499
 20
8.061821739459583
 30
0.0
 11
8.901199058907499
 21
8.090821739459583
 31
0.0
  0
LINE
  5
3D3
330
1F
100
AcDbEntity
  8
Object
100
AcDbLine
 10
11.7751990589075
 20
8.033821739459583
 30
0.0
 11
11.7601990589075
 21
8.029821739459583
 31
0.0
  0
LINE
  5
3D4
330
1F
100
AcDbEntity
  8
Object
100
AcDbLine
 10
11.7601990589075
 20
8.029821739459583
 30
0.0
 11
11.7491990589075
 21
8.018821739459584
 31
0.0
  0
LINE
  5
3D5
330
1F
100
AcDbEntity
  8
Object
100
AcDbLine
 10
11.7491990589075
 20
8.018821739459584
 30
0.0
 11
11.7451990589075
 21
8.003821739459583
 31
0.0
  0
LINE
  5
3D6
330
1F
100
AcDbEntity
  8
Object
100
AcDbLine
 10
13.7751990589075
 20
8.033821739459583
 30
0.0
 11
13.7601990589075
 21
8.029821739459583
 31
0.0
  0
LINE
  5
3D7
330
1F
100
AcDbEntity
  8
Object
100
AcDbLine
 10
13.7601990589075
 20
8.029821739459583
 30
0.0
 11
13.7491990589075
 21
8.018821739459584
 31
0.0
  0
LINE
  5
3D8
330
1F
100
AcDbEntity
  8
Object
100
AcDbLine
 10
13.7491990589075
 20
8.018821739459584
 30
0.0
 11
13.7451990589075
 21
8.003821739459583
 31
0.0
  0
LINE
  5
3D9
330
1F
100
AcDbEntity
  8
Object
100
AcDbLine
 10
15.0571990589075
 20
4.775821739459583
 30
0.0
 11
15.0531990589075
 21
4.760821739459583
 31
0.0
  0
LINE
  5
3DA
330
1F
100
AcDbEntity
  8
Object
100
AcDbLine
 10
15.0531990589075
 20
4.760821739459583
 30
0.0
 11
15.0411990589075
 21
4.748821739459583
 31
0.0
  0
LINE
  5
3DB
330
1F
100
AcDbEntity
  8
Object
100
AcDbLine
 10
15.0411990589075
 20
4.748821739459583
 30
0.0
 11
15.0261990589075
 21
4.744821739459583
 31
0.0
  0
LINE
  5
3DC
330
1F
100
AcDbEntity
  8
Object
100
AcDbLine
 10
9.932199058907499
 20
8.149821739459582
 30
0.0
 11
9.916199058907499
 21
8.137821739459583
 31
0.0
  0
LINE
  5
3DD
330
1F
100
AcDbEntity
  8
Object
100
AcDbLine
 10
9.916199058907499
 20
8.137821739459583
 30
0.0
 11
9.906199058907498
 21
8.120821739459582
 31
0.0
  0
LINE
  5
3DE
330
1F
100
AcDbEntity
  8
Object
100
AcDbLine
 10
9.906199058907498
 20
8.120821739459582
 30
0.0
 11
9.901199058907499
 21
8.101821739459584
 31
0.0
  0
LINE
  5
3DF
330
1F
100
AcDbEntity
  8
Object
100
AcDbLine
 10
9.057199058907499
 20
8.003821739459583
 30
0.0
 11
9.057199058907499
 21
4.775821739459583
 31
0.0
  0
LINE
  5
3E0
330
1F
100
AcDbEntity
  8
Object
100
AcDbLine
 10
10.7751990589075
 20
8.033821739459583
 30
0.0
 11
10.8381990589075
 21
8.033821739459583
 31
0.0
  0
LINE
  5
3E1
330
1F
100
AcDbEntity
  8
Object
100
AcDbLine
 10
11.9631990589075
 20
8.033821739459583
 30
0.0
 11
11.9341990589075
 21
8.040821739459584
 31
0.0
  0
LINE
  5
3E2
330
1F
100
AcDbEntity
  8
Object
100
AcDbLine
 10
11.9341990589075
 20
8.040821739459584
 30
0.0
 11
11.9111990589075
 21
8.061821739459583
 31
0.0
  0
LINE
  5
3E3
330
1F
100
AcDbEntity
  8
Object
100
AcDbLine
 10
11.9111990589075
 20
8.061821739459583
 30
0.0
 11
11.9011990589075
 21
8.090821739459583
 31
0.0
  0
LINE
  5
3E4
330
1F
100
AcDbEntity
  8
Object
100
AcDbLine
 10
13.0571990589075
 20
4.775821739459583
 30
0.0
 11
13.0531990589075
 21
4.760821739459583
 31
0.0
  0
LINE
  5
3E5
330
1F
100
AcDbEntity
  8
Object
100
AcDbLine
 10
13.0531990589075
 20
4.760821739459583
 30
0.0
 11
13.0411990589075
 21
4.748821739459583
 31
0.0
  0
LINE
  5
3E6
330
1F
100
AcDbEntity
  8
Object
100
AcDbLine
 10
13.0411990589075
 20
4.748821739459583
 30
0.0
 11
13.0261990589075
 21
4.744821739459583
 31
0.0
  0
LINE
  5
3E7
330
1F
100
AcDbEntity
  8
Object
100
AcDbLine
 10
13.9631990589075
 20
8.033821739459583
 30
0.0
 11
13.9341990589075
 21
8.040821739459584
 31
0.0
  0
LINE
  5
3E8
330
1F
100
AcDbEntity
  8
Object
100
AcDbLine
 10
13.9341990589075
 20
8.040821739459584
 30
0.0
 11
13.9111990589075
 21
8.061821739459583
 31
0.0
  0
LINE
  5
3E9
330
1F
100
AcDbEntity
  8
Object
100
AcDbLine
 10
13.9111990589075
 20
8.061821739459583
 30
0.0
 11
13.9011990589075
 21
8.090821739459583
 31
0.0
  0
LINE
  5
3EA
330
1F
100
AcDbEntity
  8
Object
100
AcDbLine
 10
14.7451990589075
 20
4.775821739459583
 30
0.0
 11
14.7451990589075
 21
8.003821739459583
 31
0.0
  0
LINE
  5
3EB
330
1F
100
AcDbEntity
  8
Object
100
AcDbLine
 10
14.7751990589075
 20
8.033821739459583
 30
0.0
 11
14.8391990589075
 21
8.033821739459583
 31
0.0
  0
LINE
  5
3EC
330
1F
100
AcDbEntity
  8
Object
100
AcDbLine
 10
15.9031990589075
 20
4.744821739459583
 30
0.0
 11
15.7761990589075
 21
4.744821739459583
 31
0.0
  0
LINE
  5
3ED
330
1F
100
AcDbEntity
  8
Object
100
AcDbLine
 10
15.9031990589075
 20
8.110821739459584
 30
0.0
 11
15.9011990589075
 21
8.101821739459584
 31
0.0
  0
LINE
  5
3EE
330
1F
100
AcDbEntity
  8
Object
100
AcDbLine
 10
13.0251990589075
 20
8.203821739459584
 30
0.0
 11
12.9321990589075
 21
8.149821739459582
 31
0.0
  0
LINE
  5
3EF
330
1F
100
AcDbEntity
  8
Object
100
AcDbLine
 10
9.025199058907499
 20
8.382821739459583
 30
0.0
 11
9.025199058907499
 21
8.381821739459583
 31
0.0
  0
LINE
  5
3F0
330
1F
100
AcDbEntity
  8
Object
100
AcDbLine
 10
9.025199058907499
 20
8.355821739459583
 30
0.0
 11
9.025199058907499
 21
8.354821739459584
 31
0.0
  0
LINE
  5
3F1
330
1F
100
AcDbEntity
  8
Object
100
AcDbLine
 10
9.025199058907499
 20
8.354821739459584
 30
0.0
 11
9.025199058907499
 21
8.350821739459583
 31
0.0
  0
LINE
  5
3F2
330
1F
100
AcDbEntity
  8
Object
100
AcDbLine
 10
9.025199058907499
 20
8.350821739459583
 30
0.0
 11
9.025199058907499
 21
8.345821739459584
 31
0.0
  0
LINE
  5
3F3
330
1F
100
AcDbEntity
  8
Object
100
AcDbLine
 10
9.025199058907499
 20
8.345821739459584
 30
0.0
 11
9.025199058907499
 21
8.250821739459583
 31
0.0
  0
LINE
  5
3F4
330
1F
100
AcDbEntity
  8
Object
100
AcDbLine
 10
9.025199058907499
 20
8.242821739459582
 30
0.0
 11
9.025199058907499
 21
8.245821739459582
 31
0.0
  0
LINE
  5
3F5
330
1F
100
AcDbEntity
  8
Object
100
AcDbLine
 10
9.025199058907499
 20
8.245821739459582
 30
0.0
 11
9.025199058907499
 21
8.250821739459583
 31
0.0
  0
LINE
  5
3F6
330
1F
100
AcDbEntity
  8
Object
100
AcDbLine
 10
9.025199058907499
 20
8.242821739459582
 30
0.0
 11
9.025199058907499
 21
8.240821739459583
 31
0.0
  0
LINE
  5
3F7
330
1F
100
AcDbEntity
  8
Object
100
AcDbLine
 10
9.025199058907499
 20
8.382821739459583
 30
0.0
 11
9.025199058907499
 21
8.355821739459583
 31
0.0
  0
LINE
  5
3F8
330
1F
100
AcDbEntity
  8
Object
100
AcDbLine
 10
9.025199058907499
 20
8.240821739459583
 30
0.0
 11
9.025199058907499
 21
8.203821739459584
 31
0.0
  0
LINE
  5
3F9
330
1F
100
AcDbEntity
  8
Object
100
AcDbLine
 10
14.0571990589075
 20
4.775821739459583
 30
0.0
 11
14.0531990589075
 21
4.760821739459583
 31
0.0
  0
LINE
  5
3FA
330
1F
100
AcDbEntity
  8
Object
100
AcDbLine
 10
14.0531990589075
 20
4.760821739459583
 30
0.0
 11
14.0411990589075
 21
4.748821739459583
 31
0.0
  0
LINE
  5
3FB
330
1F
100
AcDbEntity
  8
Object
100
AcDbLine
 10
14.0411990589075
 20
4.748821739459583
 30
0.0
 11
14.0261990589075
 21
4.744821739459583
 31
0.0
  0
LINE
  5
3FC
330
1F
100
AcDbEntity
  8
Object
100
AcDbLine
 10
15.0571990589075
 20
8.003821739459583
 30
0.0
 11
15.0571990589075
 21
4.775821739459583
 31
0.0
  0
LINE
  5
3FD
330
1F
100
AcDbEntity
  8
Object
100
AcDbLine
 10
14.0251990589075
 20
8.203821739459584
 30
0.0
 11
13.9321990589075
 21
8.149821739459582
 31
0.0
  0
LINE
  5
3FE
330
1F
100
AcDbEntity
  8
Object
100
AcDbLine
 10
11.0251990589075
 20
8.203821739459584
 30
0.0
 11
10.9321990589075
 21
8.149821739459582
 31
0.0
  0
LINE
  5
3FF
330
1F
100
AcDbEntity
  8
Object
100
AcDbLine
 10
10.8701990589075
 20
8.149821739459582
 30
0.0
 11
10.7761990589075
 21
8.203821739459584
 31
0.0
  0
LINE
  5
400
330
1F
100
AcDbEntity
  8
Object
100
AcDbLine
 10
9.901199058907499
 20
8.101821739459584
 30
0.0
 11
9.896199058907498
 21
8.120821739459582
 31
0.0
  0
LINE
  5
401
330
1F
100
AcDbEntity
  8
Object
100
AcDbLine
 10
9.896199058907498
 20
8.120821739459582
 30
0.0
 11
9.885199058907499
 21
8.137821739459583
 31
0.0
  0
LINE
  5
402
330
1F
100
AcDbEntity
  8
Object
100
AcDbLine
 10
9.885199058907499
 20
8.137821739459583
 30
0.0
 11
9.870199058907498
 21
8.149821739459582
 31
0.0
  0
LINE
  5
403
330
1F
100
AcDbEntity
  8
Object
100
AcDbLine
 10
8.901199058907499
 20
8.101821739459584
 30
0.0
 11
8.901199058907499
 21
8.090821739459583
 31
0.0
  0
LINE
  5
404
330
1F
100
AcDbEntity
  8
Object
100
AcDbLine
 10
9.057199058907499
 20
8.003821739459583
 30
0.0
 11
9.053199058907498
 21
8.018821739459584
 31
0.0
  0
LINE
  5
405
330
1F
100
AcDbEntity
  8
Object
100
AcDbLine
 10
9.053199058907498
 20
8.018821739459584
 30
0.0
 11
9.042199058907499
 21
8.029821739459583
 31
0.0
  0
LINE
  5
406
330
1F
100
AcDbEntity
  8
Object
100
AcDbLine
 10
9.042199058907499
 20
8.029821739459583
 30
0.0
 11
9.027199058907498
 21
8.033821739459583
 31
0.0
  0
LINE
  5
407
330
1F
100
AcDbEntity
  8
Object
100
AcDbLine
 10
9.963199058907498
 20
8.033821739459583
 30
0.0
 11
10.0271990589075
 21
8.033821739459583
 31
0.0
  0
LINE
  5
408
330
1F
100
AcDbEntity
  8
Object
100
AcDbLine
 10
11.7761990589075
 20
4.744821739459583
 30
0.0
 11
11.7601990589075
 21
4.748821739459583
 31
0.0
  0
LINE
  5
409
330
1F
100
AcDbEntity
  8
Object
100
AcDbLine
 10
11.7601990589075
 20
4.748821739459583
 30
0.0
 11
11.7491990589075
 21
4.760821739459583
 31
0.0
  0
LINE
  5
40A
330
1F
100
AcDbEntity
  8
Object
100
AcDbLine
 10
11.7491990589075
 20
4.760821739459583
 30
0.0
 11
11.7451990589075
 21
4.775821739459583
 31
0.0
  0
LINE
  5
40B
330
1F
100
AcDbEntity
  8
Object
100
AcDbLine
 10
11.7751990589075
 20
8.033821739459583
 30
0.0
 11
11.8381990589075
 21
8.033821739459583
 31
0.0
  0
LINE
  5
40C
330
1F
100
AcDbEntity
  8
Object
100
AcDbLine
 10
13.0261990589075
 20
4.744821739459583
 30
0.0
 11
12.7761990589075
 21
4.744821739459583
 31
0.0
  0
LINE
  5
40D
330
1F
100
AcDbEntity
  8
Object
100
AcDbLine
 10
13.7761990589075
 20
4.744821739459583
 30
0.0
 11
13.7611990589075
 21
4.748821739459583
 31
0.0
  0
LINE
  5
40E
330
1F
100
AcDbEntity
  8
Object
100
AcDbLine
 10
13.7611990589075
 20
4.748821739459583
 30
0.0
 11
13.7491990589075
 21
4.760821739459583
 31
0.0
  0
LINE
  5
40F
330
1F
100
AcDbEntity
  8
Object
100
AcDbLine
 10
13.7491990589075
 20
4.760821739459583
 30
0.0
 11
13.7451990589075
 21
4.775821739459583
 31
0.0
  0
LINE
  5
410
330
1F
100
AcDbEntity
  8
Object
100
AcDbLine
 10
15.7751990589075
 20
8.033821739459583
 30
0.0
 11
15.8391990589075
 21
8.033821739459583
 31
0.0
  0
LINE
  5
411
330
1F
100
AcDbEntity
  8
Object
100
AcDbLine
 10
14.7771990589075
 20
8.382821739459583
 30
0.0
 11
14.0251990589075
 21
8.382821739459583
 31
0.0
  0
LINE
  5
412
330
1F
100
AcDbEntity
  8
Object
100
AcDbLine
 10
14.0251990589075
 20
8.382821739459583
 30
0.0
 11
14.7771990589075
 21
8.382821739459583
 31
0.0
  0
LINE
  5
413
330
1F
100
AcDbEntity
  8
Object
100
AcDbLine
 10
14.7771990589075
 20
8.382821739459583
 30
0.0
 11
14.0251990589075
 21
8.382821739459583
 31
0.0
  0
LINE
  5
414
330
1F
100
AcDbEntity
  8
Object
100
AcDbLine
 10
14.0251990589075
 20
8.382821739459583
 30
0.0
 11
14.7771990589075
 21
8.382821739459583
 31
0.0
  0
LINE
  5
415
330
1F
100
AcDbEntity
  8
Object
100
AcDbLine
 10
14.7771990589075
 20
8.382821739459583
 30
0.0
 11
14.0251990589075
 21
8.382821739459583
 31
0.0
  0
LINE
  5
416
330
1F
100
AcDbEntity
  8
Object
100
AcDbLine
 10
14.0251990589075
 20
8.382821739459583
 30
0.0
 11
14.7771990589075
 21
8.382821739459583
 31
0.0
  0
LINE
  5
417
330
1F
100
AcDbEntity
  8
Object
100
AcDbLine
 10
15.0261990589075
 20
8.382821739459583
 30
0.0
 11
15.7771990589075
 21
8.382821739459583
 31
0.0
  0
LINE
  5
418
330
1F
100
AcDbEntity
  8
Object
100
AcDbLine
 10
15.7771990589075
 20
8.382821739459583
 30
0.0
 11
15.0261990589075
 21
8.382821739459583
 31
0.0
  0
LINE
  5
419
330
1F
100
AcDbEntity
  8
Object
100
AcDbLine
 10
15.0261990589075
 20
8.382821739459583
 30
0.0
 11
15.7771990589075
 21
8.382821739459583
 31
0.0
  0
LINE
  5
41A
330
1F
100
AcDbEntity
  8
Object
100
AcDbLine
 10
15.7771990589075
 20
8.382821739459583
 30
0.0
 11
15.0261990589075
 21
8.382821739459583
 31
0.0
  0
LINE
  5
41B
330
1F
100
AcDbEntity
  8
Object
100
AcDbLine
 10
15.0261990589075
 20
8.382821739459583
 30
0.0
 11
15.7771990589075
 21
8.382821739459583
 31
0.0
  0
LINE
  5
41C
330
1F
100
AcDbEntity
  8
Object
100
AcDbLine
 10
15.0261990589075
 20
8.240821739459583
 30
0.0
 11
15.7771990589075
 21
8.240821739459583
 31
0.0
  0
LINE
  5
41D
330
1F
100
AcDbEntity
  8
Object
100
AcDbLine
 10
15.0261990589075
 20
8.250821739459583
 30
0.0
 11
15.0261990589075
 21
8.345821739459584
 31
0.0
  0
LINE
  5
41E
330
1F
100
AcDbEntity
  8
Object
100
AcDbLine
 10
15.0261990589075
 20
8.345821739459584
 30
0.0
 11
15.7771990589075
 21
8.345821739459584
 31
0.0
  0
LINE
  5
41F
330
1F
100
AcDbEntity
  8
Object
100
AcDbLine
 10
15.7771990589075
 20
8.345821739459584
 30
0.0
 11
15.7771990589075
 21
8.250821739459583
 31
0.0
  0
LINE
  5
420
330
1F
100
AcDbEntity
  8
Object
100
AcDbLine
 10
15.7771990589075
 20
8.250821739459583
 30
0.0
 11
15.0261990589075
 21
8.250821739459583
 31
0.0
  0
LINE
  5
421
330
1F
100
AcDbEntity
  8
Object
100
AcDbLine
 10
15.7771990589075
 20
8.240821739459583
 30
0.0
 11
15.7771990589075
 21
8.242821739459582
 31
0.0
  0
LINE
  5
422
330
1F
100
AcDbEntity
  8
Object
100
AcDbLine
 10
15.0261990589075
 20
8.240821739459583
 30
0.0
 11
15.0261990589075
 21
8.242821739459582
 31
0.0
  0
LINE
  5
423
330
1F
100
AcDbEntity
  8
Object
100
AcDbLine
 10
15.0261990589075
 20
8.242821739459582
 30
0.0
 11
15.0261990589075
 21
8.245821739459582
 31
0.0
  0
LINE
  5
424
330
1F
100
AcDbEntity
  8
Object
100
AcDbLine
 10
15.0261990589075
 20
8.245821739459582
 30
0.0
 11
15.0261990589075
 21
8.250821739459583
 31
0.0
  0
LINE
  5
425
330
1F
100
AcDbEntity
  8
Object
100
AcDbLine
 10
15.7771990589075
 20
8.250821739459583
 30
0.0
 11
15.7771990589075
 21
8.245821739459582
 31
0.0
  0
LINE
  5
426
330
1F
100
AcDbEntity
  8
Object
100
AcDbLine
 10
15.7771990589075
 20
8.245821739459582
 30
0.0
 11
15.7771990589075
 21
8.242821739459582
 31
0.0
  0
LINE
  5
427
330
1F
100
AcDbEntity
  8
Object
100
AcDbLine
 10
15.0221990589075
 20
8.240821739459583
 30
0.0
 11
15.0311990589075
 21
8.240821739459583
 31
0.0
  0
LINE
  5
428
330
1F
100
AcDbEntity
  8
Object
100
AcDbLine
 10
15.7731990589075
 20
8.240821739459583
 30
0.0
 11
15.7821990589075
 21
8.240821739459583
 31
0.0
  0
LINE
  5
429
330
1F
100
AcDbEntity
  8
Object
100
AcDbLine
 10
15.7771990589075
 20
8.382821739459583
 30
0.0
 11
15.7771990589075
 21
8.355821739459583
 31
0.0
  0
LINE
  5
42A
330
1F
100
AcDbEntity
  8
Object
100
AcDbLine
 10
15.7771990589075
 20
8.355821739459583
 30
0.0
 11
15.0261990589075
 21
8.355821739459583
 31
0.0
  0
LINE
  5
42B
330
1F
100
AcDbEntity
  8
Object
100
AcDbLine
 10
15.0261990589075
 20
8.355821739459583
 30
0.0
 11
15.0261990589075
 21
8.382821739459583
 31
0.0
  0
LINE
  5
42C
330
1F
100
AcDbEntity
  8
Object
100
AcDbLine
 10
15.0261990589075
 20
8.382821739459583
 30
0.0
 11
15.7771990589075
 21
8.382821739459583
 31
0.0
  0
LINE
  5
42D
330
1F
100
AcDbEntity
  8
Object
100
AcDbLine
 10
15.7771990589075
 20
8.354821739459584
 30
0.0
 11
15.7771990589075
 21
8.355821739459583
 31
0.0
  0
LINE
  5
42E
330
1F
100
AcDbEntity
  8
Object
100
AcDbLine
 10
15.0261990589075
 20
8.355821739459583
 30
0.0
 11
15.0261990589075
 21
8.354821739459584
 31
0.0
  0
LINE
  5
42F
330
1F
100
AcDbEntity
  8
Object
100
AcDbLine
 10
15.0261990589075
 20
8.354821739459584
 30
0.0
 11
15.0261990589075
 21
8.350821739459583
 31
0.0
  0
LINE
  5
430
330
1F
100
AcDbEntity
  8
Object
100
AcDbLine
 10
15.7771990589075
 20
8.354821739459584
 30
0.0
 11
15.7771990589075
 21
8.350821739459583
 31
0.0
  0
LINE
  5
431
330
1F
100
AcDbEntity
  8
Object
100
AcDbLine
 10
15.7771990589075
 20
8.350821739459583
 30
0.0
 11
15.7771990589075
 21
8.345821739459584
 31
0.0
  0
LINE
  5
432
330
1F
100
AcDbEntity
  8
Object
100
AcDbLine
 10
15.0261990589075
 20
8.350821739459583
 30
0.0
 11
15.0261990589075
 21
8.345821739459584
 31
0.0
  0
LINE
  5
433
330
1F
100
AcDbEntity
  8
Object
100
AcDbLine
 10
12.0251990589075
 20
8.382821739459583
 30
0.0
 11
12.7761990589075
 21
8.382821739459583
 31
0.0
  0
LINE
  5
434
330
1F
100
AcDbEntity
  8
Object
100
AcDbLine
 10
12.7761990589075
 20
8.382821739459583
 30
0.0
 11
12.0251990589075
 21
8.382821739459583
 31
0.0
  0
LINE
  5
435
330
1F
100
AcDbEntity
  8
Object
100
AcDbLine
 10
12.0251990589075
 20
8.382821739459583
 30
0.0
 11
12.7761990589075
 21
8.382821739459583
 31
0.0
  0
LINE
  5
436
330
1F
100
AcDbEntity
  8
Object
100
AcDbLine
 10
12.7761990589075
 20
8.382821739459583
 30
0.0
 11
12.0251990589075
 21
8.382821739459583
 31
0.0
  0
LINE
  5
437
330
1F
100
AcDbEntity
  8
Object
100
AcDbLine
 10
12.0251990589075
 20
8.382821739459583
 30
0.0
 11
12.7761990589075
 21
8.382821739459583
 31
0.0
  0
LINE
  5
438
330
1F
100
AcDbEntity
  8
Object
100
AcDbLine
 10
13.0251990589075
 20
8.382821739459583
 30
0.0
 11
13.7761990589075
 21
8.382821739459583
 31
0.0
  0
LINE
  5
439
330
1F
100
AcDbEntity
  8
Object
100
AcDbLine
 10
13.7761990589075
 20
8.382821739459583
 30
0.0
 11
13.0251990589075
 21
8.382821739459583
 31
0.0
  0
LINE
  5
43A
330
1F
100
AcDbEntity
  8
Object
100
AcDbLine
 10
13.0251990589075
 20
8.382821739459583
 30
0.0
 11
13.7761990589075
 21
8.382821739459583
 31
0.0
  0
LINE
  5
43B
330
1F
100
AcDbEntity
  8
Object
100
AcDbLine
 10
13.7761990589075
 20
8.382821739459583
 30
0.0
 11
13.0251990589075
 21
8.382821739459583
 31
0.0
  0
LINE
  5
43C
330
1F
100
AcDbEntity
  8
Object
100
AcDbLine
 10
13.0251990589075
 20
8.382821739459583
 30
0.0
 11
13.7761990589075
 21
8.382821739459583
 31
0.0
  0
LINE
  5
43D
330
1F
100
AcDbEntity
  8
Object
100
AcDbLine
 10
10.0251990589075
 20
8.240821739459583
 30
0.0
 11
10.7761990589075
 21
8.240821739459583
 31
0.0
  0
LINE
  5
43E
330
1F
100
AcDbEntity
  8
Object
100
AcDbLine
 10
10.0251990589075
 20
8.250821739459583
 30
0.0
 11
10.0251990589075
 21
8.345821739459584
 31
0.0
  0
LINE
  5
43F
330
1F
100
AcDbEntity
  8
Object
100
AcDbLine
 10
10.0251990589075
 20
8.345821739459584
 30
0.0
 11
10.7761990589075
 21
8.345821739459584
 31
0.0
  0
LINE
  5
440
330
1F
100
AcDbEntity
  8
Object
100
AcDbLine
 10
10.7761990589075
 20
8.345821739459584
 30
0.0
 11
10.7761990589075
 21
8.250821739459583
 31
0.0
  0
LINE
  5
441
330
1F
100
AcDbEntity
  8
Object
100
AcDbLine
 10
10.7761990589075
 20
8.250821739459583
 30
0.0
 11
10.0251990589075
 21
8.250821739459583
 31
0.0
  0
LINE
  5
442
330
1F
100
AcDbEntity
  8
Object
100
AcDbLine
 10
10.7761990589075
 20
8.382821739459583
 30
0.0
 11
10.7761990589075
 21
8.355821739459583
 31
0.0
  0
LINE
  5
443
330
1F
100
AcDbEntity
  8
Object
100
AcDbLine
 10
10.7761990589075
 20
8.355821739459583
 30
0.0
 11
10.0251990589075
 21
8.355821739459583
 31
0.0
  0
LINE
  5
444
330
1F
100
AcDbEntity
  8
Object
100
AcDbLine
 10
10.0251990589075
 20
8.355821739459583
 30
0.0
 11
10.0251990589075
 21
8.382821739459583
 31
0.0
  0
LINE
  5
445
330
1F
100
AcDbEntity
  8
Object
100
AcDbLine
 10
10.0251990589075
 20
8.382821739459583
 30
0.0
 11
10.7761990589075
 21
8.382821739459583
 31
0.0
  0
LINE
  5
446
330
1F
100
AcDbEntity
  8
Object
100
AcDbLine
 10
10.7761990589075
 20
8.240821739459583
 30
0.0
 11
10.7761990589075
 21
8.242821739459582
 31
0.0
  0
LINE
  5
447
330
1F
100
AcDbEntity
  8
Object
100
AcDbLine
 10
10.0251990589075
 20
8.240821739459583
 30
0.0
 11
10.0251990589075
 21
8.242821739459582
 31
0.0
  0
LINE
  5
448
330
1F
100
AcDbEntity
  8
Object
100
AcDbLine
 10
10.0251990589075
 20
8.242821739459582
 30
0.0
 11
10.0251990589075
 21
8.245821739459582
 31
0.0
  0
LINE
  5
449
330
1F
100
AcDbEntity
  8
Object
100
AcDbLine
 10
10.0251990589075
 20
8.245821739459582
 30
0.0
 11
10.0251990589075
 21
8.250821739459583
 31
0.0
  0
LINE
  5
44A
330
1F
100
AcDbEntity
  8
Object
100
AcDbLine
 10
10.7761990589075
 20
8.250821739459583
 30
0.0
 11
10.7761990589075
 21
8.245821739459582
 31
0.0
  0
LINE
  5
44B
330
1F
100
AcDbEntity
  8
Object
100
AcDbLine
 10
10.7761990589075
 20
8.245821739459582
 30
0.0
 11
10.7761990589075
 21
8.242821739459582
 31
0.0
  0
LINE
  5
44C
330
1F
100
AcDbEntity
  8
Object
100
AcDbLine
 10
10.0211990589075
 20
8.240821739459583
 30
0.0
 11
10.0301990589075
 21
8.240821739459583
 31
0.0
  0
LINE
  5
44D
330
1F
100
AcDbEntity
  8
Object
100
AcDbLine
 10
10.7721990589075
 20
8.240821739459583
 30
0.0
 11
10.7811990589075
 21
8.240821739459583
 31
0.0
  0
LINE
  5
44E
330
1F
100
AcDbEntity
  8
Object
100
AcDbLine
 10
10.0251990589075
 20
8.382821739459583
 30
0.0
 11
10.7761990589075
 21
8.382821739459583
 31
0.0
  0
LINE
  5
44F
330
1F
100
AcDbEntity
  8
Object
100
AcDbLine
 10
10.7761990589075
 20
8.382821739459583
 30
0.0
 11
10.0251990589075
 21
8.382821739459583
 31
0.0
  0
LINE
  5
450
330
1F
100
AcDbEntity
  8
Object
100
AcDbLine
 10
10.0251990589075
 20
8.382821739459583
 30
0.0
 11
10.7761990589075
 21
8.382821739459583
 31
0.0
  0
LINE
  5
451
330
1F
100
AcDbEntity
  8
Object
100
AcDbLine
 10
10.7761990589075
 20
8.382821739459583
 30
0.0
 11
10.0251990589075
 21
8.382821739459583
 31
0.0
  0
LINE
  5
452
330
1F
100
AcDbEntity
  8
Object
100
AcDbLine
 10
10.0251990589075
 20
8.382821739459583
 30
0.0
 11
10.7761990589075
 21
8.382821739459583
 31
0.0
  0
LINE
  5
453
330
1F
100
AcDbEntity
  8
Object
100
AcDbLine
 10
10.7761990589075
 20
8.354821739459584
 30
0.0
 11
10.7761990589075
 21
8.355821739459583
 31
0.0
  0
LINE
  5
454
330
1F
100
AcDbEntity
  8
Object
100
AcDbLine
 10
10.0251990589075
 20
8.355821739459583
 30
0.0
 11
10.0251990589075
 21
8.354821739459584
 31
0.0
  0
LINE
  5
455
330
1F
100
AcDbEntity
  8
Object
100
AcDbLine
 10
10.0251990589075
 20
8.354821739459584
 30
0.0
 11
10.0251990589075
 21
8.350821739459583
 31
0.0
  0
LINE
  5
456
330
1F
100
AcDbEntity
  8
Object
100
AcDbLine
 10
10.7761990589075
 20
8.354821739459584
 30
0.0
 11
10.7761990589075
 21
8.350821739459583
 31
0.0
  0
LINE
  5
457
330
1F
100
AcDbEntity
  8
Object
100
AcDbLine
 10
10.7761990589075
 20
8.350821739459583
 30
0.0
 11
10.7761990589075
 21
8.345821739459584
 31
0.0
  0
LINE
  5
458
330
1F
100
AcDbEntity
  8
Object
100
AcDbLine
 10
10.0251990589075
 20
8.350821739459583
 30
0.0
 11
10.0251990589075
 21
8.345821739459584
 31
0.0
  0
LINE
  5
459
330
1F
100
AcDbEntity
  8
Object
100
AcDbLine
 10
14.7771990589075
 20
8.240821739459583
 30
0.0
 11
14.7771990589075
 21
8.242821739459582
 31
0.0
  0
LINE
  5
45A
330
1F
100
AcDbEntity
  8
Object
100
AcDbLine
 10
14.0251990589075
 20
8.240821739459583
 30
0.0
 11
14.0251990589075
 21
8.242821739459582
 31
0.0
  0
LINE
  5
45B
330
1F
100
AcDbEntity
  8
Object
100
AcDbLine
 10
14.0251990589075
 20
8.242821739459582
 30
0.0
 11
14.0251990589075
 21
8.245821739459582
 31
0.0
  0
LINE
  5
45C
330
1F
100
AcDbEntity
  8
Object
100
AcDbLine
 10
14.0251990589075
 20
8.245821739459582
 30
0.0
 11
14.0251990589075
 21
8.250821739459583
 31
0.0
  0
LINE
  5
45D
330
1F
100
AcDbEntity
  8
Object
100
AcDbLine
 10
14.0251990589075
 20
8.250821739459583
 30
0.0
 11
14.7771990589075
 21
8.250821739459583
 31
0.0
  0
LINE
  5
45E
330
1F
100
AcDbEntity
  8
Object
100
AcDbLine
 10
14.7771990589075
 20
8.250821739459583
 30
0.0
 11
14.7771990589075
 21
8.245821739459582
 31
0.0
  0
LINE
  5
45F
330
1F
100
AcDbEntity
  8
Object
100
AcDbLine
 10
14.7771990589075
 20
8.245821739459582
 30
0.0
 11
14.7771990589075
 21
8.242821739459582
 31
0.0
  0
LINE
  5
460
330
1F
100
AcDbEntity
  8
Object
100
AcDbLine
 10
14.0211990589075
 20
8.240821739459583
 30
0.0
 11
14.0301990589075
 21
8.240821739459583
 31
0.0
  0
LINE
  5
461
330
1F
100
AcDbEntity
  8
Object
100
AcDbLine
 10
14.7771990589075
 20
8.240821739459583
 30
0.0
 11
14.0251990589075
 21
8.240821739459583
 31
0.0
  0
LINE
  5
462
330
1F
100
AcDbEntity
  8
Object
100
AcDbLine
 10
14.7771990589075
 20
8.354821739459584
 30
0.0
 11
14.7771990589075
 21
8.355821739459583
 31
0.0
  0
LINE
  5
463
330
1F
100
AcDbEntity
  8
Object
100
AcDbLine
 10
14.0251990589075
 20
8.354821739459584
 30
0.0
 11
14.0251990589075
 21
8.355821739459583
 31
0.0
  0
LINE
  5
464
330
1F
100
AcDbEntity
  8
Object
100
AcDbLine
 10
14.0251990589075
 20
8.355821739459583
 30
0.0
 11
14.7771990589075
 21
8.355821739459583
 31
0.0
  0
LINE
  5
465
330
1F
100
AcDbEntity
  8
Object
100
AcDbLine
 10
14.0251990589075
 20
8.354821739459584
 30
0.0
 11
14.0251990589075
 21
8.350821739459583
 31
0.0
  0
LINE
  5
466
330
1F
100
AcDbEntity
  8
Object
100
AcDbLine
 10
14.7771990589075
 20
8.354821739459584
 30
0.0
 11
14.7771990589075
 21
8.350821739459583
 31
0.0
  0
LINE
  5
467
330
1F
100
AcDbEntity
  8
Object
100
AcDbLine
 10
14.7771990589075
 20
8.350821739459583
 30
0.0
 11
14.7771990589075
 21
8.345821739459584
 31
0.0
  0
LINE
  5
468
330
1F
100
AcDbEntity
  8
Object
100
AcDbLine
 10
14.7771990589075
 20
8.345821739459584
 30
0.0
 11
14.0251990589075
 21
8.345821739459584
 31
0.0
  0
LINE
  5
469
330
1F
100
AcDbEntity
  8
Object
100
AcDbLine
 10
14.0251990589075
 20
8.345821739459584
 30
0.0
 11
14.0251990589075
 21
8.350821739459583
 31
0.0
  0
LINE
  5
46A
330
1F
100
AcDbEntity
  8
Object
100
AcDbLine
 10
14.0251990589075
 20
8.345821739459584
 30
0.0
 11
14.0251990589075
 21
8.250821739459583
 31
0.0
  0
LINE
  5
46B
330
1F
100
AcDbEntity
  8
Object
100
AcDbLine
 10
14.7771990589075
 20
8.250821739459583
 30
0.0
 11
14.7771990589075
 21
8.345821739459584
 31
0.0
  0
LINE
  5
46C
330
1F
100
AcDbEntity
  8
Object
100
AcDbLine
 10
14.7771990589075
 20
8.355821739459583
 30
0.0
 11
14.7771990589075
 21
8.382821739459583
 31
0.0
  0
LINE
  5
46D
330
1F
100
AcDbEntity
  8
Object
100
AcDbLine
 10
14.0251990589075
 20
8.355821739459583
 30
0.0
 11
14.0251990589075
 21
8.382821739459583
 31
0.0
  0
LINE
  5
46E
330
1F
100
AcDbEntity
  8
Object
100
AcDbLine
 10
14.0251990589075
 20
8.382821739459583
 30
0.0
 11
14.7771990589075
 21
8.382821739459583
 31
0.0
  0
LINE
  5
46F
330
1F
100
AcDbEntity
  8
Object
100
AcDbLine
 10
12.7761990589075
 20
8.382821739459583
 30
0.0
 11
12.7761990589075
 21
8.355821739459583
 31
0.0
  0
LINE
  5
470
330
1F
100
AcDbEntity
  8
Object
100
AcDbLine
 10
12.7761990589075
 20
8.355821739459583
 30
0.0
 11
12.0251990589075
 21
8.355821739459583
 31
0.0
  0
LINE
  5
471
330
1F
100
AcDbEntity
  8
Object
100
AcDbLine
 10
12.0251990589075
 20
8.355821739459583
 30
0.0
 11
12.0251990589075
 21
8.382821739459583
 31
0.0
  0
LINE
  5
472
330
1F
100
AcDbEntity
  8
Object
100
AcDbLine
 10
12.0251990589075
 20
8.382821739459583
 30
0.0
 11
12.7761990589075
 21
8.382821739459583
 31
0.0
  0
LINE
  5
473
330
1F
100
AcDbEntity
  8
Object
100
AcDbLine
 10
12.7761990589075
 20
8.354821739459584
 30
0.0
 11
12.7761990589075
 21
8.355821739459583
 31
0.0
  0
LINE
  5
474
330
1F
100
AcDbEntity
  8
Object
100
AcDbLine
 10
12.0251990589075
 20
8.355821739459583
 30
0.0
 11
12.0251990589075
 21
8.354821739459584
 31
0.0
  0
LINE
  5
475
330
1F
100
AcDbEntity
  8
Object
100
AcDbLine
 10
12.0251990589075
 20
8.354821739459584
 30
0.0
 11
12.0251990589075
 21
8.350821739459583
 31
0.0
  0
LINE
  5
476
330
1F
100
AcDbEntity
  8
Object
100
AcDbLine
 10
12.7761990589075
 20
8.354821739459584
 30
0.0
 11
12.7761990589075
 21
8.350821739459583
 31
0.0
  0
LINE
  5
477
330
1F
100
AcDbEntity
  8
Object
100
AcDbLine
 10
12.7761990589075
 20
8.350821739459583
 30
0.0
 11
12.7761990589075
 21
8.345821739459584
 31
0.0
  0
LINE
  5
478
330
1F
100
AcDbEntity
  8
Object
100
AcDbLine
 10
12.7761990589075
 20
8.345821739459584
 30
0.0
 11
12.0251990589075
 21
8.345821739459584
 31
0.0
  0
LINE
  5
479
330
1F
100
AcDbEntity
  8
Object
100
AcDbLine
 10
12.0251990589075
 20
8.345821739459584
 30
0.0
 11
12.0251990589075
 21
8.350821739459583
 31
0.0
  0
LINE
  5
47A
330
1F
100
AcDbEntity
  8
Object
100
AcDbLine
 10
12.7761990589075
 20
8.240821739459583
 30
0.0
 11
12.7761990589075
 21
8.242821739459582
 31
0.0
  0
LINE
  5
47B
330
1F
100
AcDbEntity
  8
Object
100
AcDbLine
 10
12.0251990589075
 20
8.240821739459583
 30
0.0
 11
12.0251990589075
 21
8.242821739459582
 31
0.0
  0
LINE
  5
47C
330
1F
100
AcDbEntity
  8
Object
100
AcDbLine
 10
12.0251990589075
 20
8.242821739459582
 30
0.0
 11
12.0251990589075
 21
8.245821739459582
 31
0.0
  0
LINE
  5
47D
330
1F
100
AcDbEntity
  8
Object
100
AcDbLine
 10
12.0251990589075
 20
8.245821739459582
 30
0.0
 11
12.0251990589075
 21
8.250821739459583
 31
0.0
  0
LINE
  5
47E
330
1F
100
AcDbEntity
  8
Object
100
AcDbLine
 10
12.0251990589075
 20
8.250821739459583
 30
0.0
 11
12.7761990589075
 21
8.250821739459583
 31
0.0
  0
LINE
  5
47F
330
1F
100
AcDbEntity
  8
Object
100
AcDbLine
 10
12.7761990589075
 20
8.250821739459583
 30
0.0
 11
12.7761990589075
 21
8.245821739459582
 31
0.0
  0
LINE
  5
480
330
1F
100
AcDbEntity
  8
Object
100
AcDbLine
 10
12.7761990589075
 20
8.245821739459582
 30
0.0
 11
12.7761990589075
 21
8.242821739459582
 31
0.0
  0
LINE
  5
481
330
1F
100
AcDbEntity
  8
Object
100
AcDbLine
 10
12.0211990589075
 20
8.240821739459583
 30
0.0
 11
12.0301990589075
 21
8.240821739459583
 31
0.0
  0
LINE
  5
482
330
1F
100
AcDbEntity
  8
Object
100
AcDbLine
 10
12.7761990589075
 20
8.240821739459583
 30
0.0
 11
12.0251990589075
 21
8.240821739459583
 31
0.0
  0
LINE
  5
483
330
1F
100
AcDbEntity
  8
Object
100
AcDbLine
 10
12.0251990589075
 20
8.345821739459584
 30
0.0
 11
12.0251990589075
 21
8.250821739459583
 31
0.0
  0
LINE
  5
484
330
1F
100
AcDbEntity
  8
Object
100
AcDbLine
 10
12.7761990589075
 20
8.250821739459583
 30
0.0
 11
12.7761990589075
 21
8.345821739459584
 31
0.0
  0
LINE
  5
485
330
1F
100
AcDbEntity
  8
Object
100
AcDbLine
 10
11.0251990589075
 20
8.382821739459583
 30
0.0
 11
11.7761990589075
 21
8.382821739459583
 31
0.0
  0
LINE
  5
486
330
1F
100
AcDbEntity
  8
Object
100
AcDbLine
 10
11.7761990589075
 20
8.382821739459583
 30
0.0
 11
11.0251990589075
 21
8.382821739459583
 31
0.0
  0
LINE
  5
487
330
1F
100
AcDbEntity
  8
Object
100
AcDbLine
 10
11.0251990589075
 20
8.382821739459583
 30
0.0
 11
11.7761990589075
 21
8.382821739459583
 31
0.0
  0
LINE
  5
488
330
1F
100
AcDbEntity
  8
Object
100
AcDbLine
 10
11.7761990589075
 20
8.382821739459583
 30
0.0
 11
11.0251990589075
 21
8.382821739459583
 31
0.0
  0
LINE
  5
489
330
1F
100
AcDbEntity
  8
Object
100
AcDbLine
 10
11.0251990589075
 20
8.382821739459583
 30
0.0
 11
11.7761990589075
 21
8.382821739459583
 31
0.0
  0
LINE
  5
48A
330
1F
100
AcDbEntity
  8
Object
100
AcDbLine
 10
9.025199058907499
 20
8.382821739459583
 30
0.0
 11
9.776199058907499
 21
8.382821739459583
 31
0.0
  0
LINE
  5
48B
330
1F
100
AcDbEntity
  8
Object
100
AcDbLine
 10
9.776199058907499
 20
8.382821739459583
 30
0.0
 11
9.025199058907499
 21
8.382821739459583
 31
0.0
  0
LINE
  5
48C
330
1F
100
AcDbEntity
  8
Object
100
AcDbLine
 10
9.025199058907499
 20
8.382821739459583
 30
0.0
 11
9.776199058907499
 21
8.382821739459583
 31
0.0
  0
LINE
  5
48D
330
1F
100
AcDbEntity
  8
Object
100
AcDbLine
 10
9.776199058907499
 20
8.382821739459583
 30
0.0
 11
9.025199058907499
 21
8.382821739459583
 31
0.0
  0
LINE
  5
48E
330
1F
100
AcDbEntity
  8
Object
100
AcDbLine
 10
9.025199058907499
 20
8.382821739459583
 30
0.0
 11
9.776199058907499
 21
8.382821739459583
 31
0.0
  0
LINE
  5
48F
330
1F
100
AcDbEntity
  8
Object
100
AcDbLine
 10
13.0251990589075
 20
8.240821739459583
 30
0.0
 11
13.7761990589075
 21
8.240821739459583
 31
0.0
  0
LINE
  5
490
330
1F
100
AcDbEntity
  8
Object
100
AcDbLine
 10
13.7761990589075
 20
8.240821739459583
 30
0.0
 11
13.7761990589075
 21
8.242821739459582
 31
0.0
  0
LINE
  5
491
330
1F
100
AcDbEntity
  8
Object
100
AcDbLine
 10
13.0251990589075
 20
8.240821739459583
 30
0.0
 11
13.0251990589075
 21
8.242821739459582
 31
0.0
  0
LINE
  5
492
330
1F
100
AcDbEntity
  8
Object
100
AcDbLine
 10
13.0251990589075
 20
8.242821739459582
 30
0.0
 11
13.0251990589075
 21
8.245821739459582
 31
0.0
  0
LINE
  5
493
330
1F
100
AcDbEntity
  8
Object
100
AcDbLine
 10
13.0251990589075
 20
8.245821739459582
 30
0.0
 11
13.0251990589075
 21
8.250821739459583
 31
0.0
  0
LINE
  5
494
330
1F
100
AcDbEntity
  8
Object
100
AcDbLine
 10
13.0251990589075
 20
8.250821739459583
 30
0.0
 11
13.7761990589075
 21
8.250821739459583
 31
0.0
  0
LINE
  5
495
330
1F
100
AcDbEntity
  8
Object
100
AcDbLine
 10
13.7761990589075
 20
8.250821739459583
 30
0.0
 11
13.7761990589075
 21
8.245821739459582
 31
0.0
  0
LINE
  5
496
330
1F
100
AcDbEntity
  8
Object
100
AcDbLine
 10
13.7761990589075
 20
8.245821739459582
 30
0.0
 11
13.7761990589075
 21
8.242821739459582
 31
0.0
  0
LINE
  5
497
330
1F
100
AcDbEntity
  8
Object
100
AcDbLine
 10
13.0211990589075
 20
8.240821739459583
 30
0.0
 11
13.0301990589075
 21
8.240821739459583
 31
0.0
  0
LINE
  5
498
330
1F
100
AcDbEntity
  8
Object
100
AcDbLine
 10
13.7721990589075
 20
8.240821739459583
 30
0.0
 11
13.7811990589075
 21
8.240821739459583
 31
0.0
  0
LINE
  5
499
330
1F
100
AcDbEntity
  8
Object
100
AcDbLine
 10
13.0251990589075
 20
8.250821739459583
 30
0.0
 11
13.0251990589075
 21
8.345821739459584
 31
0.0
  0
LINE
  5
49A
330
1F
100
AcDbEntity
  8
Object
100
AcDbLine
 10
13.0251990589075
 20
8.345821739459584
 30
0.0
 11
13.7761990589075
 21
8.345821739459584
 31
0.0
  0
LINE
  5
49B
330
1F
100
AcDbEntity
  8
Object
100
AcDbLine
 10
13.7761990589075
 20
8.345821739459584
 30
0.0
 11
13.7761990589075
 21
8.250821739459583
 31
0.0
  0
LINE
  5
49C
330
1F
100
AcDbEntity
  8
Object
100
AcDbLine
 10
13.7761990589075
 20
8.354821739459584
 30
0.0
 11
13.7761990589075
 21
8.355821739459583
 31
0.0
  0
LINE
  5
49D
330
1F
100
AcDbEntity
  8
Object
100
AcDbLine
 10
13.0251990589075
 20
8.354821739459584
 30
0.0
 11
13.0251990589075
 21
8.355821739459583
 31
0.0
  0
LINE
  5
49E
330
1F
100
AcDbEntity
  8
Object
100
AcDbLine
 10
13.0251990589075
 20
8.355821739459583
 30
0.0
 11
13.7761990589075
 21
8.355821739459583
 31
0.0
  0
LINE
  5
49F
330
1F
100
AcDbEntity
  8
Object
100
AcDbLine
 10
13.0251990589075
 20
8.354821739459584
 30
0.0
 11
13.0251990589075
 21
8.350821739459583
 31
0.0
  0
LINE
  5
4A0
330
1F
100
AcDbEntity
  8
Object
100
AcDbLine
 10
13.7761990589075
 20
8.354821739459584
 30
0.0
 11
13.7761990589075
 21
8.350821739459583
 31
0.0
  0
LINE
  5
4A1
330
1F
100
AcDbEntity
  8
Object
100
AcDbLine
 10
13.7761990589075
 20
8.350821739459583
 30
0.0
 11
13.7761990589075
 21
8.345821739459584
 31
0.0
  0
LINE
  5
4A2
330
1F
100
AcDbEntity
  8
Object
100
AcDbLine
 10
13.0251990589075
 20
8.350821739459583
 30
0.0
 11
13.0251990589075
 21
8.345821739459584
 31
0.0
  0
LINE
  5
4A3
330
1F
100
AcDbEntity
  8
Object
100
AcDbLine
 10
13.7761990589075
 20
8.355821739459583
 30
0.0
 11
13.7761990589075
 21
8.382821739459583
 31
0.0
  0
LINE
  5
4A4
330
1F
100
AcDbEntity
  8
Object
100
AcDbLine
 10
13.0251990589075
 20
8.355821739459583
 30
0.0
 11
13.0251990589075
 21
8.382821739459583
 31
0.0
  0
LINE
  5
4A5
330
1F
100
AcDbEntity
  8
Object
100
AcDbLine
 10
13.0251990589075
 20
8.382821739459583
 30
0.0
 11
13.7761990589075
 21
8.382821739459583
 31
0.0
  0
LINE
  5
4A6
330
1F
100
AcDbEntity
  8
Object
100
AcDbLine
 10
11.0251990589075
 20
8.250821739459583
 30
0.0
 11
11.0251990589075
 21
8.345821739459584
 31
0.0
  0
LINE
  5
4A7
330
1F
100
AcDbEntity
  8
Object
100
AcDbLine
 10
11.0251990589075
 20
8.345821739459584
 30
0.0
 11
11.7761990589075
 21
8.345821739459584
 31
0.0
  0
LINE
  5
4A8
330
1F
100
AcDbEntity
  8
Object
100
AcDbLine
 10
11.7761990589075
 20
8.345821739459584
 30
0.0
 11
11.7761990589075
 21
8.250821739459583
 31
0.0
  0
LINE
  5
4A9
330
1F
100
AcDbEntity
  8
Object
100
AcDbLine
 10
11.7761990589075
 20
8.250821739459583
 30
0.0
 11
11.0251990589075
 21
8.250821739459583
 31
0.0
  0
LINE
  5
4AA
330
1F
100
AcDbEntity
  8
Object
100
AcDbLine
 10
11.7761990589075
 20
8.382821739459583
 30
0.0
 11
11.7761990589075
 21
8.355821739459583
 31
0.0
  0
LINE
  5
4AB
330
1F
100
AcDbEntity
  8
Object
100
AcDbLine
 10
11.7761990589075
 20
8.355821739459583
 30
0.0
 11
11.0251990589075
 21
8.355821739459583
 31
0.0
  0
LINE
  5
4AC
330
1F
100
AcDbEntity
  8
Object
100
AcDbLine
 10
11.0251990589075
 20
8.355821739459583
 30
0.0
 11
11.0251990589075
 21
8.382821739459583
 31
0.0
  0
LINE
  5
4AD
330
1F
100
AcDbEntity
  8
Object
100
AcDbLine
 10
11.0251990589075
 20
8.382821739459583
 30
0.0
 11
11.7761990589075
 21
8.382821739459583
 31
0.0
  0
LINE
  5
4AE
330
1F
100
AcDbEntity
  8
Object
100
AcDbLine
 10
11.0251990589075
 20
8.240821739459583
 30
0.0
 11
11.7761990589075
 21
8.240821739459583
 31
0.0
  0
LINE
  5
4AF
330
1F
100
AcDbEntity
  8
Object
100
AcDbLine
 10
11.7761990589075
 20
8.240821739459583
 30
0.0
 11
11.7761990589075
 21
8.242821739459582
 31
0.0
  0
LINE
  5
4B0
330
1F
100
AcDbEntity
  8
Object
100
AcDbLine
 10
11.0251990589075
 20
8.240821739459583
 30
0.0
 11
11.0251990589075
 21
8.242821739459582
 31
0.0
  0
LINE
  5
4B1
330
1F
100
AcDbEntity
  8
Object
100
AcDbLine
 10
11.0251990589075
 20
8.242821739459582
 30
0.0
 11
11.0251990589075
 21
8.245821739459582
 31
0.0
  0
LINE
  5
4B2
330
1F
100
AcDbEntity
  8
Object
100
AcDbLine
 10
11.0251990589075
 20
8.245821739459582
 30
0.0
 11
11.0251990589075
 21
8.250821739459583
 31
0.0
  0
LINE
  5
4B3
330
1F
100
AcDbEntity
  8
Object
100
AcDbLine
 10
11.7761990589075
 20
8.250821739459583
 30
0.0
 11
11.7761990589075
 21
8.245821739459582
 31
0.0
  0
LINE
  5
4B4
330
1F
100
AcDbEntity
  8
Object
100
AcDbLine
 10
11.7761990589075
 20
8.245821739459582
 30
0.0
 11
11.7761990589075
 21
8.242821739459582
 31
0.0
  0
LINE
  5
4B5
330
1F
100
AcDbEntity
  8
Object
100
AcDbLine
 10
11.0211990589075
 20
8.240821739459583
 30
0.0
 11
11.0301990589075
 21
8.240821739459583
 31
0.0
  0
LINE
  5
4B6
330
1F
100
AcDbEntity
  8
Object
100
AcDbLine
 10
11.7721990589075
 20
8.240821739459583
 30
0.0
 11
11.7811990589075
 21
8.240821739459583
 31
0.0
  0
LINE
  5
4B7
330
1F
100
AcDbEntity
  8
Object
100
AcDbLine
 10
11.7761990589075
 20
8.354821739459584
 30
0.0
 11
11.7761990589075
 21
8.355821739459583
 31
0.0
  0
LINE
  5
4B8
330
1F
100
AcDbEntity
  8
Object
100
AcDbLine
 10
11.0251990589075
 20
8.355821739459583
 30
0.0
 11
11.0251990589075
 21
8.354821739459584
 31
0.0
  0
LINE
  5
4B9
330
1F
100
AcDbEntity
  8
Object
100
AcDbLine
 10
11.0251990589075
 20
8.354821739459584
 30
0.0
 11
11.0251990589075
 21
8.350821739459583
 31
0.0
  0
LINE
  5
4BA
330
1F
100
AcDbEntity
  8
Object
100
AcDbLine
 10
11.7761990589075
 20
8.354821739459584
 30
0.0
 11
11.7761990589075
 21
8.350821739459583
 31
0.0
  0
LINE
  5
4BB
330
1F
100
AcDbEntity
  8
Object
100
AcDbLine
 10
11.7761990589075
 20
8.350821739459583
 30
0.0
 11
11.7761990589075
 21
8.345821739459584
 31
0.0
  0
LINE
  5
4BC
330
1F
100
AcDbEntity
  8
Object
100
AcDbLine
 10
11.0251990589075
 20
8.350821739459583
 30
0.0
 11
11.0251990589075
 21
8.345821739459584
 31
0.0
  0
LINE
  5
4BD
330
1F
100
AcDbEntity
  8
Object
100
AcDbLine
 10
9.776199058907499
 20
8.240821739459583
 30
0.0
 11
9.776199058907499
 21
8.242821739459582
 31
0.0
  0
LINE
  5
4BE
330
1F
100
AcDbEntity
  8
Object
100
AcDbLine
 10
9.025199058907499
 20
8.240821739459583
 30
0.0
 11
9.025199058907499
 21
8.242821739459582
 31
0.0
  0
LINE
  5
4BF
330
1F
100
AcDbEntity
  8
Object
100
AcDbLine
 10
9.025199058907499
 20
8.242821739459582
 30
0.0
 11
9.025199058907499
 21
8.245821739459582
 31
0.0
  0
LINE
  5
4C0
330
1F
100
AcDbEntity
  8
Object
100
AcDbLine
 10
9.025199058907499
 20
8.245821739459582
 30
0.0
 11
9.025199058907499
 21
8.250821739459583
 31
0.0
  0
LINE
  5
4C1
330
1F
100
AcDbEntity
  8
Object
100
AcDbLine
 10
9.025199058907499
 20
8.250821739459583
 30
0.0
 11
9.776199058907499
 21
8.250821739459583
 31
0.0
  0
LINE
  5
4C2
330
1F
100
AcDbEntity
  8
Object
100
AcDbLine
 10
9.776199058907499
 20
8.250821739459583
 30
0.0
 11
9.776199058907499
 21
8.245821739459582
 31
0.0
  0
LINE
  5
4C3
330
1F
100
AcDbEntity
  8
Object
100
AcDbLine
 10
9.776199058907499
 20
8.245821739459582
 30
0.0
 11
9.776199058907499
 21
8.242821739459582
 31
0.0
  0
LINE
  5
4C4
330
1F
100
AcDbEntity
  8
Object
100
AcDbLine
 10
9.021199058907498
 20
8.240821739459583
 30
0.0
 11
9.030199058907498
 21
8.240821739459583
 31
0.0
  0
LINE
  5
4C5
330
1F
100
AcDbEntity
  8
Object
100
AcDbLine
 10
9.776199058907499
 20
8.240821739459583
 30
0.0
 11
9.025199058907499
 21
8.240821739459583
 31
0.0
  0
LINE
  5
4C6
330
1F
100
AcDbEntity
  8
Object
100
AcDbLine
 10
9.776199058907499
 20
8.354821739459584
 30
0.0
 11
9.776199058907499
 21
8.355821739459583
 31
0.0
  0
LINE
  5
4C7
330
1F
100
AcDbEntity
  8
Object
100
AcDbLine
 10
9.025199058907499
 20
8.354821739459584
 30
0.0
 11
9.025199058907499
 21
8.355821739459583
 31
0.0
  0
LINE
  5
4C8
330
1F
100
AcDbEntity
  8
Object
100
AcDbLine
 10
9.025199058907499
 20
8.355821739459583
 30
0.0
 11
9.776199058907499
 21
8.355821739459583
 31
0.0
  0
LINE
  5
4C9
330
1F
100
AcDbEntity
  8
Object
100
AcDbLine
 10
9.025199058907499
 20
8.354821739459584
 30
0.0
 11
9.025199058907499
 21
8.350821739459583
 31
0.0
  0
LINE
  5
4CA
330
1F
100
AcDbEntity
  8
Object
100
AcDbLine
 10
9.776199058907499
 20
8.354821739459584
 30
0.0
 11
9.776199058907499
 21
8.350821739459583
 31
0.0
  0
LINE
  5
4CB
330
1F
100
AcDbEntity
  8
Object
100
AcDbLine
 10
9.776199058907499
 20
8.350821739459583
 30
0.0
 11
9.776199058907499
 21
8.345821739459584
 31
0.0
  0
LINE
  5
4CC
330
1F
100
AcDbEntity
  8
Object
100
AcDbLine
 10
9.776199058907499
 20
8.345821739459584
 30
0.0
 11
9.025199058907499
 21
8.345821739459584
 31
0.0
  0
LINE
  5
4CD
330
1F
100
AcDbEntity
  8
Object
100
AcDbLine
 10
9.025199058907499
 20
8.345821739459584
 30
0.0
 11
9.025199058907499
 21
8.350821739459583
 31
0.0
  0
LINE
  5
4CE
330
1F
100
AcDbEntity
  8
Object
100
AcDbLine
 10
9.776199058907499
 20
8.355821739459583
 30
0.0
 11
9.776199058907499
 21
8.382821739459583
 31
0.0
  0
LINE
  5
4CF
330
1F
100
AcDbEntity
  8
Object
100
AcDbLine
 10
9.025199058907499
 20
8.355821739459583
 30
0.0
 11
9.025199058907499
 21
8.382821739459583
 31
0.0
  0
LINE
  5
4D0
330
1F
100
AcDbEntity
  8
Object
100
AcDbLine
 10
9.025199058907499
 20
8.382821739459583
 30
0.0
 11
9.776199058907499
 21
8.382821739459583
 31
0.0
  0
LINE
  5
4D1
330
1F
100
AcDbEntity
  8
Object
100
AcDbLine
 10
9.025199058907499
 20
8.345821739459584
 30
0.0
 11
9.025199058907499
 21
8.250821739459583
 31
0.0
  0
LINE
  5
4D2
330
1F
100
AcDbEntity
  8
Object
100
AcDbLine
 10
9.776199058907499
 20
8.250821739459583
 30
0.0
 11
9.776199058907499
 21
8.345821739459584
 31
0.0
  0
LINE
  5
4D3
330
1F
100
AcDbEntity
  8
Object
100
AcDbLine
 10
1.949945995840856
 20
4.387821739459583
 30
0.0
 11
5.974945995840856
 21
4.387821739459583
 31
0.0
  0
LINE
  5
4D4
330
1F
100
AcDbEntity
  8
Object
100
AcDbLine
 10
5.854945995840857
 20
4.502821739459584
 30
0.0
 11
2.069945995840857
 21
4.502821739459584
 31
0.0
  0
LINE
  5
4D5
330
1F
100
AcDbEntity
  8
Object
100
AcDbLine
 10
6.025945995840856
 20
4.471821739459583
 30
0.0
 11
6.031945995840857
 21
4.442821739459583
 31
0.0
  0
LINE
  5
4D6
330
1F
100
AcDbEntity
  8
Object
100
AcDbLine
 10
6.031945995840857
 20
4.442821739459583
 30
0.0
 11
6.023945995840858
 21
4.415821739459583
 31
0.0
  0
LINE
  5
4D7
330
1F
100
AcDbEntity
  8
Object
100
AcDbLine
 10
6.025945995840856
 20
4.471821739459583
 30
0.0
 11
6.006945995840856
 21
4.493821739459583
 31
0.0
  0
LINE
  5
4D8
330
1F
100
AcDbEntity
  8
Object
100
AcDbLine
 10
6.002945995840857
 20
4.394821739459583
 30
0.0
 11
6.023945995840858
 21
4.415821739459583
 31
0.0
  0
LINE
  5
4D9
330
1F
100
AcDbEntity
  8
Object
100
AcDbLine
 10
6.006945995840856
 20
4.493821739459583
 30
0.0
 11
5.978945995840856
 21
4.502821739459584
 31
0.0
  0
LINE
  5
4DA
330
1F
100
AcDbEntity
  8
Object
100
AcDbLine
 10
5.974945995840856
 20
4.387821739459583
 30
0.0
 11
6.002945995840857
 21
4.394821739459583
 31
0.0
  0
LINE
  5
4DB
330
1F
100
AcDbEntity
  8
Object
100
AcDbLine
 10
1.921945995840857
 20
4.394821739459583
 30
0.0
 11
1.949945995840856
 21
4.387821739459583
 31
0.0
  0
LINE
  5
4DC
330
1F
100
AcDbEntity
  8
Object
100
AcDbLine
 10
1.944945995840857
 20
4.502821739459584
 30
0.0
 11
1.917945995840856
 21
4.493821739459583
 31
0.0
  0
LINE
  5
4DD
330
1F
100
AcDbEntity
  8
Object
100
AcDbLine
 10
1.900945995840856
 20
4.415821739459583
 30
0.0
 11
1.921945995840857
 21
4.394821739459583
 31
0.0
  0
LINE
  5
4DE
330
1F
100
AcDbEntity
  8
Object
100
AcDbLine
 10
1.917945995840856
 20
4.493821739459583
 30
0.0
 11
1.898945995840858
 21
4.471821739459583
 31
0.0
  0
LINE
  5
4DF
330
1F
100
AcDbEntity
  8
Object
100
AcDbLine
 10
1.900945995840856
 20
4.415821739459583
 30
0.0
 11
1.891945995840856
 21
4.442821739459583
 31
0.0
  0
LINE
  5
4E0
330
1F
100
AcDbEntity
  8
Object
100
AcDbLine
 10
1.891945995840856
 20
4.442821739459583
 30
0.0
 11
1.898945995840858
 21
4.471821739459583
 31
0.0
  0
LINE
  5
4E1
330
1F
100
AcDbEntity
  8
Object
100
AcDbLine
 10
5.978945995840856
 20
4.502821739459584
 30
0.0
 11
6.006945995840856
 21
4.493821739459583
 31
0.0
  0
LINE
  5
4E2
330
1F
100
AcDbEntity
  8
Object
100
AcDbLine
 10
6.006945995840856
 20
4.493821739459583
 30
0.0
 11
6.025945995840856
 21
4.471821739459583
 31
0.0
  0
LINE
  5
4E3
330
1F
100
AcDbEntity
  8
Object
100
AcDbLine
 10
6.025945995840856
 20
4.471821739459583
 30
0.0
 11
6.031945995840857
 21
4.442821739459583
 31
0.0
  0
LINE
  5
4E4
330
1F
100
AcDbEntity
  8
Object
100
AcDbLine
 10
6.031945995840857
 20
4.442821739459583
 30
0.0
 11
6.023945995840858
 21
4.415821739459583
 31
0.0
  0
LINE
  5
4E5
330
1F
100
AcDbEntity
  8
Object
100
AcDbLine
 10
6.023945995840858
 20
4.415821739459583
 30
0.0
 11
6.002945995840857
 21
4.394821739459583
 31
0.0
  0
LINE
  5
4E6
330
1F
100
AcDbEntity
  8
Object
100
AcDbLine
 10
6.002945995840857
 20
4.394821739459583
 30
0.0
 11
5.974945995840856
 21
4.387821739459583
 31
0.0
  0
LINE
  5
4E7
330
1F
100
AcDbEntity
  8
Object
100
AcDbLine
 10
5.978945995840856
 20
4.502821739459584
 30
0.0
 11
5.973945995840857
 21
4.503821739459583
 31
0.0
  0
LINE
  5
4E8
330
1F
100
AcDbEntity
  8
Object
100
AcDbLine
 10
5.970945995840857
 20
4.507821739459583
 30
0.0
 11
5.969945995840856
 21
4.512821739459583
 31
0.0
  0
LINE
  5
4E9
330
1F
100
AcDbEntity
  8
Object
100
AcDbLine
 10
5.854945995840857
 20
4.502821739459584
 30
0.0
 11
5.854945995840857
 21
4.744821739459583
 31
0.0
  0
LINE
  5
4EA
330
1F
100
AcDbEntity
  8
Object
100
AcDbLine
 10
5.854945995840857
 20
4.744821739459583
 30
0.0
 11
5.969945995840856
 21
4.744821739459583
 31
0.0
  0
LINE
  5
4EB
330
1F
100
AcDbEntity
  8
Object
100
AcDbLine
 10
5.969945995840856
 20
4.744821739459583
 30
0.0
 11
5.969945995840856
 21
4.512821739459583
 31
0.0
  0
LINE
  5
4EC
330
1F
100
AcDbEntity
  8
Object
100
AcDbLine
 10
5.973945995840857
 20
4.503821739459583
 30
0.0
 11
5.970945995840857
 21
4.507821739459583
 31
0.0
  0
LINE
  5
4ED
330
1F
100
AcDbEntity
  8
Object
100
AcDbLine
 10
2.069945995840857
 20
4.502821739459584
 30
0.0
 11
2.069945995840857
 21
4.744821739459583
 31
0.0
  0
LINE
  5
4EE
330
1F
100
AcDbEntity
  8
Object
100
AcDbLine
 10
1.954945995840857
 20
4.512821739459583
 30
0.0
 11
1.954945995840857
 21
4.744821739459583
 31
0.0
  0
LINE
  5
4EF
330
1F
100
AcDbEntity
  8
Object
100
AcDbLine
 10
1.954945995840857
 20
4.744821739459583
 30
0.0
 11
2.069945995840857
 21
4.744821739459583
 31
0.0
  0
LINE
  5
4F0
330
1F
100
AcDbEntity
  8
Object
100
AcDbLine
 10
1.954945995840857
 20
4.512821739459583
 30
0.0
 11
1.952945995840856
 21
4.507821739459583
 31
0.0
  0
LINE
  5
4F1
330
1F
100
AcDbEntity
  8
Object
100
AcDbLine
 10
1.952945995840856
 20
4.507821739459583
 30
0.0
 11
1.949945995840856
 21
4.503821739459583
 31
0.0
  0
LINE
  5
4F2
330
1F
100
AcDbEntity
  8
Object
100
AcDbLine
 10
5.854945995840857
 20
4.502821739459584
 30
0.0
 11
2.069945995840857
 21
4.502821739459584
 31
0.0
  0
LINE
  5
4F3
102
{ACAD_REACTORS
330
675
102
}
330
1F
100
AcDbEntity
  8
Object
100
AcDbLine
 10
1.949945995840856
 20
4.387821739459583
 30
0.0
 11
5.974945995840856
 21
4.387821739459583
 31
0.0
  0
LINE
  5
4F4
330
1F
100
AcDbEntity
  8
Object
100
AcDbLine
 10
1.949945995840856
 20
4.503821739459583
 30
0.0
 11
1.944945995840857
 21
4.502821739459584
 31
0.0
  0
LINE
  5
4F5
330
1F
100
AcDbEntity
  8
Object
100
AcDbLine
 10
1.944945995840857
 20
4.502821739459584
 30
0.0
 11
1.917945995840856
 21
4.493821739459583
 31
0.0
  0
LINE
  5
4F6
330
1F
100
AcDbEntity
  8
Object
100
AcDbLine
 10
1.949945995840856
 20
4.387821739459583
 30
0.0
 11
1.921945995840857
 21
4.394821739459583
 31
0.0
  0
LINE
  5
4F7
330
1F
100
AcDbEntity
  8
Object
100
AcDbLine
 10
1.921945995840857
 20
4.394821739459583
 30
0.0
 11
1.900945995840856
 21
4.415821739459583
 31
0.0
  0
LINE
  5
4F8
330
1F
100
AcDbEntity
  8
Object
100
AcDbLine
 10
1.917945995840856
 20
4.493821739459583
 30
0.0
 11
1.898945995840858
 21
4.471821739459583
 31
0.0
  0
LINE
  5
4F9
330
1F
100
AcDbEntity
  8
Object
100
AcDbLine
 10
1.900945995840856
 20
4.415821739459583
 30
0.0
 11
1.891945995840856
 21
4.442821739459583
 31
0.0
  0
LINE
  5
4FA
330
1F
100
AcDbEntity
  8
Object
100
AcDbLine
 10
1.891945995840856
 20
4.442821739459583
 30
0.0
 11
1.898945995840858
 21
4.471821739459583
 31
0.0
  0
LINE
  5
4FB
330
1F
100
AcDbEntity
  8
Object
100
AcDbLine
 10
2.069945995840857
 20
8.003821739459583
 30
0.0
 11
2.069945995840857
 21
8.018821739459584
 31
0.0
  0
LINE
  5
4FC
330
1F
100
AcDbEntity
  8
Object
100
AcDbLine
 10
2.069945995840857
 20
4.760821739459583
 30
0.0
 11
2.069945995840857
 21
4.775821739459583
 31
0.0
  0
LINE
  5
4FD
330
1F
100
AcDbEntity
  8
Object
100
AcDbLine
 10
2.069945995840857
 20
8.203821739459584
 30
0.0
 11
2.069945995840857
 21
8.352821739459583
 31
0.0
  0
LINE
  5
4FE
330
1F
100
AcDbEntity
  8
Object
100
AcDbLine
 10
2.069945995840857
 20
8.018821739459584
 30
0.0
 11
2.069945995840857
 21
8.029821739459583
 31
0.0
  0
LINE
  5
4FF
330
1F
100
AcDbEntity
  8
Object
100
AcDbLine
 10
2.069945995840857
 20
8.029821739459583
 30
0.0
 11
2.069945995840857
 21
8.033821739459583
 31
0.0
  0
LINE
  5
500
330
1F
100
AcDbEntity
  8
Object
100
AcDbLine
 10
2.069945995840857
 20
8.033821739459583
 30
0.0
 11
2.069945995840857
 21
8.040821739459584
 31
0.0
  0
LINE
  5
501
330
1F
100
AcDbEntity
  8
Object
100
AcDbLine
 10
2.069945995840857
 20
8.040821739459584
 30
0.0
 11
2.069945995840857
 21
8.061821739459583
 31
0.0
  0
LINE
  5
502
330
1F
100
AcDbEntity
  8
Object
100
AcDbLine
 10
2.069945995840857
 20
8.061821739459583
 30
0.0
 11
2.069945995840857
 21
8.090821739459583
 31
0.0
  0
LINE
  5
503
330
1F
100
AcDbEntity
  8
Object
100
AcDbLine
 10
2.069945995840857
 20
8.090821739459583
 30
0.0
 11
2.069945995840857
 21
8.101821739459584
 31
0.0
  0
LINE
  5
504
330
1F
100
AcDbEntity
  8
Object
100
AcDbLine
 10
2.069945995840857
 20
8.101821739459584
 30
0.0
 11
2.069945995840857
 21
8.120821739459582
 31
0.0
  0
LINE
  5
505
330
1F
100
AcDbEntity
  8
Object
100
AcDbLine
 10
2.069945995840857
 20
8.120821739459582
 30
0.0
 11
2.069945995840857
 21
8.137821739459583
 31
0.0
  0
LINE
  5
506
330
1F
100
AcDbEntity
  8
Object
100
AcDbLine
 10
2.069945995840857
 20
8.137821739459583
 30
0.0
 11
2.069945995840857
 21
8.149821739459582
 31
0.0
  0
LINE
  5
507
330
1F
100
AcDbEntity
  8
Object
100
AcDbLine
 10
2.069945995840857
 20
8.149821739459582
 30
0.0
 11
2.069945995840857
 21
8.203821739459584
 31
0.0
  0
LINE
  5
508
330
1F
100
AcDbEntity
  8
Object
100
AcDbLine
 10
2.069945995840857
 20
4.775821739459583
 30
0.0
 11
2.069945995840857
 21
8.003821739459583
 31
0.0
  0
LINE
  5
509
330
1F
100
AcDbEntity
  8
Object
100
AcDbLine
 10
2.069945995840857
 20
4.748821739459583
 30
0.0
 11
2.069945995840857
 21
4.760821739459583
 31
0.0
  0
LINE
  5
50A
330
1F
100
AcDbEntity
  8
Object
100
AcDbLine
 10
2.069945995840857
 20
4.502821739459584
 30
0.0
 11
2.069945995840857
 21
4.744821739459583
 31
0.0
  0
LINE
  5
50B
330
1F
100
AcDbEntity
  8
Object
100
AcDbLine
 10
2.069945995840857
 20
4.744821739459583
 30
0.0
 11
2.069945995840857
 21
4.748821739459583
 31
0.0
  0
LINE
  5
50C
330
1F
100
AcDbEntity
  8
Object
100
AcDbLine
 10
5.854945995840857
 20
4.760821739459583
 30
0.0
 11
5.854945995840857
 21
4.748821739459583
 31
0.0
  0
LINE
  5
50D
330
1F
100
AcDbEntity
  8
Object
100
AcDbLine
 10
5.854945995840857
 20
8.003821739459583
 30
0.0
 11
5.854945995840857
 21
4.775821739459583
 31
0.0
  0
LINE
  5
50E
330
1F
100
AcDbEntity
  8
Object
100
AcDbLine
 10
5.854945995840857
 20
8.352821739459583
 30
0.0
 11
5.854945995840857
 21
8.203821739459584
 31
0.0
  0
LINE
  5
50F
330
1F
100
AcDbEntity
  8
Object
100
AcDbLine
 10
5.854945995840857
 20
8.203821739459584
 30
0.0
 11
5.854945995840857
 21
8.149821739459582
 31
0.0
  0
LINE
  5
510
330
1F
100
AcDbEntity
  8
Object
100
AcDbLine
 10
5.854945995840857
 20
8.149821739459582
 30
0.0
 11
5.854945995840857
 21
8.137821739459583
 31
0.0
  0
LINE
  5
511
330
1F
100
AcDbEntity
  8
Object
100
AcDbLine
 10
5.854945995840857
 20
8.137821739459583
 30
0.0
 11
5.854945995840857
 21
8.120821739459582
 31
0.0
  0
LINE
  5
512
330
1F
100
AcDbEntity
  8
Object
100
AcDbLine
 10
5.854945995840857
 20
8.120821739459582
 30
0.0
 11
5.854945995840857
 21
8.101821739459584
 31
0.0
  0
LINE
  5
513
330
1F
100
AcDbEntity
  8
Object
100
AcDbLine
 10
5.854945995840857
 20
8.101821739459584
 30
0.0
 11
5.854945995840857
 21
8.090821739459583
 31
0.0
  0
LINE
  5
514
330
1F
100
AcDbEntity
  8
Object
100
AcDbLine
 10
5.854945995840857
 20
8.090821739459583
 30
0.0
 11
5.854945995840857
 21
8.061821739459583
 31
0.0
  0
LINE
  5
515
330
1F
100
AcDbEntity
  8
Object
100
AcDbLine
 10
5.854945995840857
 20
8.061821739459583
 30
0.0
 11
5.854945995840857
 21
8.040821739459584
 31
0.0
  0
LINE
  5
516
330
1F
100
AcDbEntity
  8
Object
100
AcDbLine
 10
5.854945995840857
 20
8.040821739459584
 30
0.0
 11
5.854945995840857
 21
8.033821739459583
 31
0.0
  0
LINE
  5
517
330
1F
100
AcDbEntity
  8
Object
100
AcDbLine
 10
5.854945995840857
 20
8.033821739459583
 30
0.0
 11
5.854945995840857
 21
8.029821739459583
 31
0.0
  0
LINE
  5
518
330
1F
100
AcDbEntity
  8
Object
100
AcDbLine
 10
5.854945995840857
 20
8.029821739459583
 30
0.0
 11
5.854945995840857
 21
8.018821739459584
 31
0.0
  0
LINE
  5
519
330
1F
100
AcDbEntity
  8
Object
100
AcDbLine
 10
5.854945995840857
 20
8.018821739459584
 30
0.0
 11
5.854945995840857
 21
8.003821739459583
 31
0.0
  0
LINE
  5
51A
330
1F
100
AcDbEntity
  8
Object
100
AcDbLine
 10
5.854945995840857
 20
4.775821739459583
 30
0.0
 11
5.854945995840857
 21
4.760821739459583
 31
0.0
  0
LINE
  5
51B
330
1F
100
AcDbEntity
  8
Object
100
AcDbLine
 10
5.854945995840857
 20
4.748821739459583
 30
0.0
 11
5.854945995840857
 21
4.744821739459583
 31
0.0
  0
LINE
  5
51C
330
1F
100
AcDbEntity
  8
Object
100
AcDbLine
 10
5.854945995840857
 20
4.744821739459583
 30
0.0
 11
5.854945995840857
 21
4.502821739459584
 31
0.0
  0
LINE
  5
51D
330
1F
100
AcDbEntity
  8
Object
100
AcDbLine
 10
5.978945995840856
 20
4.502821739459584
 30
0.0
 11
5.973945995840857
 21
4.503821739459583
 31
0.0
  0
LINE
  5
51E
330
1F
100
AcDbEntity
  8
Object
100
AcDbLine
 10
5.973945995840857
 20
4.503821739459583
 30
0.0
 11
5.970945995840857
 21
4.507821739459583
 31
0.0
  0
LINE
  5
51F
330
1F
100
AcDbEntity
  8
Object
100
AcDbLine
 10
5.970945995840857
 20
4.507821739459583
 30
0.0
 11
5.969945995840856
 21
4.512821739459583
 31
0.0
  0
LINE
  5
520
330
1F
100
AcDbEntity
  8
Object
100
AcDbLine
 10
1.954945995840857
 20
4.512821739459583
 30
0.0
 11
1.952945995840856
 21
4.507821739459583
 31
0.0
  0
LINE
  5
521
330
1F
100
AcDbEntity
  8
Object
100
AcDbLine
 10
1.952945995840856
 20
4.507821739459583
 30
0.0
 11
1.949945995840856
 21
4.503821739459583
 31
0.0
  0
LINE
  5
522
330
1F
100
AcDbEntity
  8
Object
100
AcDbLine
 10
1.949945995840856
 20
4.503821739459583
 30
0.0
 11
1.944945995840857
 21
4.502821739459584
 31
0.0
  0
LINE
  5
523
330
1F
100
AcDbEntity
  8
Object
100
AcDbLine
 10
1.954945995840857
 20
8.033821739459583
 30
0.0
 11
1.954945995840857
 21
8.029821739459583
 31
0.0
  0
LINE
  5
524
330
1F
100
AcDbEntity
  8
Object
100
AcDbLine
 10
1.954945995840857
 20
8.203821739459584
 30
0.0
 11
1.954945995840857
 21
8.149821739459582
 31
0.0
  0
LINE
  5
525
330
1F
100
AcDbEntity
  8
Object
100
AcDbLine
 10
1.954945995840857
 20
4.760821739459583
 30
0.0
 11
1.954945995840857
 21
4.748821739459583
 31
0.0
  0
LINE
  5
526
330
1F
100
AcDbEntity
  8
Object
100
AcDbLine
 10
1.954945995840857
 20
8.120821739459582
 30
0.0
 11
1.954945995840857
 21
8.101821739459584
 31
0.0
  0
LINE
  5
527
330
1F
100
AcDbEntity
  8
Object
100
AcDbLine
 10
1.954945995840857
 20
8.101821739459584
 30
0.0
 11
1.954945995840857
 21
8.090821739459583
 31
0.0
  0
LINE
  5
528
330
1F
100
AcDbEntity
  8
Object
100
AcDbLine
 10
1.954945995840857
 20
8.090821739459583
 30
0.0
 11
1.954945995840857
 21
8.061821739459583
 31
0.0
  0
LINE
  5
529
330
1F
100
AcDbEntity
  8
Object
100
AcDbLine
 10
1.954945995840857
 20
8.033821739459583
 30
0.0
 11
1.954945995840857
 21
8.040821739459584
 31
0.0
  0
LINE
  5
52A
330
1F
100
AcDbEntity
  8
Object
100
AcDbLine
 10
1.954945995840857
 20
8.040821739459584
 30
0.0
 11
1.954945995840857
 21
8.061821739459583
 31
0.0
  0
LINE
  5
52B
330
1F
100
AcDbEntity
  8
Object
100
AcDbLine
 10
1.954945995840857
 20
8.029821739459583
 30
0.0
 11
1.954945995840857
 21
8.018821739459584
 31
0.0
  0
LINE
  5
52C
330
1F
100
AcDbEntity
  8
Object
100
AcDbLine
 10
1.954945995840857
 20
8.018821739459584
 30
0.0
 11
1.954945995840857
 21
8.003821739459583
 31
0.0
  0
LINE
  5
52D
330
1F
100
AcDbEntity
  8
Object
100
AcDbLine
 10
1.954945995840857
 20
4.775821739459583
 30
0.0
 11
1.954945995840857
 21
4.760821739459583
 31
0.0
  0
LINE
  5
52E
330
1F
100
AcDbEntity
  8
Object
100
AcDbLine
 10
1.954945995840857
 20
4.748821739459583
 30
0.0
 11
1.954945995840857
 21
4.744821739459583
 31
0.0
  0
LINE
  5
52F
330
1F
100
AcDbEntity
  8
Object
100
AcDbLine
 10
1.954945995840857
 20
4.744821739459583
 30
0.0
 11
1.954945995840857
 21
4.512821739459583
 31
0.0
  0
LINE
  5
530
330
1F
100
AcDbEntity
  8
Object
100
AcDbLine
 10
1.954945995840857
 20
8.243821739459583
 30
0.0
 11
1.954945995840857
 21
8.203821739459584
 31
0.0
  0
LINE
  5
531
330
1F
100
AcDbEntity
  8
Object
100
AcDbLine
 10
1.954945995840857
 20
8.120821739459582
 30
0.0
 11
1.954945995840857
 21
8.137821739459583
 31
0.0
  0
LINE
  5
532
330
1F
100
AcDbEntity
  8
Object
100
AcDbLine
 10
1.954945995840857
 20
8.137821739459583
 30
0.0
 11
1.954945995840857
 21
8.149821739459582
 31
0.0
  0
LINE
  5
533
330
1F
100
AcDbEntity
  8
Object
100
AcDbLine
 10
1.954945995840857
 20
8.003821739459583
 30
0.0
 11
1.954945995840857
 21
4.775821739459583
 31
0.0
  0
LINE
  5
534
330
1F
100
AcDbEntity
  8
Object
100
AcDbLine
 10
5.969945995840856
 20
8.040821739459584
 30
0.0
 11
5.969945995840856
 21
8.061821739459583
 31
0.0
  0
LINE
  5
535
330
1F
100
AcDbEntity
  8
Object
100
AcDbLine
 10
5.969945995840856
 20
4.748821739459583
 30
0.0
 11
5.969945995840856
 21
4.760821739459583
 31
0.0
  0
LINE
  5
536
330
1F
100
AcDbEntity
  8
Object
100
AcDbLine
 10
5.969945995840856
 20
4.775821739459583
 30
0.0
 11
5.969945995840856
 21
8.003821739459583
 31
0.0
  0
LINE
  5
537
330
1F
100
AcDbEntity
  8
Object
100
AcDbLine
 10
5.969945995840856
 20
4.512821739459583
 30
0.0
 11
5.969945995840856
 21
4.744821739459583
 31
0.0
  0
LINE
  5
538
330
1F
100
AcDbEntity
  8
Object
100
AcDbLine
 10
5.969945995840856
 20
4.744821739459583
 30
0.0
 11
5.969945995840856
 21
4.748821739459583
 31
0.0
  0
LINE
  5
539
330
1F
100
AcDbEntity
  8
Object
100
AcDbLine
 10
5.969945995840856
 20
4.760821739459583
 30
0.0
 11
5.969945995840856
 21
4.775821739459583
 31
0.0
  0
LINE
  5
53A
330
1F
100
AcDbEntity
  8
Object
100
AcDbLine
 10
5.969945995840856
 20
8.003821739459583
 30
0.0
 11
5.969945995840856
 21
8.018821739459584
 31
0.0
  0
LINE
  5
53B
330
1F
100
AcDbEntity
  8
Object
100
AcDbLine
 10
5.969945995840856
 20
8.018821739459584
 30
0.0
 11
5.969945995840856
 21
8.029821739459583
 31
0.0
  0
LINE
  5
53C
330
1F
100
AcDbEntity
  8
Object
100
AcDbLine
 10
5.969945995840856
 20
8.033821739459583
 30
0.0
 11
5.969945995840856
 21
8.040821739459584
 31
0.0
  0
LINE
  5
53D
330
1F
100
AcDbEntity
  8
Object
100
AcDbLine
 10
5.969945995840856
 20
8.061821739459583
 30
0.0
 11
5.969945995840856
 21
8.090821739459583
 31
0.0
  0
LINE
  5
53E
330
1F
100
AcDbEntity
  8
Object
100
AcDbLine
 10
5.969945995840856
 20
8.090821739459583
 30
0.0
 11
5.969945995840856
 21
8.101821739459584
 31
0.0
  0
LINE
  5
53F
330
1F
100
AcDbEntity
  8
Object
100
AcDbLine
 10
5.969945995840856
 20
8.101821739459584
 30
0.0
 11
5.969945995840856
 21
8.120821739459582
 31
0.0
  0
LINE
  5
540
330
1F
100
AcDbEntity
  8
Object
100
AcDbLine
 10
5.969945995840856
 20
8.120821739459582
 30
0.0
 11
5.969945995840856
 21
8.137821739459583
 31
0.0
  0
LINE
  5
541
330
1F
100
AcDbEntity
  8
Object
100
AcDbLine
 10
5.969945995840856
 20
8.137821739459583
 30
0.0
 11
5.969945995840856
 21
8.149821739459582
 31
0.0
  0
LINE
  5
542
330
1F
100
AcDbEntity
  8
Object
100
AcDbLine
 10
5.969945995840856
 20
8.029821739459583
 30
0.0
 11
5.969945995840856
 21
8.033821739459583
 31
0.0
  0
LINE
  5
543
330
1F
100
AcDbEntity
  8
Object
100
AcDbLine
 10
5.969945995840856
 20
8.149821739459582
 30
0.0
 11
5.969945995840856
 21
8.203821739459584
 31
0.0
  0
LINE
  5
544
330
1F
100
AcDbEntity
  8
Object
100
AcDbLine
 10
5.969945995840856
 20
8.203821739459584
 30
0.0
 11
5.969945995840856
 21
8.243821739459583
 31
0.0
  0
LINE
  5
545
330
1F
100
AcDbEntity
  8
Object
100
AcDbLine
 10
5.969945995840856
 20
4.744821739459583
 30
0.0
 11
5.854945995840857
 21
4.744821739459583
 31
0.0
  0
LINE
  5
546
330
1F
100
AcDbEntity
  8
Object
100
AcDbLine
 10
2.069945995840857
 20
4.744821739459583
 30
0.0
 11
1.954945995840857
 21
4.744821739459583
 31
0.0
  0
LINE
  5
547
330
1F
100
AcDbEntity
  8
Object
100
AcDbLine
 10
2.069945995840857
 20
8.018821739459584
 30
0.0
 11
2.069945995840857
 21
8.029821739459583
 31
0.0
  0
LINE
  5
548
330
1F
100
AcDbEntity
  8
Object
100
AcDbLine
 10
1.954945995840857
 20
8.033821739459583
 30
0.0
 11
1.954945995840857
 21
8.029821739459583
 31
0.0
  0
LINE
  5
549
330
1F
100
AcDbEntity
  8
Object
100
AcDbLine
 10
2.069945995840857
 20
8.029821739459583
 30
0.0
 11
2.069945995840857
 21
8.033821739459583
 31
0.0
  0
LINE
  5
54A
330
1F
100
AcDbEntity
  8
Object
100
AcDbLine
 10
1.954945995840857
 20
8.029821739459583
 30
0.0
 11
1.954945995840857
 21
8.018821739459584
 31
0.0
  0
LINE
  5
54B
330
1F
100
AcDbEntity
  8
Object
100
AcDbLine
 10
2.069945995840857
 20
8.003821739459583
 30
0.0
 11
2.069945995840857
 21
8.018821739459584
 31
0.0
  0
LINE
  5
54C
330
1F
100
AcDbEntity
  8
Object
100
AcDbLine
 10
1.954945995840857
 20
8.018821739459584
 30
0.0
 11
1.954945995840857
 21
8.003821739459583
 31
0.0
  0
LINE
  5
54D
330
1F
100
AcDbEntity
  8
Object
100
AcDbLine
 10
2.039945995840856
 20
8.382821739459583
 30
0.0
 11
2.054945995840856
 21
8.378821739459583
 31
0.0
  0
LINE
  5
54E
330
1F
100
AcDbEntity
  8
Object
100
AcDbLine
 10
2.054945995840856
 20
8.378821739459583
 30
0.0
 11
2.065945995840857
 21
8.367821739459582
 31
0.0
  0
LINE
  5
54F
330
1F
100
AcDbEntity
  8
Object
100
AcDbLine
 10
2.039945995840856
 20
8.382821739459583
 30
0.0
 11
2.037945995840857
 21
8.382821739459583
 31
0.0
  0
LINE
  5
550
330
1F
100
AcDbEntity
  8
Object
100
AcDbLine
 10
2.037945995840857
 20
8.382821739459583
 30
0.0
 11
2.036945995840856
 21
8.382821739459583
 31
0.0
  0
LINE
  5
551
330
1F
100
AcDbEntity
  8
Object
100
AcDbLine
 10
2.036945995840856
 20
8.382821739459583
 30
0.0
 11
2.034945995840857
 21
8.382821739459583
 31
0.0
  0
LINE
  5
552
330
1F
100
AcDbEntity
  8
Object
100
AcDbLine
 10
2.069945995840857
 20
8.352821739459583
 30
0.0
 11
2.065945995840857
 21
8.367821739459582
 31
0.0
  0
LINE
  5
553
330
1F
100
AcDbEntity
  8
Object
100
AcDbLine
 10
2.069945995840857
 20
8.203821739459584
 30
0.0
 11
1.954945995840857
 21
8.203821739459584
 31
0.0
  0
LINE
  5
554
330
1F
100
AcDbEntity
  8
Object
100
AcDbLine
 10
1.954945995840857
 20
8.203821739459584
 30
0.0
 11
1.954945995840857
 21
8.243821739459583
 31
0.0
  0
LINE
  5
555
330
1F
100
AcDbEntity
  8
Object
100
AcDbLine
 10
2.069945995840857
 20
8.203821739459584
 30
0.0
 11
2.069945995840857
 21
8.352821739459583
 31
0.0
  0
LINE
  5
556
330
1F
100
AcDbEntity
  8
Object
100
AcDbLine
 10
1.954945995840857
 20
8.243821739459583
 30
0.0
 11
1.952945995840856
 21
8.248821739459582
 31
0.0
  0
LINE
  5
557
330
1F
100
AcDbEntity
  8
Object
100
AcDbLine
 10
1.952945995840856
 20
8.248821739459582
 30
0.0
 11
1.949945995840856
 21
8.251821739459582
 31
0.0
  0
LINE
  5
558
330
1F
100
AcDbEntity
  8
Object
100
AcDbLine
 10
1.949945995840856
 20
8.251821739459582
 30
0.0
 11
1.944945995840857
 21
8.253821739459583
 31
0.0
  0
LINE
  5
559
330
1F
100
AcDbEntity
  8
Object
100
AcDbLine
 10
1.944945995840857
 20
8.253821739459583
 30
0.0
 11
1.943945995840856
 21
8.253821739459583
 31
0.0
  0
LINE
  5
55A
330
1F
100
AcDbEntity
  8
Object
100
AcDbLine
 10
1.943945995840856
 20
8.253821739459583
 30
0.0
 11
1.942945995840856
 21
8.253821739459583
 31
0.0
  0
LINE
  5
55B
330
1F
100
AcDbEntity
  8
Object
100
AcDbLine
 10
2.034945995840857
 20
8.382821739459583
 30
0.0
 11
1.847945995840857
 21
8.355821739459583
 31
0.0
  0
LINE
  5
55C
330
1F
100
AcDbEntity
  8
Object
100
AcDbLine
 10
1.850945995840856
 20
8.240821739459583
 30
0.0
 11
1.846945995840856
 21
8.240821739459583
 31
0.0
  0
LINE
  5
55D
330
1F
100
AcDbEntity
  8
Object
100
AcDbLine
 10
1.846945995840856
 20
8.240821739459583
 30
0.0
 11
1.842945995840857
 21
8.242821739459582
 31
0.0
  0
LINE
  5
55E
330
1F
100
AcDbEntity
  8
Object
100
AcDbLine
 10
1.842945995840857
 20
8.242821739459582
 30
0.0
 11
1.840945995840856
 21
8.245821739459582
 31
0.0
  0
LINE
  5
55F
330
1F
100
AcDbEntity
  8
Object
100
AcDbLine
 10
1.840945995840856
 20
8.350821739459583
 30
0.0
 11
1.843945995840856
 21
8.354821739459584
 31
0.0
  0
LINE
  5
560
330
1F
100
AcDbEntity
  8
Object
100
AcDbLine
 10
1.843945995840856
 20
8.354821739459584
 30
0.0
 11
1.847945995840857
 21
8.355821739459583
 31
0.0
  0
LINE
  5
561
330
1F
100
AcDbEntity
  8
Object
100
AcDbLine
 10
1.839945995840857
 20
8.345821739459584
 30
0.0
 11
1.839945995840857
 21
8.250821739459583
 31
0.0
  0
LINE
  5
562
330
1F
100
AcDbEntity
  8
Object
100
AcDbLine
 10
1.850945995840856
 20
8.240821739459583
 30
0.0
 11
1.942945995840856
 21
8.253821739459583
 31
0.0
  0
LINE
  5
563
330
1F
100
AcDbEntity
  8
Object
100
AcDbLine
 10
1.839945995840857
 20
8.250821739459583
 30
0.0
 11
1.840945995840856
 21
8.245821739459582
 31
0.0
  0
LINE
  5
564
330
1F
100
AcDbEntity
  8
Object
100
AcDbLine
 10
1.840945995840856
 20
8.350821739459583
 30
0.0
 11
1.839945995840857
 21
8.345821739459584
 31
0.0
  0
LINE
  5
565
330
1F
100
AcDbEntity
  8
Object
100
AcDbLine
 10
2.069945995840857
 20
4.748821739459583
 30
0.0
 11
2.069945995840857
 21
4.760821739459583
 31
0.0
  0
LINE
  5
566
330
1F
100
AcDbEntity
  8
Object
100
AcDbLine
 10
1.954945995840857
 20
4.760821739459583
 30
0.0
 11
1.954945995840857
 21
4.775821739459583
 31
0.0
  0
LINE
  5
567
330
1F
100
AcDbEntity
  8
Object
100
AcDbLine
 10
1.954945995840857
 20
4.775821739459583
 30
0.0
 11
2.069945995840857
 21
4.775821739459583
 31
0.0
  0
LINE
  5
568
330
1F
100
AcDbEntity
  8
Object
100
AcDbLine
 10
2.069945995840857
 20
4.775821739459583
 30
0.0
 11
2.069945995840857
 21
4.760821739459583
 31
0.0
  0
LINE
  5
569
330
1F
100
AcDbEntity
  8
Object
100
AcDbLine
 10
1.954945995840857
 20
4.760821739459583
 30
0.0
 11
1.954945995840857
 21
4.748821739459583
 31
0.0
  0
LINE
  5
56A
330
1F
100
AcDbEntity
  8
Object
100
AcDbLine
 10
2.069945995840857
 20
4.744821739459583
 30
0.0
 11
2.069945995840857
 21
4.748821739459583
 31
0.0
  0
LINE
  5
56B
330
1F
100
AcDbEntity
  8
Object
100
AcDbLine
 10
1.954945995840857
 20
4.748821739459583
 30
0.0
 11
1.954945995840857
 21
4.744821739459583
 31
0.0
  0
LINE
  5
56C
330
1F
100
AcDbEntity
  8
Object
100
AcDbLine
 10
2.069945995840857
 20
8.352821739459583
 30
0.0
 11
2.065945995840857
 21
8.367821739459582
 31
0.0
  0
LINE
  5
56D
330
1F
100
AcDbEntity
  8
Object
100
AcDbLine
 10
2.065945995840857
 20
8.367821739459582
 30
0.0
 11
2.054945995840856
 21
8.378821739459583
 31
0.0
  0
LINE
  5
56E
330
1F
100
AcDbEntity
  8
Object
100
AcDbLine
 10
2.054945995840856
 20
8.378821739459583
 30
0.0
 11
2.039945995840856
 21
8.382821739459583
 31
0.0
  0
LINE
  5
56F
330
1F
100
AcDbEntity
  8
Object
100
AcDbLine
 10
2.069945995840857
 20
8.040821739459584
 30
0.0
 11
2.069945995840857
 21
8.061821739459583
 31
0.0
  0
LINE
  5
570
330
1F
100
AcDbEntity
  8
Object
100
AcDbLine
 10
1.954945995840857
 20
8.040821739459584
 30
0.0
 11
1.954945995840857
 21
8.061821739459583
 31
0.0
  0
LINE
  5
571
330
1F
100
AcDbEntity
  8
Object
100
AcDbLine
 10
1.954945995840857
 20
8.061821739459583
 30
0.0
 11
1.954945995840857
 21
8.090821739459583
 31
0.0
  0
LINE
  5
572
330
1F
100
AcDbEntity
  8
Object
100
AcDbLine
 10
1.954945995840857
 20
8.090821739459583
 30
0.0
 11
2.069945995840857
 21
8.090821739459583
 31
0.0
  0
LINE
  5
573
330
1F
100
AcDbEntity
  8
Object
100
AcDbLine
 10
2.069945995840857
 20
8.090821739459583
 30
0.0
 11
2.069945995840857
 21
8.061821739459583
 31
0.0
  0
LINE
  5
574
330
1F
100
AcDbEntity
  8
Object
100
AcDbLine
 10
1.954945995840857
 20
8.040821739459584
 30
0.0
 11
1.954945995840857
 21
8.033821739459583
 31
0.0
  0
LINE
  5
575
330
1F
100
AcDbEntity
  8
Object
100
AcDbLine
 10
2.069945995840857
 20
8.040821739459584
 30
0.0
 11
2.069945995840857
 21
8.033821739459583
 31
0.0
  0
LINE
  5
576
330
1F
100
AcDbEntity
  8
Object
100
AcDbLine
 10
2.069945995840857
 20
8.033821739459583
 30
0.0
 11
1.954945995840857
 21
8.033821739459583
 31
0.0
  0
LINE
  5
577
330
1F
100
AcDbEntity
  8
Object
100
AcDbLine
 10
1.954945995840857
 20
8.033821739459583
 30
0.0
 11
2.069945995840857
 21
8.033821739459583
 31
0.0
  0
LINE
  5
578
330
1F
100
AcDbEntity
  8
Object
100
AcDbLine
 10
1.954945995840857
 20
8.101821739459584
 30
0.0
 11
1.954945995840857
 21
8.120821739459582
 31
0.0
  0
LINE
  5
579
330
1F
100
AcDbEntity
  8
Object
100
AcDbLine
 10
1.954945995840857
 20
8.120821739459582
 30
0.0
 11
1.954945995840857
 21
8.137821739459583
 31
0.0
  0
LINE
  5
57A
330
1F
100
AcDbEntity
  8
Object
100
AcDbLine
 10
1.954945995840857
 20
8.137821739459583
 30
0.0
 11
1.954945995840857
 21
8.149821739459582
 31
0.0
  0
LINE
  5
57B
330
1F
100
AcDbEntity
  8
Object
100
AcDbLine
 10
1.954945995840857
 20
8.149821739459582
 30
0.0
 11
2.069945995840857
 21
8.149821739459582
 31
0.0
  0
LINE
  5
57C
330
1F
100
AcDbEntity
  8
Object
100
AcDbLine
 10
2.069945995840857
 20
8.149821739459582
 30
0.0
 11
2.069945995840857
 21
8.137821739459583
 31
0.0
  0
LINE
  5
57D
330
1F
100
AcDbEntity
  8
Object
100
AcDbLine
 10
2.069945995840857
 20
8.137821739459583
 30
0.0
 11
2.069945995840857
 21
8.120821739459582
 31
0.0
  0
LINE
  5
57E
330
1F
100
AcDbEntity
  8
Object
100
AcDbLine
 10
2.069945995840857
 20
8.120821739459582
 30
0.0
 11
2.069945995840857
 21
8.101821739459584
 31
0.0
  0
LINE
  5
57F
330
1F
100
AcDbEntity
  8
Object
100
AcDbLine
 10
2.069945995840857
 20
8.101821739459584
 30
0.0
 11
2.069945995840857
 21
8.090821739459583
 31
0.0
  0
LINE
  5
580
330
1F
100
AcDbEntity
  8
Object
100
AcDbLine
 10
1.954945995840857
 20
8.090821739459583
 30
0.0
 11
1.954945995840857
 21
8.101821739459584
 31
0.0
  0
LINE
  5
581
330
1F
100
AcDbEntity
  8
Object
100
AcDbLine
 10
1.954945995840857
 20
8.101821739459584
 30
0.0
 11
2.069945995840857
 21
8.101821739459584
 31
0.0
  0
LINE
  5
582
330
1F
100
AcDbEntity
  8
Object
100
AcDbLine
 10
1.954945995840857
 20
8.203821739459584
 30
0.0
 11
1.954945995840857
 21
8.149821739459582
 31
0.0
  0
LINE
  5
583
330
1F
100
AcDbEntity
  8
Object
100
AcDbLine
 10
2.069945995840857
 20
8.149821739459582
 30
0.0
 11
2.069945995840857
 21
8.203821739459584
 31
0.0
  0
LINE
  5
584
102
{ACAD_REACTORS
330
6DA
102
}
330
1F
100
AcDbEntity
  8
Object
100
AcDbLine
 10
1.954945995840857
 20
4.775821739459583
 30
0.0
 11
1.954945995840857
 21
8.003821739459583
 31
0.0
  0
LINE
  5
585
330
1F
100
AcDbEntity
  8
Object
100
AcDbLine
 10
1.954945995840857
 20
8.003821739459583
 30
0.0
 11
2.069945995840857
 21
8.003821739459583
 31
0.0
  0
LINE
  5
586
102
{ACAD_REACTORS
330
6DA
102
}
330
1F
100
AcDbEntity
  8
Object
100
AcDbLine
 10
2.069945995840857
 20
8.003821739459583
 30
0.0
 11
2.069945995840857
 21
4.775821739459583
 31
0.0
  0
LINE
  5
587
330
1F
100
AcDbEntity
  8
Object
100
AcDbLine
 10
5.854945995840857
 20
8.149821739459582
 30
0.0
 11
5.854945995840857
 21
8.203821739459584
 31
0.0
  0
LINE
  5
588
330
1F
100
AcDbEntity
  8
Object
100
AcDbLine
 10
5.854945995840857
 20
8.203821739459584
 30
0.0
 11
5.969945995840856
 21
8.203821739459584
 31
0.0
  0
LINE
  5
589
330
1F
100
AcDbEntity
  8
Object
100
AcDbLine
 10
5.969945995840856
 20
8.203821739459584
 30
0.0
 11
5.969945995840856
 21
8.149821739459582
 31
0.0
  0
LINE
  5
58A
330
1F
100
AcDbEntity
  8
Object
100
AcDbLine
 10
5.969945995840856
 20
8.149821739459582
 30
0.0
 11
5.854945995840857
 21
8.149821739459582
 31
0.0
  0
LINE
  5
58B
330
1F
100
AcDbEntity
  8
Object
100
AcDbLine
 10
5.884945995840856
 20
8.382821739459583
 30
0.0
 11
5.869945995840858
 21
8.378821739459583
 31
0.0
  0
LINE
  5
58C
330
1F
100
AcDbEntity
  8
Object
100
AcDbLine
 10
5.869945995840858
 20
8.378821739459583
 30
0.0
 11
5.858945995840857
 21
8.367821739459582
 31
0.0
  0
LINE
  5
58D
330
1F
100
AcDbEntity
  8
Object
100
AcDbLine
 10
5.858945995840857
 20
8.367821739459582
 30
0.0
 11
5.854945995840857
 21
8.352821739459583
 31
0.0
  0
LINE
  5
58E
330
1F
100
AcDbEntity
  8
Object
100
AcDbLine
 10
5.854945995840857
 20
8.101821739459584
 30
0.0
 11
5.854945995840857
 21
8.120821739459582
 31
0.0
  0
LINE
  5
58F
330
1F
100
AcDbEntity
  8
Object
100
AcDbLine
 10
5.854945995840857
 20
8.120821739459582
 30
0.0
 11
5.854945995840857
 21
8.137821739459583
 31
0.0
  0
LINE
  5
590
330
1F
100
AcDbEntity
  8
Object
100
AcDbLine
 10
5.854945995840857
 20
8.137821739459583
 30
0.0
 11
5.854945995840857
 21
8.149821739459582
 31
0.0
  0
LINE
  5
591
330
1F
100
AcDbEntity
  8
Object
100
AcDbLine
 10
5.969945995840856
 20
8.149821739459582
 30
0.0
 11
5.969945995840856
 21
8.137821739459583
 31
0.0
  0
LINE
  5
592
330
1F
100
AcDbEntity
  8
Object
100
AcDbLine
 10
5.969945995840856
 20
8.137821739459583
 30
0.0
 11
5.969945995840856
 21
8.120821739459582
 31
0.0
  0
LINE
  5
593
330
1F
100
AcDbEntity
  8
Object
100
AcDbLine
 10
5.969945995840856
 20
8.120821739459582
 30
0.0
 11
5.969945995840856
 21
8.101821739459584
 31
0.0
  0
LINE
  5
594
330
1F
100
AcDbEntity
  8
Object
100
AcDbLine
 10
5.854945995840857
 20
8.033821739459583
 30
0.0
 11
5.969945995840856
 21
8.033821739459583
 31
0.0
  0
LINE
  5
595
330
1F
100
AcDbEntity
  8
Object
100
AcDbLine
 10
5.969945995840856
 20
4.748821739459583
 30
0.0
 11
5.969945995840856
 21
4.760821739459583
 31
0.0
  0
LINE
  5
596
330
1F
100
AcDbEntity
  8
Object
100
AcDbLine
 10
5.854945995840857
 20
4.760821739459583
 30
0.0
 11
5.854945995840857
 21
4.775821739459583
 31
0.0
  0
LINE
  5
597
330
1F
100
AcDbEntity
  8
Object
100
AcDbLine
 10
5.854945995840857
 20
4.775821739459583
 30
0.0
 11
5.969945995840856
 21
4.775821739459583
 31
0.0
  0
LINE
  5
598
330
1F
100
AcDbEntity
  8
Object
100
AcDbLine
 10
5.969945995840856
 20
4.775821739459583
 30
0.0
 11
5.969945995840856
 21
4.760821739459583
 31
0.0
  0
LINE
  5
599
330
1F
100
AcDbEntity
  8
Object
100
AcDbLine
 10
5.854945995840857
 20
4.760821739459583
 30
0.0
 11
5.854945995840857
 21
4.748821739459583
 31
0.0
  0
LINE
  5
59A
330
1F
100
AcDbEntity
  8
Object
100
AcDbLine
 10
5.969945995840856
 20
4.744821739459583
 30
0.0
 11
5.969945995840856
 21
4.748821739459583
 31
0.0
  0
LINE
  5
59B
330
1F
100
AcDbEntity
  8
Object
100
AcDbLine
 10
5.854945995840857
 20
4.748821739459583
 30
0.0
 11
5.854945995840857
 21
4.744821739459583
 31
0.0
  0
LINE
  5
59C
330
1F
100
AcDbEntity
  8
Object
100
AcDbLine
 10
5.969945995840856
 20
8.040821739459584
 30
0.0
 11
5.969945995840856
 21
8.061821739459583
 31
0.0
  0
LINE
  5
59D
330
1F
100
AcDbEntity
  8
Object
100
AcDbLine
 10
5.854945995840857
 20
8.040821739459584
 30
0.0
 11
5.854945995840857
 21
8.061821739459583
 31
0.0
  0
LINE
  5
59E
330
1F
100
AcDbEntity
  8
Object
100
AcDbLine
 10
5.854945995840857
 20
8.061821739459583
 30
0.0
 11
5.854945995840857
 21
8.090821739459583
 31
0.0
  0
LINE
  5
59F
330
1F
100
AcDbEntity
  8
Object
100
AcDbLine
 10
5.854945995840857
 20
8.090821739459583
 30
0.0
 11
5.969945995840856
 21
8.090821739459583
 31
0.0
  0
LINE
  5
5A0
330
1F
100
AcDbEntity
  8
Object
100
AcDbLine
 10
5.969945995840856
 20
8.090821739459583
 30
0.0
 11
5.969945995840856
 21
8.061821739459583
 31
0.0
  0
LINE
  5
5A1
330
1F
100
AcDbEntity
  8
Object
100
AcDbLine
 10
5.854945995840857
 20
8.040821739459584
 30
0.0
 11
5.854945995840857
 21
8.033821739459583
 31
0.0
  0
LINE
  5
5A2
330
1F
100
AcDbEntity
  8
Object
100
AcDbLine
 10
5.969945995840856
 20
8.040821739459584
 30
0.0
 11
5.969945995840856
 21
8.033821739459583
 31
0.0
  0
LINE
  5
5A3
330
1F
100
AcDbEntity
  8
Object
100
AcDbLine
 10
5.969945995840856
 20
8.033821739459583
 30
0.0
 11
5.854945995840857
 21
8.033821739459583
 31
0.0
  0
LINE
  5
5A4
330
1F
100
AcDbEntity
  8
Object
100
AcDbLine
 10
5.854945995840857
 20
4.775821739459583
 30
0.0
 11
5.854945995840857
 21
8.003821739459583
 31
0.0
  0
LINE
  5
5A5
330
1F
100
AcDbEntity
  8
Object
100
AcDbLine
 10
5.854945995840857
 20
8.003821739459583
 30
0.0
 11
5.969945995840856
 21
8.003821739459583
 31
0.0
  0
LINE
  5
5A6
330
1F
100
AcDbEntity
  8
Object
100
AcDbLine
 10
5.969945995840856
 20
8.003821739459583
 30
0.0
 11
5.969945995840856
 21
4.775821739459583
 31
0.0
  0
LINE
  5
5A7
330
1F
100
AcDbEntity
  8
Object
100
AcDbLine
 10
6.084945995840858
 20
8.250821739459583
 30
0.0
 11
6.083945995840856
 21
8.245821739459582
 31
0.0
  0
LINE
  5
5A8
330
1F
100
AcDbEntity
  8
Object
100
AcDbLine
 10
6.083945995840856
 20
8.245821739459582
 30
0.0
 11
6.080945995840856
 21
8.242821739459582
 31
0.0
  0
LINE
  5
5A9
330
1F
100
AcDbEntity
  8
Object
100
AcDbLine
 10
6.080945995840856
 20
8.354821739459584
 30
0.0
 11
6.083945995840856
 21
8.350821739459583
 31
0.0
  0
LINE
  5
5AA
330
1F
100
AcDbEntity
  8
Object
100
AcDbLine
 10
6.083945995840856
 20
8.350821739459583
 30
0.0
 11
6.084945995840858
 21
8.345821739459584
 31
0.0
  0
LINE
  5
5AB
330
1F
100
AcDbEntity
  8
Object
100
AcDbLine
 10
6.077945995840856
 20
8.240821739459583
 30
0.0
 11
6.080945995840856
 21
8.242821739459582
 31
0.0
  0
LINE
  5
5AC
330
1F
100
AcDbEntity
  8
Object
100
AcDbLine
 10
6.080945995840856
 20
8.354821739459584
 30
0.0
 11
6.075945995840857
 21
8.355821739459583
 31
0.0
  0
LINE
  5
5AD
330
1F
100
AcDbEntity
  8
Object
100
AcDbLine
 10
6.072945995840857
 20
8.240821739459583
 30
0.0
 11
6.077945995840856
 21
8.240821739459583
 31
0.0
  0
LINE
  5
5AE
330
1F
100
AcDbEntity
  8
Object
100
AcDbLine
 10
6.084945995840858
 20
8.250821739459583
 30
0.0
 11
6.084945995840858
 21
8.345821739459584
 31
0.0
  0
LINE
  5
5AF
330
1F
100
AcDbEntity
  8
Object
100
AcDbLine
 10
6.072945995840857
 20
8.240821739459583
 30
0.0
 11
5.980945995840857
 21
8.253821739459583
 31
0.0
  0
LINE
  5
5B0
330
1F
100
AcDbEntity
  8
Object
100
AcDbLine
 10
5.980945995840857
 20
8.253821739459583
 30
0.0
 11
5.979945995840857
 21
8.253821739459583
 31
0.0
  0
LINE
  5
5B1
330
1F
100
AcDbEntity
  8
Object
100
AcDbLine
 10
6.075945995840857
 20
8.355821739459583
 30
0.0
 11
5.888945995840856
 21
8.382821739459583
 31
0.0
  0
LINE
  5
5B2
330
1F
100
AcDbEntity
  8
Object
100
AcDbLine
 10
5.974945995840856
 20
8.251821739459582
 30
0.0
 11
5.979945995840857
 21
8.253821739459583
 31
0.0
  0
LINE
  5
5B3
330
1F
100
AcDbEntity
  8
Object
100
AcDbLine
 10
5.884945995840856
 20
8.382821739459583
 30
0.0
 11
5.869945995840858
 21
8.378821739459583
 31
0.0
  0
LINE
  5
5B4
330
1F
100
AcDbEntity
  8
Object
100
AcDbLine
 10
5.854945995840857
 20
8.352821739459583
 30
0.0
 11
5.858945995840857
 21
8.367821739459582
 31
0.0
  0
LINE
  5
5B5
330
1F
100
AcDbEntity
  8
Object
100
AcDbLine
 10
5.858945995840857
 20
8.367821739459582
 30
0.0
 11
5.869945995840858
 21
8.378821739459583
 31
0.0
  0
LINE
  5
5B6
330
1F
100
AcDbEntity
  8
Object
100
AcDbLine
 10
5.884945995840856
 20
8.382821739459583
 30
0.0
 11
5.885945995840856
 21
8.382821739459583
 31
0.0
  0
LINE
  5
5B7
330
1F
100
AcDbEntity
  8
Object
100
AcDbLine
 10
5.885945995840856
 20
8.382821739459583
 30
0.0
 11
5.887945995840857
 21
8.382821739459583
 31
0.0
  0
LINE
  5
5B8
330
1F
100
AcDbEntity
  8
Object
100
AcDbLine
 10
5.887945995840857
 20
8.382821739459583
 30
0.0
 11
5.888945995840856
 21
8.382821739459583
 31
0.0
  0
LINE
  5
5B9
330
1F
100
AcDbEntity
  8
Object
100
AcDbLine
 10
5.970945995840857
 20
8.248821739459582
 30
0.0
 11
5.974945995840856
 21
8.251821739459582
 31
0.0
  0
LINE
  5
5BA
330
1F
100
AcDbEntity
  8
Object
100
AcDbLine
 10
5.854945995840857
 20
8.352821739459583
 30
0.0
 11
5.854945995840857
 21
8.203821739459584
 31
0.0
  0
LINE
  5
5BB
330
1F
100
AcDbEntity
  8
Object
100
AcDbLine
 10
5.970945995840857
 20
8.248821739459582
 30
0.0
 11
5.969945995840856
 21
8.243821739459583
 31
0.0
  0
LINE
  5
5BC
330
1F
100
AcDbEntity
  8
Object
100
AcDbLine
 10
5.969945995840856
 20
8.243821739459583
 30
0.0
 11
5.969945995840856
 21
8.203821739459584
 31
0.0
  0
LINE
  5
5BD
330
1F
100
AcDbEntity
  8
Object
100
AcDbLine
 10
5.969945995840856
 20
8.090821739459583
 30
0.0
 11
5.969945995840856
 21
8.101821739459584
 31
0.0
  0
LINE
  5
5BE
330
1F
100
AcDbEntity
  8
Object
100
AcDbLine
 10
5.854945995840857
 20
8.090821739459583
 30
0.0
 11
5.854945995840857
 21
8.101821739459584
 31
0.0
  0
LINE
  5
5BF
330
1F
100
AcDbEntity
  8
Object
100
AcDbLine
 10
5.854945995840857
 20
8.101821739459584
 30
0.0
 11
5.969945995840856
 21
8.101821739459584
 31
0.0
  0
LINE
  5
5C0
330
1F
100
AcDbEntity
  8
Object
100
AcDbLine
 10
5.969945995840856
 20
8.018821739459584
 30
0.0
 11
5.969945995840856
 21
8.029821739459583
 31
0.0
  0
LINE
  5
5C1
330
1F
100
AcDbEntity
  8
Object
100
AcDbLine
 10
5.854945995840857
 20
8.033821739459583
 30
0.0
 11
5.854945995840857
 21
8.029821739459583
 31
0.0
  0
LINE
  5
5C2
330
1F
100
AcDbEntity
  8
Object
100
AcDbLine
 10
5.969945995840856
 20
8.029821739459583
 30
0.0
 11
5.969945995840856
 21
8.033821739459583
 31
0.0
  0
LINE
  5
5C3
330
1F
100
AcDbEntity
  8
Object
100
AcDbLine
 10
5.854945995840857
 20
8.029821739459583
 30
0.0
 11
5.854945995840857
 21
8.018821739459584
 31
0.0
  0
LINE
  5
5C4
330
1F
100
AcDbEntity
  8
Object
100
AcDbLine
 10
5.969945995840856
 20
8.003821739459583
 30
0.0
 11
5.969945995840856
 21
8.018821739459584
 31
0.0
  0
LINE
  5
5C5
330
1F
100
AcDbEntity
  8
Object
100
AcDbLine
 10
5.854945995840857
 20
8.018821739459584
 30
0.0
 11
5.854945995840857
 21
8.003821739459583
 31
0.0
  0
LINE
  5
5C6
330
1F
100
AcDbEntity
  8
Object
100
AcDbLine
 10
1.954945995840857
 20
8.243821739459583
 30
0.0
 11
1.952945995840856
 21
8.248821739459582
 31
0.0
  0
LINE
  5
5C7
330
1F
100
AcDbEntity
  8
Object
100
AcDbLine
 10
1.952945995840856
 20
8.248821739459582
 30
0.0
 11
1.949945995840856
 21
8.251821739459582
 31
0.0
  0
LINE
  5
5C8
330
1F
100
AcDbEntity
  8
Object
100
AcDbLine
 10
1.949945995840856
 20
8.251821739459582
 30
0.0
 11
1.944945995840857
 21
8.253821739459583
 31
0.0
  0
LINE
  5
5C9
330
1F
100
AcDbEntity
  8
Object
100
AcDbLine
 10
5.979945995840857
 20
8.253821739459583
 30
0.0
 11
5.974945995840856
 21
8.251821739459582
 31
0.0
  0
LINE
  5
5CA
330
1F
100
AcDbEntity
  8
Object
100
AcDbLine
 10
5.974945995840856
 20
8.251821739459582
 30
0.0
 11
5.970945995840857
 21
8.248821739459582
 31
0.0
  0
LINE
  5
5CB
330
1F
100
AcDbEntity
  8
Object
100
AcDbLine
 10
5.970945995840857
 20
8.248821739459582
 30
0.0
 11
5.969945995840856
 21
8.243821739459583
 31
0.0
  0
LINE
  5
5CC
330
1F
100
AcDbEntity
  8
Object
100
AcDbLine
 10
1.847945995840857
 20
8.355821739459583
 30
0.0
 11
1.843945995840856
 21
8.354821739459584
 31
0.0
  0
LINE
  5
5CD
330
1F
100
AcDbEntity
  8
Object
100
AcDbLine
 10
1.843945995840856
 20
8.354821739459584
 30
0.0
 11
1.840945995840856
 21
8.350821739459583
 31
0.0
  0
LINE
  5
5CE
330
1F
100
AcDbEntity
  8
Object
100
AcDbLine
 10
1.840945995840856
 20
8.350821739459583
 30
0.0
 11
1.839945995840857
 21
8.345821739459584
 31
0.0
  0
LINE
  5
5CF
330
1F
100
AcDbEntity
  8
Object
100
AcDbLine
 10
2.039945995840856
 20
8.382821739459583
 30
0.0
 11
2.037945995840857
 21
8.382821739459583
 31
0.0
  0
LINE
  5
5D0
330
1F
100
AcDbEntity
  8
Object
100
AcDbLine
 10
2.037945995840857
 20
8.382821739459583
 30
0.0
 11
2.036945995840856
 21
8.382821739459583
 31
0.0
  0
LINE
  5
5D1
330
1F
100
AcDbEntity
  8
Object
100
AcDbLine
 10
2.036945995840856
 20
8.382821739459583
 30
0.0
 11
2.034945995840857
 21
8.382821739459583
 31
0.0
  0
LINE
  5
5D2
330
1F
100
AcDbEntity
  8
Object
100
AcDbLine
 10
1.850945995840856
 20
8.240821739459583
 30
0.0
 11
1.846945995840856
 21
8.240821739459583
 31
0.0
  0
LINE
  5
5D3
330
1F
100
AcDbEntity
  8
Object
100
AcDbLine
 10
1.846945995840856
 20
8.240821739459583
 30
0.0
 11
1.842945995840857
 21
8.242821739459582
 31
0.0
  0
LINE
  5
5D4
330
1F
100
AcDbEntity
  8
Object
100
AcDbLine
 10
1.842945995840857
 20
8.242821739459582
 30
0.0
 11
1.840945995840856
 21
8.245821739459582
 31
0.0
  0
LINE
  5
5D5
330
1F
100
AcDbEntity
  8
Object
100
AcDbLine
 10
1.840945995840856
 20
8.245821739459582
 30
0.0
 11
1.839945995840857
 21
8.250821739459583
 31
0.0
  0
LINE
  5
5D6
102
{ACAD_REACTORS
330
655
102
}
330
1F
100
AcDbEntity
  8
Object
100
AcDbLine
 10
1.839945995840857
 20
8.250821739459583
 30
0.0
 11
1.839945995840857
 21
8.345821739459584
 31
0.0
  0
LINE
  5
5D7
330
1F
100
AcDbEntity
  8
Object
100
AcDbLine
 10
2.034945995840857
 20
8.382821739459583
 30
0.0
 11
1.847945995840857
 21
8.355821739459583
 31
0.0
  0
LINE
  5
5D8
330
1F
100
AcDbEntity
  8
Object
100
AcDbLine
 10
1.850945995840856
 20
8.240821739459583
 30
0.0
 11
1.942945995840856
 21
8.253821739459583
 31
0.0
  0
LINE
  5
5D9
330
1F
100
AcDbEntity
  8
Object
100
AcDbLine
 10
1.944945995840857
 20
8.253821739459583
 30
0.0
 11
1.943945995840856
 21
8.253821739459583
 31
0.0
  0
LINE
  5
5DA
330
1F
100
AcDbEntity
  8
Object
100
AcDbLine
 10
1.943945995840856
 20
8.253821739459583
 30
0.0
 11
1.942945995840856
 21
8.253821739459583
 31
0.0
  0
LINE
  5
5DB
330
1F
100
AcDbEntity
  8
Object
100
AcDbLine
 10
5.888945995840856
 20
8.382821739459583
 30
0.0
 11
5.887945995840857
 21
8.382821739459583
 31
0.0
  0
LINE
  5
5DC
330
1F
100
AcDbEntity
  8
Object
100
AcDbLine
 10
5.887945995840857
 20
8.382821739459583
 30
0.0
 11
5.885945995840856
 21
8.382821739459583
 31
0.0
  0
LINE
  5
5DD
102
{ACAD_REACTORS
330
675
102
}
330
1F
100
AcDbEntity
  8
Object
100
AcDbLine
 10
5.885945995840856
 20
8.382821739459583
 30
0.0
 11
5.884945995840856
 21
8.382821739459583
 31
0.0
  0
LINE
  5
5DE
330
1F
100
AcDbEntity
  8
Object
100
AcDbLine
 10
6.084945995840858
 20
8.250821739459583
 30
0.0
 11
6.083945995840856
 21
8.245821739459582
 31
0.0
  0
LINE
  5
5DF
330
1F
100
AcDbEntity
  8
Object
100
AcDbLine
 10
6.083945995840856
 20
8.245821739459582
 30
0.0
 11
6.080945995840856
 21
8.242821739459582
 31
0.0
  0
LINE
  5
5E0
330
1F
100
AcDbEntity
  8
Object
100
AcDbLine
 10
6.080945995840856
 20
8.242821739459582
 30
0.0
 11
6.077945995840856
 21
8.240821739459583
 31
0.0
  0
LINE
  5
5E1
330
1F
100
AcDbEntity
  8
Object
100
AcDbLine
 10
6.077945995840856
 20
8.240821739459583
 30
0.0
 11
6.072945995840857
 21
8.240821739459583
 31
0.0
  0
LINE
  5
5E2
330
1F
100
AcDbEntity
  8
Object
100
AcDbLine
 10
6.084945995840858
 20
8.345821739459584
 30
0.0
 11
6.083945995840856
 21
8.350821739459583
 31
0.0
  0
LINE
  5
5E3
330
1F
100
AcDbEntity
  8
Object
100
AcDbLine
 10
6.083945995840856
 20
8.350821739459583
 30
0.0
 11
6.080945995840856
 21
8.354821739459584
 31
0.0
  0
LINE
  5
5E4
330
1F
100
AcDbEntity
  8
Object
100
AcDbLine
 10
6.080945995840856
 20
8.354821739459584
 30
0.0
 11
6.075945995840857
 21
8.355821739459583
 31
0.0
  0
LINE
  5
5E5
330
1F
100
AcDbEntity
  8
Object
100
AcDbLine
 10
6.075945995840857
 20
8.355821739459583
 30
0.0
 11
5.888945995840856
 21
8.382821739459583
 31
0.0
  0
LINE
  5
5E6
330
1F
100
AcDbEntity
  8
Object
100
AcDbLine
 10
5.980945995840857
 20
8.253821739459583
 30
0.0
 11
5.979945995840857
 21
8.253821739459583
 31
0.0
  0
LINE
  5
5E7
330
1F
100
AcDbEntity
  8
Object
100
AcDbLine
 10
5.980945995840857
 20
8.253821739459583
 30
0.0
 11
6.072945995840857
 21
8.240821739459583
 31
0.0
  0
LINE
  5
5E8
102
{ACAD_REACTORS
330
655
102
}
330
1F
100
AcDbEntity
  8
Object
100
AcDbLine
 10
6.084945995840858
 20
8.250821739459583
 30
0.0
 11
6.084945995840858
 21
8.345821739459584
 31
0.0
  0
LINE
  5
5E9
330
1F
100
AcDbEntity
  8
Object
100
AcDbLine
 10
15.9051990589075
 20
3.847821739459583
 30
0.0
 11
15.9051990589075
 21
4.586821739459583
 31
0.0
  0
LINE
  5
5EA
330
1F
100
AcDbEntity
  8
Object
100
AcDbLine
 10
15.9051990589075
 20
4.586821739459583
 30
0.0
 11
15.8601990589075
 21
4.586821739459583
 31
0.0
  0
LINE
  5
5EB
330
1F
100
AcDbEntity
  8
Object
100
AcDbLine
 10
15.8601990589075
 20
4.586821739459583
 30
0.0
 11
15.9841990589075
 21
4.658821739459583
 31
0.0
  0
LINE
  5
5EC
330
1F
100
AcDbEntity
  8
Object
100
AcDbLine
 10
15.9841990589075
 20
4.658821739459583
 30
0.0
 11
15.9051990589075
 21
4.658821739459583
 31
0.0
  0
LINE
  5
5ED
330
1F
100
AcDbEntity
  8
Object
100
AcDbLine
 10
15.9051990589075
 20
4.658821739459583
 30
0.0
 11
15.9051990589075
 21
5.397821739459583
 31
0.0
  0
TEXT
  5
5EE
330
1F
100
AcDbEntity
  8
Title Block
100
AcDbText
 10
12.77669501265555
 20
2.672489851525506
 30
0.0
 40
0.05
  1
FILENAME:
100
AcDbText
  0
TEXT
  5
5EF
330
1F
100
AcDbEntity
  8
Title Block
100
AcDbText
 10
12.76928502872825
 20
2.076224967549324
 30
0.0
 40
0.35
  1
PANDUIT
100
AcDbText
  0
TEXT
  5
5F0
330
1F
100
AcDbEntity
  8
Title Block
100
AcDbText
 10
14.72182039882138
 20
2.061410940562984
 30
0.0
 40
0.125
  1
CORP. TINLEY PARK, IL
100
AcDbText
  0
TEXT
  5
5F1
330
1F
100
AcDbEntity
  8
Title Block
100
AcDbText
 10
12.78039997670862
 20
1.916974097093918
 30
0.0
 40
0.05
  1
TITLE:
100
AcDbText
  0
MTEXT
  5
5F2
330
1F
100
AcDbEntity
  8
Title Block
100
AcDbMText
 10
14.0
 20
1.372215793536346
 30
0.0
 40
0.075
 41
2.5
 71
     5
 72
     5
  1
UNLESS OTHERWISE SPECIFIED,\PDIMENSIONAL TOLERANCES ARE:       
 73
     1
 44
1.0
1001
ACAD
1000
MTEXTBEGIN
1070
    73
1070
     1
1070
    44
1040
1.0
1070
    74
1070
     0
1000
MTEXTEND
  0
MTEXT
  5
5F3
330
1F
100
AcDbEntity
  8
Title Block
100
AcDbMText
 10
13.39237986661002
 20
1.13148770848363
 30
0.0
 40
0.075
 41
2.5
 71
     5
 72
     5
  1
(.X)\P(.XX)
 73
     1
 44
1.0
1001
ACAD
1000
MTEXTBEGIN
1070
    73
1070
     1
1070
    44
1040
1.0
1070
    74
1070
     0
1000
MTEXTEND
  0
MTEXT
  5
5F4
330
1F
100
AcDbEntity
  8
Title Block
100
AcDbMText
 10
14.40014005312412
 20
1.13148770848363
 30
0.0
 40
0.075
 41
2.5
 71
     5
 72
     5
  1
(.XXX)\PANGLES:
 73
     1
 44
1.0
1001
ACAD
1000
MTEXTBEGIN
1070
    73
1070
     1
1070
    44
1040
1.0
1070
    74
1070
     0
1000
MTEXTEND
  0
MTEXT
  5
5F5
330
1F
100
AcDbEntity
  8
Title Block
100
AcDbMText
 10
16.0
 20
1.249999999999998
 30
0.0
 40
0.06
 41
1.5
 71
     5
 72
     5
  1
UNLESS OTHERWISE SPECIFIED,\PALL DIMENSIONS ARE GIVEN IN INCHES, THIRD ANGLE PROJECTION
 73
     1
 44
1.0
1001
ACAD
1000
MTEXTBEGIN
1070
    73
1070
     1
1070
    44
1040
1.0
1070
    74
1070
     0
1000
MTEXTEND
  0
TEXT
  5
5F6
330
1F
100
AcDbEntity
  8
Title Block
100
AcDbText
 10
12.76076445430619
 20
0.9281373372752295
 30
0.0
 40
0.05
  1
DRAWN BY:
100
AcDbText
  0
TEXT
  5
5F7
330
1F
100
AcDbEntity
  8
Title Block
100
AcDbText
 10
12.76446947418044
 20
0.681143186563501
 30
0.0
 40
0.05
  1
DATE:
100
AcDbText
  0
TEXT
  5
5F8
330
1F
100
AcDbEntity
  8
Title Block
100
AcDbText
 10
12.7681744382335
 20
0.430445533831795
 30
0.0
 40
0.05
  1
CHECKED BY:
100
AcDbText
  0
TEXT
  5
5F9
330
1F
100
AcDbEntity
  8
Title Block
100
AcDbText
 10
13.52028959313307
 20
0.9281373372752295
 30
0.0
 40
0.05
  1
MATERIAL:
100
AcDbText
  0
TEXT
  5
5FA
330
1F
100
AcDbEntity
  8
Title Block
100
AcDbText
 10
15.26534493878154
 20
0.9281373372752295
 30
0.0
 40
0.05
  1
SCALE:
100
AcDbText
  0
TEXT
  5
5FB
330
1F
100
AcDbEntity
  8
Title Block
100
AcDbText
 10
15.26534493878154
 20
0.6725952630489989
 30
0.0
 40
0.05
  1
DRAWING NUMBER:
100
AcDbText
  0
TEXT
  5
5FC
330
1F
100
AcDbEntity
  8
Title Block
100
AcDbText
 10
16.34942622928998
 20
0.6762987650689798
 30
0.0
 40
0.05
  1
DRAWING
100
AcDbText
  0
TEXT
  5
5FD
330
1F
100
AcDbEntity
  8
Title Block
100
AcDbText
 10
16.42723125590086
 20
0.2811642688682008
 30
0.0
 40
0.05
  1
SIZE
100
AcDbText
  0
TEXT
  5
5FE
330
1F
100
AcDbEntity
  8
Title Block
100
AcDbText
 10
16.40622108086223
 20
0.3826699445861035
 30
0.0
 40
0.25
  1
B
100
AcDbText
  0
MTEXT
  5
5FF
330
1F
100
AcDbEntity
  8
Title Block
100
AcDbMText
 10
6.375000000000003
 20
0.3749999999999982
 30
0.0
 40
0.05
 41
0.25
 71
     5
 72
     5
  1
REV
 73
     1
 44
1.0
1001
ACAD
1000
MTEXTBEGIN
1070
    73
1070
     1
1070
    44
1040
1.0
1070
    74
1070
     0
1000
MTEXTEND
  0
MTEXT
  5
600
330
1F
100
AcDbEntity
  8
Title Block
100
AcDbMText
 10
6.750000000000003
 20
0.3749999999999982
 30
0.0
 40
0.05
 41
0.5
 71
     5
 72
     5
  1
DATE
 73
     1
 44
1.0
1001
ACAD
1000
MTEXTBEGIN
1070
    73
1070
     1
1070
    44
1040
1.0
1070
    74
1070
     0
1000
MTEXTEND
  0
MTEXT
  5
601
330
1F
100
AcDbEntity
  8
Title Block
100
AcDbMText
 10
7.190000000000003
 20
0.3749999999999982
 30
0.0
 40
0.05
 41
0.38
 71
     5
 72
     5
  1
BY
 73
     1
 44
1.0
1001
ACAD
1000
MTEXTBEGIN
1070
    73
1070
     1
1070
    44
1040
1.0
1070
    74
1070
     0
1000
MTEXTEND
  0
MTEXT
  5
602
330
1F
100
AcDbEntity
  8
Title Block
100
AcDbMText
 10
7.565000000000003
 20
0.3749999999999982
 30
0.0
 40
0.05
 41
0.38
 71
     5
 72
     5
  1
CHK
 73
     1
 44
1.0
1001
ACAD
1000
MTEXTBEGIN
1070
    73
1070
     1
1070
    44
1040
1.0
1070
    74
1070
     0
1000
MTEXTEND
  0
MTEXT
  5
603
330
1F
100
AcDbEntity
  8
Title Block
100
AcDbMText
 10
9.125000000000003
 20
0.3749999999999982
 30
0.0
 40
0.05
 41
2.75
 71
     5
 72
     5
  1
DESCRIPTION
 73
     1
 44
1.0
1001
ACAD
1000
MTEXTBEGIN
1070
    73
1070
     1
1070
    44
1040
1.0
1070
    74
1070
     0
1000
MTEXTEND
  0
MTEXT
  5
604
330
1F
100
AcDbEntity
  8
Title Block
100
AcDbMText
 10
11.065
 20
0.3749999999999982
 30
0.0
 40
0.05
 41
1.129999999999999
 71
     5
 72
     5
  1
ECN   -   R
 73
     1
 44
1.0
1001
ACAD
1000
MTEXTBEGIN
1070
    73
1070
     1
1070
    44
1040
1.0
1070
    74
1070
     0
1000
MTEXTEND
  0
MTEXT
  5
605
330
1F
100
AcDbEntity
  8
Title Block
100
AcDbMText
 10
11.815
 20
0.3749999999999982
 30
0.0
 40
0.05
 41
0.38
 71
     5
 72
     5
  1
CUST
 73
     1
 44
1.0
1001
ACAD
1000
MTEXTBEGIN
1070
    73
1070
     1
1070
    44
1040
1.0
1070
    74
1070
     0
1000
MTEXTEND
  0
MTEXT
  5
606
330
1F
100
AcDbEntity
  8
Title Block
100
AcDbMText
 10
12.19
 20
0.3749999999999982
 30
0.0
 40
0.05
 41
0.38
 71
     5
 72
     5
  1
SUP
 73
     1
 44
1.0
1001
ACAD
1000
MTEXTBEGIN
1070
    73
1070
     1
1070
    44
1040
1.0
1070
    74
1070
     0
1000
MTEXTEND
  0
LINE
  5
607
330
1F
100
AcDbEntity
  8
Title Block
100
AcDbLine
 10
16.75
 20
2.749999999999997
 30
0.0
 11
6.250000000000003
 21
2.749999999999999
 31
0.0
  0
LINE
  5
608
330
1F
100
AcDbEntity
  8
Title Block
100
AcDbLine
 10
12.75
 20
2.749999999999998
 30
0.0
 11
12.75
 21
0.2499999999999982
 31
0.0
  0
LINE
  5
609
330
1F
100
AcDbEntity
  8
Title Block
100
AcDbLine
 10
16.75
 20
2.499999999999997
 30
0.0
 11
6.250000000000003
 21
2.499999999999999
 31
0.0
  0
LINE
  5
60A
330
1F
100
AcDbEntity
  8
Title Block
100
AcDbLine
 10
12.75
 20
2.249999999999998
 30
0.0
 11
6.250000000000003
 21
2.249999999999999
 31
0.0
  0
LINE
  5
60B
330
1F
100
AcDbEntity
  8
Title Block
100
AcDbLine
 10
16.75
 20
1.999999999999997
 30
0.0
 11
6.250000000000003
 21
1.999999999999999
 31
0.0
  0
LINE
  5
60C
330
1F
100
AcDbEntity
  8
Title Block
100
AcDbLine
 10
12.75
 20
1.749999999999998
 30
0.0
 11
6.250000000000003
 21
1.749999999999999
 31
0.0
  0
LINE
  5
60D
330
1F
100
AcDbEntity
  8
Title Block
100
AcDbLine
 10
16.75
 20
1.499999999999997
 30
0.0
 11
6.250000000000003
 21
1.499999999999999
 31
0.0
  0
LINE
  5
60E
330
1F
100
AcDbEntity
  8
Title Block
100
AcDbLine
 10
12.75
 20
1.249999999999998
 30
0.0
 11
6.250000000000003
 21
1.249999999999999
 31
0.0
  0
LINE
  5
60F
330
1F
100
AcDbEntity
  8
Title Block
100
AcDbLine
 10
16.75
 20
0.9999999999999978
 30
0.0
 11
6.250000000000003
 21
0.9999999999999991
 31
0.0
  0
LINE
  5
610
330
1F
100
AcDbEntity
  8
Title Block
100
AcDbLine
 10
13.5
 20
0.7499999999999983
 30
0.0
 11
6.250000000000003
 21
0.7499999999999992
 31
0.0
  0
LINE
  5
611
330
1F
100
AcDbEntity
  8
Title Block
100
AcDbLine
 10
13.5
 20
0.4999999999999983
 30
0.0
 11
6.250000000000003
 21
0.4999999999999992
 31
0.0
  0
LINE
  5
612
330
1F
100
AcDbEntity
  8
Title Block
100
AcDbLine
 10
6.250000000000003
 20
0.2499999999999982
 30
0.0
 11
6.250000000000003
 21
2.749999999999999
 31
0.0
  0
LINE
  5
613
330
1F
100
AcDbEntity
  8
Title Block
100
AcDbLine
 10
6.500000000000003
 20
0.2499999999999982
 30
0.0
 11
6.500000000000003
 21
2.75
 31
0.0
  0
LINE
  5
614
330
1F
100
AcDbEntity
  8
Title Block
100
AcDbLine
 10
7.000000000000003
 20
0.2499999999999982
 30
0.0
 11
7.000000000000003
 21
2.75
 31
0.0
  0
LINE
  5
615
330
1F
100
AcDbEntity
  8
Title Block
100
AcDbLine
 10
7.375000000000003
 20
0.2499999999999982
 30
0.0
 11
7.375000000000003
 21
2.75
 31
0.0
  0
LINE
  5
616
330
1F
100
AcDbEntity
  8
Title Block
100
AcDbLine
 10
7.750000000000003
 20
0.2499999999999982
 30
0.0
 11
7.750000000000003
 21
2.75
 31
0.0
  0
LINE
  5
617
330
1F
100
AcDbEntity
  8
Title Block
100
AcDbLine
 10
12.375
 20
2.749999999999998
 30
0.0
 11
12.375
 21
0.2499999999999982
 31
0.0
  0
LINE
  5
618
330
1F
100
AcDbEntity
  8
Title Block
100
AcDbLine
 10
12.0
 20
2.749999999999998
 30
0.0
 11
12.0
 21
0.2499999999999982
 31
0.0
  0
LINE
  5
619
330
1F
100
AcDbEntity
  8
Title Block
100
AcDbLine
 10
11.625
 20
2.749999999999998
 30
0.0
 11
11.625
 21
0.2499999999999982
 31
0.0
  0
LINE
  5
61A
330
1F
100
AcDbEntity
  8
Title Block
100
AcDbLine
 10
11.25
 20
2.749999999999998
 30
0.0
 11
11.25
 21
0.4999999999999984
 31
0.0
  0
LINE
  5
61B
330
1F
100
AcDbEntity
  8
Title Block
100
AcDbLine
 10
10.5
 20
2.749999999999998
 30
0.0
 11
10.5
 21
0.2499999999999982
 31
0.0
  0
LINE
  5
61C
330
1F
100
AcDbEntity
  8
Title Block
100
AcDbLine
 10
15.25
 20
0.7499999999999983
 30
0.0
 11
15.25
 21
1.499999999999997
 31
0.0
  0
LINE
  5
61D
330
1F
100
AcDbEntity
  8
Title Block
100
AcDbLine
 10
15.25
 20
0.7499999999999983
 30
0.0
 11
15.25
 21
0.2499999999999982
 31
0.0
  0
LINE
  5
61E
330
1F
100
AcDbEntity
  8
Title Block
100
AcDbLine
 10
15.25
 20
0.7499999999999983
 30
0.0
 11
16.75
 21
0.7499999999999983
 31
0.0
  0
LINE
  5
61F
330
1F
100
AcDbEntity
  8
Title Block
100
AcDbLine
 10
13.5
 20
0.4999999999999983
 30
0.0
 11
13.5
 21
0.2499999999999982
 31
0.0
  0
LINE
  5
620
330
1F
100
AcDbEntity
  8
Title Block
100
AcDbLine
 10
13.5
 20
0.4999999999999983
 30
0.0
 11
13.5
 21
0.9999999999999982
 31
0.0
  0
LINE
  5
621
330
1F
100
AcDbEntity
  8
Title Block
100
AcDbLine
 10
16.25
 20
0.7499999999999983
 30
0.0
 11
16.25
 21
0.2499999999999982
 31
0.0
  0
LWPOLYLINE
  5
622
330
1F
100
AcDbEntity
  8
Title Block
100
AcDbPolyline
 90
        5
 70
     0
 43
0.01
 10
16.75
 20
0.2499999999999982
 10
16.75
 20
10.75
 10
0.2500000000000035
 20
10.75
 10
0.25
 20
0.25
 10
16.75
 20
0.2499999999999982
  0
POINT
  5
623
330
1F
100
AcDbEntity
  8
Title Block
100
AcDbPoint
 10
17.0
 20
-0.0000000000000018
 30
0.0
  0
POINT
  5
624
330
1F
100
AcDbEntity
  8
Title Block
100
AcDbPoint
 10
0.0
 20
0.0
 30
0.0
  0
POINT
  5
625
330
1F
100
AcDbEntity
  8
Title Block
100
AcDbPoint
 10
0.0000000000000036
 20
11.0
 30
0.0
  0
POINT
  5
626
330
1F
100
AcDbEntity
  8
Title Block
100
AcDbPoint
 10
17.0
 20
11.0
 30
0.0
  0
MTEXT
  5
627
330
1F
100
AcDbEntity
  8
Text
100
AcDbMText
 10
6.376628153647693
 20
0.6232951697642469
 30
0.0
 40
0.09
 41
0.25
 71
     5
 72
     5
  1
R
 73
     1
 44
1.0
1001
ACAD
1000
MTEXTBEGIN
1070
    73
1070
     1
1070
    44
1040
1.0
1070
    74
1070
     0
1000
MTEXTEND
  0
MTEXT
  5
628
330
1F
100
AcDbEntity
  8
Text
100
AcDbMText
 10
6.751628153647693
 20
0.6232951697642469
 30
0.0
 40
0.07
 41
0.5
 71
     5
 72
     5
  1
1-5-01
 73
     1
 44
1.0
1001
ACAD
1000
MTEXTBEGIN
1070
    73
1070
     1
1070
    44
1040
1.0
1070
    74
1070
     0
1000
MTEXTEND
  0
MTEXT
  5
629
330
1F
100
AcDbEntity
  8
Text
100
AcDbMText
 10
7.189128153647693
 20
0.6232951697642469
 30
0.0
 40
0.09
 41
0.375
 71
     5
 72
     5
  1
MSO
 73
     1
 44
1.0
1001
ACAD
1000
MTEXTBEGIN
1070
    73
1070
     1
1070
    44
1040
1.0
1070
    74
1070
     0
1000
MTEXTEND
  0
MTEXT
  5
62A
330
1F
100
AcDbEntity
  8
Text
100
AcDbMText
 10
7.564128153647693
 20
0.6232951697642469
 30
0.0
 40
0.09
 41
0.375
 71
     5
 72
     5
  1
HIW
 73
     1
 44
1.0
1001
ACAD
1000
MTEXTBEGIN
1070
    73
1070
     1
1070
    44
1040
1.0
1070
    74
1070
     0
1000
MTEXTEND
  0
MTEXT
  5
62B
330
1F
100
AcDbEntity
  8
Text
100
AcDbMText
 10
9.126628153647693
 20
0.6232951697642464
 30
0.0
 40
0.09
 41
2.75
 71
     5
 72
     5
  1
RELEASED TO PRODUCTION
 73
     1
 44
1.0
1001
ACAD
1000
MTEXTBEGIN
1070
    73
1070
     1
1070
    44
1040
1.0
1070
    74
1070
     0
1000
MTEXTEND
  0
MTEXT
  5
62C
330
1F
100
AcDbEntity
  8
Text
100
AcDbMText
 10
10.87662815364769
 20
0.6232951697642461
 30
0.0
 40
0.07
 41
0.75
 71
     5
 72
     5
  1
36897-630
 73
     1
 44
1.0
1001
ACAD
1000
MTEXTBEGIN
1070
    73
1070
     1
1070
    44
1040
1.0
1070
    74
1070
     0
1000
MTEXTEND
  0
MTEXT
  5
62D
330
1F
100
AcDbEntity
  8
Text
100
AcDbMText
 10
11.43912815364769
 20
0.6232951697642464
 30
0.0
 40
0.09
 41
0.375
 71
     5
 72
     5
  1
HIW
 73
     1
 44
1.0
1001
ACAD
1000
MTEXTBEGIN
1070
    73
1070
     1
1070
    44
1040
1.0
1070
    74
1070
     0
1000
MTEXTEND
  0
MTEXT
  5
62E
330
1F
100
AcDbEntity
  8
Text
100
AcDbMText
 10
13.47662815364769
 20
0.8482951697642459
 30
0.0
 40
0.09
 41
0.75
 71
     6
 72
     5
  1
MSO
 73
     1
 44
1.0
1001
ACAD
1000
MTEXTBEGIN
1070
    73
1070
     1
1070
    44
1040
1.0
1070
    74
1070
     0
1000
MTEXTEND
  0
MTEXT
  5
62F
330
1F
100
AcDbEntity
  8
Text
100
AcDbMText
 10
13.47662815364769
 20
0.5982951697642458
 30
0.0
 40
0.09
 41
0.75
 71
     6
 72
     5
  1
1-5-01
 73
     1
 44
1.0
1001
ACAD
1000
MTEXTBEGIN
1070
    73
1070
     1
1070
    44
1040
1.0
1070
    74
1070
     0
1000
MTEXTEND
  0
MTEXT
  5
630
330
1F
100
AcDbEntity
  8
Text
100
AcDbMText
 10
13.47662815364769
 20
0.348295169764246
 30
0.0
 40
0.09
 41
0.75
 71
     6
 72
     5
  1
HIW
 73
     1
 44
1.0
1001
ACAD
1000
MTEXTBEGIN
1070
    73
1070
     1
1070
    44
1040
1.0
1070
    74
1070
     0
1000
MTEXTEND
  0
MTEXT
  5
631
330
1F
100
AcDbEntity
  8
Text
100
AcDbMText
 10
14.75162815364769
 20
2.623295169764245
 30
0.0
 40
0.09
 41
4.0
 71
     5
 72
     5
  1
E4X4.dwg
 73
     1
 44
1.0
1001
ACAD
1000
MTEXTBEGIN
1070
    73
1070
     1
1070
    44
1040
1.0
1070
    74
1070
     0
1000
MTEXTEND
  0
MTEXT
  5
632
330
1F
100
AcDbEntity
  8
Text
100
AcDbMText
 10
14.75162815364769
 20
1.748295169764245
 30
0.0
 40
0.09
 41
4.0
 71
     5
 72
     5
  1
FIBER-DUCT 4x4 SLOTTED WALL CHANNEL\P(E4X4**2, E4X4**6)\PMARKETING DRAWING
 73
     1
 44
1.0
1001
ACAD
1000
MTEXTBEGIN
1070
    73
1070
     1
1070
    44
1040
1.0
1070
    74
1070
     0
1000
MTEXTEND
  0
MTEXT
  5
633
330
1F
100
AcDbEntity
  8
Text
100
AcDbMText
 10
16.00162815364769
 20
0.8732951697642457
 30
0.0
 40
0.12
 41
1.5
 71
     5
 72
     5
  1
FULL
 73
     1
 44
1.0
1001
ACAD
1000
MTEXTBEGIN
1070
    73
1070
     1
1070
    44
1040
1.0
1070
    74
1070
     0
1000
MTEXTEND
  0
MTEXT
  5
634
330
1F
100
AcDbEntity
  8
Text
100
AcDbMText
 10
15.75162815364769
 20
0.498295169764246
 30
0.0
 40
0.12
 41
1.0
 71
     5
 72
     5
  1
36897-630
 73
     1
 44
1.0
1001
ACAD
1000
MTEXTBEGIN
1070
    73
1070
     1
1070
    44
1040
1.0
1070
    74
1070
     0
1000
MTEXTEND
  0
MTEXT
  5
635
330
1F
100
AcDbEntity
  8
Text
100
AcDbMText
 10
11.81412815364769
 20
0.6232951697642467
 30
0.0
 40
0.09
 41
0.375
 71
     5
 72
     5
  1
HIW
 73
     1
 44
1.0
1001
ACAD
1000
MTEXTBEGIN
1070
    73
1070
     1
1070
    44
1040
1.0
1070
    74
1070
     0
1000
MTEXTEND
  0
DIMENSION
  5
63B
102
{ACAD_XDICTIONARY
360
64A
102
}
102
{ACAD_REACTORS
330
655
102
}
330
1F
100
AcDbEntity
  8
Dimension
100
AcDbDimension
  2
*D1
 10
6.084945995840858
 20
9.321515212140184
 30
0.0
 11
3.962445995840857
 21
9.321515212140184
 31
0.0
 70
    32
  1
4.20 [106.7mm]
 71
     5
 42
4.245
  3
Standard
100
AcDbAlignedDimension
 13
1.839945995840857
 23
8.345821739459584
 33
0.0
 14
6.084945995840858
 24
8.345821739459584
 34
0.0
100
AcDbRotatedDimension
  0
DIMENSION
  5
65C
102
{ACAD_XDICTIONARY
360
66A
102
}
102
{ACAD_REACTORS
330
675
102
}
330
1F
100
AcDbEntity
  8
Dimension
100
AcDbDimension
  2
*D2
 10
7.241722067703229
 20
8.382821739459583
 30
0.0
 11
7.241722067703227
 21
6.385321739459584
 31
0.0
 70
    32
  1
4.00 [101.6mm]
 71
     5
 42
3.995
  3
Standard
100
AcDbAlignedDimension
 13
5.974945995840856
 23
4.387821739459583
 33
0.0
 14
5.884945995840856
 24
8.382821739459583
 34
0.0
 50
90.0
100
AcDbRotatedDimension
  0
TEXT
  5
678
330
1F
100
AcDbEntity
  8
Text
100
AcDbText
 10
3.451600425346789
 20
3.771799663474396
 30
0.0
 40
0.125
  1
front view
100
AcDbText
  0
TEXT
  5
679
330
1F
100
AcDbEntity
  8
Text
100
AcDbText
 10
11.8626205083527
 20
3.771035558394662
 30
0.0
 40
0.125
  1
right side view
100
AcDbText
  0
MTEXT
  5
67E
330
1F
100
AcDbEntity
  8
Text
100
AcDbMText
 10
6.376628153647693
 20
0.8732951697642468
 30
0.0
 40
0.09
 41
0.25
 71
     5
 72
     5
  1
1
 73
     1
 44
1.0
1001
ACAD
1000
MTEXTBEGIN
1070
    73
1070
     1
1070
    44
1040
1.0
1070
    74
1070
     0
1000
MTEXTEND
  0
MTEXT
  5
67F
330
1F
100
AcDbEntity
  8
Text
100
AcDbMText
 10
6.751628153647693
 20
0.8732951697642468
 30
0.0
 40
0.07
 41
0.5
 71
     5
 72
     5
  1
5-12-05
 73
     1
 44
1.0
1001
ACAD
1000
MTEXTBEGIN
1070
    73
1070
     1
1070
    44
1040
1.0
1070
    74
1070
     0
1000
MTEXTEND
  0
MTEXT
  5
680
330
1F
100
AcDbEntity
  8
Text
100
AcDbMText
 10
7.189128153647693
 20
0.8732951697642468
 30
0.0
 40
0.09
 41
0.375
 71
     5
 72
     5
  1
MSO
 73
     1
 44
1.0
1001
ACAD
1000
MTEXTBEGIN
1070
    73
1070
     1
1070
    44
1040
1.0
1070
    74
1070
     0
1000
MTEXTEND
  0
MTEXT
  5
681
330
1F
100
AcDbEntity
  8
Text
100
AcDbMText
 10
7.564128153647693
 20
0.8732951697642468
 30
0.0
 40
0.07
 41
0.375
 71
     5
 72
     5
  1
DJWA
 73
     1
 44
1.0
1001
ACAD
1000
MTEXTBEGIN
1070
    73
1070
     1
1070
    44
1040
1.0
1070
    74
1070
     0
1000
MTEXTEND
  0
MTEXT
  5
682
330
1F
100
AcDbEntity
  8
Text
100
AcDbMText
 10
7.776628153647694
 20
0.8732951697642462
 30
0.0
 40
0.07
 41
2.75
 71
     4
 72
     5
  1
B. REVISED PART GEOMETRY.\PA. REVISED DRAWING TITLE.
 73
     1
 44
1.0
1001
ACAD
1000
MTEXTBEGIN
1070
    73
1070
     1
1070
    44
1040
1.0
1070
    74
1070
     0
1000
MTEXTEND
  0
MTEXT
  5
683
330
1F
100
AcDbEntity
  8
Text
100
AcDbMText
 10
10.87662815364769
 20
0.8732951697642461
 30
0.0
 40
0.07
 41
0.75
 71
     5
 72
     5
  1
36897-630
 73
     1
 44
1.0
1001
ACAD
1000
MTEXTBEGIN
1070
    73
1070
     1
1070
    44
1040
1.0
1070
    74
1070
     0
1000
MTEXTEND
  0
MTEXT
  5
684
330
1F
100
AcDbEntity
  8
Text
100
AcDbMText
 10
11.43912815364769
 20
0.8732951697642462
 30
0.0
 40
0.09
 41
0.375
 71
     5
 72
     5
  1
RN
 73
     1
 44
1.0
1001
ACAD
1000
MTEXTBEGIN
1070
    73
1070
     1
1070
    44
1040
1.0
1070
    74
1070
     0
1000
MTEXTEND
  0
MTEXT
  5
685
330
1F
100
AcDbEntity
  8
Text
100
AcDbMText
 10
11.81412815364769
 20
0.8732951697642466
 30
0.0
 40
0.09
 41
0.375
 71
     5
 72
     5
  1
RN
 73
     1
 44
1.0
1001
ACAD
1000
MTEXTBEGIN
1070
    73
1070
     1
1070
    44
1040
1.0
1070
    74
1070
     0
1000
MTEXTEND
  0
MTEXT
  5
686
330
1F
100
AcDbEntity
  8
Text
100
AcDbMText
 10
6.376628153647693
 20
1.123295169764246
 30
0.0
 40
0.09
 41
0.25
 71
     5
 72
     5
  1
-
 73
     1
 44
1.0
1001
ACAD
1000
MTEXTBEGIN
1070
    73
1070
     1
1070
    44
1040
1.0
1070
    74
1070
     0
1000
MTEXTEND
  0
MTEXT
  5
687
330
1F
100
AcDbEntity
  8
Text
100
AcDbMText
 10
6.751628153647693
 20
1.123295169764246
 30
0.0
 40
0.07
 41
0.5
 71
     5
 72
     5
  1
--------
 73
     1
 44
1.0
1001
ACAD
1000
MTEXTBEGIN
1070
    73
1070
     1
1070
    44
1040
1.0
1070
    74
1070
     0
1000
MTEXTEND
  0
MTEXT
  5
688
330
1F
100
AcDbEntity
  8
Text
100
AcDbMText
 10
7.189128153647693
 20
1.123295169764246
 30
0.0
 40
0.09
 41
0.375
 71
     5
 72
     5
  1
---
 73
     1
 44
1.0
1001
ACAD
1000
MTEXTBEGIN
1070
    73
1070
     1
1070
    44
1040
1.0
1070
    74
1070
     0
1000
MTEXTEND
  0
MTEXT
  5
689
330
1F
100
AcDbEntity
  8
Text
100
AcDbMText
 10
7.564128153647693
 20
1.123295169764246
 30
0.0
 40
0.09
 41
0.375
 71
     5
 72
     5
  1
----
 73
     1
 44
1.0
1001
ACAD
1000
MTEXTBEGIN
1070
    73
1070
     1
1070
    44
1040
1.0
1070
    74
1070
     0
1000
MTEXTEND
  0
MTEXT
  5
68B
330
1F
100
AcDbEntity
  8
Text
100
AcDbMText
 10
10.87662815364769
 20
1.123295169764246
 30
0.0
 40
0.07
 41
0.75
 71
     5
 72
     5
  1
--------
 73
     1
 44
1.0
1001
ACAD
1000
MTEXTBEGIN
1070
    73
1070
     1
1070
    44
1040
1.0
1070
    74
1070
     0
1000
MTEXTEND
  0
MTEXT
  5
68C
330
1F
100
AcDbEntity
  8
Text
100
AcDbMText
 10
11.43912815364769
 20
1.123295169764246
 30
0.0
 40
0.09
 41
0.375
 71
     5
 72
     5
  1
--
 73
     1
 44
1.0
1001
ACAD
1000
MTEXTBEGIN
1070
    73
1070
     1
1070
    44
1040
1.0
1070
    74
1070
     0
1000
MTEXTEND
  0
MTEXT
  5
68D
330
1F
100
AcDbEntity
  8
Text
100
AcDbMText
 10
11.81412815364769
 20
1.123295169764246
 30
0.0
 40
0.09
 41
0.375
 71
     5
 72
     5
  1
--
 73
     1
 44
1.0
1001
ACAD
1000
MTEXTBEGIN
1070
    73
1070
     1
1070
    44
1040
1.0
1070
    74
1070
     0
1000
MTEXTEND
  0
MTEXT
  5
68E
330
1F
100
AcDbEntity
  8
Text
100
AcDbMText
 10
7.776628153647694
 20
1.123295169764246
 30
0.0
 40
0.07
 41
2.75
 71
     4
 72
     5
  1
C. REVISED DIMENSIONS.
 73
     1
 44
1.0
1001
ACAD
1000
MTEXTBEGIN
1070
    73
1070
     1
1070
    44
1040
1.0
1070
    74
1070
     0
1000
MTEXTEND
  0
LINE
  5
692
330
1F
100
AcDbEntity
  8
Text
100
AcDbLine
 10
12.775
 20
1.524999999999998
 30
0.0
 11
13.075
 21
1.524999999999998
 31
0.0
  0
LINE
  5
693
330
1F
100
AcDbEntity
  8
Text
100
AcDbLine
 10
13.075
 20
1.524999999999998
 30
0.0
 11
12.925
 21
1.784807621135333
 31
0.0
  0
LINE
  5
694
330
1F
100
AcDbEntity
  8
Text
100
AcDbLine
 10
12.775
 20
1.524999999999998
 30
0.0
 11
12.925
 21
1.784807621135332
 31
0.0
  0
TEXT
  5
695
330
1F
100
AcDbEntity
  8
Text
100
AcDbText
 10
12.88560785179162
 20
1.569222962509648
 30
0.0
 40
0.09
  1
A
100
AcDbText
  0
LINE
  5
698
330
1F
100
AcDbEntity
  8
Text
100
AcDbLine
 10
3.671764479500385
 20
9.493206148080389
 30
0.0
 11
3.971764479500386
 21
9.493206148080389
 31
0.0
  0
LINE
  5
699
330
1F
100
AcDbEntity
  8
Text
100
AcDbLine
 10
3.971764479500386
 20
9.493206148080389
 30
0.0
 11
3.821764479500384
 21
9.753013769215723
 31
0.0
  0
LINE
  5
69A
330
1F
100
AcDbEntity
  8
Text
100
AcDbLine
 10
3.671764479500385
 20
9.493206148080389
 30
0.0
 11
3.821764479500386
 21
9.753013769215723
 31
0.0
  0
TEXT
  5
69B
330
1F
100
AcDbEntity
  8
Text
100
AcDbText
 10
3.782372331291998
 20
9.537429110590039
 30
0.0
 40
0.09
  1
C
100
AcDbText
  0
LINE
  5
69C
330
1F
100
AcDbEntity
  8
Text
100
AcDbLine
 10
7.895328248507478
 20
6.270052276057782
 30
0.0
 11
8.195328248507479
 21
6.270052276057782
 31
0.0
  0
LINE
  5
69D
330
1F
100
AcDbEntity
  8
Text
100
AcDbLine
 10
8.195328248507479
 20
6.270052276057782
 30
0.0
 11
8.045328248507477
 21
6.529859897193116
 31
0.0
  0
LINE
  5
69E
330
1F
100
AcDbEntity
  8
Text
100
AcDbLine
 10
7.895328248507478
 20
6.270052276057782
 30
0.0
 11
8.045328248507479
 21
6.529859897193116
 31
0.0
  0
TEXT
  5
69F
330
1F
100
AcDbEntity
  8
Text
100
AcDbText
 10
8.005936100299091
 20
6.314275238567432
 30
0.0
 40
0.09
  1
C
100
AcDbText
  0
LINE
  5
6A0
330
1F
100
AcDbEntity
  8
Text
100
AcDbLine
 10
3.127939515076963
 20
3.70540853688449
 30
0.0
 11
3.427939515076964
 21
3.70540853688449
 31
0.0
  0
LINE
  5
6A1
330
1F
100
AcDbEntity
  8
Text
100
AcDbLine
 10
3.427939515076964
 20
3.70540853688449
 30
0.0
 11
3.277939515076962
 21
3.965216158019824
 31
0.0
  0
LINE
  5
6A2
330
1F
100
AcDbEntity
  8
Text
100
AcDbLine
 10
3.127939515076963
 20
3.70540853688449
 30
0.0
 11
3.277939515076964
 21
3.965216158019824
 31
0.0
  0
TEXT
  5
6A3
330
1F
100
AcDbEntity
  8
Text
100
AcDbText
 10
3.241746945435526
 20
3.749631499394141
 30
0.0
 40
0.09
  1
B
100
AcDbText
  0
LINE
  5
6A4
330
1F
100
AcDbEntity
  8
Text
100
AcDbLine
 10
11.55022057998288
 20
3.690577701971889
 30
0.0
 11
11.85022057998288
 21
3.690577701971889
 31
0.0
  0
LINE
  5
6A5
330
1F
100
AcDbEntity
  8
Text
100
AcDbLine
 10
11.85022057998288
 20
3.690577701971889
 30
0.0
 11
11.70022057998288
 21
3.950385323107223
 31
0.0
  0
LINE
  5
6A6
330
1F
100
AcDbEntity
  8
Text
100
AcDbLine
 10
11.55022057998288
 20
3.690577701971889
 30
0.0
 11
11.70022057998288
 21
3.950385323107223
 31
0.0
  0
TEXT
  5
6A7
330
1F
100
AcDbEntity
  8
Text
100
AcDbText
 10
11.66082843177449
 20
3.734800664481539
 30
0.0
 40
0.09
  1
B
100
AcDbText
  0
MTEXT
  5
6BC
330
1F
100
AcDbEntity
  8
Text
100
AcDbMText
 10
6.376628153647693
 20
1.373295169764246
 30
0.0
 40
0.09
 41
0.25
 71
     5
 72
     5
  1
2
 73
     1
 44
1.0
1001
ACAD
1000
MTEXTBEGIN
1070
    73
1070
     1
1070
    44
1040
1.0
1070
    74
1070
     0
1000
MTEXTEND
  0
MTEXT
  5
6BD
330
1F
100
AcDbEntity
  8
Text
100
AcDbMText
 10
6.751628153647693
 20
1.373295169764246
 30
0.0
 40
0.07
 41
0.5
 71
     5
 72
     5
  1
6-6-07
 73
     1
 44
1.0
1001
ACAD
1000
MTEXTBEGIN
1070
    73
1070
     1
1070
    44
1040
1.0
1070
    74
1070
     0
1000
MTEXTEND
  0
MTEXT
  5
6BE
330
1F
100
AcDbEntity
  8
Text
100
AcDbMText
 10
7.189128153647693
 20
1.373295169764246
 30
0.0
 40
0.09
 41
0.375
 71
     5
 72
     5
  1
DTP
 73
     1
 44
1.0
1001
ACAD
1000
MTEXTBEGIN
1070
    73
1070
     1
1070
    44
1040
1.0
1070
    74
1070
     0
1000
MTEXTEND
  0
MTEXT
  5
6BF
330
1F
100
AcDbEntity
  8
Text
100
AcDbMText
 10
7.564128153647693
 20
1.373295169764246
 30
0.0
 40
0.07
 41
0.375
 71
     5
 72
     5
  1
DJWA
 73
     1
 44
1.0
1001
ACAD
1000
MTEXTBEGIN
1070
    73
1070
     1
1070
    44
1040
1.0
1070
    74
1070
     0
1000
MTEXTEND
  0
MTEXT
  5
6C0
330
1F
100
AcDbEntity
  8
Text
100
AcDbMText
 10
7.776628153647694
 20
1.373295169764246
 30
0.0
 40
0.07
 41
2.75
 71
     4
 72
     5
  1
E. REVISED DIMENSION.\PD. REVISED PART NUMBER.
 73
     1
 44
1.0
1001
ACAD
1000
MTEXTBEGIN
1070
    73
1070
     1
1070
    44
1040
1.0
1070
    74
1070
     0
1000
MTEXTEND
  0
DIMENSION
  5
6C1
102
{ACAD_XDICTIONARY
360
6CF
102
}
102
{ACAD_REACTORS
330
6DA
102
}
330
1F
100
AcDbEntity
  8
Dimension
100
AcDbDimension
  2
*D3
 10
1.954945995840857
 20
6.389821739459583
 30
0.0
 11
1.00109365665957
 21
6.389821739459583
 31
0.0
 70
    32
  1
0.10 [2.7mm]
 71
     5
 42
0.1150000000000002
  3
Standard
100
AcDbAlignedDimension
 13
2.069945995840857
 23
6.389821739459583
 33
0.0
 14
1.954945995840857
 24
6.389821739459583
 34
0.0
100
AcDbRotatedDimension
1001
ACAD
1000
DSTYLE
1002
{
1070
    76
1070
     1
1070
    75
1070
     1
1070
   281
1070
     0
1002
}
  0
MTEXT
  5
736
330
1F
100
AcDbEntity
  8
Text
100
AcDbMText
 10
6.376628153647693
 20
1.623295169764246
 30
0.0
 40
0.09
 41
0.25
 71
     5
 72
     5
  1
-
 73
     1
 44
1.0
1001
ACAD
1000
MTEXTBEGIN
1070
    73
1070
     1
1070
    44
1040
1.0
1070
    74
1070
     0
1000
MTEXTEND
  0
MTEXT
  5
737
330
1F
100
AcDbEntity
  8
Text
100
AcDbMText
 10
6.751628153647693
 20
1.623295169764246
 30
0.0
 40
0.07
 41
0.5
 71
     5
 72
     5
  1
--------
 73
     1
 44
1.0
1001
ACAD
1000
MTEXTBEGIN
1070
    73
1070
     1
1070
    44
1040
1.0
1070
    74
1070
     0
1000
MTEXTEND
  0
MTEXT
  5
738
330
1F
100
AcDbEntity
  8
Text
100
AcDbMText
 10
7.189128153647693
 20
1.623295169764246
 30
0.0
 40
0.09
 41
0.375
 71
     5
 72
     5
  1
---
 73
     1
 44
1.0
1001
ACAD
1000
MTEXTBEGIN
1070
    73
1070
     1
1070
    44
1040
1.0
1070
    74
1070
     0
1000
MTEXTEND
  0
MTEXT
  5
739
330
1F
100
AcDbEntity
  8
Text
100
AcDbMText
 10
7.564128153647693
 20
1.623295169764246
 30
0.0
 40
0.07
 41
0.375
 71
     5
 72
     5
  1
----
 73
     1
 44
1.0
1001
ACAD
1000
MTEXTBEGIN
1070
    73
1070
     1
1070
    44
1040
1.0
1070
    74
1070
     0
1000
MTEXTEND
  0
MTEXT
  5
73A
330
1F
100
AcDbEntity
  8
Text
100
AcDbMText
 10
7.776628153647694
 20
1.623295169764246
 30
0.0
 40
0.07
 41
2.75
 71
     4
 72
     5
  1
F. ADDED DIMENSION.
 73
     1
 44
1.0
1001
ACAD
1000
MTEXTBEGIN
1070
    73
1070
     1
1070
    44
1040
1.0
1070
    74
1070
     0
1000
MTEXTEND
  0
LINE
  5
73B
330
1F
100
AcDbEntity
  8
Text
100
AcDbLine
 10
13.10593383737987
 20
1.524999999999998
 30
0.0
 11
13.25593383737986
 21
1.784807621135329
 31
0.0
  0
LINE
  5
73C
330
1F
100
AcDbEntity
  8
Text
100
AcDbLine
 10
13.25593383737986
 20
1.784807621135329
 30
0.0
 11
13.40593383737987
 21
1.524999999999998
 31
0.0
  0
LINE
  5
73D
330
1F
100
AcDbEntity
  8
Text
100
AcDbLine
 10
13.40593383737987
 20
1.524999999999998
 30
0.0
 11
13.10593383737987
 21
1.524999999999998
 31
0.0
  0
TEXT
  5
73E
330
1F
100
AcDbEntity
  8
Text
100
AcDbText
 10
13.22340660724872
 20
1.575262141741511
 30
0.0
 40
0.09
  1
D
100
AcDbText
  0
LINE
  5
73F
330
1F
100
AcDbEntity
  8
Text
100
AcDbLine
 10
8.232003790057845
 20
6.270052276057782
 30
0.0
 11
8.382003790057845
 21
6.529859897193113
 31
0.0
  0
LINE
  5
740
330
1F
100
AcDbEntity
  8
Text
100
AcDbLine
 10
8.382003790057845
 20
6.529859897193113
 30
0.0
 11
8.532003790057846
 21
6.270052276057782
 31
0.0
  0
LINE
  5
741
330
1F
100
AcDbEntity
  8
Text
100
AcDbLine
 10
8.532003790057846
 20
6.270052276057782
 30
0.0
 11
8.232003790057845
 21
6.270052276057782
 31
0.0
  0
TEXT
  5
742
330
1F
100
AcDbEntity
  8
Text
100
AcDbText
 10
8.342808275773389
 20
6.316560357294434
 30
0.0
 40
0.09
  1
E
100
AcDbText
  0
LINE
  5
743
330
1F
100
AcDbEntity
  8
Text
100
AcDbLine
 10
4.004042662725325
 20
9.493206148080389
 30
0.0
 11
4.154042662725325
 21
9.753013769215721
 31
0.0
  0
LINE
  5
744
330
1F
100
AcDbEntity
  8
Text
100
AcDbLine
 10
4.154042662725325
 20
9.753013769215721
 30
0.0
 11
4.304042662725326
 21
9.493206148080389
 31
0.0
  0
LINE
  5
745
330
1F
100
AcDbEntity
  8
Text
100
AcDbLine
 10
4.304042662725326
 20
9.493206148080389
 30
0.0
 11
4.004042662725325
 21
9.493206148080389
 31
0.0
  0
TEXT
  5
746
330
1F
100
AcDbEntity
  8
Text
100
AcDbText
 10
4.119209841994443
 20
9.544075190341782
 30
0.0
 40
0.09
  1
E
100
AcDbText
  0
LINE
  5
749
330
1F
100
AcDbEntity
  8
Text
100
AcDbLine
 10
0.8006607768276481
 20
6.563405717919717
 30
0.0
 11
0.9506607768276484
 21
6.823213339055048
 31
0.0
  0
LINE
  5
74A
330
1F
100
AcDbEntity
  8
Text
100
AcDbLine
 10
0.9506607768276484
 20
6.823213339055048
 30
0.0
 11
1.100660776827648
 21
6.563405717919717
 31
0.0
  0
LINE
  5
74B
330
1F
100
AcDbEntity
  8
Text
100
AcDbLine
 10
1.100660776827648
 20
6.563405717919717
 30
0.0
 11
0.8006607768276481
 21
6.563405717919717
 31
0.0
  0
TEXT
  5
74C
330
1F
100
AcDbEntity
  8
Text
100
AcDbText
 10
0.9181335466965059
 20
6.616579405377983
 30
0.0
 40
0.09
  1
F
100
AcDbText
  0
ENDSEC
  0
SECTION
  2
OBJECTS
  0
DICTIONARY
  5
C
330
0
100
AcDbDictionary
281
     1
  3
ACAD_COLOR
350
73
  3
ACAD_GROUP
350
D
  3
ACAD_LAYOUT
350
1A
  3
ACAD_MATERIAL
350
72
  3
ACAD_MLINESTYLE
350
17
  3
ACAD_PLOTSETTINGS
350
19
  3
ACAD_PLOTSTYLENAME
350
E
  3
ACAD_TABLESTYLE
350
86
  3
ACDBHEADERROUNDTRIPXREC
350
763
  3
AcDbVariableDictionary
350
66
  0
DICTIONARY
  5
636
330
1F
100
AcDbDictionary
280
     1
281
     1
  3
ACAD_SORTENTS
360
637
  0
DICTIONARY
  5
64A
330
63B
100
AcDbDictionary
280
     1
281
     1
  3
ACAD_DIMASSOC
360
655
  0
DICTIONARY
  5
66A
330
65C
100
AcDbDictionary
280
     1
281
     1
  3
ACAD_DIMASSOC
360
675
  0
DICTIONARY
  5
6CF
330
6C1
100
AcDbDictionary
280
     1
281
     1
  3
ACAD_DIMASSOC
360
6DA
  0
DICTIONARY
  5
73
102
{ACAD_REACTORS
330
C
102
}
330
C
100
AcDbDictionary
281
     1
  0
DICTIONARY
  5
D
102
{ACAD_REACTORS
330
C
102
}
330
C
100
AcDbDictionary
281
     1
  0
DICTIONARY
  5
1A
102
{ACAD_REACTORS
330
C
102
}
330
C
100
AcDbDictionary
281
     1
  3
Layout1
350
59
  3
Layout2
350
5E
  3
Model
350
22
  0
DICTIONARY
  5
72
102
{ACAD_REACTORS
330
C
102
}
330
C
100
AcDbDictionary
281
     1
  0
DICTIONARY
  5
17
102
{ACAD_REACTORS
330
C
102
}
330
C
100
AcDbDictionary
281
     1
  3
Standard
350
18
  0
DICTIONARY
  5
19
102
{ACAD_REACTORS
330
C
102
}
330
C
100
AcDbDictionary
281
     1
  0
ACDBDICTIONARYWDFLT
  5
E
102
{ACAD_REACTORS
330
C
102
}
330
C
100
AcDbDictionary
281
     1
  3
Normal
350
F
100
AcDbDictionaryWithDefault
340
F
  0
DICTIONARY
  5
86
102
{ACAD_REACTORS
330
C
102
}
330
C
100
AcDbDictionary
281
     1
  3
Standard
350
87
  0
DICTIONARY
  5
763
102
{ACAD_REACTORS
330
C
102
}
330
C
100
AcDbDictionary
281
     1
  0
DICTIONARY
  5
66
102
{ACAD_REACTORS
330
C
102
}
330
C
100
AcDbDictionary
281
     1
  3
CTABLESTYLE
350
639
  3
DIMASSOC
350
67
  3
HIDETEXT
350
6B
  3
PROJECTNAME
350
761
  0
SORTENTSTABLE
  5
637
102
{ACAD_REACTORS
330
636
102
}
330
636
100
AcDbSortentsTable
330
1F
331
5E8
  5
5E8
331
5C9
  5
5C9
331
58B
  5
58B
331
5AA
  5
5AA
331
5FF
  5
5FF
331
61E
  5
61E
331
556
  5
556
331
518
  5
518
331
4C3
  5
4C3
331
46E
  5
46E
331
44F
  5
44F
331
4A4
  5
4A4
331
4E2
  5
4E2
331
537
  5
537
331
575
  5
575
331
219
  5
219
331
1DB
  5
1DB
331
1BC
  5
1BC
331
1FA
  5
1FA
331
230
  5
230
331
61F
  5
61F
331
5E9
  5
5E9
331
58C
  5
58C
331
5AB
  5
5AB
331
5CA
  5
5CA
331
600
  5
600
331
576
  5
576
331
538
  5
538
331
4E3
  5
4E3
331
4A5
  5
4A5
331
46F
  5
46F
331
4C4
  5
4C4
331
519
  5
519
331
557
  5
557
331
250
  5
250
331
1FB
  5
1FB
331
1BD
  5
1BD
331
1DC
  5
1DC
331
21A
  5
21A
331
231
  5
231
331
5EA
  5
5EA
331
5AC
  5
5AC
331
58D
  5
58D
331
5CB
  5
5CB
331
601
  5
601
331
620
  5
620
331
558
  5
558
331
51A
  5
51A
331
4C5
  5
4C5
331
4A6
  5
4A6
331
4E4
  5
4E4
331
539
  5
539
331
577
  5
577
331
270
  5
270
331
21B
  5
21B
331
1DD
  5
1DD
331
1BE
  5
1BE
331
1FC
  5
1FC
331
232
  5
232
331
251
  5
251
331
621
  5
621
331
5EB
  5
5EB
331
58E
  5
58E
331
5AD
  5
5AD
331
5CC
  5
5CC
331
602
  5
602
331
51B
  5
51B
331
4E5
  5
4E5
331
4A7
  5
4A7
331
4C6
  5
4C6
331
53A
  5
53A
331
559
  5
559
331
290
  5
290
331
252
  5
252
331
1FD
  5
1FD
331
1BF
  5
1BF
331
1DE
  5
1DE
331
21C
  5
21C
331
233
  5
233
331
271
  5
271
331
5EC
  5
5EC
331
5AE
  5
5AE
331
58F
  5
58F
331
5CD
  5
5CD
331
603
  5
603
331
622
  5
622
331
55A
  5
55A
331
51C
  5
51C
331
4C7
  5
4C7
331
4E6
  5
4E6
331
53B
  5
53B
331
291
  5
291
331
272
  5
272
331
21D
  5
21D
331
1DF
  5
1DF
331
1C0
  5
1C0
331
1FE
  5
1FE
331
234
  5
234
331
253
  5
253
331
2A8
  5
2A8
331
623
  5
623
331
5CE
  5
5CE
331
590
  5
590
331
5AF
  5
5AF
331
5ED
  5
5ED
331
604
  5
604
331
51D
  5
51D
331
4E7
  5
4E7
331
53C
  5
53C
331
55B
  5
55B
331
2C8
  5
2C8
331
292
  5
292
331
235
  5
235
331
1FF
  5
1FF
331
1C1
  5
1C1
331
1E0
  5
1E0
331
21E
  5
21E
331
254
  5
254
331
273
  5
273
331
2A9
  5
2A9
331
5EE
  5
5EE
331
5B0
  5
5B0
331
591
  5
591
331
5CF
  5
5CF
331
605
  5
605
331
624
  5
624
331
53D
  5
53D
331
51E
  5
51E
331
55C
  5
55C
331
2E8
  5
2E8
331
293
  5
293
331
274
  5
274
331
21F
  5
21F
331
1E1
  5
1E1
331
1C2
  5
1C2
331
200
  5
200
331
236
  5
236
331
255
  5
255
331
2AA
  5
2AA
331
2C9
  5
2C9
331
625
  5
625
331
5D0
  5
5D0
331
592
  5
592
331
5B1
  5
5B1
331
5EF
  5
5EF
331
606
  5
606
331
51F
  5
51F
331
53E
  5
53E
331
55D
  5
55D
331
308
  5
308
331
2CA
  5
2CA
331
294
  5
294
331
237
  5
237
331
201
  5
201
331
1C3
  5
1C3
331
1E2
  5
1E2
331
220
  5
220
331
256
  5
256
331
275
  5
275
331
2AB
  5
2AB
331
2E9
  5
2E9
331
607
  5
607
331
5B2
  5
5B2
331
593
  5
593
331
5D1
  5
5D1
331
626
  5
626
331
53F
  5
53F
331
55E
  5
55E
331
320
  5
320
331
2EA
  5
2EA
331
295
  5
295
331
257
  5
257
331
221
  5
221
331
1E3
  5
1E3
331
1C4
  5
1C4
331
202
  5
202
331
238
  5
238
331
276
  5
276
331
2AC
  5
2AC
331
2CB
  5
2CB
331
309
  5
309
331
627
  5
627
331
5D2
  5
5D2
331
594
  5
594
331
5B3
  5
5B3
331
608
  5
608
331
55F
  5
55F
331
30A
  5
30A
331
2CC
  5
2CC
331
296
  5
296
331
239
  5
239
331
203
  5
203
331
1C5
  5
1C5
331
1E4
  5
1E4
331
222
  5
222
331
258
  5
258
331
277
  5
277
331
2AD
  5
2AD
331
2EB
  5
2EB
331
321
  5
321
331
340
  5
340
331
609
  5
609
331
5B4
  5
5B4
331
595
  5
595
331
5D3
  5
5D3
331
628
  5
628
331
322
  5
322
331
2EC
  5
2EC
331
297
  5
297
331
259
  5
259
331
223
  5
223
331
1C6
  5
1C6
331
1E5
  5
1E5
331
204
  5
204
331
23A
  5
23A
331
278
  5
278
331
2AE
  5
2AE
331
2CD
  5
2CD
331
30B
  5
30B
331
341
  5
341
331
360
  5
360
331
60A
  5
60A
331
5D4
  5
5D4
331
596
  5
596
331
5B5
  5
5B5
331
629
  5
629
331
380
  5
380
331
342
  5
342
331
30C
  5
30C
331
2CE
  5
2CE
331
279
  5
279
331
224
  5
224
331
205
  5
205
331
1C7
  5
1C7
331
1E6
  5
1E6
331
23B
  5
23B
331
25A
  5
25A
331
298
  5
298
331
2AF
  5
2AF
331
2ED
  5
2ED
331
323
  5
323
331
361
  5
361
331
60B
  5
60B
331
5B6
  5
5B6
331
597
  5
597
331
5D5
  5
5D5
331
62A
  5
62A
331
381
  5
381
331
324
  5
324
331
2EE
  5
2EE
331
299
  5
299
331
25B
  5
25B
331
225
  5
225
331
1C8
  5
1C8
331
1E7
  5
1E7
331
206
  5
206
331
23C
  5
23C
331
27A
  5
27A
331
2B0
  5
2B0
331
2CF
  5
2CF
331
30D
  5
30D
331
343
  5
343
331
362
  5
362
331
60C
  5
60C
331
5D6
  5
5D6
331
5B7
  5
5B7
331
62B
  5
62B
331
382
  5
382
331
344
  5
344
331
30E
  5
30E
331
2B1
  5
2B1
331
27B
  5
27B
331
226
  5
226
331
1E8
  5
1E8
331
1C9
  5
1C9
331
207
  5
207
331
23D
  5
23D
331
25C
  5
25C
331
29A
  5
29A
331
2D0
  5
2D0
331
2EF
  5
2EF
331
325
  5
325
331
363
  5
363
331
62C
  5
62C
331
60D
  5
60D
331
5D7
  5
5D7
331
364
  5
364
331
30F
  5
30F
331
2F0
  5
2F0
331
29B
  5
29B
331
25D
  5
25D
331
227
  5
227
331
1CA
  5
1CA
331
1E9
  5
1E9
331
208
  5
208
331
23E
  5
23E
331
27C
  5
27C
331
2B2
  5
2B2
331
2D1
  5
2D1
331
326
  5
326
331
345
  5
345
331
383
  5
383
331
60E
  5
60E
331
62D
  5
62D
331
384
  5
384
331
346
  5
346
331
310
  5
310
331
2B3
  5
2B3
331
27D
  5
27D
331
228
  5
228
331
1EA
  5
1EA
331
1CB
  5
1CB
331
209
  5
209
331
23F
  5
23F
331
25E
  5
25E
331
29C
  5
29C
331
2D2
  5
2D2
331
2F1
  5
2F1
331
327
  5
327
331
365
  5
365
331
62E
  5
62E
331
60F
  5
60F
331
366
  5
366
331
311
  5
311
331
2D3
  5
2D3
331
29D
  5
29D
331
25F
  5
25F
331
20A
  5
20A
331
1CC
  5
1CC
331
1EB
  5
1EB
331
229
  5
229
331
240
  5
240
331
27E
  5
27E
331
2B4
  5
2B4
331
2F2
  5
2F2
331
328
  5
328
331
347
  5
347
331
385
  5
385
331
62F
  5
62F
331
386
  5
386
331
348
  5
348
331
312
  5
312
331
2B5
  5
2B5
331
27F
  5
27F
331
22A
  5
22A
331
1EC
  5
1EC
331
1CD
  5
1CD
331
20B
  5
20B
331
241
  5
241
331
260
  5
260
331
29E
  5
29E
331
2D4
  5
2D4
331
2F3
  5
2F3
331
329
  5
329
331
367
  5
367
331
368
  5
368
331
313
  5
313
331
2D5
  5
2D5
331
29F
  5
29F
331
261
  5
261
331
20C
  5
20C
331
1CE
  5
1CE
331
1ED
  5
1ED
331
22B
  5
22B
331
242
  5
242
331
280
  5
280
331
2B6
  5
2B6
331
2F4
  5
2F4
331
32A
  5
32A
331
349
  5
349
331
387
  5
387
331
388
  5
388
331
34A
  5
34A
331
2F5
  5
2F5
331
2A0
  5
2A0
331
281
  5
281
331
22C
  5
22C
331
1EE
  5
1EE
331
1CF
  5
1CF
331
20D
  5
20D
331
243
  5
243
331
262
  5
262
331
2B7
  5
2B7
331
2D6
  5
2D6
331
314
  5
314
331
32B
  5
32B
331
369
  5
369
331
36A
  5
36A
331
315
  5
315
331
2D7
  5
2D7
331
2A1
  5
2A1
331
263
  5
263
331
20E
  5
20E
331
1D0
  5
1D0
331
1EF
  5
1EF
331
22D
  5
22D
331
244
  5
244
331
282
  5
282
331
2B8
  5
2B8
331
2F6
  5
2F6
331
32C
  5
32C
331
34B
  5
34B
331
389
  5
389
331
38A
  5
38A
331
34C
  5
34C
331
2F7
  5
2F7
331
2A2
  5
2A2
331
283
  5
283
331
22E
  5
22E
331
1F0
  5
1F0
331
1D1
  5
1D1
331
20F
  5
20F
331
245
  5
245
331
264
  5
264
331
2B9
  5
2B9
331
2D8
  5
2D8
331
316
  5
316
331
32D
  5
32D
331
36B
  5
36B
331
36C
  5
36C
331
317
  5
317
331
2D9
  5
2D9
331
2A3
  5
2A3
331
246
  5
246
331
210
  5
210
331
1D2
  5
1D2
331
1F1
  5
1F1
331
22F
  5
22F
331
265
  5
265
331
284
  5
284
331
2BA
  5
2BA
331
2F8
  5
2F8
331
32E
  5
32E
331
34D
  5
34D
331
38B
  5
38B
331
38C
  5
38C
331
34E
  5
34E
331
2F9
  5
2F9
331
2A4
  5
2A4
331
285
  5
285
331
247
  5
247
331
1F2
  5
1F2
331
1D3
  5
1D3
331
211
  5
211
331
266
  5
266
331
2BB
  5
2BB
331
2DA
  5
2DA
331
318
  5
318
331
32F
  5
32F
331
36D
  5
36D
331
36E
  5
36E
331
319
  5
319
331
2DB
  5
2DB
331
2A5
  5
2A5
331
248
  5
248
331
212
  5
212
331
1D4
  5
1D4
331
1F3
  5
1F3
331
267
  5
267
331
286
  5
286
331
2BC
  5
2BC
331
2FA
  5
2FA
331
330
  5
330
331
34F
  5
34F
331
38D
  5
38D
331
38E
  5
38E
331
331
  5
331
331
2FB
  5
2FB
331
2A6
  5
2A6
331
268
  5
268
331
249
  5
249
331
1F4
  5
1F4
331
1D5
  5
1D5
331
213
  5
213
331
287
  5
287
331
2BD
  5
2BD
331
2DC
  5
2DC
331
31A
  5
31A
331
350
  5
350
331
36F
  5
36F
331
38F
  5
38F
331
370
  5
370
331
31B
  5
31B
331
2DD
  5
2DD
331
2A7
  5
2A7
331
24A
  5
24A
331
214
  5
214
331
1D6
  5
1D6
331
1F5
  5
1F5
331
269
  5
269
331
288
  5
288
331
2BE
  5
2BE
331
2FC
  5
2FC
331
332
  5
332
331
351
  5
351
331
390
  5
390
331
333
  5
333
331
2FD
  5
2FD
331
2BF
  5
2BF
331
26A
  5
26A
331
24B
  5
24B
331
1D7
  5
1D7
331
1F6
  5
1F6
331
215
  5
215
331
289
  5
289
331
2DE
  5
2DE
331
31C
  5
31C
331
352
  5
352
331
371
  5
371
331
398
  5
398
331
391
  5
391
331
353
  5
353
331
31D
  5
31D
331
2DF
  5
2DF
331
28A
  5
28A
331
24C
  5
24C
331
216
  5
216
331
1F7
  5
1F7
331
26B
  5
26B
331
2C0
  5
2C0
331
2FE
  5
2FE
331
334
  5
334
331
372
  5
372
331
399
  5
399
331
3B8
  5
3B8
331
392
  5
392
331
335
  5
335
331
2FF
  5
2FF
331
2C1
  5
2C1
331
26C
  5
26C
331
24D
  5
24D
331
217
  5
217
331
28B
  5
28B
331
2E0
  5
2E0
331
31E
  5
31E
331
354
  5
354
331
373
  5
373
331
1AA
  5
1AA
331
3B9
  5
3B9
331
39A
  5
39A
331
3D8
  5
3D8
331
393
  5
393
331
355
  5
355
331
31F
  5
31F
331
2C2
  5
2C2
331
28C
  5
28C
331
24E
  5
24E
331
26D
  5
26D
331
2E1
  5
2E1
331
300
  5
300
331
336
  5
336
331
374
  5
374
331
1AB
  5
1AB
331
3D9
  5
3D9
331
39B
  5
39B
331
3BA
  5
3BA
331
3F8
  5
3F8
331
375
  5
375
331
337
  5
337
331
301
  5
301
331
2C3
  5
2C3
331
26E
  5
26E
331
24F
  5
24F
331
28D
  5
28D
331
2E2
  5
2E2
331
356
  5
356
331
394
  5
394
331
1AC
  5
1AC
331
3F9
  5
3F9
331
3BB
  5
3BB
331
39C
  5
39C
331
3DA
  5
3DA
331
410
  5
410
331
395
  5
395
331
357
  5
357
331
338
  5
338
331
2C4
  5
2C4
331
28E
  5
28E
331
26F
  5
26F
331
2E3
  5
2E3
331
302
  5
302
331
376
  5
376
331
1AD
  5
1AD
331
411
  5
411
331
3DB
  5
3DB
331
39D
  5
39D
331
3BC
  5
3BC
331
3FA
  5
3FA
331
430
  5
430
331
377
  5
377
331
339
  5
339
331
2E4
  5
2E4
331
2C5
  5
2C5
331
28F
  5
28F
331
303
  5
303
331
358
  5
358
331
396
  5
396
331
1AE
  5
1AE
331
431
  5
431
331
3FB
  5
3FB
331
3BD
  5
3BD
331
39E
  5
39E
331
3DC
  5
3DC
331
412
  5
412
331
450
  5
450
331
397
  5
397
331
359
  5
359
331
33A
  5
33A
331
2C6
  5
2C6
331
2E5
  5
2E5
331
304
  5
304
331
378
  5
378
331
1AF
  5
1AF
331
470
  5
470
331
413
  5
413
331
3DD
  5
3DD
331
39F
  5
39F
331
3BE
  5
3BE
331
3FC
  5
3FC
331
432
  5
432
331
451
  5
451
331
379
  5
379
331
33B
  5
33B
331
2E6
  5
2E6
331
2C7
  5
2C7
331
305
  5
305
331
35A
  5
35A
331
1B0
  5
1B0
331
433
  5
433
331
3FD
  5
3FD
331
3A0
  5
3A0
331
3BF
  5
3BF
331
3DE
  5
3DE
331
414
  5
414
331
452
  5
452
331
471
  5
471
331
488
  5
488
331
35B
  5
35B
331
306
  5
306
331
2E7
  5
2E7
331
33C
  5
33C
331
37A
  5
37A
331
1B1
  5
1B1
331
453
  5
453
331
3FE
  5
3FE
331
3DF
  5
3DF
331
3A1
  5
3A1
331
3C0
  5
3C0
331
415
  5
415
331
434
  5
434
331
472
  5
472
331
489
  5
489
331
4A8
  5
4A8
331
37B
  5
37B
331
33D
  5
33D
331
307
  5
307
331
35C
  5
35C
331
1B2
  5
1B2
331
48A
  5
48A
331
435
  5
435
331
3FF
  5
3FF
331
3A2
  5
3A2
331
3C1
  5
3C1
331
3E0
  5
3E0
331
416
  5
416
331
454
  5
454
331
473
  5
473
331
4A9
  5
4A9
331
4C8
  5
4C8
331
35D
  5
35D
331
33E
  5
33E
331
37C
  5
37C
331
1B3
  5
1B3
331
4E8
  5
4E8
331
4C9
  5
4C9
331
455
  5
455
331
400
  5
400
331
3C2
  5
3C2
331
3A3
  5
3A3
331
3E1
  5
3E1
331
417
  5
417
331
436
  5
436
331
474
  5
474
331
48B
  5
48B
331
4AA
  5
4AA
331
37D
  5
37D
331
33F
  5
33F
331
35E
  5
35E
331
1B4
  5
1B4
331
4E9
  5
4E9
331
48C
  5
48C
331
437
  5
437
331
401
  5
401
331
3A4
  5
3A4
331
3C3
  5
3C3
331
3E2
  5
3E2
331
418
  5
418
331
456
  5
456
331
475
  5
475
331
4AB
  5
4AB
331
4CA
  5
4CA
331
500
  5
500
331
35F
  5
35F
331
37E
  5
37E
331
1B5
  5
1B5
331
4EA
  5
4EA
331
4AC
  5
4AC
331
457
  5
457
331
402
  5
402
331
3C4
  5
3C4
331
3A5
  5
3A5
331
3E3
  5
3E3
331
419
  5
419
331
438
  5
438
331
476
  5
476
331
48D
  5
48D
331
4CB
  5
4CB
331
501
  5
501
331
520
  5
520
331
37F
  5
37F
331
1B6
  5
1B6
331
521
  5
521
331
4EB
  5
4EB
331
48E
  5
48E
331
439
  5
439
331
3E4
  5
3E4
331
3A6
  5
3A6
331
3C5
  5
3C5
331
403
  5
403
331
41A
  5
41A
331
458
  5
458
331
477
  5
477
331
4AD
  5
4AD
331
4CC
  5
4CC
331
502
  5
502
331
540
  5
540
331
1B7
  5
1B7
331
541
  5
541
331
4EC
  5
4EC
331
4AE
  5
4AE
331
459
  5
459
331
404
  5
404
331
3C6
  5
3C6
331
3A7
  5
3A7
331
3E5
  5
3E5
331
41B
  5
41B
331
43A
  5
43A
331
478
  5
478
331
48F
  5
48F
331
4CD
  5
4CD
331
503
  5
503
331
522
  5
522
331
560
  5
560
331
561
  5
561
331
523
  5
523
331
4CE
  5
4CE
331
479
  5
479
331
43B
  5
43B
331
3E6
  5
3E6
331
3A8
  5
3A8
331
3C7
  5
3C7
331
405
  5
405
331
41C
  5
41C
331
45A
  5
45A
331
490
  5
490
331
4AF
  5
4AF
331
4ED
  5
4ED
331
504
  5
504
331
542
  5
542
331
578
  5
578
331
543
  5
543
331
4EE
  5
4EE
331
4B0
  5
4B0
331
45B
  5
45B
331
406
  5
406
331
3C8
  5
3C8
331
3A9
  5
3A9
331
3E7
  5
3E7
331
41D
  5
41D
331
43C
  5
43C
331
47A
  5
47A
331
491
  5
491
331
4CF
  5
4CF
331
505
  5
505
331
524
  5
524
331
562
  5
562
331
579
  5
579
331
598
  5
598
331
563
  5
563
331
525
  5
525
331
4D0
  5
4D0
331
47B
  5
47B
331
43D
  5
43D
331
3E8
  5
3E8
331
3AA
  5
3AA
331
3C9
  5
3C9
331
407
  5
407
331
41E
  5
41E
331
45C
  5
45C
331
492
  5
492
331
4B1
  5
4B1
331
4EF
  5
4EF
331
506
  5
506
331
544
  5
544
331
5B8
  5
5B8
331
57A
  5
57A
331
599
  5
599
331
545
  5
545
331
4F0
  5
4F0
331
4B2
  5
4B2
331
45D
  5
45D
331
408
  5
408
331
3CA
  5
3CA
331
3AB
  5
3AB
331
3E9
  5
3E9
331
41F
  5
41F
331
43E
  5
43E
331
47C
  5
47C
331
493
  5
493
331
4D1
  5
4D1
331
507
  5
507
331
526
  5
526
331
564
  5
564
331
5D8
  5
5D8
331
57B
  5
57B
331
59A
  5
59A
331
5B9
  5
5B9
331
565
  5
565
331
527
  5
527
331
4D2
  5
4D2
331
47D
  5
47D
331
420
  5
420
331
3EA
  5
3EA
331
3AC
  5
3AC
331
3CB
  5
3CB
331
409
  5
409
331
43F
  5
43F
331
45E
  5
45E
331
494
  5
494
331
4B3
  5
4B3
331
4F1
  5
4F1
331
508
  5
508
331
546
  5
546
331
5D9
  5
5D9
331
59B
  5
59B
331
57C
  5
57C
331
5BA
  5
5BA
331
5F0
  5
5F0
331
547
  5
547
331
4F2
  5
4F2
331
4B4
  5
4B4
331
45F
  5
45F
331
40A
  5
40A
331
3CC
  5
3CC
331
3AD
  5
3AD
331
3EB
  5
3EB
331
421
  5
421
331
440
  5
440
331
47E
  5
47E
331
495
  5
495
331
4D3
  5
4D3
331
509
  5
509
331
528
  5
528
331
566
  5
566
331
610
  5
610
331
5DA
  5
5DA
331
57D
  5
57D
331
59C
  5
59C
331
5BB
  5
5BB
331
5F1
  5
5F1
331
567
  5
567
331
50A
  5
50A
331
4D4
  5
4D4
331
47F
  5
47F
331
422
  5
422
331
3EC
  5
3EC
331
3AE
  5
3AE
331
3CD
  5
3CD
331
40B
  5
40B
331
441
  5
441
331
460
  5
460
331
496
  5
496
331
4B5
  5
4B5
331
4F3
  5
4F3
331
529
  5
529
331
548
  5
548
331
630
  5
630
331
5DB
  5
5DB
331
59D
  5
59D
331
57E
  5
57E
331
5BC
  5
5BC
331
5F2
  5
5F2
331
611
  5
611
331
568
  5
568
331
549
  5
549
331
4F4
  5
4F4
331
4B6
  5
4B6
331
442
  5
442
331
40C
  5
40C
331
3CE
  5
3CE
331
3AF
  5
3AF
331
3ED
  5
3ED
331
423
  5
423
331
461
  5
461
331
480
  5
480
331
497
  5
497
331
4D5
  5
4D5
331
50B
  5
50B
331
52A
  5
52A
331
612
  5
612
331
5BD
  5
5BD
331
57F
  5
57F
331
59E
  5
59E
331
5DC
  5
5DC
331
5F3
  5
5F3
331
631
  5
631
331
569
  5
569
331
50C
  5
50C
331
4D6
  5
4D6
331
481
  5
481
331
424
  5
424
331
3EE
  5
3EE
331
3B0
  5
3B0
331
3CF
  5
3CF
331
40D
  5
40D
331
443
  5
443
331
462
  5
462
331
498
  5
498
331
4B7
  5
4B7
331
4F5
  5
4F5
331
52B
  5
52B
331
54A
  5
54A
331
632
  5
632
331
5DD
  5
5DD
331
59F
  5
59F
331
580
  5
580
331
5BE
  5
5BE
331
5F4
  5
5F4
331
613
  5
613
331
56A
  5
56A
331
52C
  5
52C
331
4F6
  5
4F6
331
4B8
  5
4B8
331
444
  5
444
331
40E
  5
40E
331
3B1
  5
3B1
331
3D0
  5
3D0
331
3EF
  5
3EF
331
425
  5
425
331
463
  5
463
331
482
  5
482
331
499
  5
499
331
4D7
  5
4D7
331
50D
  5
50D
331
54B
  5
54B
331
614
  5
614
331
5BF
  5
5BF
331
581
  5
581
331
5A0
  5
5A0
331
5DE
  5
5DE
331
5F5
  5
5F5
331
633
  5
633
331
56B
  5
56B
331
50E
  5
50E
331
4D8
  5
4D8
331
464
  5
464
331
40F
  5
40F
331
3F0
  5
3F0
331
3B2
  5
3B2
331
3D1
  5
3D1
331
426
  5
426
331
445
  5
445
331
483
  5
483
331
49A
  5
49A
331
4B9
  5
4B9
331
4F7
  5
4F7
331
52D
  5
52D
331
54C
  5
54C
331
634
  5
634
331
5DF
  5
5DF
331
5A1
  5
5A1
331
582
  5
582
331
5C0
  5
5C0
331
5F6
  5
5F6
331
615
  5
615
331
56C
  5
56C
331
52E
  5
52E
331
4F8
  5
4F8
331
49B
  5
49B
331
446
  5
446
331
427
  5
427
331
3B3
  5
3B3
331
3D2
  5
3D2
331
3F1
  5
3F1
331
465
  5
465
331
484
  5
484
331
4BA
  5
4BA
331
4D9
  5
4D9
331
50F
  5
50F
331
54D
  5
54D
331
616
  5
616
331
5C1
  5
5C1
331
583
  5
583
331
5A2
  5
5A2
331
5E0
  5
5E0
331
5F7
  5
5F7
331
635
  5
635
331
54E
  5
54E
331
4F9
  5
4F9
331
4DA
  5
4DA
331
466
  5
466
331
428
  5
428
331
3D3
  5
3D3
331
3B4
  5
3B4
331
3F2
  5
3F2
331
447
  5
447
331
485
  5
485
331
49C
  5
49C
331
4BB
  5
4BB
331
510
  5
510
331
52F
  5
52F
331
56D
  5
56D
331
5E1
  5
5E1
331
5A3
  5
5A3
331
584
  5
584
331
5C2
  5
5C2
331
5F8
  5
5F8
331
617
  5
617
331
56E
  5
56E
331
530
  5
530
331
4FA
  5
4FA
331
49D
  5
49D
331
448
  5
448
331
429
  5
429
331
3B5
  5
3B5
331
3D4
  5
3D4
331
3F3
  5
3F3
331
467
  5
467
331
486
  5
486
331
4BC
  5
4BC
331
4DB
  5
4DB
331
511
  5
511
331
54F
  5
54F
331
5F9
  5
5F9
331
5C3
  5
5C3
331
585
  5
585
331
5A4
  5
5A4
331
5E2
  5
5E2
331
618
  5
618
331
550
  5
550
331
4FB
  5
4FB
331
4BD
  5
4BD
331
468
  5
468
331
42A
  5
42A
331
3D5
  5
3D5
331
3B6
  5
3B6
331
3F4
  5
3F4
331
449
  5
449
331
487
  5
487
331
49E
  5
49E
331
4DC
  5
4DC
331
512
  5
512
331
531
  5
531
331
56F
  5
56F
331
5E3
  5
5E3
331
5A5
  5
5A5
331
586
  5
586
331
5C4
  5
5C4
331
5FA
  5
5FA
331
619
  5
619
331
570
  5
570
331
532
  5
532
331
4FC
  5
4FC
331
49F
  5
49F
331
44A
  5
44A
331
3F5
  5
3F5
331
3B7
  5
3B7
331
3D6
  5
3D6
331
42B
  5
42B
331
469
  5
469
331
4BE
  5
4BE
331
4DD
  5
4DD
331
513
  5
513
331
551
  5
551
331
5FB
  5
5FB
331
5C5
  5
5C5
331
587
  5
587
331
5A6
  5
5A6
331
5E4
  5
5E4
331
61A
  5
61A
331
552
  5
552
331
4FD
  5
4FD
331
4BF
  5
4BF
331
46A
  5
46A
331
42C
  5
42C
331
3D7
  5
3D7
331
3F6
  5
3F6
331
44B
  5
44B
331
4A0
  5
4A0
331
4DE
  5
4DE
331
514
  5
514
331
533
  5
533
331
571
  5
571
331
1B8
  5
1B8
331
61B
  5
61B
331
5E5
  5
5E5
331
5A7
  5
5A7
331
588
  5
588
331
5C6
  5
5C6
331
5FC
  5
5FC
331
572
  5
572
331
534
  5
534
331
4DF
  5
4DF
331
4A1
  5
4A1
331
44C
  5
44C
331
3F7
  5
3F7
331
42D
  5
42D
331
46B
  5
46B
331
4C0
  5
4C0
331
4FE
  5
4FE
331
515
  5
515
331
553
  5
553
331
1B9
  5
1B9
331
1D8
  5
1D8
331
5FD
  5
5FD
331
5C7
  5
5C7
331
589
  5
589
331
5A8
  5
5A8
331
5E6
  5
5E6
331
61C
  5
61C
331
554
  5
554
331
4FF
  5
4FF
331
4C1
  5
4C1
331
46C
  5
46C
331
42E
  5
42E
331
44D
  5
44D
331
4A2
  5
4A2
331
4E0
  5
4E0
331
516
  5
516
331
535
  5
535
331
573
  5
573
331
1D9
  5
1D9
331
1BA
  5
1BA
331
1F8
  5
1F8
331
61D
  5
61D
331
5E7
  5
5E7
331
58A
  5
58A
331
5A9
  5
5A9
331
5C8
  5
5C8
331
5FE
  5
5FE
331
574
  5
574
331
536
  5
536
331
4E1
  5
4E1
331
4A3
  5
4A3
331
44E
  5
44E
331
42F
  5
42F
331
46D
  5
46D
331
4C2
  5
4C2
331
517
  5
517
331
555
  5
555
331
1F9
  5
1F9
331
1BB
  5
1BB
331
1DA
  5
1DA
331
218
  5
218
  0
DIMASSOC
  5
655
102
{ACAD_REACTORS
330
64A
102
}
330
64A
100
AcDbDimAssoc
330
63B
 90
        3
 70
     0
 71
     0
  1
AcDbOsnapPointRef
 72
     1
331
5D6
 73
     2
 91
        0
 40
1.0
 10
0.0
 20
0.0
 30
2.000000000000000E+50
 75
     0
  1
AcDbOsnapPointRef
 72
     1
331
5E8
 73
     2
 91
        0
 40
1.0
 10
0.0
 20
0.0
 30
2.000000000000000E+50
 75
     0
  0
DIMASSOC
  5
675
102
{ACAD_REACTORS
330
66A
102
}
330
66A
100
AcDbDimAssoc
330
65C
 90
        3
 70
     0
 71
     0
  1
AcDbOsnapPointRef
 72
     1
331
4F3
 73
     2
 91
        0
 40
1.0
 10
0.0
 20
0.0
 30
2.000000000000000E+50
 75
     0
  1
AcDbOsnapPointRef
 72
     1
331
5DD
 73
     2
 91
        0
 40
1.0
 10
0.0
 20
0.0
 30
2.000000000000000E+50
 75
     0
  0
DIMASSOC
  5
6DA
102
{ACAD_REACTORS
330
6CF
102
}
330
6CF
100
AcDbDimAssoc
330
6C1
 90
        3
 70
     0
 71
     0
  1
AcDbOsnapPointRef
 72
     2
331
586
 73
     2
 91
        0
 40
0.5
 10
0.0
 20
0.0
 30
0.0
 75
     0
  1
AcDbOsnapPointRef
 72
     2
331
584
 73
     2
 91
        0
 40
0.5
 10
0.0
 20
0.0
 30
0.0
 75
     0
  0
LAYOUT
  5
59
102
{ACAD_XDICTIONARY
360
766
102
}
102
{ACAD_REACTORS
330
1A
102
}
330
1A
100
AcDbPlotSettings
  1

  2
None
  4

  6

 40
0.0
 41
0.0
 42
0.0
 43
0.0
 44
0.0
 45
0.0
 46
0.0
 47
0.0
 48
0.0
 49
0.0
140
0.0
141
0.0
142
1.0
143
1.0
 70
   688
 72
     0
 73
     0
 74
     5
  7

 75
    16
147
1.0
148
0.0
149
0.0
100
AcDbLayout
  1
Layout1
 70
     1
 71
     1
 10
0.0
 20
0.0
 11
12.0
 21
9.0
 12
0.0
 22
0.0
 32
0.0
 14
0.0
 24
0.0
 34
0.0
 15
0.0
 25
0.0
 35
0.0
146
0.0
 13
0.0
 23
0.0
 33
0.0
 16
1.0
 26
0.0
 36
0.0
 17
0.0
 27
1.0
 37
0.0
 76
     0
330
58
  0
LAYOUT
  5
5E
102
{ACAD_XDICTIONARY
360
768
102
}
102
{ACAD_REACTORS
330
1A
102
}
330
1A
100
AcDbPlotSettings
  1

  2
None
  4

  6

 40
0.0
 41
0.0
 42
0.0
 43
0.0
 44
0.0
 45
0.0
 46
0.0
 47
0.0
 48
0.0
 49
0.0
140
0.0
141
0.0
142
1.0
143
1.0
 70
   688
 72
     0
 73
     0
 74
     5
  7

 75
    16
147
1.0
148
0.0
149
0.0
100
AcDbLayout
  1
Layout2
 70
     1
 71
     2
 10
0.0
 20
0.0
 11
12.0
 21
9.0
 12
0.0
 22
0.0
 32
0.0
 14
0.0
 24
0.0
 34
0.0
 15
0.0
 25
0.0
 35
0.0
146
0.0
 13
0.0
 23
0.0
 33
0.0
 16
1.0
 26
0.0
 36
0.0
 17
0.0
 27
1.0
 37
0.0
 76
     0
330
5D
  0
LAYOUT
  5
22
102
{ACAD_XDICTIONARY
360
764
102
}
102
{ACAD_REACTORS
330
1A
102
}
330
1A
100
AcDbPlotSettings
  1

  2
none_device
  4
ANSI_A_(8.50_x_11.00_Inches)
  6

 40
6.349999904632568
 41
19.04999923706055
 42
6.350006103515625
 43
19.04998779296875
 44
215.8999938964844
 45
279.3999938964844
 46
0.0
 47
0.0
 48
0.0
 49
0.0
140
0.0
141
0.0
142
1.0
143
2.584895464708373
 70
 11952
 72
     0
 73
     1
 74
     0
  7

 75
     0
147
0.3868628397755418
148
0.0
149
0.0
100
AcDbLayout
  1
Model
 70
     1
 71
     0
 10
0.0
 20
0.0
 11
12.0
 21
9.0
 12
0.0
 22
0.0
 32
0.0
 14
0.0
 24
0.0
 34
0.0
 15
0.0
 25
0.0
 35
0.0
146
0.0
 13
0.0
 23
0.0
 33
0.0
 16
1.0
 26
0.0
 36
0.0
 17
0.0
 27
1.0
 37
0.0
 76
     0
330
1F
  0
MLINESTYLE
  5
18
102
{ACAD_REACTORS
330
17
102
}
330
17
100
AcDbMlineStyle
  2
STANDARD
 70
     0
  3

 62
   256
 51
90.0
 52
90.0
 71
     2
 49
0.5
 62
   256
  6
BYLAYER
 49
-0.5
 62
   256
  6
BYLAYER
  0
ACDBPLACEHOLDER
  5
F
102
{ACAD_REACTORS
330
E
102
}
330
E
  0
TABLESTYLE
  5
87
102
{ACAD_REACTORS
330
86
102
}
330
86
100
AcDbTableStyle
  3
Standard
 70
     0
 71
     0
 40
0.06
 41
0.06
280
     0
281
     0
  7
Standard
140
0.18
170
     2
 62
     0
 63
     7
283
     0
274
    -2
284
     1
 64
     0
275
    -2
285
     1
 65
     0
276
    -2
286
     1
 66
     0
277
    -2
287
     1
 67
     0
278
    -2
288
     1
 68
     0
279
    -2
289
     1
 69
     0
  7
Standard
140
0.25
170
     5
 62
     0
 63
     7
283
     0
274
    -2
284
     1
 64
     0
275
    -2
285
     1
 65
     0
276
    -2
286
     1
 66
     0
277
    -2
287
     1
 67
     0
278
    -2
288
     1
 68
     0
279
    -2
289
     1
 69
     0
  7
Standard
140
0.18
170
     5
 62
     0
 63
     7
283
     0
274
    -2
284
     1
 64
     0
275
    -2
285
     1
 65
     0
276
    -2
286
     1
 66
     0
277
    -2
287
     1
 67
     0
278
    -2
288
     1
 68
     0
279
    -2
289
     1
 69
     0
  0
DICTIONARYVAR
  5
639
102
{ACAD_REACTORS
330
66
102
}
330
66
100
DictionaryVariables
280
     0
  1
STANDARD
  0
DICTIONARYVAR
  5
67
102
{ACAD_REACTORS
330
66
102
}
330
66
100
DictionaryVariables
280
     0
  1
2
  0
DICTIONARYVAR
  5
6B
102
{ACAD_REACTORS
330
66
102
}
330
66
100
DictionaryVariables
280
     0
  1
1
  0
DICTIONARYVAR
  5
761
102
{ACAD_REACTORS
330
66
102
}
330
66
100
DictionaryVariables
280
     0
  1

  0
DICTIONARY
  5
766
330
59
100
AcDbDictionary
280
     1
281
     1
  3
ACAD_XREC_ROUNDTRIP
360
767
  0
DICTIONARY
  5
768
330
5E
100
AcDbDictionary
280
     1
281
     1
  3
ACAD_XREC_ROUNDTRIP
360
769
  0
DICTIONARY
  5
764
330
22
100
AcDbDictionary
280
     1
281
     1
  3
ACAD_XREC_ROUNDTRIP
360
765
  0
XRECORD
  5
767
102
{ACAD_REACTORS
330
766
102
}
330
766
100
AcDbXrecord
280
     1
102
SHADEPLOT
 70
     0
102
SHADEPLOTRESLEVEL
 70
     2
102
SHADEPLOTCUSTOMDPI
 70
   300
  0
XRECORD
  5
769
102
{ACAD_REACTORS
330
768
102
}
330
768
100
AcDbXrecord
280
     1
102
SHADEPLOT
 70
     0
102
SHADEPLOTRESLEVEL
 70
     2
102
SHADEPLOTCUSTOMDPI
 70
   300
  0
XRECORD
  5
765
102
{ACAD_REACTORS
330
764
102
}
330
764
100
AcDbXrecord
280
     1
102
SHADEPLOT
 70
     0
102
SHADEPLOTRESLEVEL
 70
     2
102
SHADEPLOTCUSTOMDPI
 70
   300
  0
ENDSEC
  0
EOF
