  0
SECTION
  2
HEADER
  9
$ACADVER
  1
AC1015
  9
$ACADMAINTVER
 70
    20
  9
$DWGCODEPAGE
  3
ANSI_1252
  9
$INSBASE
 10
0.0
 20
0.0
 30
0.0
  9
$EXTMIN
 10
-0.075
 20
-0.0750000000000018
 30
0.0
  9
$EXTMAX
 10
17.075
 20
11.075
 30
0.0
  9
$LIMMIN
 10
0.0
 20
0.0
  9
$LIMMAX
 10
12.0
 20
9.0
  9
$ORTHOMODE
 70
     0
  9
$REGENMODE
 70
     1
  9
$FILLMODE
 70
     1
  9
$QTEXTMODE
 70
     0
  9
$MIRRTEXT
 70
     1
  9
$LTSCALE
 40
1.0
  9
$ATTMODE
 70
     1
  9
$TEXTSIZE
 40
0.09
  9
$TRACEWID
 40
0.05
  9
$TEXTSTYLE
  7
STANDARD
  9
$CLAYER
  8
0
  9
$CELTYPE
  6
BYLAYER
  9
$CECOLOR
 62
   256
  9
$CELTSCALE
 40
1.0
  9
$DISPSILH
 70
     0
  9
$DIMSCALE
 40
1.0
  9
$DIMASZ
 40
0.125
  9
$DIMEXO
 40
0.0625
  9
$DIMDLI
 40
0.38
  9
$DIMRND
 40
0.0
  9
$DIMDLE
 40
0.0
  9
$DIMEXE
 40
0.125
  9
$DIMTP
 40
0.0
  9
$DIMTM
 40
0.0
  9
$DIMTXT
 40
0.09
  9
$DIMCEN
 40
0.09
  9
$DIMTSZ
 40
0.0
  9
$DIMTOL
 70
     0
  9
$DIMLIM
 70
     0
  9
$DIMTIH
 70
     1
  9
$DIMTOH
 70
     1
  9
$DIMSE1
 70
     0
  9
$DIMSE2
 70
     0
  9
$DIMTAD
 70
     0
  9
$DIMZIN
 70
     0
  9
$DIMBLK
  1

  9
$DIMASO
 70
     1
  9
$DIMSHO
 70
     1
  9
$DIMPOST
  1

  9
$DIMAPOST
  1
mm
  9
$DIMALT
 70
     1
  9
$DIMALTD
 70
     1
  9
$DIMALTF
 40
25.4
  9
$DIMLFAC
 40
1.0
  9
$DIMTOFL
 70
     0
  9
$DIMTVP
 40
0.0
  9
$DIMTIX
 70
     0
  9
$DIMSOXD
 70
     0
  9
$DIMSAH
 70
     0
  9
$DIMBLK1
  1

  9
$DIMBLK2
  1

  9
$DIMSTYLE
  2
STANDARD
  9
$DIMCLRD
 70
     0
  9
$DIMCLRE
 70
     0
  9
$DIMCLRT
 70
     0
  9
$DIMTFAC
 40
1.0
  9
$DIMGAP
 40
0.09
  9
$DIMJUST
 70
     0
  9
$DIMSD1
 70
     0
  9
$DIMSD2
 70
     0
  9
$DIMTOLJ
 70
     1
  9
$DIMTZIN
 70
     0
  9
$DIMALTZ
 70
     0
  9
$DIMALTTZ
 70
     0
  9
$DIMUPT
 70
     0
  9
$DIMDEC
 70
     2
  9
$DIMTDEC
 70
     2
  9
$DIMALTU
 70
     2
  9
$DIMALTTD
 70
     1
  9
$DIMTXSTY
  7
STANDARD
  9
$DIMAUNIT
 70
     0
  9
$DIMADEC
 70
     0
  9
$DIMALTRND
 40
0.0
  9
$DIMAZIN
 70
     0
  9
$DIMDSEP
 70
    46
  9
$DIMATFIT
 70
     3
  9
$DIMFRAC
 70
     0
  9
$DIMLDRBLK
  1

  9
$DIMLUNIT
 70
     2
  9
$DIMLWD
 70
    -2
  9
$DIMLWE
 70
    -2
  9
$DIMTMOVE
 70
     0
  9
$LUNITS
 70
     2
  9
$LUPREC
 70
     2
  9
$SKETCHINC
 40
0.1
  9
$FILLETRAD
 40
0.5
  9
$AUNITS
 70
     0
  9
$AUPREC
 70
     0
  9
$MENU
  1
.
  9
$ELEVATION
 40
0.0
  9
$PELEVATION
 40
0.0
  9
$THICKNESS
 40
0.0
  9
$LIMCHECK
 70
     0
  9
$CHAMFERA
 40
0.5
  9
$CHAMFERB
 40
0.5
  9
$CHAMFERC
 40
1.0
  9
$CHAMFERD
 40
0.0
  9
$SKPOLY
 70
     0
  9
$TDCREATE
 40
2451681.555436007
  9
$TDUCREATE
 40
2451681.763769340
  9
$TDUPDATE
 40
2454294.548405370
  9
$TDUUPDATE
 40
2454294.756738704
  9
$TDINDWG
 40
0.2074059606
  9
$TDUSRTIMER
 40
0.2074059606
  9
$USRTIMER
 70
     1
  9
$ANGBASE
 50
0.0
  9
$ANGDIR
 70
     0
  9
$PDMODE
 70
     2
  9
$PDSIZE
 40
0.075
  9
$PLINEWID
 40
0.0
  9
$SPLFRAME
 70
     0
  9
$SPLINETYPE
 70
     6
  9
$SPLINESEGS
 70
     8
  9
$HANDSEED
  5
A47
  9
$SURFTAB1
 70
     6
  9
$SURFTAB2
 70
     6
  9
$SURFTYPE
 70
     6
  9
$SURFU
 70
     6
  9
$SURFV
 70
     6
  9
$UCSBASE
  2

  9
$UCSNAME
  2

  9
$UCSORG
 10
0.0
 20
0.0
 30
0.0
  9
$UCSXDIR
 10
1.0
 20
0.0
 30
0.0
  9
$UCSYDIR
 10
0.0
 20
1.0
 30
0.0
  9
$UCSORTHOREF
  2

  9
$UCSORTHOVIEW
 70
     0
  9
$UCSORGTOP
 10
0.0
 20
0.0
 30
0.0
  9
$UCSORGBOTTOM
 10
0.0
 20
0.0
 30
0.0
  9
$UCSORGLEFT
 10
0.0
 20
0.0
 30
0.0
  9
$UCSORGRIGHT
 10
0.0
 20
0.0
 30
0.0
  9
$UCSORGFRONT
 10
0.0
 20
0.0
 30
0.0
  9
$UCSORGBACK
 10
0.0
 20
0.0
 30
0.0
  9
$PUCSBASE
  2

  9
$PUCSNAME
  2

  9
$PUCSORG
 10
0.0
 20
0.0
 30
0.0
  9
$PUCSXDIR
 10
1.0
 20
0.0
 30
0.0
  9
$PUCSYDIR
 10
0.0
 20
1.0
 30
0.0
  9
$PUCSORTHOREF
  2

  9
$PUCSORTHOVIEW
 70
     0
  9
$PUCSORGTOP
 10
0.0
 20
0.0
 30
0.0
  9
$PUCSORGBOTTOM
 10
0.0
 20
0.0
 30
0.0
  9
$PUCSORGLEFT
 10
0.0
 20
0.0
 30
0.0
  9
$PUCSORGRIGHT
 10
0.0
 20
0.0
 30
0.0
  9
$PUCSORGFRONT
 10
0.0
 20
0.0
 30
0.0
  9
$PUCSORGBACK
 10
0.0
 20
0.0
 30
0.0
  9
$USERI1
 70
     0
  9
$USERI2
 70
     0
  9
$USERI3
 70
     0
  9
$USERI4
 70
     0
  9
$USERI5
 70
     0
  9
$USERR1
 40
0.0
  9
$USERR2
 40
0.0
  9
$USERR3
 40
0.0
  9
$USERR4
 40
0.0
  9
$USERR5
 40
0.0
  9
$WORLDVIEW
 70
     1
  9
$SHADEDGE
 70
     3
  9
$SHADEDIF
 70
    70
  9
$TILEMODE
 70
     1
  9
$MAXACTVP
 70
    48
  9
$PINSBASE
 10
0.0
 20
0.0
 30
0.0
  9
$PLIMCHECK
 70
     0
  9
$PEXTMIN
 10
1.000000000000000E+20
 20
1.000000000000000E+20
 30
1.000000000000000E+20
  9
$PEXTMAX
 10
-1.000000000000000E+20
 20
-1.000000000000000E+20
 30
-1.000000000000000E+20
  9
$PLIMMIN
 10
0.0
 20
0.0
  9
$PLIMMAX
 10
12.0
 20
9.0
  9
$UNITMODE
 70
     0
  9
$VISRETAIN
 70
     1
  9
$PLINEGEN
 70
     0
  9
$PSLTSCALE
 70
     1
  9
$TREEDEPTH
 70
  3020
  9
$CMLSTYLE
  2
STANDARD
  9
$CMLJUST
 70
     0
  9
$CMLSCALE
 40
1.0
  9
$PROXYGRAPHICS
 70
     1
  9
$MEASUREMENT
 70
     0
  9
$CELWEIGHT
370
    -1
  9
$ENDCAPS
280
     0
  9
$JOINSTYLE
280
     0
  9
$LWDISPLAY
290
     0
  9
$INSUNITS
 70
     0
  9
$HYPERLINKBASE
  1

  9
$STYLESHEET
  1

  9
$XEDIT
290
     1
  9
$CEPSNTYPE
380
     0
  9
$PSTYLEMODE
290
     1
  9
$FINGERPRINTGUID
  2
{4C4393D9-9187-4F36-81C6-4BC1CB777FAA}
  9
$VERSIONGUID
  2
{C7171ACE-2295-4586-BA22-141E23CF78E9}
  9
$EXTNAMES
290
     1
  9
$PSVPSCALE
 40
0.0
  9
$OLESTARTUP
290
     0
  0
ENDSEC
  0
SECTION
  2
CLASSES
  0
CLASS
  1
ACDBDICTIONARYWDFLT
  2
AcDbDictionaryWithDefault
  3
ObjectDBX Classes
 90
        0
280
     0
281
     0
  0
CLASS
  1
TABLESTYLE
  2
AcDbTableStyle
  3
ObjectDBX Classes
 90
     2047
280
     0
281
     0
  0
CLASS
  1
DICTIONARYVAR
  2
AcDbDictionaryVar
  3
ObjectDBX Classes
 90
        0
280
     0
281
     0
  0
CLASS
  1
SORTENTSTABLE
  2
AcDbSortentsTable
  3
ObjectDBX Classes
 90
    32768
280
     0
281
     0
  0
CLASS
  1
ACDBPLACEHOLDER
  2
AcDbPlaceHolder
  3
ObjectDBX Classes
 90
        0
280
     0
281
     0
  0
CLASS
  1
LAYOUT
  2
AcDbLayout
  3
ObjectDBX Classes
 90
        0
280
     0
281
     0
  0
ENDSEC
  0
SECTION
  2
TABLES
  0
TABLE
  2
VPORT
  5
8
330
0
100
AcDbSymbolTable
 70
     2
  0
VPORT
  5
A41
330
8
100
AcDbSymbolTableRecord
100
AcDbViewportTableRecord
  2
*Active
 70
     0
 10
0.0
 20
0.0
 11
1.0
 21
1.0
 12
8.500000079863344
 22
5.892641932184671
 13
0.0
 23
0.0
 14
0.5
 24
0.5
 15
0.5
 25
0.5
 16
0.0
 26
0.0
 36
1.0
 17
0.0
 27
0.0
 37
0.0
 40
12.00812797018463
 41
1.499364675984752
 42
50.0
 43
0.0
 44
0.0
 50
0.0
 51
0.0
 71
     0
 72
   100
 73
     1
 74
     1
 75
     0
 76
     0
 77
     0
 78
     0
281
     0
 65
     1
110
0.0
120
0.0
130
0.0
111
1.0
121
0.0
131
0.0
112
0.0
122
1.0
132
0.0
 79
     0
146
0.0
  0
ENDTAB
  0
TABLE
  2
LTYPE
  5
5
330
0
100
AcDbSymbolTable
 70
     1
  0
LTYPE
  5
12
330
5
100
AcDbSymbolTableRecord
100
AcDbLinetypeTableRecord
  2
BYBLOCK
 70
     0
  3

 72
    65
 73
     0
 40
0.0
  0
LTYPE
  5
13
330
5
100
AcDbSymbolTableRecord
100
AcDbLinetypeTableRecord
  2
BYLAYER
 70
     0
  3

 72
    65
 73
     0
 40
0.0
  0
LTYPE
  5
14
330
5
100
AcDbSymbolTableRecord
100
AcDbLinetypeTableRecord
  2
CONTINUOUS
 70
     0
  3
Solid line
 72
    65
 73
     0
 40
0.0
  0
ENDTAB
  0
TABLE
  2
LAYER
  5
2
102
{ACAD_XDICTIONARY
360
135
102
}
330
0
100
AcDbSymbolTable
 70
     6
  0
LAYER
  5
E
330
2
100
AcDbSymbolTableRecord
100
AcDbLayerTableRecord
  2
0
 70
     0
 62
     7
  6
CONTINUOUS
370
    -3
390
EF
  0
LAYER
  5
20
330
2
100
AcDbSymbolTableRecord
100
AcDbLayerTableRecord
  2
Title Block
 70
     0
 62
     3
  6
CONTINUOUS
370
    -3
390
EF
  0
LAYER
  5
21
330
2
100
AcDbSymbolTableRecord
100
AcDbLayerTableRecord
  2
Dimension
 70
     0
 62
     6
  6
CONTINUOUS
370
    -3
390
EF
  0
LAYER
  5
22
330
2
100
AcDbSymbolTableRecord
100
AcDbLayerTableRecord
  2
Text
 70
     0
 62
     1
  6
CONTINUOUS
370
    -3
390
EF
  0
LAYER
  5
23
330
2
100
AcDbSymbolTableRecord
100
AcDbLayerTableRecord
  2
Object
 70
     0
 62
     5
  6
CONTINUOUS
370
    -3
390
EF
  0
LAYER
  5
156
330
2
100
AcDbSymbolTableRecord
100
AcDbLayerTableRecord
  2
Defpoints
 70
     0
 62
     7
  6
CONTINUOUS
290
     0
370
    -3
390
EF
  0
ENDTAB
  0
TABLE
  2
STYLE
  5
3
330
0
100
AcDbSymbolTable
 70
     1
  0
STYLE
  5
F
330
3
100
AcDbSymbolTableRecord
100
AcDbTextStyleTableRecord
  2
STANDARD
 70
     0
 40
0.0
 41
1.0
 50
0.0
 71
     0
 42
0.09
  3
technic_.ttf
  4

1001
ACAD
1000
Technic
1071
      514
  0
ENDTAB
  0
TABLE
  2
VIEW
  5
6
330
0
100
AcDbSymbolTable
 70
     0
  0
ENDTAB
  0
TABLE
  2
UCS
  5
7
330
0
100
AcDbSymbolTable
 70
     0
  0
ENDTAB
  0
TABLE
  2
APPID
  5
9
330
0
100
AcDbSymbolTable
 70
     4
  0
APPID
  5
10
330
9
100
AcDbSymbolTableRecord
100
AcDbRegAppTableRecord
  2
ACAD
 70
     0
  0
APPID
  5
12A
330
9
100
AcDbSymbolTableRecord
100
AcDbRegAppTableRecord
  2
DCO15
 70
     0
  0
APPID
  5
134
330
9
100
AcDbSymbolTableRecord
100
AcDbRegAppTableRecord
  2
AcAecLayerStandard
 70
     0
  0
APPID
  5
186
330
9
100
AcDbSymbolTableRecord
100
AcDbRegAppTableRecord
  2
ACAD_DSTYLE_DIMTEXT_FILL
 70
     0
  0
ENDTAB
  0
TABLE
  2
DIMSTYLE
  5
A
330
0
100
AcDbSymbolTable
 70
     1
100
AcDbDimStyleTable
 71
     1
340
1D
  0
DIMSTYLE
105
1D
102
{ACAD_REACTORS
330
99A
330
9A8
330
9B6
102
}
330
A
100
AcDbSymbolTableRecord
100
AcDbDimStyleTableRecord
  2
STANDARD
 70
     0
  4
mm
 41
0.125
 44
0.125
140
0.09
170
     1
171
     1
271
     2
272
     2
274
     1
340
F
  0
ENDTAB
  0
TABLE
  2
BLOCK_RECORD
  5
1
330
0
100
AcDbSymbolTable
 70
     3
  0
BLOCK_RECORD
  5
18
330
1
100
AcDbSymbolTableRecord
100
AcDbBlockTableRecord
  2
*MODEL_SPACE
340
F6
  0
BLOCK_RECORD
  5
15
330
1
100
AcDbSymbolTableRecord
100
AcDbBlockTableRecord
  2
*PAPER_SPACE
340
F7
  0
BLOCK_RECORD
  5
99B
330
1
100
AcDbSymbolTableRecord
100
AcDbBlockTableRecord
  2
*D0
340
0
  0
BLOCK_RECORD
  5
9A9
330
1
100
AcDbSymbolTableRecord
100
AcDbBlockTableRecord
  2
*D1
340
0
  0
BLOCK_RECORD
  5
9B7
330
1
100
AcDbSymbolTableRecord
100
AcDbBlockTableRecord
  2
*D2
340
0
  0
ENDTAB
  0
ENDSEC
  0
SECTION
  2
BLOCKS
  0
BLOCK
  5
19
330
18
100
AcDbEntity
  8
0
100
AcDbBlockBegin
  2
*MODEL_SPACE
 70
     0
 10
0.0
 20
0.0
 30
0.0
  3
*MODEL_SPACE
  1

  0
ENDBLK
  5
1A
330
18
100
AcDbEntity
  8
0
100
AcDbBlockEnd
  0
BLOCK
  5
16
330
15
100
AcDbEntity
 67
     1
  8
0
100
AcDbBlockBegin
  2
*PAPER_SPACE
 70
     0
 10
0.0
 20
0.0
 30
0.0
  3
*PAPER_SPACE
  1

  0
ENDBLK
  5
17
330
15
100
AcDbEntity
 67
     1
  8
0
100
AcDbBlockEnd
  0
BLOCK
  5
9A6
330
99B
100
AcDbEntity
  8
0
100
AcDbBlockBegin
  2
*D0
 70
     1
 10
0.0
 20
0.0
 30
0.0
  3
*D0
  1

  0
LINE
  5
9F2
330
99B
100
AcDbEntity
  8
Dimension
 62
     0
370
    -2
100
AcDbLine
 10
2.355227588440874
 20
6.9655
 30
0.0
 11
2.355227588440874
 21
7.710687867443358
 31
0.0
  0
LINE
  5
9F3
330
99B
100
AcDbEntity
  8
Dimension
 62
     0
370
    -2
100
AcDbLine
 10
4.711227588440874
 20
6.9685
 30
0.0
 11
4.711227588440874
 21
7.710687867443358
 31
0.0
  0
LINE
  5
9F4
330
99B
100
AcDbEntity
  8
Dimension
 62
     0
370
    -2
100
AcDbLine
 10
2.480227588440874
 20
7.585687867443358
 30
0.0
 11
3.067964430546138
 21
7.585687867443358
 31
0.0
  0
LINE
  5
9F5
330
99B
100
AcDbEntity
  8
Dimension
 62
     0
370
    -2
100
AcDbLine
 10
4.586227588440874
 20
7.585687867443358
 30
0.0
 11
3.998490746335611
 21
7.585687867443358
 31
0.0
  0
SOLID
  5
9F6
330
99B
100
AcDbEntity
  8
Dimension
 62
     0
100
AcDbTrace
 10
2.480227588440874
 20
7.606521200776691
 30
0.0
 11
2.480227588440874
 21
7.564854534110025
 31
0.0
 12
2.355227588440874
 22
7.585687867443358
 32
0.0
 13
2.355227588440874
 23
7.585687867443358
 33
0.0
  0
SOLID
  5
9F7
330
99B
100
AcDbEntity
  8
Dimension
 62
     0
100
AcDbTrace
 10
4.586227588440874
 20
7.606521200776691
 30
0.0
 11
4.586227588440874
 21
7.564854534110025
 31
0.0
 12
4.711227588440874
 22
7.585687867443358
 32
0.0
 13
4.711227588440874
 23
7.585687867443358
 33
0.0
  0
MTEXT
  5
9F8
330
99B
100
AcDbEntity
  8
Dimension
 62
     0
100
AcDbMText
 10
3.533227588440874
 20
7.585687867443358
 30
0.0
 40
0.09
 41
0.0
 71
     5
 72
     1
  1
\A1;2.17 [55.1mm]
 73
     1
 44
1.0
1001
ACAD
1000
MTEXTBEGIN
1070
    73
1070
     1
1070
    44
1040
1.0
1070
    74
1070
     0
1000
MTEXTEND
  0
POINT
  5
9F9
330
99B
100
AcDbEntity
  8
Defpoints
 62
     0
100
AcDbPoint
 10
2.355227588440874
 20
6.903
 30
0.0
  0
POINT
  5
9FA
330
99B
100
AcDbEntity
  8
Defpoints
 62
     0
100
AcDbPoint
 10
4.711227588440874
 20
6.906
 30
0.0
  0
POINT
  5
9FB
330
99B
100
AcDbEntity
  8
Defpoints
 62
     0
100
AcDbPoint
 10
4.711227588440874
 20
7.585687867443358
 30
0.0
  0
ENDBLK
  5
9A7
330
99B
100
AcDbEntity
  8
0
100
AcDbBlockEnd
  0
BLOCK
  5
9B4
330
9A9
100
AcDbEntity
  8
0
100
AcDbBlockBegin
  2
*D1
 70
     1
 10
0.0
 20
0.0
 30
0.0
  3
*D1
  1

  0
LINE
  5
9DF
330
9A9
100
AcDbEntity
  8
Dimension
 62
     0
370
    -2
100
AcDbLine
 10
4.624727588440874
 20
6.937999999999999
 30
0.0
 11
5.587519815510838
 21
6.937999999999999
 31
0.0
  0
LINE
  5
9E0
330
9A9
100
AcDbEntity
  8
Dimension
 62
     0
370
    -2
100
AcDbLine
 10
4.623727588440874
 20
4.937999999999999
 30
0.0
 11
5.587519815510837
 21
4.937999999999999
 31
0.0
  0
LINE
  5
9E1
330
9A9
100
AcDbEntity
  8
Dimension
 62
     0
370
    -2
100
AcDbLine
 10
5.462519815510838
 20
6.812999999999999
 30
0.0
 11
5.462519815510838
 21
6.091026315789473
 31
0.0
  0
LINE
  5
9E2
330
9A9
100
AcDbEntity
  8
Dimension
 62
     0
370
    -2
100
AcDbLine
 10
5.462519815510837
 20
5.062999999999999
 30
0.0
 11
5.462519815510837
 21
5.784973684210526
 31
0.0
  0
SOLID
  5
9E3
330
9A9
100
AcDbEntity
  8
Dimension
 62
     0
100
AcDbTrace
 10
5.441686482177505
 20
6.812999999999999
 30
0.0
 11
5.483353148844171
 21
6.812999999999999
 31
0.0
 12
5.462519815510838
 22
6.937999999999999
 32
0.0
 13
5.462519815510838
 23
6.937999999999999
 33
0.0
  0
SOLID
  5
9E4
330
9A9
100
AcDbEntity
  8
Dimension
 62
     0
100
AcDbTrace
 10
5.441686482177504
 20
5.062999999999999
 30
0.0
 11
5.48335314884417
 21
5.062999999999999
 31
0.0
 12
5.462519815510837
 22
4.937999999999999
 32
0.0
 13
5.462519815510837
 23
4.937999999999999
 33
0.0
  0
MTEXT
  5
9E5
330
9A9
100
AcDbEntity
  8
Dimension
 62
     0
100
AcDbMText
 10
5.462519815510836
 20
5.938
 30
0.0
 40
0.09
 41
0.0
 71
     5
 72
     1
  1
\A1;2.00 [50.8mm]
 73
     1
 44
1.0
1001
ACAD
1000
MTEXTBEGIN
1070
    73
1070
     1
1070
    44
1040
1.0
1070
    74
1070
     0
1000
MTEXTEND
  0
POINT
  5
9E6
330
9A9
100
AcDbEntity
  8
Defpoints
 62
     0
100
AcDbPoint
 10
4.562227588440874
 20
6.937999999999999
 30
0.0
  0
POINT
  5
9E7
330
9A9
100
AcDbEntity
  8
Defpoints
 62
     0
100
AcDbPoint
 10
4.561227588440874
 20
4.937999999999999
 30
0.0
  0
POINT
  5
9E8
330
9A9
100
AcDbEntity
  8
Defpoints
 62
     0
100
AcDbPoint
 10
5.462519815510837
 20
4.937999999999999
 30
0.0
  0
ENDBLK
  5
9B5
330
9A9
100
AcDbEntity
  8
0
100
AcDbBlockEnd
  0
BLOCK
  5
9C2
330
9B7
100
AcDbEntity
  8
0
100
AcDbBlockBegin
  2
*D2
 70
     1
 10
0.0
 20
0.0
 30
0.0
  3
*D2
  1

  0
LINE
  5
9E9
330
9B7
100
AcDbEntity
  8
Dimension
 62
     0
370
    -2
100
AcDbLine
 10
2.706594138805675
 20
5.718657163276113
 30
0.0
 11
2.831594138805675
 21
5.718657163276113
 31
0.0
  0
LINE
  5
9EA
330
9B7
100
AcDbEntity
  8
Dimension
 62
     0
370
    -2
100
AcDbLine
 10
2.376490771538643
 20
5.718657163276113
 30
0.0
 11
2.251490771538643
 21
5.718657163276113
 31
0.0
  0
SOLID
  5
9EB
330
9B7
100
AcDbEntity
  8
Dimension
 62
     0
100
AcDbTrace
 10
2.706594138805675
 20
5.739490496609446
 30
0.0
 11
2.706594138805675
 21
5.69782382994278
 31
0.0
 12
2.581594138805675
 22
5.718657163276113
 32
0.0
 13
2.581594138805675
 23
5.718657163276113
 33
0.0
  0
SOLID
  5
9EC
330
9B7
100
AcDbEntity
  8
Dimension
 62
     0
100
AcDbTrace
 10
2.376490771538643
 20
5.739490496609446
 30
0.0
 11
2.376490771538643
 21
5.69782382994278
 31
0.0
 12
2.501490771538643
 22
5.718657163276113
 32
0.0
 13
2.501490771538643
 23
5.718657163276113
 33
0.0
  0
MTEXT
  5
9ED
330
9B7
100
AcDbEntity
  8
Dimension
 62
     0
100
AcDbMText
 10
1.793990771538643
 20
5.718657163276113
 30
0.0
 40
0.09
 41
0.0
 71
     5
 72
     1
  1
\A1;0.08 [2.0mm]
 73
     1
 44
1.0
1001
ACAD
1000
MTEXTBEGIN
1070
    73
1070
     1
1070
    44
1040
1.0
1070
    74
1070
     0
1000
MTEXTEND
  0
POINT
  5
9EE
330
9B7
100
AcDbEntity
  8
Defpoints
 62
     0
100
AcDbPoint
 10
2.581594138805675
 20
5.718657163276113
 30
0.0
  0
POINT
  5
9EF
330
9B7
100
AcDbEntity
  8
Defpoints
 62
     0
100
AcDbPoint
 10
2.501490771538643
 20
5.718657163276113
 30
0.0
  0
POINT
  5
9F0
330
9B7
100
AcDbEntity
  8
Defpoints
 62
     0
100
AcDbPoint
 10
2.501490771538643
 20
5.718657163276113
 30
0.0
  0
ENDBLK
  5
9C3
330
9B7
100
AcDbEntity
  8
0
100
AcDbBlockEnd
  0
ENDSEC
  0
SECTION
  2
ENTITIES
  0
TEXT
  5
51
330
18
100
AcDbEntity
  8
Title Block
100
AcDbText
 10
12.77669501265555
 20
2.672489851525506
 30
0.0
 40
0.05
  1
FILENAME:
100
AcDbText
  0
TEXT
  5
52
330
18
100
AcDbEntity
  8
Title Block
100
AcDbText
 10
12.76928502872825
 20
2.076224967549324
 30
0.0
 40
0.35
  1
PANDUIT
100
AcDbText
  0
TEXT
  5
53
330
18
100
AcDbEntity
  8
Title Block
100
AcDbText
 10
14.72182039882138
 20
2.061410940562984
 30
0.0
 40
0.125
  1
CORP. TINLEY PARK, IL
100
AcDbText
  0
TEXT
  5
54
330
18
100
AcDbEntity
  8
Title Block
100
AcDbText
 10
12.78039997670862
 20
1.916974097093918
 30
0.0
 40
0.05
  1
TITLE:
100
AcDbText
  0
MTEXT
  5
57
330
18
100
AcDbEntity
  8
Title Block
100
AcDbMText
 10
14.0
 20
1.372215793536346
 30
0.0
 40
0.075
 41
2.5
 71
     5
 72
     5
  1
UNLESS OTHERWISE SPECIFIED,\PDIMENSIONAL TOLERANCES ARE:       
 73
     1
 44
1.0
1001
ACAD
1000
MTEXTBEGIN
1070
    73
1070
     1
1070
    44
1040
1.0
1070
    74
1070
     0
1000
MTEXTEND
  0
MTEXT
  5
58
330
18
100
AcDbEntity
  8
Title Block
100
AcDbMText
 10
13.39237986661002
 20
1.13148770848363
 30
0.0
 40
0.075
 41
2.5
 71
     5
 72
     5
  1
(.X)\P(.XX)
 73
     1
 44
1.0
1001
ACAD
1000
MTEXTBEGIN
1070
    73
1070
     1
1070
    44
1040
1.0
1070
    74
1070
     0
1000
MTEXTEND
  0
MTEXT
  5
59
330
18
100
AcDbEntity
  8
Title Block
100
AcDbMText
 10
14.40014005312412
 20
1.13148770848363
 30
0.0
 40
0.075
 41
2.5
 71
     5
 72
     5
  1
(.XXX)\PANGLES:
 73
     1
 44
1.0
1001
ACAD
1000
MTEXTBEGIN
1070
    73
1070
     1
1070
    44
1040
1.0
1070
    74
1070
     0
1000
MTEXTEND
  0
MTEXT
  5
5A
330
18
100
AcDbEntity
  8
Title Block
100
AcDbMText
 10
16.0
 20
1.249999999999998
 30
0.0
 40
0.06
 41
1.5
 71
     5
 72
     5
  1
UNLESS OTHERWISE SPECIFIED,\PALL DIMENSIONS ARE GIVEN IN INCHES, THIRD ANGLE PROJECTION
 73
     1
 44
1.0
1001
ACAD
1000
MTEXTBEGIN
1070
    73
1070
     1
1070
    44
1040
1.0
1070
    74
1070
     0
1000
MTEXTEND
  0
TEXT
  5
5E
330
18
100
AcDbEntity
  8
Title Block
100
AcDbText
 10
12.76076445430619
 20
0.9281373372752295
 30
0.0
 40
0.05
  1
DRAWN BY:
100
AcDbText
  0
TEXT
  5
5F
330
18
100
AcDbEntity
  8
Title Block
100
AcDbText
 10
12.76446947418044
 20
0.681143186563501
 30
0.0
 40
0.05
  1
DATE:
100
AcDbText
  0
TEXT
  5
60
330
18
100
AcDbEntity
  8
Title Block
100
AcDbText
 10
12.7681744382335
 20
0.430445533831795
 30
0.0
 40
0.05
  1
CHECKED BY:
100
AcDbText
  0
TEXT
  5
62
330
18
100
AcDbEntity
  8
Title Block
100
AcDbText
 10
13.52028959313307
 20
0.9281373372752295
 30
0.0
 40
0.05
  1
MATERIAL:
100
AcDbText
  0
TEXT
  5
63
330
18
100
AcDbEntity
  8
Title Block
100
AcDbText
 10
15.26534493878154
 20
0.9281373372752295
 30
0.0
 40
0.05
  1
SCALE:
100
AcDbText
  0
TEXT
  5
64
330
18
100
AcDbEntity
  8
Title Block
100
AcDbText
 10
15.26534493878154
 20
0.6725952630489989
 30
0.0
 40
0.05
  1
DRAWING NUMBER:
100
AcDbText
  0
TEXT
  5
65
330
18
100
AcDbEntity
  8
Title Block
100
AcDbText
 10
16.34942622928998
 20
0.6762987650689798
 30
0.0
 40
0.05
  1
DRAWING
100
AcDbText
  0
TEXT
  5
66
330
18
100
AcDbEntity
  8
Title Block
100
AcDbText
 10
16.42723125590086
 20
0.2811642688682008
 30
0.0
 40
0.05
  1
SIZE
100
AcDbText
  0
TEXT
  5
67
330
18
100
AcDbEntity
  8
Title Block
100
AcDbText
 10
16.40622108086223
 20
0.3826699445861035
 30
0.0
 40
0.25
  1
B
100
AcDbText
  0
MTEXT
  5
68
330
18
100
AcDbEntity
  8
Title Block
100
AcDbMText
 10
6.375000000000003
 20
0.3749999999999982
 30
0.0
 40
0.05
 41
0.25
 71
     5
 72
     5
  1
REV
 73
     1
 44
1.0
1001
ACAD
1000
MTEXTBEGIN
1070
    73
1070
     1
1070
    44
1040
1.0
1070
    74
1070
     0
1000
MTEXTEND
  0
MTEXT
  5
69
330
18
100
AcDbEntity
  8
Title Block
100
AcDbMText
 10
6.750000000000003
 20
0.3749999999999982
 30
0.0
 40
0.05
 41
0.5
 71
     5
 72
     5
  1
DATE
 73
     1
 44
1.0
1001
ACAD
1000
MTEXTBEGIN
1070
    73
1070
     1
1070
    44
1040
1.0
1070
    74
1070
     0
1000
MTEXTEND
  0
MTEXT
  5
6A
330
18
100
AcDbEntity
  8
Title Block
100
AcDbMText
 10
7.190000000000003
 20
0.3749999999999982
 30
0.0
 40
0.05
 41
0.38
 71
     5
 72
     5
  1
BY
 73
     1
 44
1.0
1001
ACAD
1000
MTEXTBEGIN
1070
    73
1070
     1
1070
    44
1040
1.0
1070
    74
1070
     0
1000
MTEXTEND
  0
MTEXT
  5
6B
330
18
100
AcDbEntity
  8
Title Block
100
AcDbMText
 10
7.565000000000003
 20
0.3749999999999982
 30
0.0
 40
0.05
 41
0.38
 71
     5
 72
     5
  1
CHK
 73
     1
 44
1.0
1001
ACAD
1000
MTEXTBEGIN
1070
    73
1070
     1
1070
    44
1040
1.0
1070
    74
1070
     0
1000
MTEXTEND
  0
MTEXT
  5
6C
330
18
100
AcDbEntity
  8
Title Block
100
AcDbMText
 10
9.125000000000003
 20
0.3749999999999982
 30
0.0
 40
0.05
 41
2.75
 71
     5
 72
     5
  1
DESCRIPTION
 73
     1
 44
1.0
1001
ACAD
1000
MTEXTBEGIN
1070
    73
1070
     1
1070
    44
1040
1.0
1070
    74
1070
     0
1000
MTEXTEND
  0
MTEXT
  5
6D
330
18
100
AcDbEntity
  8
Title Block
100
AcDbMText
 10
11.065
 20
0.3749999999999982
 30
0.0
 40
0.05
 41
1.129999999999999
 71
     5
 72
     5
  1
ECN   -   R
 73
     1
 44
1.0
1001
ACAD
1000
MTEXTBEGIN
1070
    73
1070
     1
1070
    44
1040
1.0
1070
    74
1070
     0
1000
MTEXTEND
  0
MTEXT
  5
6E
330
18
100
AcDbEntity
  8
Title Block
100
AcDbMText
 10
11.815
 20
0.3749999999999982
 30
0.0
 40
0.05
 41
0.38
 71
     5
 72
     5
  1
CUST
 73
     1
 44
1.0
1001
ACAD
1000
MTEXTBEGIN
1070
    73
1070
     1
1070
    44
1040
1.0
1070
    74
1070
     0
1000
MTEXTEND
  0
MTEXT
  5
6F
330
18
100
AcDbEntity
  8
Title Block
100
AcDbMText
 10
12.19
 20
0.3749999999999982
 30
0.0
 40
0.05
 41
0.38
 71
     5
 72
     5
  1
SUP
 73
     1
 44
1.0
1001
ACAD
1000
MTEXTBEGIN
1070
    73
1070
     1
1070
    44
1040
1.0
1070
    74
1070
     0
1000
MTEXTEND
  0
LINE
  5
A5
330
18
100
AcDbEntity
  8
Title Block
100
AcDbLine
 10
16.75
 20
2.749999999999997
 30
0.0
 11
6.250000000000003
 21
2.749999999999999
 31
0.0
  0
LINE
  5
A6
330
18
100
AcDbEntity
  8
Title Block
100
AcDbLine
 10
12.75
 20
2.749999999999998
 30
0.0
 11
12.75
 21
0.2499999999999982
 31
0.0
  0
LINE
  5
A7
330
18
100
AcDbEntity
  8
Title Block
100
AcDbLine
 10
16.75
 20
2.499999999999997
 30
0.0
 11
6.250000000000003
 21
2.499999999999999
 31
0.0
  0
LINE
  5
A8
330
18
100
AcDbEntity
  8
Title Block
100
AcDbLine
 10
12.75
 20
2.249999999999998
 30
0.0
 11
6.250000000000003
 21
2.249999999999999
 31
0.0
  0
LINE
  5
A9
330
18
100
AcDbEntity
  8
Title Block
100
AcDbLine
 10
16.75
 20
1.999999999999997
 30
0.0
 11
6.250000000000003
 21
1.999999999999999
 31
0.0
  0
LINE
  5
AA
330
18
100
AcDbEntity
  8
Title Block
100
AcDbLine
 10
12.75
 20
1.749999999999998
 30
0.0
 11
6.250000000000003
 21
1.749999999999999
 31
0.0
  0
LINE
  5
AB
330
18
100
AcDbEntity
  8
Title Block
100
AcDbLine
 10
16.75
 20
1.499999999999997
 30
0.0
 11
6.250000000000003
 21
1.499999999999999
 31
0.0
  0
LINE
  5
AC
330
18
100
AcDbEntity
  8
Title Block
100
AcDbLine
 10
12.75
 20
1.249999999999998
 30
0.0
 11
6.250000000000003
 21
1.249999999999999
 31
0.0
  0
LINE
  5
AD
330
18
100
AcDbEntity
  8
Title Block
100
AcDbLine
 10
16.75
 20
0.9999999999999978
 30
0.0
 11
6.250000000000003
 21
0.9999999999999991
 31
0.0
  0
LINE
  5
AE
330
18
100
AcDbEntity
  8
Title Block
100
AcDbLine
 10
13.5
 20
0.7499999999999983
 30
0.0
 11
6.250000000000003
 21
0.7499999999999992
 31
0.0
  0
LINE
  5
AF
330
18
100
AcDbEntity
  8
Title Block
100
AcDbLine
 10
13.5
 20
0.4999999999999983
 30
0.0
 11
6.250000000000003
 21
0.4999999999999992
 31
0.0
  0
LINE
  5
B6
330
18
100
AcDbEntity
  8
Title Block
100
AcDbLine
 10
6.250000000000003
 20
0.2499999999999982
 30
0.0
 11
6.250000000000003
 21
2.749999999999999
 31
0.0
  0
LINE
  5
BC
330
18
100
AcDbEntity
  8
Title Block
100
AcDbLine
 10
6.500000000000003
 20
0.2499999999999982
 30
0.0
 11
6.500000000000003
 21
2.75
 31
0.0
  0
LINE
  5
BD
330
18
100
AcDbEntity
  8
Title Block
100
AcDbLine
 10
7.000000000000003
 20
0.2499999999999982
 30
0.0
 11
7.000000000000003
 21
2.75
 31
0.0
  0
LINE
  5
C0
330
18
100
AcDbEntity
  8
Title Block
100
AcDbLine
 10
7.375000000000003
 20
0.2499999999999982
 30
0.0
 11
7.375000000000003
 21
2.75
 31
0.0
  0
LINE
  5
C1
330
18
100
AcDbEntity
  8
Title Block
100
AcDbLine
 10
7.750000000000003
 20
0.2499999999999982
 30
0.0
 11
7.750000000000003
 21
2.75
 31
0.0
  0
LINE
  5
C2
330
18
100
AcDbEntity
  8
Title Block
100
AcDbLine
 10
12.375
 20
2.749999999999998
 30
0.0
 11
12.375
 21
0.2499999999999982
 31
0.0
  0
LINE
  5
C3
330
18
100
AcDbEntity
  8
Title Block
100
AcDbLine
 10
12.0
 20
2.749999999999998
 30
0.0
 11
12.0
 21
0.2499999999999982
 31
0.0
  0
LINE
  5
C4
330
18
100
AcDbEntity
  8
Title Block
100
AcDbLine
 10
11.625
 20
2.749999999999998
 30
0.0
 11
11.625
 21
0.2499999999999982
 31
0.0
  0
LINE
  5
C5
330
18
100
AcDbEntity
  8
Title Block
100
AcDbLine
 10
11.25
 20
2.749999999999998
 30
0.0
 11
11.25
 21
0.4999999999999984
 31
0.0
  0
LINE
  5
C6
330
18
100
AcDbEntity
  8
Title Block
100
AcDbLine
 10
10.5
 20
2.749999999999998
 30
0.0
 11
10.5
 21
0.2499999999999982
 31
0.0
  0
LINE
  5
C7
330
18
100
AcDbEntity
  8
Title Block
100
AcDbLine
 10
15.25
 20
0.7499999999999983
 30
0.0
 11
15.25
 21
1.499999999999997
 31
0.0
  0
LINE
  5
C8
330
18
100
AcDbEntity
  8
Title Block
100
AcDbLine
 10
15.25
 20
0.7499999999999983
 30
0.0
 11
15.25
 21
0.2499999999999982
 31
0.0
  0
LINE
  5
C9
330
18
100
AcDbEntity
  8
Title Block
100
AcDbLine
 10
15.25
 20
0.7499999999999983
 30
0.0
 11
16.75
 21
0.7499999999999983
 31
0.0
  0
LINE
  5
CA
330
18
100
AcDbEntity
  8
Title Block
100
AcDbLine
 10
13.5
 20
0.4999999999999983
 30
0.0
 11
13.5
 21
0.2499999999999982
 31
0.0
  0
LINE
  5
CB
330
18
100
AcDbEntity
  8
Title Block
100
AcDbLine
 10
13.5
 20
0.4999999999999983
 30
0.0
 11
13.5
 21
0.9999999999999982
 31
0.0
  0
LINE
  5
CD
330
18
100
AcDbEntity
  8
Title Block
100
AcDbLine
 10
16.25
 20
0.7499999999999983
 30
0.0
 11
16.25
 21
0.2499999999999982
 31
0.0
  0
LWPOLYLINE
  5
DB
330
18
100
AcDbEntity
  8
Title Block
100
AcDbPolyline
 90
        5
 70
     0
 43
0.01
 10
16.75
 20
0.2499999999999982
 10
16.75
 20
10.75
 10
0.2500000000000035
 20
10.75
 10
0.25
 20
0.25
 10
16.75
 20
0.2499999999999982
  0
POINT
  5
E1
330
18
100
AcDbEntity
  8
Title Block
100
AcDbPoint
 10
17.0
 20
-0.0000000000000018
 30
0.0
  0
POINT
  5
E4
330
18
100
AcDbEntity
  8
Title Block
100
AcDbPoint
 10
0.0
 20
0.0
 30
0.0
  0
POINT
  5
E7
330
18
100
AcDbEntity
  8
Title Block
100
AcDbPoint
 10
0.0000000000000036
 20
11.0
 30
0.0
  0
POINT
  5
EA
330
18
100
AcDbEntity
  8
Title Block
100
AcDbPoint
 10
17.0
 20
11.0
 30
0.0
  0
MTEXT
  5
10E
330
18
100
AcDbEntity
  8
Text
100
AcDbMText
 10
6.376628153647693
 20
0.6232951697642469
 30
0.0
 40
0.09
 41
0.25
 71
     5
 72
     5
  1
R
 73
     1
 44
1.0
1001
ACAD
1000
MTEXTBEGIN
1070
    73
1070
     1
1070
    44
1040
1.0
1070
    74
1070
     0
1000
MTEXTEND
  0
MTEXT
  5
10F
330
18
100
AcDbEntity
  8
Text
100
AcDbMText
 10
6.751628153647693
 20
0.6232951697642469
 30
0.0
 40
0.07
 41
0.5
 71
     5
 72
     5
  1
2-27-00
 73
     1
 44
1.0
1001
ACAD
1000
MTEXTBEGIN
1070
    73
1070
     1
1070
    44
1040
1.0
1070
    74
1070
     0
1000
MTEXTEND
  0
MTEXT
  5
110
330
18
100
AcDbEntity
  8
Text
100
AcDbMText
 10
7.189128153647693
 20
0.6232951697642469
 30
0.0
 40
0.09
 41
0.375
 71
     5
 72
     5
  1
MSO
 73
     1
 44
1.0
1001
ACAD
1000
MTEXTBEGIN
1070
    73
1070
     1
1070
    44
1040
1.0
1070
    74
1070
     0
1000
MTEXTEND
  0
MTEXT
  5
112
330
18
100
AcDbEntity
  8
Text
100
AcDbMText
 10
9.126628153647693
 20
0.6232951697642464
 30
0.0
 40
0.09
 41
2.75
 71
     5
 72
     5
  1
DRAWING RELEASED
 73
     1
 44
1.0
1001
ACAD
1000
MTEXTBEGIN
1070
    73
1070
     1
1070
    44
1040
1.0
1070
    74
1070
     0
1000
MTEXTEND
  0
MTEXT
  5
115
330
18
100
AcDbEntity
  8
Text
100
AcDbMText
 10
13.47662815364769
 20
0.8482951697642459
 30
0.0
 40
0.09
 41
0.75
 71
     6
 72
     5
  1
MSO
 73
     1
 44
1.0
1001
ACAD
1000
MTEXTBEGIN
1070
    73
1070
     1
1070
    44
1040
1.0
1070
    74
1070
     0
1000
MTEXTEND
  0
MTEXT
  5
116
330
18
100
AcDbEntity
  8
Text
100
AcDbMText
 10
13.47662815364769
 20
0.5982951697642458
 30
0.0
 40
0.09
 41
0.75
 71
     6
 72
     5
  1
12-27-00
 73
     1
 44
1.0
1001
ACAD
1000
MTEXTBEGIN
1070
    73
1070
     1
1070
    44
1040
1.0
1070
    74
1070
     0
1000
MTEXTEND
  0
MTEXT
  5
117
330
18
100
AcDbEntity
  8
Text
100
AcDbMText
 10
13.47662815364769
 20
0.348295169764246
 30
0.0
 40
0.09
 41
0.75
 71
     6
 72
     5
  1
HIW
 73
     1
 44
1.0
1001
ACAD
1000
MTEXTBEGIN
1070
    73
1070
     1
1070
    44
1040
1.0
1070
    74
1070
     0
1000
MTEXTEND
  0
MTEXT
  5
118
330
18
100
AcDbEntity
  8
Text
100
AcDbMText
 10
14.75162815364769
 20
2.623295169764245
 30
0.0
 40
0.09
 41
4.0
 71
     5
 72
     5
  1
E2X2.dwg
 73
     1
 44
1.0
1001
ACAD
1000
MTEXTBEGIN
1070
    73
1070
     1
1070
    44
1040
1.0
1070
    74
1070
     0
1000
MTEXTEND
  0
MTEXT
  5
119
330
18
100
AcDbEntity
  8
Text
100
AcDbMText
 10
14.75162815364769
 20
1.748295169764245
 30
0.0
 40
0.09
 41
4.0
 71
     5
 72
     5
  1
FIBER-DUCT 2x2 SLOTTED WALL CHANNEL\P(E2X2**2, E2X2**6)\PMARKETING DRAWING
 73
     1
 44
1.0
1001
ACAD
1000
MTEXTBEGIN
1070
    73
1070
     1
1070
    44
1040
1.0
1070
    74
1070
     0
1000
MTEXTEND
  0
MTEXT
  5
11A
330
18
100
AcDbEntity
  8
Text
100
AcDbMText
 10
16.00162815364769
 20
0.8732951697642457
 30
0.0
 40
0.12
 41
1.5
 71
     5
 72
     5
  1
FULL
 73
     1
 44
1.0
1001
ACAD
1000
MTEXTBEGIN
1070
    73
1070
     1
1070
    44
1040
1.0
1070
    74
1070
     0
1000
MTEXTEND
  0
MTEXT
  5
11B
330
18
100
AcDbEntity
  8
Text
100
AcDbMText
 10
15.75162815364769
 20
0.498295169764246
 30
0.0
 40
0.12
 41
1.0
 71
     5
 72
     5
  1
36897-605
 73
     1
 44
1.0
1001
ACAD
1000
MTEXTBEGIN
1070
    73
1070
     1
1070
    44
1040
1.0
1070
    74
1070
     0
1000
MTEXTEND
  0
TEXT
  5
2A0
330
18
100
AcDbEntity
  8
Text
100
AcDbText
 10
2.965082179474407
 20
4.534358748866598
 30
0.0
 40
0.125
  1
FRONT VIEW
100
AcDbText
  0
TEXT
  5
2A1
330
18
100
AcDbEntity
  8
Text
100
AcDbText
 10
10.9802802253208
 20
4.513941937514992
 30
0.0
 40
0.125
  1
RIGHT SIDE VIEW
100
AcDbText
  0
MTEXT
  5
2C8
330
18
100
AcDbEntity
  8
Text
100
AcDbMText
 10
7.560400281422712
 20
0.6262490740326632
 30
0.0
 40
0.09
 41
0.375
 71
     5
 72
     5
  1
HIW
 73
     1
 44
1.0
1001
ACAD
1000
MTEXTBEGIN
1070
    73
1070
     1
1070
    44
1040
1.0
1070
    74
1070
     0
1000
MTEXTEND
  0
LINE
  5
305
330
18
100
AcDbEntity
  8
Object
100
AcDbLine
 10
14.35422758844087
 20
6.725
 30
0.0
 11
14.35122758844087
 21
6.746999999999999
 31
0.0
  0
LINE
  5
306
330
18
100
AcDbEntity
  8
Object
100
AcDbLine
 10
14.35122758844087
 20
6.746999999999999
 30
0.0
 11
14.34022758844087
 21
6.765
 31
0.0
  0
LINE
  5
307
330
18
100
AcDbEntity
  8
Object
100
AcDbLine
 10
14.34022758844087
 20
6.765
 30
0.0
 11
14.32322758844087
 21
6.778999999999999
 31
0.0
  0
LINE
  5
308
330
18
100
AcDbEntity
  8
Object
100
AcDbLine
 10
14.32322758844087
 20
6.778999999999999
 30
0.0
 11
14.29822758844087
 21
6.793
 31
0.0
  0
LINE
  5
309
330
18
100
AcDbEntity
  8
Object
100
AcDbLine
 10
14.24322758844087
 20
5.323999999999999
 30
0.0
 11
14.23222758844087
 21
5.336
 31
0.0
  0
LINE
  5
30A
330
18
100
AcDbEntity
  8
Object
100
AcDbLine
 10
14.23222758844087
 20
5.336
 30
0.0
 11
14.22722758844087
 21
5.352
 31
0.0
  0
LINE
  5
30B
330
18
100
AcDbEntity
  8
Object
100
AcDbLine
 10
13.73922758844087
 20
5.352
 30
0.0
 11
13.73522758844087
 21
5.336
 31
0.0
  0
LINE
  5
30C
330
18
100
AcDbEntity
  8
Object
100
AcDbLine
 10
13.73522758844087
 20
5.336
 30
0.0
 11
13.72322758844087
 21
5.323999999999999
 31
0.0
  0
LINE
  5
30D
330
18
100
AcDbEntity
  8
Object
100
AcDbLine
 10
13.72322758844087
 20
5.323999999999999
 30
0.0
 11
13.70722758844087
 21
5.32
 31
0.0
  0
LINE
  5
30E
330
18
100
AcDbEntity
  8
Object
100
AcDbLine
 10
14.25922758844087
 20
5.32
 30
0.0
 11
14.24322758844087
 21
5.323999999999999
 31
0.0
  0
LINE
  5
30F
330
18
100
AcDbEntity
  8
Object
100
AcDbLine
 10
14.28322758844087
 20
6.891
 30
0.0
 11
14.28022758844087
 21
6.900999999999999
 31
0.0
  0
LINE
  5
310
330
18
100
AcDbEntity
  8
Object
100
AcDbLine
 10
14.28022758844087
 20
6.900999999999999
 30
0.0
 11
14.27722758844087
 21
6.91
 31
0.0
  0
LINE
  5
311
330
18
100
AcDbEntity
  8
Object
100
AcDbLine
 10
13.69022758844087
 20
6.91
 30
0.0
 11
13.68622758844087
 21
6.900999999999999
 31
0.0
  0
LINE
  5
312
330
18
100
AcDbEntity
  8
Object
100
AcDbLine
 10
13.68622758844087
 20
6.900999999999999
 30
0.0
 11
13.68422758844087
 21
6.891
 31
0.0
  0
LINE
  5
313
330
18
100
AcDbEntity
  8
Object
100
AcDbLine
 10
13.68422758844087
 20
6.891
 30
0.0
 11
13.68322758844087
 21
6.882
 31
0.0
  0
LINE
  5
314
330
18
100
AcDbEntity
  8
Object
100
AcDbLine
 10
14.28522758844087
 20
6.809
 30
0.0
 11
14.28322758844087
 21
6.818999999999999
 31
0.0
  0
LINE
  5
315
330
18
100
AcDbEntity
  8
Object
100
AcDbLine
 10
13.68322758844087
 20
6.818999999999999
 30
0.0
 11
13.68122758844087
 21
6.809
 31
0.0
  0
LINE
  5
316
330
18
100
AcDbEntity
  8
Object
100
AcDbLine
 10
14.29022758844087
 20
6.799999999999999
 30
0.0
 11
14.28522758844087
 21
6.809
 31
0.0
  0
LINE
  5
317
330
18
100
AcDbEntity
  8
Object
100
AcDbLine
 10
13.68122758844087
 20
6.809
 30
0.0
 11
13.67622758844087
 21
6.799999999999999
 31
0.0
  0
LINE
  5
318
330
18
100
AcDbEntity
  8
Object
100
AcDbLine
 10
14.29822758844087
 20
6.793
 30
0.0
 11
14.29022758844087
 21
6.799999999999999
 31
0.0
  0
LINE
  5
319
330
18
100
AcDbEntity
  8
Object
100
AcDbLine
 10
13.67622758844087
 20
6.799999999999999
 30
0.0
 11
13.66822758844087
 21
6.793
 31
0.0
  0
LINE
  5
31A
330
18
100
AcDbEntity
  8
Object
100
AcDbLine
 10
13.66822758844087
 20
6.793
 30
0.0
 11
13.64322758844087
 21
6.778999999999999
 31
0.0
  0
LINE
  5
31B
330
18
100
AcDbEntity
  8
Object
100
AcDbLine
 10
13.64322758844087
 20
6.778999999999999
 30
0.0
 11
13.62722758844087
 21
6.765
 31
0.0
  0
LINE
  5
31C
330
18
100
AcDbEntity
  8
Object
100
AcDbLine
 10
13.62722758844087
 20
6.765
 30
0.0
 11
13.61622758844087
 21
6.746999999999999
 31
0.0
  0
LINE
  5
31D
330
18
100
AcDbEntity
  8
Object
100
AcDbLine
 10
13.61622758844087
 20
6.746999999999999
 30
0.0
 11
13.61222758844087
 21
6.725
 31
0.0
  0
LINE
  5
31E
330
18
100
AcDbEntity
  8
Object
100
AcDbLine
 10
13.55422758844087
 20
6.725
 30
0.0
 11
13.55022758844087
 21
6.746999999999999
 31
0.0
  0
LINE
  5
31F
330
18
100
AcDbEntity
  8
Object
100
AcDbLine
 10
13.55022758844087
 20
6.746999999999999
 30
0.0
 11
13.54022758844087
 21
6.765
 31
0.0
  0
LINE
  5
320
330
18
100
AcDbEntity
  8
Object
100
AcDbLine
 10
13.54022758844087
 20
6.765
 30
0.0
 11
13.52322758844087
 21
6.778999999999999
 31
0.0
  0
LINE
  5
321
330
18
100
AcDbEntity
  8
Object
100
AcDbLine
 10
13.52322758844087
 20
6.778999999999999
 30
0.0
 11
13.49822758844087
 21
6.793
 31
0.0
  0
LINE
  5
322
330
18
100
AcDbEntity
  8
Object
100
AcDbLine
 10
12.93922758844087
 20
5.352
 30
0.0
 11
12.93522758844087
 21
5.336
 31
0.0
  0
LINE
  5
323
330
18
100
AcDbEntity
  8
Object
100
AcDbLine
 10
13.42722758844087
 20
5.352
 30
0.0
 11
13.43122758844087
 21
5.336
 31
0.0
  0
LINE
  5
324
330
18
100
AcDbEntity
  8
Object
100
AcDbLine
 10
13.43122758844087
 20
5.336
 30
0.0
 11
13.44322758844087
 21
5.323999999999999
 31
0.0
  0
LINE
  5
325
330
18
100
AcDbEntity
  8
Object
100
AcDbLine
 10
12.93522758844087
 20
5.336
 30
0.0
 11
12.92322758844087
 21
5.323999999999999
 31
0.0
  0
LINE
  5
326
330
18
100
AcDbEntity
  8
Object
100
AcDbLine
 10
12.92322758844087
 20
5.323999999999999
 30
0.0
 11
12.90722758844087
 21
5.32
 31
0.0
  0
LINE
  5
327
330
18
100
AcDbEntity
  8
Object
100
AcDbLine
 10
13.45922758844087
 20
5.32
 30
0.0
 11
13.44322758844087
 21
5.323999999999999
 31
0.0
  0
LINE
  5
328
330
18
100
AcDbEntity
  8
Object
100
AcDbLine
 10
13.48222758844087
 20
6.891
 30
0.0
 11
13.48022758844087
 21
6.900999999999999
 31
0.0
  0
LINE
  5
329
330
18
100
AcDbEntity
  8
Object
100
AcDbLine
 10
13.48022758844087
 20
6.900999999999999
 30
0.0
 11
13.47722758844087
 21
6.91
 31
0.0
  0
LINE
  5
32A
330
18
100
AcDbEntity
  8
Object
100
AcDbLine
 10
12.89022758844087
 20
6.91
 30
0.0
 11
12.88622758844087
 21
6.900999999999999
 31
0.0
  0
LINE
  5
32B
330
18
100
AcDbEntity
  8
Object
100
AcDbLine
 10
13.48322758844087
 20
6.882
 30
0.0
 11
13.48222758844087
 21
6.891
 31
0.0
  0
LINE
  5
32C
330
18
100
AcDbEntity
  8
Object
100
AcDbLine
 10
12.88622758844087
 20
6.900999999999999
 30
0.0
 11
12.88422758844087
 21
6.891
 31
0.0
  0
LINE
  5
32D
330
18
100
AcDbEntity
  8
Object
100
AcDbLine
 10
12.88422758844087
 20
6.891
 30
0.0
 11
12.88322758844087
 21
6.882
 31
0.0
  0
LINE
  5
32E
330
18
100
AcDbEntity
  8
Object
100
AcDbLine
 10
13.48522758844087
 20
6.809
 30
0.0
 11
13.48322758844087
 21
6.818999999999999
 31
0.0
  0
LINE
  5
32F
330
18
100
AcDbEntity
  8
Object
100
AcDbLine
 10
12.88322758844087
 20
6.818999999999999
 30
0.0
 11
12.88122758844087
 21
6.809
 31
0.0
  0
LINE
  5
330
330
18
100
AcDbEntity
  8
Object
100
AcDbLine
 10
13.48522758844087
 20
6.809
 30
0.0
 11
13.49022758844087
 21
6.799999999999999
 31
0.0
  0
LINE
  5
331
330
18
100
AcDbEntity
  8
Object
100
AcDbLine
 10
13.49022758844087
 20
6.799999999999999
 30
0.0
 11
13.49822758844087
 21
6.793
 31
0.0
  0
LINE
  5
332
330
18
100
AcDbEntity
  8
Object
100
AcDbLine
 10
12.88122758844087
 20
6.809
 30
0.0
 11
12.87622758844087
 21
6.799999999999999
 31
0.0
  0
LINE
  5
333
330
18
100
AcDbEntity
  8
Object
100
AcDbLine
 10
12.87622758844087
 20
6.799999999999999
 30
0.0
 11
12.86822758844087
 21
6.793
 31
0.0
  0
LINE
  5
334
330
18
100
AcDbEntity
  8
Object
100
AcDbLine
 10
12.86822758844087
 20
6.793
 30
0.0
 11
12.84322758844087
 21
6.778999999999999
 31
0.0
  0
LINE
  5
335
330
18
100
AcDbEntity
  8
Object
100
AcDbLine
 10
12.84322758844087
 20
6.778999999999999
 30
0.0
 11
12.82722758844087
 21
6.765
 31
0.0
  0
LINE
  5
336
330
18
100
AcDbEntity
  8
Object
100
AcDbLine
 10
12.82722758844087
 20
6.765
 30
0.0
 11
12.81622758844087
 21
6.746999999999999
 31
0.0
  0
LINE
  5
337
330
18
100
AcDbEntity
  8
Object
100
AcDbLine
 10
12.81622758844087
 20
6.746999999999999
 30
0.0
 11
12.81222758844087
 21
6.725
 31
0.0
  0
LINE
  5
338
330
18
100
AcDbEntity
  8
Object
100
AcDbLine
 10
12.75422758844087
 20
6.725
 30
0.0
 11
12.75022758844087
 21
6.746999999999999
 31
0.0
  0
LINE
  5
339
330
18
100
AcDbEntity
  8
Object
100
AcDbLine
 10
12.75022758844087
 20
6.746999999999999
 30
0.0
 11
12.74022758844087
 21
6.765
 31
0.0
  0
LINE
  5
33A
330
18
100
AcDbEntity
  8
Object
100
AcDbLine
 10
12.74022758844087
 20
6.765
 30
0.0
 11
12.72322758844087
 21
6.778999999999999
 31
0.0
  0
LINE
  5
33B
330
18
100
AcDbEntity
  8
Object
100
AcDbLine
 10
12.72322758844087
 20
6.778999999999999
 30
0.0
 11
12.69822758844087
 21
6.793
 31
0.0
  0
LINE
  5
33C
330
18
100
AcDbEntity
  8
Object
100
AcDbLine
 10
12.64322758844087
 20
5.323999999999999
 30
0.0
 11
12.63122758844087
 21
5.336
 31
0.0
  0
LINE
  5
33D
330
18
100
AcDbEntity
  8
Object
100
AcDbLine
 10
12.63122758844087
 20
5.336
 30
0.0
 11
12.62722758844087
 21
5.352
 31
0.0
  0
LINE
  5
33E
330
18
100
AcDbEntity
  8
Object
100
AcDbLine
 10
12.13922758844087
 20
5.352
 30
0.0
 11
12.13522758844087
 21
5.336
 31
0.0
  0
LINE
  5
33F
330
18
100
AcDbEntity
  8
Object
100
AcDbLine
 10
12.13522758844087
 20
5.336
 30
0.0
 11
12.12322758844087
 21
5.323999999999999
 31
0.0
  0
LINE
  5
340
330
18
100
AcDbEntity
  8
Object
100
AcDbLine
 10
12.12322758844087
 20
5.323999999999999
 30
0.0
 11
12.10722758844087
 21
5.32
 31
0.0
  0
LINE
  5
341
330
18
100
AcDbEntity
  8
Object
100
AcDbLine
 10
12.65922758844087
 20
5.32
 30
0.0
 11
12.64322758844087
 21
5.323999999999999
 31
0.0
  0
LINE
  5
342
330
18
100
AcDbEntity
  8
Object
100
AcDbLine
 10
12.68222758844087
 20
6.891
 30
0.0
 11
12.68022758844087
 21
6.900999999999999
 31
0.0
  0
LINE
  5
343
330
18
100
AcDbEntity
  8
Object
100
AcDbLine
 10
12.68022758844087
 20
6.900999999999999
 30
0.0
 11
12.67722758844087
 21
6.91
 31
0.0
  0
LINE
  5
344
330
18
100
AcDbEntity
  8
Object
100
AcDbLine
 10
12.08922758844087
 20
6.91
 30
0.0
 11
12.08622758844087
 21
6.900999999999999
 31
0.0
  0
LINE
  5
345
330
18
100
AcDbEntity
  8
Object
100
AcDbLine
 10
12.08622758844087
 20
6.900999999999999
 30
0.0
 11
12.08422758844087
 21
6.891
 31
0.0
  0
LINE
  5
346
330
18
100
AcDbEntity
  8
Object
100
AcDbLine
 10
12.68322758844087
 20
6.882
 30
0.0
 11
12.68222758844087
 21
6.891
 31
0.0
  0
LINE
  5
347
330
18
100
AcDbEntity
  8
Object
100
AcDbLine
 10
12.08422758844087
 20
6.891
 30
0.0
 11
12.08322758844087
 21
6.882
 31
0.0
  0
LINE
  5
348
330
18
100
AcDbEntity
  8
Object
100
AcDbLine
 10
12.68322758844087
 20
6.818999999999999
 30
0.0
 11
12.68522758844087
 21
6.809
 31
0.0
  0
LINE
  5
349
330
18
100
AcDbEntity
  8
Object
100
AcDbLine
 10
12.68522758844087
 20
6.809
 30
0.0
 11
12.69022758844087
 21
6.799999999999999
 31
0.0
  0
LINE
  5
34A
330
18
100
AcDbEntity
  8
Object
100
AcDbLine
 10
12.08322758844087
 20
6.818999999999999
 30
0.0
 11
12.08122758844087
 21
6.809
 31
0.0
  0
LINE
  5
34B
330
18
100
AcDbEntity
  8
Object
100
AcDbLine
 10
12.08122758844087
 20
6.809
 30
0.0
 11
12.07622758844087
 21
6.799999999999999
 31
0.0
  0
LINE
  5
34C
330
18
100
AcDbEntity
  8
Object
100
AcDbLine
 10
12.69822758844087
 20
6.793
 30
0.0
 11
12.69022758844087
 21
6.799999999999999
 31
0.0
  0
LINE
  5
34D
330
18
100
AcDbEntity
  8
Object
100
AcDbLine
 10
12.07622758844087
 20
6.799999999999999
 30
0.0
 11
12.06822758844087
 21
6.793
 31
0.0
  0
LINE
  5
34E
330
18
100
AcDbEntity
  8
Object
100
AcDbLine
 10
12.06822758844087
 20
6.793
 30
0.0
 11
12.04322758844087
 21
6.778999999999999
 31
0.0
  0
LINE
  5
34F
330
18
100
AcDbEntity
  8
Object
100
AcDbLine
 10
12.04322758844087
 20
6.778999999999999
 30
0.0
 11
12.02722758844087
 21
6.765
 31
0.0
  0
LINE
  5
350
330
18
100
AcDbEntity
  8
Object
100
AcDbLine
 10
12.02722758844087
 20
6.765
 30
0.0
 11
12.01622758844087
 21
6.746999999999999
 31
0.0
  0
LINE
  5
351
330
18
100
AcDbEntity
  8
Object
100
AcDbLine
 10
12.01622758844087
 20
6.746999999999999
 30
0.0
 11
12.01222758844087
 21
6.725
 31
0.0
  0
LINE
  5
352
330
18
100
AcDbEntity
  8
Object
100
AcDbLine
 10
11.95422758844087
 20
6.725
 30
0.0
 11
11.95022758844087
 21
6.746999999999999
 31
0.0
  0
LINE
  5
353
330
18
100
AcDbEntity
  8
Object
100
AcDbLine
 10
11.95022758844087
 20
6.746999999999999
 30
0.0
 11
11.94022758844087
 21
6.765
 31
0.0
  0
LINE
  5
354
330
18
100
AcDbEntity
  8
Object
100
AcDbLine
 10
11.94022758844087
 20
6.765
 30
0.0
 11
11.92322758844087
 21
6.778999999999999
 31
0.0
  0
LINE
  5
355
330
18
100
AcDbEntity
  8
Object
100
AcDbLine
 10
11.92322758844087
 20
6.778999999999999
 30
0.0
 11
11.89822758844087
 21
6.793
 31
0.0
  0
LINE
  5
356
330
18
100
AcDbEntity
  8
Object
100
AcDbLine
 10
11.33922758844087
 20
5.352
 30
0.0
 11
11.33522758844087
 21
5.336
 31
0.0
  0
LINE
  5
357
330
18
100
AcDbEntity
  8
Object
100
AcDbLine
 10
11.83122758844087
 20
5.336
 30
0.0
 11
11.82722758844087
 21
5.352
 31
0.0
  0
LINE
  5
358
330
18
100
AcDbEntity
  8
Object
100
AcDbLine
 10
11.85922758844087
 20
5.32
 30
0.0
 11
11.84322758844087
 21
5.323999999999999
 31
0.0
  0
LINE
  5
359
330
18
100
AcDbEntity
  8
Object
100
AcDbLine
 10
11.84322758844087
 20
5.323999999999999
 30
0.0
 11
11.83122758844087
 21
5.336
 31
0.0
  0
LINE
  5
35A
330
18
100
AcDbEntity
  8
Object
100
AcDbLine
 10
11.33522758844087
 20
5.336
 30
0.0
 11
11.32322758844087
 21
5.323999999999999
 31
0.0
  0
LINE
  5
35B
330
18
100
AcDbEntity
  8
Object
100
AcDbLine
 10
11.32322758844087
 20
5.323999999999999
 30
0.0
 11
11.30722758844087
 21
5.32
 31
0.0
  0
LINE
  5
35C
330
18
100
AcDbEntity
  8
Object
100
AcDbLine
 10
11.87722758844087
 20
6.91
 30
0.0
 11
11.88022758844087
 21
6.900999999999999
 31
0.0
  0
LINE
  5
35D
330
18
100
AcDbEntity
  8
Object
100
AcDbLine
 10
11.88022758844087
 20
6.900999999999999
 30
0.0
 11
11.88222758844087
 21
6.891
 31
0.0
  0
LINE
  5
35E
330
18
100
AcDbEntity
  8
Object
100
AcDbLine
 10
11.28922758844087
 20
6.91
 30
0.0
 11
11.28622758844087
 21
6.900999999999999
 31
0.0
  0
LINE
  5
35F
330
18
100
AcDbEntity
  8
Object
100
AcDbLine
 10
11.28622758844087
 20
6.900999999999999
 30
0.0
 11
11.28422758844087
 21
6.891
 31
0.0
  0
LINE
  5
360
330
18
100
AcDbEntity
  8
Object
100
AcDbLine
 10
11.88322758844087
 20
6.882
 30
0.0
 11
11.88222758844087
 21
6.891
 31
0.0
  0
LINE
  5
361
330
18
100
AcDbEntity
  8
Object
100
AcDbLine
 10
11.28422758844087
 20
6.891
 30
0.0
 11
11.28322758844087
 21
6.882
 31
0.0
  0
LINE
  5
362
330
18
100
AcDbEntity
  8
Object
100
AcDbLine
 10
11.28322758844087
 20
6.818999999999999
 30
0.0
 11
11.28122758844087
 21
6.809
 31
0.0
  0
LINE
  5
363
330
18
100
AcDbEntity
  8
Object
100
AcDbLine
 10
11.88522758844087
 20
6.809
 30
0.0
 11
11.88322758844087
 21
6.818999999999999
 31
0.0
  0
LINE
  5
364
330
18
100
AcDbEntity
  8
Object
100
AcDbLine
 10
11.89822758844087
 20
6.793
 30
0.0
 11
11.89022758844087
 21
6.799999999999999
 31
0.0
  0
LINE
  5
365
330
18
100
AcDbEntity
  8
Object
100
AcDbLine
 10
11.89022758844087
 20
6.799999999999999
 30
0.0
 11
11.88522758844087
 21
6.809
 31
0.0
  0
LINE
  5
366
330
18
100
AcDbEntity
  8
Object
100
AcDbLine
 10
11.28122758844087
 20
6.809
 30
0.0
 11
11.27622758844087
 21
6.799999999999999
 31
0.0
  0
LINE
  5
367
330
18
100
AcDbEntity
  8
Object
100
AcDbLine
 10
11.27622758844087
 20
6.799999999999999
 30
0.0
 11
11.26822758844087
 21
6.793
 31
0.0
  0
LINE
  5
368
330
18
100
AcDbEntity
  8
Object
100
AcDbLine
 10
11.26822758844087
 20
6.793
 30
0.0
 11
11.24322758844087
 21
6.778999999999999
 31
0.0
  0
LINE
  5
369
330
18
100
AcDbEntity
  8
Object
100
AcDbLine
 10
11.24322758844087
 20
6.778999999999999
 30
0.0
 11
11.22622758844087
 21
6.765
 31
0.0
  0
LINE
  5
36A
330
18
100
AcDbEntity
  8
Object
100
AcDbLine
 10
11.22622758844087
 20
6.765
 30
0.0
 11
11.21622758844087
 21
6.746999999999999
 31
0.0
  0
LINE
  5
36B
330
18
100
AcDbEntity
  8
Object
100
AcDbLine
 10
11.21622758844087
 20
6.746999999999999
 30
0.0
 11
11.21222758844087
 21
6.725
 31
0.0
  0
LINE
  5
36C
330
18
100
AcDbEntity
  8
Object
100
AcDbLine
 10
11.15422758844087
 20
6.725
 30
0.0
 11
11.15022758844087
 21
6.746999999999999
 31
0.0
  0
LINE
  5
36D
330
18
100
AcDbEntity
  8
Object
100
AcDbLine
 10
11.15022758844087
 20
6.746999999999999
 30
0.0
 11
11.13922758844087
 21
6.765
 31
0.0
  0
LINE
  5
36E
330
18
100
AcDbEntity
  8
Object
100
AcDbLine
 10
11.13922758844087
 20
6.765
 30
0.0
 11
11.12322758844087
 21
6.778999999999999
 31
0.0
  0
LINE
  5
36F
330
18
100
AcDbEntity
  8
Object
100
AcDbLine
 10
11.12322758844087
 20
6.778999999999999
 30
0.0
 11
11.09822758844087
 21
6.793
 31
0.0
  0
LINE
  5
370
330
18
100
AcDbEntity
  8
Object
100
AcDbLine
 10
11.04322758844087
 20
5.323999999999999
 30
0.0
 11
11.03122758844087
 21
5.336
 31
0.0
  0
LINE
  5
371
330
18
100
AcDbEntity
  8
Object
100
AcDbLine
 10
11.03122758844087
 20
5.336
 30
0.0
 11
11.02722758844087
 21
5.352
 31
0.0
  0
LINE
  5
372
330
18
100
AcDbEntity
  8
Object
100
AcDbLine
 10
10.53922758844087
 20
5.352
 30
0.0
 11
10.53522758844087
 21
5.336
 31
0.0
  0
LINE
  5
373
330
18
100
AcDbEntity
  8
Object
100
AcDbLine
 10
10.53522758844087
 20
5.336
 30
0.0
 11
10.52322758844087
 21
5.323999999999999
 31
0.0
  0
LINE
  5
374
330
18
100
AcDbEntity
  8
Object
100
AcDbLine
 10
10.52322758844087
 20
5.323999999999999
 30
0.0
 11
10.50722758844087
 21
5.32
 31
0.0
  0
LINE
  5
375
330
18
100
AcDbEntity
  8
Object
100
AcDbLine
 10
11.05922758844087
 20
5.32
 30
0.0
 11
11.04322758844087
 21
5.323999999999999
 31
0.0
  0
LINE
  5
376
330
18
100
AcDbEntity
  8
Object
100
AcDbLine
 10
11.08022758844087
 20
6.900999999999999
 30
0.0
 11
11.07622758844087
 21
6.91
 31
0.0
  0
LINE
  5
377
330
18
100
AcDbEntity
  8
Object
100
AcDbLine
 10
10.48922758844087
 20
6.91
 30
0.0
 11
10.48622758844087
 21
6.900999999999999
 31
0.0
  0
LINE
  5
378
330
18
100
AcDbEntity
  8
Object
100
AcDbLine
 10
10.48622758844087
 20
6.900999999999999
 30
0.0
 11
10.48422758844087
 21
6.891
 31
0.0
  0
LINE
  5
379
330
18
100
AcDbEntity
  8
Object
100
AcDbLine
 10
11.08022758844087
 20
6.900999999999999
 30
0.0
 11
11.08222758844087
 21
6.891
 31
0.0
  0
LINE
  5
37A
330
18
100
AcDbEntity
  8
Object
100
AcDbLine
 10
11.08222758844087
 20
6.891
 30
0.0
 11
11.08322758844087
 21
6.882
 31
0.0
  0
LINE
  5
37B
330
18
100
AcDbEntity
  8
Object
100
AcDbLine
 10
10.48422758844087
 20
6.891
 30
0.0
 11
10.48322758844087
 21
6.882
 31
0.0
  0
LINE
  5
37C
330
18
100
AcDbEntity
  8
Object
100
AcDbLine
 10
11.08522758844087
 20
6.809
 30
0.0
 11
11.08322758844087
 21
6.818999999999999
 31
0.0
  0
LINE
  5
37D
330
18
100
AcDbEntity
  8
Object
100
AcDbLine
 10
10.48322758844087
 20
6.818999999999999
 30
0.0
 11
10.48122758844087
 21
6.809
 31
0.0
  0
LINE
  5
37E
330
18
100
AcDbEntity
  8
Object
100
AcDbLine
 10
11.09822758844087
 20
6.793
 30
0.0
 11
11.09022758844087
 21
6.799999999999999
 31
0.0
  0
LINE
  5
37F
330
18
100
AcDbEntity
  8
Object
100
AcDbLine
 10
11.09022758844087
 20
6.799999999999999
 30
0.0
 11
11.08522758844087
 21
6.809
 31
0.0
  0
LINE
  5
380
330
18
100
AcDbEntity
  8
Object
100
AcDbLine
 10
10.48122758844087
 20
6.809
 30
0.0
 11
10.47622758844087
 21
6.799999999999999
 31
0.0
  0
LINE
  5
381
330
18
100
AcDbEntity
  8
Object
100
AcDbLine
 10
10.47622758844087
 20
6.799999999999999
 30
0.0
 11
10.46822758844087
 21
6.793
 31
0.0
  0
LINE
  5
382
330
18
100
AcDbEntity
  8
Object
100
AcDbLine
 10
10.46822758844087
 20
6.793
 30
0.0
 11
10.44322758844087
 21
6.778999999999999
 31
0.0
  0
LINE
  5
383
330
18
100
AcDbEntity
  8
Object
100
AcDbLine
 10
10.44322758844087
 20
6.778999999999999
 30
0.0
 11
10.42622758844087
 21
6.765
 31
0.0
  0
LINE
  5
384
330
18
100
AcDbEntity
  8
Object
100
AcDbLine
 10
10.42622758844087
 20
6.765
 30
0.0
 11
10.41622758844087
 21
6.746999999999999
 31
0.0
  0
LINE
  5
385
330
18
100
AcDbEntity
  8
Object
100
AcDbLine
 10
10.41622758844087
 20
6.746999999999999
 30
0.0
 11
10.41222758844087
 21
6.725
 31
0.0
  0
LINE
  5
386
330
18
100
AcDbEntity
  8
Object
100
AcDbLine
 10
10.35422758844087
 20
6.725
 30
0.0
 11
10.35022758844087
 21
6.746999999999999
 31
0.0
  0
LINE
  5
387
330
18
100
AcDbEntity
  8
Object
100
AcDbLine
 10
10.35022758844087
 20
6.746999999999999
 30
0.0
 11
10.33922758844087
 21
6.765
 31
0.0
  0
LINE
  5
388
330
18
100
AcDbEntity
  8
Object
100
AcDbLine
 10
10.33922758844087
 20
6.765
 30
0.0
 11
10.32322758844087
 21
6.778999999999999
 31
0.0
  0
LINE
  5
389
330
18
100
AcDbEntity
  8
Object
100
AcDbLine
 10
10.32322758844087
 20
6.778999999999999
 30
0.0
 11
10.29822758844087
 21
6.793
 31
0.0
  0
LINE
  5
38A
330
18
100
AcDbEntity
  8
Object
100
AcDbLine
 10
9.739227588440874
 20
5.352
 30
0.0
 11
9.734227588440875
 21
5.336
 31
0.0
  0
LINE
  5
38B
330
18
100
AcDbEntity
  8
Object
100
AcDbLine
 10
10.22722758844087
 20
5.352
 30
0.0
 11
10.23122758844087
 21
5.336
 31
0.0
  0
LINE
  5
38C
330
18
100
AcDbEntity
  8
Object
100
AcDbLine
 10
10.23122758844087
 20
5.336
 30
0.0
 11
10.24322758844087
 21
5.323999999999999
 31
0.0
  0
LINE
  5
38D
330
18
100
AcDbEntity
  8
Object
100
AcDbLine
 10
9.734227588440875
 20
5.336
 30
0.0
 11
9.723227588440874
 21
5.323999999999999
 31
0.0
  0
LINE
  5
38E
330
18
100
AcDbEntity
  8
Object
100
AcDbLine
 10
9.723227588440874
 20
5.323999999999999
 30
0.0
 11
9.707227588440874
 21
5.32
 31
0.0
  0
LINE
  5
38F
330
18
100
AcDbEntity
  8
Object
100
AcDbLine
 10
10.25922758844087
 20
5.32
 30
0.0
 11
10.24322758844087
 21
5.323999999999999
 31
0.0
  0
LINE
  5
390
330
18
100
AcDbEntity
  8
Object
100
AcDbLine
 10
10.28222758844087
 20
6.891
 30
0.0
 11
10.28022758844087
 21
6.900999999999999
 31
0.0
  0
LINE
  5
391
330
18
100
AcDbEntity
  8
Object
100
AcDbLine
 10
10.28022758844087
 20
6.900999999999999
 30
0.0
 11
10.27622758844087
 21
6.91
 31
0.0
  0
LINE
  5
392
330
18
100
AcDbEntity
  8
Object
100
AcDbLine
 10
9.689227588440875
 20
6.91
 30
0.0
 11
9.686227588440875
 21
6.900999999999999
 31
0.0
  0
LINE
  5
393
330
18
100
AcDbEntity
  8
Object
100
AcDbLine
 10
10.28322758844087
 20
6.882
 30
0.0
 11
10.28222758844087
 21
6.891
 31
0.0
  0
LINE
  5
394
330
18
100
AcDbEntity
  8
Object
100
AcDbLine
 10
9.686227588440875
 20
6.900999999999999
 30
0.0
 11
9.683227588440875
 21
6.891
 31
0.0
  0
LINE
  5
395
330
18
100
AcDbEntity
  8
Object
100
AcDbLine
 10
10.28522758844087
 20
6.809
 30
0.0
 11
10.28322758844087
 21
6.818999999999999
 31
0.0
  0
LINE
  5
396
330
18
100
AcDbEntity
  8
Object
100
AcDbLine
 10
9.683227588440875
 20
6.818999999999999
 30
0.0
 11
9.681227588440874
 21
6.809
 31
0.0
  0
LINE
  5
397
330
18
100
AcDbEntity
  8
Object
100
AcDbLine
 10
10.29022758844087
 20
6.799999999999999
 30
0.0
 11
10.28522758844087
 21
6.809
 31
0.0
  0
LINE
  5
398
330
18
100
AcDbEntity
  8
Object
100
AcDbLine
 10
9.681227588440874
 20
6.809
 30
0.0
 11
9.676227588440875
 21
6.799999999999999
 31
0.0
  0
LINE
  5
399
330
18
100
AcDbEntity
  8
Object
100
AcDbLine
 10
10.29822758844087
 20
6.793
 30
0.0
 11
10.29022758844087
 21
6.799999999999999
 31
0.0
  0
LINE
  5
39A
330
18
100
AcDbEntity
  8
Object
100
AcDbLine
 10
9.676227588440875
 20
6.799999999999999
 30
0.0
 11
9.668227588440874
 21
6.793
 31
0.0
  0
LINE
  5
39B
330
18
100
AcDbEntity
  8
Object
100
AcDbLine
 10
9.668227588440874
 20
6.793
 30
0.0
 11
9.643227588440874
 21
6.778999999999999
 31
0.0
  0
LINE
  5
39C
330
18
100
AcDbEntity
  8
Object
100
AcDbLine
 10
9.643227588440874
 20
6.778999999999999
 30
0.0
 11
9.626227588440874
 21
6.765
 31
0.0
  0
LINE
  5
39D
330
18
100
AcDbEntity
  8
Object
100
AcDbLine
 10
9.626227588440874
 20
6.765
 30
0.0
 11
9.615227588440873
 21
6.746999999999999
 31
0.0
  0
LINE
  5
39E
330
18
100
AcDbEntity
  8
Object
100
AcDbLine
 10
9.615227588440873
 20
6.746999999999999
 30
0.0
 11
9.612227588440875
 21
6.725
 31
0.0
  0
LINE
  5
39F
330
18
100
AcDbEntity
  8
Object
100
AcDbLine
 10
9.554227588440873
 20
6.725
 30
0.0
 11
9.550227588440874
 21
6.746999999999999
 31
0.0
  0
LINE
  5
3A0
330
18
100
AcDbEntity
  8
Object
100
AcDbLine
 10
9.550227588440874
 20
6.746999999999999
 30
0.0
 11
9.539227588440875
 21
6.765
 31
0.0
  0
LINE
  5
3A1
330
18
100
AcDbEntity
  8
Object
100
AcDbLine
 10
9.539227588440875
 20
6.765
 30
0.0
 11
9.523227588440875
 21
6.778999999999999
 31
0.0
  0
LINE
  5
3A2
330
18
100
AcDbEntity
  8
Object
100
AcDbLine
 10
9.523227588440875
 20
6.778999999999999
 30
0.0
 11
9.498227588440874
 21
6.793
 31
0.0
  0
LINE
  5
3A3
330
18
100
AcDbEntity
  8
Object
100
AcDbLine
 10
9.431227588440874
 20
5.336
 30
0.0
 11
9.427227588440874
 21
5.352
 31
0.0
  0
LINE
  5
3A4
330
18
100
AcDbEntity
  8
Object
100
AcDbLine
 10
8.939227588440875
 20
5.352
 30
0.0
 11
8.934227588440874
 21
5.336
 31
0.0
  0
LINE
  5
3A5
330
18
100
AcDbEntity
  8
Object
100
AcDbLine
 10
9.431227588440874
 20
5.336
 30
0.0
 11
9.443227588440874
 21
5.323999999999999
 31
0.0
  0
LINE
  5
3A6
330
18
100
AcDbEntity
  8
Object
100
AcDbLine
 10
9.443227588440874
 20
5.323999999999999
 30
0.0
 11
9.459227588440874
 21
5.32
 31
0.0
  0
LINE
  5
3A7
330
18
100
AcDbEntity
  8
Object
100
AcDbLine
 10
8.934227588440874
 20
5.336
 30
0.0
 11
8.923227588440875
 21
5.323999999999999
 31
0.0
  0
LINE
  5
3A8
330
18
100
AcDbEntity
  8
Object
100
AcDbLine
 10
8.923227588440875
 20
5.323999999999999
 30
0.0
 11
8.907227588440875
 21
5.32
 31
0.0
  0
LINE
  5
3A9
330
18
100
AcDbEntity
  8
Object
100
AcDbLine
 10
9.476227588440874
 20
6.91
 30
0.0
 11
9.480227588440873
 21
6.900999999999999
 31
0.0
  0
LINE
  5
3AA
330
18
100
AcDbEntity
  8
Object
100
AcDbLine
 10
9.480227588440873
 20
6.900999999999999
 30
0.0
 11
9.482227588440874
 21
6.891
 31
0.0
  0
LINE
  5
3AB
330
18
100
AcDbEntity
  8
Object
100
AcDbLine
 10
8.889227588440874
 20
6.91
 30
0.0
 11
8.886227588440874
 21
6.900999999999999
 31
0.0
  0
LINE
  5
3AC
330
18
100
AcDbEntity
  8
Object
100
AcDbLine
 10
8.886227588440874
 20
6.900999999999999
 30
0.0
 11
8.883227588440874
 21
6.891
 31
0.0
  0
LINE
  5
3AD
330
18
100
AcDbEntity
  8
Object
100
AcDbLine
 10
9.483227588440874
 20
6.882
 30
0.0
 11
9.482227588440874
 21
6.891
 31
0.0
  0
LINE
  5
3AE
330
18
100
AcDbEntity
  8
Object
100
AcDbLine
 10
9.485227588440874
 20
6.809
 30
0.0
 11
9.483227588440874
 21
6.818999999999999
 31
0.0
  0
LINE
  5
3AF
330
18
100
AcDbEntity
  8
Object
100
AcDbLine
 10
8.883227588440874
 20
6.818999999999999
 30
0.0
 11
8.881227588440873
 21
6.809
 31
0.0
  0
LINE
  5
3B0
330
18
100
AcDbEntity
  8
Object
100
AcDbLine
 10
9.498227588440874
 20
6.793
 30
0.0
 11
9.490227588440873
 21
6.799999999999999
 31
0.0
  0
LINE
  5
3B1
330
18
100
AcDbEntity
  8
Object
100
AcDbLine
 10
9.490227588440873
 20
6.799999999999999
 30
0.0
 11
9.485227588440874
 21
6.809
 31
0.0
  0
LINE
  5
3B2
330
18
100
AcDbEntity
  8
Object
100
AcDbLine
 10
8.881227588440873
 20
6.809
 30
0.0
 11
8.876227588440874
 21
6.799999999999999
 31
0.0
  0
LINE
  5
3B3
330
18
100
AcDbEntity
  8
Object
100
AcDbLine
 10
8.876227588440874
 20
6.799999999999999
 30
0.0
 11
8.868227588440873
 21
6.793
 31
0.0
  0
LINE
  5
3B4
330
18
100
AcDbEntity
  8
Object
100
AcDbLine
 10
8.868227588440873
 20
6.793
 30
0.0
 11
8.843227588440875
 21
6.778999999999999
 31
0.0
  0
LINE
  5
3B5
330
18
100
AcDbEntity
  8
Object
100
AcDbLine
 10
8.843227588440875
 20
6.778999999999999
 30
0.0
 11
8.826227588440874
 21
6.765
 31
0.0
  0
LINE
  5
3B6
330
18
100
AcDbEntity
  8
Object
100
AcDbLine
 10
8.826227588440874
 20
6.765
 30
0.0
 11
8.815227588440874
 21
6.746999999999999
 31
0.0
  0
LINE
  5
3B7
330
18
100
AcDbEntity
  8
Object
100
AcDbLine
 10
8.815227588440874
 20
6.746999999999999
 30
0.0
 11
8.812227588440874
 21
6.725
 31
0.0
  0
LINE
  5
3BA
330
18
100
AcDbEntity
  8
Object
100
AcDbLine
 10
14.38322758844087
 20
5.319999999999999
 30
0.0
 11
14.25922758844087
 21
5.32
 31
0.0
  0
LINE
  5
3BB
330
18
100
AcDbEntity
  8
Object
100
AcDbLine
 10
13.70722758844087
 20
5.32
 30
0.0
 11
13.45922758844087
 21
5.32
 31
0.0
  0
LINE
  5
3BC
330
18
100
AcDbEntity
  8
Object
100
AcDbLine
 10
12.90722758844087
 20
5.32
 30
0.0
 11
12.65922758844087
 21
5.32
 31
0.0
  0
LINE
  5
3BD
330
18
100
AcDbEntity
  8
Object
100
AcDbLine
 10
12.10722758844087
 20
5.32
 30
0.0
 11
11.85922758844087
 21
5.32
 31
0.0
  0
LINE
  5
3BE
330
18
100
AcDbEntity
  8
Object
100
AcDbLine
 10
11.30722758844087
 20
5.32
 30
0.0
 11
11.05922758844087
 21
5.32
 31
0.0
  0
LINE
  5
3BF
330
18
100
AcDbEntity
  8
Object
100
AcDbLine
 10
10.50722758844087
 20
5.32
 30
0.0
 11
10.25922758844087
 21
5.32
 31
0.0
  0
LINE
  5
3C0
330
18
100
AcDbEntity
  8
Object
100
AcDbLine
 10
9.707227588440874
 20
5.32
 30
0.0
 11
9.459227588440874
 21
5.32
 31
0.0
  0
LINE
  5
3C1
330
18
100
AcDbEntity
  8
Object
100
AcDbLine
 10
8.907227588440875
 20
5.32
 30
0.0
 11
8.783227588440874
 21
5.32
 31
0.0
  0
LINE
  5
40F
330
18
100
AcDbEntity
  8
Object
100
AcDbLine
 10
14.33622758844087
 20
6.674999999999999
 30
0.0
 11
14.31622758844087
 21
6.661
 31
0.0
  0
LINE
  5
410
330
18
100
AcDbEntity
  8
Object
100
AcDbLine
 10
14.31622758844087
 20
6.661
 30
0.0
 11
14.29222758844087
 21
6.656
 31
0.0
  0
LINE
  5
411
330
18
100
AcDbEntity
  8
Object
100
AcDbLine
 10
14.35122758844087
 20
6.743999999999999
 30
0.0
 11
14.35422758844087
 21
6.722999999999999
 31
0.0
  0
LINE
  5
412
330
18
100
AcDbEntity
  8
Object
100
AcDbLine
 10
14.35422758844087
 20
6.722999999999999
 30
0.0
 11
14.35422758844087
 21
6.717999999999999
 31
0.0
  0
LINE
  5
413
330
18
100
AcDbEntity
  8
Object
100
AcDbLine
 10
14.35422758844087
 20
6.717999999999999
 30
0.0
 11
14.35022758844087
 21
6.695
 31
0.0
  0
LINE
  5
414
330
18
100
AcDbEntity
  8
Object
100
AcDbLine
 10
14.35022758844087
 20
6.695
 30
0.0
 11
14.33622758844087
 21
6.674999999999999
 31
0.0
  0
LINE
  5
415
330
18
100
AcDbEntity
  8
Object
100
AcDbLine
 10
14.25722758844087
 20
6.656
 30
0.0
 11
14.29222758844087
 21
6.656
 31
0.0
  0
LINE
  5
416
330
18
100
AcDbEntity
  8
Object
100
AcDbLine
 10
14.29822758844087
 20
6.791
 30
0.0
 11
14.32322758844087
 21
6.775999999999999
 31
0.0
  0
LINE
  5
417
330
18
100
AcDbEntity
  8
Object
100
AcDbLine
 10
14.32322758844087
 20
6.775999999999999
 30
0.0
 11
14.34022758844087
 21
6.762
 31
0.0
  0
LINE
  5
418
330
18
100
AcDbEntity
  8
Object
100
AcDbLine
 10
14.34022758844087
 20
6.762
 30
0.0
 11
14.35122758844087
 21
6.743999999999999
 31
0.0
  0
LINE
  5
419
330
18
100
AcDbEntity
  8
Object
100
AcDbLine
 10
14.24222758844087
 20
6.652
 30
0.0
 11
14.25722758844087
 21
6.656
 31
0.0
  0
LINE
  5
41A
330
18
100
AcDbEntity
  8
Object
100
AcDbLine
 10
14.22722758844087
 20
5.349
 30
0.0
 11
14.22722758844087
 21
6.626
 31
0.0
  0
LINE
  5
41B
330
18
100
AcDbEntity
  8
Object
100
AcDbLine
 10
13.73922758844087
 20
5.349
 30
0.0
 11
13.73922758844087
 21
6.626
 31
0.0
  0
LINE
  5
41C
330
18
100
AcDbEntity
  8
Object
100
AcDbLine
 10
13.73922758844087
 20
6.626
 30
0.0
 11
13.73522758844087
 21
6.641
 31
0.0
  0
LINE
  5
41D
330
18
100
AcDbEntity
  8
Object
100
AcDbLine
 10
14.24222758844087
 20
6.652
 30
0.0
 11
14.23122758844087
 21
6.641
 31
0.0
  0
LINE
  5
41E
330
18
100
AcDbEntity
  8
Object
100
AcDbLine
 10
14.23122758844087
 20
6.641
 30
0.0
 11
14.22722758844087
 21
6.626
 31
0.0
  0
LINE
  5
41F
330
18
100
AcDbEntity
  8
Object
100
AcDbLine
 10
13.73922758844087
 20
5.349
 30
0.0
 11
13.73522758844087
 21
5.333
 31
0.0
  0
LINE
  5
420
330
18
100
AcDbEntity
  8
Object
100
AcDbLine
 10
14.22722758844087
 20
5.349
 30
0.0
 11
14.23222758844087
 21
5.333
 31
0.0
  0
LINE
  5
421
330
18
100
AcDbEntity
  8
Object
100
AcDbLine
 10
14.23222758844087
 20
5.333
 30
0.0
 11
14.24322758844087
 21
5.322
 31
0.0
  0
LINE
  5
422
330
18
100
AcDbEntity
  8
Object
100
AcDbLine
 10
13.72422758844087
 20
6.652
 30
0.0
 11
13.73522758844087
 21
6.641
 31
0.0
  0
LINE
  5
423
330
18
100
AcDbEntity
  8
Object
100
AcDbLine
 10
13.73522758844087
 20
5.333
 30
0.0
 11
13.72322758844087
 21
5.322
 31
0.0
  0
LINE
  5
424
330
18
100
AcDbEntity
  8
Object
100
AcDbLine
 10
13.72322758844087
 20
5.322
 30
0.0
 11
13.70722758844087
 21
5.317
 31
0.0
  0
LINE
  5
425
330
18
100
AcDbEntity
  8
Object
100
AcDbLine
 10
14.25922758844087
 20
5.317
 30
0.0
 11
14.24322758844087
 21
5.322
 31
0.0
  0
LINE
  5
426
330
18
100
AcDbEntity
  8
Object
100
AcDbLine
 10
14.28522758844087
 20
6.806
 30
0.0
 11
14.28322758844087
 21
6.817
 31
0.0
  0
LINE
  5
427
330
18
100
AcDbEntity
  8
Object
100
AcDbLine
 10
13.68322758844087
 20
6.831999999999999
 30
0.0
 11
13.68322758844087
 21
6.817
 31
0.0
  0
LINE
  5
428
330
18
100
AcDbEntity
  8
Object
100
AcDbLine
 10
14.28322758844087
 20
6.817
 30
0.0
 11
14.28322758844087
 21
6.831999999999999
 31
0.0
  0
LINE
  5
429
330
18
100
AcDbEntity
  8
Object
100
AcDbLine
 10
13.68322758844087
 20
6.817
 30
0.0
 11
13.68122758844087
 21
6.806
 31
0.0
  0
LINE
  5
42A
330
18
100
AcDbEntity
  8
Object
100
AcDbLine
 10
14.29022758844087
 20
6.796999999999999
 30
0.0
 11
14.28522758844087
 21
6.806
 31
0.0
  0
LINE
  5
42B
330
18
100
AcDbEntity
  8
Object
100
AcDbLine
 10
13.68122758844087
 20
6.806
 30
0.0
 11
13.67622758844087
 21
6.796999999999999
 31
0.0
  0
LINE
  5
42C
330
18
100
AcDbEntity
  8
Object
100
AcDbLine
 10
13.67622758844087
 20
6.796999999999999
 30
0.0
 11
13.66822758844087
 21
6.791
 31
0.0
  0
LINE
  5
42D
330
18
100
AcDbEntity
  8
Object
100
AcDbLine
 10
14.29822758844087
 20
6.791
 30
0.0
 11
14.29022758844087
 21
6.796999999999999
 31
0.0
  0
LINE
  5
42E
330
18
100
AcDbEntity
  8
Object
100
AcDbLine
 10
13.66822758844087
 20
6.791
 30
0.0
 11
13.64322758844087
 21
6.775999999999999
 31
0.0
  0
LINE
  5
42F
330
18
100
AcDbEntity
  8
Object
100
AcDbLine
 10
13.70922758844087
 20
6.656
 30
0.0
 11
13.67422758844087
 21
6.656
 31
0.0
  0
LINE
  5
430
330
18
100
AcDbEntity
  8
Object
100
AcDbLine
 10
13.67422758844087
 20
6.656
 30
0.0
 11
13.65022758844087
 21
6.661
 31
0.0
  0
LINE
  5
431
330
18
100
AcDbEntity
  8
Object
100
AcDbLine
 10
13.65022758844087
 20
6.661
 30
0.0
 11
13.63022758844087
 21
6.674999999999999
 31
0.0
  0
LINE
  5
432
330
18
100
AcDbEntity
  8
Object
100
AcDbLine
 10
13.64322758844087
 20
6.775999999999999
 30
0.0
 11
13.62722758844087
 21
6.762
 31
0.0
  0
LINE
  5
433
330
18
100
AcDbEntity
  8
Object
100
AcDbLine
 10
13.61722758844087
 20
6.695
 30
0.0
 11
13.63022758844087
 21
6.674999999999999
 31
0.0
  0
LINE
  5
434
330
18
100
AcDbEntity
  8
Object
100
AcDbLine
 10
13.62722758844087
 20
6.762
 30
0.0
 11
13.61622758844087
 21
6.743999999999999
 31
0.0
  0
LINE
  5
435
330
18
100
AcDbEntity
  8
Object
100
AcDbLine
 10
13.70922758844087
 20
6.656
 30
0.0
 11
13.72422758844087
 21
6.652
 31
0.0
  0
LINE
  5
436
330
18
100
AcDbEntity
  8
Object
100
AcDbLine
 10
13.61722758844087
 20
6.695
 30
0.0
 11
13.61222758844087
 21
6.717999999999999
 31
0.0
  0
LINE
  5
437
330
18
100
AcDbEntity
  8
Object
100
AcDbLine
 10
13.61222758844087
 20
6.717999999999999
 30
0.0
 11
13.61222758844087
 21
6.722999999999999
 31
0.0
  0
LINE
  5
438
330
18
100
AcDbEntity
  8
Object
100
AcDbLine
 10
13.61222758844087
 20
6.722999999999999
 30
0.0
 11
13.61622758844087
 21
6.743999999999999
 31
0.0
  0
LINE
  5
439
330
18
100
AcDbEntity
  8
Object
100
AcDbLine
 10
13.53622758844087
 20
6.674999999999999
 30
0.0
 11
13.51622758844087
 21
6.661
 31
0.0
  0
LINE
  5
43A
330
18
100
AcDbEntity
  8
Object
100
AcDbLine
 10
13.51622758844087
 20
6.661
 30
0.0
 11
13.49222758844087
 21
6.656
 31
0.0
  0
LINE
  5
43B
330
18
100
AcDbEntity
  8
Object
100
AcDbLine
 10
13.55022758844087
 20
6.743999999999999
 30
0.0
 11
13.55422758844087
 21
6.722999999999999
 31
0.0
  0
LINE
  5
43C
330
18
100
AcDbEntity
  8
Object
100
AcDbLine
 10
13.55422758844087
 20
6.722999999999999
 30
0.0
 11
13.55422758844087
 21
6.717999999999999
 31
0.0
  0
LINE
  5
43D
330
18
100
AcDbEntity
  8
Object
100
AcDbLine
 10
13.55422758844087
 20
6.717999999999999
 30
0.0
 11
13.54922758844087
 21
6.695
 31
0.0
  0
LINE
  5
43E
330
18
100
AcDbEntity
  8
Object
100
AcDbLine
 10
13.54922758844087
 20
6.695
 30
0.0
 11
13.53622758844087
 21
6.674999999999999
 31
0.0
  0
LINE
  5
43F
330
18
100
AcDbEntity
  8
Object
100
AcDbLine
 10
13.45722758844087
 20
6.656
 30
0.0
 11
13.49222758844087
 21
6.656
 31
0.0
  0
LINE
  5
440
330
18
100
AcDbEntity
  8
Object
100
AcDbLine
 10
13.49822758844087
 20
6.791
 30
0.0
 11
13.52322758844087
 21
6.775999999999999
 31
0.0
  0
LINE
  5
441
330
18
100
AcDbEntity
  8
Object
100
AcDbLine
 10
13.52322758844087
 20
6.775999999999999
 30
0.0
 11
13.54022758844087
 21
6.762
 31
0.0
  0
LINE
  5
442
330
18
100
AcDbEntity
  8
Object
100
AcDbLine
 10
13.54022758844087
 20
6.762
 30
0.0
 11
13.55022758844087
 21
6.743999999999999
 31
0.0
  0
LINE
  5
443
330
18
100
AcDbEntity
  8
Object
100
AcDbLine
 10
13.44222758844087
 20
6.652
 30
0.0
 11
13.45722758844087
 21
6.656
 31
0.0
  0
LINE
  5
444
330
18
100
AcDbEntity
  8
Object
100
AcDbLine
 10
13.42722758844087
 20
5.349
 30
0.0
 11
13.42722758844087
 21
6.626
 31
0.0
  0
LINE
  5
445
330
18
100
AcDbEntity
  8
Object
100
AcDbLine
 10
12.93922758844087
 20
5.349
 30
0.0
 11
12.93922758844087
 21
6.626
 31
0.0
  0
LINE
  5
446
330
18
100
AcDbEntity
  8
Object
100
AcDbLine
 10
12.93922758844087
 20
6.626
 30
0.0
 11
12.93522758844087
 21
6.641
 31
0.0
  0
LINE
  5
447
330
18
100
AcDbEntity
  8
Object
100
AcDbLine
 10
13.42722758844087
 20
6.626
 30
0.0
 11
13.43122758844087
 21
6.641
 31
0.0
  0
LINE
  5
448
330
18
100
AcDbEntity
  8
Object
100
AcDbLine
 10
12.93922758844087
 20
5.349
 30
0.0
 11
12.93522758844087
 21
5.333
 31
0.0
  0
LINE
  5
449
330
18
100
AcDbEntity
  8
Object
100
AcDbLine
 10
13.43122758844087
 20
5.333
 30
0.0
 11
13.42722758844087
 21
5.349
 31
0.0
  0
LINE
  5
44A
330
18
100
AcDbEntity
  8
Object
100
AcDbLine
 10
13.43122758844087
 20
6.641
 30
0.0
 11
13.44222758844087
 21
6.652
 31
0.0
  0
LINE
  5
44B
330
18
100
AcDbEntity
  8
Object
100
AcDbLine
 10
12.92422758844087
 20
6.652
 30
0.0
 11
12.93522758844087
 21
6.641
 31
0.0
  0
LINE
  5
44C
330
18
100
AcDbEntity
  8
Object
100
AcDbLine
 10
13.44322758844087
 20
5.322
 30
0.0
 11
13.43122758844087
 21
5.333
 31
0.0
  0
LINE
  5
44D
330
18
100
AcDbEntity
  8
Object
100
AcDbLine
 10
12.93522758844087
 20
5.333
 30
0.0
 11
12.92322758844087
 21
5.322
 31
0.0
  0
LINE
  5
44E
330
18
100
AcDbEntity
  8
Object
100
AcDbLine
 10
12.92322758844087
 20
5.322
 30
0.0
 11
12.90722758844087
 21
5.317
 31
0.0
  0
LINE
  5
44F
330
18
100
AcDbEntity
  8
Object
100
AcDbLine
 10
13.45922758844087
 20
5.317
 30
0.0
 11
13.44322758844087
 21
5.322
 31
0.0
  0
LINE
  5
450
330
18
100
AcDbEntity
  8
Object
100
AcDbLine
 10
13.48522758844087
 20
6.806
 30
0.0
 11
13.48322758844087
 21
6.817
 31
0.0
  0
LINE
  5
451
330
18
100
AcDbEntity
  8
Object
100
AcDbLine
 10
12.88322758844087
 20
6.831999999999999
 30
0.0
 11
12.88322758844087
 21
6.817
 31
0.0
  0
LINE
  5
452
330
18
100
AcDbEntity
  8
Object
100
AcDbLine
 10
13.48322758844087
 20
6.817
 30
0.0
 11
13.48322758844087
 21
6.831999999999999
 31
0.0
  0
LINE
  5
453
330
18
100
AcDbEntity
  8
Object
100
AcDbLine
 10
12.88322758844087
 20
6.817
 30
0.0
 11
12.88122758844087
 21
6.806
 31
0.0
  0
LINE
  5
454
330
18
100
AcDbEntity
  8
Object
100
AcDbLine
 10
13.49022758844087
 20
6.796999999999999
 30
0.0
 11
13.48522758844087
 21
6.806
 31
0.0
  0
LINE
  5
455
330
18
100
AcDbEntity
  8
Object
100
AcDbLine
 10
12.88122758844087
 20
6.806
 30
0.0
 11
12.87622758844087
 21
6.796999999999999
 31
0.0
  0
LINE
  5
456
330
18
100
AcDbEntity
  8
Object
100
AcDbLine
 10
12.87622758844087
 20
6.796999999999999
 30
0.0
 11
12.86822758844087
 21
6.791
 31
0.0
  0
LINE
  5
457
330
18
100
AcDbEntity
  8
Object
100
AcDbLine
 10
13.49822758844087
 20
6.791
 30
0.0
 11
13.49022758844087
 21
6.796999999999999
 31
0.0
  0
LINE
  5
458
330
18
100
AcDbEntity
  8
Object
100
AcDbLine
 10
12.86822758844087
 20
6.791
 30
0.0
 11
12.84322758844087
 21
6.775999999999999
 31
0.0
  0
LINE
  5
459
330
18
100
AcDbEntity
  8
Object
100
AcDbLine
 10
12.90922758844087
 20
6.656
 30
0.0
 11
12.87422758844087
 21
6.656
 31
0.0
  0
LINE
  5
45A
330
18
100
AcDbEntity
  8
Object
100
AcDbLine
 10
12.87422758844087
 20
6.656
 30
0.0
 11
12.85022758844087
 21
6.661
 31
0.0
  0
LINE
  5
45B
330
18
100
AcDbEntity
  8
Object
100
AcDbLine
 10
12.85022758844087
 20
6.661
 30
0.0
 11
12.83022758844087
 21
6.674999999999999
 31
0.0
  0
LINE
  5
45C
330
18
100
AcDbEntity
  8
Object
100
AcDbLine
 10
12.84322758844087
 20
6.775999999999999
 30
0.0
 11
12.82722758844087
 21
6.762
 31
0.0
  0
LINE
  5
45D
330
18
100
AcDbEntity
  8
Object
100
AcDbLine
 10
12.81722758844087
 20
6.695
 30
0.0
 11
12.83022758844087
 21
6.674999999999999
 31
0.0
  0
LINE
  5
45E
330
18
100
AcDbEntity
  8
Object
100
AcDbLine
 10
12.82722758844087
 20
6.762
 30
0.0
 11
12.81622758844087
 21
6.743999999999999
 31
0.0
  0
LINE
  5
45F
330
18
100
AcDbEntity
  8
Object
100
AcDbLine
 10
12.90922758844087
 20
6.656
 30
0.0
 11
12.92422758844087
 21
6.652
 31
0.0
  0
LINE
  5
460
330
18
100
AcDbEntity
  8
Object
100
AcDbLine
 10
12.81722758844087
 20
6.695
 30
0.0
 11
12.81222758844087
 21
6.717999999999999
 31
0.0
  0
LINE
  5
461
330
18
100
AcDbEntity
  8
Object
100
AcDbLine
 10
12.81222758844087
 20
6.717999999999999
 30
0.0
 11
12.81222758844087
 21
6.722999999999999
 31
0.0
  0
LINE
  5
462
330
18
100
AcDbEntity
  8
Object
100
AcDbLine
 10
12.81222758844087
 20
6.722999999999999
 30
0.0
 11
12.81622758844087
 21
6.743999999999999
 31
0.0
  0
LINE
  5
463
330
18
100
AcDbEntity
  8
Object
100
AcDbLine
 10
12.73622758844087
 20
6.674999999999999
 30
0.0
 11
12.71622758844087
 21
6.661
 31
0.0
  0
LINE
  5
464
330
18
100
AcDbEntity
  8
Object
100
AcDbLine
 10
12.71622758844087
 20
6.661
 30
0.0
 11
12.69222758844087
 21
6.656
 31
0.0
  0
LINE
  5
465
330
18
100
AcDbEntity
  8
Object
100
AcDbLine
 10
12.75022758844087
 20
6.743999999999999
 30
0.0
 11
12.75422758844087
 21
6.722999999999999
 31
0.0
  0
LINE
  5
466
330
18
100
AcDbEntity
  8
Object
100
AcDbLine
 10
12.75422758844087
 20
6.722999999999999
 30
0.0
 11
12.75422758844087
 21
6.717999999999999
 31
0.0
  0
LINE
  5
467
330
18
100
AcDbEntity
  8
Object
100
AcDbLine
 10
12.75422758844087
 20
6.717999999999999
 30
0.0
 11
12.74922758844087
 21
6.695
 31
0.0
  0
LINE
  5
468
330
18
100
AcDbEntity
  8
Object
100
AcDbLine
 10
12.74922758844087
 20
6.695
 30
0.0
 11
12.73622758844087
 21
6.674999999999999
 31
0.0
  0
LINE
  5
469
330
18
100
AcDbEntity
  8
Object
100
AcDbLine
 10
12.65722758844087
 20
6.656
 30
0.0
 11
12.69222758844087
 21
6.656
 31
0.0
  0
LINE
  5
46A
330
18
100
AcDbEntity
  8
Object
100
AcDbLine
 10
12.69822758844087
 20
6.791
 30
0.0
 11
12.72322758844087
 21
6.775999999999999
 31
0.0
  0
LINE
  5
46B
330
18
100
AcDbEntity
  8
Object
100
AcDbLine
 10
12.72322758844087
 20
6.775999999999999
 30
0.0
 11
12.74022758844087
 21
6.762
 31
0.0
  0
LINE
  5
46C
330
18
100
AcDbEntity
  8
Object
100
AcDbLine
 10
12.74022758844087
 20
6.762
 30
0.0
 11
12.75022758844087
 21
6.743999999999999
 31
0.0
  0
LINE
  5
46D
330
18
100
AcDbEntity
  8
Object
100
AcDbLine
 10
12.64222758844087
 20
6.652
 30
0.0
 11
12.65722758844087
 21
6.656
 31
0.0
  0
LINE
  5
46E
330
18
100
AcDbEntity
  8
Object
100
AcDbLine
 10
12.63122758844087
 20
6.641
 30
0.0
 11
12.62722758844087
 21
6.626
 31
0.0
  0
LINE
  5
46F
330
18
100
AcDbEntity
  8
Object
100
AcDbLine
 10
12.62722758844087
 20
6.626
 30
0.0
 11
12.62722758844087
 21
5.349
 31
0.0
  0
LINE
  5
470
330
18
100
AcDbEntity
  8
Object
100
AcDbLine
 10
12.13922758844087
 20
5.349
 30
0.0
 11
12.13922758844087
 21
6.626
 31
0.0
  0
LINE
  5
471
330
18
100
AcDbEntity
  8
Object
100
AcDbLine
 10
12.13922758844087
 20
6.626
 30
0.0
 11
12.13522758844087
 21
6.641
 31
0.0
  0
LINE
  5
472
330
18
100
AcDbEntity
  8
Object
100
AcDbLine
 10
12.13922758844087
 20
5.349
 30
0.0
 11
12.13522758844087
 21
5.333
 31
0.0
  0
LINE
  5
473
330
18
100
AcDbEntity
  8
Object
100
AcDbLine
 10
12.62722758844087
 20
5.349
 30
0.0
 11
12.63122758844087
 21
5.333
 31
0.0
  0
LINE
  5
474
330
18
100
AcDbEntity
  8
Object
100
AcDbLine
 10
12.63122758844087
 20
5.333
 30
0.0
 11
12.64322758844087
 21
5.322
 31
0.0
  0
LINE
  5
475
330
18
100
AcDbEntity
  8
Object
100
AcDbLine
 10
12.12422758844087
 20
6.652
 30
0.0
 11
12.13522758844087
 21
6.641
 31
0.0
  0
LINE
  5
476
330
18
100
AcDbEntity
  8
Object
100
AcDbLine
 10
12.63122758844087
 20
6.641
 30
0.0
 11
12.64222758844087
 21
6.652
 31
0.0
  0
LINE
  5
477
330
18
100
AcDbEntity
  8
Object
100
AcDbLine
 10
12.13522758844087
 20
5.333
 30
0.0
 11
12.12322758844087
 21
5.322
 31
0.0
  0
LINE
  5
478
330
18
100
AcDbEntity
  8
Object
100
AcDbLine
 10
12.12322758844087
 20
5.322
 30
0.0
 11
12.10722758844087
 21
5.317
 31
0.0
  0
LINE
  5
479
330
18
100
AcDbEntity
  8
Object
100
AcDbLine
 10
12.65922758844087
 20
5.317
 30
0.0
 11
12.64322758844087
 21
5.322
 31
0.0
  0
LINE
  5
47A
330
18
100
AcDbEntity
  8
Object
100
AcDbLine
 10
12.68522758844087
 20
6.806
 30
0.0
 11
12.68322758844087
 21
6.817
 31
0.0
  0
LINE
  5
47B
330
18
100
AcDbEntity
  8
Object
100
AcDbLine
 10
12.08322758844087
 20
6.831999999999999
 30
0.0
 11
12.08322758844087
 21
6.817
 31
0.0
  0
LINE
  5
47C
330
18
100
AcDbEntity
  8
Object
100
AcDbLine
 10
12.68322758844087
 20
6.817
 30
0.0
 11
12.68322758844087
 21
6.831999999999999
 31
0.0
  0
LINE
  5
47D
330
18
100
AcDbEntity
  8
Object
100
AcDbLine
 10
12.08322758844087
 20
6.817
 30
0.0
 11
12.08122758844087
 21
6.806
 31
0.0
  0
LINE
  5
47E
330
18
100
AcDbEntity
  8
Object
100
AcDbLine
 10
12.69022758844087
 20
6.796999999999999
 30
0.0
 11
12.68522758844087
 21
6.806
 31
0.0
  0
LINE
  5
47F
330
18
100
AcDbEntity
  8
Object
100
AcDbLine
 10
12.08122758844087
 20
6.806
 30
0.0
 11
12.07622758844087
 21
6.796999999999999
 31
0.0
  0
LINE
  5
480
330
18
100
AcDbEntity
  8
Object
100
AcDbLine
 10
12.69822758844087
 20
6.791
 30
0.0
 11
12.69022758844087
 21
6.796999999999999
 31
0.0
  0
LINE
  5
481
330
18
100
AcDbEntity
  8
Object
100
AcDbLine
 10
12.07622758844087
 20
6.796999999999999
 30
0.0
 11
12.06822758844087
 21
6.791
 31
0.0
  0
LINE
  5
482
330
18
100
AcDbEntity
  8
Object
100
AcDbLine
 10
12.06822758844087
 20
6.791
 30
0.0
 11
12.04322758844087
 21
6.775999999999999
 31
0.0
  0
LINE
  5
483
330
18
100
AcDbEntity
  8
Object
100
AcDbLine
 10
12.10922758844087
 20
6.656
 30
0.0
 11
12.07422758844087
 21
6.656
 31
0.0
  0
LINE
  5
484
330
18
100
AcDbEntity
  8
Object
100
AcDbLine
 10
12.07422758844087
 20
6.656
 30
0.0
 11
12.05022758844087
 21
6.661
 31
0.0
  0
LINE
  5
485
330
18
100
AcDbEntity
  8
Object
100
AcDbLine
 10
12.05022758844087
 20
6.661
 30
0.0
 11
12.03022758844087
 21
6.674999999999999
 31
0.0
  0
LINE
  5
486
330
18
100
AcDbEntity
  8
Object
100
AcDbLine
 10
12.04322758844087
 20
6.775999999999999
 30
0.0
 11
12.02722758844087
 21
6.762
 31
0.0
  0
LINE
  5
487
330
18
100
AcDbEntity
  8
Object
100
AcDbLine
 10
12.01722758844087
 20
6.695
 30
0.0
 11
12.03022758844087
 21
6.674999999999999
 31
0.0
  0
LINE
  5
488
330
18
100
AcDbEntity
  8
Object
100
AcDbLine
 10
12.10922758844087
 20
6.656
 30
0.0
 11
12.12422758844087
 21
6.652
 31
0.0
  0
LINE
  5
489
330
18
100
AcDbEntity
  8
Object
100
AcDbLine
 10
12.02722758844087
 20
6.762
 30
0.0
 11
12.01622758844087
 21
6.743999999999999
 31
0.0
  0
LINE
  5
48A
330
18
100
AcDbEntity
  8
Object
100
AcDbLine
 10
12.01722758844087
 20
6.695
 30
0.0
 11
12.01222758844087
 21
6.717999999999999
 31
0.0
  0
LINE
  5
48B
330
18
100
AcDbEntity
  8
Object
100
AcDbLine
 10
12.01222758844087
 20
6.717999999999999
 30
0.0
 11
12.01222758844087
 21
6.722999999999999
 31
0.0
  0
LINE
  5
48C
330
18
100
AcDbEntity
  8
Object
100
AcDbLine
 10
12.01222758844087
 20
6.722999999999999
 30
0.0
 11
12.01622758844087
 21
6.743999999999999
 31
0.0
  0
LINE
  5
48D
330
18
100
AcDbEntity
  8
Object
100
AcDbLine
 10
11.93622758844087
 20
6.674999999999999
 30
0.0
 11
11.91622758844087
 21
6.661
 31
0.0
  0
LINE
  5
48E
330
18
100
AcDbEntity
  8
Object
100
AcDbLine
 10
11.91622758844087
 20
6.661
 30
0.0
 11
11.89222758844087
 21
6.656
 31
0.0
  0
LINE
  5
48F
330
18
100
AcDbEntity
  8
Object
100
AcDbLine
 10
11.95022758844087
 20
6.743999999999999
 30
0.0
 11
11.95422758844087
 21
6.722999999999999
 31
0.0
  0
LINE
  5
490
330
18
100
AcDbEntity
  8
Object
100
AcDbLine
 10
11.95422758844087
 20
6.722999999999999
 30
0.0
 11
11.95422758844087
 21
6.717999999999999
 31
0.0
  0
LINE
  5
491
330
18
100
AcDbEntity
  8
Object
100
AcDbLine
 10
11.95422758844087
 20
6.717999999999999
 30
0.0
 11
11.94922758844087
 21
6.695
 31
0.0
  0
LINE
  5
492
330
18
100
AcDbEntity
  8
Object
100
AcDbLine
 10
11.94922758844087
 20
6.695
 30
0.0
 11
11.93622758844087
 21
6.674999999999999
 31
0.0
  0
LINE
  5
493
330
18
100
AcDbEntity
  8
Object
100
AcDbLine
 10
11.85722758844087
 20
6.656
 30
0.0
 11
11.89222758844087
 21
6.656
 31
0.0
  0
LINE
  5
494
330
18
100
AcDbEntity
  8
Object
100
AcDbLine
 10
11.89822758844087
 20
6.791
 30
0.0
 11
11.92322758844087
 21
6.775999999999999
 31
0.0
  0
LINE
  5
495
330
18
100
AcDbEntity
  8
Object
100
AcDbLine
 10
11.92322758844087
 20
6.775999999999999
 30
0.0
 11
11.94022758844087
 21
6.762
 31
0.0
  0
LINE
  5
496
330
18
100
AcDbEntity
  8
Object
100
AcDbLine
 10
11.94022758844087
 20
6.762
 30
0.0
 11
11.95022758844087
 21
6.743999999999999
 31
0.0
  0
LINE
  5
497
330
18
100
AcDbEntity
  8
Object
100
AcDbLine
 10
11.84222758844087
 20
6.652
 30
0.0
 11
11.85722758844087
 21
6.656
 31
0.0
  0
LINE
  5
498
330
18
100
AcDbEntity
  8
Object
100
AcDbLine
 10
11.82722758844087
 20
6.626
 30
0.0
 11
11.83122758844087
 21
6.641
 31
0.0
  0
LINE
  5
499
330
18
100
AcDbEntity
  8
Object
100
AcDbLine
 10
11.33922758844087
 20
6.626
 30
0.0
 11
11.33922758844087
 21
5.349
 31
0.0
  0
LINE
  5
49A
330
18
100
AcDbEntity
  8
Object
100
AcDbLine
 10
11.82722758844087
 20
5.349
 30
0.0
 11
11.82722758844087
 21
6.626
 31
0.0
  0
LINE
  5
49B
330
18
100
AcDbEntity
  8
Object
100
AcDbLine
 10
11.33522758844087
 20
6.641
 30
0.0
 11
11.33922758844087
 21
6.626
 31
0.0
  0
LINE
  5
49C
330
18
100
AcDbEntity
  8
Object
100
AcDbLine
 10
11.83122758844087
 20
5.333
 30
0.0
 11
11.82722758844087
 21
5.349
 31
0.0
  0
LINE
  5
49D
330
18
100
AcDbEntity
  8
Object
100
AcDbLine
 10
11.33922758844087
 20
5.349
 30
0.0
 11
11.33522758844087
 21
5.333
 31
0.0
  0
LINE
  5
49E
330
18
100
AcDbEntity
  8
Object
100
AcDbLine
 10
11.32422758844087
 20
6.652
 30
0.0
 11
11.33522758844087
 21
6.641
 31
0.0
  0
LINE
  5
49F
330
18
100
AcDbEntity
  8
Object
100
AcDbLine
 10
11.83122758844087
 20
6.641
 30
0.0
 11
11.84222758844087
 21
6.652
 31
0.0
  0
LINE
  5
4A0
330
18
100
AcDbEntity
  8
Object
100
AcDbLine
 10
11.33522758844087
 20
5.333
 30
0.0
 11
11.32322758844087
 21
5.322
 31
0.0
  0
LINE
  5
4A1
330
18
100
AcDbEntity
  8
Object
100
AcDbLine
 10
11.83122758844087
 20
5.333
 30
0.0
 11
11.84322758844087
 21
5.322
 31
0.0
  0
LINE
  5
4A2
330
18
100
AcDbEntity
  8
Object
100
AcDbLine
 10
11.84322758844087
 20
5.322
 30
0.0
 11
11.85922758844087
 21
5.317
 31
0.0
  0
LINE
  5
4A3
330
18
100
AcDbEntity
  8
Object
100
AcDbLine
 10
11.32322758844087
 20
5.322
 30
0.0
 11
11.30722758844087
 21
5.317
 31
0.0
  0
LINE
  5
4A4
330
18
100
AcDbEntity
  8
Object
100
AcDbLine
 10
11.28322758844087
 20
6.831999999999999
 30
0.0
 11
11.28322758844087
 21
6.817
 31
0.0
  0
LINE
  5
4A5
330
18
100
AcDbEntity
  8
Object
100
AcDbLine
 10
11.88322758844087
 20
6.831999999999999
 30
0.0
 11
11.88322758844087
 21
6.817
 31
0.0
  0
LINE
  5
4A6
330
18
100
AcDbEntity
  8
Object
100
AcDbLine
 10
11.88322758844087
 20
6.817
 30
0.0
 11
11.88522758844087
 21
6.806
 31
0.0
  0
LINE
  5
4A7
330
18
100
AcDbEntity
  8
Object
100
AcDbLine
 10
11.28322758844087
 20
6.817
 30
0.0
 11
11.28122758844087
 21
6.806
 31
0.0
  0
LINE
  5
4A8
330
18
100
AcDbEntity
  8
Object
100
AcDbLine
 10
11.89022758844087
 20
6.796999999999999
 30
0.0
 11
11.88522758844087
 21
6.806
 31
0.0
  0
LINE
  5
4A9
330
18
100
AcDbEntity
  8
Object
100
AcDbLine
 10
11.28122758844087
 20
6.806
 30
0.0
 11
11.27622758844087
 21
6.796999999999999
 31
0.0
  0
LINE
  5
4AA
330
18
100
AcDbEntity
  8
Object
100
AcDbLine
 10
11.89822758844087
 20
6.791
 30
0.0
 11
11.89022758844087
 21
6.796999999999999
 31
0.0
  0
LINE
  5
4AB
330
18
100
AcDbEntity
  8
Object
100
AcDbLine
 10
11.27622758844087
 20
6.796999999999999
 30
0.0
 11
11.26822758844087
 21
6.791
 31
0.0
  0
LINE
  5
4AC
330
18
100
AcDbEntity
  8
Object
100
AcDbLine
 10
11.26822758844087
 20
6.791
 30
0.0
 11
11.24322758844087
 21
6.775999999999999
 31
0.0
  0
LINE
  5
4AD
330
18
100
AcDbEntity
  8
Object
100
AcDbLine
 10
11.30922758844087
 20
6.656
 30
0.0
 11
11.27422758844087
 21
6.656
 31
0.0
  0
LINE
  5
4AE
330
18
100
AcDbEntity
  8
Object
100
AcDbLine
 10
11.27422758844087
 20
6.656
 30
0.0
 11
11.25022758844087
 21
6.661
 31
0.0
  0
LINE
  5
4AF
330
18
100
AcDbEntity
  8
Object
100
AcDbLine
 10
11.25022758844087
 20
6.661
 30
0.0
 11
11.23022758844087
 21
6.674999999999999
 31
0.0
  0
LINE
  5
4B0
330
18
100
AcDbEntity
  8
Object
100
AcDbLine
 10
11.24322758844087
 20
6.775999999999999
 30
0.0
 11
11.22622758844087
 21
6.762
 31
0.0
  0
LINE
  5
4B1
330
18
100
AcDbEntity
  8
Object
100
AcDbLine
 10
11.21722758844087
 20
6.695
 30
0.0
 11
11.23022758844087
 21
6.674999999999999
 31
0.0
  0
LINE
  5
4B2
330
18
100
AcDbEntity
  8
Object
100
AcDbLine
 10
11.22622758844087
 20
6.762
 30
0.0
 11
11.21622758844087
 21
6.743999999999999
 31
0.0
  0
LINE
  5
4B3
330
18
100
AcDbEntity
  8
Object
100
AcDbLine
 10
11.30922758844087
 20
6.656
 30
0.0
 11
11.32422758844087
 21
6.652
 31
0.0
  0
LINE
  5
4B4
330
18
100
AcDbEntity
  8
Object
100
AcDbLine
 10
11.21722758844087
 20
6.695
 30
0.0
 11
11.21222758844087
 21
6.717999999999999
 31
0.0
  0
LINE
  5
4B5
330
18
100
AcDbEntity
  8
Object
100
AcDbLine
 10
11.21222758844087
 20
6.717999999999999
 30
0.0
 11
11.21222758844087
 21
6.722999999999999
 31
0.0
  0
LINE
  5
4B6
330
18
100
AcDbEntity
  8
Object
100
AcDbLine
 10
11.21222758844087
 20
6.722999999999999
 30
0.0
 11
11.21622758844087
 21
6.743999999999999
 31
0.0
  0
LINE
  5
4B7
330
18
100
AcDbEntity
  8
Object
100
AcDbLine
 10
11.13622758844087
 20
6.674999999999999
 30
0.0
 11
11.11622758844087
 21
6.661
 31
0.0
  0
LINE
  5
4B8
330
18
100
AcDbEntity
  8
Object
100
AcDbLine
 10
11.11622758844087
 20
6.661
 30
0.0
 11
11.09222758844087
 21
6.656
 31
0.0
  0
LINE
  5
4B9
330
18
100
AcDbEntity
  8
Object
100
AcDbLine
 10
11.15022758844087
 20
6.743999999999999
 30
0.0
 11
11.15422758844087
 21
6.722999999999999
 31
0.0
  0
LINE
  5
4BA
330
18
100
AcDbEntity
  8
Object
100
AcDbLine
 10
11.15422758844087
 20
6.722999999999999
 30
0.0
 11
11.15422758844087
 21
6.717999999999999
 31
0.0
  0
LINE
  5
4BB
330
18
100
AcDbEntity
  8
Object
100
AcDbLine
 10
11.15422758844087
 20
6.717999999999999
 30
0.0
 11
11.14922758844087
 21
6.695
 31
0.0
  0
LINE
  5
4BC
330
18
100
AcDbEntity
  8
Object
100
AcDbLine
 10
11.14922758844087
 20
6.695
 30
0.0
 11
11.13622758844087
 21
6.674999999999999
 31
0.0
  0
LINE
  5
4BD
330
18
100
AcDbEntity
  8
Object
100
AcDbLine
 10
11.05722758844087
 20
6.656
 30
0.0
 11
11.09222758844087
 21
6.656
 31
0.0
  0
LINE
  5
4BE
330
18
100
AcDbEntity
  8
Object
100
AcDbLine
 10
11.09822758844087
 20
6.791
 30
0.0
 11
11.12322758844087
 21
6.775999999999999
 31
0.0
  0
LINE
  5
4BF
330
18
100
AcDbEntity
  8
Object
100
AcDbLine
 10
11.12322758844087
 20
6.775999999999999
 30
0.0
 11
11.13922758844087
 21
6.762
 31
0.0
  0
LINE
  5
4C0
330
18
100
AcDbEntity
  8
Object
100
AcDbLine
 10
11.13922758844087
 20
6.762
 30
0.0
 11
11.15022758844087
 21
6.743999999999999
 31
0.0
  0
LINE
  5
4C1
330
18
100
AcDbEntity
  8
Object
100
AcDbLine
 10
11.04222758844087
 20
6.652
 30
0.0
 11
11.05722758844087
 21
6.656
 31
0.0
  0
LINE
  5
4C2
330
18
100
AcDbEntity
  8
Object
100
AcDbLine
 10
11.03122758844087
 20
6.641
 30
0.0
 11
11.02722758844087
 21
6.626
 31
0.0
  0
LINE
  5
4C3
330
18
100
AcDbEntity
  8
Object
100
AcDbLine
 10
11.02722758844087
 20
6.626
 30
0.0
 11
11.02722758844087
 21
5.349
 31
0.0
  0
LINE
  5
4C4
330
18
100
AcDbEntity
  8
Object
100
AcDbLine
 10
10.53922758844087
 20
5.349
 30
0.0
 11
10.53922758844087
 21
6.626
 31
0.0
  0
LINE
  5
4C5
330
18
100
AcDbEntity
  8
Object
100
AcDbLine
 10
10.53922758844087
 20
6.626
 30
0.0
 11
10.53522758844087
 21
6.641
 31
0.0
  0
LINE
  5
4C6
330
18
100
AcDbEntity
  8
Object
100
AcDbLine
 10
10.53922758844087
 20
5.349
 30
0.0
 11
10.53522758844087
 21
5.333
 31
0.0
  0
LINE
  5
4C7
330
18
100
AcDbEntity
  8
Object
100
AcDbLine
 10
11.02722758844087
 20
5.349
 30
0.0
 11
11.03122758844087
 21
5.333
 31
0.0
  0
LINE
  5
4C8
330
18
100
AcDbEntity
  8
Object
100
AcDbLine
 10
11.03122758844087
 20
5.333
 30
0.0
 11
11.04322758844087
 21
5.322
 31
0.0
  0
LINE
  5
4C9
330
18
100
AcDbEntity
  8
Object
100
AcDbLine
 10
10.52422758844087
 20
6.652
 30
0.0
 11
10.53522758844087
 21
6.641
 31
0.0
  0
LINE
  5
4CA
330
18
100
AcDbEntity
  8
Object
100
AcDbLine
 10
11.03122758844087
 20
6.641
 30
0.0
 11
11.04222758844087
 21
6.652
 31
0.0
  0
LINE
  5
4CB
330
18
100
AcDbEntity
  8
Object
100
AcDbLine
 10
10.53522758844087
 20
5.333
 30
0.0
 11
10.52322758844087
 21
5.322
 31
0.0
  0
LINE
  5
4CC
330
18
100
AcDbEntity
  8
Object
100
AcDbLine
 10
10.52322758844087
 20
5.322
 30
0.0
 11
10.50722758844087
 21
5.317
 31
0.0
  0
LINE
  5
4CD
330
18
100
AcDbEntity
  8
Object
100
AcDbLine
 10
11.05922758844087
 20
5.317
 30
0.0
 11
11.04322758844087
 21
5.322
 31
0.0
  0
LINE
  5
4CE
330
18
100
AcDbEntity
  8
Object
100
AcDbLine
 10
10.48322758844087
 20
6.831999999999999
 30
0.0
 11
10.48322758844087
 21
6.817
 31
0.0
  0
LINE
  5
4CF
330
18
100
AcDbEntity
  8
Object
100
AcDbLine
 10
11.08322758844087
 20
6.817
 30
0.0
 11
11.08322758844087
 21
6.831999999999999
 31
0.0
  0
LINE
  5
4D0
330
18
100
AcDbEntity
  8
Object
100
AcDbLine
 10
10.48322758844087
 20
6.817
 30
0.0
 11
10.48122758844087
 21
6.806
 31
0.0
  0
LINE
  5
4D1
330
18
100
AcDbEntity
  8
Object
100
AcDbLine
 10
11.08322758844087
 20
6.817
 30
0.0
 11
11.08522758844087
 21
6.806
 31
0.0
  0
LINE
  5
4D2
330
18
100
AcDbEntity
  8
Object
100
AcDbLine
 10
11.08522758844087
 20
6.806
 30
0.0
 11
11.09022758844087
 21
6.796999999999999
 31
0.0
  0
LINE
  5
4D3
330
18
100
AcDbEntity
  8
Object
100
AcDbLine
 10
10.48122758844087
 20
6.806
 30
0.0
 11
10.47622758844087
 21
6.796999999999999
 31
0.0
  0
LINE
  5
4D4
330
18
100
AcDbEntity
  8
Object
100
AcDbLine
 10
10.47622758844087
 20
6.796999999999999
 30
0.0
 11
10.46822758844087
 21
6.791
 31
0.0
  0
LINE
  5
4D5
330
18
100
AcDbEntity
  8
Object
100
AcDbLine
 10
11.09822758844087
 20
6.791
 30
0.0
 11
11.09022758844087
 21
6.796999999999999
 31
0.0
  0
LINE
  5
4D6
330
18
100
AcDbEntity
  8
Object
100
AcDbLine
 10
10.46822758844087
 20
6.791
 30
0.0
 11
10.44322758844087
 21
6.775999999999999
 31
0.0
  0
LINE
  5
4D7
330
18
100
AcDbEntity
  8
Object
100
AcDbLine
 10
10.50922758844087
 20
6.656
 30
0.0
 11
10.47422758844087
 21
6.656
 31
0.0
  0
LINE
  5
4D8
330
18
100
AcDbEntity
  8
Object
100
AcDbLine
 10
10.47422758844087
 20
6.656
 30
0.0
 11
10.45022758844087
 21
6.661
 31
0.0
  0
LINE
  5
4D9
330
18
100
AcDbEntity
  8
Object
100
AcDbLine
 10
10.45022758844087
 20
6.661
 30
0.0
 11
10.43022758844087
 21
6.674999999999999
 31
0.0
  0
LINE
  5
4DA
330
18
100
AcDbEntity
  8
Object
100
AcDbLine
 10
10.44322758844087
 20
6.775999999999999
 30
0.0
 11
10.42622758844087
 21
6.762
 31
0.0
  0
LINE
  5
4DB
330
18
100
AcDbEntity
  8
Object
100
AcDbLine
 10
10.41722758844087
 20
6.695
 30
0.0
 11
10.43022758844087
 21
6.674999999999999
 31
0.0
  0
LINE
  5
4DC
330
18
100
AcDbEntity
  8
Object
100
AcDbLine
 10
10.42622758844087
 20
6.762
 30
0.0
 11
10.41622758844087
 21
6.743999999999999
 31
0.0
  0
LINE
  5
4DD
330
18
100
AcDbEntity
  8
Object
100
AcDbLine
 10
10.50922758844087
 20
6.656
 30
0.0
 11
10.52422758844087
 21
6.652
 31
0.0
  0
LINE
  5
4DE
330
18
100
AcDbEntity
  8
Object
100
AcDbLine
 10
10.41722758844087
 20
6.695
 30
0.0
 11
10.41222758844087
 21
6.717999999999999
 31
0.0
  0
LINE
  5
4DF
330
18
100
AcDbEntity
  8
Object
100
AcDbLine
 10
10.41222758844087
 20
6.717999999999999
 30
0.0
 11
10.41222758844087
 21
6.722999999999999
 31
0.0
  0
LINE
  5
4E0
330
18
100
AcDbEntity
  8
Object
100
AcDbLine
 10
10.41222758844087
 20
6.722999999999999
 30
0.0
 11
10.41622758844087
 21
6.743999999999999
 31
0.0
  0
LINE
  5
4E1
330
18
100
AcDbEntity
  8
Object
100
AcDbLine
 10
10.33622758844087
 20
6.674999999999999
 30
0.0
 11
10.31622758844087
 21
6.661
 31
0.0
  0
LINE
  5
4E2
330
18
100
AcDbEntity
  8
Object
100
AcDbLine
 10
10.31622758844087
 20
6.661
 30
0.0
 11
10.29222758844087
 21
6.656
 31
0.0
  0
LINE
  5
4E3
330
18
100
AcDbEntity
  8
Object
100
AcDbLine
 10
10.35022758844087
 20
6.743999999999999
 30
0.0
 11
10.35422758844087
 21
6.722999999999999
 31
0.0
  0
LINE
  5
4E4
330
18
100
AcDbEntity
  8
Object
100
AcDbLine
 10
10.35422758844087
 20
6.722999999999999
 30
0.0
 11
10.35422758844087
 21
6.717999999999999
 31
0.0
  0
LINE
  5
4E5
330
18
100
AcDbEntity
  8
Object
100
AcDbLine
 10
10.35422758844087
 20
6.717999999999999
 30
0.0
 11
10.34922758844087
 21
6.695
 31
0.0
  0
LINE
  5
4E6
330
18
100
AcDbEntity
  8
Object
100
AcDbLine
 10
10.34922758844087
 20
6.695
 30
0.0
 11
10.33622758844087
 21
6.674999999999999
 31
0.0
  0
LINE
  5
4E7
330
18
100
AcDbEntity
  8
Object
100
AcDbLine
 10
10.25722758844087
 20
6.656
 30
0.0
 11
10.29222758844087
 21
6.656
 31
0.0
  0
LINE
  5
4E8
330
18
100
AcDbEntity
  8
Object
100
AcDbLine
 10
10.29822758844087
 20
6.791
 30
0.0
 11
10.32322758844087
 21
6.775999999999999
 31
0.0
  0
LINE
  5
4E9
330
18
100
AcDbEntity
  8
Object
100
AcDbLine
 10
10.32322758844087
 20
6.775999999999999
 30
0.0
 11
10.33922758844087
 21
6.762
 31
0.0
  0
LINE
  5
4EA
330
18
100
AcDbEntity
  8
Object
100
AcDbLine
 10
10.33922758844087
 20
6.762
 30
0.0
 11
10.35022758844087
 21
6.743999999999999
 31
0.0
  0
LINE
  5
4EB
330
18
100
AcDbEntity
  8
Object
100
AcDbLine
 10
10.24222758844087
 20
6.652
 30
0.0
 11
10.25722758844087
 21
6.656
 31
0.0
  0
LINE
  5
4EC
330
18
100
AcDbEntity
  8
Object
100
AcDbLine
 10
9.739227588440874
 20
6.626
 30
0.0
 11
9.739227588440874
 21
5.349
 31
0.0
  0
LINE
  5
4ED
330
18
100
AcDbEntity
  8
Object
100
AcDbLine
 10
10.22722758844087
 20
5.349
 30
0.0
 11
10.22722758844087
 21
6.626
 31
0.0
  0
LINE
  5
4EE
330
18
100
AcDbEntity
  8
Object
100
AcDbLine
 10
9.735227588440874
 20
6.641
 30
0.0
 11
9.739227588440874
 21
6.626
 31
0.0
  0
LINE
  5
4EF
330
18
100
AcDbEntity
  8
Object
100
AcDbLine
 10
10.22722758844087
 20
6.626
 30
0.0
 11
10.23122758844087
 21
6.641
 31
0.0
  0
LINE
  5
4F0
330
18
100
AcDbEntity
  8
Object
100
AcDbLine
 10
10.23122758844087
 20
5.333
 30
0.0
 11
10.22722758844087
 21
5.349
 31
0.0
  0
LINE
  5
4F1
330
18
100
AcDbEntity
  8
Object
100
AcDbLine
 10
9.739227588440874
 20
5.349
 30
0.0
 11
9.734227588440875
 21
5.333
 31
0.0
  0
LINE
  5
4F2
330
18
100
AcDbEntity
  8
Object
100
AcDbLine
 10
10.23122758844087
 20
6.641
 30
0.0
 11
10.24222758844087
 21
6.652
 31
0.0
  0
LINE
  5
4F3
330
18
100
AcDbEntity
  8
Object
100
AcDbLine
 10
9.724227588440873
 20
6.652
 30
0.0
 11
9.735227588440874
 21
6.641
 31
0.0
  0
LINE
  5
4F4
330
18
100
AcDbEntity
  8
Object
100
AcDbLine
 10
9.734227588440875
 20
5.333
 30
0.0
 11
9.723227588440874
 21
5.322
 31
0.0
  0
LINE
  5
4F5
330
18
100
AcDbEntity
  8
Object
100
AcDbLine
 10
10.23122758844087
 20
5.333
 30
0.0
 11
10.24322758844087
 21
5.322
 31
0.0
  0
LINE
  5
4F6
330
18
100
AcDbEntity
  8
Object
100
AcDbLine
 10
10.24322758844087
 20
5.322
 30
0.0
 11
10.25922758844087
 21
5.317
 31
0.0
  0
LINE
  5
4F7
330
18
100
AcDbEntity
  8
Object
100
AcDbLine
 10
9.723227588440874
 20
5.322
 30
0.0
 11
9.707227588440874
 21
5.317
 31
0.0
  0
LINE
  5
4F8
330
18
100
AcDbEntity
  8
Object
100
AcDbLine
 10
10.28522758844087
 20
6.806
 30
0.0
 11
10.28322758844087
 21
6.817
 31
0.0
  0
LINE
  5
4F9
330
18
100
AcDbEntity
  8
Object
100
AcDbLine
 10
9.683227588440875
 20
6.831999999999999
 30
0.0
 11
9.683227588440875
 21
6.817
 31
0.0
  0
LINE
  5
4FA
330
18
100
AcDbEntity
  8
Object
100
AcDbLine
 10
10.28322758844087
 20
6.817
 30
0.0
 11
10.28322758844087
 21
6.831999999999999
 31
0.0
  0
LINE
  5
4FB
330
18
100
AcDbEntity
  8
Object
100
AcDbLine
 10
9.683227588440875
 20
6.817
 30
0.0
 11
9.681227588440874
 21
6.806
 31
0.0
  0
LINE
  5
4FC
330
18
100
AcDbEntity
  8
Object
100
AcDbLine
 10
10.29022758844087
 20
6.796999999999999
 30
0.0
 11
10.28522758844087
 21
6.806
 31
0.0
  0
LINE
  5
4FD
330
18
100
AcDbEntity
  8
Object
100
AcDbLine
 10
9.681227588440874
 20
6.806
 30
0.0
 11
9.676227588440875
 21
6.796999999999999
 31
0.0
  0
LINE
  5
4FE
330
18
100
AcDbEntity
  8
Object
100
AcDbLine
 10
9.676227588440875
 20
6.796999999999999
 30
0.0
 11
9.668227588440874
 21
6.791
 31
0.0
  0
LINE
  5
4FF
330
18
100
AcDbEntity
  8
Object
100
AcDbLine
 10
10.29822758844087
 20
6.791
 30
0.0
 11
10.29022758844087
 21
6.796999999999999
 31
0.0
  0
LINE
  5
500
330
18
100
AcDbEntity
  8
Object
100
AcDbLine
 10
9.668227588440874
 20
6.791
 30
0.0
 11
9.643227588440874
 21
6.775999999999999
 31
0.0
  0
LINE
  5
501
330
18
100
AcDbEntity
  8
Object
100
AcDbLine
 10
9.709227588440874
 20
6.656
 30
0.0
 11
9.674227588440874
 21
6.656
 31
0.0
  0
LINE
  5
502
330
18
100
AcDbEntity
  8
Object
100
AcDbLine
 10
9.674227588440874
 20
6.656
 30
0.0
 11
9.650227588440873
 21
6.661
 31
0.0
  0
LINE
  5
503
330
18
100
AcDbEntity
  8
Object
100
AcDbLine
 10
9.650227588440873
 20
6.661
 30
0.0
 11
9.630227588440874
 21
6.674999999999999
 31
0.0
  0
LINE
  5
504
330
18
100
AcDbEntity
  8
Object
100
AcDbLine
 10
9.643227588440874
 20
6.775999999999999
 30
0.0
 11
9.626227588440874
 21
6.762
 31
0.0
  0
LINE
  5
505
330
18
100
AcDbEntity
  8
Object
100
AcDbLine
 10
9.616227588440874
 20
6.695
 30
0.0
 11
9.630227588440874
 21
6.674999999999999
 31
0.0
  0
LINE
  5
506
330
18
100
AcDbEntity
  8
Object
100
AcDbLine
 10
9.626227588440874
 20
6.762
 30
0.0
 11
9.615227588440873
 21
6.743999999999999
 31
0.0
  0
LINE
  5
507
330
18
100
AcDbEntity
  8
Object
100
AcDbLine
 10
9.709227588440874
 20
6.656
 30
0.0
 11
9.724227588440873
 21
6.652
 31
0.0
  0
LINE
  5
508
330
18
100
AcDbEntity
  8
Object
100
AcDbLine
 10
9.616227588440874
 20
6.695
 30
0.0
 11
9.612227588440875
 21
6.717999999999999
 31
0.0
  0
LINE
  5
509
330
18
100
AcDbEntity
  8
Object
100
AcDbLine
 10
9.612227588440875
 20
6.717999999999999
 30
0.0
 11
9.612227588440875
 21
6.722999999999999
 31
0.0
  0
LINE
  5
50A
330
18
100
AcDbEntity
  8
Object
100
AcDbLine
 10
9.612227588440875
 20
6.722999999999999
 30
0.0
 11
9.615227588440873
 21
6.743999999999999
 31
0.0
  0
LINE
  5
50B
330
18
100
AcDbEntity
  8
Object
100
AcDbLine
 10
9.536227588440874
 20
6.674999999999999
 30
0.0
 11
9.515227588440874
 21
6.661
 31
0.0
  0
LINE
  5
50C
330
18
100
AcDbEntity
  8
Object
100
AcDbLine
 10
9.515227588440874
 20
6.661
 30
0.0
 11
9.492227588440874
 21
6.656
 31
0.0
  0
LINE
  5
50D
330
18
100
AcDbEntity
  8
Object
100
AcDbLine
 10
9.550227588440874
 20
6.743999999999999
 30
0.0
 11
9.554227588440873
 21
6.722999999999999
 31
0.0
  0
LINE
  5
50E
330
18
100
AcDbEntity
  8
Object
100
AcDbLine
 10
9.554227588440873
 20
6.722999999999999
 30
0.0
 11
9.554227588440873
 21
6.717999999999999
 31
0.0
  0
LINE
  5
50F
330
18
100
AcDbEntity
  8
Object
100
AcDbLine
 10
9.554227588440873
 20
6.717999999999999
 30
0.0
 11
9.549227588440874
 21
6.695
 31
0.0
  0
LINE
  5
510
330
18
100
AcDbEntity
  8
Object
100
AcDbLine
 10
9.549227588440874
 20
6.695
 30
0.0
 11
9.536227588440874
 21
6.674999999999999
 31
0.0
  0
LINE
  5
511
330
18
100
AcDbEntity
  8
Object
100
AcDbLine
 10
9.457227588440874
 20
6.656
 30
0.0
 11
9.492227588440874
 21
6.656
 31
0.0
  0
LINE
  5
512
330
18
100
AcDbEntity
  8
Object
100
AcDbLine
 10
9.498227588440874
 20
6.791
 30
0.0
 11
9.523227588440875
 21
6.775999999999999
 31
0.0
  0
LINE
  5
513
330
18
100
AcDbEntity
  8
Object
100
AcDbLine
 10
9.523227588440875
 20
6.775999999999999
 30
0.0
 11
9.539227588440875
 21
6.762
 31
0.0
  0
LINE
  5
514
330
18
100
AcDbEntity
  8
Object
100
AcDbLine
 10
9.539227588440875
 20
6.762
 30
0.0
 11
9.550227588440874
 21
6.743999999999999
 31
0.0
  0
LINE
  5
515
330
18
100
AcDbEntity
  8
Object
100
AcDbLine
 10
9.442227588440875
 20
6.652
 30
0.0
 11
9.457227588440874
 21
6.656
 31
0.0
  0
LINE
  5
516
330
18
100
AcDbEntity
  8
Object
100
AcDbLine
 10
9.427227588440874
 20
6.626
 30
0.0
 11
9.431227588440874
 21
6.641
 31
0.0
  0
LINE
  5
517
330
18
100
AcDbEntity
  8
Object
100
AcDbLine
 10
8.939227588440875
 20
6.626
 30
0.0
 11
8.939227588440875
 21
5.349
 31
0.0
  0
LINE
  5
518
330
18
100
AcDbEntity
  8
Object
100
AcDbLine
 10
9.427227588440874
 20
6.626
 30
0.0
 11
9.427227588440874
 21
5.349
 31
0.0
  0
LINE
  5
519
330
18
100
AcDbEntity
  8
Object
100
AcDbLine
 10
9.427227588440874
 20
5.349
 30
0.0
 11
9.431227588440874
 21
5.333
 31
0.0
  0
LINE
  5
51A
330
18
100
AcDbEntity
  8
Object
100
AcDbLine
 10
8.935227588440874
 20
6.641
 30
0.0
 11
8.939227588440875
 21
6.626
 31
0.0
  0
LINE
  5
51B
330
18
100
AcDbEntity
  8
Object
100
AcDbLine
 10
9.431227588440874
 20
6.641
 30
0.0
 11
9.442227588440875
 21
6.652
 31
0.0
  0
LINE
  5
51C
330
18
100
AcDbEntity
  8
Object
100
AcDbLine
 10
9.443227588440874
 20
5.322
 30
0.0
 11
9.431227588440874
 21
5.333
 31
0.0
  0
LINE
  5
51D
330
18
100
AcDbEntity
  8
Object
100
AcDbLine
 10
8.939227588440875
 20
5.349
 30
0.0
 11
8.934227588440874
 21
5.333
 31
0.0
  0
LINE
  5
51E
330
18
100
AcDbEntity
  8
Object
100
AcDbLine
 10
8.924227588440874
 20
6.652
 30
0.0
 11
8.935227588440874
 21
6.641
 31
0.0
  0
LINE
  5
51F
330
18
100
AcDbEntity
  8
Object
100
AcDbLine
 10
8.934227588440874
 20
5.333
 30
0.0
 11
8.923227588440875
 21
5.322
 31
0.0
  0
LINE
  5
520
330
18
100
AcDbEntity
  8
Object
100
AcDbLine
 10
9.459227588440874
 20
5.317
 30
0.0
 11
9.443227588440874
 21
5.322
 31
0.0
  0
LINE
  5
521
330
18
100
AcDbEntity
  8
Object
100
AcDbLine
 10
8.923227588440875
 20
5.322
 30
0.0
 11
8.907227588440875
 21
5.317
 31
0.0
  0
LINE
  5
522
330
18
100
AcDbEntity
  8
Object
100
AcDbLine
 10
9.485227588440874
 20
6.806
 30
0.0
 11
9.483227588440874
 21
6.817
 31
0.0
  0
LINE
  5
523
330
18
100
AcDbEntity
  8
Object
100
AcDbLine
 10
8.883227588440874
 20
6.831999999999999
 30
0.0
 11
8.883227588440874
 21
6.817
 31
0.0
  0
LINE
  5
524
330
18
100
AcDbEntity
  8
Object
100
AcDbLine
 10
9.483227588440874
 20
6.817
 30
0.0
 11
9.483227588440874
 21
6.831999999999999
 31
0.0
  0
LINE
  5
525
330
18
100
AcDbEntity
  8
Object
100
AcDbLine
 10
8.883227588440874
 20
6.817
 30
0.0
 11
8.881227588440873
 21
6.806
 31
0.0
  0
LINE
  5
526
330
18
100
AcDbEntity
  8
Object
100
AcDbLine
 10
9.490227588440873
 20
6.796999999999999
 30
0.0
 11
9.485227588440874
 21
6.806
 31
0.0
  0
LINE
  5
527
330
18
100
AcDbEntity
  8
Object
100
AcDbLine
 10
8.881227588440873
 20
6.806
 30
0.0
 11
8.876227588440874
 21
6.796999999999999
 31
0.0
  0
LINE
  5
528
330
18
100
AcDbEntity
  8
Object
100
AcDbLine
 10
9.498227588440874
 20
6.791
 30
0.0
 11
9.490227588440873
 21
6.796999999999999
 31
0.0
  0
LINE
  5
529
330
18
100
AcDbEntity
  8
Object
100
AcDbLine
 10
8.876227588440874
 20
6.796999999999999
 30
0.0
 11
8.868227588440873
 21
6.791
 31
0.0
  0
LINE
  5
52A
330
18
100
AcDbEntity
  8
Object
100
AcDbLine
 10
8.868227588440873
 20
6.791
 30
0.0
 11
8.843227588440875
 21
6.775999999999999
 31
0.0
  0
LINE
  5
52B
330
18
100
AcDbEntity
  8
Object
100
AcDbLine
 10
8.909227588440874
 20
6.656
 30
0.0
 11
8.874227588440874
 21
6.656
 31
0.0
  0
LINE
  5
52C
330
18
100
AcDbEntity
  8
Object
100
AcDbLine
 10
8.874227588440874
 20
6.656
 30
0.0
 11
8.850227588440874
 21
6.661
 31
0.0
  0
LINE
  5
52D
330
18
100
AcDbEntity
  8
Object
100
AcDbLine
 10
8.850227588440874
 20
6.661
 30
0.0
 11
8.830227588440875
 21
6.674999999999999
 31
0.0
  0
LINE
  5
52E
330
18
100
AcDbEntity
  8
Object
100
AcDbLine
 10
8.843227588440875
 20
6.775999999999999
 30
0.0
 11
8.826227588440874
 21
6.762
 31
0.0
  0
LINE
  5
52F
330
18
100
AcDbEntity
  8
Object
100
AcDbLine
 10
8.816227588440874
 20
6.695
 30
0.0
 11
8.830227588440875
 21
6.674999999999999
 31
0.0
  0
LINE
  5
530
330
18
100
AcDbEntity
  8
Object
100
AcDbLine
 10
8.909227588440874
 20
6.656
 30
0.0
 11
8.924227588440874
 21
6.652
 31
0.0
  0
LINE
  5
531
330
18
100
AcDbEntity
  8
Object
100
AcDbLine
 10
8.826227588440874
 20
6.762
 30
0.0
 11
8.815227588440874
 21
6.743999999999999
 31
0.0
  0
LINE
  5
532
330
18
100
AcDbEntity
  8
Object
100
AcDbLine
 10
8.816227588440874
 20
6.695
 30
0.0
 11
8.812227588440874
 21
6.717999999999999
 31
0.0
  0
LINE
  5
533
330
18
100
AcDbEntity
  8
Object
100
AcDbLine
 10
8.812227588440874
 20
6.717999999999999
 30
0.0
 11
8.812227588440874
 21
6.722999999999999
 31
0.0
  0
LINE
  5
534
330
18
100
AcDbEntity
  8
Object
100
AcDbLine
 10
8.812227588440874
 20
6.722999999999999
 30
0.0
 11
8.815227588440874
 21
6.743999999999999
 31
0.0
  0
LINE
  5
535
330
18
100
AcDbEntity
  8
Object
100
AcDbLine
 10
9.707227588440874
 20
5.317
 30
0.0
 11
9.459227588440874
 21
5.317
 31
0.0
  0
LINE
  5
536
330
18
100
AcDbEntity
  8
Object
100
AcDbLine
 10
8.783227588440874
 20
5.028
 30
0.0
 11
8.783227588440874
 21
5.317
 31
0.0
  0
LINE
  5
537
330
18
100
AcDbEntity
  8
Object
100
AcDbLine
 10
8.783227588440874
 20
5.317
 30
0.0
 11
8.907227588440875
 21
5.317
 31
0.0
  0
LINE
  5
538
330
18
100
AcDbEntity
  8
Object
100
AcDbLine
 10
10.50722758844087
 20
5.317
 30
0.0
 11
10.25922758844087
 21
5.317
 31
0.0
  0
LINE
  5
539
330
18
100
AcDbEntity
  8
Object
100
AcDbLine
 10
11.30722758844087
 20
5.317
 30
0.0
 11
11.05922758844087
 21
5.317
 31
0.0
  0
LINE
  5
53A
330
18
100
AcDbEntity
  8
Object
100
AcDbLine
 10
12.10722758844087
 20
5.317
 30
0.0
 11
11.85922758844087
 21
5.317
 31
0.0
  0
LINE
  5
53B
330
18
100
AcDbEntity
  8
Object
100
AcDbLine
 10
12.90722758844087
 20
5.317
 30
0.0
 11
12.65922758844087
 21
5.317
 31
0.0
  0
LINE
  5
53C
330
18
100
AcDbEntity
  8
Object
100
AcDbLine
 10
13.70722758844087
 20
5.317
 30
0.0
 11
13.45922758844087
 21
5.317
 31
0.0
  0
LINE
  5
53D
330
18
100
AcDbEntity
  8
Object
100
AcDbLine
 10
14.38322758844087
 20
5.317
 30
0.0
 11
14.25922758844087
 21
5.317
 31
0.0
  0
LINE
  5
540
330
18
100
AcDbEntity
  8
Object
100
AcDbLine
 10
8.783227588440874
 20
5.028
 30
0.0
 11
14.38322758844087
 21
5.027999999999999
 31
0.0
  0
LINE
  5
553
330
18
100
AcDbEntity
  8
Object
100
AcDbLine
 10
12.69822758844087
 20
6.791
 30
0.0
 11
12.69822758844087
 21
6.793
 31
0.0
  0
LINE
  5
554
330
18
100
AcDbEntity
  8
Object
100
AcDbLine
 10
12.13922758844087
 20
6.626
 30
0.0
 11
12.13922758844087
 21
5.349
 31
0.0
  0
LINE
  5
555
330
18
100
AcDbEntity
  8
Object
100
AcDbLine
 10
11.88322758844087
 20
6.876
 30
0.0
 11
11.88322758844087
 21
6.882
 31
0.0
  0
LINE
  5
556
330
18
100
AcDbEntity
  8
Object
100
AcDbLine
 10
11.15422758844087
 20
6.722999999999999
 30
0.0
 11
11.15422758844087
 21
6.725
 31
0.0
  0
LINE
  5
557
330
18
100
AcDbEntity
  8
Object
100
AcDbLine
 10
11.12322758844087
 20
6.775999999999999
 30
0.0
 11
11.12322758844087
 21
6.778999999999999
 31
0.0
  0
LINE
  5
558
330
18
100
AcDbEntity
  8
Object
100
AcDbLine
 10
11.08322758844087
 20
6.876
 30
0.0
 11
11.08322758844087
 21
6.882
 31
0.0
  0
LINE
  5
559
330
18
100
AcDbEntity
  8
Object
100
AcDbLine
 10
10.53922758844087
 20
6.626
 30
0.0
 11
10.53922758844087
 21
5.349
 31
0.0
  0
LINE
  5
55A
330
18
100
AcDbEntity
  8
Object
100
AcDbLine
 10
9.612227588440875
 20
6.725
 30
0.0
 11
9.612227588440875
 21
6.722999999999999
 31
0.0
  0
LINE
  5
55B
330
18
100
AcDbEntity
  8
Object
100
AcDbLine
 10
9.612227588440875
 20
6.722999999999999
 30
0.0
 11
9.612227588440875
 21
6.717999999999999
 31
0.0
  0
LINE
  5
55C
330
18
100
AcDbEntity
  8
Object
100
AcDbLine
 10
8.843227588440875
 20
6.775999999999999
 30
0.0
 11
8.843227588440875
 21
6.778999999999999
 31
0.0
  0
LINE
  5
55D
330
18
100
AcDbEntity
  8
Object
100
AcDbLine
 10
8.812227588440874
 20
6.725
 30
0.0
 11
8.812227588440874
 21
6.722999999999999
 31
0.0
  0
LINE
  5
561
330
18
100
AcDbEntity
  8
Object
100
AcDbLine
 10
12.93922758844087
 20
6.626
 30
0.0
 11
12.93922758844087
 21
5.349
 31
0.0
  0
LINE
  5
562
330
18
100
AcDbEntity
  8
Object
100
AcDbLine
 10
12.62722758844087
 20
5.349
 30
0.0
 11
12.62722758844087
 21
6.626
 31
0.0
  0
LINE
  5
563
330
18
100
AcDbEntity
  8
Object
100
AcDbLine
 10
11.82722758844087
 20
5.349
 30
0.0
 11
11.82722758844087
 21
6.626
 31
0.0
  0
LINE
  5
564
330
18
100
AcDbEntity
  8
Object
100
AcDbLine
 10
8.921227588440874
 20
6.937999999999999
 30
0.0
 11
8.917227588440875
 21
6.937
 31
0.0
  0
LINE
  5
565
330
18
100
AcDbEntity
  8
Object
100
AcDbLine
 10
8.913227588440873
 20
6.932999999999999
 30
0.0
 11
8.921227588440874
 21
6.937999999999999
 31
0.0
  0
LINE
  5
566
330
18
100
AcDbEntity
  8
Object
100
AcDbLine
 10
8.917227588440875
 20
6.937
 30
0.0
 11
8.907227588440875
 21
6.931
 31
0.0
  0
LINE
  5
567
330
18
100
AcDbEntity
  8
Object
100
AcDbLine
 10
8.913227588440873
 20
6.932999999999999
 30
0.0
 11
8.907227588440875
 21
6.927999999999999
 31
0.0
  0
LINE
  5
568
330
18
100
AcDbEntity
  8
Object
100
AcDbLine
 10
8.907227588440875
 20
6.927999999999999
 30
0.0
 11
8.900227588440873
 21
6.921
 31
0.0
  0
LINE
  5
569
330
18
100
AcDbEntity
  8
Object
100
AcDbLine
 10
8.907227588440875
 20
6.931
 30
0.0
 11
8.897227588440873
 21
6.921999999999999
 31
0.0
  0
LINE
  5
56A
330
18
100
AcDbEntity
  8
Object
100
AcDbLine
 10
8.895227588440874
 20
6.913
 30
0.0
 11
8.900227588440873
 21
6.921
 31
0.0
  0
LINE
  5
56B
330
18
100
AcDbEntity
  8
Object
100
AcDbLine
 10
8.897227588440873
 20
6.921999999999999
 30
0.0
 11
8.889227588440874
 21
6.91
 31
0.0
  0
LINE
  5
56C
330
18
100
AcDbEntity
  8
Object
100
AcDbLine
 10
8.895227588440874
 20
6.913
 30
0.0
 11
8.894227588440875
 21
6.911999999999999
 31
0.0
  0
LINE
  5
56D
330
18
100
AcDbEntity
  8
Object
100
AcDbLine
 10
8.894227588440875
 20
6.911999999999999
 30
0.0
 11
8.893227588440874
 21
6.908999999999999
 31
0.0
  0
LINE
  5
56E
330
18
100
AcDbEntity
  8
Object
100
AcDbLine
 10
8.893227588440874
 20
6.908999999999999
 30
0.0
 11
8.891227588440875
 21
6.906
 31
0.0
  0
LINE
  5
56F
330
18
100
AcDbEntity
  8
Object
100
AcDbLine
 10
8.891227588440875
 20
6.906
 30
0.0
 11
8.889227588440874
 21
6.903
 31
0.0
  0
LINE
  5
570
330
18
100
AcDbEntity
  8
Object
100
AcDbLine
 10
8.889227588440874
 20
6.903
 30
0.0
 11
8.885227588440875
 21
6.894
 31
0.0
  0
LINE
  5
571
330
18
100
AcDbEntity
  8
Object
100
AcDbLine
 10
8.885227588440875
 20
6.894
 30
0.0
 11
8.883227588440874
 21
6.884999999999999
 31
0.0
  0
LINE
  5
572
330
18
100
AcDbEntity
  8
Object
100
AcDbLine
 10
8.883227588440874
 20
6.884999999999999
 30
0.0
 11
8.883227588440874
 21
6.876
 31
0.0
  0
LINE
  5
573
330
18
100
AcDbEntity
  8
Object
100
AcDbLine
 10
8.939227588440875
 20
6.626
 30
0.0
 11
8.939227588440875
 21
5.349
 31
0.0
  0
LINE
  5
580
330
18
100
AcDbEntity
  8
Object
100
AcDbLine
 10
14.24922758844087
 20
6.937
 30
0.0
 11
14.24522758844087
 21
6.937999999999999
 31
0.0
  0
LINE
  5
581
330
18
100
AcDbEntity
  8
Object
100
AcDbLine
 10
14.24522758844087
 20
6.937999999999999
 30
0.0
 11
13.72222758844087
 21
6.937999999999999
 31
0.0
  0
LINE
  5
582
330
18
100
AcDbEntity
  8
Object
100
AcDbLine
 10
13.72222758844087
 20
6.937999999999999
 30
0.0
 11
14.24522758844087
 21
6.937999999999999
 31
0.0
  0
LINE
  5
583
330
18
100
AcDbEntity
  8
Object
100
AcDbLine
 10
13.72222758844087
 20
6.937999999999999
 30
0.0
 11
13.72122758844087
 21
6.937999999999999
 31
0.0
  0
LINE
  5
584
330
18
100
AcDbEntity
  8
Object
100
AcDbLine
 10
14.24122758844087
 20
6.937999999999999
 30
0.0
 11
14.25022758844087
 21
6.937999999999999
 31
0.0
  0
LINE
  5
585
330
18
100
AcDbEntity
  8
Object
100
AcDbLine
 10
14.25922758844087
 20
6.931
 30
0.0
 11
14.24922758844087
 21
6.937
 31
0.0
  0
LINE
  5
586
330
18
100
AcDbEntity
  8
Object
100
AcDbLine
 10
13.71822758844087
 20
6.937
 30
0.0
 11
13.70822758844087
 21
6.931
 31
0.0
  0
LINE
  5
587
330
18
100
AcDbEntity
  8
Object
100
AcDbLine
 10
14.25922758844087
 20
6.931
 30
0.0
 11
14.26922758844087
 21
6.921999999999999
 31
0.0
  0
LINE
  5
588
330
18
100
AcDbEntity
  8
Object
100
AcDbLine
 10
14.26922758844087
 20
6.921999999999999
 30
0.0
 11
14.27722758844087
 21
6.91
 31
0.0
  0
LINE
  5
589
330
18
100
AcDbEntity
  8
Object
100
AcDbLine
 10
13.70822758844087
 20
6.931
 30
0.0
 11
13.69822758844087
 21
6.921999999999999
 31
0.0
  0
LINE
  5
58A
330
18
100
AcDbEntity
  8
Object
100
AcDbLine
 10
13.69822758844087
 20
6.921999999999999
 30
0.0
 11
13.69022758844087
 21
6.91
 31
0.0
  0
LINE
  5
58B
330
18
100
AcDbEntity
  8
Object
100
AcDbLine
 10
12.81222758844087
 20
6.725
 30
0.0
 11
12.81222758844087
 21
6.722999999999999
 31
0.0
  0
LINE
  5
58C
330
18
100
AcDbEntity
  8
Object
100
AcDbLine
 10
12.81222758844087
 20
6.722999999999999
 30
0.0
 11
12.81222758844087
 21
6.717999999999999
 31
0.0
  0
LINE
  5
58D
330
18
100
AcDbEntity
  8
Object
100
AcDbLine
 10
12.12222758844087
 20
6.937999999999999
 30
0.0
 11
12.12122758844087
 21
6.937999999999999
 31
0.0
  0
LINE
  5
58E
330
18
100
AcDbEntity
  8
Object
100
AcDbLine
 10
12.12122758844087
 20
6.937999999999999
 30
0.0
 11
12.12222758844087
 21
6.937999999999999
 31
0.0
  0
LINE
  5
58F
330
18
100
AcDbEntity
  8
Object
100
AcDbLine
 10
12.11822758844087
 20
6.937
 30
0.0
 11
12.12122758844087
 21
6.937999999999999
 31
0.0
  0
LINE
  5
590
330
18
100
AcDbEntity
  8
Object
100
AcDbLine
 10
12.12122758844087
 20
6.937999999999999
 30
0.0
 11
12.11422758844087
 21
6.932999999999999
 31
0.0
  0
LINE
  5
591
330
18
100
AcDbEntity
  8
Object
100
AcDbLine
 10
12.11822758844087
 20
6.937
 30
0.0
 11
12.10822758844087
 21
6.931
 31
0.0
  0
LINE
  5
592
330
18
100
AcDbEntity
  8
Object
100
AcDbLine
 10
12.11422758844087
 20
6.932999999999999
 30
0.0
 11
12.10722758844087
 21
6.927999999999999
 31
0.0
  0
LINE
  5
593
330
18
100
AcDbEntity
  8
Object
100
AcDbLine
 10
12.10722758844087
 20
6.927999999999999
 30
0.0
 11
12.10122758844087
 21
6.921
 31
0.0
  0
LINE
  5
594
330
18
100
AcDbEntity
  8
Object
100
AcDbLine
 10
12.10822758844087
 20
6.931
 30
0.0
 11
12.09822758844087
 21
6.921999999999999
 31
0.0
  0
LINE
  5
595
330
18
100
AcDbEntity
  8
Object
100
AcDbLine
 10
12.09522758844087
 20
6.913
 30
0.0
 11
12.10122758844087
 21
6.921
 31
0.0
  0
LINE
  5
596
330
18
100
AcDbEntity
  8
Object
100
AcDbLine
 10
12.09822758844087
 20
6.921999999999999
 30
0.0
 11
12.08922758844087
 21
6.91
 31
0.0
  0
LINE
  5
597
330
18
100
AcDbEntity
  8
Object
100
AcDbLine
 10
12.09522758844087
 20
6.913
 30
0.0
 11
12.09522758844087
 21
6.911999999999999
 31
0.0
  0
LINE
  5
598
330
18
100
AcDbEntity
  8
Object
100
AcDbLine
 10
12.09522758844087
 20
6.911999999999999
 30
0.0
 11
12.09322758844087
 21
6.908999999999999
 31
0.0
  0
LINE
  5
599
330
18
100
AcDbEntity
  8
Object
100
AcDbLine
 10
12.09322758844087
 20
6.908999999999999
 30
0.0
 11
12.09122758844087
 21
6.906
 31
0.0
  0
LINE
  5
59A
330
18
100
AcDbEntity
  8
Object
100
AcDbLine
 10
12.09122758844087
 20
6.906
 30
0.0
 11
12.08922758844087
 21
6.903
 31
0.0
  0
LINE
  5
59B
330
18
100
AcDbEntity
  8
Object
100
AcDbLine
 10
12.08922758844087
 20
6.903
 30
0.0
 11
12.08622758844087
 21
6.894
 31
0.0
  0
LINE
  5
59C
330
18
100
AcDbEntity
  8
Object
100
AcDbLine
 10
12.08622758844087
 20
6.894
 30
0.0
 11
12.08422758844087
 21
6.884999999999999
 31
0.0
  0
LINE
  5
59D
330
18
100
AcDbEntity
  8
Object
100
AcDbLine
 10
12.08422758844087
 20
6.884999999999999
 30
0.0
 11
12.08322758844087
 21
6.876
 31
0.0
  0
LINE
  5
59E
330
18
100
AcDbEntity
  8
Object
100
AcDbLine
 10
12.08322758844087
 20
6.876
 30
0.0
 11
12.08322758844087
 21
6.882
 31
0.0
  0
LINE
  5
59F
330
18
100
AcDbEntity
  8
Object
100
AcDbLine
 10
9.707227588440874
 20
5.317
 30
0.0
 11
9.707227588440874
 21
5.32
 31
0.0
  0
LINE
  5
5A0
330
18
100
AcDbEntity
  8
Object
100
AcDbLine
 10
9.459227588440874
 20
5.317
 30
0.0
 11
9.459227588440874
 21
5.32
 31
0.0
  0
LINE
  5
5A4
330
18
100
AcDbEntity
  8
Object
100
AcDbLine
 10
11.95422758844087
 20
6.725
 30
0.0
 11
11.95422758844087
 21
6.722999999999999
 31
0.0
  0
LINE
  5
5A5
330
18
100
AcDbEntity
  8
Object
100
AcDbLine
 10
11.95422758844087
 20
6.722999999999999
 30
0.0
 11
11.95422758844087
 21
6.717999999999999
 31
0.0
  0
LINE
  5
5A6
330
18
100
AcDbEntity
  8
Object
100
AcDbLine
 10
11.08322758844087
 20
6.842
 30
0.0
 11
11.08322758844087
 21
6.876
 31
0.0
  0
LINE
  5
5A7
330
18
100
AcDbEntity
  8
Object
100
AcDbLine
 10
11.07922758844087
 20
6.831999999999999
 30
0.0
 11
11.08822758844087
 21
6.831999999999999
 31
0.0
  0
LINE
  5
5A8
330
18
100
AcDbEntity
  8
Object
100
AcDbLine
 10
11.08322758844087
 20
6.836999999999999
 30
0.0
 11
11.08322758844087
 21
6.834
 31
0.0
  0
LINE
  5
5A9
330
18
100
AcDbEntity
  8
Object
100
AcDbLine
 10
11.08322758844087
 20
6.834
 30
0.0
 11
11.08322758844087
 21
6.831999999999999
 31
0.0
  0
LINE
  5
5AA
330
18
100
AcDbEntity
  8
Object
100
AcDbLine
 10
11.08322758844087
 20
6.836999999999999
 30
0.0
 11
11.08322758844087
 21
6.842
 31
0.0
  0
LINE
  5
5AB
330
18
100
AcDbEntity
  8
Object
100
AcDbLine
 10
11.08322758844087
 20
6.876
 30
0.0
 11
11.08322758844087
 21
6.882
 31
0.0
  0
LINE
  5
5AC
330
18
100
AcDbEntity
  8
Object
100
AcDbLine
 10
11.08322758844087
 20
6.817
 30
0.0
 11
11.08322758844087
 21
6.831999999999999
 31
0.0
  0
LINE
  5
5AD
330
18
100
AcDbEntity
  8
Object
100
AcDbLine
 10
10.46822758844087
 20
6.791
 30
0.0
 11
10.46822758844087
 21
6.793
 31
0.0
  0
LINE
  5
5AE
330
18
100
AcDbEntity
  8
Object
100
AcDbLine
 10
9.683227588440875
 20
6.876
 30
0.0
 11
9.683227588440875
 21
6.842
 31
0.0
  0
LINE
  5
5AF
330
18
100
AcDbEntity
  8
Object
100
AcDbLine
 10
9.683227588440875
 20
6.842
 30
0.0
 11
9.683227588440875
 21
6.836999999999999
 31
0.0
  0
LINE
  5
5B0
330
18
100
AcDbEntity
  8
Object
100
AcDbLine
 10
9.683227588440875
 20
6.831999999999999
 30
0.0
 11
9.683227588440875
 21
6.834
 31
0.0
  0
LINE
  5
5B1
330
18
100
AcDbEntity
  8
Object
100
AcDbLine
 10
9.683227588440875
 20
6.834
 30
0.0
 11
9.683227588440875
 21
6.836999999999999
 31
0.0
  0
LINE
  5
5B2
330
18
100
AcDbEntity
  8
Object
100
AcDbLine
 10
9.683227588440875
 20
6.831999999999999
 30
0.0
 11
9.683227588440875
 21
6.817
 31
0.0
  0
LINE
  5
5B3
330
18
100
AcDbEntity
  8
Object
100
AcDbLine
 10
9.668227588440874
 20
6.791
 30
0.0
 11
9.668227588440874
 21
6.793
 31
0.0
  0
LINE
  5
5B4
330
18
100
AcDbEntity
  8
Object
100
AcDbLine
 10
13.66822758844087
 20
6.791
 30
0.0
 11
13.66822758844087
 21
6.793
 31
0.0
  0
LINE
  5
5B5
330
18
100
AcDbEntity
  8
Object
100
AcDbLine
 10
13.45922758844087
 20
5.317
 30
0.0
 11
13.45922758844087
 21
5.32
 31
0.0
  0
LINE
  5
5B6
330
18
100
AcDbEntity
  8
Object
100
AcDbLine
 10
12.04322758844087
 20
6.775999999999999
 30
0.0
 11
12.04322758844087
 21
6.778999999999999
 31
0.0
  0
LINE
  5
5B7
330
18
100
AcDbEntity
  8
Object
100
AcDbLine
 10
12.01222758844087
 20
6.725
 30
0.0
 11
12.01222758844087
 21
6.722999999999999
 31
0.0
  0
LINE
  5
5B8
330
18
100
AcDbEntity
  8
Object
100
AcDbLine
 10
11.26822758844087
 20
6.791
 30
0.0
 11
11.26822758844087
 21
6.793
 31
0.0
  0
LINE
  5
5B9
330
18
100
AcDbEntity
  8
Object
100
AcDbLine
 10
9.554227588440873
 20
6.722999999999999
 30
0.0
 11
9.554227588440873
 21
6.725
 31
0.0
  0
LINE
  5
5BA
330
18
100
AcDbEntity
  8
Object
100
AcDbLine
 10
9.523227588440875
 20
6.775999999999999
 30
0.0
 11
9.523227588440875
 21
6.778999999999999
 31
0.0
  0
LINE
  5
5BC
330
18
100
AcDbEntity
  8
Object
100
AcDbLine
 10
14.29822758844087
 20
6.791
 30
0.0
 11
14.29822758844087
 21
6.793
 31
0.0
  0
LINE
  5
5BD
330
18
100
AcDbEntity
  8
Object
100
AcDbLine
 10
13.52322758844087
 20
6.775999999999999
 30
0.0
 11
13.52322758844087
 21
6.778999999999999
 31
0.0
  0
LINE
  5
5BE
330
18
100
AcDbEntity
  8
Object
100
AcDbLine
 10
11.84522758844087
 20
6.937999999999999
 30
0.0
 11
11.84422758844087
 21
6.937999999999999
 31
0.0
  0
LINE
  5
5BF
330
18
100
AcDbEntity
  8
Object
100
AcDbLine
 10
11.32222758844087
 20
6.937999999999999
 30
0.0
 11
11.32122758844087
 21
6.937999999999999
 31
0.0
  0
LINE
  5
5C0
330
18
100
AcDbEntity
  8
Object
100
AcDbLine
 10
11.84822758844087
 20
6.937
 30
0.0
 11
11.84522758844087
 21
6.937999999999999
 31
0.0
  0
LINE
  5
5C1
330
18
100
AcDbEntity
  8
Object
100
AcDbLine
 10
11.84422758844087
 20
6.937999999999999
 30
0.0
 11
11.32222758844087
 21
6.937999999999999
 31
0.0
  0
LINE
  5
5C2
330
18
100
AcDbEntity
  8
Object
100
AcDbLine
 10
11.32222758844087
 20
6.937999999999999
 30
0.0
 11
11.32122758844087
 21
6.937999999999999
 31
0.0
  0
LINE
  5
5C3
330
18
100
AcDbEntity
  8
Object
100
AcDbLine
 10
11.84422758844087
 20
6.937999999999999
 30
0.0
 11
11.84522758844087
 21
6.937999999999999
 31
0.0
  0
LINE
  5
5C4
330
18
100
AcDbEntity
  8
Object
100
AcDbLine
 10
11.84522758844087
 20
6.937999999999999
 30
0.0
 11
11.32122758844087
 21
6.937999999999999
 31
0.0
  0
LINE
  5
5C5
330
18
100
AcDbEntity
  8
Object
100
AcDbLine
 10
11.85822758844087
 20
6.931
 30
0.0
 11
11.84822758844087
 21
6.937
 31
0.0
  0
LINE
  5
5C6
330
18
100
AcDbEntity
  8
Object
100
AcDbLine
 10
11.32122758844087
 20
6.937999999999999
 30
0.0
 11
11.31822758844087
 21
6.937
 31
0.0
  0
LINE
  5
5C7
330
18
100
AcDbEntity
  8
Object
100
AcDbLine
 10
11.31822758844087
 20
6.937
 30
0.0
 11
11.30822758844087
 21
6.931
 31
0.0
  0
LINE
  5
5C8
330
18
100
AcDbEntity
  8
Object
100
AcDbLine
 10
11.85822758844087
 20
6.931
 30
0.0
 11
11.86822758844087
 21
6.921999999999999
 31
0.0
  0
LINE
  5
5C9
330
18
100
AcDbEntity
  8
Object
100
AcDbLine
 10
11.86822758844087
 20
6.921999999999999
 30
0.0
 11
11.87722758844087
 21
6.91
 31
0.0
  0
LINE
  5
5CA
330
18
100
AcDbEntity
  8
Object
100
AcDbLine
 10
11.30822758844087
 20
6.931
 30
0.0
 11
11.29822758844087
 21
6.921999999999999
 31
0.0
  0
LINE
  5
5CB
330
18
100
AcDbEntity
  8
Object
100
AcDbLine
 10
11.29822758844087
 20
6.921999999999999
 30
0.0
 11
11.28922758844087
 21
6.91
 31
0.0
  0
LINE
  5
5CC
330
18
100
AcDbEntity
  8
Object
100
AcDbLine
 10
11.28322758844087
 20
6.882
 30
0.0
 11
11.28322758844087
 21
6.876
 31
0.0
  0
LINE
  5
5CD
330
18
100
AcDbEntity
  8
Object
100
AcDbLine
 10
11.28322758844087
 20
6.876
 30
0.0
 11
11.28322758844087
 21
6.842
 31
0.0
  0
LINE
  5
5CE
330
18
100
AcDbEntity
  8
Object
100
AcDbLine
 10
11.28322758844087
 20
6.842
 30
0.0
 11
11.28322758844087
 21
6.836999999999999
 31
0.0
  0
LINE
  5
5CF
330
18
100
AcDbEntity
  8
Object
100
AcDbLine
 10
11.28322758844087
 20
6.831999999999999
 30
0.0
 11
11.28322758844087
 21
6.834
 31
0.0
  0
LINE
  5
5D0
330
18
100
AcDbEntity
  8
Object
100
AcDbLine
 10
11.28322758844087
 20
6.834
 30
0.0
 11
11.28322758844087
 21
6.836999999999999
 31
0.0
  0
LINE
  5
5D1
330
18
100
AcDbEntity
  8
Object
100
AcDbLine
 10
11.28322758844087
 20
6.831999999999999
 30
0.0
 11
11.28322758844087
 21
6.817
 31
0.0
  0
LINE
  5
5D2
330
18
100
AcDbEntity
  8
Object
100
AcDbLine
 10
10.48322758844087
 20
6.882
 30
0.0
 11
10.48322758844087
 21
6.876
 31
0.0
  0
LINE
  5
5D3
330
18
100
AcDbEntity
  8
Object
100
AcDbLine
 10
10.48322758844087
 20
6.876
 30
0.0
 11
10.48322758844087
 21
6.842
 31
0.0
  0
LINE
  5
5D4
330
18
100
AcDbEntity
  8
Object
100
AcDbLine
 10
10.48322758844087
 20
6.842
 30
0.0
 11
10.48322758844087
 21
6.836999999999999
 31
0.0
  0
LINE
  5
5D5
330
18
100
AcDbEntity
  8
Object
100
AcDbLine
 10
10.48322758844087
 20
6.831999999999999
 30
0.0
 11
10.48322758844087
 21
6.834
 31
0.0
  0
LINE
  5
5D6
330
18
100
AcDbEntity
  8
Object
100
AcDbLine
 10
10.48322758844087
 20
6.834
 30
0.0
 11
10.48322758844087
 21
6.836999999999999
 31
0.0
  0
LINE
  5
5D7
330
18
100
AcDbEntity
  8
Object
100
AcDbLine
 10
10.48322758844087
 20
6.831999999999999
 30
0.0
 11
10.48322758844087
 21
6.817
 31
0.0
  0
LINE
  5
5D8
330
18
100
AcDbEntity
  8
Object
100
AcDbLine
 10
10.50722758844087
 20
5.317
 30
0.0
 11
10.50722758844087
 21
5.32
 31
0.0
  0
LINE
  5
5E3
330
18
100
AcDbEntity
  8
Object
100
AcDbLine
 10
14.25922758844087
 20
5.317
 30
0.0
 11
14.25922758844087
 21
5.32
 31
0.0
  0
LINE
  5
5E4
330
18
100
AcDbEntity
  8
Object
100
AcDbLine
 10
13.55422758844087
 20
6.722999999999999
 30
0.0
 11
13.55422758844087
 21
6.725
 31
0.0
  0
LINE
  5
5E5
330
18
100
AcDbEntity
  8
Object
100
AcDbLine
 10
12.01222758844087
 20
6.725
 30
0.0
 11
12.01222758844087
 21
6.722999999999999
 31
0.0
  0
LINE
  5
5E6
330
18
100
AcDbEntity
  8
Object
100
AcDbLine
 10
12.01222758844087
 20
6.722999999999999
 30
0.0
 11
12.01222758844087
 21
6.717999999999999
 31
0.0
  0
LINE
  5
5E7
330
18
100
AcDbEntity
  8
Object
100
AcDbLine
 10
11.89822758844087
 20
6.791
 30
0.0
 11
11.89822758844087
 21
6.793
 31
0.0
  0
LINE
  5
5E8
330
18
100
AcDbEntity
  8
Object
100
AcDbLine
 10
9.427227588440874
 20
5.349
 30
0.0
 11
9.427227588440874
 21
6.626
 31
0.0
  0
LINE
  5
5F3
330
18
100
AcDbEntity
  8
Object
100
AcDbLine
 10
13.48322758844087
 20
6.842
 30
0.0
 11
13.48322758844087
 21
6.876
 31
0.0
  0
LINE
  5
5F4
330
18
100
AcDbEntity
  8
Object
100
AcDbLine
 10
13.47922758844087
 20
6.831999999999999
 30
0.0
 11
13.48822758844087
 21
6.831999999999999
 31
0.0
  0
LINE
  5
5F5
330
18
100
AcDbEntity
  8
Object
100
AcDbLine
 10
13.48322758844087
 20
6.836999999999999
 30
0.0
 11
13.48322758844087
 21
6.834
 31
0.0
  0
LINE
  5
5F6
330
18
100
AcDbEntity
  8
Object
100
AcDbLine
 10
13.48322758844087
 20
6.834
 30
0.0
 11
13.48322758844087
 21
6.831999999999999
 31
0.0
  0
LINE
  5
5F7
330
18
100
AcDbEntity
  8
Object
100
AcDbLine
 10
13.48322758844087
 20
6.836999999999999
 30
0.0
 11
13.48322758844087
 21
6.842
 31
0.0
  0
LINE
  5
5F8
330
18
100
AcDbEntity
  8
Object
100
AcDbLine
 10
13.48322758844087
 20
6.876
 30
0.0
 11
13.48322758844087
 21
6.882
 31
0.0
  0
LINE
  5
5F9
330
18
100
AcDbEntity
  8
Object
100
AcDbLine
 10
13.48322758844087
 20
6.817
 30
0.0
 11
13.48322758844087
 21
6.831999999999999
 31
0.0
  0
LINE
  5
5FA
330
18
100
AcDbEntity
  8
Object
100
AcDbLine
 10
11.92322758844087
 20
6.775999999999999
 30
0.0
 11
11.92322758844087
 21
6.778999999999999
 31
0.0
  0
LINE
  5
5FB
330
18
100
AcDbEntity
  8
Object
100
AcDbLine
 10
9.554227588440873
 20
6.725
 30
0.0
 11
9.554227588440873
 21
6.722999999999999
 31
0.0
  0
LINE
  5
5FC
330
18
100
AcDbEntity
  8
Object
100
AcDbLine
 10
9.554227588440873
 20
6.722999999999999
 30
0.0
 11
9.554227588440873
 21
6.717999999999999
 31
0.0
  0
LINE
  5
5FD
330
18
100
AcDbEntity
  8
Object
100
AcDbLine
 10
8.783227588440874
 20
5.028
 30
0.0
 11
8.783227588440874
 21
5.024
 31
0.0
  0
LINE
  5
5FE
330
18
100
AcDbEntity
  8
Object
100
AcDbLine
 10
8.783227588440874
 20
5.024
 30
0.0
 11
8.783227588440874
 21
5.020999999999999
 31
0.0
  0
LINE
  5
5FF
330
18
100
AcDbEntity
  8
Object
100
AcDbLine
 10
8.783227588440874
 20
5.020999999999999
 30
0.0
 11
8.783227588440874
 21
5.019
 31
0.0
  0
LINE
  5
600
330
18
100
AcDbEntity
  8
Object
100
AcDbLine
 10
8.783227588440874
 20
5.019
 30
0.0
 11
8.783227588440874
 21
5.017999999999999
 31
0.0
  0
LINE
  5
601
330
18
100
AcDbEntity
  8
Object
100
AcDbLine
 10
8.783227588440874
 20
5.017999999999999
 30
0.0
 11
8.783227588440874
 21
5.012
 31
0.0
  0
LINE
  5
602
330
18
100
AcDbEntity
  8
Object
100
AcDbLine
 10
8.783227588440874
 20
5.012
 30
0.0
 11
8.783227588440874
 21
4.998
 31
0.0
  0
LINE
  5
603
330
18
100
AcDbEntity
  8
Object
100
AcDbLine
 10
8.783227588440874
 20
4.998
 30
0.0
 11
8.783227588440874
 21
4.977999999999999
 31
0.0
  0
LINE
  5
604
330
18
100
AcDbEntity
  8
Object
100
AcDbLine
 10
8.783227588440874
 20
4.977999999999999
 30
0.0
 11
8.783227588440874
 21
4.958
 31
0.0
  0
LINE
  5
605
330
18
100
AcDbEntity
  8
Object
100
AcDbLine
 10
8.783227588440874
 20
4.958
 30
0.0
 11
8.783227588440874
 21
4.943
 31
0.0
  0
LINE
  5
606
330
18
100
AcDbEntity
  8
Object
100
AcDbLine
 10
8.783227588440874
 20
4.943
 30
0.0
 11
8.783227588440874
 21
4.937999999999999
 31
0.0
  0
LINE
  5
607
330
18
100
AcDbEntity
  8
Object
100
AcDbLine
 10
8.783227588440874
 20
5.32
 30
0.0
 11
8.783227588440874
 21
5.317
 31
0.0
  0
LINE
  5
608
330
18
100
AcDbEntity
  8
Object
100
AcDbLine
 10
8.783227588440874
 20
5.317
 30
0.0
 11
8.783227588440874
 21
5.028
 31
0.0
  0
LINE
  5
60A
330
18
100
AcDbEntity
  8
Object
100
AcDbLine
 10
14.35422758844087
 20
6.722999999999999
 30
0.0
 11
14.35422758844087
 21
6.725
 31
0.0
  0
LINE
  5
60B
330
18
100
AcDbEntity
  8
Object
100
AcDbLine
 10
12.92222758844087
 20
6.937999999999999
 30
0.0
 11
12.92122758844087
 21
6.937999999999999
 31
0.0
  0
LINE
  5
60C
330
18
100
AcDbEntity
  8
Object
100
AcDbLine
 10
12.92122758844087
 20
6.937999999999999
 30
0.0
 11
12.92222758844087
 21
6.937999999999999
 31
0.0
  0
LINE
  5
60D
330
18
100
AcDbEntity
  8
Object
100
AcDbLine
 10
12.91822758844087
 20
6.937
 30
0.0
 11
12.92122758844087
 21
6.937999999999999
 31
0.0
  0
LINE
  5
60E
330
18
100
AcDbEntity
  8
Object
100
AcDbLine
 10
12.92122758844087
 20
6.937999999999999
 30
0.0
 11
12.91422758844087
 21
6.932999999999999
 31
0.0
  0
LINE
  5
60F
330
18
100
AcDbEntity
  8
Object
100
AcDbLine
 10
12.91822758844087
 20
6.937
 30
0.0
 11
12.90822758844087
 21
6.931
 31
0.0
  0
LINE
  5
610
330
18
100
AcDbEntity
  8
Object
100
AcDbLine
 10
12.91422758844087
 20
6.932999999999999
 30
0.0
 11
12.90722758844087
 21
6.927999999999999
 31
0.0
  0
LINE
  5
611
330
18
100
AcDbEntity
  8
Object
100
AcDbLine
 10
12.90722758844087
 20
6.927999999999999
 30
0.0
 11
12.90122758844087
 21
6.921
 31
0.0
  0
LINE
  5
612
330
18
100
AcDbEntity
  8
Object
100
AcDbLine
 10
12.90822758844087
 20
6.931
 30
0.0
 11
12.89822758844087
 21
6.921999999999999
 31
0.0
  0
LINE
  5
613
330
18
100
AcDbEntity
  8
Object
100
AcDbLine
 10
12.89622758844087
 20
6.913
 30
0.0
 11
12.90122758844087
 21
6.921
 31
0.0
  0
LINE
  5
614
330
18
100
AcDbEntity
  8
Object
100
AcDbLine
 10
12.89822758844087
 20
6.921999999999999
 30
0.0
 11
12.89022758844087
 21
6.91
 31
0.0
  0
LINE
  5
615
330
18
100
AcDbEntity
  8
Object
100
AcDbLine
 10
12.89622758844087
 20
6.913
 30
0.0
 11
12.89522758844087
 21
6.911999999999999
 31
0.0
  0
LINE
  5
616
330
18
100
AcDbEntity
  8
Object
100
AcDbLine
 10
12.89522758844087
 20
6.911999999999999
 30
0.0
 11
12.89322758844087
 21
6.908999999999999
 31
0.0
  0
LINE
  5
617
330
18
100
AcDbEntity
  8
Object
100
AcDbLine
 10
12.89322758844087
 20
6.908999999999999
 30
0.0
 11
12.89122758844087
 21
6.906
 31
0.0
  0
LINE
  5
618
330
18
100
AcDbEntity
  8
Object
100
AcDbLine
 10
12.89122758844087
 20
6.906
 30
0.0
 11
12.88922758844087
 21
6.903
 31
0.0
  0
LINE
  5
619
330
18
100
AcDbEntity
  8
Object
100
AcDbLine
 10
12.88922758844087
 20
6.903
 30
0.0
 11
12.88622758844087
 21
6.894
 31
0.0
  0
LINE
  5
61A
330
18
100
AcDbEntity
  8
Object
100
AcDbLine
 10
12.88622758844087
 20
6.894
 30
0.0
 11
12.88422758844087
 21
6.884999999999999
 31
0.0
  0
LINE
  5
61B
330
18
100
AcDbEntity
  8
Object
100
AcDbLine
 10
12.88422758844087
 20
6.884999999999999
 30
0.0
 11
12.88322758844087
 21
6.876
 31
0.0
  0
LINE
  5
61C
330
18
100
AcDbEntity
  8
Object
100
AcDbLine
 10
12.88322758844087
 20
6.876
 30
0.0
 11
12.88322758844087
 21
6.882
 31
0.0
  0
LINE
  5
61D
330
18
100
AcDbEntity
  8
Object
100
AcDbLine
 10
12.90722758844087
 20
5.317
 30
0.0
 11
12.90722758844087
 21
5.32
 31
0.0
  0
LINE
  5
61E
330
18
100
AcDbEntity
  8
Object
100
AcDbLine
 10
12.72322758844087
 20
6.775999999999999
 30
0.0
 11
12.72322758844087
 21
6.778999999999999
 31
0.0
  0
LINE
  5
61F
330
18
100
AcDbEntity
  8
Object
100
AcDbLine
 10
11.85922758844087
 20
5.317
 30
0.0
 11
11.85922758844087
 21
5.32
 31
0.0
  0
LINE
  5
620
330
18
100
AcDbEntity
  8
Object
100
AcDbLine
 10
11.33922758844087
 20
6.626
 30
0.0
 11
11.33922758844087
 21
5.349
 31
0.0
  0
LINE
  5
621
330
18
100
AcDbEntity
  8
Object
100
AcDbLine
 10
11.09822758844087
 20
6.791
 30
0.0
 11
11.09822758844087
 21
6.793
 31
0.0
  0
LINE
  5
622
330
18
100
AcDbEntity
  8
Object
100
AcDbLine
 10
10.32322758844087
 20
6.775999999999999
 30
0.0
 11
10.32322758844087
 21
6.778999999999999
 31
0.0
  0
LINE
  5
623
330
18
100
AcDbEntity
  8
Object
100
AcDbLine
 10
8.883227588440874
 20
6.876
 30
0.0
 11
8.883227588440874
 21
6.842
 31
0.0
  0
LINE
  5
624
330
18
100
AcDbEntity
  8
Object
100
AcDbLine
 10
8.883227588440874
 20
6.842
 30
0.0
 11
8.883227588440874
 21
6.836999999999999
 31
0.0
  0
LINE
  5
625
330
18
100
AcDbEntity
  8
Object
100
AcDbLine
 10
8.883227588440874
 20
6.831999999999999
 30
0.0
 11
8.883227588440874
 21
6.834
 31
0.0
  0
LINE
  5
626
330
18
100
AcDbEntity
  8
Object
100
AcDbLine
 10
8.883227588440874
 20
6.834
 30
0.0
 11
8.883227588440874
 21
6.836999999999999
 31
0.0
  0
LINE
  5
627
330
18
100
AcDbEntity
  8
Object
100
AcDbLine
 10
8.883227588440874
 20
6.831999999999999
 30
0.0
 11
8.883227588440874
 21
6.817
 31
0.0
  0
LINE
  5
629
330
18
100
AcDbEntity
  8
Object
100
AcDbLine
 10
13.72222758844087
 20
6.937999999999999
 30
0.0
 11
13.72122758844087
 21
6.937999999999999
 31
0.0
  0
LINE
  5
62A
330
18
100
AcDbEntity
  8
Object
100
AcDbLine
 10
13.72122758844087
 20
6.937999999999999
 30
0.0
 11
13.71822758844087
 21
6.937
 31
0.0
  0
LINE
  5
62B
330
18
100
AcDbEntity
  8
Object
100
AcDbLine
 10
13.72122758844087
 20
6.937999999999999
 30
0.0
 11
13.71422758844087
 21
6.932999999999999
 31
0.0
  0
LINE
  5
62C
330
18
100
AcDbEntity
  8
Object
100
AcDbLine
 10
13.71422758844087
 20
6.932999999999999
 30
0.0
 11
13.70722758844087
 21
6.927999999999999
 31
0.0
  0
LINE
  5
62D
330
18
100
AcDbEntity
  8
Object
100
AcDbLine
 10
13.70722758844087
 20
6.927999999999999
 30
0.0
 11
13.70122758844087
 21
6.921
 31
0.0
  0
LINE
  5
62E
330
18
100
AcDbEntity
  8
Object
100
AcDbLine
 10
13.70122758844087
 20
6.921
 30
0.0
 11
13.69622758844087
 21
6.913
 31
0.0
  0
LINE
  5
62F
330
18
100
AcDbEntity
  8
Object
100
AcDbLine
 10
13.69622758844087
 20
6.913
 30
0.0
 11
13.69522758844087
 21
6.911999999999999
 31
0.0
  0
LINE
  5
630
330
18
100
AcDbEntity
  8
Object
100
AcDbLine
 10
13.69522758844087
 20
6.911999999999999
 30
0.0
 11
13.69322758844087
 21
6.908999999999999
 31
0.0
  0
LINE
  5
631
330
18
100
AcDbEntity
  8
Object
100
AcDbLine
 10
13.69322758844087
 20
6.908999999999999
 30
0.0
 11
13.69122758844087
 21
6.906
 31
0.0
  0
LINE
  5
632
330
18
100
AcDbEntity
  8
Object
100
AcDbLine
 10
13.69122758844087
 20
6.906
 30
0.0
 11
13.69022758844087
 21
6.903
 31
0.0
  0
LINE
  5
633
330
18
100
AcDbEntity
  8
Object
100
AcDbLine
 10
13.69022758844087
 20
6.903
 30
0.0
 11
13.68622758844087
 21
6.894
 31
0.0
  0
LINE
  5
634
330
18
100
AcDbEntity
  8
Object
100
AcDbLine
 10
13.68622758844087
 20
6.894
 30
0.0
 11
13.68422758844087
 21
6.884999999999999
 31
0.0
  0
LINE
  5
635
330
18
100
AcDbEntity
  8
Object
100
AcDbLine
 10
13.68422758844087
 20
6.884999999999999
 30
0.0
 11
13.68322758844087
 21
6.876
 31
0.0
  0
LINE
  5
636
330
18
100
AcDbEntity
  8
Object
100
AcDbLine
 10
13.68322758844087
 20
6.876
 30
0.0
 11
13.68322758844087
 21
6.882
 31
0.0
  0
LINE
  5
637
330
18
100
AcDbEntity
  8
Object
100
AcDbLine
 10
13.61222758844087
 20
6.725
 30
0.0
 11
13.61222758844087
 21
6.722999999999999
 31
0.0
  0
LINE
  5
638
330
18
100
AcDbEntity
  8
Object
100
AcDbLine
 10
13.61222758844087
 20
6.722999999999999
 30
0.0
 11
13.61222758844087
 21
6.717999999999999
 31
0.0
  0
LINE
  5
639
330
18
100
AcDbEntity
  8
Object
100
AcDbLine
 10
13.70722758844087
 20
5.317
 30
0.0
 11
13.70722758844087
 21
5.32
 31
0.0
  0
LINE
  5
63A
330
18
100
AcDbEntity
  8
Object
100
AcDbLine
 10
13.44422758844087
 20
6.937999999999999
 30
0.0
 11
13.44522758844087
 21
6.937999999999999
 31
0.0
  0
LINE
  5
63B
330
18
100
AcDbEntity
  8
Object
100
AcDbLine
 10
13.44522758844087
 20
6.937999999999999
 30
0.0
 11
13.44822758844087
 21
6.937
 31
0.0
  0
LINE
  5
63C
330
18
100
AcDbEntity
  8
Object
100
AcDbLine
 10
12.92222758844087
 20
6.937999999999999
 30
0.0
 11
13.44422758844087
 21
6.937999999999999
 31
0.0
  0
LINE
  5
63D
330
18
100
AcDbEntity
  8
Object
100
AcDbLine
 10
13.44422758844087
 20
6.937999999999999
 30
0.0
 11
13.44522758844087
 21
6.937999999999999
 31
0.0
  0
LINE
  5
63E
330
18
100
AcDbEntity
  8
Object
100
AcDbLine
 10
13.44522758844087
 20
6.937999999999999
 30
0.0
 11
12.92122758844087
 21
6.937999999999999
 31
0.0
  0
LINE
  5
63F
330
18
100
AcDbEntity
  8
Object
100
AcDbLine
 10
13.44822758844087
 20
6.937
 30
0.0
 11
13.45822758844087
 21
6.931
 31
0.0
  0
LINE
  5
640
330
18
100
AcDbEntity
  8
Object
100
AcDbLine
 10
13.45822758844087
 20
6.931
 30
0.0
 11
13.46822758844087
 21
6.921999999999999
 31
0.0
  0
LINE
  5
641
330
18
100
AcDbEntity
  8
Object
100
AcDbLine
 10
13.46822758844087
 20
6.921999999999999
 30
0.0
 11
13.47722758844087
 21
6.91
 31
0.0
  0
LINE
  5
642
330
18
100
AcDbEntity
  8
Object
100
AcDbLine
 10
11.21222758844087
 20
6.725
 30
0.0
 11
11.21222758844087
 21
6.722999999999999
 31
0.0
  0
LINE
  5
643
330
18
100
AcDbEntity
  8
Object
100
AcDbLine
 10
11.21222758844087
 20
6.722999999999999
 30
0.0
 11
11.21222758844087
 21
6.717999999999999
 31
0.0
  0
LINE
  5
645
330
18
100
AcDbEntity
  8
Object
100
AcDbLine
 10
12.68322758844087
 20
6.842
 30
0.0
 11
12.68322758844087
 21
6.876
 31
0.0
  0
LINE
  5
646
330
18
100
AcDbEntity
  8
Object
100
AcDbLine
 10
12.67922758844087
 20
6.831999999999999
 30
0.0
 11
12.68822758844087
 21
6.831999999999999
 31
0.0
  0
LINE
  5
647
330
18
100
AcDbEntity
  8
Object
100
AcDbLine
 10
12.68322758844087
 20
6.836999999999999
 30
0.0
 11
12.68322758844087
 21
6.834
 31
0.0
  0
LINE
  5
648
330
18
100
AcDbEntity
  8
Object
100
AcDbLine
 10
12.68322758844087
 20
6.834
 30
0.0
 11
12.68322758844087
 21
6.831999999999999
 31
0.0
  0
LINE
  5
649
330
18
100
AcDbEntity
  8
Object
100
AcDbLine
 10
12.68322758844087
 20
6.836999999999999
 30
0.0
 11
12.68322758844087
 21
6.842
 31
0.0
  0
LINE
  5
64A
330
18
100
AcDbEntity
  8
Object
100
AcDbLine
 10
12.68322758844087
 20
6.876
 30
0.0
 11
12.68322758844087
 21
6.882
 31
0.0
  0
LINE
  5
64B
330
18
100
AcDbEntity
  8
Object
100
AcDbLine
 10
12.68322758844087
 20
6.817
 30
0.0
 11
12.68322758844087
 21
6.831999999999999
 31
0.0
  0
LINE
  5
64C
330
18
100
AcDbEntity
  8
Object
100
AcDbLine
 10
12.06822758844087
 20
6.791
 30
0.0
 11
12.06822758844087
 21
6.793
 31
0.0
  0
LINE
  5
64D
330
18
100
AcDbEntity
  8
Object
100
AcDbLine
 10
10.22722758844087
 20
5.349
 30
0.0
 11
10.22722758844087
 21
6.626
 31
0.0
  0
LINE
  5
64E
330
18
100
AcDbEntity
  8
Object
100
AcDbLine
 10
10.28322758844087
 20
6.876
 30
0.0
 11
10.28322758844087
 21
6.882
 31
0.0
  0
LINE
  5
64F
330
18
100
AcDbEntity
  8
Object
100
AcDbLine
 10
8.868227588440873
 20
6.791
 30
0.0
 11
8.868227588440873
 21
6.793
 31
0.0
  0
LINE
  5
657
330
18
100
AcDbEntity
  8
Object
100
AcDbLine
 10
13.68322758844087
 20
6.882
 30
0.0
 11
13.68322758844087
 21
6.876
 31
0.0
  0
LINE
  5
658
330
18
100
AcDbEntity
  8
Object
100
AcDbLine
 10
13.68322758844087
 20
6.876
 30
0.0
 11
13.68322758844087
 21
6.842
 31
0.0
  0
LINE
  5
659
330
18
100
AcDbEntity
  8
Object
100
AcDbLine
 10
13.68322758844087
 20
6.842
 30
0.0
 11
13.68322758844087
 21
6.836999999999999
 31
0.0
  0
LINE
  5
65A
330
18
100
AcDbEntity
  8
Object
100
AcDbLine
 10
13.68322758844087
 20
6.831999999999999
 30
0.0
 11
13.68322758844087
 21
6.834
 31
0.0
  0
LINE
  5
65B
330
18
100
AcDbEntity
  8
Object
100
AcDbLine
 10
13.68322758844087
 20
6.834
 30
0.0
 11
13.68322758844087
 21
6.836999999999999
 31
0.0
  0
LINE
  5
65C
330
18
100
AcDbEntity
  8
Object
100
AcDbLine
 10
13.68322758844087
 20
6.831999999999999
 30
0.0
 11
13.68322758844087
 21
6.817
 31
0.0
  0
LINE
  5
65D
330
18
100
AcDbEntity
  8
Object
100
AcDbLine
 10
11.95422758844087
 20
6.722999999999999
 30
0.0
 11
11.95422758844087
 21
6.725
 31
0.0
  0
LINE
  5
65E
330
18
100
AcDbEntity
  8
Object
100
AcDbLine
 10
11.88322758844087
 20
6.842
 30
0.0
 11
11.88322758844087
 21
6.876
 31
0.0
  0
LINE
  5
65F
330
18
100
AcDbEntity
  8
Object
100
AcDbLine
 10
11.87922758844087
 20
6.831999999999999
 30
0.0
 11
11.88822758844087
 21
6.831999999999999
 31
0.0
  0
LINE
  5
660
330
18
100
AcDbEntity
  8
Object
100
AcDbLine
 10
11.88322758844087
 20
6.836999999999999
 30
0.0
 11
11.88322758844087
 21
6.834
 31
0.0
  0
LINE
  5
661
330
18
100
AcDbEntity
  8
Object
100
AcDbLine
 10
11.88322758844087
 20
6.834
 30
0.0
 11
11.88322758844087
 21
6.831999999999999
 31
0.0
  0
LINE
  5
662
330
18
100
AcDbEntity
  8
Object
100
AcDbLine
 10
11.88322758844087
 20
6.836999999999999
 30
0.0
 11
11.88322758844087
 21
6.842
 31
0.0
  0
LINE
  5
663
330
18
100
AcDbEntity
  8
Object
100
AcDbLine
 10
11.88322758844087
 20
6.876
 30
0.0
 11
11.88322758844087
 21
6.882
 31
0.0
  0
LINE
  5
664
330
18
100
AcDbEntity
  8
Object
100
AcDbLine
 10
11.88322758844087
 20
6.817
 30
0.0
 11
11.88322758844087
 21
6.831999999999999
 31
0.0
  0
LINE
  5
665
330
18
100
AcDbEntity
  8
Object
100
AcDbLine
 10
11.02722758844087
 20
5.349
 30
0.0
 11
11.02722758844087
 21
6.626
 31
0.0
  0
LINE
  5
666
330
18
100
AcDbEntity
  8
Object
100
AcDbLine
 10
10.44322758844087
 20
6.775999999999999
 30
0.0
 11
10.44322758844087
 21
6.778999999999999
 31
0.0
  0
LINE
  5
667
330
18
100
AcDbEntity
  8
Object
100
AcDbLine
 10
10.41222758844087
 20
6.725
 30
0.0
 11
10.41222758844087
 21
6.722999999999999
 31
0.0
  0
LINE
  5
668
330
18
100
AcDbEntity
  8
Object
100
AcDbLine
 10
10.35422758844087
 20
6.725
 30
0.0
 11
10.35422758844087
 21
6.722999999999999
 31
0.0
  0
LINE
  5
669
330
18
100
AcDbEntity
  8
Object
100
AcDbLine
 10
10.35422758844087
 20
6.722999999999999
 30
0.0
 11
10.35422758844087
 21
6.717999999999999
 31
0.0
  0
LINE
  5
66A
330
18
100
AcDbEntity
  8
Object
100
AcDbLine
 10
10.28322758844087
 20
6.842
 30
0.0
 11
10.28322758844087
 21
6.876
 31
0.0
  0
LINE
  5
66B
330
18
100
AcDbEntity
  8
Object
100
AcDbLine
 10
10.27922758844087
 20
6.831999999999999
 30
0.0
 11
10.28822758844087
 21
6.831999999999999
 31
0.0
  0
LINE
  5
66C
330
18
100
AcDbEntity
  8
Object
100
AcDbLine
 10
10.28322758844087
 20
6.836999999999999
 30
0.0
 11
10.28322758844087
 21
6.834
 31
0.0
  0
LINE
  5
66D
330
18
100
AcDbEntity
  8
Object
100
AcDbLine
 10
10.28322758844087
 20
6.834
 30
0.0
 11
10.28322758844087
 21
6.831999999999999
 31
0.0
  0
LINE
  5
66E
330
18
100
AcDbEntity
  8
Object
100
AcDbLine
 10
10.28322758844087
 20
6.836999999999999
 30
0.0
 11
10.28322758844087
 21
6.842
 31
0.0
  0
LINE
  5
66F
330
18
100
AcDbEntity
  8
Object
100
AcDbLine
 10
10.28322758844087
 20
6.876
 30
0.0
 11
10.28322758844087
 21
6.882
 31
0.0
  0
LINE
  5
670
330
18
100
AcDbEntity
  8
Object
100
AcDbLine
 10
10.28322758844087
 20
6.817
 30
0.0
 11
10.28322758844087
 21
6.831999999999999
 31
0.0
  0
LINE
  5
678
330
18
100
AcDbEntity
  8
Object
100
AcDbLine
 10
14.32322758844087
 20
6.775999999999999
 30
0.0
 11
14.32322758844087
 21
6.778999999999999
 31
0.0
  0
LINE
  5
679
330
18
100
AcDbEntity
  8
Object
100
AcDbLine
 10
13.73922758844087
 20
6.626
 30
0.0
 11
13.73922758844087
 21
5.349
 31
0.0
  0
LINE
  5
67A
330
18
100
AcDbEntity
  8
Object
100
AcDbLine
 10
12.88322758844087
 20
6.882
 30
0.0
 11
12.88322758844087
 21
6.876
 31
0.0
  0
LINE
  5
67B
330
18
100
AcDbEntity
  8
Object
100
AcDbLine
 10
12.88322758844087
 20
6.876
 30
0.0
 11
12.88322758844087
 21
6.842
 31
0.0
  0
LINE
  5
67C
330
18
100
AcDbEntity
  8
Object
100
AcDbLine
 10
12.88322758844087
 20
6.842
 30
0.0
 11
12.88322758844087
 21
6.836999999999999
 31
0.0
  0
LINE
  5
67D
330
18
100
AcDbEntity
  8
Object
100
AcDbLine
 10
12.88322758844087
 20
6.831999999999999
 30
0.0
 11
12.88322758844087
 21
6.834
 31
0.0
  0
LINE
  5
67E
330
18
100
AcDbEntity
  8
Object
100
AcDbLine
 10
12.88322758844087
 20
6.834
 30
0.0
 11
12.88322758844087
 21
6.836999999999999
 31
0.0
  0
LINE
  5
67F
330
18
100
AcDbEntity
  8
Object
100
AcDbLine
 10
12.88322758844087
 20
6.831999999999999
 30
0.0
 11
12.88322758844087
 21
6.817
 31
0.0
  0
LINE
  5
680
330
18
100
AcDbEntity
  8
Object
100
AcDbLine
 10
12.75422758844087
 20
6.725
 30
0.0
 11
12.75422758844087
 21
6.722999999999999
 31
0.0
  0
LINE
  5
681
330
18
100
AcDbEntity
  8
Object
100
AcDbLine
 10
12.75422758844087
 20
6.722999999999999
 30
0.0
 11
12.75422758844087
 21
6.717999999999999
 31
0.0
  0
LINE
  5
682
330
18
100
AcDbEntity
  8
Object
100
AcDbLine
 10
12.08322758844087
 20
6.882
 30
0.0
 11
12.08322758844087
 21
6.876
 31
0.0
  0
LINE
  5
683
330
18
100
AcDbEntity
  8
Object
100
AcDbLine
 10
12.08322758844087
 20
6.876
 30
0.0
 11
12.08322758844087
 21
6.842
 31
0.0
  0
LINE
  5
684
330
18
100
AcDbEntity
  8
Object
100
AcDbLine
 10
12.08322758844087
 20
6.842
 30
0.0
 11
12.08322758844087
 21
6.836999999999999
 31
0.0
  0
LINE
  5
685
330
18
100
AcDbEntity
  8
Object
100
AcDbLine
 10
12.08322758844087
 20
6.831999999999999
 30
0.0
 11
12.08322758844087
 21
6.834
 31
0.0
  0
LINE
  5
686
330
18
100
AcDbEntity
  8
Object
100
AcDbLine
 10
12.08322758844087
 20
6.834
 30
0.0
 11
12.08322758844087
 21
6.836999999999999
 31
0.0
  0
LINE
  5
687
330
18
100
AcDbEntity
  8
Object
100
AcDbLine
 10
12.08322758844087
 20
6.831999999999999
 30
0.0
 11
12.08322758844087
 21
6.817
 31
0.0
  0
LINE
  5
688
330
18
100
AcDbEntity
  8
Object
100
AcDbLine
 10
11.32122758844087
 20
6.937999999999999
 30
0.0
 11
11.31422758844087
 21
6.932999999999999
 31
0.0
  0
LINE
  5
689
330
18
100
AcDbEntity
  8
Object
100
AcDbLine
 10
11.31422758844087
 20
6.932999999999999
 30
0.0
 11
11.30722758844087
 21
6.927999999999999
 31
0.0
  0
LINE
  5
68A
330
18
100
AcDbEntity
  8
Object
100
AcDbLine
 10
11.30722758844087
 20
6.927999999999999
 30
0.0
 11
11.30122758844087
 21
6.921
 31
0.0
  0
LINE
  5
68B
330
18
100
AcDbEntity
  8
Object
100
AcDbLine
 10
11.30122758844087
 20
6.921
 30
0.0
 11
11.29522758844087
 21
6.913
 31
0.0
  0
LINE
  5
68C
330
18
100
AcDbEntity
  8
Object
100
AcDbLine
 10
11.29522758844087
 20
6.913
 30
0.0
 11
11.29422758844087
 21
6.911999999999999
 31
0.0
  0
LINE
  5
68D
330
18
100
AcDbEntity
  8
Object
100
AcDbLine
 10
11.29422758844087
 20
6.911999999999999
 30
0.0
 11
11.29322758844087
 21
6.908999999999999
 31
0.0
  0
LINE
  5
68E
330
18
100
AcDbEntity
  8
Object
100
AcDbLine
 10
11.29322758844087
 20
6.908999999999999
 30
0.0
 11
11.29122758844087
 21
6.906
 31
0.0
  0
LINE
  5
68F
330
18
100
AcDbEntity
  8
Object
100
AcDbLine
 10
11.29122758844087
 20
6.906
 30
0.0
 11
11.28922758844087
 21
6.903
 31
0.0
  0
LINE
  5
690
330
18
100
AcDbEntity
  8
Object
100
AcDbLine
 10
11.28922758844087
 20
6.903
 30
0.0
 11
11.28622758844087
 21
6.894
 31
0.0
  0
LINE
  5
691
330
18
100
AcDbEntity
  8
Object
100
AcDbLine
 10
11.28622758844087
 20
6.894
 30
0.0
 11
11.28422758844087
 21
6.884999999999999
 31
0.0
  0
LINE
  5
692
330
18
100
AcDbEntity
  8
Object
100
AcDbLine
 10
11.28422758844087
 20
6.884999999999999
 30
0.0
 11
11.28322758844087
 21
6.876
 31
0.0
  0
LINE
  5
693
330
18
100
AcDbEntity
  8
Object
100
AcDbLine
 10
11.28322758844087
 20
6.876
 30
0.0
 11
11.28322758844087
 21
6.882
 31
0.0
  0
LINE
  5
694
330
18
100
AcDbEntity
  8
Object
100
AcDbLine
 10
11.15422758844087
 20
6.725
 30
0.0
 11
11.15422758844087
 21
6.722999999999999
 31
0.0
  0
LINE
  5
695
330
18
100
AcDbEntity
  8
Object
100
AcDbLine
 10
11.15422758844087
 20
6.722999999999999
 30
0.0
 11
11.15422758844087
 21
6.717999999999999
 31
0.0
  0
LINE
  5
696
330
18
100
AcDbEntity
  8
Object
100
AcDbLine
 10
10.52222758844087
 20
6.937999999999999
 30
0.0
 11
10.52122758844087
 21
6.937999999999999
 31
0.0
  0
LINE
  5
697
330
18
100
AcDbEntity
  8
Object
100
AcDbLine
 10
10.52122758844087
 20
6.937999999999999
 30
0.0
 11
10.52222758844087
 21
6.937999999999999
 31
0.0
  0
LINE
  5
698
330
18
100
AcDbEntity
  8
Object
100
AcDbLine
 10
10.51822758844087
 20
6.937
 30
0.0
 11
10.52122758844087
 21
6.937999999999999
 31
0.0
  0
LINE
  5
699
330
18
100
AcDbEntity
  8
Object
100
AcDbLine
 10
10.52122758844087
 20
6.937999999999999
 30
0.0
 11
10.51422758844087
 21
6.932999999999999
 31
0.0
  0
LINE
  5
69A
330
18
100
AcDbEntity
  8
Object
100
AcDbLine
 10
10.51822758844087
 20
6.937
 30
0.0
 11
10.50822758844087
 21
6.931
 31
0.0
  0
LINE
  5
69B
330
18
100
AcDbEntity
  8
Object
100
AcDbLine
 10
10.51422758844087
 20
6.932999999999999
 30
0.0
 11
10.50722758844087
 21
6.927999999999999
 31
0.0
  0
LINE
  5
69C
330
18
100
AcDbEntity
  8
Object
100
AcDbLine
 10
10.50722758844087
 20
6.927999999999999
 30
0.0
 11
10.50122758844087
 21
6.921
 31
0.0
  0
LINE
  5
69D
330
18
100
AcDbEntity
  8
Object
100
AcDbLine
 10
10.50822758844087
 20
6.931
 30
0.0
 11
10.49822758844087
 21
6.921999999999999
 31
0.0
  0
LINE
  5
69E
330
18
100
AcDbEntity
  8
Object
100
AcDbLine
 10
10.49522758844087
 20
6.913
 30
0.0
 11
10.50122758844087
 21
6.921
 31
0.0
  0
LINE
  5
69F
330
18
100
AcDbEntity
  8
Object
100
AcDbLine
 10
10.49822758844087
 20
6.921999999999999
 30
0.0
 11
10.48922758844087
 21
6.91
 31
0.0
  0
LINE
  5
6A0
330
18
100
AcDbEntity
  8
Object
100
AcDbLine
 10
10.49522758844087
 20
6.913
 30
0.0
 11
10.49422758844087
 21
6.911999999999999
 31
0.0
  0
LINE
  5
6A1
330
18
100
AcDbEntity
  8
Object
100
AcDbLine
 10
10.49422758844087
 20
6.911999999999999
 30
0.0
 11
10.49322758844087
 21
6.908999999999999
 31
0.0
  0
LINE
  5
6A2
330
18
100
AcDbEntity
  8
Object
100
AcDbLine
 10
10.49322758844087
 20
6.908999999999999
 30
0.0
 11
10.49122758844087
 21
6.906
 31
0.0
  0
LINE
  5
6A3
330
18
100
AcDbEntity
  8
Object
100
AcDbLine
 10
10.49122758844087
 20
6.906
 30
0.0
 11
10.48922758844087
 21
6.903
 31
0.0
  0
LINE
  5
6A4
330
18
100
AcDbEntity
  8
Object
100
AcDbLine
 10
10.48922758844087
 20
6.903
 30
0.0
 11
10.48622758844087
 21
6.894
 31
0.0
  0
LINE
  5
6A5
330
18
100
AcDbEntity
  8
Object
100
AcDbLine
 10
10.48622758844087
 20
6.894
 30
0.0
 11
10.48422758844087
 21
6.884999999999999
 31
0.0
  0
LINE
  5
6A6
330
18
100
AcDbEntity
  8
Object
100
AcDbLine
 10
10.48422758844087
 20
6.884999999999999
 30
0.0
 11
10.48322758844087
 21
6.876
 31
0.0
  0
LINE
  5
6A7
330
18
100
AcDbEntity
  8
Object
100
AcDbLine
 10
10.48322758844087
 20
6.876
 30
0.0
 11
10.48322758844087
 21
6.882
 31
0.0
  0
LINE
  5
6A8
330
18
100
AcDbEntity
  8
Object
100
AcDbLine
 10
10.24522758844087
 20
6.937999999999999
 30
0.0
 11
10.24422758844087
 21
6.937999999999999
 31
0.0
  0
LINE
  5
6A9
330
18
100
AcDbEntity
  8
Object
100
AcDbLine
 10
9.722227588440874
 20
6.937999999999999
 30
0.0
 11
9.721227588440875
 21
6.937999999999999
 31
0.0
  0
LINE
  5
6AA
330
18
100
AcDbEntity
  8
Object
100
AcDbLine
 10
10.24822758844087
 20
6.937
 30
0.0
 11
10.24522758844087
 21
6.937999999999999
 31
0.0
  0
LINE
  5
6AB
330
18
100
AcDbEntity
  8
Object
100
AcDbLine
 10
10.24422758844087
 20
6.937999999999999
 30
0.0
 11
9.722227588440874
 21
6.937999999999999
 31
0.0
  0
LINE
  5
6AC
330
18
100
AcDbEntity
  8
Object
100
AcDbLine
 10
9.722227588440874
 20
6.937999999999999
 30
0.0
 11
9.721227588440875
 21
6.937999999999999
 31
0.0
  0
LINE
  5
6AD
330
18
100
AcDbEntity
  8
Object
100
AcDbLine
 10
10.24422758844087
 20
6.937999999999999
 30
0.0
 11
10.24522758844087
 21
6.937999999999999
 31
0.0
  0
LINE
  5
6AE
330
18
100
AcDbEntity
  8
Object
100
AcDbLine
 10
10.24522758844087
 20
6.937999999999999
 30
0.0
 11
9.721227588440875
 21
6.937999999999999
 31
0.0
  0
LINE
  5
6AF
330
18
100
AcDbEntity
  8
Object
100
AcDbLine
 10
10.25822758844087
 20
6.931
 30
0.0
 11
10.24822758844087
 21
6.937
 31
0.0
  0
LINE
  5
6B0
330
18
100
AcDbEntity
  8
Object
100
AcDbLine
 10
9.721227588440875
 20
6.937999999999999
 30
0.0
 11
9.718227588440875
 21
6.937
 31
0.0
  0
LINE
  5
6B1
330
18
100
AcDbEntity
  8
Object
100
AcDbLine
 10
9.718227588440875
 20
6.937
 30
0.0
 11
9.708227588440875
 21
6.931
 31
0.0
  0
LINE
  5
6B2
330
18
100
AcDbEntity
  8
Object
100
AcDbLine
 10
10.25822758844087
 20
6.931
 30
0.0
 11
10.26822758844087
 21
6.921999999999999
 31
0.0
  0
LINE
  5
6B3
330
18
100
AcDbEntity
  8
Object
100
AcDbLine
 10
10.26822758844087
 20
6.921999999999999
 30
0.0
 11
10.27622758844087
 21
6.91
 31
0.0
  0
LINE
  5
6B4
330
18
100
AcDbEntity
  8
Object
100
AcDbLine
 10
9.708227588440875
 20
6.931
 30
0.0
 11
9.698227588440873
 21
6.921999999999999
 31
0.0
  0
LINE
  5
6B5
330
18
100
AcDbEntity
  8
Object
100
AcDbLine
 10
9.698227588440873
 20
6.921999999999999
 30
0.0
 11
9.689227588440875
 21
6.91
 31
0.0
  0
LINE
  5
6B7
330
18
100
AcDbEntity
  8
Object
100
AcDbLine
 10
14.22722758844087
 20
5.349
 30
0.0
 11
14.22722758844087
 21
6.626
 31
0.0
  0
LINE
  5
6B8
330
18
100
AcDbEntity
  8
Object
100
AcDbLine
 10
13.55422758844087
 20
6.725
 30
0.0
 11
13.55422758844087
 21
6.722999999999999
 31
0.0
  0
LINE
  5
6B9
330
18
100
AcDbEntity
  8
Object
100
AcDbLine
 10
13.55422758844087
 20
6.722999999999999
 30
0.0
 11
13.55422758844087
 21
6.717999999999999
 31
0.0
  0
LINE
  5
6BA
330
18
100
AcDbEntity
  8
Object
100
AcDbLine
 10
13.48322758844087
 20
6.876
 30
0.0
 11
13.48322758844087
 21
6.882
 31
0.0
  0
LINE
  5
6BB
330
18
100
AcDbEntity
  8
Object
100
AcDbLine
 10
12.75422758844087
 20
6.722999999999999
 30
0.0
 11
12.75422758844087
 21
6.725
 31
0.0
  0
LINE
  5
6BC
330
18
100
AcDbEntity
  8
Object
100
AcDbLine
 10
12.10722758844087
 20
5.317
 30
0.0
 11
12.10722758844087
 21
5.32
 31
0.0
  0
LINE
  5
6BD
330
18
100
AcDbEntity
  8
Object
100
AcDbLine
 10
10.29822758844087
 20
6.791
 30
0.0
 11
10.29822758844087
 21
6.793
 31
0.0
  0
LINE
  5
6BE
330
18
100
AcDbEntity
  8
Object
100
AcDbLine
 10
9.721227588440875
 20
6.937999999999999
 30
0.0
 11
9.713227588440874
 21
6.932999999999999
 31
0.0
  0
LINE
  5
6BF
330
18
100
AcDbEntity
  8
Object
100
AcDbLine
 10
9.713227588440874
 20
6.932999999999999
 30
0.0
 11
9.707227588440874
 21
6.927999999999999
 31
0.0
  0
LINE
  5
6C0
330
18
100
AcDbEntity
  8
Object
100
AcDbLine
 10
9.707227588440874
 20
6.927999999999999
 30
0.0
 11
9.700227588440874
 21
6.921
 31
0.0
  0
LINE
  5
6C1
330
18
100
AcDbEntity
  8
Object
100
AcDbLine
 10
9.700227588440874
 20
6.921
 30
0.0
 11
9.695227588440873
 21
6.913
 31
0.0
  0
LINE
  5
6C2
330
18
100
AcDbEntity
  8
Object
100
AcDbLine
 10
9.695227588440873
 20
6.913
 30
0.0
 11
9.694227588440874
 21
6.911999999999999
 31
0.0
  0
LINE
  5
6C3
330
18
100
AcDbEntity
  8
Object
100
AcDbLine
 10
9.694227588440874
 20
6.911999999999999
 30
0.0
 11
9.693227588440874
 21
6.908999999999999
 31
0.0
  0
LINE
  5
6C4
330
18
100
AcDbEntity
  8
Object
100
AcDbLine
 10
9.693227588440874
 20
6.908999999999999
 30
0.0
 11
9.691227588440874
 21
6.906
 31
0.0
  0
LINE
  5
6C5
330
18
100
AcDbEntity
  8
Object
100
AcDbLine
 10
9.691227588440874
 20
6.906
 30
0.0
 11
9.689227588440875
 21
6.903
 31
0.0
  0
LINE
  5
6C6
330
18
100
AcDbEntity
  8
Object
100
AcDbLine
 10
9.689227588440875
 20
6.903
 30
0.0
 11
9.686227588440875
 21
6.894
 31
0.0
  0
LINE
  5
6C7
330
18
100
AcDbEntity
  8
Object
100
AcDbLine
 10
9.686227588440875
 20
6.894
 30
0.0
 11
9.683227588440875
 21
6.884999999999999
 31
0.0
  0
LINE
  5
6C8
330
18
100
AcDbEntity
  8
Object
100
AcDbLine
 10
9.683227588440875
 20
6.884999999999999
 30
0.0
 11
9.683227588440875
 21
6.876
 31
0.0
  0
LINE
  5
6C9
330
18
100
AcDbEntity
  8
Object
100
AcDbLine
 10
9.483227588440874
 20
6.876
 30
0.0
 11
9.483227588440874
 21
6.882
 31
0.0
  0
LINE
  5
6CA
330
18
100
AcDbEntity
  8
Object
100
AcDbLine
 10
9.448227588440873
 20
6.937
 30
0.0
 11
9.445227588440873
 21
6.937999999999999
 31
0.0
  0
LINE
  5
6D1
330
18
100
AcDbEntity
  8
Object
100
AcDbLine
 10
13.42722758844087
 20
5.349
 30
0.0
 11
13.42722758844087
 21
6.626
 31
0.0
  0
LINE
  5
6D2
330
18
100
AcDbEntity
  8
Object
100
AcDbLine
 10
12.86822758844087
 20
6.791
 30
0.0
 11
12.86822758844087
 21
6.793
 31
0.0
  0
LINE
  5
6D3
330
18
100
AcDbEntity
  8
Object
100
AcDbLine
 10
12.65922758844087
 20
5.317
 30
0.0
 11
12.65922758844087
 21
5.32
 31
0.0
  0
LINE
  5
6D4
330
18
100
AcDbEntity
  8
Object
100
AcDbLine
 10
9.643227588440874
 20
6.775999999999999
 30
0.0
 11
9.643227588440874
 21
6.778999999999999
 31
0.0
  0
LINE
  5
6D5
330
18
100
AcDbEntity
  8
Object
100
AcDbLine
 10
9.612227588440875
 20
6.725
 30
0.0
 11
9.612227588440875
 21
6.722999999999999
 31
0.0
  0
LINE
  5
6D6
330
18
100
AcDbEntity
  8
Object
100
AcDbLine
 10
9.739227588440874
 20
6.626
 30
0.0
 11
9.739227588440874
 21
5.349
 31
0.0
  0
LINE
  5
6D7
330
18
100
AcDbEntity
  8
Object
100
AcDbLine
 10
9.444227588440874
 20
6.937999999999999
 30
0.0
 11
8.921227588440874
 21
6.937999999999999
 31
0.0
  0
LINE
  5
6D8
330
18
100
AcDbEntity
  8
Object
100
AcDbLine
 10
9.445227588440873
 20
6.937999999999999
 30
0.0
 11
9.444227588440874
 21
6.937999999999999
 31
0.0
  0
LINE
  5
6D9
330
18
100
AcDbEntity
  8
Object
100
AcDbLine
 10
9.444227588440874
 20
6.937999999999999
 30
0.0
 11
8.921227588440874
 21
6.937999999999999
 31
0.0
  0
LINE
  5
6DA
330
18
100
AcDbEntity
  8
Object
100
AcDbLine
 10
9.448227588440873
 20
6.937
 30
0.0
 11
9.458227588440875
 21
6.931
 31
0.0
  0
LINE
  5
6DB
330
18
100
AcDbEntity
  8
Object
100
AcDbLine
 10
9.458227588440875
 20
6.931
 30
0.0
 11
9.468227588440875
 21
6.921999999999999
 31
0.0
  0
LINE
  5
6DC
330
18
100
AcDbEntity
  8
Object
100
AcDbLine
 10
9.468227588440875
 20
6.921999999999999
 30
0.0
 11
9.476227588440874
 21
6.91
 31
0.0
  0
LINE
  5
6DF
330
18
100
AcDbEntity
  8
Object
100
AcDbLine
 10
14.35422758844087
 20
6.725
 30
0.0
 11
14.35422758844087
 21
6.722999999999999
 31
0.0
  0
LINE
  5
6E0
330
18
100
AcDbEntity
  8
Object
100
AcDbLine
 10
14.35422758844087
 20
6.722999999999999
 30
0.0
 11
14.35422758844087
 21
6.717999999999999
 31
0.0
  0
LINE
  5
6E1
330
18
100
AcDbEntity
  8
Object
100
AcDbLine
 10
12.84322758844087
 20
6.775999999999999
 30
0.0
 11
12.84322758844087
 21
6.778999999999999
 31
0.0
  0
LINE
  5
6E2
330
18
100
AcDbEntity
  8
Object
100
AcDbLine
 10
12.81222758844087
 20
6.725
 30
0.0
 11
12.81222758844087
 21
6.722999999999999
 31
0.0
  0
LINE
  5
6E3
330
18
100
AcDbEntity
  8
Object
100
AcDbLine
 10
12.68322758844087
 20
6.876
 30
0.0
 11
12.68322758844087
 21
6.882
 31
0.0
  0
LINE
  5
6E4
330
18
100
AcDbEntity
  8
Object
100
AcDbLine
 10
12.64422758844087
 20
6.937999999999999
 30
0.0
 11
12.64522758844087
 21
6.937999999999999
 31
0.0
  0
LINE
  5
6E5
330
18
100
AcDbEntity
  8
Object
100
AcDbLine
 10
12.64522758844087
 20
6.937999999999999
 30
0.0
 11
12.64822758844087
 21
6.937
 31
0.0
  0
LINE
  5
6E6
330
18
100
AcDbEntity
  8
Object
100
AcDbLine
 10
12.12222758844087
 20
6.937999999999999
 30
0.0
 11
12.64422758844087
 21
6.937999999999999
 31
0.0
  0
LINE
  5
6E7
330
18
100
AcDbEntity
  8
Object
100
AcDbLine
 10
12.64422758844087
 20
6.937999999999999
 30
0.0
 11
12.64522758844087
 21
6.937999999999999
 31
0.0
  0
LINE
  5
6E8
330
18
100
AcDbEntity
  8
Object
100
AcDbLine
 10
12.64822758844087
 20
6.937
 30
0.0
 11
12.65822758844087
 21
6.931
 31
0.0
  0
LINE
  5
6E9
330
18
100
AcDbEntity
  8
Object
100
AcDbLine
 10
12.65822758844087
 20
6.931
 30
0.0
 11
12.66822758844087
 21
6.921999999999999
 31
0.0
  0
LINE
  5
6EA
330
18
100
AcDbEntity
  8
Object
100
AcDbLine
 10
12.66822758844087
 20
6.921999999999999
 30
0.0
 11
12.67722758844087
 21
6.91
 31
0.0
  0
LINE
  5
6EB
330
18
100
AcDbEntity
  8
Object
100
AcDbLine
 10
11.30722758844087
 20
5.317
 30
0.0
 11
11.30722758844087
 21
5.32
 31
0.0
  0
LINE
  5
6EC
330
18
100
AcDbEntity
  8
Object
100
AcDbLine
 10
11.04422758844087
 20
6.937999999999999
 30
0.0
 11
11.04522758844087
 21
6.937999999999999
 31
0.0
  0
LINE
  5
6ED
330
18
100
AcDbEntity
  8
Object
100
AcDbLine
 10
11.04522758844087
 20
6.937999999999999
 30
0.0
 11
11.04822758844087
 21
6.937
 31
0.0
  0
LINE
  5
6EE
330
18
100
AcDbEntity
  8
Object
100
AcDbLine
 10
10.52222758844087
 20
6.937999999999999
 30
0.0
 11
11.04422758844087
 21
6.937999999999999
 31
0.0
  0
LINE
  5
6EF
330
18
100
AcDbEntity
  8
Object
100
AcDbLine
 10
11.04422758844087
 20
6.937999999999999
 30
0.0
 11
11.04522758844087
 21
6.937999999999999
 31
0.0
  0
LINE
  5
6F0
330
18
100
AcDbEntity
  8
Object
100
AcDbLine
 10
11.04822758844087
 20
6.937
 30
0.0
 11
11.05822758844087
 21
6.931
 31
0.0
  0
LINE
  5
6F1
330
18
100
AcDbEntity
  8
Object
100
AcDbLine
 10
11.05822758844087
 20
6.931
 30
0.0
 11
11.06822758844087
 21
6.921999999999999
 31
0.0
  0
LINE
  5
6F2
330
18
100
AcDbEntity
  8
Object
100
AcDbLine
 10
11.06822758844087
 20
6.921999999999999
 30
0.0
 11
11.07622758844087
 21
6.91
 31
0.0
  0
LINE
  5
6F3
330
18
100
AcDbEntity
  8
Object
100
AcDbLine
 10
10.35422758844087
 20
6.722999999999999
 30
0.0
 11
10.35422758844087
 21
6.725
 31
0.0
  0
LINE
  5
6F4
330
18
100
AcDbEntity
  8
Object
100
AcDbLine
 10
9.498227588440874
 20
6.791
 30
0.0
 11
9.498227588440874
 21
6.793
 31
0.0
  0
LINE
  5
6F5
330
18
100
AcDbEntity
  8
Object
100
AcDbLine
 10
8.812227588440874
 20
6.725
 30
0.0
 11
8.812227588440874
 21
6.722999999999999
 31
0.0
  0
LINE
  5
6F6
330
18
100
AcDbEntity
  8
Object
100
AcDbLine
 10
8.812227588440874
 20
6.722999999999999
 30
0.0
 11
8.812227588440874
 21
6.717999999999999
 31
0.0
  0
LINE
  5
6F7
330
18
100
AcDbEntity
  8
Object
100
AcDbLine
 10
8.907227588440875
 20
5.317
 30
0.0
 11
8.907227588440875
 21
5.32
 31
0.0
  0
LINE
  5
6F8
330
18
100
AcDbEntity
  8
Object
100
AcDbLine
 10
8.783227588440874
 20
5.32
 30
0.0
 11
8.783227588440874
 21
5.317
 31
0.0
  0
LINE
  5
705
330
18
100
AcDbEntity
  8
Object
100
AcDbLine
 10
14.28322758844087
 20
6.842
 30
0.0
 11
14.28322758844087
 21
6.876
 31
0.0
  0
LINE
  5
706
330
18
100
AcDbEntity
  8
Object
100
AcDbLine
 10
14.27922758844087
 20
6.831999999999999
 30
0.0
 11
14.28822758844087
 21
6.831999999999999
 31
0.0
  0
LINE
  5
707
330
18
100
AcDbEntity
  8
Object
100
AcDbLine
 10
14.28322758844087
 20
6.836999999999999
 30
0.0
 11
14.28322758844087
 21
6.834
 31
0.0
  0
LINE
  5
708
330
18
100
AcDbEntity
  8
Object
100
AcDbLine
 10
14.28322758844087
 20
6.834
 30
0.0
 11
14.28322758844087
 21
6.831999999999999
 31
0.0
  0
LINE
  5
709
330
18
100
AcDbEntity
  8
Object
100
AcDbLine
 10
14.28322758844087
 20
6.836999999999999
 30
0.0
 11
14.28322758844087
 21
6.842
 31
0.0
  0
LINE
  5
70A
330
18
100
AcDbEntity
  8
Object
100
AcDbLine
 10
14.28322758844087
 20
6.817
 30
0.0
 11
14.28322758844087
 21
6.831999999999999
 31
0.0
  0
LINE
  5
70B
330
18
100
AcDbEntity
  8
Object
100
AcDbLine
 10
13.64322758844087
 20
6.775999999999999
 30
0.0
 11
13.64322758844087
 21
6.778999999999999
 31
0.0
  0
LINE
  5
70C
330
18
100
AcDbEntity
  8
Object
100
AcDbLine
 10
13.61222758844087
 20
6.725
 30
0.0
 11
13.61222758844087
 21
6.722999999999999
 31
0.0
  0
LINE
  5
70D
330
18
100
AcDbEntity
  8
Object
100
AcDbLine
 10
13.49822758844087
 20
6.791
 30
0.0
 11
13.49822758844087
 21
6.793
 31
0.0
  0
LINE
  5
70E
330
18
100
AcDbEntity
  8
Object
100
AcDbLine
 10
11.24322758844087
 20
6.775999999999999
 30
0.0
 11
11.24322758844087
 21
6.778999999999999
 31
0.0
  0
LINE
  5
70F
330
18
100
AcDbEntity
  8
Object
100
AcDbLine
 10
11.21222758844087
 20
6.725
 30
0.0
 11
11.21222758844087
 21
6.722999999999999
 31
0.0
  0
LINE
  5
710
330
18
100
AcDbEntity
  8
Object
100
AcDbLine
 10
11.05922758844087
 20
5.317
 30
0.0
 11
11.05922758844087
 21
5.32
 31
0.0
  0
LINE
  5
711
330
18
100
AcDbEntity
  8
Object
100
AcDbLine
 10
10.41222758844087
 20
6.725
 30
0.0
 11
10.41222758844087
 21
6.722999999999999
 31
0.0
  0
LINE
  5
712
330
18
100
AcDbEntity
  8
Object
100
AcDbLine
 10
10.41222758844087
 20
6.722999999999999
 30
0.0
 11
10.41222758844087
 21
6.717999999999999
 31
0.0
  0
LINE
  5
713
330
18
100
AcDbEntity
  8
Object
100
AcDbLine
 10
10.25922758844087
 20
5.317
 30
0.0
 11
10.25922758844087
 21
5.32
 31
0.0
  0
LINE
  5
714
330
18
100
AcDbEntity
  8
Object
100
AcDbLine
 10
9.483227588440874
 20
6.842
 30
0.0
 11
9.483227588440874
 21
6.876
 31
0.0
  0
LINE
  5
715
330
18
100
AcDbEntity
  8
Object
100
AcDbLine
 10
9.479227588440874
 20
6.831999999999999
 30
0.0
 11
9.488227588440874
 21
6.831999999999999
 31
0.0
  0
LINE
  5
716
330
18
100
AcDbEntity
  8
Object
100
AcDbLine
 10
9.483227588440874
 20
6.836999999999999
 30
0.0
 11
9.483227588440874
 21
6.834
 31
0.0
  0
LINE
  5
717
330
18
100
AcDbEntity
  8
Object
100
AcDbLine
 10
9.483227588440874
 20
6.834
 30
0.0
 11
9.483227588440874
 21
6.831999999999999
 31
0.0
  0
LINE
  5
718
330
18
100
AcDbEntity
  8
Object
100
AcDbLine
 10
9.483227588440874
 20
6.836999999999999
 30
0.0
 11
9.483227588440874
 21
6.842
 31
0.0
  0
LINE
  5
719
330
18
100
AcDbEntity
  8
Object
100
AcDbLine
 10
9.483227588440874
 20
6.876
 30
0.0
 11
9.483227588440874
 21
6.882
 31
0.0
  0
LINE
  5
71A
330
18
100
AcDbEntity
  8
Object
100
AcDbLine
 10
9.483227588440874
 20
6.817
 30
0.0
 11
9.483227588440874
 21
6.831999999999999
 31
0.0
  0
LINE
  5
71B
330
18
100
AcDbEntity
  8
Object
100
AcDbLine
 10
8.783227588440874
 20
5.024
 30
0.0
 11
8.783227588440874
 21
5.020999999999999
 31
0.0
  0
LINE
  5
71C
330
18
100
AcDbEntity
  8
Object
100
AcDbLine
 10
14.38322758844087
 20
5.019
 30
0.0
 11
8.783227588440874
 21
5.019
 31
0.0
  0
LINE
  5
71D
330
18
100
AcDbEntity
  8
Object
100
AcDbLine
 10
8.783227588440874
 20
5.019
 30
0.0
 11
8.783227588440874
 21
5.017999999999999
 31
0.0
  0
LINE
  5
71E
330
18
100
AcDbEntity
  8
Object
100
AcDbLine
 10
14.38322758844087
 20
5.019
 30
0.0
 11
8.783227588440874
 21
5.019
 31
0.0
  0
LINE
  5
71F
330
18
100
AcDbEntity
  8
Object
100
AcDbLine
 10
8.783227588440874
 20
5.019
 30
0.0
 11
8.783227588440874
 21
5.020999999999999
 31
0.0
  0
LINE
  5
720
330
18
100
AcDbEntity
  8
Object
100
AcDbLine
 10
8.783227588440874
 20
5.028
 30
0.0
 11
8.783227588440874
 21
5.024
 31
0.0
  0
LINE
  5
721
330
18
100
AcDbEntity
  8
Object
100
AcDbLine
 10
14.38322758844087
 20
5.019
 30
0.0
 11
8.783227588440874
 21
5.019
 31
0.0
  0
LINE
  5
732
330
18
100
AcDbEntity
  8
Object
100
AcDbLine
 10
11.84522758844087
 20
6.937999999999999
 30
0.0
 11
11.85222758844087
 21
6.932999999999999
 31
0.0
  0
LINE
  5
733
330
18
100
AcDbEntity
  8
Object
100
AcDbLine
 10
11.85222758844087
 20
6.932999999999999
 30
0.0
 11
11.85922758844087
 21
6.927999999999999
 31
0.0
  0
LINE
  5
734
330
18
100
AcDbEntity
  8
Object
100
AcDbLine
 10
11.85922758844087
 20
6.927999999999999
 30
0.0
 11
11.86522758844087
 21
6.921
 31
0.0
  0
LINE
  5
735
330
18
100
AcDbEntity
  8
Object
100
AcDbLine
 10
11.86522758844087
 20
6.921
 30
0.0
 11
11.87122758844087
 21
6.913
 31
0.0
  0
LINE
  5
736
330
18
100
AcDbEntity
  8
Object
100
AcDbLine
 10
11.88022758844087
 20
6.894
 30
0.0
 11
11.87722758844087
 21
6.903
 31
0.0
  0
LINE
  5
737
330
18
100
AcDbEntity
  8
Object
100
AcDbLine
 10
11.87722758844087
 20
6.903
 30
0.0
 11
11.28922758844087
 21
6.903
 31
0.0
  0
LINE
  5
738
330
18
100
AcDbEntity
  8
Object
100
AcDbLine
 10
11.88022758844087
 20
6.894
 30
0.0
 11
11.88222758844087
 21
6.884999999999999
 31
0.0
  0
LINE
  5
739
330
18
100
AcDbEntity
  8
Object
100
AcDbLine
 10
11.88222758844087
 20
6.884999999999999
 30
0.0
 11
11.88322758844087
 21
6.876
 31
0.0
  0
LINE
  5
73A
330
18
100
AcDbEntity
  8
Object
100
AcDbLine
 10
11.28322758844087
 20
6.876
 30
0.0
 11
11.28322758844087
 21
6.842
 31
0.0
  0
LINE
  5
73B
330
18
100
AcDbEntity
  8
Object
100
AcDbLine
 10
11.88322758844087
 20
6.876
 30
0.0
 11
11.88322758844087
 21
6.842
 31
0.0
  0
LINE
  5
73C
330
18
100
AcDbEntity
  8
Object
100
AcDbLine
 10
11.88322758844087
 20
6.842
 30
0.0
 11
11.28322758844087
 21
6.842
 31
0.0
  0
LINE
  5
73D
330
18
100
AcDbEntity
  8
Object
100
AcDbLine
 10
11.87122758844087
 20
6.911999999999999
 30
0.0
 11
11.87122758844087
 21
6.913
 31
0.0
  0
LINE
  5
73E
330
18
100
AcDbEntity
  8
Object
100
AcDbLine
 10
11.87122758844087
 20
6.913
 30
0.0
 11
11.29522758844087
 21
6.913
 31
0.0
  0
LINE
  5
73F
330
18
100
AcDbEntity
  8
Object
100
AcDbLine
 10
11.87122758844087
 20
6.911999999999999
 30
0.0
 11
11.87322758844087
 21
6.908999999999999
 31
0.0
  0
LINE
  5
740
330
18
100
AcDbEntity
  8
Object
100
AcDbLine
 10
11.87322758844087
 20
6.908999999999999
 30
0.0
 11
11.87522758844087
 21
6.906
 31
0.0
  0
LINE
  5
741
330
18
100
AcDbEntity
  8
Object
100
AcDbLine
 10
11.87522758844087
 20
6.906
 30
0.0
 11
11.87722758844087
 21
6.903
 31
0.0
  0
LINE
  5
742
330
18
100
AcDbEntity
  8
Object
100
AcDbLine
 10
11.07122758844087
 20
6.911999999999999
 30
0.0
 11
11.07122758844087
 21
6.913
 31
0.0
  0
LINE
  5
743
330
18
100
AcDbEntity
  8
Object
100
AcDbLine
 10
11.07122758844087
 20
6.913
 30
0.0
 11
10.49522758844087
 21
6.913
 31
0.0
  0
LINE
  5
744
330
18
100
AcDbEntity
  8
Object
100
AcDbLine
 10
11.07122758844087
 20
6.911999999999999
 30
0.0
 11
11.07322758844087
 21
6.908999999999999
 31
0.0
  0
LINE
  5
745
330
18
100
AcDbEntity
  8
Object
100
AcDbLine
 10
11.07322758844087
 20
6.908999999999999
 30
0.0
 11
11.07522758844087
 21
6.906
 31
0.0
  0
LINE
  5
746
330
18
100
AcDbEntity
  8
Object
100
AcDbLine
 10
11.07522758844087
 20
6.906
 30
0.0
 11
11.07722758844087
 21
6.903
 31
0.0
  0
LINE
  5
747
330
18
100
AcDbEntity
  8
Object
100
AcDbLine
 10
11.07722758844087
 20
6.903
 30
0.0
 11
11.08022758844087
 21
6.894
 31
0.0
  0
LINE
  5
748
330
18
100
AcDbEntity
  8
Object
100
AcDbLine
 10
11.07722758844087
 20
6.903
 30
0.0
 11
10.48922758844087
 21
6.903
 31
0.0
  0
LINE
  5
749
330
18
100
AcDbEntity
  8
Object
100
AcDbLine
 10
11.08022758844087
 20
6.894
 30
0.0
 11
11.08222758844087
 21
6.884999999999999
 31
0.0
  0
LINE
  5
74A
330
18
100
AcDbEntity
  8
Object
100
AcDbLine
 10
11.08222758844087
 20
6.884999999999999
 30
0.0
 11
11.08322758844087
 21
6.876
 31
0.0
  0
LINE
  5
74B
330
18
100
AcDbEntity
  8
Object
100
AcDbLine
 10
10.48322758844087
 20
6.876
 30
0.0
 11
10.48322758844087
 21
6.842
 31
0.0
  0
LINE
  5
74C
330
18
100
AcDbEntity
  8
Object
100
AcDbLine
 10
11.08322758844087
 20
6.876
 30
0.0
 11
11.08322758844087
 21
6.842
 31
0.0
  0
LINE
  5
74D
330
18
100
AcDbEntity
  8
Object
100
AcDbLine
 10
11.08322758844087
 20
6.842
 30
0.0
 11
10.48322758844087
 21
6.842
 31
0.0
  0
LINE
  5
74E
330
18
100
AcDbEntity
  8
Object
100
AcDbLine
 10
10.52122758844087
 20
6.937999999999999
 30
0.0
 11
11.04522758844087
 21
6.937999999999999
 31
0.0
  0
LINE
  5
74F
330
18
100
AcDbEntity
  8
Object
100
AcDbLine
 10
11.04522758844087
 20
6.937999999999999
 30
0.0
 11
11.05222758844087
 21
6.932999999999999
 31
0.0
  0
LINE
  5
750
330
18
100
AcDbEntity
  8
Object
100
AcDbLine
 10
11.05222758844087
 20
6.932999999999999
 30
0.0
 11
11.05922758844087
 21
6.927999999999999
 31
0.0
  0
LINE
  5
751
330
18
100
AcDbEntity
  8
Object
100
AcDbLine
 10
11.05922758844087
 20
6.927999999999999
 30
0.0
 11
11.06522758844087
 21
6.921
 31
0.0
  0
LINE
  5
752
330
18
100
AcDbEntity
  8
Object
100
AcDbLine
 10
11.06522758844087
 20
6.921
 30
0.0
 11
11.07122758844087
 21
6.913
 31
0.0
  0
LINE
  5
764
330
18
100
AcDbEntity
  8
Object
100
AcDbLine
 10
8.921227588440874
 20
6.937999999999999
 30
0.0
 11
9.445227588440873
 21
6.937999999999999
 31
0.0
  0
LINE
  5
765
330
18
100
AcDbEntity
  8
Object
100
AcDbLine
 10
9.445227588440873
 20
6.937999999999999
 30
0.0
 11
9.452227588440875
 21
6.932999999999999
 31
0.0
  0
LINE
  5
766
330
18
100
AcDbEntity
  8
Object
100
AcDbLine
 10
9.452227588440875
 20
6.932999999999999
 30
0.0
 11
9.459227588440874
 21
6.927999999999999
 31
0.0
  0
LINE
  5
767
330
18
100
AcDbEntity
  8
Object
100
AcDbLine
 10
9.459227588440874
 20
6.927999999999999
 30
0.0
 11
9.465227588440875
 21
6.921
 31
0.0
  0
LINE
  5
768
330
18
100
AcDbEntity
  8
Object
100
AcDbLine
 10
9.465227588440875
 20
6.921
 30
0.0
 11
9.470227588440874
 21
6.913
 31
0.0
  0
LINE
  5
769
330
18
100
AcDbEntity
  8
Object
100
AcDbLine
 10
8.889227588440874
 20
6.903
 30
0.0
 11
9.476227588440874
 21
6.903
 31
0.0
  0
LINE
  5
76A
330
18
100
AcDbEntity
  8
Object
100
AcDbLine
 10
9.476227588440874
 20
6.903
 30
0.0
 11
9.480227588440873
 21
6.894
 31
0.0
  0
LINE
  5
76B
330
18
100
AcDbEntity
  8
Object
100
AcDbLine
 10
9.480227588440873
 20
6.894
 30
0.0
 11
9.482227588440874
 21
6.884999999999999
 31
0.0
  0
LINE
  5
76C
330
18
100
AcDbEntity
  8
Object
100
AcDbLine
 10
9.482227588440874
 20
6.884999999999999
 30
0.0
 11
9.483227588440874
 21
6.876
 31
0.0
  0
LINE
  5
76D
330
18
100
AcDbEntity
  8
Object
100
AcDbLine
 10
8.883227588440874
 20
6.876
 30
0.0
 11
8.883227588440874
 21
6.842
 31
0.0
  0
LINE
  5
76E
330
18
100
AcDbEntity
  8
Object
100
AcDbLine
 10
9.483227588440874
 20
6.876
 30
0.0
 11
9.483227588440874
 21
6.842
 31
0.0
  0
LINE
  5
76F
330
18
100
AcDbEntity
  8
Object
100
AcDbLine
 10
9.483227588440874
 20
6.842
 30
0.0
 11
8.883227588440874
 21
6.842
 31
0.0
  0
LINE
  5
770
330
18
100
AcDbEntity
  8
Object
100
AcDbLine
 10
9.471227588440875
 20
6.911999999999999
 30
0.0
 11
9.470227588440874
 21
6.913
 31
0.0
  0
LINE
  5
771
330
18
100
AcDbEntity
  8
Object
100
AcDbLine
 10
9.470227588440874
 20
6.913
 30
0.0
 11
8.895227588440874
 21
6.913
 31
0.0
  0
LINE
  5
772
330
18
100
AcDbEntity
  8
Object
100
AcDbLine
 10
9.471227588440875
 20
6.911999999999999
 30
0.0
 11
9.473227588440874
 21
6.908999999999999
 31
0.0
  0
LINE
  5
773
330
18
100
AcDbEntity
  8
Object
100
AcDbLine
 10
9.473227588440874
 20
6.908999999999999
 30
0.0
 11
9.475227588440874
 21
6.906
 31
0.0
  0
LINE
  5
774
330
18
100
AcDbEntity
  8
Object
100
AcDbLine
 10
9.475227588440874
 20
6.906
 30
0.0
 11
9.476227588440874
 21
6.903
 31
0.0
  0
LINE
  5
775
330
18
100
AcDbEntity
  8
Object
100
AcDbLine
 10
13.72122758844087
 20
6.937999999999999
 30
0.0
 11
14.24522758844087
 21
6.937999999999999
 31
0.0
  0
LINE
  5
776
330
18
100
AcDbEntity
  8
Object
100
AcDbLine
 10
14.24522758844087
 20
6.937999999999999
 30
0.0
 11
14.25322758844087
 21
6.932999999999999
 31
0.0
  0
LINE
  5
777
330
18
100
AcDbEntity
  8
Object
100
AcDbLine
 10
14.25322758844087
 20
6.932999999999999
 30
0.0
 11
14.25922758844087
 21
6.927999999999999
 31
0.0
  0
LINE
  5
778
330
18
100
AcDbEntity
  8
Object
100
AcDbLine
 10
14.25922758844087
 20
6.927999999999999
 30
0.0
 11
14.26622758844087
 21
6.921
 31
0.0
  0
LINE
  5
779
330
18
100
AcDbEntity
  8
Object
100
AcDbLine
 10
14.26622758844087
 20
6.921
 30
0.0
 11
14.27122758844087
 21
6.913
 31
0.0
  0
LINE
  5
77A
330
18
100
AcDbEntity
  8
Object
100
AcDbLine
 10
12.67222758844087
 20
6.911999999999999
 30
0.0
 11
12.67122758844087
 21
6.913
 31
0.0
  0
LINE
  5
77B
330
18
100
AcDbEntity
  8
Object
100
AcDbLine
 10
12.67122758844087
 20
6.913
 30
0.0
 11
12.09522758844087
 21
6.913
 31
0.0
  0
LINE
  5
77C
330
18
100
AcDbEntity
  8
Object
100
AcDbLine
 10
12.67222758844087
 20
6.911999999999999
 30
0.0
 11
12.67322758844087
 21
6.908999999999999
 31
0.0
  0
LINE
  5
77D
330
18
100
AcDbEntity
  8
Object
100
AcDbLine
 10
12.67322758844087
 20
6.908999999999999
 30
0.0
 11
12.67522758844087
 21
6.906
 31
0.0
  0
LINE
  5
77E
330
18
100
AcDbEntity
  8
Object
100
AcDbLine
 10
12.67522758844087
 20
6.906
 30
0.0
 11
12.67722758844087
 21
6.903
 31
0.0
  0
LINE
  5
77F
330
18
100
AcDbEntity
  8
Object
100
AcDbLine
 10
12.67722758844087
 20
6.903
 30
0.0
 11
12.68022758844087
 21
6.894
 31
0.0
  0
LINE
  5
780
330
18
100
AcDbEntity
  8
Object
100
AcDbLine
 10
12.67722758844087
 20
6.903
 30
0.0
 11
12.08922758844087
 21
6.903
 31
0.0
  0
LINE
  5
781
330
18
100
AcDbEntity
  8
Object
100
AcDbLine
 10
12.68022758844087
 20
6.894
 30
0.0
 11
12.68222758844087
 21
6.884999999999999
 31
0.0
  0
LINE
  5
782
330
18
100
AcDbEntity
  8
Object
100
AcDbLine
 10
12.68222758844087
 20
6.884999999999999
 30
0.0
 11
12.68322758844087
 21
6.876
 31
0.0
  0
LINE
  5
783
330
18
100
AcDbEntity
  8
Object
100
AcDbLine
 10
12.08322758844087
 20
6.876
 30
0.0
 11
12.08322758844087
 21
6.842
 31
0.0
  0
LINE
  5
784
330
18
100
AcDbEntity
  8
Object
100
AcDbLine
 10
12.68322758844087
 20
6.876
 30
0.0
 11
12.68322758844087
 21
6.842
 31
0.0
  0
LINE
  5
785
330
18
100
AcDbEntity
  8
Object
100
AcDbLine
 10
12.68322758844087
 20
6.842
 30
0.0
 11
12.08322758844087
 21
6.842
 31
0.0
  0
LINE
  5
786
330
18
100
AcDbEntity
  8
Object
100
AcDbLine
 10
12.12122758844087
 20
6.937999999999999
 30
0.0
 11
12.64522758844087
 21
6.937999999999999
 31
0.0
  0
LINE
  5
787
330
18
100
AcDbEntity
  8
Object
100
AcDbLine
 10
12.64522758844087
 20
6.937999999999999
 30
0.0
 11
12.65222758844087
 21
6.932999999999999
 31
0.0
  0
LINE
  5
788
330
18
100
AcDbEntity
  8
Object
100
AcDbLine
 10
12.65222758844087
 20
6.932999999999999
 30
0.0
 11
12.65922758844087
 21
6.927999999999999
 31
0.0
  0
LINE
  5
789
330
18
100
AcDbEntity
  8
Object
100
AcDbLine
 10
12.65922758844087
 20
6.927999999999999
 30
0.0
 11
12.66522758844087
 21
6.921
 31
0.0
  0
LINE
  5
78A
330
18
100
AcDbEntity
  8
Object
100
AcDbLine
 10
12.66522758844087
 20
6.921
 30
0.0
 11
12.67122758844087
 21
6.913
 31
0.0
  0
LINE
  5
78B
330
18
100
AcDbEntity
  8
Object
100
AcDbLine
 10
10.48322758844087
 20
6.831999999999999
 30
0.0
 11
11.08322758844087
 21
6.831999999999999
 31
0.0
  0
LINE
  5
78C
330
18
100
AcDbEntity
  8
Object
100
AcDbLine
 10
11.08322758844087
 20
6.831999999999999
 30
0.0
 11
10.48322758844087
 21
6.831999999999999
 31
0.0
  0
LINE
  5
78D
330
18
100
AcDbEntity
  8
Object
100
AcDbLine
 10
11.08322758844087
 20
6.836999999999999
 30
0.0
 11
11.08322758844087
 21
6.842
 31
0.0
  0
LINE
  5
78E
330
18
100
AcDbEntity
  8
Object
100
AcDbLine
 10
10.48322758844087
 20
6.842
 30
0.0
 11
10.48322758844087
 21
6.836999999999999
 31
0.0
  0
LINE
  5
78F
330
18
100
AcDbEntity
  8
Object
100
AcDbLine
 10
10.48322758844087
 20
6.836999999999999
 30
0.0
 11
10.48322758844087
 21
6.834
 31
0.0
  0
LINE
  5
790
330
18
100
AcDbEntity
  8
Object
100
AcDbLine
 10
11.08322758844087
 20
6.836999999999999
 30
0.0
 11
11.08322758844087
 21
6.834
 31
0.0
  0
LINE
  5
791
330
18
100
AcDbEntity
  8
Object
100
AcDbLine
 10
11.08322758844087
 20
6.834
 30
0.0
 11
11.08322758844087
 21
6.831999999999999
 31
0.0
  0
LINE
  5
792
330
18
100
AcDbEntity
  8
Object
100
AcDbLine
 10
11.08322758844087
 20
6.831999999999999
 30
0.0
 11
10.48322758844087
 21
6.831999999999999
 31
0.0
  0
LINE
  5
793
330
18
100
AcDbEntity
  8
Object
100
AcDbLine
 10
10.48322758844087
 20
6.831999999999999
 30
0.0
 11
10.48322758844087
 21
6.834
 31
0.0
  0
LINE
  5
794
330
18
100
AcDbEntity
  8
Object
100
AcDbLine
 10
10.28022758844087
 20
6.894
 30
0.0
 11
10.27622758844087
 21
6.903
 31
0.0
  0
LINE
  5
795
330
18
100
AcDbEntity
  8
Object
100
AcDbLine
 10
10.27622758844087
 20
6.903
 30
0.0
 11
9.689227588440875
 21
6.903
 31
0.0
  0
LINE
  5
796
330
18
100
AcDbEntity
  8
Object
100
AcDbLine
 10
10.28222758844087
 20
6.884999999999999
 30
0.0
 11
10.28022758844087
 21
6.894
 31
0.0
  0
LINE
  5
797
330
18
100
AcDbEntity
  8
Object
100
AcDbLine
 10
9.683227588440875
 20
6.876
 30
0.0
 11
9.683227588440875
 21
6.842
 31
0.0
  0
LINE
  5
798
330
18
100
AcDbEntity
  8
Object
100
AcDbLine
 10
10.28222758844087
 20
6.884999999999999
 30
0.0
 11
10.28322758844087
 21
6.876
 31
0.0
  0
LINE
  5
799
330
18
100
AcDbEntity
  8
Object
100
AcDbLine
 10
10.28322758844087
 20
6.876
 30
0.0
 11
10.28322758844087
 21
6.842
 31
0.0
  0
LINE
  5
79A
330
18
100
AcDbEntity
  8
Object
100
AcDbLine
 10
10.28322758844087
 20
6.842
 30
0.0
 11
9.683227588440875
 21
6.842
 31
0.0
  0
LINE
  5
79B
330
18
100
AcDbEntity
  8
Object
100
AcDbLine
 10
10.28322758844087
 20
6.836999999999999
 30
0.0
 11
10.28322758844087
 21
6.842
 31
0.0
  0
LINE
  5
79C
330
18
100
AcDbEntity
  8
Object
100
AcDbLine
 10
9.683227588440875
 20
6.842
 30
0.0
 11
9.683227588440875
 21
6.836999999999999
 31
0.0
  0
LINE
  5
79D
330
18
100
AcDbEntity
  8
Object
100
AcDbLine
 10
9.683227588440875
 20
6.836999999999999
 30
0.0
 11
9.683227588440875
 21
6.834
 31
0.0
  0
LINE
  5
79E
330
18
100
AcDbEntity
  8
Object
100
AcDbLine
 10
10.28322758844087
 20
6.836999999999999
 30
0.0
 11
10.28322758844087
 21
6.834
 31
0.0
  0
LINE
  5
79F
330
18
100
AcDbEntity
  8
Object
100
AcDbLine
 10
10.28322758844087
 20
6.834
 30
0.0
 11
10.28322758844087
 21
6.831999999999999
 31
0.0
  0
LINE
  5
7A0
330
18
100
AcDbEntity
  8
Object
100
AcDbLine
 10
10.28322758844087
 20
6.831999999999999
 30
0.0
 11
9.683227588440875
 21
6.831999999999999
 31
0.0
  0
LINE
  5
7A1
330
18
100
AcDbEntity
  8
Object
100
AcDbLine
 10
9.683227588440875
 20
6.831999999999999
 30
0.0
 11
9.683227588440875
 21
6.834
 31
0.0
  0
LINE
  5
7A2
330
18
100
AcDbEntity
  8
Object
100
AcDbLine
 10
9.683227588440875
 20
6.831999999999999
 30
0.0
 11
10.28322758844087
 21
6.831999999999999
 31
0.0
  0
LINE
  5
7A3
330
18
100
AcDbEntity
  8
Object
100
AcDbLine
 10
10.28322758844087
 20
6.831999999999999
 30
0.0
 11
9.683227588440875
 21
6.831999999999999
 31
0.0
  0
LINE
  5
7A4
330
18
100
AcDbEntity
  8
Object
100
AcDbLine
 10
11.28322758844087
 20
6.831999999999999
 30
0.0
 11
11.88322758844087
 21
6.831999999999999
 31
0.0
  0
LINE
  5
7A5
330
18
100
AcDbEntity
  8
Object
100
AcDbLine
 10
11.88322758844087
 20
6.831999999999999
 30
0.0
 11
11.28322758844087
 21
6.831999999999999
 31
0.0
  0
LINE
  5
7A6
330
18
100
AcDbEntity
  8
Object
100
AcDbLine
 10
11.88322758844087
 20
6.836999999999999
 30
0.0
 11
11.88322758844087
 21
6.842
 31
0.0
  0
LINE
  5
7A7
330
18
100
AcDbEntity
  8
Object
100
AcDbLine
 10
11.28322758844087
 20
6.842
 30
0.0
 11
11.28322758844087
 21
6.836999999999999
 31
0.0
  0
LINE
  5
7A8
330
18
100
AcDbEntity
  8
Object
100
AcDbLine
 10
11.28322758844087
 20
6.836999999999999
 30
0.0
 11
11.28322758844087
 21
6.834
 31
0.0
  0
LINE
  5
7A9
330
18
100
AcDbEntity
  8
Object
100
AcDbLine
 10
11.88322758844087
 20
6.836999999999999
 30
0.0
 11
11.88322758844087
 21
6.834
 31
0.0
  0
LINE
  5
7AA
330
18
100
AcDbEntity
  8
Object
100
AcDbLine
 10
11.88322758844087
 20
6.834
 30
0.0
 11
11.88322758844087
 21
6.831999999999999
 31
0.0
  0
LINE
  5
7AB
330
18
100
AcDbEntity
  8
Object
100
AcDbLine
 10
11.88322758844087
 20
6.831999999999999
 30
0.0
 11
11.28322758844087
 21
6.831999999999999
 31
0.0
  0
LINE
  5
7AC
330
18
100
AcDbEntity
  8
Object
100
AcDbLine
 10
11.28322758844087
 20
6.831999999999999
 30
0.0
 11
11.28322758844087
 21
6.834
 31
0.0
  0
LINE
  5
7B6
330
18
100
AcDbEntity
  8
Object
100
AcDbLine
 10
13.48322758844087
 20
6.836999999999999
 30
0.0
 11
13.48322758844087
 21
6.842
 31
0.0
  0
LINE
  5
7B7
330
18
100
AcDbEntity
  8
Object
100
AcDbLine
 10
12.88322758844087
 20
6.836999999999999
 30
0.0
 11
12.88322758844087
 21
6.842
 31
0.0
  0
LINE
  5
7B8
330
18
100
AcDbEntity
  8
Object
100
AcDbLine
 10
12.88322758844087
 20
6.842
 30
0.0
 11
13.48322758844087
 21
6.842
 31
0.0
  0
LINE
  5
7B9
330
18
100
AcDbEntity
  8
Object
100
AcDbLine
 10
12.88322758844087
 20
6.836999999999999
 30
0.0
 11
12.88322758844087
 21
6.834
 31
0.0
  0
LINE
  5
7BA
330
18
100
AcDbEntity
  8
Object
100
AcDbLine
 10
13.48322758844087
 20
6.836999999999999
 30
0.0
 11
13.48322758844087
 21
6.834
 31
0.0
  0
LINE
  5
7BB
330
18
100
AcDbEntity
  8
Object
100
AcDbLine
 10
13.48322758844087
 20
6.834
 30
0.0
 11
13.48322758844087
 21
6.831999999999999
 31
0.0
  0
LINE
  5
7BC
330
18
100
AcDbEntity
  8
Object
100
AcDbLine
 10
13.48322758844087
 20
6.831999999999999
 30
0.0
 11
12.88322758844087
 21
6.831999999999999
 31
0.0
  0
LINE
  5
7BD
330
18
100
AcDbEntity
  8
Object
100
AcDbLine
 10
12.88322758844087
 20
6.831999999999999
 30
0.0
 11
12.88322758844087
 21
6.834
 31
0.0
  0
LINE
  5
7BE
330
18
100
AcDbEntity
  8
Object
100
AcDbLine
 10
12.88322758844087
 20
6.831999999999999
 30
0.0
 11
13.48322758844087
 21
6.831999999999999
 31
0.0
  0
LINE
  5
7BF
330
18
100
AcDbEntity
  8
Object
100
AcDbLine
 10
13.48322758844087
 20
6.831999999999999
 30
0.0
 11
12.88322758844087
 21
6.831999999999999
 31
0.0
  0
LINE
  5
7C0
330
18
100
AcDbEntity
  8
Object
100
AcDbLine
 10
13.48022758844087
 20
6.894
 30
0.0
 11
13.47722758844087
 21
6.903
 31
0.0
  0
LINE
  5
7C1
330
18
100
AcDbEntity
  8
Object
100
AcDbLine
 10
13.47722758844087
 20
6.903
 30
0.0
 11
12.88922758844087
 21
6.903
 31
0.0
  0
LINE
  5
7C2
330
18
100
AcDbEntity
  8
Object
100
AcDbLine
 10
13.48022758844087
 20
6.894
 30
0.0
 11
13.48222758844087
 21
6.884999999999999
 31
0.0
  0
LINE
  5
7C3
330
18
100
AcDbEntity
  8
Object
100
AcDbLine
 10
13.48222758844087
 20
6.884999999999999
 30
0.0
 11
13.48322758844087
 21
6.876
 31
0.0
  0
LINE
  5
7C4
330
18
100
AcDbEntity
  8
Object
100
AcDbLine
 10
12.88322758844087
 20
6.876
 30
0.0
 11
12.88322758844087
 21
6.842
 31
0.0
  0
LINE
  5
7C5
330
18
100
AcDbEntity
  8
Object
100
AcDbLine
 10
13.48322758844087
 20
6.842
 30
0.0
 11
13.48322758844087
 21
6.876
 31
0.0
  0
LINE
  5
7C6
330
18
100
AcDbEntity
  8
Object
100
AcDbLine
 10
14.38322758844087
 20
5.017999999999999
 30
0.0
 11
8.783227588440874
 21
5.017999999999999
 31
0.0
  0
LINE
  5
7C7
330
18
100
AcDbEntity
  8
Object
100
AcDbLine
 10
14.38322758844087
 20
4.938
 30
0.0
 11
8.783227588440874
 21
4.937999999999999
 31
0.0
  0
LINE
  5
7C8
330
18
100
AcDbEntity
  8
Object
100
AcDbLine
 10
8.783227588440874
 20
5.017999999999999
 30
0.0
 11
8.783227588440874
 21
5.012
 31
0.0
  0
LINE
  5
7C9
330
18
100
AcDbEntity
  8
Object
100
AcDbLine
 10
8.783227588440874
 20
4.977999999999999
 30
0.0
 11
8.783227588440874
 21
4.998
 31
0.0
  0
LINE
  5
7CA
330
18
100
AcDbEntity
  8
Object
100
AcDbLine
 10
8.783227588440874
 20
4.998
 30
0.0
 11
8.783227588440874
 21
5.012
 31
0.0
  0
LINE
  5
7CB
330
18
100
AcDbEntity
  8
Object
100
AcDbLine
 10
14.38322758844087
 20
5.017999999999999
 30
0.0
 11
8.783227588440874
 21
5.017999999999999
 31
0.0
  0
LINE
  5
7CC
330
18
100
AcDbEntity
  8
Object
100
AcDbLine
 10
8.783227588440874
 20
4.958
 30
0.0
 11
8.783227588440874
 21
4.943
 31
0.0
  0
LINE
  5
7CD
330
18
100
AcDbEntity
  8
Object
100
AcDbLine
 10
14.38322758844087
 20
4.938
 30
0.0
 11
8.783227588440874
 21
4.937999999999999
 31
0.0
  0
LINE
  5
7CE
330
18
100
AcDbEntity
  8
Object
100
AcDbLine
 10
8.783227588440874
 20
4.937999999999999
 30
0.0
 11
8.783227588440874
 21
4.943
 31
0.0
  0
LINE
  5
7CF
330
18
100
AcDbEntity
  8
Object
100
AcDbLine
 10
8.783227588440874
 20
4.977999999999999
 30
0.0
 11
8.783227588440874
 21
4.958
 31
0.0
  0
LINE
  5
7D0
330
18
100
AcDbEntity
  8
Object
100
AcDbLine
 10
13.44522758844087
 20
6.937999999999999
 30
0.0
 11
13.45222758844087
 21
6.932999999999999
 31
0.0
  0
LINE
  5
7D1
330
18
100
AcDbEntity
  8
Object
100
AcDbLine
 10
13.45222758844087
 20
6.932999999999999
 30
0.0
 11
13.45922758844087
 21
6.927999999999999
 31
0.0
  0
LINE
  5
7D2
330
18
100
AcDbEntity
  8
Object
100
AcDbLine
 10
13.45922758844087
 20
6.927999999999999
 30
0.0
 11
13.46522758844087
 21
6.921
 31
0.0
  0
LINE
  5
7D3
330
18
100
AcDbEntity
  8
Object
100
AcDbLine
 10
13.46522758844087
 20
6.921
 30
0.0
 11
13.47122758844087
 21
6.913
 31
0.0
  0
LINE
  5
7D4
330
18
100
AcDbEntity
  8
Object
100
AcDbLine
 10
13.47122758844087
 20
6.913
 30
0.0
 11
13.47222758844087
 21
6.911999999999999
 31
0.0
  0
LINE
  5
7D5
330
18
100
AcDbEntity
  8
Object
100
AcDbLine
 10
13.47122758844087
 20
6.913
 30
0.0
 11
12.89622758844087
 21
6.913
 31
0.0
  0
LINE
  5
7D6
330
18
100
AcDbEntity
  8
Object
100
AcDbLine
 10
13.47222758844087
 20
6.911999999999999
 30
0.0
 11
13.47322758844087
 21
6.908999999999999
 31
0.0
  0
LINE
  5
7D7
330
18
100
AcDbEntity
  8
Object
100
AcDbLine
 10
13.47322758844087
 20
6.908999999999999
 30
0.0
 11
13.47522758844087
 21
6.906
 31
0.0
  0
LINE
  5
7D8
330
18
100
AcDbEntity
  8
Object
100
AcDbLine
 10
13.47522758844087
 20
6.906
 30
0.0
 11
13.47722758844087
 21
6.903
 31
0.0
  0
LINE
  5
7D9
330
18
100
AcDbEntity
  8
Object
100
AcDbLine
 10
9.483227588440874
 20
6.836999999999999
 30
0.0
 11
9.483227588440874
 21
6.842
 31
0.0
  0
LINE
  5
7DA
330
18
100
AcDbEntity
  8
Object
100
AcDbLine
 10
8.883227588440874
 20
6.842
 30
0.0
 11
8.883227588440874
 21
6.836999999999999
 31
0.0
  0
LINE
  5
7DB
330
18
100
AcDbEntity
  8
Object
100
AcDbLine
 10
8.883227588440874
 20
6.836999999999999
 30
0.0
 11
8.883227588440874
 21
6.834
 31
0.0
  0
LINE
  5
7DC
330
18
100
AcDbEntity
  8
Object
100
AcDbLine
 10
9.483227588440874
 20
6.836999999999999
 30
0.0
 11
9.483227588440874
 21
6.834
 31
0.0
  0
LINE
  5
7DD
330
18
100
AcDbEntity
  8
Object
100
AcDbLine
 10
9.483227588440874
 20
6.834
 30
0.0
 11
9.483227588440874
 21
6.831999999999999
 31
0.0
  0
LINE
  5
7DE
330
18
100
AcDbEntity
  8
Object
100
AcDbLine
 10
9.483227588440874
 20
6.831999999999999
 30
0.0
 11
8.883227588440874
 21
6.831999999999999
 31
0.0
  0
LINE
  5
7DF
330
18
100
AcDbEntity
  8
Object
100
AcDbLine
 10
8.883227588440874
 20
6.831999999999999
 30
0.0
 11
8.883227588440874
 21
6.834
 31
0.0
  0
LINE
  5
7E0
330
18
100
AcDbEntity
  8
Object
100
AcDbLine
 10
8.883227588440874
 20
6.831999999999999
 30
0.0
 11
9.483227588440874
 21
6.831999999999999
 31
0.0
  0
LINE
  5
7E1
330
18
100
AcDbEntity
  8
Object
100
AcDbLine
 10
9.483227588440874
 20
6.831999999999999
 30
0.0
 11
8.883227588440874
 21
6.831999999999999
 31
0.0
  0
LINE
  5
7E2
330
18
100
AcDbEntity
  8
Object
100
AcDbLine
 10
14.27222758844087
 20
6.911999999999999
 30
0.0
 11
14.27122758844087
 21
6.913
 31
0.0
  0
LINE
  5
7E3
330
18
100
AcDbEntity
  8
Object
100
AcDbLine
 10
14.27122758844087
 20
6.913
 30
0.0
 11
13.69622758844087
 21
6.913
 31
0.0
  0
LINE
  5
7E4
330
18
100
AcDbEntity
  8
Object
100
AcDbLine
 10
14.27222758844087
 20
6.911999999999999
 30
0.0
 11
14.27322758844087
 21
6.908999999999999
 31
0.0
  0
LINE
  5
7E5
330
18
100
AcDbEntity
  8
Object
100
AcDbLine
 10
14.27322758844087
 20
6.908999999999999
 30
0.0
 11
14.27522758844087
 21
6.906
 31
0.0
  0
LINE
  5
7E6
330
18
100
AcDbEntity
  8
Object
100
AcDbLine
 10
14.27522758844087
 20
6.906
 30
0.0
 11
14.27722758844087
 21
6.903
 31
0.0
  0
LINE
  5
7E7
330
18
100
AcDbEntity
  8
Object
100
AcDbLine
 10
14.27722758844087
 20
6.903
 30
0.0
 11
14.28022758844087
 21
6.894
 31
0.0
  0
LINE
  5
7E8
330
18
100
AcDbEntity
  8
Object
100
AcDbLine
 10
14.27722758844087
 20
6.903
 30
0.0
 11
13.69022758844087
 21
6.903
 31
0.0
  0
LINE
  5
7E9
330
18
100
AcDbEntity
  8
Object
100
AcDbLine
 10
14.28022758844087
 20
6.894
 30
0.0
 11
14.28322758844087
 21
6.884999999999999
 31
0.0
  0
LINE
  5
7EA
330
18
100
AcDbEntity
  8
Object
100
AcDbLine
 10
14.28322758844087
 20
6.884999999999999
 30
0.0
 11
14.28322758844087
 21
6.876
 31
0.0
  0
LINE
  5
7EB
330
18
100
AcDbEntity
  8
Object
100
AcDbLine
 10
13.68322758844087
 20
6.876
 30
0.0
 11
13.68322758844087
 21
6.842
 31
0.0
  0
LINE
  5
7EC
330
18
100
AcDbEntity
  8
Object
100
AcDbLine
 10
14.28322758844087
 20
6.876
 30
0.0
 11
14.28322758844087
 21
6.842
 31
0.0
  0
LINE
  5
7ED
330
18
100
AcDbEntity
  8
Object
100
AcDbLine
 10
14.28322758844087
 20
6.842
 30
0.0
 11
13.68322758844087
 21
6.842
 31
0.0
  0
LINE
  5
7EE
330
18
100
AcDbEntity
  8
Object
100
AcDbLine
 10
12.08322758844087
 20
6.831999999999999
 30
0.0
 11
12.68322758844087
 21
6.831999999999999
 31
0.0
  0
LINE
  5
7EF
330
18
100
AcDbEntity
  8
Object
100
AcDbLine
 10
12.68322758844087
 20
6.831999999999999
 30
0.0
 11
12.08322758844087
 21
6.831999999999999
 31
0.0
  0
LINE
  5
7F0
330
18
100
AcDbEntity
  8
Object
100
AcDbLine
 10
12.68322758844087
 20
6.836999999999999
 30
0.0
 11
12.68322758844087
 21
6.842
 31
0.0
  0
LINE
  5
7F1
330
18
100
AcDbEntity
  8
Object
100
AcDbLine
 10
12.08322758844087
 20
6.842
 30
0.0
 11
12.08322758844087
 21
6.836999999999999
 31
0.0
  0
LINE
  5
7F2
330
18
100
AcDbEntity
  8
Object
100
AcDbLine
 10
12.08322758844087
 20
6.836999999999999
 30
0.0
 11
12.08322758844087
 21
6.834
 31
0.0
  0
LINE
  5
7F3
330
18
100
AcDbEntity
  8
Object
100
AcDbLine
 10
12.68322758844087
 20
6.836999999999999
 30
0.0
 11
12.68322758844087
 21
6.834
 31
0.0
  0
LINE
  5
7F4
330
18
100
AcDbEntity
  8
Object
100
AcDbLine
 10
12.68322758844087
 20
6.834
 30
0.0
 11
12.68322758844087
 21
6.831999999999999
 31
0.0
  0
LINE
  5
7F5
330
18
100
AcDbEntity
  8
Object
100
AcDbLine
 10
12.68322758844087
 20
6.831999999999999
 30
0.0
 11
12.08322758844087
 21
6.831999999999999
 31
0.0
  0
LINE
  5
7F6
330
18
100
AcDbEntity
  8
Object
100
AcDbLine
 10
12.08322758844087
 20
6.831999999999999
 30
0.0
 11
12.08322758844087
 21
6.834
 31
0.0
  0
LINE
  5
7F7
330
18
100
AcDbEntity
  8
Object
100
AcDbLine
 10
10.24522758844087
 20
6.937999999999999
 30
0.0
 11
10.25222758844087
 21
6.932999999999999
 31
0.0
  0
LINE
  5
7F8
330
18
100
AcDbEntity
  8
Object
100
AcDbLine
 10
10.25222758844087
 20
6.932999999999999
 30
0.0
 11
10.25922758844087
 21
6.927999999999999
 31
0.0
  0
LINE
  5
7F9
330
18
100
AcDbEntity
  8
Object
100
AcDbLine
 10
10.25922758844087
 20
6.927999999999999
 30
0.0
 11
10.26522758844087
 21
6.921
 31
0.0
  0
LINE
  5
7FA
330
18
100
AcDbEntity
  8
Object
100
AcDbLine
 10
10.26522758844087
 20
6.921
 30
0.0
 11
10.27022758844087
 21
6.913
 31
0.0
  0
LINE
  5
7FB
330
18
100
AcDbEntity
  8
Object
100
AcDbLine
 10
10.27022758844087
 20
6.913
 30
0.0
 11
10.27122758844087
 21
6.911999999999999
 31
0.0
  0
LINE
  5
7FC
330
18
100
AcDbEntity
  8
Object
100
AcDbLine
 10
10.27022758844087
 20
6.913
 30
0.0
 11
9.695227588440873
 21
6.913
 31
0.0
  0
LINE
  5
7FD
330
18
100
AcDbEntity
  8
Object
100
AcDbLine
 10
10.27122758844087
 20
6.911999999999999
 30
0.0
 11
10.27322758844087
 21
6.908999999999999
 31
0.0
  0
LINE
  5
7FE
330
18
100
AcDbEntity
  8
Object
100
AcDbLine
 10
10.27322758844087
 20
6.908999999999999
 30
0.0
 11
10.27522758844087
 21
6.906
 31
0.0
  0
LINE
  5
7FF
330
18
100
AcDbEntity
  8
Object
100
AcDbLine
 10
10.27522758844087
 20
6.906
 30
0.0
 11
10.27622758844087
 21
6.903
 31
0.0
  0
LINE
  5
800
330
18
100
AcDbEntity
  8
Object
100
AcDbLine
 10
13.68322758844087
 20
6.831999999999999
 30
0.0
 11
14.28322758844087
 21
6.831999999999999
 31
0.0
  0
LINE
  5
801
330
18
100
AcDbEntity
  8
Object
100
AcDbLine
 10
14.28322758844087
 20
6.831999999999999
 30
0.0
 11
13.68322758844087
 21
6.831999999999999
 31
0.0
  0
LINE
  5
802
330
18
100
AcDbEntity
  8
Object
100
AcDbLine
 10
14.28322758844087
 20
6.836999999999999
 30
0.0
 11
14.28322758844087
 21
6.842
 31
0.0
  0
LINE
  5
803
330
18
100
AcDbEntity
  8
Object
100
AcDbLine
 10
13.68322758844087
 20
6.842
 30
0.0
 11
13.68322758844087
 21
6.836999999999999
 31
0.0
  0
LINE
  5
804
330
18
100
AcDbEntity
  8
Object
100
AcDbLine
 10
13.68322758844087
 20
6.836999999999999
 30
0.0
 11
13.68322758844087
 21
6.834
 31
0.0
  0
LINE
  5
805
330
18
100
AcDbEntity
  8
Object
100
AcDbLine
 10
14.28322758844087
 20
6.836999999999999
 30
0.0
 11
14.28322758844087
 21
6.834
 31
0.0
  0
LINE
  5
806
330
18
100
AcDbEntity
  8
Object
100
AcDbLine
 10
14.28322758844087
 20
6.834
 30
0.0
 11
14.28322758844087
 21
6.831999999999999
 31
0.0
  0
LINE
  5
807
330
18
100
AcDbEntity
  8
Object
100
AcDbLine
 10
14.28322758844087
 20
6.831999999999999
 30
0.0
 11
13.68322758844087
 21
6.831999999999999
 31
0.0
  0
LINE
  5
808
330
18
100
AcDbEntity
  8
Object
100
AcDbLine
 10
13.68322758844087
 20
6.831999999999999
 30
0.0
 11
13.68322758844087
 21
6.834
 31
0.0
  0
LINE
  5
812
330
18
100
AcDbEntity
  8
Object
100
AcDbLine
 10
4.526227588440875
 20
6.91
 30
0.0
 11
4.526227588440875
 21
6.900999999999999
 31
0.0
  0
LINE
  5
813
330
18
100
AcDbEntity
  8
Object
100
AcDbLine
 10
4.526227588440875
 20
6.900999999999999
 30
0.0
 11
4.526227588440875
 21
6.891
 31
0.0
  0
LINE
  5
814
330
18
100
AcDbEntity
  8
Object
100
AcDbLine
 10
4.526227588440875
 20
6.891
 30
0.0
 11
4.525227588440873
 21
6.882
 31
0.0
  0
LINE
  5
815
330
18
100
AcDbEntity
  8
Object
100
AcDbLine
 10
4.525227588440873
 20
6.882
 30
0.0
 11
4.523227588440875
 21
6.818999999999999
 31
0.0
  0
LINE
  5
816
330
18
100
AcDbEntity
  8
Object
100
AcDbLine
 10
4.523227588440875
 20
6.818999999999999
 30
0.0
 11
4.523227588440875
 21
6.809
 31
0.0
  0
LINE
  5
817
330
18
100
AcDbEntity
  8
Object
100
AcDbLine
 10
4.523227588440875
 20
6.809
 30
0.0
 11
4.523227588440875
 21
6.799999999999999
 31
0.0
  0
LINE
  5
818
330
18
100
AcDbEntity
  8
Object
100
AcDbLine
 10
4.523227588440875
 20
6.799999999999999
 30
0.0
 11
4.522227588440874
 21
6.793
 31
0.0
  0
LINE
  5
819
330
18
100
AcDbEntity
  8
Object
100
AcDbLine
 10
4.522227588440874
 20
6.793
 30
0.0
 11
4.522227588440874
 21
6.778999999999999
 31
0.0
  0
LINE
  5
81A
330
18
100
AcDbEntity
  8
Object
100
AcDbLine
 10
4.522227588440874
 20
6.778999999999999
 30
0.0
 11
4.521227588440874
 21
6.765
 31
0.0
  0
LINE
  5
81B
330
18
100
AcDbEntity
  8
Object
100
AcDbLine
 10
4.521227588440874
 20
6.765
 30
0.0
 11
4.521227588440874
 21
6.746999999999999
 31
0.0
  0
LINE
  5
81C
330
18
100
AcDbEntity
  8
Object
100
AcDbLine
 10
4.521227588440874
 20
6.746999999999999
 30
0.0
 11
4.520227588440874
 21
6.725
 31
0.0
  0
LINE
  5
81D
330
18
100
AcDbEntity
  8
Object
100
AcDbLine
 10
4.520227588440874
 20
6.725
 30
0.0
 11
4.520227588440874
 21
6.721
 31
0.0
  0
LINE
  5
81E
330
18
100
AcDbEntity
  8
Object
100
AcDbLine
 10
4.520227588440874
 20
6.721
 30
0.0
 11
4.519227588440874
 21
6.697
 31
0.0
  0
LINE
  5
81F
330
18
100
AcDbEntity
  8
Object
100
AcDbLine
 10
4.519227588440874
 20
6.697
 30
0.0
 11
4.518227588440874
 21
6.677
 31
0.0
  0
LINE
  5
820
330
18
100
AcDbEntity
  8
Object
100
AcDbLine
 10
4.518227588440874
 20
6.658999999999999
 30
0.0
 11
4.518227588440874
 21
6.663999999999999
 31
0.0
  0
LINE
  5
821
330
18
100
AcDbEntity
  8
Object
100
AcDbLine
 10
4.518227588440874
 20
6.663999999999999
 30
0.0
 11
4.518227588440874
 21
6.677
 31
0.0
  0
LINE
  5
822
330
18
100
AcDbEntity
  8
Object
100
AcDbLine
 10
4.518227588440874
 20
6.658999999999999
 30
0.0
 11
4.518227588440874
 21
6.655
 31
0.0
  0
LINE
  5
823
330
18
100
AcDbEntity
  8
Object
100
AcDbLine
 10
4.518227588440874
 20
6.655
 30
0.0
 11
4.517227588440874
 21
6.644
 31
0.0
  0
LINE
  5
824
330
18
100
AcDbEntity
  8
Object
100
AcDbLine
 10
4.517227588440874
 20
6.644
 30
0.0
 11
4.517227588440874
 21
6.629
 31
0.0
  0
LINE
  5
825
330
18
100
AcDbEntity
  8
Object
100
AcDbLine
 10
4.517227588440874
 20
6.629
 30
0.0
 11
4.472227588440874
 21
5.352
 31
0.0
  0
LINE
  5
826
330
18
100
AcDbEntity
  8
Object
100
AcDbLine
 10
4.472227588440874
 20
5.352
 30
0.0
 11
4.471227588440874
 21
5.336
 31
0.0
  0
LINE
  5
827
330
18
100
AcDbEntity
  8
Object
100
AcDbLine
 10
4.471227588440874
 20
5.336
 30
0.0
 11
4.471227588440874
 21
5.323999999999999
 31
0.0
  0
LINE
  5
828
330
18
100
AcDbEntity
  8
Object
100
AcDbLine
 10
4.471227588440874
 20
5.323999999999999
 30
0.0
 11
4.471227588440874
 21
5.32
 31
0.0
  0
LINE
  5
829
330
18
100
AcDbEntity
  8
Object
100
AcDbLine
 10
4.471227588440874
 20
5.32
 30
0.0
 11
4.461227588440874
 21
5.033
 31
0.0
  0
LINE
  5
82A
330
18
100
AcDbEntity
  8
Object
100
AcDbLine
 10
4.603227588440875
 20
6.817
 30
0.0
 11
4.604227588440874
 21
6.836999999999999
 31
0.0
  0
LINE
  5
82B
330
18
100
AcDbEntity
  8
Object
100
AcDbLine
 10
4.603227588440875
 20
6.796999999999999
 30
0.0
 11
4.603227588440875
 21
6.806
 31
0.0
  0
LINE
  5
82C
330
18
100
AcDbEntity
  8
Object
100
AcDbLine
 10
4.603227588440875
 20
6.806
 30
0.0
 11
4.603227588440875
 21
6.817
 31
0.0
  0
LINE
  5
82D
330
18
100
AcDbEntity
  8
Object
100
AcDbLine
 10
4.603227588440875
 20
6.796999999999999
 30
0.0
 11
4.602227588440873
 21
6.791
 31
0.0
  0
LINE
  5
82E
330
18
100
AcDbEntity
  8
Object
100
AcDbLine
 10
4.602227588440873
 20
6.791
 30
0.0
 11
4.602227588440873
 21
6.775999999999999
 31
0.0
  0
LINE
  5
82F
330
18
100
AcDbEntity
  8
Object
100
AcDbLine
 10
4.602227588440873
 20
6.775999999999999
 30
0.0
 11
4.601227588440874
 21
6.762
 31
0.0
  0
LINE
  5
830
330
18
100
AcDbEntity
  8
Object
100
AcDbLine
 10
4.601227588440874
 20
6.762
 30
0.0
 11
4.601227588440874
 21
6.743999999999999
 31
0.0
  0
LINE
  5
831
330
18
100
AcDbEntity
  8
Object
100
AcDbLine
 10
4.600227588440874
 20
6.717999999999999
 30
0.0
 11
4.600227588440874
 21
6.722999999999999
 31
0.0
  0
LINE
  5
832
330
18
100
AcDbEntity
  8
Object
100
AcDbLine
 10
4.600227588440874
 20
6.722999999999999
 30
0.0
 11
4.601227588440874
 21
6.743999999999999
 31
0.0
  0
LINE
  5
833
330
18
100
AcDbEntity
  8
Object
100
AcDbLine
 10
4.600227588440874
 20
6.717999999999999
 30
0.0
 11
4.599227588440874
 21
6.695
 31
0.0
  0
LINE
  5
834
330
18
100
AcDbEntity
  8
Object
100
AcDbLine
 10
4.599227588440874
 20
6.695
 30
0.0
 11
4.598227588440874
 21
6.674999999999999
 31
0.0
  0
LINE
  5
835
330
18
100
AcDbEntity
  8
Object
100
AcDbLine
 10
4.598227588440874
 20
6.656
 30
0.0
 11
4.598227588440874
 21
6.661
 31
0.0
  0
LINE
  5
836
330
18
100
AcDbEntity
  8
Object
100
AcDbLine
 10
4.598227588440874
 20
6.661
 30
0.0
 11
4.598227588440874
 21
6.674999999999999
 31
0.0
  0
LINE
  5
837
330
18
100
AcDbEntity
  8
Object
100
AcDbLine
 10
4.598227588440874
 20
6.656
 30
0.0
 11
4.598227588440874
 21
6.652
 31
0.0
  0
LINE
  5
838
330
18
100
AcDbEntity
  8
Object
100
AcDbLine
 10
4.598227588440874
 20
6.652
 30
0.0
 11
4.597227588440874
 21
6.641
 31
0.0
  0
LINE
  5
839
330
18
100
AcDbEntity
  8
Object
100
AcDbLine
 10
4.597227588440874
 20
6.641
 30
0.0
 11
4.597227588440874
 21
6.626
 31
0.0
  0
LINE
  5
83A
330
18
100
AcDbEntity
  8
Object
100
AcDbLine
 10
4.597227588440874
 20
6.626
 30
0.0
 11
4.552227588440874
 21
5.349
 31
0.0
  0
LINE
  5
83B
330
18
100
AcDbEntity
  8
Object
100
AcDbLine
 10
4.552227588440874
 20
5.349
 30
0.0
 11
4.551227588440874
 21
5.333
 31
0.0
  0
LINE
  5
83C
330
18
100
AcDbEntity
  8
Object
100
AcDbLine
 10
4.551227588440874
 20
5.333
 30
0.0
 11
4.551227588440874
 21
5.322
 31
0.0
  0
LINE
  5
83D
330
18
100
AcDbEntity
  8
Object
100
AcDbLine
 10
4.551227588440874
 20
5.322
 30
0.0
 11
4.551227588440874
 21
5.317
 31
0.0
  0
LINE
  5
83E
330
18
100
AcDbEntity
  8
Object
100
AcDbLine
 10
4.551227588440874
 20
5.317
 30
0.0
 11
4.541227588440873
 21
5.028
 31
0.0
  0
LINE
  5
83F
330
18
100
AcDbEntity
  8
Object
100
AcDbLine
 10
4.522227588440874
 20
6.778999999999999
 30
0.0
 11
4.602227588440873
 21
6.775999999999999
 31
0.0
  0
LINE
  5
840
330
18
100
AcDbEntity
  8
Object
100
AcDbLine
 10
4.602227588440873
 20
6.775999999999999
 30
0.0
 11
4.601227588440874
 21
6.762
 31
0.0
  0
LINE
  5
841
330
18
100
AcDbEntity
  8
Object
100
AcDbLine
 10
4.522227588440874
 20
6.778999999999999
 30
0.0
 11
4.521227588440874
 21
6.765
 31
0.0
  0
LINE
  5
842
330
18
100
AcDbEntity
  8
Object
100
AcDbLine
 10
4.601227588440874
 20
6.743999999999999
 30
0.0
 11
4.601227588440874
 21
6.762
 31
0.0
  0
LINE
  5
843
330
18
100
AcDbEntity
  8
Object
100
AcDbLine
 10
4.521227588440874
 20
6.765
 30
0.0
 11
4.521227588440874
 21
6.746999999999999
 31
0.0
  0
LINE
  5
844
330
18
100
AcDbEntity
  8
Object
100
AcDbLine
 10
4.521227588440874
 20
6.746999999999999
 30
0.0
 11
4.520227588440874
 21
6.725
 31
0.0
  0
LINE
  5
845
330
18
100
AcDbEntity
  8
Object
100
AcDbLine
 10
4.600227588440874
 20
6.722999999999999
 30
0.0
 11
4.601227588440874
 21
6.743999999999999
 31
0.0
  0
LINE
  5
846
330
18
100
AcDbEntity
  8
Object
100
AcDbLine
 10
4.599227588440874
 20
6.695
 30
0.0
 11
4.600227588440874
 21
6.717999999999999
 31
0.0
  0
LINE
  5
847
330
18
100
AcDbEntity
  8
Object
100
AcDbLine
 10
4.519227588440874
 20
6.697
 30
0.0
 11
4.520227588440874
 21
6.721
 31
0.0
  0
LINE
  5
848
330
18
100
AcDbEntity
  8
Object
100
AcDbLine
 10
4.520227588440874
 20
6.721
 30
0.0
 11
4.600227588440874
 21
6.717999999999999
 31
0.0
  0
LINE
  5
849
330
18
100
AcDbEntity
  8
Object
100
AcDbLine
 10
4.519227588440874
 20
6.697
 30
0.0
 11
4.518227588440874
 21
6.677
 31
0.0
  0
LINE
  5
84A
330
18
100
AcDbEntity
  8
Object
100
AcDbLine
 10
4.598227588440874
 20
6.674999999999999
 30
0.0
 11
4.599227588440874
 21
6.695
 31
0.0
  0
LINE
  5
84B
330
18
100
AcDbEntity
  8
Object
100
AcDbLine
 10
4.518227588440874
 20
6.663999999999999
 30
0.0
 11
4.518227588440874
 21
6.658999999999999
 31
0.0
  0
LINE
  5
84C
330
18
100
AcDbEntity
  8
Object
100
AcDbLine
 10
4.598227588440874
 20
6.661
 30
0.0
 11
4.598227588440874
 21
6.656
 31
0.0
  0
LINE
  5
84D
330
18
100
AcDbEntity
  8
Object
100
AcDbLine
 10
4.598227588440874
 20
6.656
 30
0.0
 11
4.518227588440874
 21
6.658999999999999
 31
0.0
  0
LINE
  5
84E
330
18
100
AcDbEntity
  8
Object
100
AcDbLine
 10
4.598227588440874
 20
6.661
 30
0.0
 11
4.598227588440874
 21
6.674999999999999
 31
0.0
  0
LINE
  5
84F
330
18
100
AcDbEntity
  8
Object
100
AcDbLine
 10
4.518227588440874
 20
6.677
 30
0.0
 11
4.518227588440874
 21
6.663999999999999
 31
0.0
  0
LINE
  5
850
330
18
100
AcDbEntity
  8
Object
100
AcDbLine
 10
4.554227588440874
 20
6.937999999999999
 30
0.0
 11
4.558227588440875
 21
6.937999999999999
 31
0.0
  0
LINE
  5
851
330
18
100
AcDbEntity
  8
Object
100
AcDbLine
 10
4.558227588440875
 20
6.937999999999999
 30
0.0
 11
4.562227588440874
 21
6.937999999999999
 31
0.0
  0
LINE
  5
852
330
18
100
AcDbEntity
  8
Object
100
AcDbLine
 10
4.562227588440874
 20
6.937999999999999
 30
0.0
 11
4.587227588440875
 21
6.932999999999999
 31
0.0
  0
LINE
  5
853
330
18
100
AcDbEntity
  8
Object
100
AcDbLine
 10
4.554227588440874
 20
6.937999999999999
 30
0.0
 11
4.547227588440874
 21
6.937
 31
0.0
  0
LINE
  5
854
330
18
100
AcDbEntity
  8
Object
100
AcDbLine
 10
4.547227588440874
 20
6.937
 30
0.0
 11
4.537227588440874
 21
6.931
 31
0.0
  0
LINE
  5
855
330
18
100
AcDbEntity
  8
Object
100
AcDbLine
 10
4.587227588440875
 20
6.932999999999999
 30
0.0
 11
4.620227588440874
 21
6.927999999999999
 31
0.0
  0
LINE
  5
856
330
18
100
AcDbEntity
  8
Object
100
AcDbLine
 10
4.620227588440874
 20
6.927999999999999
 30
0.0
 11
4.659227588440874
 21
6.921
 31
0.0
  0
LINE
  5
857
330
18
100
AcDbEntity
  8
Object
100
AcDbLine
 10
4.537227588440874
 20
6.931
 30
0.0
 11
4.530227588440874
 21
6.921999999999999
 31
0.0
  0
LINE
  5
858
330
18
100
AcDbEntity
  8
Object
100
AcDbLine
 10
4.703227588440874
 20
6.913
 30
0.0
 11
4.659227588440874
 21
6.921
 31
0.0
  0
LINE
  5
859
330
18
100
AcDbEntity
  8
Object
100
AcDbLine
 10
4.711227588440874
 20
6.894
 30
0.0
 11
4.711227588440874
 21
6.903
 31
0.0
  0
LINE
  5
85A
330
18
100
AcDbEntity
  8
Object
100
AcDbLine
 10
4.526227588440875
 20
6.900999999999999
 30
0.0
 11
4.526227588440875
 21
6.91
 31
0.0
  0
LINE
  5
85B
330
18
100
AcDbEntity
  8
Object
100
AcDbLine
 10
4.526227588440875
 20
6.91
 30
0.0
 11
4.530227588440874
 21
6.921999999999999
 31
0.0
  0
LINE
  5
85C
330
18
100
AcDbEntity
  8
Object
100
AcDbLine
 10
4.703227588440874
 20
6.913
 30
0.0
 11
4.707227588440874
 21
6.911999999999999
 31
0.0
  0
LINE
  5
85D
330
18
100
AcDbEntity
  8
Object
100
AcDbLine
 10
4.707227588440874
 20
6.911999999999999
 30
0.0
 11
4.709227588440874
 21
6.908999999999999
 31
0.0
  0
LINE
  5
85E
330
18
100
AcDbEntity
  8
Object
100
AcDbLine
 10
4.709227588440874
 20
6.908999999999999
 30
0.0
 11
4.711227588440874
 21
6.906
 31
0.0
  0
LINE
  5
85F
330
18
100
AcDbEntity
  8
Object
100
AcDbLine
 10
4.711227588440874
 20
6.906
 30
0.0
 11
4.711227588440874
 21
6.903
 31
0.0
  0
LINE
  5
860
330
18
100
AcDbEntity
  8
Object
100
AcDbLine
 10
4.526227588440875
 20
6.900999999999999
 30
0.0
 11
4.526227588440875
 21
6.891
 31
0.0
  0
LINE
  5
861
330
18
100
AcDbEntity
  8
Object
100
AcDbLine
 10
4.711227588440874
 20
6.894
 30
0.0
 11
4.711227588440874
 21
6.884999999999999
 31
0.0
  0
LINE
  5
862
330
18
100
AcDbEntity
  8
Object
100
AcDbLine
 10
4.711227588440874
 20
6.884999999999999
 30
0.0
 11
4.710227588440874
 21
6.876
 31
0.0
  0
LINE
  5
863
330
18
100
AcDbEntity
  8
Object
100
AcDbLine
 10
4.710227588440874
 20
6.876
 30
0.0
 11
4.525227588440873
 21
6.882
 31
0.0
  0
LINE
  5
864
330
18
100
AcDbEntity
  8
Object
100
AcDbLine
 10
4.525227588440873
 20
6.882
 30
0.0
 11
4.526227588440875
 21
6.891
 31
0.0
  0
LINE
  5
865
330
18
100
AcDbEntity
  8
Object
100
AcDbLine
 10
4.517227588440874
 20
6.629
 30
0.0
 11
4.597227588440874
 21
6.626
 31
0.0
  0
LINE
  5
866
330
18
100
AcDbEntity
  8
Object
100
AcDbLine
 10
4.597227588440874
 20
6.626
 30
0.0
 11
4.552227588440874
 21
5.349
 31
0.0
  0
LINE
  5
867
330
18
100
AcDbEntity
  8
Object
100
AcDbLine
 10
4.517227588440874
 20
6.629
 30
0.0
 11
4.472227588440874
 21
5.352
 31
0.0
  0
LINE
  5
868
330
18
100
AcDbEntity
  8
Object
100
AcDbLine
 10
4.461227588440874
 20
5.033
 30
0.0
 11
4.480227588440873
 21
5.033
 31
0.0
  0
LINE
  5
869
330
18
100
AcDbEntity
  8
Object
100
AcDbLine
 10
4.603227588440875
 20
6.796999999999999
 30
0.0
 11
4.603227588440875
 21
6.806
 31
0.0
  0
LINE
  5
86A
330
18
100
AcDbEntity
  8
Object
100
AcDbLine
 10
4.523227588440875
 20
6.799999999999999
 30
0.0
 11
4.523227588440875
 21
6.809
 31
0.0
  0
LINE
  5
86B
330
18
100
AcDbEntity
  8
Object
100
AcDbLine
 10
4.523227588440875
 20
6.809
 30
0.0
 11
4.523227588440875
 21
6.818999999999999
 31
0.0
  0
LINE
  5
86C
330
18
100
AcDbEntity
  8
Object
100
AcDbLine
 10
4.523227588440875
 20
6.818999999999999
 30
0.0
 11
4.603227588440875
 21
6.817
 31
0.0
  0
LINE
  5
86D
330
18
100
AcDbEntity
  8
Object
100
AcDbLine
 10
4.603227588440875
 20
6.817
 30
0.0
 11
4.603227588440875
 21
6.806
 31
0.0
  0
LINE
  5
86E
330
18
100
AcDbEntity
  8
Object
100
AcDbLine
 10
4.523227588440875
 20
6.799999999999999
 30
0.0
 11
4.522227588440874
 21
6.793
 31
0.0
  0
LINE
  5
86F
330
18
100
AcDbEntity
  8
Object
100
AcDbLine
 10
4.602227588440873
 20
6.791
 30
0.0
 11
4.603227588440875
 21
6.796999999999999
 31
0.0
  0
LINE
  5
870
330
18
100
AcDbEntity
  8
Object
100
AcDbLine
 10
4.518227588440874
 20
6.658999999999999
 30
0.0
 11
4.518227588440874
 21
6.655
 31
0.0
  0
LINE
  5
871
330
18
100
AcDbEntity
  8
Object
100
AcDbLine
 10
4.598227588440874
 20
6.656
 30
0.0
 11
4.598227588440874
 21
6.652
 31
0.0
  0
LINE
  5
872
330
18
100
AcDbEntity
  8
Object
100
AcDbLine
 10
4.598227588440874
 20
6.652
 30
0.0
 11
4.597227588440874
 21
6.641
 31
0.0
  0
LINE
  5
873
330
18
100
AcDbEntity
  8
Object
100
AcDbLine
 10
4.518227588440874
 20
6.655
 30
0.0
 11
4.517227588440874
 21
6.644
 31
0.0
  0
LINE
  5
874
330
18
100
AcDbEntity
  8
Object
100
AcDbLine
 10
4.517227588440874
 20
6.644
 30
0.0
 11
4.517227588440874
 21
6.629
 31
0.0
  0
LINE
  5
875
330
18
100
AcDbEntity
  8
Object
100
AcDbLine
 10
4.597227588440874
 20
6.626
 30
0.0
 11
4.597227588440874
 21
6.641
 31
0.0
  0
LINE
  5
876
330
18
100
AcDbEntity
  8
Object
100
AcDbLine
 10
4.561227588440874
 20
5.017999999999999
 30
0.0
 11
4.581227588440874
 21
5.012
 31
0.0
  0
LINE
  5
877
330
18
100
AcDbEntity
  8
Object
100
AcDbLine
 10
4.581227588440874
 20
5.012
 30
0.0
 11
4.595227588440874
 21
4.998
 31
0.0
  0
LINE
  5
878
330
18
100
AcDbEntity
  8
Object
100
AcDbLine
 10
4.595227588440874
 20
4.998
 30
0.0
 11
4.601227588440874
 21
4.977999999999999
 31
0.0
  0
LINE
  5
879
330
18
100
AcDbEntity
  8
Object
100
AcDbLine
 10
4.601227588440874
 20
4.977999999999999
 30
0.0
 11
4.595227588440874
 21
4.958
 31
0.0
  0
LINE
  5
87A
330
18
100
AcDbEntity
  8
Object
100
AcDbLine
 10
4.595227588440874
 20
4.958
 30
0.0
 11
4.581227588440874
 21
4.943
 31
0.0
  0
LINE
  5
87B
330
18
100
AcDbEntity
  8
Object
100
AcDbLine
 10
4.581227588440874
 20
4.943
 30
0.0
 11
4.561227588440874
 21
4.937999999999999
 31
0.0
  0
LINE
  5
87C
330
18
100
AcDbEntity
  8
Object
100
AcDbLine
 10
4.561227588440874
 20
5.017999999999999
 30
0.0
 11
4.551227588440874
 21
5.017999999999999
 31
0.0
  0
LINE
  5
87D
330
18
100
AcDbEntity
  8
Object
100
AcDbLine
 10
4.551227588440874
 20
5.017999999999999
 30
0.0
 11
4.547227588440874
 21
5.019
 31
0.0
  0
LINE
  5
87E
330
18
100
AcDbEntity
  8
Object
100
AcDbLine
 10
4.541227588440873
 20
5.028
 30
0.0
 11
4.541227588440873
 21
5.024
 31
0.0
  0
LINE
  5
87F
330
18
100
AcDbEntity
  8
Object
100
AcDbLine
 10
4.541227588440873
 20
5.024
 30
0.0
 11
4.544227588440874
 21
5.020999999999999
 31
0.0
  0
LINE
  5
880
330
18
100
AcDbEntity
  8
Object
100
AcDbLine
 10
4.544227588440874
 20
5.020999999999999
 30
0.0
 11
4.547227588440874
 21
5.019
 31
0.0
  0
LINE
  5
881
330
18
100
AcDbEntity
  8
Object
100
AcDbLine
 10
4.480227588440873
 20
5.033
 30
0.0
 11
4.480227588440873
 21
5.017999999999999
 31
0.0
  0
LINE
  5
882
330
18
100
AcDbEntity
  8
Object
100
AcDbLine
 10
4.541227588440873
 20
5.028
 30
0.0
 11
4.551227588440874
 21
5.317
 31
0.0
  0
LINE
  5
883
330
18
100
AcDbEntity
  8
Object
100
AcDbLine
 10
4.551227588440874
 20
5.317
 30
0.0
 11
4.471227588440874
 21
5.32
 31
0.0
  0
LINE
  5
884
330
18
100
AcDbEntity
  8
Object
100
AcDbLine
 10
4.480227588440873
 20
5.033
 30
0.0
 11
4.461227588440874
 21
5.033
 31
0.0
  0
LINE
  5
885
330
18
100
AcDbEntity
  8
Object
100
AcDbLine
 10
4.461227588440874
 20
5.033
 30
0.0
 11
4.471227588440874
 21
5.32
 31
0.0
  0
LINE
  5
886
330
18
100
AcDbEntity
  8
Object
100
AcDbLine
 10
2.595227588440874
 20
5.32
 30
0.0
 11
2.606227588440874
 21
5.033
 31
0.0
  0
LINE
  5
887
330
18
100
AcDbEntity
  8
Object
100
AcDbLine
 10
2.606227588440874
 20
5.033
 30
0.0
 11
2.586227588440874
 21
5.033
 31
0.0
  0
LINE
  5
888
330
18
100
AcDbEntity
  8
Object
100
AcDbLine
 10
2.586227588440874
 20
5.033
 30
0.0
 11
2.586227588440874
 21
5.017999999999999
 31
0.0
  0
LINE
  5
889
330
18
100
AcDbEntity
  8
Object
100
AcDbLine
 10
2.526227588440874
 20
5.028
 30
0.0
 11
2.525227588440874
 21
5.024
 31
0.0
  0
LINE
  5
88A
330
18
100
AcDbEntity
  8
Object
100
AcDbLine
 10
2.525227588440874
 20
5.024
 30
0.0
 11
2.523227588440874
 21
5.020999999999999
 31
0.0
  0
LINE
  5
88B
330
18
100
AcDbEntity
  8
Object
100
AcDbLine
 10
2.523227588440874
 20
5.020999999999999
 30
0.0
 11
2.520227588440874
 21
5.019
 31
0.0
  0
LINE
  5
88C
330
18
100
AcDbEntity
  8
Object
100
AcDbLine
 10
2.526227588440874
 20
5.028
 30
0.0
 11
2.516227588440874
 21
5.317
 31
0.0
  0
LINE
  5
88D
330
18
100
AcDbEntity
  8
Object
100
AcDbLine
 10
2.516227588440874
 20
5.317
 30
0.0
 11
2.595227588440874
 21
5.32
 31
0.0
  0
LINE
  5
88E
330
18
100
AcDbEntity
  8
Object
100
AcDbLine
 10
2.516227588440874
 20
5.017999999999999
 30
0.0
 11
2.506227588440874
 21
5.017999999999999
 31
0.0
  0
LINE
  5
88F
330
18
100
AcDbEntity
  8
Object
100
AcDbLine
 10
2.506227588440874
 20
4.937999999999999
 30
0.0
 11
4.561227588440874
 21
4.937999999999999
 31
0.0
  0
LINE
  5
890
330
18
100
AcDbEntity
  8
Object
100
AcDbLine
 10
2.520227588440874
 20
5.019
 30
0.0
 11
2.516227588440874
 21
5.017999999999999
 31
0.0
  0
LINE
  5
891
330
18
100
AcDbEntity
  8
Object
100
AcDbLine
 10
4.480227588440873
 20
5.017999999999999
 30
0.0
 11
2.586227588440874
 21
5.017999999999999
 31
0.0
  0
LINE
  5
892
330
18
100
AcDbEntity
  8
Object
100
AcDbLine
 10
2.486227588440874
 20
4.943
 30
0.0
 11
2.506227588440874
 21
4.937999999999999
 31
0.0
  0
LINE
  5
893
330
18
100
AcDbEntity
  8
Object
100
AcDbLine
 10
2.471227588440874
 20
4.998
 30
0.0
 11
2.486227588440874
 21
5.012
 31
0.0
  0
LINE
  5
894
330
18
100
AcDbEntity
  8
Object
100
AcDbLine
 10
2.486227588440874
 20
5.012
 30
0.0
 11
2.506227588440874
 21
5.017999999999999
 31
0.0
  0
LINE
  5
895
330
18
100
AcDbEntity
  8
Object
100
AcDbLine
 10
2.486227588440874
 20
4.943
 30
0.0
 11
2.471227588440874
 21
4.958
 31
0.0
  0
LINE
  5
896
330
18
100
AcDbEntity
  8
Object
100
AcDbLine
 10
2.471227588440874
 20
4.958
 30
0.0
 11
2.466227588440874
 21
4.977999999999999
 31
0.0
  0
LINE
  5
897
330
18
100
AcDbEntity
  8
Object
100
AcDbLine
 10
2.466227588440874
 20
4.977999999999999
 30
0.0
 11
2.471227588440874
 21
4.998
 31
0.0
  0
LINE
  5
898
330
18
100
AcDbEntity
  8
Object
100
AcDbLine
 10
4.708227588440874
 20
6.836999999999999
 30
0.0
 11
4.704227588440874
 21
6.834
 31
0.0
  0
LINE
  5
899
330
18
100
AcDbEntity
  8
Object
100
AcDbLine
 10
4.704227588440874
 20
6.834
 30
0.0
 11
4.699227588440874
 21
6.831999999999999
 31
0.0
  0
LINE
  5
89A
330
18
100
AcDbEntity
  8
Object
100
AcDbLine
 10
4.699227588440874
 20
6.831999999999999
 30
0.0
 11
4.698227588440874
 21
6.831999999999999
 31
0.0
  0
LINE
  5
89B
330
18
100
AcDbEntity
  8
Object
100
AcDbLine
 10
4.710227588440874
 20
6.876
 30
0.0
 11
4.709227588440874
 21
6.842
 31
0.0
  0
LINE
  5
89C
330
18
100
AcDbEntity
  8
Object
100
AcDbLine
 10
4.709227588440874
 20
6.842
 30
0.0
 11
4.708227588440874
 21
6.836999999999999
 31
0.0
  0
LINE
  5
89D
330
18
100
AcDbEntity
  8
Object
100
AcDbLine
 10
4.698227588440874
 20
6.831999999999999
 30
0.0
 11
4.697227588440874
 21
6.831999999999999
 31
0.0
  0
LINE
  5
89E
330
18
100
AcDbEntity
  8
Object
100
AcDbLine
 10
4.697227588440874
 20
6.831999999999999
 30
0.0
 11
4.616227588440874
 21
6.847
 31
0.0
  0
LINE
  5
89F
330
18
100
AcDbEntity
  8
Object
100
AcDbLine
 10
4.616227588440874
 20
6.847
 30
0.0
 11
4.611227588440874
 21
6.847
 31
0.0
  0
LINE
  5
8A0
330
18
100
AcDbEntity
  8
Object
100
AcDbLine
 10
4.611227588440874
 20
6.847
 30
0.0
 11
4.608227588440874
 21
6.844999999999999
 31
0.0
  0
LINE
  5
8A1
330
18
100
AcDbEntity
  8
Object
100
AcDbLine
 10
4.608227588440874
 20
6.844999999999999
 30
0.0
 11
4.605227588440873
 21
6.842
 31
0.0
  0
LINE
  5
8A2
330
18
100
AcDbEntity
  8
Object
100
AcDbLine
 10
4.605227588440873
 20
6.842
 30
0.0
 11
4.604227588440874
 21
6.836999999999999
 31
0.0
  0
LINE
  5
8A3
330
18
100
AcDbEntity
  8
Object
100
AcDbLine
 10
4.525227588440873
 20
6.882
 30
0.0
 11
4.523227588440875
 21
6.818999999999999
 31
0.0
  0
LINE
  5
8A4
330
18
100
AcDbEntity
  8
Object
100
AcDbLine
 10
4.603227588440875
 20
6.817
 30
0.0
 11
4.604227588440874
 21
6.836999999999999
 31
0.0
  0
LINE
  5
8A5
330
18
100
AcDbEntity
  8
Object
100
AcDbLine
 10
4.522227588440874
 20
6.778999999999999
 30
0.0
 11
4.522227588440874
 21
6.793
 31
0.0
  0
LINE
  5
8A6
330
18
100
AcDbEntity
  8
Object
100
AcDbLine
 10
4.522227588440874
 20
6.793
 30
0.0
 11
4.602227588440873
 21
6.791
 31
0.0
  0
LINE
  5
8A7
330
18
100
AcDbEntity
  8
Object
100
AcDbLine
 10
4.602227588440873
 20
6.791
 30
0.0
 11
4.602227588440873
 21
6.775999999999999
 31
0.0
  0
LINE
  5
8A8
330
18
100
AcDbEntity
  8
Object
100
AcDbLine
 10
4.551227588440874
 20
5.322
 30
0.0
 11
4.551227588440874
 21
5.333
 31
0.0
  0
LINE
  5
8A9
330
18
100
AcDbEntity
  8
Object
100
AcDbLine
 10
4.471227588440874
 20
5.323999999999999
 30
0.0
 11
4.471227588440874
 21
5.336
 31
0.0
  0
LINE
  5
8AA
330
18
100
AcDbEntity
  8
Object
100
AcDbLine
 10
4.471227588440874
 20
5.336
 30
0.0
 11
4.472227588440874
 21
5.352
 31
0.0
  0
LINE
  5
8AB
330
18
100
AcDbEntity
  8
Object
100
AcDbLine
 10
4.472227588440874
 20
5.352
 30
0.0
 11
4.552227588440874
 21
5.349
 31
0.0
  0
LINE
  5
8AC
330
18
100
AcDbEntity
  8
Object
100
AcDbLine
 10
4.552227588440874
 20
5.349
 30
0.0
 11
4.551227588440874
 21
5.333
 31
0.0
  0
LINE
  5
8AD
330
18
100
AcDbEntity
  8
Object
100
AcDbLine
 10
4.471227588440874
 20
5.323999999999999
 30
0.0
 11
4.471227588440874
 21
5.32
 31
0.0
  0
LINE
  5
8AE
330
18
100
AcDbEntity
  8
Object
100
AcDbLine
 10
4.551227588440874
 20
5.317
 30
0.0
 11
4.551227588440874
 21
5.322
 31
0.0
  0
LINE
  5
8AF
330
18
100
AcDbEntity
  8
Object
100
AcDbLine
 10
4.518227588440874
 20
6.658999999999999
 30
0.0
 11
4.598227588440874
 21
6.656
 31
0.0
  0
LINE
  5
8B0
330
18
100
AcDbEntity
  8
Object
100
AcDbLine
 10
4.562227588440874
 20
6.937999999999999
 30
0.0
 11
4.558227588440875
 21
6.937999999999999
 31
0.0
  0
LINE
  5
8B1
330
18
100
AcDbEntity
  8
Object
100
AcDbLine
 10
4.558227588440875
 20
6.937999999999999
 30
0.0
 11
4.554227588440874
 21
6.937999999999999
 31
0.0
  0
LINE
  5
8B2
330
18
100
AcDbEntity
  8
Object
100
AcDbLine
 10
4.554227588440874
 20
6.937999999999999
 30
0.0
 11
4.547227588440874
 21
6.937
 31
0.0
  0
LINE
  5
8B3
330
18
100
AcDbEntity
  8
Object
100
AcDbLine
 10
4.547227588440874
 20
6.937
 30
0.0
 11
4.537227588440874
 21
6.931
 31
0.0
  0
LINE
  5
8B4
330
18
100
AcDbEntity
  8
Object
100
AcDbLine
 10
4.537227588440874
 20
6.931
 30
0.0
 11
4.530227588440874
 21
6.921999999999999
 31
0.0
  0
LINE
  5
8B5
330
18
100
AcDbEntity
  8
Object
100
AcDbLine
 10
4.530227588440874
 20
6.921999999999999
 30
0.0
 11
4.526227588440875
 21
6.91
 31
0.0
  0
LINE
  5
8B6
330
18
100
AcDbEntity
  8
Object
100
AcDbLine
 10
4.520227588440874
 20
6.721
 30
0.0
 11
4.520227588440874
 21
6.725
 31
0.0
  0
LINE
  5
8B7
330
18
100
AcDbEntity
  8
Object
100
AcDbLine
 10
4.520227588440874
 20
6.725
 30
0.0
 11
4.600227588440874
 21
6.722999999999999
 31
0.0
  0
LINE
  5
8B8
330
18
100
AcDbEntity
  8
Object
100
AcDbLine
 10
4.600227588440874
 20
6.722999999999999
 30
0.0
 11
4.600227588440874
 21
6.717999999999999
 31
0.0
  0
LINE
  5
8B9
330
18
100
AcDbEntity
  8
Object
100
AcDbLine
 10
4.551227588440874
 20
5.317
 30
0.0
 11
4.471227588440874
 21
5.32
 31
0.0
  0
LINE
  5
8BA
330
18
100
AcDbEntity
  8
Object
100
AcDbLine
 10
4.616227588440874
 20
6.847
 30
0.0
 11
4.611227588440874
 21
6.847
 31
0.0
  0
LINE
  5
8BB
330
18
100
AcDbEntity
  8
Object
100
AcDbLine
 10
4.611227588440874
 20
6.847
 30
0.0
 11
4.608227588440874
 21
6.844999999999999
 31
0.0
  0
LINE
  5
8BC
330
18
100
AcDbEntity
  8
Object
100
AcDbLine
 10
4.608227588440874
 20
6.844999999999999
 30
0.0
 11
4.605227588440873
 21
6.842
 31
0.0
  0
LINE
  5
8BD
330
18
100
AcDbEntity
  8
Object
100
AcDbLine
 10
4.605227588440873
 20
6.842
 30
0.0
 11
4.604227588440874
 21
6.836999999999999
 31
0.0
  0
LINE
  5
8BE
330
18
100
AcDbEntity
  8
Object
100
AcDbLine
 10
4.551227588440874
 20
5.017999999999999
 30
0.0
 11
4.547227588440874
 21
5.019
 31
0.0
  0
LINE
  5
8BF
330
18
100
AcDbEntity
  8
Object
100
AcDbLine
 10
4.547227588440874
 20
5.019
 30
0.0
 11
4.544227588440874
 21
5.020999999999999
 31
0.0
  0
LINE
  5
8C0
330
18
100
AcDbEntity
  8
Object
100
AcDbLine
 10
4.544227588440874
 20
5.020999999999999
 30
0.0
 11
4.541227588440873
 21
5.024
 31
0.0
  0
LINE
  5
8C1
330
18
100
AcDbEntity
  8
Object
100
AcDbLine
 10
4.541227588440873
 20
5.024
 30
0.0
 11
4.541227588440873
 21
5.028
 31
0.0
  0
LINE
  5
8C2
330
18
100
AcDbEntity
  8
Object
100
AcDbLine
 10
4.703227588440874
 20
6.913
 30
0.0
 11
4.659227588440874
 21
6.921
 31
0.0
  0
LINE
  5
8C3
330
18
100
AcDbEntity
  8
Object
100
AcDbLine
 10
4.659227588440874
 20
6.921
 30
0.0
 11
4.620227588440874
 21
6.927999999999999
 31
0.0
  0
LINE
  5
8C4
330
18
100
AcDbEntity
  8
Object
100
AcDbLine
 10
4.620227588440874
 20
6.927999999999999
 30
0.0
 11
4.587227588440875
 21
6.932999999999999
 31
0.0
  0
LINE
  5
8C5
330
18
100
AcDbEntity
  8
Object
100
AcDbLine
 10
4.587227588440875
 20
6.932999999999999
 30
0.0
 11
4.562227588440874
 21
6.937999999999999
 31
0.0
  0
LINE
  5
8C6
330
18
100
AcDbEntity
  8
Object
100
AcDbLine
 10
4.711227588440874
 20
6.903
 30
0.0
 11
4.711227588440874
 21
6.894
 31
0.0
  0
LINE
  5
8C7
330
18
100
AcDbEntity
  8
Object
100
AcDbLine
 10
4.711227588440874
 20
6.894
 30
0.0
 11
4.711227588440874
 21
6.884999999999999
 31
0.0
  0
LINE
  5
8C8
330
18
100
AcDbEntity
  8
Object
100
AcDbLine
 10
4.711227588440874
 20
6.884999999999999
 30
0.0
 11
4.710227588440874
 21
6.876
 31
0.0
  0
LINE
  5
8C9
330
18
100
AcDbEntity
  8
Object
100
AcDbLine
 10
4.710227588440874
 20
6.876
 30
0.0
 11
4.709227588440874
 21
6.842
 31
0.0
  0
LINE
  5
8CA
330
18
100
AcDbEntity
  8
Object
100
AcDbLine
 10
4.711227588440874
 20
6.903
 30
0.0
 11
4.711227588440874
 21
6.906
 31
0.0
  0
LINE
  5
8CB
330
18
100
AcDbEntity
  8
Object
100
AcDbLine
 10
4.711227588440874
 20
6.906
 30
0.0
 11
4.709227588440874
 21
6.908999999999999
 31
0.0
  0
LINE
  5
8CC
330
18
100
AcDbEntity
  8
Object
100
AcDbLine
 10
4.709227588440874
 20
6.908999999999999
 30
0.0
 11
4.707227588440874
 21
6.911999999999999
 31
0.0
  0
LINE
  5
8CD
330
18
100
AcDbEntity
  8
Object
100
AcDbLine
 10
4.707227588440874
 20
6.911999999999999
 30
0.0
 11
4.703227588440874
 21
6.913
 31
0.0
  0
LINE
  5
8CE
330
18
100
AcDbEntity
  8
Object
100
AcDbLine
 10
4.480227588440873
 20
5.033
 30
0.0
 11
4.480227588440873
 21
5.017999999999999
 31
0.0
  0
LINE
  5
8CF
330
18
100
AcDbEntity
  8
Object
100
AcDbLine
 10
4.561227588440874
 20
5.017999999999999
 30
0.0
 11
4.551227588440874
 21
5.017999999999999
 31
0.0
  0
LINE
  5
8D0
330
18
100
AcDbEntity
  8
Object
100
AcDbLine
 10
2.526227588440874
 20
5.028
 30
0.0
 11
2.525227588440874
 21
5.024
 31
0.0
  0
LINE
  5
8D1
330
18
100
AcDbEntity
  8
Object
100
AcDbLine
 10
2.525227588440874
 20
5.024
 30
0.0
 11
2.523227588440874
 21
5.020999999999999
 31
0.0
  0
LINE
  5
8D2
330
18
100
AcDbEntity
  8
Object
100
AcDbLine
 10
2.523227588440874
 20
5.020999999999999
 30
0.0
 11
2.520227588440874
 21
5.019
 31
0.0
  0
LINE
  5
8D3
330
18
100
AcDbEntity
  8
Object
100
AcDbLine
 10
2.520227588440874
 20
5.019
 30
0.0
 11
2.516227588440874
 21
5.017999999999999
 31
0.0
  0
LINE
  5
8D4
330
18
100
AcDbEntity
  8
Object
100
AcDbLine
 10
2.526227588440874
 20
5.028
 30
0.0
 11
2.516227588440874
 21
5.317
 31
0.0
  0
LINE
  5
8D5
330
18
100
AcDbEntity
  8
Object
100
AcDbLine
 10
2.516227588440874
 20
5.317
 30
0.0
 11
2.515227588440874
 21
5.322
 31
0.0
  0
LINE
  5
8D6
330
18
100
AcDbEntity
  8
Object
100
AcDbLine
 10
2.515227588440874
 20
5.322
 30
0.0
 11
2.515227588440874
 21
5.333
 31
0.0
  0
LINE
  5
8D7
330
18
100
AcDbEntity
  8
Object
100
AcDbLine
 10
2.515227588440874
 20
5.333
 30
0.0
 11
2.514227588440874
 21
5.349
 31
0.0
  0
LINE
  5
8D8
330
18
100
AcDbEntity
  8
Object
100
AcDbLine
 10
2.514227588440874
 20
5.349
 30
0.0
 11
2.470227588440874
 21
6.626
 31
0.0
  0
LINE
  5
8D9
330
18
100
AcDbEntity
  8
Object
100
AcDbLine
 10
2.470227588440874
 20
6.626
 30
0.0
 11
2.469227588440874
 21
6.641
 31
0.0
  0
LINE
  5
8DA
330
18
100
AcDbEntity
  8
Object
100
AcDbLine
 10
2.469227588440874
 20
6.641
 30
0.0
 11
2.469227588440874
 21
6.652
 31
0.0
  0
LINE
  5
8DB
330
18
100
AcDbEntity
  8
Object
100
AcDbLine
 10
2.469227588440874
 20
6.661
 30
0.0
 11
2.469227588440874
 21
6.656
 31
0.0
  0
LINE
  5
8DC
330
18
100
AcDbEntity
  8
Object
100
AcDbLine
 10
2.469227588440874
 20
6.656
 30
0.0
 11
2.469227588440874
 21
6.652
 31
0.0
  0
LINE
  5
8DD
330
18
100
AcDbEntity
  8
Object
100
AcDbLine
 10
2.469227588440874
 20
6.661
 30
0.0
 11
2.468227588440874
 21
6.674999999999999
 31
0.0
  0
LINE
  5
8DE
330
18
100
AcDbEntity
  8
Object
100
AcDbLine
 10
2.468227588440874
 20
6.674999999999999
 30
0.0
 11
2.467227588440874
 21
6.695
 31
0.0
  0
LINE
  5
8DF
330
18
100
AcDbEntity
  8
Object
100
AcDbLine
 10
2.467227588440874
 20
6.695
 30
0.0
 11
2.467227588440874
 21
6.717999999999999
 31
0.0
  0
LINE
  5
8E0
330
18
100
AcDbEntity
  8
Object
100
AcDbLine
 10
2.467227588440874
 20
6.717999999999999
 30
0.0
 11
2.466227588440874
 21
6.722999999999999
 31
0.0
  0
LINE
  5
8E1
330
18
100
AcDbEntity
  8
Object
100
AcDbLine
 10
2.466227588440874
 20
6.722999999999999
 30
0.0
 11
2.466227588440874
 21
6.743999999999999
 31
0.0
  0
LINE
  5
8E2
330
18
100
AcDbEntity
  8
Object
100
AcDbLine
 10
2.466227588440874
 20
6.743999999999999
 30
0.0
 11
2.465227588440874
 21
6.762
 31
0.0
  0
LINE
  5
8E3
330
18
100
AcDbEntity
  8
Object
100
AcDbLine
 10
2.465227588440874
 20
6.762
 30
0.0
 11
2.465227588440874
 21
6.775999999999999
 31
0.0
  0
LINE
  5
8E4
330
18
100
AcDbEntity
  8
Object
100
AcDbLine
 10
2.465227588440874
 20
6.775999999999999
 30
0.0
 11
2.464227588440874
 21
6.791
 31
0.0
  0
LINE
  5
8E5
330
18
100
AcDbEntity
  8
Object
100
AcDbLine
 10
2.464227588440874
 20
6.806
 30
0.0
 11
2.464227588440874
 21
6.796999999999999
 31
0.0
  0
LINE
  5
8E6
330
18
100
AcDbEntity
  8
Object
100
AcDbLine
 10
2.464227588440874
 20
6.796999999999999
 30
0.0
 11
2.464227588440874
 21
6.791
 31
0.0
  0
LINE
  5
8E7
330
18
100
AcDbEntity
  8
Object
100
AcDbLine
 10
2.464227588440874
 20
6.806
 30
0.0
 11
2.463227588440874
 21
6.817
 31
0.0
  0
LINE
  5
8E8
330
18
100
AcDbEntity
  8
Object
100
AcDbLine
 10
2.463227588440874
 20
6.817
 30
0.0
 11
2.462227588440874
 21
6.836999999999999
 31
0.0
  0
LINE
  5
8E9
330
18
100
AcDbEntity
  8
Object
100
AcDbLine
 10
2.506227588440874
 20
4.937999999999999
 30
0.0
 11
4.561227588440874
 21
4.937999999999999
 31
0.0
  0
LINE
  5
8EA
330
18
100
AcDbEntity
  8
Object
100
AcDbLine
 10
2.516227588440874
 20
5.017999999999999
 30
0.0
 11
2.506227588440874
 21
5.017999999999999
 31
0.0
  0
LINE
  5
8EB
330
18
100
AcDbEntity
  8
Object
100
AcDbLine
 10
2.586227588440874
 20
5.033
 30
0.0
 11
2.586227588440874
 21
5.017999999999999
 31
0.0
  0
LINE
  5
8EC
330
18
100
AcDbEntity
  8
Object
100
AcDbLine
 10
2.586227588440874
 20
5.017999999999999
 30
0.0
 11
4.480227588440873
 21
5.017999999999999
 31
0.0
  0
LINE
  5
8ED
330
18
100
AcDbEntity
  8
Object
100
AcDbLine
 10
2.595227588440874
 20
5.323999999999999
 30
0.0
 11
2.595227588440874
 21
5.32
 31
0.0
  0
LINE
  5
8EE
330
18
100
AcDbEntity
  8
Object
100
AcDbLine
 10
2.595227588440874
 20
5.32
 30
0.0
 11
2.606227588440874
 21
5.033
 31
0.0
  0
LINE
  5
8EF
330
18
100
AcDbEntity
  8
Object
100
AcDbLine
 10
2.595227588440874
 20
5.323999999999999
 30
0.0
 11
2.595227588440874
 21
5.336
 31
0.0
  0
LINE
  5
8F0
330
18
100
AcDbEntity
  8
Object
100
AcDbLine
 10
2.595227588440874
 20
5.336
 30
0.0
 11
2.594227588440874
 21
5.352
 31
0.0
  0
LINE
  5
8F1
330
18
100
AcDbEntity
  8
Object
100
AcDbLine
 10
2.594227588440874
 20
5.352
 30
0.0
 11
2.550227588440874
 21
6.629
 31
0.0
  0
LINE
  5
8F2
330
18
100
AcDbEntity
  8
Object
100
AcDbLine
 10
2.550227588440874
 20
6.629
 30
0.0
 11
2.549227588440874
 21
6.644
 31
0.0
  0
LINE
  5
8F3
330
18
100
AcDbEntity
  8
Object
100
AcDbLine
 10
2.549227588440874
 20
6.644
 30
0.0
 11
2.549227588440874
 21
6.655
 31
0.0
  0
LINE
  5
8F4
330
18
100
AcDbEntity
  8
Object
100
AcDbLine
 10
2.549227588440874
 20
6.663999999999999
 30
0.0
 11
2.549227588440874
 21
6.658999999999999
 31
0.0
  0
LINE
  5
8F5
330
18
100
AcDbEntity
  8
Object
100
AcDbLine
 10
2.549227588440874
 20
6.658999999999999
 30
0.0
 11
2.549227588440874
 21
6.655
 31
0.0
  0
LINE
  5
8F6
330
18
100
AcDbEntity
  8
Object
100
AcDbLine
 10
2.549227588440874
 20
6.663999999999999
 30
0.0
 11
2.548227588440874
 21
6.677
 31
0.0
  0
LINE
  5
8F7
330
18
100
AcDbEntity
  8
Object
100
AcDbLine
 10
2.548227588440874
 20
6.677
 30
0.0
 11
2.547227588440874
 21
6.697
 31
0.0
  0
LINE
  5
8F8
330
18
100
AcDbEntity
  8
Object
100
AcDbLine
 10
2.547227588440874
 20
6.697
 30
0.0
 11
2.547227588440874
 21
6.721
 31
0.0
  0
LINE
  5
8F9
330
18
100
AcDbEntity
  8
Object
100
AcDbLine
 10
2.547227588440874
 20
6.721
 30
0.0
 11
2.546227588440874
 21
6.725
 31
0.0
  0
LINE
  5
8FA
330
18
100
AcDbEntity
  8
Object
100
AcDbLine
 10
2.546227588440874
 20
6.725
 30
0.0
 11
2.546227588440874
 21
6.746999999999999
 31
0.0
  0
LINE
  5
8FB
330
18
100
AcDbEntity
  8
Object
100
AcDbLine
 10
2.546227588440874
 20
6.746999999999999
 30
0.0
 11
2.545227588440874
 21
6.765
 31
0.0
  0
LINE
  5
8FC
330
18
100
AcDbEntity
  8
Object
100
AcDbLine
 10
2.545227588440874
 20
6.765
 30
0.0
 11
2.545227588440874
 21
6.778999999999999
 31
0.0
  0
LINE
  5
8FD
330
18
100
AcDbEntity
  8
Object
100
AcDbLine
 10
2.545227588440874
 20
6.778999999999999
 30
0.0
 11
2.544227588440874
 21
6.793
 31
0.0
  0
LINE
  5
8FE
330
18
100
AcDbEntity
  8
Object
100
AcDbLine
 10
2.544227588440874
 20
6.793
 30
0.0
 11
2.544227588440874
 21
6.799999999999999
 31
0.0
  0
LINE
  5
8FF
330
18
100
AcDbEntity
  8
Object
100
AcDbLine
 10
2.544227588440874
 20
6.799999999999999
 30
0.0
 11
2.543227588440874
 21
6.809
 31
0.0
  0
LINE
  5
900
330
18
100
AcDbEntity
  8
Object
100
AcDbLine
 10
2.543227588440874
 20
6.809
 30
0.0
 11
2.543227588440874
 21
6.818999999999999
 31
0.0
  0
LINE
  5
901
330
18
100
AcDbEntity
  8
Object
100
AcDbLine
 10
2.543227588440874
 20
6.818999999999999
 30
0.0
 11
2.541227588440874
 21
6.882
 31
0.0
  0
LINE
  5
902
330
18
100
AcDbEntity
  8
Object
100
AcDbLine
 10
2.541227588440874
 20
6.882
 30
0.0
 11
2.541227588440874
 21
6.891
 31
0.0
  0
LINE
  5
903
330
18
100
AcDbEntity
  8
Object
100
AcDbLine
 10
2.541227588440874
 20
6.891
 30
0.0
 11
2.540227588440874
 21
6.900999999999999
 31
0.0
  0
LINE
  5
904
330
18
100
AcDbEntity
  8
Object
100
AcDbLine
 10
2.540227588440874
 20
6.900999999999999
 30
0.0
 11
2.540227588440874
 21
6.91
 31
0.0
  0
LINE
  5
905
330
18
100
AcDbEntity
  8
Object
100
AcDbLine
 10
2.486227588440874
 20
4.943
 30
0.0
 11
2.506227588440874
 21
4.937999999999999
 31
0.0
  0
LINE
  5
906
330
18
100
AcDbEntity
  8
Object
100
AcDbLine
 10
2.506227588440874
 20
5.017999999999999
 30
0.0
 11
2.486227588440874
 21
5.012
 31
0.0
  0
LINE
  5
907
330
18
100
AcDbEntity
  8
Object
100
AcDbLine
 10
2.486227588440874
 20
5.012
 30
0.0
 11
2.471227588440874
 21
4.998
 31
0.0
  0
LINE
  5
908
330
18
100
AcDbEntity
  8
Object
100
AcDbLine
 10
2.486227588440874
 20
4.943
 30
0.0
 11
2.471227588440874
 21
4.958
 31
0.0
  0
LINE
  5
909
330
18
100
AcDbEntity
  8
Object
100
AcDbLine
 10
2.471227588440874
 20
4.958
 30
0.0
 11
2.466227588440874
 21
4.977999999999999
 31
0.0
  0
LINE
  5
90A
330
18
100
AcDbEntity
  8
Object
100
AcDbLine
 10
2.466227588440874
 20
4.977999999999999
 30
0.0
 11
2.471227588440874
 21
4.998
 31
0.0
  0
LINE
  5
90B
330
18
100
AcDbEntity
  8
Object
100
AcDbLine
 10
2.595227588440874
 20
5.32
 30
0.0
 11
2.516227588440874
 21
5.317
 31
0.0
  0
LINE
  5
90C
330
18
100
AcDbEntity
  8
Object
100
AcDbLine
 10
2.586227588440874
 20
5.033
 30
0.0
 11
2.606227588440874
 21
5.033
 31
0.0
  0
LINE
  5
90D
330
18
100
AcDbEntity
  8
Object
100
AcDbLine
 10
4.595227588440874
 20
4.998
 30
0.0
 11
4.601227588440874
 21
4.977999999999999
 31
0.0
  0
LINE
  5
90E
330
18
100
AcDbEntity
  8
Object
100
AcDbLine
 10
4.601227588440874
 20
4.977999999999999
 30
0.0
 11
4.595227588440874
 21
4.958
 31
0.0
  0
LINE
  5
90F
330
18
100
AcDbEntity
  8
Object
100
AcDbLine
 10
4.595227588440874
 20
4.958
 30
0.0
 11
4.581227588440874
 21
4.943
 31
0.0
  0
LINE
  5
910
330
18
100
AcDbEntity
  8
Object
100
AcDbLine
 10
4.595227588440874
 20
4.998
 30
0.0
 11
4.581227588440874
 21
5.012
 31
0.0
  0
LINE
  5
911
330
18
100
AcDbEntity
  8
Object
100
AcDbLine
 10
4.581227588440874
 20
5.012
 30
0.0
 11
4.561227588440874
 21
5.017999999999999
 31
0.0
  0
LINE
  5
912
330
18
100
AcDbEntity
  8
Object
100
AcDbLine
 10
4.561227588440874
 20
4.937999999999999
 30
0.0
 11
4.581227588440874
 21
4.943
 31
0.0
  0
LINE
  5
913
330
18
100
AcDbEntity
  8
Object
100
AcDbLine
 10
4.709227588440874
 20
6.842
 30
0.0
 11
4.708227588440874
 21
6.836999999999999
 31
0.0
  0
LINE
  5
914
330
18
100
AcDbEntity
  8
Object
100
AcDbLine
 10
4.708227588440874
 20
6.836999999999999
 30
0.0
 11
4.704227588440874
 21
6.834
 31
0.0
  0
LINE
  5
915
330
18
100
AcDbEntity
  8
Object
100
AcDbLine
 10
4.704227588440874
 20
6.834
 30
0.0
 11
4.699227588440874
 21
6.831999999999999
 31
0.0
  0
LINE
  5
916
330
18
100
AcDbEntity
  8
Object
100
AcDbLine
 10
4.616227588440874
 20
6.847
 30
0.0
 11
4.697227588440874
 21
6.831999999999999
 31
0.0
  0
LINE
  5
917
330
18
100
AcDbEntity
  8
Object
100
AcDbLine
 10
4.699227588440874
 20
6.831999999999999
 30
0.0
 11
4.698227588440874
 21
6.831999999999999
 31
0.0
  0
LINE
  5
918
330
18
100
AcDbEntity
  8
Object
100
AcDbLine
 10
4.698227588440874
 20
6.831999999999999
 30
0.0
 11
4.697227588440874
 21
6.831999999999999
 31
0.0
  0
LINE
  5
919
330
18
100
AcDbEntity
  8
Object
100
AcDbLine
 10
2.541227588440874
 20
6.882
 30
0.0
 11
2.543227588440874
 21
6.818999999999999
 31
0.0
  0
LINE
  5
91A
330
18
100
AcDbEntity
  8
Object
100
AcDbLine
 10
2.543227588440874
 20
6.818999999999999
 30
0.0
 11
2.463227588440874
 21
6.817
 31
0.0
  0
LINE
  5
91B
330
18
100
AcDbEntity
  8
Object
100
AcDbLine
 10
2.463227588440874
 20
6.817
 30
0.0
 11
2.462227588440874
 21
6.836999999999999
 31
0.0
  0
LINE
  5
91C
330
18
100
AcDbEntity
  8
Object
100
AcDbLine
 10
2.462227588440874
 20
6.836999999999999
 30
0.0
 11
2.461227588440874
 21
6.842
 31
0.0
  0
LINE
  5
91D
330
18
100
AcDbEntity
  8
Object
100
AcDbLine
 10
2.461227588440874
 20
6.842
 30
0.0
 11
2.459227588440874
 21
6.844999999999999
 31
0.0
  0
LINE
  5
91E
330
18
100
AcDbEntity
  8
Object
100
AcDbLine
 10
2.459227588440874
 20
6.844999999999999
 30
0.0
 11
2.455227588440874
 21
6.847
 31
0.0
  0
LINE
  5
91F
330
18
100
AcDbEntity
  8
Object
100
AcDbLine
 10
2.455227588440874
 20
6.847
 30
0.0
 11
2.451227588440874
 21
6.847
 31
0.0
  0
LINE
  5
920
330
18
100
AcDbEntity
  8
Object
100
AcDbLine
 10
2.369227588440874
 20
6.831999999999999
 30
0.0
 11
2.368227588440874
 21
6.831999999999999
 31
0.0
  0
LINE
  5
921
330
18
100
AcDbEntity
  8
Object
100
AcDbLine
 10
2.368227588440874
 20
6.831999999999999
 30
0.0
 11
2.367227588440874
 21
6.831999999999999
 31
0.0
  0
LINE
  5
922
330
18
100
AcDbEntity
  8
Object
100
AcDbLine
 10
2.367227588440874
 20
6.831999999999999
 30
0.0
 11
2.362227588440874
 21
6.834
 31
0.0
  0
LINE
  5
923
330
18
100
AcDbEntity
  8
Object
100
AcDbLine
 10
2.362227588440874
 20
6.834
 30
0.0
 11
2.359227588440874
 21
6.836999999999999
 31
0.0
  0
LINE
  5
924
330
18
100
AcDbEntity
  8
Object
100
AcDbLine
 10
2.359227588440874
 20
6.836999999999999
 30
0.0
 11
2.357227588440874
 21
6.842
 31
0.0
  0
LINE
  5
925
330
18
100
AcDbEntity
  8
Object
100
AcDbLine
 10
2.369227588440874
 20
6.831999999999999
 30
0.0
 11
2.451227588440874
 21
6.847
 31
0.0
  0
LINE
  5
926
330
18
100
AcDbEntity
  8
Object
100
AcDbLine
 10
2.356227588440874
 20
6.876
 30
0.0
 11
2.357227588440874
 21
6.842
 31
0.0
  0
LINE
  5
927
330
18
100
AcDbEntity
  8
Object
100
AcDbLine
 10
2.549227588440874
 20
6.663999999999999
 30
0.0
 11
2.549227588440874
 21
6.658999999999999
 31
0.0
  0
LINE
  5
928
330
18
100
AcDbEntity
  8
Object
100
AcDbLine
 10
2.549227588440874
 20
6.658999999999999
 30
0.0
 11
2.469227588440874
 21
6.656
 31
0.0
  0
LINE
  5
929
330
18
100
AcDbEntity
  8
Object
100
AcDbLine
 10
2.469227588440874
 20
6.656
 30
0.0
 11
2.469227588440874
 21
6.661
 31
0.0
  0
LINE
  5
92A
330
18
100
AcDbEntity
  8
Object
100
AcDbLine
 10
2.549227588440874
 20
6.663999999999999
 30
0.0
 11
2.548227588440874
 21
6.677
 31
0.0
  0
LINE
  5
92B
330
18
100
AcDbEntity
  8
Object
100
AcDbLine
 10
2.469227588440874
 20
6.661
 30
0.0
 11
2.468227588440874
 21
6.674999999999999
 31
0.0
  0
LINE
  5
92C
330
18
100
AcDbEntity
  8
Object
100
AcDbLine
 10
2.468227588440874
 20
6.674999999999999
 30
0.0
 11
2.467227588440874
 21
6.695
 31
0.0
  0
LINE
  5
92D
330
18
100
AcDbEntity
  8
Object
100
AcDbLine
 10
2.548227588440874
 20
6.677
 30
0.0
 11
2.547227588440874
 21
6.697
 31
0.0
  0
LINE
  5
92E
330
18
100
AcDbEntity
  8
Object
100
AcDbLine
 10
2.467227588440874
 20
6.717999999999999
 30
0.0
 11
2.467227588440874
 21
6.695
 31
0.0
  0
LINE
  5
92F
330
18
100
AcDbEntity
  8
Object
100
AcDbLine
 10
2.547227588440874
 20
6.697
 30
0.0
 11
2.547227588440874
 21
6.721
 31
0.0
  0
LINE
  5
930
330
18
100
AcDbEntity
  8
Object
100
AcDbLine
 10
2.549227588440874
 20
6.644
 30
0.0
 11
2.550227588440874
 21
6.629
 31
0.0
  0
LINE
  5
931
330
18
100
AcDbEntity
  8
Object
100
AcDbLine
 10
2.550227588440874
 20
6.629
 30
0.0
 11
2.470227588440874
 21
6.626
 31
0.0
  0
LINE
  5
932
330
18
100
AcDbEntity
  8
Object
100
AcDbLine
 10
2.470227588440874
 20
6.626
 30
0.0
 11
2.469227588440874
 21
6.641
 31
0.0
  0
LINE
  5
933
330
18
100
AcDbEntity
  8
Object
100
AcDbLine
 10
2.469227588440874
 20
6.656
 30
0.0
 11
2.469227588440874
 21
6.652
 31
0.0
  0
LINE
  5
934
330
18
100
AcDbEntity
  8
Object
100
AcDbLine
 10
2.549227588440874
 20
6.644
 30
0.0
 11
2.549227588440874
 21
6.655
 31
0.0
  0
LINE
  5
935
330
18
100
AcDbEntity
  8
Object
100
AcDbLine
 10
2.469227588440874
 20
6.652
 30
0.0
 11
2.469227588440874
 21
6.641
 31
0.0
  0
LINE
  5
936
330
18
100
AcDbEntity
  8
Object
100
AcDbLine
 10
2.549227588440874
 20
6.655
 30
0.0
 11
2.549227588440874
 21
6.658999999999999
 31
0.0
  0
LINE
  5
937
330
18
100
AcDbEntity
  8
Object
100
AcDbLine
 10
2.546227588440874
 20
6.725
 30
0.0
 11
2.547227588440874
 21
6.721
 31
0.0
  0
LINE
  5
938
330
18
100
AcDbEntity
  8
Object
100
AcDbLine
 10
2.547227588440874
 20
6.721
 30
0.0
 11
2.467227588440874
 21
6.717999999999999
 31
0.0
  0
LINE
  5
939
330
18
100
AcDbEntity
  8
Object
100
AcDbLine
 10
2.467227588440874
 20
6.717999999999999
 30
0.0
 11
2.466227588440874
 21
6.722999999999999
 31
0.0
  0
LINE
  5
93A
330
18
100
AcDbEntity
  8
Object
100
AcDbLine
 10
2.469227588440874
 20
6.656
 30
0.0
 11
2.549227588440874
 21
6.658999999999999
 31
0.0
  0
LINE
  5
93B
330
18
100
AcDbEntity
  8
Object
100
AcDbLine
 10
2.550227588440874
 20
6.629
 30
0.0
 11
2.594227588440874
 21
5.352
 31
0.0
  0
LINE
  5
93C
330
18
100
AcDbEntity
  8
Object
100
AcDbLine
 10
2.594227588440874
 20
5.352
 30
0.0
 11
2.514227588440874
 21
5.349
 31
0.0
  0
LINE
  5
93D
330
18
100
AcDbEntity
  8
Object
100
AcDbLine
 10
2.514227588440874
 20
5.349
 30
0.0
 11
2.470227588440874
 21
6.626
 31
0.0
  0
LINE
  5
93E
330
18
100
AcDbEntity
  8
Object
100
AcDbLine
 10
2.544227588440874
 20
6.793
 30
0.0
 11
2.545227588440874
 21
6.778999999999999
 31
0.0
  0
LINE
  5
93F
330
18
100
AcDbEntity
  8
Object
100
AcDbLine
 10
2.545227588440874
 20
6.778999999999999
 30
0.0
 11
2.465227588440874
 21
6.775999999999999
 31
0.0
  0
LINE
  5
940
330
18
100
AcDbEntity
  8
Object
100
AcDbLine
 10
2.465227588440874
 20
6.775999999999999
 30
0.0
 11
2.464227588440874
 21
6.791
 31
0.0
  0
LINE
  5
941
330
18
100
AcDbEntity
  8
Object
100
AcDbLine
 10
2.595227588440874
 20
5.32
 30
0.0
 11
2.595227588440874
 21
5.323999999999999
 31
0.0
  0
LINE
  5
942
330
18
100
AcDbEntity
  8
Object
100
AcDbLine
 10
2.515227588440874
 20
5.322
 30
0.0
 11
2.516227588440874
 21
5.317
 31
0.0
  0
LINE
  5
943
330
18
100
AcDbEntity
  8
Object
100
AcDbLine
 10
2.595227588440874
 20
5.323999999999999
 30
0.0
 11
2.595227588440874
 21
5.336
 31
0.0
  0
LINE
  5
944
330
18
100
AcDbEntity
  8
Object
100
AcDbLine
 10
2.515227588440874
 20
5.322
 30
0.0
 11
2.515227588440874
 21
5.333
 31
0.0
  0
LINE
  5
945
330
18
100
AcDbEntity
  8
Object
100
AcDbLine
 10
2.515227588440874
 20
5.333
 30
0.0
 11
2.514227588440874
 21
5.349
 31
0.0
  0
LINE
  5
946
330
18
100
AcDbEntity
  8
Object
100
AcDbLine
 10
2.595227588440874
 20
5.336
 30
0.0
 11
2.594227588440874
 21
5.352
 31
0.0
  0
LINE
  5
947
330
18
100
AcDbEntity
  8
Object
100
AcDbLine
 10
2.546227588440874
 20
6.746999999999999
 30
0.0
 11
2.546227588440874
 21
6.725
 31
0.0
  0
LINE
  5
948
330
18
100
AcDbEntity
  8
Object
100
AcDbLine
 10
2.546227588440874
 20
6.725
 30
0.0
 11
2.466227588440874
 21
6.722999999999999
 31
0.0
  0
LINE
  5
949
330
18
100
AcDbEntity
  8
Object
100
AcDbLine
 10
2.466227588440874
 20
6.722999999999999
 30
0.0
 11
2.466227588440874
 21
6.743999999999999
 31
0.0
  0
LINE
  5
94A
330
18
100
AcDbEntity
  8
Object
100
AcDbLine
 10
2.545227588440874
 20
6.778999999999999
 30
0.0
 11
2.545227588440874
 21
6.765
 31
0.0
  0
LINE
  5
94B
330
18
100
AcDbEntity
  8
Object
100
AcDbLine
 10
2.545227588440874
 20
6.765
 30
0.0
 11
2.546227588440874
 21
6.746999999999999
 31
0.0
  0
LINE
  5
94C
330
18
100
AcDbEntity
  8
Object
100
AcDbLine
 10
2.466227588440874
 20
6.743999999999999
 30
0.0
 11
2.465227588440874
 21
6.762
 31
0.0
  0
LINE
  5
94D
330
18
100
AcDbEntity
  8
Object
100
AcDbLine
 10
2.465227588440874
 20
6.762
 30
0.0
 11
2.465227588440874
 21
6.775999999999999
 31
0.0
  0
LINE
  5
94E
330
18
100
AcDbEntity
  8
Object
100
AcDbLine
 10
2.462227588440874
 20
6.836999999999999
 30
0.0
 11
2.461227588440874
 21
6.842
 31
0.0
  0
LINE
  5
94F
330
18
100
AcDbEntity
  8
Object
100
AcDbLine
 10
2.461227588440874
 20
6.842
 30
0.0
 11
2.459227588440874
 21
6.844999999999999
 31
0.0
  0
LINE
  5
950
330
18
100
AcDbEntity
  8
Object
100
AcDbLine
 10
2.459227588440874
 20
6.844999999999999
 30
0.0
 11
2.455227588440874
 21
6.847
 31
0.0
  0
LINE
  5
951
330
18
100
AcDbEntity
  8
Object
100
AcDbLine
 10
2.455227588440874
 20
6.847
 30
0.0
 11
2.451227588440874
 21
6.847
 31
0.0
  0
LINE
  5
952
330
18
100
AcDbEntity
  8
Object
100
AcDbLine
 10
2.543227588440874
 20
6.809
 30
0.0
 11
2.544227588440874
 21
6.799999999999999
 31
0.0
  0
LINE
  5
953
330
18
100
AcDbEntity
  8
Object
100
AcDbLine
 10
2.544227588440874
 20
6.799999999999999
 30
0.0
 11
2.544227588440874
 21
6.793
 31
0.0
  0
LINE
  5
954
330
18
100
AcDbEntity
  8
Object
100
AcDbLine
 10
2.544227588440874
 20
6.793
 30
0.0
 11
2.464227588440874
 21
6.791
 31
0.0
  0
LINE
  5
955
330
18
100
AcDbEntity
  8
Object
100
AcDbLine
 10
2.464227588440874
 20
6.791
 30
0.0
 11
2.464227588440874
 21
6.796999999999999
 31
0.0
  0
LINE
  5
956
330
18
100
AcDbEntity
  8
Object
100
AcDbLine
 10
2.464227588440874
 20
6.796999999999999
 30
0.0
 11
2.464227588440874
 21
6.806
 31
0.0
  0
LINE
  5
957
330
18
100
AcDbEntity
  8
Object
100
AcDbLine
 10
2.464227588440874
 20
6.806
 30
0.0
 11
2.463227588440874
 21
6.817
 31
0.0
  0
LINE
  5
958
330
18
100
AcDbEntity
  8
Object
100
AcDbLine
 10
2.543227588440874
 20
6.809
 30
0.0
 11
2.543227588440874
 21
6.818999999999999
 31
0.0
  0
LINE
  5
959
330
18
100
AcDbEntity
  8
Object
100
AcDbLine
 10
2.505227588440874
 20
6.937999999999999
 30
0.0
 11
2.509227588440874
 21
6.937999999999999
 31
0.0
  0
LINE
  5
95A
330
18
100
AcDbEntity
  8
Object
100
AcDbLine
 10
2.509227588440874
 20
6.937999999999999
 30
0.0
 11
2.512227588440874
 21
6.937999999999999
 31
0.0
  0
LINE
  5
95B
330
18
100
AcDbEntity
  8
Object
100
AcDbLine
 10
2.512227588440874
 20
6.937999999999999
 30
0.0
 11
2.519227588440874
 21
6.937
 31
0.0
  0
LINE
  5
95C
330
18
100
AcDbEntity
  8
Object
100
AcDbLine
 10
2.519227588440874
 20
6.937
 30
0.0
 11
2.529227588440874
 21
6.931
 31
0.0
  0
LINE
  5
95D
330
18
100
AcDbEntity
  8
Object
100
AcDbLine
 10
2.505227588440874
 20
6.937999999999999
 30
0.0
 11
2.479227588440874
 21
6.932999999999999
 31
0.0
  0
LINE
  5
95E
330
18
100
AcDbEntity
  8
Object
100
AcDbLine
 10
2.479227588440874
 20
6.932999999999999
 30
0.0
 11
2.446227588440874
 21
6.927999999999999
 31
0.0
  0
LINE
  5
95F
330
18
100
AcDbEntity
  8
Object
100
AcDbLine
 10
2.537227588440874
 20
6.921999999999999
 30
0.0
 11
2.529227588440874
 21
6.931
 31
0.0
  0
LINE
  5
960
330
18
100
AcDbEntity
  8
Object
100
AcDbLine
 10
2.446227588440874
 20
6.927999999999999
 30
0.0
 11
2.407227588440874
 21
6.921
 31
0.0
  0
LINE
  5
961
330
18
100
AcDbEntity
  8
Object
100
AcDbLine
 10
2.540227588440874
 20
6.91
 30
0.0
 11
2.537227588440874
 21
6.921999999999999
 31
0.0
  0
LINE
  5
962
330
18
100
AcDbEntity
  8
Object
100
AcDbLine
 10
2.407227588440874
 20
6.921
 30
0.0
 11
2.363227588440874
 21
6.913
 31
0.0
  0
LINE
  5
963
330
18
100
AcDbEntity
  8
Object
100
AcDbLine
 10
2.363227588440874
 20
6.913
 30
0.0
 11
2.360227588440874
 21
6.911999999999999
 31
0.0
  0
LINE
  5
964
330
18
100
AcDbEntity
  8
Object
100
AcDbLine
 10
2.360227588440874
 20
6.911999999999999
 30
0.0
 11
2.357227588440874
 21
6.908999999999999
 31
0.0
  0
LINE
  5
965
330
18
100
AcDbEntity
  8
Object
100
AcDbLine
 10
2.357227588440874
 20
6.908999999999999
 30
0.0
 11
2.356227588440874
 21
6.906
 31
0.0
  0
LINE
  5
966
330
18
100
AcDbEntity
  8
Object
100
AcDbLine
 10
2.541227588440874
 20
6.891
 30
0.0
 11
2.541227588440874
 21
6.882
 31
0.0
  0
LINE
  5
967
330
18
100
AcDbEntity
  8
Object
100
AcDbLine
 10
2.541227588440874
 20
6.882
 30
0.0
 11
2.356227588440874
 21
6.876
 31
0.0
  0
LINE
  5
968
330
18
100
AcDbEntity
  8
Object
100
AcDbLine
 10
2.356227588440874
 20
6.876
 30
0.0
 11
2.356227588440874
 21
6.884999999999999
 31
0.0
  0
LINE
  5
969
330
18
100
AcDbEntity
  8
Object
100
AcDbLine
 10
2.356227588440874
 20
6.906
 30
0.0
 11
2.355227588440873
 21
6.903
 31
0.0
  0
LINE
  5
96A
330
18
100
AcDbEntity
  8
Object
100
AcDbLine
 10
2.540227588440874
 20
6.900999999999999
 30
0.0
 11
2.540227588440874
 21
6.91
 31
0.0
  0
LINE
  5
96B
330
18
100
AcDbEntity
  8
Object
100
AcDbLine
 10
2.355227588440873
 20
6.903
 30
0.0
 11
2.355227588440873
 21
6.894
 31
0.0
  0
LINE
  5
96C
330
18
100
AcDbEntity
  8
Object
100
AcDbLine
 10
2.355227588440873
 20
6.894
 30
0.0
 11
2.356227588440874
 21
6.884999999999999
 31
0.0
  0
LINE
  5
96D
330
18
100
AcDbEntity
  8
Object
100
AcDbLine
 10
2.541227588440874
 20
6.891
 30
0.0
 11
2.540227588440874
 21
6.900999999999999
 31
0.0
  0
LINE
  5
96E
330
18
100
AcDbEntity
  8
Object
100
AcDbLine
 10
2.540227588440874
 20
6.91
 30
0.0
 11
2.537227588440874
 21
6.921999999999999
 31
0.0
  0
LINE
  5
96F
330
18
100
AcDbEntity
  8
Object
100
AcDbLine
 10
2.537227588440874
 20
6.921999999999999
 30
0.0
 11
2.529227588440874
 21
6.931
 31
0.0
  0
LINE
  5
970
330
18
100
AcDbEntity
  8
Object
100
AcDbLine
 10
2.529227588440874
 20
6.931
 30
0.0
 11
2.519227588440874
 21
6.937
 31
0.0
  0
LINE
  5
971
330
18
100
AcDbEntity
  8
Object
100
AcDbLine
 10
2.519227588440874
 20
6.937
 30
0.0
 11
2.512227588440874
 21
6.937999999999999
 31
0.0
  0
LINE
  5
972
330
18
100
AcDbEntity
  8
Object
100
AcDbLine
 10
2.512227588440874
 20
6.937999999999999
 30
0.0
 11
2.509227588440874
 21
6.937999999999999
 31
0.0
  0
LINE
  5
973
330
18
100
AcDbEntity
  8
Object
100
AcDbLine
 10
2.509227588440874
 20
6.937999999999999
 30
0.0
 11
2.505227588440874
 21
6.937999999999999
 31
0.0
  0
LINE
  5
974
330
18
100
AcDbEntity
  8
Object
100
AcDbLine
 10
2.357227588440874
 20
6.842
 30
0.0
 11
2.356227588440874
 21
6.876
 31
0.0
  0
LINE
  5
975
330
18
100
AcDbEntity
  8
Object
100
AcDbLine
 10
2.356227588440874
 20
6.876
 30
0.0
 11
2.356227588440874
 21
6.884999999999999
 31
0.0
  0
LINE
  5
976
330
18
100
AcDbEntity
  8
Object
100
AcDbLine
 10
2.356227588440874
 20
6.884999999999999
 30
0.0
 11
2.355227588440873
 21
6.894
 31
0.0
  0
LINE
  5
977
330
18
100
AcDbEntity
  8
Object
100
AcDbLine
 10
2.355227588440873
 20
6.894
 30
0.0
 11
2.355227588440873
 21
6.903
 31
0.0
  0
LINE
  5
978
330
18
100
AcDbEntity
  8
Object
100
AcDbLine
 10
2.369227588440874
 20
6.831999999999999
 30
0.0
 11
2.451227588440874
 21
6.847
 31
0.0
  0
LINE
  5
979
330
18
100
AcDbEntity
  8
Object
100
AcDbLine
 10
2.367227588440874
 20
6.831999999999999
 30
0.0
 11
2.362227588440874
 21
6.834
 31
0.0
  0
LINE
  5
97A
330
18
100
AcDbEntity
  8
Object
100
AcDbLine
 10
2.362227588440874
 20
6.834
 30
0.0
 11
2.359227588440874
 21
6.836999999999999
 31
0.0
  0
LINE
  5
97B
330
18
100
AcDbEntity
  8
Object
100
AcDbLine
 10
2.359227588440874
 20
6.836999999999999
 30
0.0
 11
2.357227588440874
 21
6.842
 31
0.0
  0
LINE
  5
97C
330
18
100
AcDbEntity
  8
Object
100
AcDbLine
 10
2.369227588440874
 20
6.831999999999999
 30
0.0
 11
2.368227588440874
 21
6.831999999999999
 31
0.0
  0
LINE
  5
97D
330
18
100
AcDbEntity
  8
Object
100
AcDbLine
 10
2.368227588440874
 20
6.831999999999999
 30
0.0
 11
2.367227588440874
 21
6.831999999999999
 31
0.0
  0
LINE
  5
97E
330
18
100
AcDbEntity
  8
Object
100
AcDbLine
 10
2.363227588440874
 20
6.913
 30
0.0
 11
2.360227588440874
 21
6.911999999999999
 31
0.0
  0
LINE
  5
97F
330
18
100
AcDbEntity
  8
Object
100
AcDbLine
 10
2.360227588440874
 20
6.911999999999999
 30
0.0
 11
2.357227588440874
 21
6.908999999999999
 31
0.0
  0
LINE
  5
980
330
18
100
AcDbEntity
  8
Object
100
AcDbLine
 10
2.357227588440874
 20
6.908999999999999
 30
0.0
 11
2.356227588440874
 21
6.906
 31
0.0
  0
LINE
  5
981
330
18
100
AcDbEntity
  8
Object
100
AcDbLine
 10
2.356227588440874
 20
6.906
 30
0.0
 11
2.355227588440873
 21
6.903
 31
0.0
  0
LINE
  5
982
330
18
100
AcDbEntity
  8
Object
100
AcDbLine
 10
2.505227588440874
 20
6.937999999999999
 30
0.0
 11
2.479227588440874
 21
6.932999999999999
 31
0.0
  0
LINE
  5
983
330
18
100
AcDbEntity
  8
Object
100
AcDbLine
 10
2.479227588440874
 20
6.932999999999999
 30
0.0
 11
2.446227588440874
 21
6.927999999999999
 31
0.0
  0
LINE
  5
984
330
18
100
AcDbEntity
  8
Object
100
AcDbLine
 10
2.446227588440874
 20
6.927999999999999
 30
0.0
 11
2.407227588440874
 21
6.921
 31
0.0
  0
LINE
  5
985
330
18
100
AcDbEntity
  8
Object
100
AcDbLine
 10
2.407227588440874
 20
6.921
 30
0.0
 11
2.363227588440874
 21
6.913
 31
0.0
  0
LINE
  5
993
330
18
100
AcDbEntity
  8
Object
100
AcDbLine
 10
14.38322758844087
 20
4.687999999999999
 30
0.0
 11
14.38322758844087
 21
5.092999999999999
 31
0.0
  0
LINE
  5
994
330
18
100
AcDbEntity
  8
Object
100
AcDbLine
 10
14.38322758844087
 20
5.092999999999999
 30
0.0
 11
14.33822758844087
 21
5.092999999999999
 31
0.0
  0
LINE
  5
995
330
18
100
AcDbEntity
  8
Object
100
AcDbLine
 10
14.33822758844087
 20
5.092999999999999
 30
0.0
 11
14.46222758844087
 21
5.165
 31
0.0
  0
LINE
  5
996
330
18
100
AcDbEntity
  8
Object
100
AcDbLine
 10
14.46222758844087
 20
5.165
 30
0.0
 11
14.38322758844087
 21
5.165
 31
0.0
  0
LINE
  5
997
330
18
100
AcDbEntity
  8
Object
100
AcDbLine
 10
14.38322758844087
 20
5.165
 30
0.0
 11
14.38322758844087
 21
5.569999999999999
 31
0.0
  0
DIMENSION
  5
99A
330
18
100
AcDbEntity
  8
Dimension
100
AcDbDimension
  2
*D0
 10
4.711227588440874
 20
7.585687867443358
 30
0.0
 11
3.533227588440874
 21
7.585687867443358
 31
0.0
 70
    32
  1
2.17 [55.1mm]
 71
     5
 42
2.356
  3
STANDARD
100
AcDbAlignedDimension
 13
2.355227588440874
 23
6.903
 33
0.0
 14
4.711227588440874
 24
6.906
 34
0.0
100
AcDbRotatedDimension
  0
DIMENSION
  5
9A8
330
18
100
AcDbEntity
  8
Dimension
100
AcDbDimension
  2
*D1
 10
5.462519815510837
 20
4.937999999999999
 30
0.0
 11
5.462519815510836
 21
5.938
 31
0.0
 70
    32
 71
     5
 42
2.0
  3
STANDARD
100
AcDbAlignedDimension
 13
4.562227588440874
 23
6.937999999999999
 33
0.0
 14
4.561227588440874
 24
4.937999999999999
 34
0.0
 50
90.0
100
AcDbRotatedDimension
  0
DIMENSION
  5
9B6
330
18
100
AcDbEntity
  8
Dimension
100
AcDbDimension
  2
*D2
 10
2.501490771538643
 20
5.718657163276113
 30
0.0
 11
1.793990771538643
 21
5.718657163276113
 31
0.0
 70
    32
 71
     5
 42
0.0801033672670322
  3
STANDARD
100
AcDbAlignedDimension
 13
2.581594138805675
 23
5.718657163276113
 33
0.0
 14
2.501490771538643
 24
5.718657163276113
 34
0.0
100
AcDbRotatedDimension
1001
ACAD
1000
DSTYLE
1002
{
1070
    76
1070
     1
1070
    75
1070
     1
1002
}
  0
MTEXT
  5
9FC
330
18
100
AcDbEntity
  8
Text
100
AcDbMText
 10
6.376628153647693
 20
0.8732951697642468
 30
0.0
 40
0.09
 41
0.25
 71
     5
 72
     5
  1
1
 73
     1
 44
1.0
1001
ACAD
1000
MTEXTBEGIN
1070
    73
1070
     1
1070
    44
1040
1.0
1070
    74
1070
     0
1000
MTEXTEND
  0
MTEXT
  5
9FD
330
18
100
AcDbEntity
  8
Text
100
AcDbMText
 10
6.751628153647693
 20
0.8732951697642468
 30
0.0
 40
0.07
 41
0.5
 71
     5
 72
     5
  1
6-26-07
 73
     1
 44
1.0
1001
ACAD
1000
MTEXTBEGIN
1070
    73
1070
     1
1070
    44
1040
1.0
1070
    74
1070
     0
1000
MTEXTEND
  0
MTEXT
  5
9FE
330
18
100
AcDbEntity
  8
Text
100
AcDbMText
 10
7.189128153647693
 20
0.8732951697642468
 30
0.0
 40
0.09
 41
0.375
 71
     5
 72
     5
  1
DTP
 73
     1
 44
1.0
1001
ACAD
1000
MTEXTBEGIN
1070
    73
1070
     1
1070
    44
1040
1.0
1070
    74
1070
     0
1000
MTEXTEND
  0
MTEXT
  5
9FF
330
18
100
AcDbEntity
  8
Text
100
AcDbMText
 10
7.776628153647694
 20
0.8732951697642462
 30
0.0
 40
0.07
 41
2.75
 71
     4
 72
     5
  1
B. REVISED PART NUMBER.\PA. REVISED DRAWING TITLE.
 73
     1
 44
1.0
1001
ACAD
1000
MTEXTBEGIN
1070
    73
1070
     1
1070
    44
1040
1.0
1070
    74
1070
     0
1000
MTEXTEND
  0
MTEXT
  5
A00
330
18
100
AcDbEntity
  8
Text
100
AcDbMText
 10
7.560400281422712
 20
0.8762490740326631
 30
0.0
 40
0.07
 41
0.375
 71
     5
 72
     5
  1
DJWA
 73
     1
 44
1.0
1001
ACAD
1000
MTEXTBEGIN
1070
    73
1070
     1
1070
    44
1040
1.0
1070
    74
1070
     0
1000
MTEXTEND
  0
MTEXT
  5
A01
330
18
100
AcDbEntity
  8
Text
100
AcDbMText
 10
6.376628153647693
 20
1.123295169764246
 30
0.0
 40
0.09
 41
0.25
 71
     5
 72
     5
  1
-
 73
     1
 44
1.0
1001
ACAD
1000
MTEXTBEGIN
1070
    73
1070
     1
1070
    44
1040
1.0
1070
    74
1070
     0
1000
MTEXTEND
  0
MTEXT
  5
A02
330
18
100
AcDbEntity
  8
Text
100
AcDbMText
 10
6.751628153647693
 20
1.123295169764246
 30
0.0
 40
0.07
 41
0.5
 71
     5
 72
     5
  1
--------
 73
     1
 44
1.0
1001
ACAD
1000
MTEXTBEGIN
1070
    73
1070
     1
1070
    44
1040
1.0
1070
    74
1070
     0
1000
MTEXTEND
  0
MTEXT
  5
A03
330
18
100
AcDbEntity
  8
Text
100
AcDbMText
 10
7.189128153647693
 20
1.123295169764246
 30
0.0
 40
0.09
 41
0.375
 71
     5
 72
     5
  1
---
 73
     1
 44
1.0
1001
ACAD
1000
MTEXTBEGIN
1070
    73
1070
     1
1070
    44
1040
1.0
1070
    74
1070
     0
1000
MTEXTEND
  0
MTEXT
  5
A04
330
18
100
AcDbEntity
  8
Text
100
AcDbMText
 10
7.776628153647694
 20
1.123295169764246
 30
0.0
 40
0.07
 41
2.75
 71
     4
 72
     5
  1
D. REVISED DIMENSIONS.\PC. REVISED PART GEOMETRY.
 73
     1
 44
1.0
1001
ACAD
1000
MTEXTBEGIN
1070
    73
1070
     1
1070
    44
1040
1.0
1070
    74
1070
     0
1000
MTEXTEND
  0
MTEXT
  5
A05
330
18
100
AcDbEntity
  8
Text
100
AcDbMText
 10
7.560400281422712
 20
1.126249074032662
 30
0.0
 40
0.07
 41
0.375
 71
     5
 72
     5
  1
----
 73
     1
 44
1.0
1001
ACAD
1000
MTEXTBEGIN
1070
    73
1070
     1
1070
    44
1040
1.0
1070
    74
1070
     0
1000
MTEXTEND
  0
LINE
  5
A06
330
18
100
AcDbEntity
  8
Text
100
AcDbLine
 10
12.77026062122182
 20
1.513759842708687
 30
0.0
 11
12.92026062122182
 21
1.773567463844018
 31
0.0
  0
LINE
  5
A07
330
18
100
AcDbEntity
  8
Text
100
AcDbLine
 10
12.92026062122182
 20
1.773567463844018
 30
0.0
 11
13.07026062122182
 21
1.513759842708687
 31
0.0
  0
LINE
  5
A08
330
18
100
AcDbEntity
  8
Text
100
AcDbLine
 10
13.07026062122182
 20
1.513759842708687
 30
0.0
 11
12.77026062122182
 21
1.513759842708687
 31
0.0
  0
TEXT
  5
A09
330
18
100
AcDbEntity
  8
Text
100
AcDbText
 10
12.88016112497487
 20
1.56764499072581
 30
0.0
 40
0.09
  1
A
100
AcDbText
  0
LINE
  5
A0A
330
18
100
AcDbEntity
  8
Text
100
AcDbLine
 10
13.12026062122182
 20
1.513759842708687
 30
0.0
 11
13.27026062122182
 21
1.773567463844018
 31
0.0
  0
LINE
  5
A0B
330
18
100
AcDbEntity
  8
Text
100
AcDbLine
 10
13.27026062122182
 20
1.773567463844018
 30
0.0
 11
13.42026062122182
 21
1.513759842708687
 31
0.0
  0
LINE
  5
A0C
330
18
100
AcDbEntity
  8
Text
100
AcDbLine
 10
13.42026062122182
 20
1.513759842708687
 30
0.0
 11
13.12026062122182
 21
1.513759842708687
 31
0.0
  0
TEXT
  5
A0D
330
18
100
AcDbEntity
  8
Text
100
AcDbText
 10
13.23471066096245
 20
1.563097216732746
 30
0.0
 40
0.09
  1
B
100
AcDbText
  0
LINE
  5
A0E
330
18
100
AcDbEntity
  8
Text
100
AcDbLine
 10
10.63697655305112
 20
4.449208419512245
 30
0.0
 11
10.78697655305113
 21
4.709016040647576
 31
0.0
  0
LINE
  5
A0F
330
18
100
AcDbEntity
  8
Text
100
AcDbLine
 10
10.78697655305113
 20
4.709016040647576
 30
0.0
 11
10.93697655305112
 21
4.449208419512245
 31
0.0
  0
LINE
  5
A10
330
18
100
AcDbEntity
  8
Text
100
AcDbLine
 10
10.93697655305112
 20
4.449208419512245
 30
0.0
 11
10.63697655305112
 21
4.449208419512245
 31
0.0
  0
TEXT
  5
A11
330
18
100
AcDbEntity
  8
Text
100
AcDbText
 10
10.74696612277143
 20
4.505055374433737
 30
0.0
 40
0.09
  1
C
100
AcDbText
  0
LINE
  5
A12
330
18
100
AcDbEntity
  8
Text
100
AcDbLine
 10
2.658818123548272
 20
4.48598804688337
 30
0.0
 11
2.808818123548272
 21
4.745795668018701
 31
0.0
  0
LINE
  5
A13
330
18
100
AcDbEntity
  8
Text
100
AcDbLine
 10
2.808818123548272
 20
4.745795668018701
 30
0.0
 11
2.958818123548272
 21
4.48598804688337
 31
0.0
  0
LINE
  5
A14
330
18
100
AcDbEntity
  8
Text
100
AcDbLine
 10
2.958818123548272
 20
4.48598804688337
 30
0.0
 11
2.658818123548272
 21
4.48598804688337
 31
0.0
  0
TEXT
  5
A15
330
18
100
AcDbEntity
  8
Text
100
AcDbText
 10
2.766044157528185
 20
4.542546507474526
 30
0.0
 40
0.09
  1
C
100
AcDbText
  0
LINE
  5
A16
330
18
100
AcDbEntity
  8
Text
100
AcDbLine
 10
5.914813673359908
 20
5.823432830619793
 30
0.0
 11
6.064813673359909
 21
6.083240451755124
 31
0.0
  0
LINE
  5
A17
330
18
100
AcDbEntity
  8
Text
100
AcDbLine
 10
6.064813673359909
 20
6.083240451755124
 30
0.0
 11
6.214813673359909
 21
5.823432830619793
 31
0.0
  0
LINE
  5
A18
330
18
100
AcDbEntity
  8
Text
100
AcDbLine
 10
6.214813673359909
 20
5.823432830619793
 30
0.0
 11
5.914813673359908
 21
5.823432830619793
 31
0.0
  0
TEXT
  5
A19
330
18
100
AcDbEntity
  8
Text
100
AcDbText
 10
6.032214828467267
 20
5.873210626118005
 30
0.0
 40
0.09
  1
D
100
AcDbText
  0
LINE
  5
A1A
330
18
100
AcDbEntity
  8
Text
100
AcDbLine
 10
1.098492644057643
 20
5.594415787325974
 30
0.0
 11
1.248492644057643
 21
5.854223408461305
 31
0.0
  0
LINE
  5
A1B
330
18
100
AcDbEntity
  8
Text
100
AcDbLine
 10
1.248492644057643
 20
5.854223408461305
 30
0.0
 11
1.398492644057643
 21
5.594415787325974
 31
0.0
  0
LINE
  5
A1C
330
18
100
AcDbEntity
  8
Text
100
AcDbLine
 10
1.398492644057643
 20
5.594415787325974
 30
0.0
 11
1.098492644057643
 21
5.594415787325974
 31
0.0
  0
TEXT
  5
A1D
330
18
100
AcDbEntity
  8
Text
100
AcDbText
 10
1.214197938486421
 20
5.644193582824183
 30
0.0
 40
0.09
  1
D
100
AcDbText
  0
LINE
  5
A1E
330
18
100
AcDbEntity
  8
Text
100
AcDbLine
 10
3.386138883659043
 20
7.748889180608394
 30
0.0
 11
3.536138883659043
 21
8.008696801743724
 31
0.0
  0
LINE
  5
A1F
330
18
100
AcDbEntity
  8
Text
100
AcDbLine
 10
3.536138883659043
 20
8.008696801743724
 30
0.0
 11
3.686138883659044
 21
7.748889180608394
 31
0.0
  0
LINE
  5
A20
330
18
100
AcDbEntity
  8
Text
100
AcDbLine
 10
3.686138883659044
 20
7.748889180608394
 30
0.0
 11
3.386138883659043
 21
7.748889180608394
 31
0.0
  0
TEXT
  5
A21
330
18
100
AcDbEntity
  8
Text
100
AcDbText
 10
3.502888448640398
 20
7.800622519191307
 30
0.0
 40
0.09
  1
D
100
AcDbText
  0
ENDSEC
  0
SECTION
  2
OBJECTS
  0
DICTIONARY
  5
C
330
0
100
AcDbDictionary
281
     1
  3
ACAD_COLOR
350
F1
  3
ACAD_GROUP
350
D
  3
ACAD_LAYOUT
350
F4
  3
ACAD_MATERIAL
350
F0
  3
ACAD_MLINESTYLE
350
1B
  3
ACAD_PLOTSETTINGS
350
F5
  3
ACAD_PLOTSTYLENAME
350
EE
  3
ACAD_TABLESTYLE
350
F2
  3
ACDBHEADERROUNDTRIPXREC
350
A42
  3
AcDbVariableDictionary
350
11F
  3
ASE_INDEX_DICTIONARY
350
129
  0
DICTIONARY
  5
135
330
2
100
AcDbDictionary
280
     1
281
     1
  3
ACAD_LAYERFILTERS
360
137
  3
ACLYDICTIONARY
360
136
  0
DICTIONARY
  5
F1
102
{ACAD_REACTORS
330
C
102
}
330
C
100
AcDbDictionary
281
     1
  0
DICTIONARY
  5
D
102
{ACAD_REACTORS
330
C
102
}
330
C
100
AcDbDictionary
281
     1
  0
DICTIONARY
  5
F4
102
{ACAD_REACTORS
330
C
102
}
330
C
100
AcDbDictionary
281
     1
  3
Layout1
350
F7
  3
Model
350
F6
  0
DICTIONARY
  5
F0
102
{ACAD_REACTORS
330
C
102
}
330
C
100
AcDbDictionary
281
     1
  0
DICTIONARY
  5
1B
102
{ACAD_REACTORS
330
C
102
}
330
C
100
AcDbDictionary
281
     1
  3
STANDARD
350
1C
  0
DICTIONARY
  5
F5
102
{ACAD_REACTORS
330
C
102
}
330
C
100
AcDbDictionary
281
     1
  0
ACDBDICTIONARYWDFLT
  5
EE
102
{ACAD_REACTORS
330
C
102
}
330
C
100
AcDbDictionary
281
     1
  3
Normal
350
EF
100
AcDbDictionaryWithDefault
340
EF
  0
DICTIONARY
  5
F2
102
{ACAD_REACTORS
330
C
102
}
330
C
100
AcDbDictionary
281
     1
  3
Standard
350
F3
  0
DICTIONARY
  5
A42
102
{ACAD_REACTORS
330
C
102
}
330
C
100
AcDbDictionary
281
     1
  0
DICTIONARY
  5
11F
102
{ACAD_REACTORS
330
C
102
}
330
C
100
AcDbDictionary
281
     1
  3
CTABLESTYLE
350
120
  3
DIMASSOC
350
A3F
  3
PROJECTNAME
350
A40
  0
DICTIONARY
  5
129
102
{ACAD_REACTORS
330
C
102
}
330
C
100
AcDbDictionary
281
     1
  3
ASEBlockHierarchyIndexRecord
350
12B
1001
DCO15
1040
1529147970.445
  0
DICTIONARY
  5
137
102
{ACAD_REACTORS
330
135
102
}
330
135
100
AcDbDictionary
281
     1
  0
DICTIONARY
  5
136
102
{ACAD_REACTORS
330
135
102
}
330
135
100
AcDbDictionary
281
     1
1001
ACAD
1000
<All
  0
LAYOUT
  5
F7
102
{ACAD_XDICTIONARY
360
A45
102
}
102
{ACAD_REACTORS
330
F4
102
}
330
F4
100
AcDbPlotSettings
  1

  2
\\RSENG\RSplotter4NT
  4

  6

 40
0.0
 41
0.0
 42
0.0
 43
0.0
 44
0.0
 45
0.0
 46
0.0
 47
0.0
 48
0.0
 49
0.0
140
0.0
141
0.0
142
1.0
143
1.0
 70
   688
 72
     0
 73
     0
 74
     5
  7
Symantec Fax Starter Edition
 75
    16
147
1.0
148
0.0
149
0.0
100
AcDbLayout
  1
Layout1
 70
     1
 71
     1
 10
0.0
 20
0.0
 11
12.0
 21
9.0
 12
0.0
 22
0.0
 32
0.0
 14
1.000000000000000E+20
 24
1.000000000000000E+20
 34
1.000000000000000E+20
 15
-1.000000000000000E+20
 25
-1.000000000000000E+20
 35
-1.000000000000000E+20
146
0.0
 13
0.0
 23
0.0
 33
0.0
 16
1.0
 26
0.0
 36
0.0
 17
0.0
 27
1.0
 37
0.0
 76
     0
330
15
  0
LAYOUT
  5
F6
102
{ACAD_XDICTIONARY
360
A43
102
}
102
{ACAD_REACTORS
330
F4
102
}
330
F4
100
AcDbPlotSettings
  1

  2
\\RSENG\RSplotter4NT
  4

  6

 40
0.0
 41
0.0
 42
0.0
 43
0.0
 44
0.0
 45
0.0
 46
0.0
 47
0.0
 48
0.0
 49
0.0
140
0.0
141
0.0
142
1.0
143
1.0
 70
  1712
 72
     0
 73
     0
 74
     0
  7
Symantec Fax Starter Edition
 75
     0
147
1.0
148
0.0
149
0.0
100
AcDbLayout
  1
Model
 70
     1
 71
     0
 10
0.0
 20
0.0
 11
12.0
 21
9.0
 12
0.0
 22
0.0
 32
0.0
 14
0.0
 24
0.0
 34
0.0
 15
0.0
 25
0.0
 35
0.0
146
0.0
 13
0.0
 23
0.0
 33
0.0
 16
1.0
 26
0.0
 36
0.0
 17
0.0
 27
1.0
 37
0.0
 76
     0
330
18
  0
MLINESTYLE
  5
1C
102
{ACAD_REACTORS
330
1B
102
}
330
1B
100
AcDbMlineStyle
  2
STANDARD
 70
     0
  3

 62
   256
 51
90.0
 52
90.0
 71
     2
 49
0.5
 62
   256
  6
BYLAYER
 49
-0.5
 62
   256
  6
BYLAYER
  0
ACDBPLACEHOLDER
  5
EF
102
{ACAD_REACTORS
330
EE
102
}
330
EE
  0
TABLESTYLE
  5
F3
102
{ACAD_REACTORS
330
F2
102
}
330
F2
100
AcDbTableStyle
  3
Standard
 70
     0
 71
     0
 40
0.06
 41
0.06
280
     0
281
     0
  7
STANDARD
140
0.18
170
     2
 62
     0
 63
     7
283
     0
274
    -2
284
     1
 64
     0
275
    -2
285
     1
 65
     0
276
    -2
286
     1
 66
     0
277
    -2
287
     1
 67
     0
278
    -2
288
     1
 68
     0
279
    -2
289
     1
 69
     0
  7
STANDARD
140
0.25
170
     5
 62
     0
 63
     7
283
     0
274
    -2
284
     1
 64
     0
275
    -2
285
     1
 65
     0
276
    -2
286
     1
 66
     0
277
    -2
287
     1
 67
     0
278
    -2
288
     1
 68
     0
279
    -2
289
     1
 69
     0
  7
STANDARD
140
0.18
170
     5
 62
     0
 63
     7
283
     0
274
    -2
284
     1
 64
     0
275
    -2
285
     1
 65
     0
276
    -2
286
     1
 66
     0
277
    -2
287
     1
 67
     0
278
    -2
288
     1
 68
     0
279
    -2
289
     1
 69
     0
  0
DICTIONARYVAR
  5
120
102
{ACAD_REACTORS
330
11F
102
}
330
11F
100
DictionaryVariables
280
     0
  1
STANDARD
  0
DICTIONARYVAR
  5
A3F
102
{ACAD_REACTORS
330
11F
102
}
330
11F
100
DictionaryVariables
280
     0
  1
1
  0
DICTIONARYVAR
  5
A40
102
{ACAD_REACTORS
330
11F
102
}
330
11F
100
DictionaryVariables
280
     0
  1

  0
XRECORD
  5
12B
102
{ACAD_REACTORS
330
129
102
}
330
129
100
AcDbXrecord
280
     1
  0
DICTIONARY
  5
A45
330
F7
100
AcDbDictionary
280
     1
281
     1
  3
ACAD_XREC_ROUNDTRIP
360
A46
  0
DICTIONARY
  5
A43
330
F6
100
AcDbDictionary
280
     1
281
     1
  3
ACAD_XREC_ROUNDTRIP
360
A44
  0
XRECORD
  5
A46
102
{ACAD_REACTORS
330
A45
102
}
330
A45
100
AcDbXrecord
280
     1
102
SHADEPLOT
 70
     0
102
SHADEPLOTRESLEVEL
 70
     2
102
SHADEPLOTCUSTOMDPI
 70
   300
  0
XRECORD
  5
A44
102
{ACAD_REACTORS
330
A43
102
}
330
A43
100
AcDbXrecord
280
     1
102
SHADEPLOT
 70
     0
102
SHADEPLOTRESLEVEL
 70
     2
102
SHADEPLOTCUSTOMDPI
 70
   300
  0
ENDSEC
  0
EOF
