  0
SECTION
  2
HEADER
  9
$ACADVER
  1
AC1015
  9
$ACADMAINTVER
 70
    20
  9
$DWGCODEPAGE
  3
ANSI_1252
  9
$INSBASE
 10
0.0
 20
0.0
 30
0.0
  9
$EXTMIN
 10
-0.075
 20
-0.075
 30
0.0
  9
$EXTMAX
 10
22.075
 20
17.075
 30
0.0
  9
$LIMMIN
 10
0.0
 20
0.0
  9
$LIMMAX
 10
12.0
 20
9.0
  9
$ORTHOMODE
 70
     0
  9
$REGENMODE
 70
     1
  9
$FILLMODE
 70
     1
  9
$QTEXTMODE
 70
     0
  9
$MIRRTEXT
 70
     1
  9
$LTSCALE
 40
1.0
  9
$ATTMODE
 70
     1
  9
$TEXTSIZE
 40
0.09
  9
$TRACEWID
 40
0.05
  9
$TEXTSTYLE
  7
STANDARD
  9
$CLAYER
  8
0
  9
$CELTYPE
  6
BYLAYER
  9
$CECOLOR
 62
   256
  9
$CELTSCALE
 40
1.0
  9
$DISPSILH
 70
     0
  9
$DIMSCALE
 40
1.0
  9
$DIMASZ
 40
0.125
  9
$DIMEXO
 40
0.0625
  9
$DIMDLI
 40
0.38
  9
$DIMRND
 40
0.0
  9
$DIMDLE
 40
0.0
  9
$DIMEXE
 40
0.125
  9
$DIMTP
 40
0.0
  9
$DIMTM
 40
0.0
  9
$DIMTXT
 40
0.09
  9
$DIMCEN
 40
0.09
  9
$DIMTSZ
 40
0.0
  9
$DIMTOL
 70
     0
  9
$DIMLIM
 70
     0
  9
$DIMTIH
 70
     1
  9
$DIMTOH
 70
     1
  9
$DIMSE1
 70
     0
  9
$DIMSE2
 70
     0
  9
$DIMTAD
 70
     0
  9
$DIMZIN
 70
     0
  9
$DIMBLK
  1

  9
$DIMASO
 70
     1
  9
$DIMSHO
 70
     1
  9
$DIMPOST
  1

  9
$DIMAPOST
  1
mm
  9
$DIMALT
 70
     1
  9
$DIMALTD
 70
     1
  9
$DIMALTF
 40
25.4
  9
$DIMLFAC
 40
1.0
  9
$DIMTOFL
 70
     0
  9
$DIMTVP
 40
0.0
  9
$DIMTIX
 70
     0
  9
$DIMSOXD
 70
     0
  9
$DIMSAH
 70
     0
  9
$DIMBLK1
  1

  9
$DIMBLK2
  1

  9
$DIMSTYLE
  2
STANDARD
  9
$DIMCLRD
 70
     0
  9
$DIMCLRE
 70
     0
  9
$DIMCLRT
 70
     0
  9
$DIMTFAC
 40
1.0
  9
$DIMGAP
 40
0.09
  9
$DIMJUST
 70
     0
  9
$DIMSD1
 70
     0
  9
$DIMSD2
 70
     0
  9
$DIMTOLJ
 70
     1
  9
$DIMTZIN
 70
     0
  9
$DIMALTZ
 70
     0
  9
$DIMALTTZ
 70
     0
  9
$DIMUPT
 70
     0
  9
$DIMDEC
 70
     2
  9
$DIMTDEC
 70
     2
  9
$DIMALTU
 70
     2
  9
$DIMALTTD
 70
     1
  9
$DIMTXSTY
  7
STANDARD
  9
$DIMAUNIT
 70
     0
  9
$DIMADEC
 70
     0
  9
$DIMALTRND
 40
0.0
  9
$DIMAZIN
 70
     0
  9
$DIMDSEP
 70
    46
  9
$DIMATFIT
 70
     3
  9
$DIMFRAC
 70
     0
  9
$DIMLDRBLK
  1

  9
$DIMLUNIT
 70
     2
  9
$DIMLWD
 70
    -2
  9
$DIMLWE
 70
    -2
  9
$DIMTMOVE
 70
     0
  9
$LUNITS
 70
     2
  9
$LUPREC
 70
     2
  9
$SKETCHINC
 40
0.1
  9
$FILLETRAD
 40
0.5
  9
$AUNITS
 70
     0
  9
$AUPREC
 70
     0
  9
$MENU
  1
.
  9
$ELEVATION
 40
0.0
  9
$PELEVATION
 40
0.0
  9
$THICKNESS
 40
0.0
  9
$LIMCHECK
 70
     0
  9
$CHAMFERA
 40
0.5
  9
$CHAMFERB
 40
0.5
  9
$CHAMFERC
 40
1.0
  9
$CHAMFERD
 40
0.0
  9
$SKPOLY
 70
     0
  9
$TDCREATE
 40
2451681.555436007
  9
$TDUCREATE
 40
2451681.763769340
  9
$TDUPDATE
 40
2454294.553104931
  9
$TDUUPDATE
 40
2454294.761438264
  9
$TDINDWG
 40
0.2188741088
  9
$TDUSRTIMER
 40
0.2188741088
  9
$USRTIMER
 70
     1
  9
$ANGBASE
 50
0.0
  9
$ANGDIR
 70
     0
  9
$PDMODE
 70
     2
  9
$PDSIZE
 40
0.075
  9
$PLINEWID
 40
0.0
  9
$SPLFRAME
 70
     0
  9
$SPLINETYPE
 70
     6
  9
$SPLINESEGS
 70
     8
  9
$HANDSEED
  5
B55
  9
$SURFTAB1
 70
     6
  9
$SURFTAB2
 70
     6
  9
$SURFTYPE
 70
     6
  9
$SURFU
 70
     6
  9
$SURFV
 70
     6
  9
$UCSBASE
  2

  9
$UCSNAME
  2

  9
$UCSORG
 10
0.0
 20
0.0
 30
0.0
  9
$UCSXDIR
 10
1.0
 20
0.0
 30
0.0
  9
$UCSYDIR
 10
0.0
 20
1.0
 30
0.0
  9
$UCSORTHOREF
  2

  9
$UCSORTHOVIEW
 70
     0
  9
$UCSORGTOP
 10
0.0
 20
0.0
 30
0.0
  9
$UCSORGBOTTOM
 10
0.0
 20
0.0
 30
0.0
  9
$UCSORGLEFT
 10
0.0
 20
0.0
 30
0.0
  9
$UCSORGRIGHT
 10
0.0
 20
0.0
 30
0.0
  9
$UCSORGFRONT
 10
0.0
 20
0.0
 30
0.0
  9
$UCSORGBACK
 10
0.0
 20
0.0
 30
0.0
  9
$PUCSBASE
  2

  9
$PUCSNAME
  2

  9
$PUCSORG
 10
0.0
 20
0.0
 30
0.0
  9
$PUCSXDIR
 10
1.0
 20
0.0
 30
0.0
  9
$PUCSYDIR
 10
0.0
 20
1.0
 30
0.0
  9
$PUCSORTHOREF
  2

  9
$PUCSORTHOVIEW
 70
     0
  9
$PUCSORGTOP
 10
0.0
 20
0.0
 30
0.0
  9
$PUCSORGBOTTOM
 10
0.0
 20
0.0
 30
0.0
  9
$PUCSORGLEFT
 10
0.0
 20
0.0
 30
0.0
  9
$PUCSORGRIGHT
 10
0.0
 20
0.0
 30
0.0
  9
$PUCSORGFRONT
 10
0.0
 20
0.0
 30
0.0
  9
$PUCSORGBACK
 10
0.0
 20
0.0
 30
0.0
  9
$USERI1
 70
     0
  9
$USERI2
 70
     0
  9
$USERI3
 70
     0
  9
$USERI4
 70
     0
  9
$USERI5
 70
     0
  9
$USERR1
 40
0.0
  9
$USERR2
 40
0.0
  9
$USERR3
 40
0.0
  9
$USERR4
 40
0.0
  9
$USERR5
 40
0.0
  9
$WORLDVIEW
 70
     1
  9
$SHADEDGE
 70
     3
  9
$SHADEDIF
 70
    70
  9
$TILEMODE
 70
     1
  9
$MAXACTVP
 70
    48
  9
$PINSBASE
 10
0.0
 20
0.0
 30
0.0
  9
$PLIMCHECK
 70
     0
  9
$PEXTMIN
 10
1.000000000000000E+20
 20
1.000000000000000E+20
 30
1.000000000000000E+20
  9
$PEXTMAX
 10
-1.000000000000000E+20
 20
-1.000000000000000E+20
 30
-1.000000000000000E+20
  9
$PLIMMIN
 10
0.0
 20
0.0
  9
$PLIMMAX
 10
12.0
 20
9.0
  9
$UNITMODE
 70
     0
  9
$VISRETAIN
 70
     1
  9
$PLINEGEN
 70
     0
  9
$PSLTSCALE
 70
     1
  9
$TREEDEPTH
 70
  3020
  9
$CMLSTYLE
  2
STANDARD
  9
$CMLJUST
 70
     0
  9
$CMLSCALE
 40
1.0
  9
$PROXYGRAPHICS
 70
     1
  9
$MEASUREMENT
 70
     0
  9
$CELWEIGHT
370
    -1
  9
$ENDCAPS
280
     0
  9
$JOINSTYLE
280
     0
  9
$LWDISPLAY
290
     0
  9
$INSUNITS
 70
     0
  9
$HYPERLINKBASE
  1

  9
$STYLESHEET
  1

  9
$XEDIT
290
     1
  9
$CEPSNTYPE
380
     0
  9
$PSTYLEMODE
290
     1
  9
$FINGERPRINTGUID
  2
{71EC7F31-AA06-4ECF-8D30-7E7FC2EDBC33}
  9
$VERSIONGUID
  2
{5C4698BD-03F1-41CF-8F79-6C093BC0529B}
  9
$EXTNAMES
290
     1
  9
$PSVPSCALE
 40
0.0
  9
$OLESTARTUP
290
     0
  0
ENDSEC
  0
SECTION
  2
CLASSES
  0
CLASS
  1
ACDBDICTIONARYWDFLT
  2
AcDbDictionaryWithDefault
  3
ObjectDBX Classes
 90
        0
280
     0
281
     0
  0
CLASS
  1
TABLESTYLE
  2
AcDbTableStyle
  3
ObjectDBX Classes
 90
     2047
280
     0
281
     0
  0
CLASS
  1
DICTIONARYVAR
  2
AcDbDictionaryVar
  3
ObjectDBX Classes
 90
        0
280
     0
281
     0
  0
CLASS
  1
ACDBPLACEHOLDER
  2
AcDbPlaceHolder
  3
ObjectDBX Classes
 90
        0
280
     0
281
     0
  0
CLASS
  1
LAYOUT
  2
AcDbLayout
  3
ObjectDBX Classes
 90
        0
280
     0
281
     0
  0
ENDSEC
  0
SECTION
  2
TABLES
  0
TABLE
  2
VPORT
  5
8
330
0
100
AcDbSymbolTable
 70
     2
  0
VPORT
  5
B4F
330
8
100
AcDbSymbolTableRecord
100
AcDbViewportTableRecord
  2
*Active
 70
     0
 10
0.0
 20
0.0
 11
1.0
 21
1.0
 12
11.00000020629897
 22
9.103910716622127
 13
0.0
 23
0.0
 14
0.5
 24
0.5
 15
0.5
 25
0.5
 16
0.0
 26
0.0
 36
1.0
 17
0.0
 27
0.0
 37
0.0
 40
18.4693371090867
 41
1.499364675984752
 42
50.0
 43
0.0
 44
0.0
 50
0.0
 51
0.0
 71
     0
 72
   100
 73
     1
 74
     1
 75
     0
 76
     0
 77
     0
 78
     0
281
     0
 65
     1
110
0.0
120
0.0
130
0.0
111
1.0
121
0.0
131
0.0
112
0.0
122
1.0
132
0.0
 79
     0
146
0.0
  0
ENDTAB
  0
TABLE
  2
LTYPE
  5
5
330
0
100
AcDbSymbolTable
 70
     1
  0
LTYPE
  5
12
330
5
100
AcDbSymbolTableRecord
100
AcDbLinetypeTableRecord
  2
BYBLOCK
 70
     0
  3

 72
    65
 73
     0
 40
0.0
  0
LTYPE
  5
13
330
5
100
AcDbSymbolTableRecord
100
AcDbLinetypeTableRecord
  2
BYLAYER
 70
     0
  3

 72
    65
 73
     0
 40
0.0
  0
LTYPE
  5
14
330
5
100
AcDbSymbolTableRecord
100
AcDbLinetypeTableRecord
  2
CONTINUOUS
 70
     0
  3
Solid line
 72
    65
 73
     0
 40
0.0
  0
ENDTAB
  0
TABLE
  2
LAYER
  5
2
102
{ACAD_XDICTIONARY
360
154
102
}
330
0
100
AcDbSymbolTable
 70
     6
  0
LAYER
  5
E
330
2
100
AcDbSymbolTableRecord
100
AcDbLayerTableRecord
  2
0
 70
     0
 62
     7
  6
CONTINUOUS
370
    -3
390
10B
  0
LAYER
  5
20
330
2
100
AcDbSymbolTableRecord
100
AcDbLayerTableRecord
  2
Title Block
 70
     0
 62
     3
  6
CONTINUOUS
370
    -3
390
10B
  0
LAYER
  5
21
330
2
100
AcDbSymbolTableRecord
100
AcDbLayerTableRecord
  2
Dimension
 70
     0
 62
     6
  6
CONTINUOUS
370
    -3
390
10B
  0
LAYER
  5
22
330
2
100
AcDbSymbolTableRecord
100
AcDbLayerTableRecord
  2
Text
 70
     0
 62
     1
  6
CONTINUOUS
370
    -3
390
10B
  0
LAYER
  5
23
330
2
100
AcDbSymbolTableRecord
100
AcDbLayerTableRecord
  2
Object
 70
     0
 62
     5
  6
CONTINUOUS
370
    -3
390
10B
  0
LAYER
  5
179
330
2
100
AcDbSymbolTableRecord
100
AcDbLayerTableRecord
  2
Defpoints
 70
     0
 62
     7
  6
CONTINUOUS
290
     0
370
    -3
390
10B
  0
ENDTAB
  0
TABLE
  2
STYLE
  5
3
330
0
100
AcDbSymbolTable
 70
     1
  0
STYLE
  5
F
330
3
100
AcDbSymbolTableRecord
100
AcDbTextStyleTableRecord
  2
STANDARD
 70
     0
 40
0.0
 41
1.0
 50
0.0
 71
     0
 42
0.09
  3
technic_.ttf
  4

1001
ACAD
1000
Technic
1071
      514
  0
ENDTAB
  0
TABLE
  2
VIEW
  5
6
330
0
100
AcDbSymbolTable
 70
     0
  0
ENDTAB
  0
TABLE
  2
UCS
  5
7
330
0
100
AcDbSymbolTable
 70
     0
  0
ENDTAB
  0
TABLE
  2
APPID
  5
9
330
0
100
AcDbSymbolTable
 70
     4
  0
APPID
  5
10
330
9
100
AcDbSymbolTableRecord
100
AcDbRegAppTableRecord
  2
ACAD
 70
     0
  0
APPID
  5
149
330
9
100
AcDbSymbolTableRecord
100
AcDbRegAppTableRecord
  2
DCO15
 70
     0
  0
APPID
  5
153
330
9
100
AcDbSymbolTableRecord
100
AcDbRegAppTableRecord
  2
AcAecLayerStandard
 70
     0
  0
APPID
  5
1A9
330
9
100
AcDbSymbolTableRecord
100
AcDbRegAppTableRecord
  2
ACAD_DSTYLE_DIMTEXT_FILL
 70
     0
  0
ENDTAB
  0
TABLE
  2
DIMSTYLE
  5
A
330
0
100
AcDbSymbolTable
 70
     1
100
AcDbDimStyleTable
 71
     1
340
1D
  0
DIMSTYLE
105
1D
102
{ACAD_REACTORS
330
A71
330
B19
102
}
330
A
100
AcDbSymbolTableRecord
100
AcDbDimStyleTableRecord
  2
STANDARD
 70
     0
  4
mm
 41
0.125
 44
0.125
140
0.09
170
     1
171
     1
271
     2
272
     2
274
     1
340
F
  0
ENDTAB
  0
TABLE
  2
BLOCK_RECORD
  5
1
330
0
100
AcDbSymbolTable
 70
     2
  0
BLOCK_RECORD
  5
18
330
1
100
AcDbSymbolTableRecord
100
AcDbBlockTableRecord
  2
*MODEL_SPACE
340
112
  0
BLOCK_RECORD
  5
15
330
1
100
AcDbSymbolTableRecord
100
AcDbBlockTableRecord
  2
*PAPER_SPACE
340
113
  0
BLOCK_RECORD
  5
A72
330
1
100
AcDbSymbolTableRecord
100
AcDbBlockTableRecord
  2
*D0
340
0
  0
BLOCK_RECORD
  5
B1A
330
1
100
AcDbSymbolTableRecord
100
AcDbBlockTableRecord
  2
*D1
340
0
  0
ENDTAB
  0
ENDSEC
  0
SECTION
  2
BLOCKS
  0
BLOCK
  5
19
330
18
100
AcDbEntity
  8
0
100
AcDbBlockBegin
  2
*MODEL_SPACE
 70
     0
 10
0.0
 20
0.0
 30
0.0
  3
*MODEL_SPACE
  1

  0
ENDBLK
  5
1A
330
18
100
AcDbEntity
  8
0
100
AcDbBlockEnd
  0
BLOCK
  5
16
330
15
100
AcDbEntity
 67
     1
  8
0
100
AcDbBlockBegin
  2
*PAPER_SPACE
 70
     0
 10
0.0
 20
0.0
 30
0.0
  3
*PAPER_SPACE
  1

  0
ENDBLK
  5
17
330
15
100
AcDbEntity
 67
     1
  8
0
100
AcDbBlockEnd
  0
BLOCK
  5
A7D
330
A72
100
AcDbEntity
  8
0
100
AcDbBlockBegin
  2
*D0
 70
     1
 10
0.0
 20
0.0
 30
0.0
  3
*D0
  1

  0
LINE
  5
A73
330
A72
100
AcDbEntity
  8
Dimension
 62
     0
370
    -2
100
AcDbLine
 10
16.158
 20
11.9205
 30
0.0
 11
16.158
 21
12.96436935954833
 31
0.0
  0
LINE
  5
A74
330
A72
100
AcDbEntity
  8
Dimension
 62
     0
370
    -2
100
AcDbLine
 10
18.809
 20
11.9205
 30
0.0
 11
18.809
 21
12.96436935954833
 31
0.0
  0
LINE
  5
A75
330
A72
100
AcDbEntity
  8
Dimension
 62
     0
370
    -2
100
AcDbLine
 10
16.283
 20
12.83936935954833
 30
0.0
 11
16.9785
 21
12.83936935954833
 31
0.0
  0
LINE
  5
A76
330
A72
100
AcDbEntity
  8
Dimension
 62
     0
370
    -2
100
AcDbLine
 10
18.684
 20
12.83936935954833
 30
0.0
 11
17.9885
 21
12.83936935954833
 31
0.0
  0
SOLID
  5
A77
330
A72
100
AcDbEntity
  8
Dimension
 62
     0
100
AcDbTrace
 10
16.283
 20
12.86020269288166
 30
0.0
 11
16.283
 21
12.81853602621499
 31
0.0
 12
16.158
 22
12.83936935954833
 32
0.0
 13
16.158
 23
12.83936935954833
 33
0.0
  0
SOLID
  5
A78
330
A72
100
AcDbEntity
  8
Dimension
 62
     0
100
AcDbTrace
 10
18.684
 20
12.86020269288166
 30
0.0
 11
18.684
 21
12.81853602621499
 31
0.0
 12
18.809
 22
12.83936935954833
 32
0.0
 13
18.809
 23
12.83936935954833
 33
0.0
  0
MTEXT
  5
A79
330
A72
100
AcDbEntity
  8
Dimension
 62
     0
100
AcDbMText
 10
17.4835
 20
12.83936935954833
 30
0.0
 40
0.09
 41
0.0
 71
     5
 72
     1
  1
\A1;2.65 [67.3mm]
 73
     1
 44
1.0
1001
ACAD
1000
MTEXTBEGIN
1070
    73
1070
     1
1070
    44
1040
1.0
1070
    74
1070
     0
1000
MTEXTEND
  0
POINT
  5
A7A
330
A72
100
AcDbEntity
  8
Defpoints
 62
     0
100
AcDbPoint
 10
16.158
 20
11.858
 30
0.0
  0
POINT
  5
A7B
330
A72
100
AcDbEntity
  8
Defpoints
 62
     0
100
AcDbPoint
 10
18.809
 20
11.858
 30
0.0
  0
POINT
  5
A7C
330
A72
100
AcDbEntity
  8
Defpoints
 62
     0
100
AcDbPoint
 10
18.809
 20
12.83936935954833
 30
0.0
  0
ENDBLK
  5
A7E
330
A72
100
AcDbEntity
  8
0
100
AcDbBlockEnd
  0
BLOCK
  5
B25
330
B1A
100
AcDbEntity
  8
0
100
AcDbBlockBegin
  2
*D1
 70
     1
 10
0.0
 20
0.0
 30
0.0
  3
*D1
  1

  0
LINE
  5
B34
330
B1A
100
AcDbEntity
  8
Dimension
 62
     0
370
    -2
100
AcDbLine
 10
3.249
 20
8.0105
 30
0.0
 11
3.249
 21
12.96436935954833
 31
0.0
  0
LINE
  5
B35
330
B1A
100
AcDbEntity
  8
Dimension
 62
     0
370
    -2
100
AcDbLine
 10
10.22
 20
11.7605
 30
0.0
 11
10.22
 21
12.96436935954833
 31
0.0
  0
LINE
  5
B36
330
B1A
100
AcDbEntity
  8
Dimension
 62
     0
370
    -2
100
AcDbLine
 10
3.374
 20
12.83936935954833
 30
0.0
 11
6.20403947368421
 21
12.83936935954833
 31
0.0
  0
LINE
  5
B37
330
B1A
100
AcDbEntity
  8
Dimension
 62
     0
370
    -2
100
AcDbLine
 10
10.095
 20
12.83936935954833
 30
0.0
 11
7.26496052631579
 21
12.83936935954833
 31
0.0
  0
SOLID
  5
B38
330
B1A
100
AcDbEntity
  8
Dimension
 62
     0
100
AcDbTrace
 10
3.374
 20
12.86020269288166
 30
0.0
 11
3.374
 21
12.81853602621499
 31
0.0
 12
3.249
 22
12.83936935954833
 32
0.0
 13
3.249
 23
12.83936935954833
 33
0.0
  0
SOLID
  5
B39
330
B1A
100
AcDbEntity
  8
Dimension
 62
     0
100
AcDbTrace
 10
10.095
 20
12.86020269288166
 30
0.0
 11
10.095
 21
12.81853602621499
 31
0.0
 12
10.22
 22
12.83936935954833
 32
0.0
 13
10.22
 23
12.83936935954833
 33
0.0
  0
MTEXT
  5
B3A
330
B1A
100
AcDbEntity
  8
Dimension
 62
     0
100
AcDbMText
 10
6.7345
 20
12.83936935954833
 30
0.0
 40
0.09
 41
0.0
 71
     5
 72
     1
  1
\A1;6.94 [176.4mm]
 73
     1
 44
1.0
1001
ACAD
1000
MTEXTBEGIN
1070
    73
1070
     1
1070
    44
1040
1.0
1070
    74
1070
     0
1000
MTEXTEND
  0
POINT
  5
B3B
330
B1A
100
AcDbEntity
  8
Defpoints
 62
     0
100
AcDbPoint
 10
3.249
 20
7.948
 30
0.0
  0
POINT
  5
B3C
330
B1A
100
AcDbEntity
  8
Defpoints
 62
     0
100
AcDbPoint
 10
10.22
 20
11.698
 30
0.0
  0
POINT
  5
B3D
330
B1A
100
AcDbEntity
  8
Defpoints
 62
     0
100
AcDbPoint
 10
10.22
 20
12.83936935954833
 30
0.0
  0
ENDBLK
  5
B26
330
B1A
100
AcDbEntity
  8
0
100
AcDbBlockEnd
  0
ENDSEC
  0
SECTION
  2
ENTITIES
  0
TEXT
  5
51
330
18
100
AcDbEntity
  8
Title Block
100
AcDbText
 10
17.77669501265554
 20
2.672489851525508
 30
0.0
 40
0.05
  1
FILENAME:
100
AcDbText
  0
TEXT
  5
52
330
18
100
AcDbEntity
  8
Title Block
100
AcDbText
 10
17.76928502872825
 20
2.076224967549325
 30
0.0
 40
0.35
  1
PANDUIT
100
AcDbText
  0
TEXT
  5
53
330
18
100
AcDbEntity
  8
Title Block
100
AcDbText
 10
19.72182039882138
 20
2.061410940562986
 30
0.0
 40
0.125
  1
CORP. TINLEY PARK, IL
100
AcDbText
  0
TEXT
  5
54
330
18
100
AcDbEntity
  8
Title Block
100
AcDbText
 10
17.78039997670861
 20
1.91697409709392
 30
0.0
 40
0.05
  1
TITLE:
100
AcDbText
  0
MTEXT
  5
57
330
18
100
AcDbEntity
  8
Title Block
100
AcDbMText
 10
19.0
 20
1.372215793536348
 30
0.0
 40
0.075
 41
2.5
 71
     5
 72
     5
  1
UNLESS OTHERWISE SPECIFIED,\PDIMENSIONAL TOLERANCES ARE:       
 73
     1
 44
1.0
1001
ACAD
1000
MTEXTBEGIN
1070
    73
1070
     1
1070
    44
1040
1.0
1070
    74
1070
     0
1000
MTEXTEND
  0
MTEXT
  5
58
330
18
100
AcDbEntity
  8
Title Block
100
AcDbMText
 10
18.39237986661001
 20
1.131487708483632
 30
0.0
 40
0.075
 41
2.5
 71
     5
 72
     5
  1
(.X)\P(.XX)
 73
     1
 44
1.0
1001
ACAD
1000
MTEXTBEGIN
1070
    73
1070
     1
1070
    44
1040
1.0
1070
    74
1070
     0
1000
MTEXTEND
  0
MTEXT
  5
59
330
18
100
AcDbEntity
  8
Title Block
100
AcDbMText
 10
19.40014005312411
 20
1.131487708483632
 30
0.0
 40
0.075
 41
2.5
 71
     5
 72
     5
  1
(.XXX)\PANGLES:
 73
     1
 44
1.0
1001
ACAD
1000
MTEXTBEGIN
1070
    73
1070
     1
1070
    44
1040
1.0
1070
    74
1070
     0
1000
MTEXTEND
  0
MTEXT
  5
5A
330
18
100
AcDbEntity
  8
Title Block
100
AcDbMText
 10
21.0
 20
1.25
 30
0.0
 40
0.06
 41
1.5
 71
     5
 72
     5
  1
UNLESS OTHERWISE SPECIFIED,\PALL DIMENSIONS ARE GIVEN IN INCHES, THIRD ANGLE PROJECTION
 73
     1
 44
1.0
1001
ACAD
1000
MTEXTBEGIN
1070
    73
1070
     1
1070
    44
1040
1.0
1070
    74
1070
     0
1000
MTEXTEND
  0
TEXT
  5
5E
330
18
100
AcDbEntity
  8
Title Block
100
AcDbText
 10
17.76076445430618
 20
0.9281373372752312
 30
0.0
 40
0.05
  1
DRAWN BY:
100
AcDbText
  0
TEXT
  5
5F
330
18
100
AcDbEntity
  8
Title Block
100
AcDbText
 10
17.76446947418043
 20
0.6811431865635028
 30
0.0
 40
0.05
  1
DATE:
100
AcDbText
  0
TEXT
  5
60
330
18
100
AcDbEntity
  8
Title Block
100
AcDbText
 10
17.76817443823349
 20
0.4304455338317968
 30
0.0
 40
0.05
  1
CHECKED BY:
100
AcDbText
  0
TEXT
  5
62
330
18
100
AcDbEntity
  8
Title Block
100
AcDbText
 10
18.52028959313306
 20
0.9281373372752312
 30
0.0
 40
0.05
  1
MATERIAL:
100
AcDbText
  0
TEXT
  5
63
330
18
100
AcDbEntity
  8
Title Block
100
AcDbText
 10
20.26534493878154
 20
0.9281373372752312
 30
0.0
 40
0.05
  1
SCALE:
100
AcDbText
  0
TEXT
  5
64
330
18
100
AcDbEntity
  8
Title Block
100
AcDbText
 10
20.26534493878154
 20
0.6725952630490007
 30
0.0
 40
0.05
  1
DRAWING NUMBER:
100
AcDbText
  0
TEXT
  5
65
330
18
100
AcDbEntity
  8
Title Block
100
AcDbText
 10
21.34942622928997
 20
0.6762987650689816
 30
0.0
 40
0.05
  1
DRAWING
100
AcDbText
  0
TEXT
  5
66
330
18
100
AcDbEntity
  8
Title Block
100
AcDbText
 10
21.42723125590085
 20
0.2811642688682026
 30
0.0
 40
0.05
  1
SIZE
100
AcDbText
  0
TEXT
  5
67
330
18
100
AcDbEntity
  8
Title Block
100
AcDbText
 10
21.39373130657865
 20
0.3826699445861052
 30
0.0
 40
0.25
  1
C
100
AcDbText
  0
MTEXT
  5
68
330
18
100
AcDbEntity
  8
Title Block
100
AcDbMText
 10
11.37499999999999
 20
0.375
 30
0.0
 40
0.05
 41
0.25
 71
     5
 72
     5
  1
REV
 73
     1
 44
1.0
1001
ACAD
1000
MTEXTBEGIN
1070
    73
1070
     1
1070
    44
1040
1.0
1070
    74
1070
     0
1000
MTEXTEND
  0
MTEXT
  5
69
330
18
100
AcDbEntity
  8
Title Block
100
AcDbMText
 10
11.74999999999999
 20
0.375
 30
0.0
 40
0.05
 41
0.5
 71
     5
 72
     5
  1
DATE
 73
     1
 44
1.0
1001
ACAD
1000
MTEXTBEGIN
1070
    73
1070
     1
1070
    44
1040
1.0
1070
    74
1070
     0
1000
MTEXTEND
  0
MTEXT
  5
6A
330
18
100
AcDbEntity
  8
Title Block
100
AcDbMText
 10
12.18999999999999
 20
0.375
 30
0.0
 40
0.05
 41
0.38
 71
     5
 72
     5
  1
BY
 73
     1
 44
1.0
1001
ACAD
1000
MTEXTBEGIN
1070
    73
1070
     1
1070
    44
1040
1.0
1070
    74
1070
     0
1000
MTEXTEND
  0
MTEXT
  5
6B
330
18
100
AcDbEntity
  8
Title Block
100
AcDbMText
 10
12.56499999999999
 20
0.375
 30
0.0
 40
0.05
 41
0.38
 71
     5
 72
     5
  1
CHK
 73
     1
 44
1.0
1001
ACAD
1000
MTEXTBEGIN
1070
    73
1070
     1
1070
    44
1040
1.0
1070
    74
1070
     0
1000
MTEXTEND
  0
MTEXT
  5
6C
330
18
100
AcDbEntity
  8
Title Block
100
AcDbMText
 10
14.12499999999999
 20
0.375
 30
0.0
 40
0.05
 41
2.75
 71
     5
 72
     5
  1
DESCRIPTION
 73
     1
 44
1.0
1001
ACAD
1000
MTEXTBEGIN
1070
    73
1070
     1
1070
    44
1040
1.0
1070
    74
1070
     0
1000
MTEXTEND
  0
MTEXT
  5
6D
330
18
100
AcDbEntity
  8
Title Block
100
AcDbMText
 10
16.065
 20
0.375
 30
0.0
 40
0.05
 41
1.129999999999999
 71
     5
 72
     5
  1
ECN   -   R
 73
     1
 44
1.0
1001
ACAD
1000
MTEXTBEGIN
1070
    73
1070
     1
1070
    44
1040
1.0
1070
    74
1070
     0
1000
MTEXTEND
  0
MTEXT
  5
6E
330
18
100
AcDbEntity
  8
Title Block
100
AcDbMText
 10
16.81499999999999
 20
0.375
 30
0.0
 40
0.05
 41
0.38
 71
     5
 72
     5
  1
CUST
 73
     1
 44
1.0
1001
ACAD
1000
MTEXTBEGIN
1070
    73
1070
     1
1070
    44
1040
1.0
1070
    74
1070
     0
1000
MTEXTEND
  0
MTEXT
  5
6F
330
18
100
AcDbEntity
  8
Title Block
100
AcDbMText
 10
17.19
 20
0.375
 30
0.0
 40
0.05
 41
0.38
 71
     5
 72
     5
  1
SUP
 73
     1
 44
1.0
1001
ACAD
1000
MTEXTBEGIN
1070
    73
1070
     1
1070
    44
1040
1.0
1070
    74
1070
     0
1000
MTEXTEND
  0
LINE
  5
A5
330
18
100
AcDbEntity
  8
Title Block
100
AcDbLine
 10
21.75
 20
2.749999999999999
 30
0.0
 11
11.25
 21
2.75
 31
0.0
  0
LINE
  5
A6
330
18
100
AcDbEntity
  8
Title Block
100
AcDbLine
 10
17.74999999999999
 20
2.75
 30
0.0
 11
17.74999999999999
 21
0.25
 31
0.0
  0
LINE
  5
A7
330
18
100
AcDbEntity
  8
Title Block
100
AcDbLine
 10
21.75
 20
2.499999999999999
 30
0.0
 11
11.25
 21
2.5
 31
0.0
  0
LINE
  5
A8
330
18
100
AcDbEntity
  8
Title Block
100
AcDbLine
 10
17.74999999999999
 20
2.25
 30
0.0
 11
11.25
 21
2.25
 31
0.0
  0
LINE
  5
A9
330
18
100
AcDbEntity
  8
Title Block
100
AcDbLine
 10
21.75
 20
1.999999999999999
 30
0.0
 11
11.25
 21
2.0
 31
0.0
  0
LINE
  5
AA
330
18
100
AcDbEntity
  8
Title Block
100
AcDbLine
 10
17.74999999999999
 20
1.75
 30
0.0
 11
11.25
 21
1.75
 31
0.0
  0
LINE
  5
AB
330
18
100
AcDbEntity
  8
Title Block
100
AcDbLine
 10
21.75
 20
1.499999999999999
 30
0.0
 11
11.25
 21
1.5
 31
0.0
  0
LINE
  5
AC
330
18
100
AcDbEntity
  8
Title Block
100
AcDbLine
 10
17.74999999999999
 20
1.25
 30
0.0
 11
11.25
 21
1.25
 31
0.0
  0
LINE
  5
AD
330
18
100
AcDbEntity
  8
Title Block
100
AcDbLine
 10
21.75
 20
0.9999999999999996
 30
0.0
 11
11.25
 21
1.0
 31
0.0
  0
LINE
  5
AE
330
18
100
AcDbEntity
  8
Title Block
100
AcDbLine
 10
18.49999999999999
 20
0.75
 30
0.0
 11
11.25
 21
0.7500000000000009
 31
0.0
  0
LINE
  5
AF
330
18
100
AcDbEntity
  8
Title Block
100
AcDbLine
 10
18.49999999999999
 20
0.5
 30
0.0
 11
11.25
 21
0.5000000000000009
 31
0.0
  0
LINE
  5
B6
330
18
100
AcDbEntity
  8
Title Block
100
AcDbLine
 10
11.25
 20
0.25
 30
0.0
 11
11.25
 21
2.75
 31
0.0
  0
LINE
  5
BC
330
18
100
AcDbEntity
  8
Title Block
100
AcDbLine
 10
11.49999999999999
 20
0.25
 30
0.0
 11
11.49999999999999
 21
2.750000000000001
 31
0.0
  0
LINE
  5
BD
330
18
100
AcDbEntity
  8
Title Block
100
AcDbLine
 10
11.99999999999999
 20
0.25
 30
0.0
 11
11.99999999999999
 21
2.750000000000001
 31
0.0
  0
LINE
  5
C0
330
18
100
AcDbEntity
  8
Title Block
100
AcDbLine
 10
12.375
 20
0.25
 30
0.0
 11
12.375
 21
2.750000000000001
 31
0.0
  0
LINE
  5
C1
330
18
100
AcDbEntity
  8
Title Block
100
AcDbLine
 10
12.74999999999999
 20
0.25
 30
0.0
 11
12.74999999999999
 21
2.750000000000001
 31
0.0
  0
LINE
  5
C2
330
18
100
AcDbEntity
  8
Title Block
100
AcDbLine
 10
17.375
 20
2.75
 30
0.0
 11
17.375
 21
0.25
 31
0.0
  0
LINE
  5
C3
330
18
100
AcDbEntity
  8
Title Block
100
AcDbLine
 10
17.0
 20
2.75
 30
0.0
 11
17.0
 21
0.25
 31
0.0
  0
LINE
  5
C4
330
18
100
AcDbEntity
  8
Title Block
100
AcDbLine
 10
16.62499999999999
 20
2.75
 30
0.0
 11
16.62499999999999
 21
0.25
 31
0.0
  0
LINE
  5
C5
330
18
100
AcDbEntity
  8
Title Block
100
AcDbLine
 10
16.25
 20
2.75
 30
0.0
 11
16.25
 21
0.5000000000000002
 31
0.0
  0
LINE
  5
C6
330
18
100
AcDbEntity
  8
Title Block
100
AcDbLine
 10
15.5
 20
2.75
 30
0.0
 11
15.5
 21
0.25
 31
0.0
  0
LINE
  5
C7
330
18
100
AcDbEntity
  8
Title Block
100
AcDbLine
 10
20.25
 20
0.75
 30
0.0
 11
20.25
 21
1.499999999999999
 31
0.0
  0
LINE
  5
C8
330
18
100
AcDbEntity
  8
Title Block
100
AcDbLine
 10
20.25
 20
0.75
 30
0.0
 11
20.25
 21
0.25
 31
0.0
  0
LINE
  5
C9
330
18
100
AcDbEntity
  8
Title Block
100
AcDbLine
 10
20.25
 20
0.75
 30
0.0
 11
21.75
 21
0.75
 31
0.0
  0
LINE
  5
CA
330
18
100
AcDbEntity
  8
Title Block
100
AcDbLine
 10
18.49999999999999
 20
0.5
 30
0.0
 11
18.49999999999999
 21
0.25
 31
0.0
  0
LINE
  5
CB
330
18
100
AcDbEntity
  8
Title Block
100
AcDbLine
 10
18.49999999999999
 20
0.5
 30
0.0
 11
18.49999999999999
 21
1.0
 31
0.0
  0
LINE
  5
CD
330
18
100
AcDbEntity
  8
Title Block
100
AcDbLine
 10
21.25
 20
0.75
 30
0.0
 11
21.25
 21
0.25
 31
0.0
  0
LWPOLYLINE
  5
F8
330
18
100
AcDbEntity
  8
Title Block
100
AcDbPolyline
 90
        4
 70
     1
 43
0.01
 10
21.75
 20
16.75
 10
21.75
 20
0.25
 10
0.25
 20
0.25
 10
0.250000000000001
 20
16.75
  0
POINT
  5
FC
330
18
100
AcDbEntity
  8
Title Block
100
AcDbPoint
 10
22.0
 20
0.0
 30
0.0
  0
POINT
  5
FF
330
18
100
AcDbEntity
  8
Title Block
100
AcDbPoint
 10
22.0
 20
17.0
 30
0.0
  0
POINT
  5
102
330
18
100
AcDbEntity
  8
Title Block
100
AcDbPoint
 10
0.000000000000001
 20
17.0
 30
0.0
  0
POINT
  5
105
330
18
100
AcDbEntity
  8
Title Block
100
AcDbPoint
 10
0.0
 20
0.0
 30
0.0
  0
MTEXT
  5
12C
330
18
100
AcDbEntity
  8
Text
100
AcDbMText
 10
11.37324893148254
 20
0.6275685908585027
 30
0.0
 40
0.09
 41
0.25
 71
     5
 72
     5
  1
R
 73
     1
 44
1.0
1001
ACAD
1000
MTEXTBEGIN
1070
    73
1070
     1
1070
    44
1040
1.0
1070
    74
1070
     0
1000
MTEXTEND
  0
MTEXT
  5
12D
330
18
100
AcDbEntity
  8
Text
100
AcDbMText
 10
11.74824893148254
 20
0.6275685908585027
 30
0.0
 40
0.07
 41
0.5
 71
     5
 72
     5
  1
12-21-00
 73
     1
 44
1.0
1001
ACAD
1000
MTEXTBEGIN
1070
    73
1070
     1
1070
    44
1040
1.0
1070
    74
1070
     0
1000
MTEXTEND
  0
MTEXT
  5
12E
330
18
100
AcDbEntity
  8
Text
100
AcDbMText
 10
12.18574893148254
 20
0.6275685908585027
 30
0.0
 40
0.09
 41
0.375
 71
     5
 72
     5
  1
MSO
 73
     1
 44
1.0
1001
ACAD
1000
MTEXTBEGIN
1070
    73
1070
     1
1070
    44
1040
1.0
1070
    74
1070
     0
1000
MTEXTEND
  0
MTEXT
  5
130
330
18
100
AcDbEntity
  8
Text
100
AcDbMText
 10
14.12324893148254
 20
0.6275685908585023
 30
0.0
 40
0.09
 41
2.75
 71
     5
 72
     5
  1
DRAWING RELEASED
 73
     1
 44
1.0
1001
ACAD
1000
MTEXTBEGIN
1070
    73
1070
     1
1070
    44
1040
1.0
1070
    74
1070
     0
1000
MTEXTEND
  0
MTEXT
  5
133
330
18
100
AcDbEntity
  8
Text
100
AcDbMText
 10
18.47324893148254
 20
0.8525685908585018
 30
0.0
 40
0.09
 41
0.75
 71
     6
 72
     5
  1
MSO
 73
     1
 44
1.0
1001
ACAD
1000
MTEXTBEGIN
1070
    73
1070
     1
1070
    44
1040
1.0
1070
    74
1070
     0
1000
MTEXTEND
  0
MTEXT
  5
134
330
18
100
AcDbEntity
  8
Text
100
AcDbMText
 10
18.47324893148254
 20
0.6025685908585017
 30
0.0
 40
0.09
 41
0.75
 71
     6
 72
     5
  1
12-21-00
 73
     1
 44
1.0
1001
ACAD
1000
MTEXTBEGIN
1070
    73
1070
     1
1070
    44
1040
1.0
1070
    74
1070
     0
1000
MTEXTEND
  0
MTEXT
  5
135
330
18
100
AcDbEntity
  8
Text
100
AcDbMText
 10
18.47324893148254
 20
0.3525685908585019
 30
0.0
 40
0.09
 41
0.75
 71
     6
 72
     5
  1
HIW
 73
     1
 44
1.0
1001
ACAD
1000
MTEXTBEGIN
1070
    73
1070
     1
1070
    44
1040
1.0
1070
    74
1070
     0
1000
MTEXTEND
  0
MTEXT
  5
136
330
18
100
AcDbEntity
  8
Text
100
AcDbMText
 10
19.74824893148254
 20
2.627568590858501
 30
0.0
 40
0.09
 41
4.0
 71
     5
 72
     5
  1
FOVRA2X2.dwg
 73
     1
 44
1.0
1001
ACAD
1000
MTEXTBEGIN
1070
    73
1070
     1
1070
    44
1040
1.0
1070
    74
1070
     0
1000
MTEXTEND
  0
MTEXT
  5
137
330
18
100
AcDbEntity
  8
Text
100
AcDbMText
 10
19.74824893148254
 20
1.752568590858501
 30
0.0
 40
0.09
 41
4.0
 71
     5
 72
     5
  1
FIBER-DUCT 2x2 AND FIBERRUNNER 2x2 OUTSIDE\PVERTICAL RIGHT ANGLE FITTING (FOVRA2X2)\PMARKETING DRAWING
 73
     1
 44
1.0
1001
ACAD
1000
MTEXTBEGIN
1070
    73
1070
     1
1070
    44
1040
1.0
1070
    74
1070
     0
1000
MTEXTEND
  0
MTEXT
  5
138
330
18
100
AcDbEntity
  8
Text
100
AcDbMText
 10
20.99824893148254
 20
0.8775685908585016
 30
0.0
 40
0.12
 41
1.5
 71
     5
 72
     5
  1
FULL
 73
     1
 44
1.0
1001
ACAD
1000
MTEXTBEGIN
1070
    73
1070
     1
1070
    44
1040
1.0
1070
    74
1070
     0
1000
MTEXTEND
  0
MTEXT
  5
139
330
18
100
AcDbEntity
  8
Text
100
AcDbMText
 10
20.74824893148254
 20
0.5025685908585018
 30
0.0
 40
0.12
 41
1.0
 71
     5
 72
     5
  1
36897-602
 73
     1
 44
1.0
1001
ACAD
1000
MTEXTBEGIN
1070
    73
1070
     1
1070
    44
1040
1.0
1070
    74
1070
     0
1000
MTEXTEND
  0
TEXT
  5
2AC
330
18
100
AcDbEntity
  8
Text
100
AcDbText
 10
5.90985357411867
 20
4.519521104335915
 30
0.0
 40
0.125
  1
FRONT VIEW
100
AcDbText
  0
TEXT
  5
2AD
330
18
100
AcDbEntity
  8
Text
100
AcDbText
 10
16.78939676866589
 20
4.485979212279644
 30
0.0
 40
0.125
  1
RIGHT SIDE VIEW
100
AcDbText
  0
MTEXT
  5
2BE
330
18
100
AcDbEntity
  8
Text
100
AcDbMText
 10
12.5604002814227
 20
0.626249074032665
 30
0.0
 40
0.09
 41
0.375
 71
     5
 72
     5
  1
HIW
 73
     1
 44
1.0
1001
ACAD
1000
MTEXTBEGIN
1070
    73
1070
     1
1070
    44
1040
1.0
1070
    74
1070
     0
1000
MTEXTEND
  0
LINE
  5
2CD
330
18
100
AcDbEntity
  8
Object
100
AcDbLine
 10
16.638
 20
9.928
 30
0.0
 11
16.638
 21
9.958
 31
0.0
  0
LINE
  5
2CE
330
18
100
AcDbEntity
  8
Object
100
AcDbLine
 10
16.638
 20
9.958
 30
0.0
 11
16.638
 21
10.008
 31
0.0
  0
LINE
  5
2CF
330
18
100
AcDbEntity
  8
Object
100
AcDbLine
 10
18.49
 20
9.928
 30
0.0
 11
18.328
 21
9.928
 31
0.0
  0
LINE
  5
2D0
330
18
100
AcDbEntity
  8
Object
100
AcDbLine
 10
16.638
 20
9.928
 30
0.0
 11
16.477
 21
9.928
 31
0.0
  0
LINE
  5
2D1
330
18
100
AcDbEntity
  8
Object
100
AcDbLine
 10
18.328
 20
10.008
 30
0.0
 11
18.323
 21
10.008
 31
0.0
  0
LINE
  5
2D2
330
18
100
AcDbEntity
  8
Object
100
AcDbLine
 10
18.323
 20
10.008
 30
0.0
 11
18.308
 21
10.008
 31
0.0
  0
LINE
  5
2D3
330
18
100
AcDbEntity
  8
Object
100
AcDbLine
 10
18.308
 20
10.008
 30
0.0
 11
18.288
 21
10.008
 31
0.0
  0
LINE
  5
2D4
330
18
100
AcDbEntity
  8
Object
100
AcDbLine
 10
18.288
 20
10.008
 30
0.0
 11
16.678
 21
10.008
 31
0.0
  0
LINE
  5
2D5
330
18
100
AcDbEntity
  8
Object
100
AcDbLine
 10
16.678
 20
10.008
 30
0.0
 11
16.658
 21
10.008
 31
0.0
  0
LINE
  5
2D6
330
18
100
AcDbEntity
  8
Object
100
AcDbLine
 10
16.658
 20
10.008
 30
0.0
 11
16.644
 21
10.008
 31
0.0
  0
LINE
  5
2D7
330
18
100
AcDbEntity
  8
Object
100
AcDbLine
 10
16.644
 20
10.008
 30
0.0
 11
16.638
 21
10.008
 31
0.0
  0
LINE
  5
2D8
330
18
100
AcDbEntity
  8
Object
100
AcDbLine
 10
16.658
 20
10.008
 30
0.0
 11
16.678
 21
10.008
 31
0.0
  0
LINE
  5
2D9
330
18
100
AcDbEntity
  8
Object
100
AcDbLine
 10
16.678
 20
10.008
 30
0.0
 11
16.678
 21
9.958
 31
0.0
  0
LINE
  5
2DA
330
18
100
AcDbEntity
  8
Object
100
AcDbLine
 10
16.678
 20
9.958
 30
0.0
 11
16.658
 21
9.958
 31
0.0
  0
LINE
  5
2DB
330
18
100
AcDbEntity
  8
Object
100
AcDbLine
 10
16.658
 20
9.958
 30
0.0
 11
16.644
 21
9.958
 31
0.0
  0
LINE
  5
2DC
330
18
100
AcDbEntity
  8
Object
100
AcDbLine
 10
16.658
 20
10.008
 30
0.0
 11
16.644
 21
10.008
 31
0.0
  0
LINE
  5
2DD
330
18
100
AcDbEntity
  8
Object
100
AcDbLine
 10
16.644
 20
9.958
 30
0.0
 11
16.638
 21
9.958
 31
0.0
  0
LINE
  5
2DE
330
18
100
AcDbEntity
  8
Object
100
AcDbLine
 10
16.638
 20
9.958
 30
0.0
 11
16.638
 21
10.008
 31
0.0
  0
LINE
  5
2DF
330
18
100
AcDbEntity
  8
Object
100
AcDbLine
 10
16.638
 20
10.008
 30
0.0
 11
16.644
 21
10.008
 31
0.0
  0
LINE
  5
2E0
330
18
100
AcDbEntity
  8
Object
100
AcDbLine
 10
18.569
 20
9.886000000000001
 30
0.0
 11
18.572
 21
10.038
 31
0.0
  0
LINE
  5
2E1
330
18
100
AcDbEntity
  8
Object
100
AcDbLine
 10
18.491
 20
10.008
 30
0.0
 11
18.49
 21
9.928
 31
0.0
  0
LINE
  5
2E2
330
18
100
AcDbEntity
  8
Object
100
AcDbLine
 10
18.569
 20
9.886000000000001
 30
0.0
 11
18.548
 21
9.874
 31
0.0
  0
LINE
  5
2E3
330
18
100
AcDbEntity
  8
Object
100
AcDbLine
 10
18.548
 20
9.874
 30
0.0
 11
18.526
 21
9.865999999999999
 31
0.0
  0
LINE
  5
2E4
330
18
100
AcDbEntity
  8
Object
100
AcDbLine
 10
18.526
 20
9.865999999999999
 30
0.0
 11
18.502
 21
9.862999999999999
 31
0.0
  0
LINE
  5
2E5
330
18
100
AcDbEntity
  8
Object
100
AcDbLine
 10
18.49
 20
9.928
 30
0.0
 11
18.328
 21
9.928
 31
0.0
  0
LINE
  5
2E6
330
18
100
AcDbEntity
  8
Object
100
AcDbLine
 10
18.328
 20
9.928
 30
0.0
 11
18.328
 21
9.958
 31
0.0
  0
LINE
  5
2E7
330
18
100
AcDbEntity
  8
Object
100
AcDbLine
 10
16.638
 20
9.958
 30
0.0
 11
16.638
 21
9.928
 31
0.0
  0
LINE
  5
2E8
330
18
100
AcDbEntity
  8
Object
100
AcDbLine
 10
16.465
 20
9.862999999999999
 30
0.0
 11
18.502
 21
9.862999999999999
 31
0.0
  0
LINE
  5
2E9
330
18
100
AcDbEntity
  8
Object
100
AcDbLine
 10
16.638
 20
9.928
 30
0.0
 11
16.477
 21
9.928
 31
0.0
  0
LINE
  5
2EA
330
18
100
AcDbEntity
  8
Object
100
AcDbLine
 10
16.441
 20
9.865999999999999
 30
0.0
 11
16.465
 21
9.862999999999999
 31
0.0
  0
LINE
  5
2EB
330
18
100
AcDbEntity
  8
Object
100
AcDbLine
 10
16.477
 20
9.928
 30
0.0
 11
16.476
 21
10.008
 31
0.0
  0
LINE
  5
2EC
330
18
100
AcDbEntity
  8
Object
100
AcDbLine
 10
16.418
 20
9.874
 30
0.0
 11
16.441
 21
9.865999999999999
 31
0.0
  0
LINE
  5
2ED
330
18
100
AcDbEntity
  8
Object
100
AcDbLine
 10
16.668
 20
9.928
 30
0.0
 11
16.653
 21
9.932
 31
0.0
  0
LINE
  5
2EE
330
18
100
AcDbEntity
  8
Object
100
AcDbLine
 10
16.653
 20
9.932
 30
0.0
 11
16.642
 21
9.942999999999999
 31
0.0
  0
LINE
  5
2EF
330
18
100
AcDbEntity
  8
Object
100
AcDbLine
 10
16.642
 20
9.942999999999999
 30
0.0
 11
16.638
 21
9.958
 31
0.0
  0
LINE
  5
2F0
330
18
100
AcDbEntity
  8
Object
100
AcDbLine
 10
18.328
 20
9.928
 30
0.0
 11
18.328
 21
9.958
 31
0.0
  0
LINE
  5
2F1
330
18
100
AcDbEntity
  8
Object
100
AcDbLine
 10
18.328
 20
9.958
 30
0.0
 11
18.328
 21
10.008
 31
0.0
  0
LINE
  5
2F2
330
18
100
AcDbEntity
  8
Object
100
AcDbLine
 10
18.491
 20
10.013
 30
0.0
 11
18.49
 21
9.928
 31
0.0
  0
LINE
  5
2F3
330
18
100
AcDbEntity
  8
Object
100
AcDbLine
 10
18.504
 20
10.735
 30
0.0
 11
18.491
 21
10.035
 31
0.0
  0
LINE
  5
2F4
330
18
100
AcDbEntity
  8
Object
100
AcDbLine
 10
18.507
 20
10.903
 30
0.0
 11
18.506
 21
10.869
 31
0.0
  0
LINE
  5
2F5
330
18
100
AcDbEntity
  8
Object
100
AcDbLine
 10
18.521
 20
11.698
 30
0.0
 11
18.509
 21
11.054
 31
0.0
  0
LINE
  5
2F6
330
18
100
AcDbEntity
  8
Object
100
AcDbLine
 10
18.509
 20
11.055
 30
0.0
 11
18.509
 21
11.047
 31
0.0
  0
LINE
  5
2F7
330
18
100
AcDbEntity
  8
Object
100
AcDbLine
 10
18.509
 20
11.047
 30
0.0
 11
18.509
 21
11.024
 31
0.0
  0
LINE
  5
2F8
330
18
100
AcDbEntity
  8
Object
100
AcDbLine
 10
18.509
 20
11.024
 30
0.0
 11
18.508
 21
10.989
 31
0.0
  0
LINE
  5
2F9
330
18
100
AcDbEntity
  8
Object
100
AcDbLine
 10
18.508
 20
10.989
 30
0.0
 11
18.507
 21
10.944
 31
0.0
  0
LINE
  5
2FA
330
18
100
AcDbEntity
  8
Object
100
AcDbLine
 10
18.507
 20
10.944
 30
0.0
 11
18.507
 21
10.898
 31
0.0
  0
LINE
  5
2FB
330
18
100
AcDbEntity
  8
Object
100
AcDbLine
 10
18.506
 20
10.883
 30
0.0
 11
18.506
 21
10.845
 31
0.0
  0
LINE
  5
2FC
330
18
100
AcDbEntity
  8
Object
100
AcDbLine
 10
18.506
 20
10.845
 30
0.0
 11
18.505
 21
10.801
 31
0.0
  0
LINE
  5
2FD
330
18
100
AcDbEntity
  8
Object
100
AcDbLine
 10
18.505
 20
10.801
 30
0.0
 11
18.504
 21
10.765
 31
0.0
  0
LINE
  5
2FE
330
18
100
AcDbEntity
  8
Object
100
AcDbLine
 10
18.504
 20
10.735
 30
0.0
 11
18.504
 21
10.743
 31
0.0
  0
LINE
  5
2FF
330
18
100
AcDbEntity
  8
Object
100
AcDbLine
 10
18.504
 20
10.743
 30
0.0
 11
18.504
 21
10.765
 31
0.0
  0
LINE
  5
300
330
18
100
AcDbEntity
  8
Object
100
AcDbLine
 10
18.521
 20
11.698
 30
0.0
 11
18.492
 21
10.038
 31
0.0
  0
LINE
  5
301
330
18
100
AcDbEntity
  8
Object
100
AcDbLine
 10
18.492
 20
10.038
 30
0.0
 11
18.491
 21
10.027
 31
0.0
  0
LINE
  5
302
330
18
100
AcDbEntity
  8
Object
100
AcDbLine
 10
18.491
 20
10.01
 30
0.0
 11
18.491
 21
10.017
 31
0.0
  0
LINE
  5
303
330
18
100
AcDbEntity
  8
Object
100
AcDbLine
 10
18.491
 20
10.017
 30
0.0
 11
18.491
 21
10.027
 31
0.0
  0
LINE
  5
304
330
18
100
AcDbEntity
  8
Object
100
AcDbLine
 10
18.491
 20
10.01
 30
0.0
 11
18.491
 21
10.008
 31
0.0
  0
LINE
  5
305
330
18
100
AcDbEntity
  8
Object
100
AcDbLine
 10
18.509
 20
11.054
 30
0.0
 11
18.521
 21
11.698
 31
0.0
  0
LINE
  5
306
330
18
100
AcDbEntity
  8
Object
100
AcDbLine
 10
18.506
 20
10.869
 30
0.0
 11
18.507
 21
10.903
 31
0.0
  0
LINE
  5
307
330
18
100
AcDbEntity
  8
Object
100
AcDbLine
 10
18.491
 20
10.035
 30
0.0
 11
18.504
 21
10.735
 31
0.0
  0
LINE
  5
308
330
18
100
AcDbEntity
  8
Object
100
AcDbLine
 10
18.491
 20
10.013
 30
0.0
 11
18.49
 21
9.928
 31
0.0
  0
LINE
  5
309
330
18
100
AcDbEntity
  8
Object
100
AcDbLine
 10
18.49
 20
9.928
 30
0.0
 11
18.491
 21
10.008
 31
0.0
  0
LINE
  5
30A
330
18
100
AcDbEntity
  8
Object
100
AcDbLine
 10
16.477
 20
9.928
 30
0.0
 11
16.476
 21
10.008
 31
0.0
  0
LINE
  5
30B
330
18
100
AcDbEntity
  8
Object
100
AcDbLine
 10
16.475
 20
10.027
 30
0.0
 11
16.475
 21
10.017
 31
0.0
  0
LINE
  5
30C
330
18
100
AcDbEntity
  8
Object
100
AcDbLine
 10
16.475
 20
10.017
 30
0.0
 11
16.475
 21
10.01
 31
0.0
  0
LINE
  5
30D
330
18
100
AcDbEntity
  8
Object
100
AcDbLine
 10
16.475
 20
10.01
 30
0.0
 11
16.476
 21
10.008
 31
0.0
  0
LINE
  5
30E
330
18
100
AcDbEntity
  8
Object
100
AcDbLine
 10
16.475
 20
10.027
 30
0.0
 11
16.475
 21
10.038
 31
0.0
  0
LINE
  5
30F
330
18
100
AcDbEntity
  8
Object
100
AcDbLine
 10
16.475
 20
10.038
 30
0.0
 11
16.446
 21
11.698
 31
0.0
  0
LINE
  5
310
330
18
100
AcDbEntity
  8
Object
100
AcDbLine
 10
16.475
 20
10.015
 30
0.0
 11
16.475
 21
10.009
 31
0.0
  0
LINE
  5
311
330
18
100
AcDbEntity
  8
Object
100
AcDbLine
 10
16.475
 20
10.009
 30
0.0
 11
16.475
 21
10.015
 31
0.0
  0
LINE
  5
312
330
18
100
AcDbEntity
  8
Object
100
AcDbLine
 10
18.323
 20
10.008
 30
0.0
 11
18.328
 21
10.008
 31
0.0
  0
LINE
  5
313
330
18
100
AcDbEntity
  8
Object
100
AcDbLine
 10
18.328
 20
10.008
 30
0.0
 11
18.328
 21
9.958
 31
0.0
  0
LINE
  5
314
330
18
100
AcDbEntity
  8
Object
100
AcDbLine
 10
18.323
 20
10.008
 30
0.0
 11
18.308
 21
10.008
 31
0.0
  0
LINE
  5
315
330
18
100
AcDbEntity
  8
Object
100
AcDbLine
 10
18.288
 20
9.958
 30
0.0
 11
18.308
 21
9.958
 31
0.0
  0
LINE
  5
316
330
18
100
AcDbEntity
  8
Object
100
AcDbLine
 10
18.308
 20
10.008
 30
0.0
 11
18.288
 21
10.008
 31
0.0
  0
LINE
  5
317
330
18
100
AcDbEntity
  8
Object
100
AcDbLine
 10
18.288
 20
10.008
 30
0.0
 11
18.288
 21
9.958
 31
0.0
  0
LINE
  5
318
330
18
100
AcDbEntity
  8
Object
100
AcDbLine
 10
18.288
 20
9.958
 30
0.0
 11
16.678
 21
9.958
 31
0.0
  0
LINE
  5
319
330
18
100
AcDbEntity
  8
Object
100
AcDbLine
 10
18.288
 20
10.008
 30
0.0
 11
16.678
 21
10.008
 31
0.0
  0
LINE
  5
31A
330
18
100
AcDbEntity
  8
Object
100
AcDbLine
 10
16.678
 20
9.932
 30
0.0
 11
16.678
 21
9.928
 31
0.0
  0
LINE
  5
31B
330
18
100
AcDbEntity
  8
Object
100
AcDbLine
 10
16.678
 20
9.928
 30
0.0
 11
16.673
 21
9.928
 31
0.0
  0
LINE
  5
31C
330
18
100
AcDbEntity
  8
Object
100
AcDbLine
 10
16.673
 20
9.928
 30
0.0
 11
16.67
 21
9.928
 31
0.0
  0
LINE
  5
31D
330
18
100
AcDbEntity
  8
Object
100
AcDbLine
 10
16.67
 20
9.928
 30
0.0
 11
16.668
 21
9.928
 31
0.0
  0
LINE
  5
31E
330
18
100
AcDbEntity
  8
Object
100
AcDbLine
 10
16.678
 20
9.932
 30
0.0
 11
16.678
 21
9.942999999999999
 31
0.0
  0
LINE
  5
31F
330
18
100
AcDbEntity
  8
Object
100
AcDbLine
 10
16.678
 20
9.942999999999999
 30
0.0
 11
16.678
 21
9.958
 31
0.0
  0
LINE
  5
320
330
18
100
AcDbEntity
  8
Object
100
AcDbLine
 10
16.668
 20
9.928
 30
0.0
 11
16.653
 21
9.932
 31
0.0
  0
LINE
  5
321
330
18
100
AcDbEntity
  8
Object
100
AcDbLine
 10
16.653
 20
9.932
 30
0.0
 11
16.642
 21
9.942999999999999
 31
0.0
  0
LINE
  5
322
330
18
100
AcDbEntity
  8
Object
100
AcDbLine
 10
16.642
 20
9.942999999999999
 30
0.0
 11
16.638
 21
9.958
 31
0.0
  0
LINE
  5
323
330
18
100
AcDbEntity
  8
Object
100
AcDbLine
 10
16.398
 20
9.886000000000001
 30
0.0
 11
16.397
 21
9.883
 31
0.0
  0
LINE
  5
324
330
18
100
AcDbEntity
  8
Object
100
AcDbLine
 10
16.397
 20
9.883
 30
0.0
 11
16.396
 21
9.88
 31
0.0
  0
LINE
  5
325
330
18
100
AcDbEntity
  8
Object
100
AcDbLine
 10
16.398
 20
9.886000000000001
 30
0.0
 11
16.395
 21
10.038
 31
0.0
  0
LINE
  5
326
330
18
100
AcDbEntity
  8
Object
100
AcDbLine
 10
16.396
 20
9.88
 30
0.0
 11
16.376
 21
9.896
 31
0.0
  0
LINE
  5
327
330
18
100
AcDbEntity
  8
Object
100
AcDbLine
 10
16.376
 20
9.896
 30
0.0
 11
16.359
 21
9.916999999999999
 31
0.0
  0
LINE
  5
328
330
18
100
AcDbEntity
  8
Object
100
AcDbLine
 10
16.359
 20
9.916999999999999
 30
0.0
 11
16.349
 21
9.942
 31
0.0
  0
LINE
  5
329
330
18
100
AcDbEntity
  8
Object
100
AcDbLine
 10
16.273
 20
11.598
 30
0.0
 11
16.344
 21
9.967999999999999
 31
0.0
  0
LINE
  5
32A
330
18
100
AcDbEntity
  8
Object
100
AcDbLine
 10
18.502
 20
9.855999999999999
 30
0.0
 11
18.502
 21
9.849999999999999
 31
0.0
  0
LINE
  5
32B
330
18
100
AcDbEntity
  8
Object
100
AcDbLine
 10
18.502
 20
9.849999999999999
 30
0.0
 11
18.502
 21
9.848
 31
0.0
  0
LINE
  5
32C
330
18
100
AcDbEntity
  8
Object
100
AcDbLine
 10
18.502
 20
9.848
 30
0.0
 11
16.465
 21
9.848
 31
0.0
  0
LINE
  5
32D
330
18
100
AcDbEntity
  8
Object
100
AcDbLine
 10
18.502
 20
9.855999999999999
 30
0.0
 11
18.502
 21
9.862999999999999
 31
0.0
  0
LINE
  5
32E
330
18
100
AcDbEntity
  8
Object
100
AcDbLine
 10
16.465
 20
9.855999999999999
 30
0.0
 11
16.465
 21
9.862999999999999
 31
0.0
  0
LINE
  5
32F
330
18
100
AcDbEntity
  8
Object
100
AcDbLine
 10
16.465
 20
9.849999999999999
 30
0.0
 11
16.465
 21
9.848
 31
0.0
  0
LINE
  5
330
330
18
100
AcDbEntity
  8
Object
100
AcDbLine
 10
16.465
 20
9.848
 30
0.0
 11
16.441
 21
9.851
 31
0.0
  0
LINE
  5
331
330
18
100
AcDbEntity
  8
Object
100
AcDbLine
 10
16.465
 20
9.849999999999999
 30
0.0
 11
16.465
 21
9.855999999999999
 31
0.0
  0
LINE
  5
332
330
18
100
AcDbEntity
  8
Object
100
AcDbLine
 10
16.417
 20
9.858
 30
0.0
 11
16.441
 21
9.851
 31
0.0
  0
LINE
  5
333
330
18
100
AcDbEntity
  8
Object
100
AcDbLine
 10
16.418
 20
9.874
 30
0.0
 11
16.398
 21
9.886000000000001
 31
0.0
  0
LINE
  5
334
330
18
100
AcDbEntity
  8
Object
100
AcDbLine
 10
16.396
 20
9.868999999999999
 30
0.0
 11
16.417
 21
9.858
 31
0.0
  0
LINE
  5
335
330
18
100
AcDbEntity
  8
Object
100
AcDbLine
 10
18.328
 20
9.958
 30
0.0
 11
18.324
 21
9.942999999999999
 31
0.0
  0
LINE
  5
336
330
18
100
AcDbEntity
  8
Object
100
AcDbLine
 10
18.324
 20
9.942999999999999
 30
0.0
 11
18.313
 21
9.932
 31
0.0
  0
LINE
  5
337
330
18
100
AcDbEntity
  8
Object
100
AcDbLine
 10
18.313
 20
9.932
 30
0.0
 11
18.298
 21
9.928
 31
0.0
  0
LINE
  5
338
330
18
100
AcDbEntity
  8
Object
100
AcDbLine
 10
16.425
 20
10.008
 30
0.0
 11
16.41
 21
10.012
 31
0.0
  0
LINE
  5
339
330
18
100
AcDbEntity
  8
Object
100
AcDbLine
 10
16.41
 20
10.012
 30
0.0
 11
16.399
 21
10.023
 31
0.0
  0
LINE
  5
33A
330
18
100
AcDbEntity
  8
Object
100
AcDbLine
 10
16.399
 20
10.023
 30
0.0
 11
16.395
 21
10.038
 31
0.0
  0
LINE
  5
33B
330
18
100
AcDbEntity
  8
Object
100
AcDbLine
 10
18.572
 20
10.038
 30
0.0
 11
18.567
 21
10.023
 31
0.0
  0
LINE
  5
33C
330
18
100
AcDbEntity
  8
Object
100
AcDbLine
 10
18.567
 20
10.023
 30
0.0
 11
18.556
 21
10.012
 31
0.0
  0
LINE
  5
33D
330
18
100
AcDbEntity
  8
Object
100
AcDbLine
 10
18.556
 20
10.012
 30
0.0
 11
18.542
 21
10.008
 31
0.0
  0
LINE
  5
33E
330
18
100
AcDbEntity
  8
Object
100
AcDbLine
 10
18.693
 20
11.598
 30
0.0
 11
18.622
 21
9.967999999999999
 31
0.0
  0
LINE
  5
33F
330
18
100
AcDbEntity
  8
Object
100
AcDbLine
 10
18.622
 20
9.967999999999999
 30
0.0
 11
18.618
 21
9.942
 31
0.0
  0
LINE
  5
340
330
18
100
AcDbEntity
  8
Object
100
AcDbLine
 10
18.618
 20
9.942
 30
0.0
 11
18.607
 21
9.916999999999999
 31
0.0
  0
LINE
  5
341
330
18
100
AcDbEntity
  8
Object
100
AcDbLine
 10
18.607
 20
9.916999999999999
 30
0.0
 11
18.591
 21
9.896
 31
0.0
  0
LINE
  5
342
330
18
100
AcDbEntity
  8
Object
100
AcDbLine
 10
18.591
 20
9.896
 30
0.0
 11
18.57
 21
9.88
 31
0.0
  0
LINE
  5
343
330
18
100
AcDbEntity
  8
Object
100
AcDbLine
 10
16.425
 20
10.008
 30
0.0
 11
16.476
 21
10.008
 31
0.0
  0
LINE
  5
344
330
18
100
AcDbEntity
  8
Object
100
AcDbLine
 10
18.491
 20
10.008
 30
0.0
 11
18.542
 21
10.008
 31
0.0
  0
LINE
  5
345
330
18
100
AcDbEntity
  8
Object
100
AcDbLine
 10
18.298
 20
9.928
 30
0.0
 11
18.297
 21
9.928
 31
0.0
  0
LINE
  5
346
330
18
100
AcDbEntity
  8
Object
100
AcDbLine
 10
18.297
 20
9.928
 30
0.0
 11
18.293
 21
9.928
 31
0.0
  0
LINE
  5
347
330
18
100
AcDbEntity
  8
Object
100
AcDbLine
 10
18.293
 20
9.928
 30
0.0
 11
18.288
 21
9.928
 31
0.0
  0
LINE
  5
348
330
18
100
AcDbEntity
  8
Object
100
AcDbLine
 10
18.288
 20
9.928
 30
0.0
 11
16.678
 21
9.928
 31
0.0
  0
LINE
  5
349
330
18
100
AcDbEntity
  8
Object
100
AcDbLine
 10
16.678
 20
9.928
 30
0.0
 11
16.673
 21
9.928
 31
0.0
  0
LINE
  5
34A
330
18
100
AcDbEntity
  8
Object
100
AcDbLine
 10
16.673
 20
9.928
 30
0.0
 11
16.67
 21
9.928
 31
0.0
  0
LINE
  5
34B
330
18
100
AcDbEntity
  8
Object
100
AcDbLine
 10
16.67
 20
9.928
 30
0.0
 11
16.668
 21
9.928
 31
0.0
  0
LINE
  5
34C
330
18
100
AcDbEntity
  8
Object
100
AcDbLine
 10
18.572
 20
9.871
 30
0.0
 11
18.571
 21
9.868999999999999
 31
0.0
  0
LINE
  5
34D
330
18
100
AcDbEntity
  8
Object
100
AcDbLine
 10
18.571
 20
9.868999999999999
 30
0.0
 11
18.549
 21
9.858
 31
0.0
  0
LINE
  5
34E
330
18
100
AcDbEntity
  8
Object
100
AcDbLine
 10
18.569
 20
9.883
 30
0.0
 11
18.569
 21
9.886000000000001
 31
0.0
  0
LINE
  5
34F
330
18
100
AcDbEntity
  8
Object
100
AcDbLine
 10
18.571
 20
9.875999999999999
 30
0.0
 11
18.572
 21
9.872999999999999
 31
0.0
  0
LINE
  5
350
330
18
100
AcDbEntity
  8
Object
100
AcDbLine
 10
18.572
 20
9.872999999999999
 30
0.0
 11
18.572
 21
9.871
 31
0.0
  0
LINE
  5
351
330
18
100
AcDbEntity
  8
Object
100
AcDbLine
 10
18.569
 20
9.883
 30
0.0
 11
18.57
 21
9.88
 31
0.0
  0
LINE
  5
352
330
18
100
AcDbEntity
  8
Object
100
AcDbLine
 10
18.57
 20
9.88
 30
0.0
 11
18.571
 21
9.875999999999999
 31
0.0
  0
LINE
  5
353
330
18
100
AcDbEntity
  8
Object
100
AcDbLine
 10
18.549
 20
9.858
 30
0.0
 11
18.526
 21
9.851
 31
0.0
  0
LINE
  5
354
330
18
100
AcDbEntity
  8
Object
100
AcDbLine
 10
18.526
 20
9.851
 30
0.0
 11
18.502
 21
9.848
 31
0.0
  0
LINE
  5
355
330
18
100
AcDbEntity
  8
Object
100
AcDbLine
 10
18.601
 20
11.698
 30
0.0
 11
18.598
 21
11.698
 31
0.0
  0
LINE
  5
356
330
18
100
AcDbEntity
  8
Object
100
AcDbLine
 10
18.598
 20
11.698
 30
0.0
 11
18.592
 21
11.698
 31
0.0
  0
LINE
  5
357
330
18
100
AcDbEntity
  8
Object
100
AcDbLine
 10
18.592
 20
11.698
 30
0.0
 11
18.582
 21
11.698
 31
0.0
  0
LINE
  5
358
330
18
100
AcDbEntity
  8
Object
100
AcDbLine
 10
18.582
 20
11.698
 30
0.0
 11
18.571
 21
11.698
 31
0.0
  0
LINE
  5
359
330
18
100
AcDbEntity
  8
Object
100
AcDbLine
 10
18.571
 20
11.698
 30
0.0
 11
18.521
 21
11.698
 31
0.0
  0
LINE
  5
35A
330
18
100
AcDbEntity
  8
Object
100
AcDbLine
 10
18.509
 20
11.047
 30
0.0
 11
18.509
 21
11.055
 31
0.0
  0
LINE
  5
35B
330
18
100
AcDbEntity
  8
Object
100
AcDbLine
 10
18.509
 20
11.055
 30
0.0
 11
18.509
 21
11.054
 31
0.0
  0
LINE
  5
35C
330
18
100
AcDbEntity
  8
Object
100
AcDbLine
 10
18.509
 20
11.047
 30
0.0
 11
18.509
 21
11.024
 31
0.0
  0
LINE
  5
35D
330
18
100
AcDbEntity
  8
Object
100
AcDbLine
 10
18.509
 20
11.024
 30
0.0
 11
18.508
 21
10.989
 31
0.0
  0
LINE
  5
35E
330
18
100
AcDbEntity
  8
Object
100
AcDbLine
 10
18.508
 20
10.989
 30
0.0
 11
18.507
 21
10.944
 31
0.0
  0
LINE
  5
35F
330
18
100
AcDbEntity
  8
Object
100
AcDbLine
 10
18.507
 20
10.944
 30
0.0
 11
18.507
 21
10.898
 31
0.0
  0
LINE
  5
360
330
18
100
AcDbEntity
  8
Object
100
AcDbLine
 10
18.506
 20
10.883
 30
0.0
 11
18.506
 21
10.845
 31
0.0
  0
LINE
  5
361
330
18
100
AcDbEntity
  8
Object
100
AcDbLine
 10
18.506
 20
10.845
 30
0.0
 11
18.505
 21
10.801
 31
0.0
  0
LINE
  5
362
330
18
100
AcDbEntity
  8
Object
100
AcDbLine
 10
18.505
 20
10.801
 30
0.0
 11
18.504
 21
10.765
 31
0.0
  0
LINE
  5
363
330
18
100
AcDbEntity
  8
Object
100
AcDbLine
 10
18.504
 20
10.765
 30
0.0
 11
18.504
 21
10.743
 31
0.0
  0
LINE
  5
364
330
18
100
AcDbEntity
  8
Object
100
AcDbLine
 10
18.504
 20
10.743
 30
0.0
 11
18.504
 21
10.735
 31
0.0
  0
LINE
  5
365
330
18
100
AcDbEntity
  8
Object
100
AcDbLine
 10
18.542
 20
10.012
 30
0.0
 11
18.542
 21
10.023
 31
0.0
  0
LINE
  5
366
330
18
100
AcDbEntity
  8
Object
100
AcDbLine
 10
18.491
 20
10.017
 30
0.0
 11
18.491
 21
10.027
 31
0.0
  0
LINE
  5
367
330
18
100
AcDbEntity
  8
Object
100
AcDbLine
 10
18.491
 20
10.027
 30
0.0
 11
18.492
 21
10.038
 31
0.0
  0
LINE
  5
368
330
18
100
AcDbEntity
  8
Object
100
AcDbLine
 10
18.492
 20
10.038
 30
0.0
 11
18.542
 21
10.038
 31
0.0
  0
LINE
  5
369
330
18
100
AcDbEntity
  8
Object
100
AcDbLine
 10
18.542
 20
10.038
 30
0.0
 11
18.542
 21
10.023
 31
0.0
  0
LINE
  5
36A
330
18
100
AcDbEntity
  8
Object
100
AcDbLine
 10
18.491
 20
10.017
 30
0.0
 11
18.491
 21
10.01
 31
0.0
  0
LINE
  5
36B
330
18
100
AcDbEntity
  8
Object
100
AcDbLine
 10
18.542
 20
10.012
 30
0.0
 11
18.542
 21
10.008
 31
0.0
  0
LINE
  5
36C
330
18
100
AcDbEntity
  8
Object
100
AcDbLine
 10
18.542
 20
10.008
 30
0.0
 11
18.491
 21
10.008
 31
0.0
  0
LINE
  5
36D
330
18
100
AcDbEntity
  8
Object
100
AcDbLine
 10
18.491
 20
10.008
 30
0.0
 11
18.491
 21
10.01
 31
0.0
  0
LINE
  5
36E
330
18
100
AcDbEntity
  8
Object
100
AcDbLine
 10
18.521
 20
11.698
 30
0.0
 11
18.571
 21
11.698
 31
0.0
  0
LINE
  5
36F
330
18
100
AcDbEntity
  8
Object
100
AcDbLine
 10
18.571
 20
11.698
 30
0.0
 11
18.542
 21
10.038
 31
0.0
  0
LINE
  5
370
330
18
100
AcDbEntity
  8
Object
100
AcDbLine
 10
18.521
 20
11.698
 30
0.0
 11
18.492
 21
10.038
 31
0.0
  0
LINE
  5
371
330
18
100
AcDbEntity
  8
Object
100
AcDbLine
 10
16.383
 20
10.741
 30
0.0
 11
16.383
 21
10.733
 31
0.0
  0
LINE
  5
372
330
18
100
AcDbEntity
  8
Object
100
AcDbLine
 10
16.383
 20
10.741
 30
0.0
 11
16.382
 21
10.764
 31
0.0
  0
LINE
  5
373
330
18
100
AcDbEntity
  8
Object
100
AcDbLine
 10
16.382
 20
10.764
 30
0.0
 11
16.382
 21
10.799
 31
0.0
  0
LINE
  5
374
330
18
100
AcDbEntity
  8
Object
100
AcDbLine
 10
16.382
 20
10.799
 30
0.0
 11
16.381
 21
10.844
 31
0.0
  0
LINE
  5
375
330
18
100
AcDbEntity
  8
Object
100
AcDbLine
 10
16.381
 20
10.844
 30
0.0
 11
16.38
 21
10.893
 31
0.0
  0
LINE
  5
376
330
18
100
AcDbEntity
  8
Object
100
AcDbLine
 10
16.38
 20
10.893
 30
0.0
 11
16.379
 21
10.943
 31
0.0
  0
LINE
  5
377
330
18
100
AcDbEntity
  8
Object
100
AcDbLine
 10
16.379
 20
10.943
 30
0.0
 11
16.378
 21
10.987
 31
0.0
  0
LINE
  5
378
330
18
100
AcDbEntity
  8
Object
100
AcDbLine
 10
16.378
 20
10.987
 30
0.0
 11
16.378
 21
11.023
 31
0.0
  0
LINE
  5
379
330
18
100
AcDbEntity
  8
Object
100
AcDbLine
 10
16.378
 20
11.023
 30
0.0
 11
16.377
 21
11.045
 31
0.0
  0
LINE
  5
37A
330
18
100
AcDbEntity
  8
Object
100
AcDbLine
 10
16.377
 20
11.053
 30
0.0
 11
16.377
 21
11.045
 31
0.0
  0
LINE
  5
37B
330
18
100
AcDbEntity
  8
Object
100
AcDbLine
 10
16.446
 20
11.698
 30
0.0
 11
16.396
 21
11.698
 31
0.0
  0
LINE
  5
37C
330
18
100
AcDbEntity
  8
Object
100
AcDbLine
 10
16.396
 20
11.698
 30
0.0
 11
16.385
 21
11.698
 31
0.0
  0
LINE
  5
37D
330
18
100
AcDbEntity
  8
Object
100
AcDbLine
 10
16.385
 20
11.698
 30
0.0
 11
16.375
 21
11.698
 31
0.0
  0
LINE
  5
37E
330
18
100
AcDbEntity
  8
Object
100
AcDbLine
 10
16.375
 20
11.698
 30
0.0
 11
16.368
 21
11.698
 31
0.0
  0
LINE
  5
37F
330
18
100
AcDbEntity
  8
Object
100
AcDbLine
 10
16.368
 20
11.698
 30
0.0
 11
16.366
 21
11.698
 31
0.0
  0
LINE
  5
380
330
18
100
AcDbEntity
  8
Object
100
AcDbLine
 10
16.446
 20
11.698
 30
0.0
 11
16.475
 21
10.038
 31
0.0
  0
LINE
  5
381
330
18
100
AcDbEntity
  8
Object
100
AcDbLine
 10
16.475
 20
10.038
 30
0.0
 11
16.425
 21
10.038
 31
0.0
  0
LINE
  5
382
330
18
100
AcDbEntity
  8
Object
100
AcDbLine
 10
16.446
 20
11.698
 30
0.0
 11
16.396
 21
11.698
 31
0.0
  0
LINE
  5
383
330
18
100
AcDbEntity
  8
Object
100
AcDbLine
 10
16.475
 20
10.01
 30
0.0
 11
16.475
 21
10.017
 31
0.0
  0
LINE
  5
384
330
18
100
AcDbEntity
  8
Object
100
AcDbLine
 10
16.475
 20
10.038
 30
0.0
 11
16.475
 21
10.027
 31
0.0
  0
LINE
  5
385
330
18
100
AcDbEntity
  8
Object
100
AcDbLine
 10
16.475
 20
10.027
 30
0.0
 11
16.475
 21
10.017
 31
0.0
  0
LINE
  5
386
330
18
100
AcDbEntity
  8
Object
100
AcDbLine
 10
16.475
 20
10.01
 30
0.0
 11
16.476
 21
10.008
 31
0.0
  0
LINE
  5
387
330
18
100
AcDbEntity
  8
Object
100
AcDbLine
 10
16.476
 20
10.008
 30
0.0
 11
16.425
 21
10.008
 31
0.0
  0
LINE
  5
388
330
18
100
AcDbEntity
  8
Object
100
AcDbLine
 10
18.323
 20
9.958
 30
0.0
 11
18.328
 21
9.958
 31
0.0
  0
LINE
  5
389
330
18
100
AcDbEntity
  8
Object
100
AcDbLine
 10
18.328
 20
9.958
 30
0.0
 11
18.324
 21
9.942999999999999
 31
0.0
  0
LINE
  5
38A
330
18
100
AcDbEntity
  8
Object
100
AcDbLine
 10
18.324
 20
9.942999999999999
 30
0.0
 11
18.313
 21
9.932
 31
0.0
  0
LINE
  5
38B
330
18
100
AcDbEntity
  8
Object
100
AcDbLine
 10
18.323
 20
9.958
 30
0.0
 11
18.308
 21
9.958
 31
0.0
  0
LINE
  5
38C
330
18
100
AcDbEntity
  8
Object
100
AcDbLine
 10
18.313
 20
9.932
 30
0.0
 11
18.298
 21
9.928
 31
0.0
  0
LINE
  5
38D
330
18
100
AcDbEntity
  8
Object
100
AcDbLine
 10
18.298
 20
9.928
 30
0.0
 11
18.297
 21
9.928
 31
0.0
  0
LINE
  5
38E
330
18
100
AcDbEntity
  8
Object
100
AcDbLine
 10
18.297
 20
9.928
 30
0.0
 11
18.293
 21
9.928
 31
0.0
  0
LINE
  5
38F
330
18
100
AcDbEntity
  8
Object
100
AcDbLine
 10
18.293
 20
9.928
 30
0.0
 11
18.288
 21
9.928
 31
0.0
  0
LINE
  5
390
330
18
100
AcDbEntity
  8
Object
100
AcDbLine
 10
18.288
 20
9.942999999999999
 30
0.0
 11
18.288
 21
9.932
 31
0.0
  0
LINE
  5
391
330
18
100
AcDbEntity
  8
Object
100
AcDbLine
 10
18.288
 20
9.932
 30
0.0
 11
18.288
 21
9.928
 31
0.0
  0
LINE
  5
392
330
18
100
AcDbEntity
  8
Object
100
AcDbLine
 10
18.288
 20
9.928
 30
0.0
 11
16.678
 21
9.928
 31
0.0
  0
LINE
  5
393
330
18
100
AcDbEntity
  8
Object
100
AcDbLine
 10
18.288
 20
9.942999999999999
 30
0.0
 11
18.288
 21
9.958
 31
0.0
  0
LINE
  5
394
330
18
100
AcDbEntity
  8
Object
100
AcDbLine
 10
16.344
 20
9.967999999999999
 30
0.0
 11
16.342
 21
9.967999999999999
 31
0.0
  0
LINE
  5
395
330
18
100
AcDbEntity
  8
Object
100
AcDbLine
 10
16.342
 20
9.967999999999999
 30
0.0
 11
16.341
 21
9.967999999999999
 31
0.0
  0
LINE
  5
396
330
18
100
AcDbEntity
  8
Object
100
AcDbLine
 10
16.341
 20
9.967999999999999
 30
0.0
 11
16.34
 21
9.967999999999999
 31
0.0
  0
LINE
  5
397
330
18
100
AcDbEntity
  8
Object
100
AcDbLine
 10
16.34
 20
9.967999999999999
 30
0.0
 11
16.269
 21
11.598
 31
0.0
  0
LINE
  5
398
330
18
100
AcDbEntity
  8
Object
100
AcDbLine
 10
16.395
 20
9.875999999999999
 30
0.0
 11
16.396
 21
9.88
 31
0.0
  0
LINE
  5
399
330
18
100
AcDbEntity
  8
Object
100
AcDbLine
 10
16.395
 20
9.871
 30
0.0
 11
16.396
 21
9.868999999999999
 31
0.0
  0
LINE
  5
39A
330
18
100
AcDbEntity
  8
Object
100
AcDbLine
 10
16.396
 20
9.868999999999999
 30
0.0
 11
16.374
 21
9.887999999999999
 31
0.0
  0
LINE
  5
39B
330
18
100
AcDbEntity
  8
Object
100
AcDbLine
 10
16.395
 20
9.875999999999999
 30
0.0
 11
16.395
 21
9.872999999999999
 31
0.0
  0
LINE
  5
39C
330
18
100
AcDbEntity
  8
Object
100
AcDbLine
 10
16.395
 20
9.872999999999999
 30
0.0
 11
16.395
 21
9.871
 31
0.0
  0
LINE
  5
39D
330
18
100
AcDbEntity
  8
Object
100
AcDbLine
 10
16.374
 20
9.887999999999999
 30
0.0
 11
16.356
 21
9.912
 31
0.0
  0
LINE
  5
39E
330
18
100
AcDbEntity
  8
Object
100
AcDbLine
 10
16.356
 20
9.912
 30
0.0
 11
16.345
 21
9.939
 31
0.0
  0
LINE
  5
39F
330
18
100
AcDbEntity
  8
Object
100
AcDbLine
 10
16.349
 20
9.942
 30
0.0
 11
16.344
 21
9.967999999999999
 31
0.0
  0
LINE
  5
3A0
330
18
100
AcDbEntity
  8
Object
100
AcDbLine
 10
16.34
 20
9.967999999999999
 30
0.0
 11
16.345
 21
9.939
 31
0.0
  0
LINE
  5
3A1
330
18
100
AcDbEntity
  8
Object
100
AcDbLine
 10
16.383
 20
10.733
 30
0.0
 11
16.383
 21
10.741
 31
0.0
  0
LINE
  5
3A2
330
18
100
AcDbEntity
  8
Object
100
AcDbLine
 10
16.383
 20
10.741
 30
0.0
 11
16.382
 21
10.764
 31
0.0
  0
LINE
  5
3A3
330
18
100
AcDbEntity
  8
Object
100
AcDbLine
 10
16.382
 20
10.764
 30
0.0
 11
16.382
 21
10.799
 31
0.0
  0
LINE
  5
3A4
330
18
100
AcDbEntity
  8
Object
100
AcDbLine
 10
16.382
 20
10.799
 30
0.0
 11
16.381
 21
10.844
 31
0.0
  0
LINE
  5
3A5
330
18
100
AcDbEntity
  8
Object
100
AcDbLine
 10
16.381
 20
10.844
 30
0.0
 11
16.38
 21
10.893
 31
0.0
  0
LINE
  5
3A6
330
18
100
AcDbEntity
  8
Object
100
AcDbLine
 10
16.38
 20
10.893
 30
0.0
 11
16.379
 21
10.943
 31
0.0
  0
LINE
  5
3A7
330
18
100
AcDbEntity
  8
Object
100
AcDbLine
 10
16.379
 20
10.943
 30
0.0
 11
16.378
 21
10.987
 31
0.0
  0
LINE
  5
3A8
330
18
100
AcDbEntity
  8
Object
100
AcDbLine
 10
16.378
 20
10.987
 30
0.0
 11
16.378
 21
11.023
 31
0.0
  0
LINE
  5
3A9
330
18
100
AcDbEntity
  8
Object
100
AcDbLine
 10
16.378
 20
11.023
 30
0.0
 11
16.377
 21
11.045
 31
0.0
  0
LINE
  5
3AA
330
18
100
AcDbEntity
  8
Object
100
AcDbLine
 10
16.377
 20
11.045
 30
0.0
 11
16.377
 21
11.053
 31
0.0
  0
LINE
  5
3AB
330
18
100
AcDbEntity
  8
Object
100
AcDbLine
 10
16.368
 20
11.598
 30
0.0
 11
16.395
 21
10.038
 31
0.0
  0
LINE
  5
3AC
330
18
100
AcDbEntity
  8
Object
100
AcDbLine
 10
18.502
 20
9.848
 30
0.0
 11
16.465
 21
9.848
 31
0.0
  0
LINE
  5
3AD
330
18
100
AcDbEntity
  8
Object
100
AcDbLine
 10
16.465
 20
9.848
 30
0.0
 11
16.441
 21
9.851
 31
0.0
  0
LINE
  5
3AE
330
18
100
AcDbEntity
  8
Object
100
AcDbLine
 10
16.441
 20
9.851
 30
0.0
 11
16.427
 21
9.854
 31
0.0
  0
LINE
  5
3AF
330
18
100
AcDbEntity
  8
Object
100
AcDbLine
 10
16.427
 20
9.854
 30
0.0
 11
16.434
 21
9.852
 31
0.0
  0
LINE
  5
3B0
330
18
100
AcDbEntity
  8
Object
100
AcDbLine
 10
16.441
 20
9.851
 30
0.0
 11
16.427
 21
9.854
 31
0.0
  0
LINE
  5
3B1
330
18
100
AcDbEntity
  8
Object
100
AcDbLine
 10
16.427
 20
9.854
 30
0.0
 11
16.417
 21
9.858
 31
0.0
  0
LINE
  5
3B2
330
18
100
AcDbEntity
  8
Object
100
AcDbLine
 10
16.417
 20
9.858
 30
0.0
 11
16.441
 21
9.851
 31
0.0
  0
LINE
  5
3B3
330
18
100
AcDbEntity
  8
Object
100
AcDbLine
 10
16.427
 20
9.854
 30
0.0
 11
16.417
 21
9.858
 31
0.0
  0
LINE
  5
3B4
330
18
100
AcDbEntity
  8
Object
100
AcDbLine
 10
16.417
 20
9.858
 30
0.0
 11
16.396
 21
9.868999999999999
 31
0.0
  0
LINE
  5
3B5
330
18
100
AcDbEntity
  8
Object
100
AcDbLine
 10
16.396
 20
9.868999999999999
 30
0.0
 11
16.393
 21
9.871
 31
0.0
  0
LINE
  5
3B6
330
18
100
AcDbEntity
  8
Object
100
AcDbLine
 10
16.393
 20
9.871
 30
0.0
 11
16.396
 21
9.868999999999999
 31
0.0
  0
LINE
  5
3B7
330
18
100
AcDbEntity
  8
Object
100
AcDbLine
 10
16.393
 20
9.87
 30
0.0
 11
16.393
 21
9.871
 31
0.0
  0
LINE
  5
3B8
330
18
100
AcDbEntity
  8
Object
100
AcDbLine
 10
16.393
 20
9.871
 30
0.0
 11
16.393
 21
9.87
 31
0.0
  0
LINE
  5
3B9
330
18
100
AcDbEntity
  8
Object
100
AcDbLine
 10
16.393
 20
9.87
 30
0.0
 11
16.393
 21
9.871
 31
0.0
  0
LINE
  5
3BA
330
18
100
AcDbEntity
  8
Object
100
AcDbLine
 10
16.427
 20
9.854
 30
0.0
 11
16.422
 21
9.855999999999999
 31
0.0
  0
LINE
  5
3BB
330
18
100
AcDbEntity
  8
Object
100
AcDbLine
 10
16.396
 20
9.868999999999999
 30
0.0
 11
16.374
 21
9.887999999999999
 31
0.0
  0
LINE
  5
3BC
330
18
100
AcDbEntity
  8
Object
100
AcDbLine
 10
16.374
 20
9.887999999999999
 30
0.0
 11
16.393
 21
9.871
 31
0.0
  0
LINE
  5
3BD
330
18
100
AcDbEntity
  8
Object
100
AcDbLine
 10
16.393
 20
9.871
 30
0.0
 11
16.374
 21
9.887999999999999
 31
0.0
  0
LINE
  5
3BE
330
18
100
AcDbEntity
  8
Object
100
AcDbLine
 10
16.374
 20
9.887999999999999
 30
0.0
 11
16.366
 21
9.897
 31
0.0
  0
LINE
  5
3BF
330
18
100
AcDbEntity
  8
Object
100
AcDbLine
 10
16.366
 20
9.897
 30
0.0
 11
16.374
 21
9.887999999999999
 31
0.0
  0
LINE
  5
3C0
330
18
100
AcDbEntity
  8
Object
100
AcDbLine
 10
16.37
 20
9.891999999999999
 30
0.0
 11
16.366
 21
9.897
 31
0.0
  0
LINE
  5
3C1
330
18
100
AcDbEntity
  8
Object
100
AcDbLine
 10
16.393
 20
9.871
 30
0.0
 11
16.391
 21
9.871999999999999
 31
0.0
  0
LINE
  5
3C2
330
18
100
AcDbEntity
  8
Object
100
AcDbLine
 10
16.374
 20
9.887999999999999
 30
0.0
 11
16.356
 21
9.912
 31
0.0
  0
LINE
  5
3C3
330
18
100
AcDbEntity
  8
Object
100
AcDbLine
 10
16.356
 20
9.912
 30
0.0
 11
16.366
 21
9.897
 31
0.0
  0
LINE
  5
3C4
330
18
100
AcDbEntity
  8
Object
100
AcDbLine
 10
16.366
 20
9.897
 30
0.0
 11
16.356
 21
9.912
 31
0.0
  0
LINE
  5
3C5
330
18
100
AcDbEntity
  8
Object
100
AcDbLine
 10
16.356
 20
9.912
 30
0.0
 11
16.348
 21
9.929999999999999
 31
0.0
  0
LINE
  5
3C6
330
18
100
AcDbEntity
  8
Object
100
AcDbLine
 10
16.348
 20
9.929999999999999
 30
0.0
 11
16.351
 21
9.923
 31
0.0
  0
LINE
  5
3C7
330
18
100
AcDbEntity
  8
Object
100
AcDbLine
 10
16.366
 20
9.897
 30
0.0
 11
16.361
 21
9.903999999999999
 31
0.0
  0
LINE
  5
3C8
330
18
100
AcDbEntity
  8
Object
100
AcDbLine
 10
16.356
 20
9.912
 30
0.0
 11
16.348
 21
9.929999999999999
 31
0.0
  0
LINE
  5
3C9
330
18
100
AcDbEntity
  8
Object
100
AcDbLine
 10
16.348
 20
9.929999999999999
 30
0.0
 11
16.345
 21
9.939
 31
0.0
  0
LINE
  5
3CA
330
18
100
AcDbEntity
  8
Object
100
AcDbLine
 10
16.345
 20
9.939
 30
0.0
 11
16.356
 21
9.912
 31
0.0
  0
LINE
  5
3CB
330
18
100
AcDbEntity
  8
Object
100
AcDbLine
 10
16.345
 20
9.939
 30
0.0
 11
16.348
 21
9.929999999999999
 31
0.0
  0
LINE
  5
3CC
330
18
100
AcDbEntity
  8
Object
100
AcDbLine
 10
16.348
 20
9.929999999999999
 30
0.0
 11
16.347
 21
9.932999999999999
 31
0.0
  0
LINE
  5
3CD
330
18
100
AcDbEntity
  8
Object
100
AcDbLine
 10
16.34
 20
9.967999999999999
 30
0.0
 11
16.345
 21
9.939
 31
0.0
  0
LINE
  5
3CE
330
18
100
AcDbEntity
  8
Object
100
AcDbLine
 10
16.425
 20
10.012
 30
0.0
 11
16.425
 21
10.008
 31
0.0
  0
LINE
  5
3CF
330
18
100
AcDbEntity
  8
Object
100
AcDbLine
 10
16.425
 20
10.008
 30
0.0
 11
16.418
 21
10.012
 31
0.0
  0
LINE
  5
3D0
330
18
100
AcDbEntity
  8
Object
100
AcDbLine
 10
16.425
 20
10.012
 30
0.0
 11
16.425
 21
10.023
 31
0.0
  0
LINE
  5
3D1
330
18
100
AcDbEntity
  8
Object
100
AcDbLine
 10
16.412
 20
10.012
 30
0.0
 11
16.425
 21
10.008
 31
0.0
  0
LINE
  5
3D2
330
18
100
AcDbEntity
  8
Object
100
AcDbLine
 10
16.425
 20
10.008
 30
0.0
 11
16.41
 21
10.012
 31
0.0
  0
LINE
  5
3D3
330
18
100
AcDbEntity
  8
Object
100
AcDbLine
 10
16.425
 20
10.023
 30
0.0
 11
16.425
 21
10.038
 31
0.0
  0
LINE
  5
3D4
330
18
100
AcDbEntity
  8
Object
100
AcDbLine
 10
16.41
 20
10.012
 30
0.0
 11
16.399
 21
10.023
 31
0.0
  0
LINE
  5
3D5
330
18
100
AcDbEntity
  8
Object
100
AcDbLine
 10
16.399
 20
10.023
 30
0.0
 11
16.395
 21
10.038
 31
0.0
  0
LINE
  5
3D6
330
18
100
AcDbEntity
  8
Object
100
AcDbLine
 10
18.599
 20
11.598
 30
0.0
 11
18.572
 21
10.038
 31
0.0
  0
LINE
  5
3D7
330
18
100
AcDbEntity
  8
Object
100
AcDbLine
 10
18.572
 20
10.038
 30
0.0
 11
18.568
 21
10.038
 31
0.0
  0
LINE
  5
3D8
330
18
100
AcDbEntity
  8
Object
100
AcDbLine
 10
18.572
 20
10.038
 30
0.0
 11
18.567
 21
10.023
 31
0.0
  0
LINE
  5
3D9
330
18
100
AcDbEntity
  8
Object
100
AcDbLine
 10
18.567
 20
10.023
 30
0.0
 11
18.556
 21
10.012
 31
0.0
  0
LINE
  5
3DA
330
18
100
AcDbEntity
  8
Object
100
AcDbLine
 10
18.568
 20
10.038
 30
0.0
 11
18.557
 21
10.038
 31
0.0
  0
LINE
  5
3DB
330
18
100
AcDbEntity
  8
Object
100
AcDbLine
 10
18.556
 20
10.012
 30
0.0
 11
18.542
 21
10.008
 31
0.0
  0
LINE
  5
3DC
330
18
100
AcDbEntity
  8
Object
100
AcDbLine
 10
18.542
 20
10.008
 30
0.0
 11
18.555
 21
10.012
 31
0.0
  0
LINE
  5
3DD
330
18
100
AcDbEntity
  8
Object
100
AcDbLine
 10
18.542
 20
10.008
 30
0.0
 11
18.549
 21
10.012
 31
0.0
  0
LINE
  5
3DE
330
18
100
AcDbEntity
  8
Object
100
AcDbLine
 10
18.557
 20
10.038
 30
0.0
 11
18.542
 21
10.038
 31
0.0
  0
LINE
  5
3DF
330
18
100
AcDbEntity
  8
Object
100
AcDbLine
 10
18.624
 20
9.967999999999999
 30
0.0
 11
18.626
 21
9.967999999999999
 31
0.0
  0
LINE
  5
3E0
330
18
100
AcDbEntity
  8
Object
100
AcDbLine
 10
18.626
 20
9.967999999999999
 30
0.0
 11
18.622
 21
9.939
 31
0.0
  0
LINE
  5
3E1
330
18
100
AcDbEntity
  8
Object
100
AcDbLine
 10
18.624
 20
9.967999999999999
 30
0.0
 11
18.622
 21
9.967999999999999
 31
0.0
  0
LINE
  5
3E2
330
18
100
AcDbEntity
  8
Object
100
AcDbLine
 10
18.622
 20
9.939
 30
0.0
 11
18.61
 21
9.912
 31
0.0
  0
LINE
  5
3E3
330
18
100
AcDbEntity
  8
Object
100
AcDbLine
 10
18.61
 20
9.912
 30
0.0
 11
18.593
 21
9.887999999999999
 31
0.0
  0
LINE
  5
3E4
330
18
100
AcDbEntity
  8
Object
100
AcDbLine
 10
18.593
 20
9.887999999999999
 30
0.0
 11
18.571
 21
9.868999999999999
 31
0.0
  0
LINE
  5
3E5
330
18
100
AcDbEntity
  8
Object
100
AcDbLine
 10
18.698
 20
11.598
 30
0.0
 11
18.626
 21
9.967999999999999
 31
0.0
  0
LINE
  5
3E6
330
18
100
AcDbEntity
  8
Object
100
AcDbLine
 10
18.626
 20
9.967999999999999
 30
0.0
 11
18.622
 21
9.939
 31
0.0
  0
LINE
  5
3E7
330
18
100
AcDbEntity
  8
Object
100
AcDbLine
 10
18.622
 20
9.939
 30
0.0
 11
18.619
 21
9.929999999999999
 31
0.0
  0
LINE
  5
3E8
330
18
100
AcDbEntity
  8
Object
100
AcDbLine
 10
18.619
 20
9.929999999999999
 30
0.0
 11
18.622
 21
9.939
 31
0.0
  0
LINE
  5
3E9
330
18
100
AcDbEntity
  8
Object
100
AcDbLine
 10
18.62
 20
9.935
 30
0.0
 11
18.619
 21
9.929999999999999
 31
0.0
  0
LINE
  5
3EA
330
18
100
AcDbEntity
  8
Object
100
AcDbLine
 10
18.619
 20
9.929999999999999
 30
0.0
 11
18.61
 21
9.912
 31
0.0
  0
LINE
  5
3EB
330
18
100
AcDbEntity
  8
Object
100
AcDbLine
 10
18.61
 20
9.912
 30
0.0
 11
18.622
 21
9.939
 31
0.0
  0
LINE
  5
3EC
330
18
100
AcDbEntity
  8
Object
100
AcDbLine
 10
18.605
 20
9.904999999999999
 30
0.0
 11
18.601
 21
9.897
 31
0.0
  0
LINE
  5
3ED
330
18
100
AcDbEntity
  8
Object
100
AcDbLine
 10
18.613
 20
9.919999999999999
 30
0.0
 11
18.619
 21
9.929999999999999
 31
0.0
  0
LINE
  5
3EE
330
18
100
AcDbEntity
  8
Object
100
AcDbLine
 10
18.619
 20
9.929999999999999
 30
0.0
 11
18.61
 21
9.912
 31
0.0
  0
LINE
  5
3EF
330
18
100
AcDbEntity
  8
Object
100
AcDbLine
 10
18.61
 20
9.912
 30
0.0
 11
18.601
 21
9.897
 31
0.0
  0
LINE
  5
3F0
330
18
100
AcDbEntity
  8
Object
100
AcDbLine
 10
18.601
 20
9.897
 30
0.0
 11
18.61
 21
9.912
 31
0.0
  0
LINE
  5
3F1
330
18
100
AcDbEntity
  8
Object
100
AcDbLine
 10
18.593
 20
9.887999999999999
 30
0.0
 11
18.601
 21
9.897
 31
0.0
  0
LINE
  5
3F2
330
18
100
AcDbEntity
  8
Object
100
AcDbLine
 10
18.601
 20
9.897
 30
0.0
 11
18.593
 21
9.887999999999999
 31
0.0
  0
LINE
  5
3F3
330
18
100
AcDbEntity
  8
Object
100
AcDbLine
 10
18.593
 20
9.887999999999999
 30
0.0
 11
18.61
 21
9.912
 31
0.0
  0
LINE
  5
3F4
330
18
100
AcDbEntity
  8
Object
100
AcDbLine
 10
18.593
 20
9.887999999999999
 30
0.0
 11
18.573
 21
9.871
 31
0.0
  0
LINE
  5
3F5
330
18
100
AcDbEntity
  8
Object
100
AcDbLine
 10
18.573
 20
9.871
 30
0.0
 11
18.593
 21
9.887999999999999
 31
0.0
  0
LINE
  5
3F6
330
18
100
AcDbEntity
  8
Object
100
AcDbLine
 10
18.575
 20
9.871999999999999
 30
0.0
 11
18.573
 21
9.871
 31
0.0
  0
LINE
  5
3F7
330
18
100
AcDbEntity
  8
Object
100
AcDbLine
 10
18.601
 20
9.897
 30
0.0
 11
18.596
 21
9.891999999999999
 31
0.0
  0
LINE
  5
3F8
330
18
100
AcDbEntity
  8
Object
100
AcDbLine
 10
18.573
 20
9.871
 30
0.0
 11
18.571
 21
9.868999999999999
 31
0.0
  0
LINE
  5
3F9
330
18
100
AcDbEntity
  8
Object
100
AcDbLine
 10
18.571
 20
9.868999999999999
 30
0.0
 11
18.593
 21
9.887999999999999
 31
0.0
  0
LINE
  5
3FA
330
18
100
AcDbEntity
  8
Object
100
AcDbLine
 10
18.571
 20
9.868999999999999
 30
0.0
 11
18.573
 21
9.871
 31
0.0
  0
LINE
  5
3FB
330
18
100
AcDbEntity
  8
Object
100
AcDbLine
 10
18.573
 20
9.871
 30
0.0
 11
18.573
 21
9.87
 31
0.0
  0
LINE
  5
3FC
330
18
100
AcDbEntity
  8
Object
100
AcDbLine
 10
18.549
 20
9.858
 30
0.0
 11
18.571
 21
9.868999999999999
 31
0.0
  0
LINE
  5
3FD
330
18
100
AcDbEntity
  8
Object
100
AcDbLine
 10
18.573
 20
9.87
 30
0.0
 11
18.573
 21
9.871
 31
0.0
  0
LINE
  5
3FE
330
18
100
AcDbEntity
  8
Object
100
AcDbLine
 10
18.544
 20
9.855999999999999
 30
0.0
 11
18.539
 21
9.854
 31
0.0
  0
LINE
  5
3FF
330
18
100
AcDbEntity
  8
Object
100
AcDbLine
 10
18.573
 20
9.871
 30
0.0
 11
18.573
 21
9.87
 31
0.0
  0
LINE
  5
400
330
18
100
AcDbEntity
  8
Object
100
AcDbLine
 10
18.539
 20
9.854
 30
0.0
 11
18.549
 21
9.858
 31
0.0
  0
LINE
  5
401
330
18
100
AcDbEntity
  8
Object
100
AcDbLine
 10
18.549
 20
9.858
 30
0.0
 11
18.539
 21
9.854
 31
0.0
  0
LINE
  5
402
330
18
100
AcDbEntity
  8
Object
100
AcDbLine
 10
18.539
 20
9.854
 30
0.0
 11
18.526
 21
9.851
 31
0.0
  0
LINE
  5
403
330
18
100
AcDbEntity
  8
Object
100
AcDbLine
 10
18.526
 20
9.851
 30
0.0
 11
18.539
 21
9.854
 31
0.0
  0
LINE
  5
404
330
18
100
AcDbEntity
  8
Object
100
AcDbLine
 10
18.526
 20
9.851
 30
0.0
 11
18.549
 21
9.858
 31
0.0
  0
LINE
  5
405
330
18
100
AcDbEntity
  8
Object
100
AcDbLine
 10
18.539
 20
9.854
 30
0.0
 11
18.532
 21
9.852
 31
0.0
  0
LINE
  5
406
330
18
100
AcDbEntity
  8
Object
100
AcDbLine
 10
18.502
 20
9.848
 30
0.0
 11
18.526
 21
9.851
 31
0.0
  0
LINE
  5
407
330
18
100
AcDbEntity
  8
Object
100
AcDbLine
 10
18.601
 20
11.698
 30
0.0
 11
18.598
 21
11.698
 31
0.0
  0
LINE
  5
408
330
18
100
AcDbEntity
  8
Object
100
AcDbLine
 10
18.572
 20
10.038
 30
0.0
 11
18.599
 21
11.598
 31
0.0
  0
LINE
  5
409
330
18
100
AcDbEntity
  8
Object
100
AcDbLine
 10
18.598
 20
11.698
 30
0.0
 11
18.592
 21
11.698
 31
0.0
  0
LINE
  5
40A
330
18
100
AcDbEntity
  8
Object
100
AcDbLine
 10
18.592
 20
11.698
 30
0.0
 11
18.582
 21
11.698
 31
0.0
  0
LINE
  5
40B
330
18
100
AcDbEntity
  8
Object
100
AcDbLine
 10
18.582
 20
11.698
 30
0.0
 11
18.571
 21
11.698
 31
0.0
  0
LINE
  5
40C
330
18
100
AcDbEntity
  8
Object
100
AcDbLine
 10
18.626
 20
9.967999999999999
 30
0.0
 11
18.698
 21
11.598
 31
0.0
  0
LINE
  5
40D
330
18
100
AcDbEntity
  8
Object
100
AcDbLine
 10
16.41
 20
10.038
 30
0.0
 11
16.425
 21
10.038
 31
0.0
  0
LINE
  5
40E
330
18
100
AcDbEntity
  8
Object
100
AcDbLine
 10
16.385
 20
11.698
 30
0.0
 11
16.396
 21
11.698
 31
0.0
  0
LINE
  5
40F
330
18
100
AcDbEntity
  8
Object
100
AcDbLine
 10
16.396
 20
11.698
 30
0.0
 11
16.425
 21
10.038
 31
0.0
  0
LINE
  5
410
330
18
100
AcDbEntity
  8
Object
100
AcDbLine
 10
16.385
 20
11.698
 30
0.0
 11
16.375
 21
11.698
 31
0.0
  0
LINE
  5
411
330
18
100
AcDbEntity
  8
Object
100
AcDbLine
 10
16.41
 20
10.038
 30
0.0
 11
16.399
 21
10.038
 31
0.0
  0
LINE
  5
412
330
18
100
AcDbEntity
  8
Object
100
AcDbLine
 10
16.399
 20
10.038
 30
0.0
 11
16.395
 21
10.038
 31
0.0
  0
LINE
  5
413
330
18
100
AcDbEntity
  8
Object
100
AcDbLine
 10
16.375
 20
11.698
 30
0.0
 11
16.368
 21
11.698
 31
0.0
  0
LINE
  5
414
330
18
100
AcDbEntity
  8
Object
100
AcDbLine
 10
16.368
 20
11.598
 30
0.0
 11
16.395
 21
10.038
 31
0.0
  0
LINE
  5
415
330
18
100
AcDbEntity
  8
Object
100
AcDbLine
 10
16.368
 20
11.698
 30
0.0
 11
16.366
 21
11.698
 31
0.0
  0
LINE
  5
416
330
18
100
AcDbEntity
  8
Object
100
AcDbLine
 10
16.269
 20
11.598
 30
0.0
 11
16.34
 21
9.967999999999999
 31
0.0
  0
LINE
  5
417
330
18
100
AcDbEntity
  8
Object
100
AcDbLine
 10
16.34
 20
9.967999999999999
 30
0.0
 11
16.269
 21
11.598
 31
0.0
  0
LINE
  5
418
330
18
100
AcDbEntity
  8
Object
100
AcDbLine
 10
16.638
 20
6.504999999999999
 30
0.0
 11
16.638
 21
5.025
 31
0.0
  0
LINE
  5
419
330
18
100
AcDbEntity
  8
Object
100
AcDbLine
 10
18.328
 20
5.025
 30
0.0
 11
18.328
 21
6.504999999999999
 31
0.0
  0
LINE
  5
41A
330
18
100
AcDbEntity
  8
Object
100
AcDbLine
 10
18.572
 20
6.504999999999999
 30
0.0
 11
18.569
 21
6.504999999999999
 31
0.0
  0
LINE
  5
41B
330
18
100
AcDbEntity
  8
Object
100
AcDbLine
 10
18.569
 20
6.504999999999999
 30
0.0
 11
18.548
 21
6.504999999999999
 31
0.0
  0
LINE
  5
41C
330
18
100
AcDbEntity
  8
Object
100
AcDbLine
 10
18.548
 20
6.504999999999999
 30
0.0
 11
18.526
 21
6.504999999999999
 31
0.0
  0
LINE
  5
41D
330
18
100
AcDbEntity
  8
Object
100
AcDbLine
 10
18.526
 20
6.504999999999999
 30
0.0
 11
18.502
 21
6.504999999999999
 31
0.0
  0
LINE
  5
41E
330
18
100
AcDbEntity
  8
Object
100
AcDbLine
 10
18.502
 20
6.504999999999999
 30
0.0
 11
16.465
 21
6.504999999999999
 31
0.0
  0
LINE
  5
41F
330
18
100
AcDbEntity
  8
Object
100
AcDbLine
 10
16.465
 20
6.504999999999999
 30
0.0
 11
16.441
 21
6.504999999999999
 31
0.0
  0
LINE
  5
420
330
18
100
AcDbEntity
  8
Object
100
AcDbLine
 10
16.441
 20
6.504999999999999
 30
0.0
 11
16.418
 21
6.504999999999999
 31
0.0
  0
LINE
  5
421
330
18
100
AcDbEntity
  8
Object
100
AcDbLine
 10
16.418
 20
6.504999999999999
 30
0.0
 11
16.398
 21
6.504999999999999
 31
0.0
  0
LINE
  5
422
330
18
100
AcDbEntity
  8
Object
100
AcDbLine
 10
16.395
 20
6.504999999999999
 30
0.0
 11
16.397
 21
6.504999999999999
 31
0.0
  0
LINE
  5
423
330
18
100
AcDbEntity
  8
Object
100
AcDbLine
 10
18.491
 20
6.504999999999999
 30
0.0
 11
18.491
 21
5.014999999999999
 31
0.0
  0
LINE
  5
424
330
18
100
AcDbEntity
  8
Object
100
AcDbLine
 10
18.491
 20
4.987
 30
0.0
 11
18.491
 21
4.993
 31
0.0
  0
LINE
  5
425
330
18
100
AcDbEntity
  8
Object
100
AcDbLine
 10
18.491
 20
4.993
 30
0.0
 11
18.491
 21
5.004
 31
0.0
  0
LINE
  5
426
330
18
100
AcDbEntity
  8
Object
100
AcDbLine
 10
18.491
 20
5.004
 30
0.0
 11
18.491
 21
5.014999999999999
 31
0.0
  0
LINE
  5
427
330
18
100
AcDbEntity
  8
Object
100
AcDbLine
 10
18.491
 20
4.987
 30
0.0
 11
18.492
 21
4.985
 31
0.0
  0
LINE
  5
428
330
18
100
AcDbEntity
  8
Object
100
AcDbLine
 10
18.502
 20
9.782999999999999
 30
0.0
 11
18.502
 21
9.819
 31
0.0
  0
LINE
  5
429
330
18
100
AcDbEntity
  8
Object
100
AcDbLine
 10
18.502
 20
9.819
 30
0.0
 11
18.502
 21
9.841000000000001
 31
0.0
  0
LINE
  5
42A
330
18
100
AcDbEntity
  8
Object
100
AcDbLine
 10
18.502
 20
9.841000000000001
 30
0.0
 11
18.502
 21
9.848
 31
0.0
  0
LINE
  5
42B
330
18
100
AcDbEntity
  8
Object
100
AcDbLine
 10
18.502
 20
9.668000000000001
 30
0.0
 11
18.502
 21
9.731999999999999
 31
0.0
  0
LINE
  5
42C
330
18
100
AcDbEntity
  8
Object
100
AcDbLine
 10
18.502
 20
9.500999999999999
 30
0.0
 11
18.502
 21
9.591000000000001
 31
0.0
  0
LINE
  5
42D
330
18
100
AcDbEntity
  8
Object
100
AcDbLine
 10
18.502
 20
9.285999999999999
 30
0.0
 11
18.502
 21
9.399
 31
0.0
  0
LINE
  5
42E
330
18
100
AcDbEntity
  8
Object
100
AcDbLine
 10
18.502
 20
9.399
 30
0.0
 11
18.502
 21
9.500999999999999
 31
0.0
  0
LINE
  5
42F
330
18
100
AcDbEntity
  8
Object
100
AcDbLine
 10
18.502
 20
9.591000000000001
 30
0.0
 11
18.502
 21
9.668000000000001
 31
0.0
  0
LINE
  5
430
330
18
100
AcDbEntity
  8
Object
100
AcDbLine
 10
18.502
 20
9.731999999999999
 30
0.0
 11
18.502
 21
9.782999999999999
 31
0.0
  0
LINE
  5
431
330
18
100
AcDbEntity
  8
Object
100
AcDbLine
 10
18.502
 20
9.162
 30
0.0
 11
18.502
 21
9.285999999999999
 31
0.0
  0
LINE
  5
432
330
18
100
AcDbEntity
  8
Object
100
AcDbLine
 10
18.502
 20
8.887999999999999
 30
0.0
 11
18.502
 21
9.029999999999999
 31
0.0
  0
LINE
  5
433
330
18
100
AcDbEntity
  8
Object
100
AcDbLine
 10
18.502
 20
8.585
 30
0.0
 11
18.502
 21
8.74
 31
0.0
  0
LINE
  5
434
330
18
100
AcDbEntity
  8
Object
100
AcDbLine
 10
18.502
 20
8.74
 30
0.0
 11
18.502
 21
8.887999999999999
 31
0.0
  0
LINE
  5
435
330
18
100
AcDbEntity
  8
Object
100
AcDbLine
 10
18.502
 20
9.029999999999999
 30
0.0
 11
18.502
 21
9.162
 31
0.0
  0
LINE
  5
436
330
18
100
AcDbEntity
  8
Object
100
AcDbLine
 10
18.502
 20
8.425
 30
0.0
 11
18.502
 21
8.262
 31
0.0
  0
LINE
  5
437
330
18
100
AcDbEntity
  8
Object
100
AcDbLine
 10
18.502
 20
8.262
 30
0.0
 11
18.502
 21
8.096
 31
0.0
  0
LINE
  5
438
330
18
100
AcDbEntity
  8
Object
100
AcDbLine
 10
18.502
 20
8.425
 30
0.0
 11
18.502
 21
8.585
 31
0.0
  0
LINE
  5
439
330
18
100
AcDbEntity
  8
Object
100
AcDbLine
 10
18.502
 20
7.927999999999999
 30
0.0
 11
18.502
 21
8.096
 31
0.0
  0
LINE
  5
43A
330
18
100
AcDbEntity
  8
Object
100
AcDbLine
 10
16.434
 20
9.852
 30
0.0
 11
16.427
 21
9.854
 31
0.0
  0
LINE
  5
43B
330
18
100
AcDbEntity
  8
Object
100
AcDbLine
 10
16.465
 20
9.848
 30
0.0
 11
16.465
 21
9.841000000000001
 31
0.0
  0
LINE
  5
43C
330
18
100
AcDbEntity
  8
Object
100
AcDbLine
 10
16.465
 20
9.841000000000001
 30
0.0
 11
16.465
 21
9.819
 31
0.0
  0
LINE
  5
43D
330
18
100
AcDbEntity
  8
Object
100
AcDbLine
 10
16.465
 20
9.819
 30
0.0
 11
16.465
 21
9.782999999999999
 31
0.0
  0
LINE
  5
43E
330
18
100
AcDbEntity
  8
Object
100
AcDbLine
 10
16.465
 20
9.399
 30
0.0
 11
16.465
 21
9.500999999999999
 31
0.0
  0
LINE
  5
43F
330
18
100
AcDbEntity
  8
Object
100
AcDbLine
 10
16.465
 20
9.591000000000001
 30
0.0
 11
16.465
 21
9.668000000000001
 31
0.0
  0
LINE
  5
440
330
18
100
AcDbEntity
  8
Object
100
AcDbLine
 10
16.465
 20
9.782999999999999
 30
0.0
 11
16.465
 21
9.731999999999999
 31
0.0
  0
LINE
  5
441
330
18
100
AcDbEntity
  8
Object
100
AcDbLine
 10
16.465
 20
9.731999999999999
 30
0.0
 11
16.465
 21
9.668000000000001
 31
0.0
  0
LINE
  5
442
330
18
100
AcDbEntity
  8
Object
100
AcDbLine
 10
16.465
 20
9.500999999999999
 30
0.0
 11
16.465
 21
9.591000000000001
 31
0.0
  0
LINE
  5
443
330
18
100
AcDbEntity
  8
Object
100
AcDbLine
 10
16.465
 20
9.285999999999999
 30
0.0
 11
16.465
 21
9.399
 31
0.0
  0
LINE
  5
444
330
18
100
AcDbEntity
  8
Object
100
AcDbLine
 10
16.465
 20
8.585
 30
0.0
 11
16.465
 21
8.74
 31
0.0
  0
LINE
  5
445
330
18
100
AcDbEntity
  8
Object
100
AcDbLine
 10
16.465
 20
8.887999999999999
 30
0.0
 11
16.465
 21
9.029999999999999
 31
0.0
  0
LINE
  5
446
330
18
100
AcDbEntity
  8
Object
100
AcDbLine
 10
16.465
 20
9.285999999999999
 30
0.0
 11
16.465
 21
9.162
 31
0.0
  0
LINE
  5
447
330
18
100
AcDbEntity
  8
Object
100
AcDbLine
 10
16.465
 20
9.162
 30
0.0
 11
16.465
 21
9.029999999999999
 31
0.0
  0
LINE
  5
448
330
18
100
AcDbEntity
  8
Object
100
AcDbLine
 10
16.465
 20
8.74
 30
0.0
 11
16.465
 21
8.887999999999999
 31
0.0
  0
LINE
  5
449
330
18
100
AcDbEntity
  8
Object
100
AcDbLine
 10
16.465
 20
8.262
 30
0.0
 11
16.465
 21
8.425
 31
0.0
  0
LINE
  5
44A
330
18
100
AcDbEntity
  8
Object
100
AcDbLine
 10
16.465
 20
8.425
 30
0.0
 11
16.465
 21
8.585
 31
0.0
  0
LINE
  5
44B
330
18
100
AcDbEntity
  8
Object
100
AcDbLine
 10
16.465
 20
8.262
 30
0.0
 11
16.465
 21
8.096
 31
0.0
  0
LINE
  5
44C
330
18
100
AcDbEntity
  8
Object
100
AcDbLine
 10
16.465
 20
8.096
 30
0.0
 11
16.465
 21
7.927999999999999
 31
0.0
  0
LINE
  5
44D
330
18
100
AcDbEntity
  8
Object
100
AcDbLine
 10
16.465
 20
7.927999999999999
 30
0.0
 11
16.427
 21
7.927999999999999
 31
0.0
  0
LINE
  5
44E
330
18
100
AcDbEntity
  8
Object
100
AcDbLine
 10
16.393
 20
9.87
 30
0.0
 11
16.393
 21
9.871
 31
0.0
  0
LINE
  5
44F
330
18
100
AcDbEntity
  8
Object
100
AcDbLine
 10
16.427
 20
9.854
 30
0.0
 11
16.422
 21
9.855999999999999
 31
0.0
  0
LINE
  5
450
330
18
100
AcDbEntity
  8
Object
100
AcDbLine
 10
16.37
 20
9.891999999999999
 30
0.0
 11
16.366
 21
9.897
 31
0.0
  0
LINE
  5
451
330
18
100
AcDbEntity
  8
Object
100
AcDbLine
 10
16.393
 20
9.871
 30
0.0
 11
16.391
 21
9.871999999999999
 31
0.0
  0
LINE
  5
452
330
18
100
AcDbEntity
  8
Object
100
AcDbLine
 10
16.348
 20
9.929999999999999
 30
0.0
 11
16.347
 21
9.932999999999999
 31
0.0
  0
LINE
  5
453
330
18
100
AcDbEntity
  8
Object
100
AcDbLine
 10
18.626
 20
9.845
 30
0.0
 11
18.626
 21
9.897999999999999
 31
0.0
  0
LINE
  5
454
330
18
100
AcDbEntity
  8
Object
100
AcDbLine
 10
18.626
 20
9.936999999999999
 30
0.0
 11
18.626
 21
9.96
 31
0.0
  0
LINE
  5
455
330
18
100
AcDbEntity
  8
Object
100
AcDbLine
 10
18.626
 20
9.96
 30
0.0
 11
18.626
 21
9.967999999999999
 31
0.0
  0
LINE
  5
456
330
18
100
AcDbEntity
  8
Object
100
AcDbLine
 10
18.626
 20
9.897999999999999
 30
0.0
 11
18.626
 21
9.936999999999999
 31
0.0
  0
LINE
  5
457
330
18
100
AcDbEntity
  8
Object
100
AcDbLine
 10
18.626
 20
9.239
 30
0.0
 11
18.626
 21
9.37
 31
0.0
  0
LINE
  5
458
330
18
100
AcDbEntity
  8
Object
100
AcDbLine
 10
18.626
 20
9.490999999999999
 30
0.0
 11
18.626
 21
9.599
 31
0.0
  0
LINE
  5
459
330
18
100
AcDbEntity
  8
Object
100
AcDbLine
 10
18.626
 20
9.695
 30
0.0
 11
18.626
 21
9.777000000000001
 31
0.0
  0
LINE
  5
45A
330
18
100
AcDbEntity
  8
Object
100
AcDbLine
 10
18.626
 20
9.777000000000001
 30
0.0
 11
18.626
 21
9.845
 31
0.0
  0
LINE
  5
45B
330
18
100
AcDbEntity
  8
Object
100
AcDbLine
 10
18.626
 20
9.599
 30
0.0
 11
18.626
 21
9.695
 31
0.0
  0
LINE
  5
45C
330
18
100
AcDbEntity
  8
Object
100
AcDbLine
 10
18.626
 20
9.37
 30
0.0
 11
18.626
 21
9.490999999999999
 31
0.0
  0
LINE
  5
45D
330
18
100
AcDbEntity
  8
Object
100
AcDbLine
 10
18.626
 20
8.625999999999999
 30
0.0
 11
18.626
 21
8.79
 31
0.0
  0
LINE
  5
45E
330
18
100
AcDbEntity
  8
Object
100
AcDbLine
 10
18.626
 20
8.948
 30
0.0
 11
18.626
 21
9.098
 31
0.0
  0
LINE
  5
45F
330
18
100
AcDbEntity
  8
Object
100
AcDbLine
 10
18.626
 20
9.098
 30
0.0
 11
18.626
 21
9.239
 31
0.0
  0
LINE
  5
460
330
18
100
AcDbEntity
  8
Object
100
AcDbLine
 10
18.626
 20
8.79
 30
0.0
 11
18.626
 21
8.948
 31
0.0
  0
LINE
  5
461
330
18
100
AcDbEntity
  8
Object
100
AcDbLine
 10
18.626
 20
8.282
 30
0.0
 11
18.626
 21
8.455999999999999
 31
0.0
  0
LINE
  5
462
330
18
100
AcDbEntity
  8
Object
100
AcDbLine
 10
18.626
 20
8.455999999999999
 30
0.0
 11
18.626
 21
8.625999999999999
 31
0.0
  0
LINE
  5
463
330
18
100
AcDbEntity
  8
Object
100
AcDbLine
 10
18.626
 20
8.282
 30
0.0
 11
18.626
 21
8.105999999999999
 31
0.0
  0
LINE
  5
464
330
18
100
AcDbEntity
  8
Object
100
AcDbLine
 10
18.626
 20
8.105999999999999
 30
0.0
 11
18.626
 21
7.927999999999999
 31
0.0
  0
LINE
  5
465
330
18
100
AcDbEntity
  8
Object
100
AcDbLine
 10
18.62
 20
9.935
 30
0.0
 11
18.619
 21
9.929999999999999
 31
0.0
  0
LINE
  5
466
330
18
100
AcDbEntity
  8
Object
100
AcDbLine
 10
18.575
 20
9.871999999999999
 30
0.0
 11
18.573
 21
9.871
 31
0.0
  0
LINE
  5
467
330
18
100
AcDbEntity
  8
Object
100
AcDbLine
 10
18.601
 20
9.897
 30
0.0
 11
18.596
 21
9.891999999999999
 31
0.0
  0
LINE
  5
468
330
18
100
AcDbEntity
  8
Object
100
AcDbLine
 10
18.544
 20
9.855999999999999
 30
0.0
 11
18.539
 21
9.854
 31
0.0
  0
LINE
  5
469
330
18
100
AcDbEntity
  8
Object
100
AcDbLine
 10
18.573
 20
9.871
 30
0.0
 11
18.573
 21
9.87
 31
0.0
  0
LINE
  5
46A
330
18
100
AcDbEntity
  8
Object
100
AcDbLine
 10
18.539
 20
9.854
 30
0.0
 11
18.532
 21
9.852
 31
0.0
  0
LINE
  5
46B
330
18
100
AcDbEntity
  8
Object
100
AcDbLine
 10
18.806
 20
11.778
 30
0.0
 11
18.803
 21
11.778
 31
0.0
  0
LINE
  5
46C
330
18
100
AcDbEntity
  8
Object
100
AcDbLine
 10
18.803
 20
11.778
 30
0.0
 11
18.794
 21
11.778
 31
0.0
  0
LINE
  5
46D
330
18
100
AcDbEntity
  8
Object
100
AcDbLine
 10
18.794
 20
11.778
 30
0.0
 11
18.781
 21
11.778
 31
0.0
  0
LINE
  5
46E
330
18
100
AcDbEntity
  8
Object
100
AcDbLine
 10
18.781
 20
11.778
 30
0.0
 11
18.766
 21
11.778
 31
0.0
  0
LINE
  5
46F
330
18
100
AcDbEntity
  8
Object
100
AcDbLine
 10
18.766
 20
11.778
 30
0.0
 11
18.728
 21
11.778
 31
0.0
  0
LINE
  5
470
330
18
100
AcDbEntity
  8
Object
100
AcDbLine
 10
18.809
 20
11.858
 30
0.0
 11
18.806
 21
11.858
 31
0.0
  0
LINE
  5
471
330
18
100
AcDbEntity
  8
Object
100
AcDbLine
 10
18.806
 20
11.858
 30
0.0
 11
18.797
 21
11.858
 31
0.0
  0
LINE
  5
472
330
18
100
AcDbEntity
  8
Object
100
AcDbLine
 10
18.797
 20
11.858
 30
0.0
 11
18.784
 21
11.858
 31
0.0
  0
LINE
  5
473
330
18
100
AcDbEntity
  8
Object
100
AcDbLine
 10
18.784
 20
11.858
 30
0.0
 11
18.769
 21
11.858
 31
0.0
  0
LINE
  5
474
330
18
100
AcDbEntity
  8
Object
100
AcDbLine
 10
18.769
 20
11.858
 30
0.0
 11
18.726
 21
11.858
 31
0.0
  0
LINE
  5
475
330
18
100
AcDbEntity
  8
Object
100
AcDbLine
 10
18.726
 20
11.858
 30
0.0
 11
18.769
 21
11.858
 31
0.0
  0
LINE
  5
476
330
18
100
AcDbEntity
  8
Object
100
AcDbLine
 10
18.769
 20
11.858
 30
0.0
 11
18.766
 21
11.778
 31
0.0
  0
LINE
  5
477
330
18
100
AcDbEntity
  8
Object
100
AcDbLine
 10
18.766
 20
11.778
 30
0.0
 11
18.728
 21
11.778
 31
0.0
  0
LINE
  5
478
330
18
100
AcDbEntity
  8
Object
100
AcDbLine
 10
18.626
 20
7.927999999999999
 30
0.0
 11
18.697
 21
7.927999999999999
 31
0.0
  0
LINE
  5
479
330
18
100
AcDbEntity
  8
Object
100
AcDbLine
 10
16.241
 20
11.778
 30
0.0
 11
16.2
 21
11.778
 31
0.0
  0
LINE
  5
47A
330
18
100
AcDbEntity
  8
Object
100
AcDbLine
 10
16.2
 20
11.778
 30
0.0
 11
16.186
 21
11.778
 31
0.0
  0
LINE
  5
47B
330
18
100
AcDbEntity
  8
Object
100
AcDbLine
 10
16.186
 20
11.778
 30
0.0
 11
16.172
 21
11.778
 31
0.0
  0
LINE
  5
47C
330
18
100
AcDbEntity
  8
Object
100
AcDbLine
 10
16.172
 20
11.778
 30
0.0
 11
16.163
 21
11.778
 31
0.0
  0
LINE
  5
47D
330
18
100
AcDbEntity
  8
Object
100
AcDbLine
 10
16.163
 20
11.778
 30
0.0
 11
16.16
 21
11.778
 31
0.0
  0
LINE
  5
47E
330
18
100
AcDbEntity
  8
Object
100
AcDbLine
 10
16.2
 20
11.778
 30
0.0
 11
16.241
 21
11.778
 31
0.0
  0
LINE
  5
47F
330
18
100
AcDbEntity
  8
Object
100
AcDbLine
 10
16.244
 20
11.858
 30
0.0
 11
16.198
 21
11.858
 31
0.0
  0
LINE
  5
480
330
18
100
AcDbEntity
  8
Object
100
AcDbLine
 10
16.34
 20
9.897999999999999
 30
0.0
 11
16.34
 21
9.936999999999999
 31
0.0
  0
LINE
  5
481
330
18
100
AcDbEntity
  8
Object
100
AcDbLine
 10
16.34
 20
9.96
 30
0.0
 11
16.34
 21
9.967999999999999
 31
0.0
  0
LINE
  5
482
330
18
100
AcDbEntity
  8
Object
100
AcDbLine
 10
16.34
 20
9.967999999999999
 30
0.0
 11
16.269
 21
11.598
 31
0.0
  0
LINE
  5
483
330
18
100
AcDbEntity
  8
Object
100
AcDbLine
 10
16.34
 20
9.936999999999999
 30
0.0
 11
16.34
 21
9.96
 31
0.0
  0
LINE
  5
484
330
18
100
AcDbEntity
  8
Object
100
AcDbLine
 10
16.34
 20
9.845
 30
0.0
 11
16.34
 21
9.897999999999999
 31
0.0
  0
LINE
  5
485
330
18
100
AcDbEntity
  8
Object
100
AcDbLine
 10
16.34
 20
9.490999999999999
 30
0.0
 11
16.34
 21
9.599
 31
0.0
  0
LINE
  5
486
330
18
100
AcDbEntity
  8
Object
100
AcDbLine
 10
16.34
 20
9.845
 30
0.0
 11
16.34
 21
9.777000000000001
 31
0.0
  0
LINE
  5
487
330
18
100
AcDbEntity
  8
Object
100
AcDbLine
 10
16.34
 20
9.777000000000001
 30
0.0
 11
16.34
 21
9.695
 31
0.0
  0
LINE
  5
488
330
18
100
AcDbEntity
  8
Object
100
AcDbLine
 10
16.34
 20
9.695
 30
0.0
 11
16.34
 21
9.599
 31
0.0
  0
LINE
  5
489
330
18
100
AcDbEntity
  8
Object
100
AcDbLine
 10
16.34
 20
9.098
 30
0.0
 11
16.34
 21
9.239
 31
0.0
  0
LINE
  5
48A
330
18
100
AcDbEntity
  8
Object
100
AcDbLine
 10
16.34
 20
8.948
 30
0.0
 11
16.34
 21
8.79
 31
0.0
  0
LINE
  5
48B
330
18
100
AcDbEntity
  8
Object
100
AcDbLine
 10
16.34
 20
8.79
 30
0.0
 11
16.34
 21
8.625999999999999
 31
0.0
  0
LINE
  5
48C
330
18
100
AcDbEntity
  8
Object
100
AcDbLine
 10
16.34
 20
8.948
 30
0.0
 11
16.34
 21
9.098
 31
0.0
  0
LINE
  5
48D
330
18
100
AcDbEntity
  8
Object
100
AcDbLine
 10
16.34
 20
8.455999999999999
 30
0.0
 11
16.34
 21
8.625999999999999
 31
0.0
  0
LINE
  5
48E
330
18
100
AcDbEntity
  8
Object
100
AcDbLine
 10
16.34
 20
8.105999999999999
 30
0.0
 11
16.34
 21
8.282
 31
0.0
  0
LINE
  5
48F
330
18
100
AcDbEntity
  8
Object
100
AcDbLine
 10
16.34
 20
8.282
 30
0.0
 11
16.34
 21
8.455999999999999
 31
0.0
  0
LINE
  5
490
330
18
100
AcDbEntity
  8
Object
100
AcDbLine
 10
16.34
 20
8.105999999999999
 30
0.0
 11
16.34
 21
7.927999999999999
 31
0.0
  0
LINE
  5
491
330
18
100
AcDbEntity
  8
Object
100
AcDbLine
 10
16.34
 20
7.927999999999999
 30
0.0
 11
16.269
 21
7.927999999999999
 31
0.0
  0
LINE
  5
492
330
18
100
AcDbEntity
  8
Object
100
AcDbLine
 10
16.34
 20
9.490999999999999
 30
0.0
 11
16.34
 21
9.37
 31
0.0
  0
LINE
  5
493
330
18
100
AcDbEntity
  8
Object
100
AcDbLine
 10
16.34
 20
9.37
 30
0.0
 11
16.34
 21
9.239
 31
0.0
  0
LINE
  5
494
330
18
100
AcDbEntity
  8
Object
100
AcDbLine
 10
16.244
 20
11.858
 30
0.0
 11
16.198
 21
11.858
 31
0.0
  0
LINE
  5
495
330
18
100
AcDbEntity
  8
Object
100
AcDbLine
 10
16.198
 20
11.858
 30
0.0
 11
16.183
 21
11.858
 31
0.0
  0
LINE
  5
496
330
18
100
AcDbEntity
  8
Object
100
AcDbLine
 10
16.183
 20
11.858
 30
0.0
 11
16.169
 21
11.858
 31
0.0
  0
LINE
  5
497
330
18
100
AcDbEntity
  8
Object
100
AcDbLine
 10
16.169
 20
11.858
 30
0.0
 11
16.16
 21
11.858
 31
0.0
  0
LINE
  5
498
330
18
100
AcDbEntity
  8
Object
100
AcDbLine
 10
16.16
 20
11.858
 30
0.0
 11
16.158
 21
11.858
 31
0.0
  0
LINE
  5
499
330
18
100
AcDbEntity
  8
Object
100
AcDbLine
 10
16.368
 20
5.004
 30
0.0
 11
16.375
 21
4.993
 31
0.0
  0
LINE
  5
49A
330
18
100
AcDbEntity
  8
Object
100
AcDbLine
 10
16.375
 20
4.993
 30
0.0
 11
16.385
 21
4.987
 31
0.0
  0
LINE
  5
49B
330
18
100
AcDbEntity
  8
Object
100
AcDbLine
 10
16.366
 20
6.504999999999999
 30
0.0
 11
16.366
 21
6.400999999999999
 31
0.0
  0
LINE
  5
49C
330
18
100
AcDbEntity
  8
Object
100
AcDbLine
 10
16.368
 20
5.004999999999999
 30
0.0
 11
16.368
 21
5.004
 31
0.0
  0
LINE
  5
49D
330
18
100
AcDbEntity
  8
Object
100
AcDbLine
 10
16.385
 20
4.987
 30
0.0
 11
16.396
 21
4.985
 31
0.0
  0
LINE
  5
49E
330
18
100
AcDbEntity
  8
Object
100
AcDbLine
 10
16.309
 20
6.560999999999999
 30
0.0
 11
16.366
 21
6.504999999999999
 31
0.0
  0
LINE
  5
49F
330
18
100
AcDbEntity
  8
Object
100
AcDbLine
 10
16.475
 20
4.985
 30
0.0
 11
16.425
 21
4.985
 31
0.0
  0
LINE
  5
4A0
330
18
100
AcDbEntity
  8
Object
100
AcDbLine
 10
16.425
 20
4.985
 30
0.0
 11
16.396
 21
4.985
 31
0.0
  0
LINE
  5
4A1
330
18
100
AcDbEntity
  8
Object
100
AcDbLine
 10
16.475
 20
4.993
 30
0.0
 11
16.475
 21
4.987
 31
0.0
  0
LINE
  5
4A2
330
18
100
AcDbEntity
  8
Object
100
AcDbLine
 10
16.475
 20
4.987
 30
0.0
 11
16.475
 21
4.985
 31
0.0
  0
LINE
  5
4A3
330
18
100
AcDbEntity
  8
Object
100
AcDbLine
 10
16.475
 20
4.985
 30
0.0
 11
16.425
 21
4.985
 31
0.0
  0
LINE
  5
4A4
330
18
100
AcDbEntity
  8
Object
100
AcDbLine
 10
16.475
 20
4.993
 30
0.0
 11
16.475
 21
5.004
 31
0.0
  0
LINE
  5
4A5
330
18
100
AcDbEntity
  8
Object
100
AcDbLine
 10
16.425
 20
5.014999999999999
 30
0.0
 11
16.476
 21
5.014999999999999
 31
0.0
  0
LINE
  5
4A6
330
18
100
AcDbEntity
  8
Object
100
AcDbLine
 10
16.476
 20
5.014999999999999
 30
0.0
 11
16.475
 21
5.004
 31
0.0
  0
LINE
  5
4A7
330
18
100
AcDbEntity
  8
Object
100
AcDbLine
 10
16.383
 20
5.735
 30
0.0
 11
16.377
 21
5.735
 31
0.0
  0
LINE
  5
4A8
330
18
100
AcDbEntity
  8
Object
100
AcDbLine
 10
16.476
 20
5.014999999999999
 30
0.0
 11
16.476
 21
6.504999999999999
 31
0.0
  0
LINE
  5
4A9
330
18
100
AcDbEntity
  8
Object
100
AcDbLine
 10
16.383
 20
5.735
 30
0.0
 11
16.383
 21
5.783999999999999
 31
0.0
  0
LINE
  5
4AA
330
18
100
AcDbEntity
  8
Object
100
AcDbLine
 10
16.383
 20
5.783999999999999
 30
0.0
 11
16.382
 21
5.828999999999999
 31
0.0
  0
LINE
  5
4AB
330
18
100
AcDbEntity
  8
Object
100
AcDbLine
 10
16.382
 20
5.828999999999999
 30
0.0
 11
16.382
 21
5.863999999999999
 31
0.0
  0
LINE
  5
4AC
330
18
100
AcDbEntity
  8
Object
100
AcDbLine
 10
16.382
 20
5.863999999999999
 30
0.0
 11
16.381
 21
5.887
 31
0.0
  0
LINE
  5
4AD
330
18
100
AcDbEntity
  8
Object
100
AcDbLine
 10
16.381
 20
5.887
 30
0.0
 11
16.38
 21
5.895
 31
0.0
  0
LINE
  5
4AE
330
18
100
AcDbEntity
  8
Object
100
AcDbLine
 10
16.668
 20
6.504999999999999
 30
0.0
 11
16.668
 21
5.025
 31
0.0
  0
LINE
  5
4AF
330
18
100
AcDbEntity
  8
Object
100
AcDbLine
 10
16.668
 20
5.025
 30
0.0
 11
16.653
 21
5.025
 31
0.0
  0
LINE
  5
4B0
330
18
100
AcDbEntity
  8
Object
100
AcDbLine
 10
16.653
 20
5.025
 30
0.0
 11
16.642
 21
5.025
 31
0.0
  0
LINE
  5
4B1
330
18
100
AcDbEntity
  8
Object
100
AcDbLine
 10
16.642
 20
5.025
 30
0.0
 11
16.638
 21
5.025
 31
0.0
  0
LINE
  5
4B2
330
18
100
AcDbEntity
  8
Object
100
AcDbLine
 10
16.638
 20
5.025
 30
0.0
 11
16.638
 21
6.504999999999999
 31
0.0
  0
LINE
  5
4B3
330
18
100
AcDbEntity
  8
Object
100
AcDbLine
 10
16.678
 20
4.985
 30
0.0
 11
16.658
 21
4.99
 31
0.0
  0
LINE
  5
4B4
330
18
100
AcDbEntity
  8
Object
100
AcDbLine
 10
16.658
 20
4.99
 30
0.0
 11
16.644
 21
5.004999999999999
 31
0.0
  0
LINE
  5
4B5
330
18
100
AcDbEntity
  8
Object
100
AcDbLine
 10
16.644
 20
5.004999999999999
 30
0.0
 11
16.638
 21
5.025
 31
0.0
  0
LINE
  5
4B6
330
18
100
AcDbEntity
  8
Object
100
AcDbLine
 10
18.328
 20
5.025
 30
0.0
 11
18.323
 21
5.004999999999999
 31
0.0
  0
LINE
  5
4B7
330
18
100
AcDbEntity
  8
Object
100
AcDbLine
 10
18.323
 20
5.004999999999999
 30
0.0
 11
18.308
 21
4.99
 31
0.0
  0
LINE
  5
4B8
330
18
100
AcDbEntity
  8
Object
100
AcDbLine
 10
18.308
 20
4.99
 30
0.0
 11
18.288
 21
4.985
 31
0.0
  0
LINE
  5
4B9
330
18
100
AcDbEntity
  8
Object
100
AcDbLine
 10
18.328
 20
5.025
 30
0.0
 11
18.328
 21
6.504999999999999
 31
0.0
  0
LINE
  5
4BA
330
18
100
AcDbEntity
  8
Object
100
AcDbLine
 10
18.298
 20
5.025
 30
0.0
 11
18.313
 21
5.025
 31
0.0
  0
LINE
  5
4BB
330
18
100
AcDbEntity
  8
Object
100
AcDbLine
 10
18.572
 20
5.014999999999999
 30
0.0
 11
18.572
 21
6.504999999999999
 31
0.0
  0
LINE
  5
4BC
330
18
100
AcDbEntity
  8
Object
100
AcDbLine
 10
18.542
 20
5.014999999999999
 30
0.0
 11
18.556
 21
5.014999999999999
 31
0.0
  0
LINE
  5
4BD
330
18
100
AcDbEntity
  8
Object
100
AcDbLine
 10
18.549
 20
6.52
 30
0.0
 11
18.571
 21
6.52
 31
0.0
  0
LINE
  5
4BE
330
18
100
AcDbEntity
  8
Object
100
AcDbLine
 10
18.571
 20
6.52
 30
0.0
 11
18.572
 21
6.515
 31
0.0
  0
LINE
  5
4BF
330
18
100
AcDbEntity
  8
Object
100
AcDbLine
 10
18.569
 20
6.504999999999999
 30
0.0
 11
18.548
 21
6.504999999999999
 31
0.0
  0
LINE
  5
4C0
330
18
100
AcDbEntity
  8
Object
100
AcDbLine
 10
18.572
 20
6.515
 30
0.0
 11
18.572
 21
6.512
 31
0.0
  0
LINE
  5
4C1
330
18
100
AcDbEntity
  8
Object
100
AcDbLine
 10
18.572
 20
6.512
 30
0.0
 11
18.571
 21
6.508
 31
0.0
  0
LINE
  5
4C2
330
18
100
AcDbEntity
  8
Object
100
AcDbLine
 10
18.571
 20
6.508
 30
0.0
 11
18.57
 21
6.506
 31
0.0
  0
LINE
  5
4C3
330
18
100
AcDbEntity
  8
Object
100
AcDbLine
 10
18.57
 20
6.506
 30
0.0
 11
18.569
 21
6.504999999999999
 31
0.0
  0
LINE
  5
4C4
330
18
100
AcDbEntity
  8
Object
100
AcDbLine
 10
18.549
 20
6.52
 30
0.0
 11
18.526
 21
6.52
 31
0.0
  0
LINE
  5
4C5
330
18
100
AcDbEntity
  8
Object
100
AcDbLine
 10
18.548
 20
6.504999999999999
 30
0.0
 11
18.526
 21
6.504999999999999
 31
0.0
  0
LINE
  5
4C6
330
18
100
AcDbEntity
  8
Object
100
AcDbLine
 10
18.526
 20
6.504999999999999
 30
0.0
 11
18.502
 21
6.504999999999999
 31
0.0
  0
LINE
  5
4C7
330
18
100
AcDbEntity
  8
Object
100
AcDbLine
 10
18.526
 20
6.52
 30
0.0
 11
18.502
 21
6.52
 31
0.0
  0
LINE
  5
4C8
330
18
100
AcDbEntity
  8
Object
100
AcDbLine
 10
18.502
 20
6.507
 30
0.0
 11
18.502
 21
6.512
 31
0.0
  0
LINE
  5
4C9
330
18
100
AcDbEntity
  8
Object
100
AcDbLine
 10
16.465
 20
6.52
 30
0.0
 11
18.502
 21
6.52
 31
0.0
  0
LINE
  5
4CA
330
18
100
AcDbEntity
  8
Object
100
AcDbLine
 10
18.502
 20
6.52
 30
0.0
 11
18.502
 21
6.512
 31
0.0
  0
LINE
  5
4CB
330
18
100
AcDbEntity
  8
Object
100
AcDbLine
 10
18.502
 20
6.507
 30
0.0
 11
18.502
 21
6.504999999999999
 31
0.0
  0
LINE
  5
4CC
330
18
100
AcDbEntity
  8
Object
100
AcDbLine
 10
18.502
 20
6.504999999999999
 30
0.0
 11
16.465
 21
6.504999999999999
 31
0.0
  0
LINE
  5
4CD
330
18
100
AcDbEntity
  8
Object
100
AcDbLine
 10
18.297
 20
5.02
 30
0.0
 11
18.293
 21
5.016
 31
0.0
  0
LINE
  5
4CE
330
18
100
AcDbEntity
  8
Object
100
AcDbLine
 10
18.293
 20
5.016
 30
0.0
 11
18.288
 21
5.014999999999999
 31
0.0
  0
LINE
  5
4CF
330
18
100
AcDbEntity
  8
Object
100
AcDbLine
 10
18.297
 20
5.02
 30
0.0
 11
18.298
 21
5.025
 31
0.0
  0
LINE
  5
4D0
330
18
100
AcDbEntity
  8
Object
100
AcDbLine
 10
18.298
 20
5.025
 30
0.0
 11
18.298
 21
6.504999999999999
 31
0.0
  0
LINE
  5
4D1
330
18
100
AcDbEntity
  8
Object
100
AcDbLine
 10
17.635
 20
5.783999999999999
 30
0.0
 11
17.643
 21
5.735
 31
0.0
  0
LINE
  5
4D2
330
18
100
AcDbEntity
  8
Object
100
AcDbLine
 10
17.643
 20
5.735
 30
0.0
 11
17.635
 21
5.685
 31
0.0
  0
LINE
  5
4D3
330
18
100
AcDbEntity
  8
Object
100
AcDbLine
 10
17.613
 20
5.828999999999999
 30
0.0
 11
17.635
 21
5.783999999999999
 31
0.0
  0
LINE
  5
4D4
330
18
100
AcDbEntity
  8
Object
100
AcDbLine
 10
17.635
 20
5.685
 30
0.0
 11
17.613
 21
5.641
 31
0.0
  0
LINE
  5
4D5
330
18
100
AcDbEntity
  8
Object
100
AcDbLine
 10
17.577
 20
5.863999999999999
 30
0.0
 11
17.613
 21
5.828999999999999
 31
0.0
  0
LINE
  5
4D6
330
18
100
AcDbEntity
  8
Object
100
AcDbLine
 10
17.613
 20
5.641
 30
0.0
 11
17.577
 21
5.605
 31
0.0
  0
LINE
  5
4D7
330
18
100
AcDbEntity
  8
Object
100
AcDbLine
 10
17.533
 20
5.887
 30
0.0
 11
17.577
 21
5.863999999999999
 31
0.0
  0
LINE
  5
4D8
330
18
100
AcDbEntity
  8
Object
100
AcDbLine
 10
17.577
 20
5.605
 30
0.0
 11
17.533
 21
5.583
 31
0.0
  0
LINE
  5
4D9
330
18
100
AcDbEntity
  8
Object
100
AcDbLine
 10
17.483
 20
5.895
 30
0.0
 11
17.533
 21
5.887
 31
0.0
  0
LINE
  5
4DA
330
18
100
AcDbEntity
  8
Object
100
AcDbLine
 10
17.533
 20
5.583
 30
0.0
 11
17.483
 21
5.575
 31
0.0
  0
LINE
  5
4DB
330
18
100
AcDbEntity
  8
Object
100
AcDbLine
 10
16.678
 20
5.014999999999999
 30
0.0
 11
18.288
 21
5.014999999999999
 31
0.0
  0
LINE
  5
4DC
330
18
100
AcDbEntity
  8
Object
100
AcDbLine
 10
17.354
 20
5.641
 30
0.0
 11
17.389
 21
5.605
 31
0.0
  0
LINE
  5
4DD
330
18
100
AcDbEntity
  8
Object
100
AcDbLine
 10
17.389
 20
5.605
 30
0.0
 11
17.434
 21
5.583
 31
0.0
  0
LINE
  5
4DE
330
18
100
AcDbEntity
  8
Object
100
AcDbLine
 10
17.434
 20
5.583
 30
0.0
 11
17.483
 21
5.575
 31
0.0
  0
LINE
  5
4DF
330
18
100
AcDbEntity
  8
Object
100
AcDbLine
 10
16.67
 20
5.02
 30
0.0
 11
16.673
 21
5.016
 31
0.0
  0
LINE
  5
4E0
330
18
100
AcDbEntity
  8
Object
100
AcDbLine
 10
16.673
 20
5.016
 30
0.0
 11
16.678
 21
5.014999999999999
 31
0.0
  0
LINE
  5
4E1
330
18
100
AcDbEntity
  8
Object
100
AcDbLine
 10
17.483
 20
5.895
 30
0.0
 11
17.434
 21
5.887
 31
0.0
  0
LINE
  5
4E2
330
18
100
AcDbEntity
  8
Object
100
AcDbLine
 10
17.434
 20
5.887
 30
0.0
 11
17.389
 21
5.863999999999999
 31
0.0
  0
LINE
  5
4E3
330
18
100
AcDbEntity
  8
Object
100
AcDbLine
 10
17.389
 20
5.863999999999999
 30
0.0
 11
17.354
 21
5.828999999999999
 31
0.0
  0
LINE
  5
4E4
330
18
100
AcDbEntity
  8
Object
100
AcDbLine
 10
17.354
 20
5.828999999999999
 30
0.0
 11
17.331
 21
5.783999999999999
 31
0.0
  0
LINE
  5
4E5
330
18
100
AcDbEntity
  8
Object
100
AcDbLine
 10
17.331
 20
5.783999999999999
 30
0.0
 11
17.323
 21
5.735
 31
0.0
  0
LINE
  5
4E6
330
18
100
AcDbEntity
  8
Object
100
AcDbLine
 10
17.323
 20
5.735
 30
0.0
 11
17.331
 21
5.685
 31
0.0
  0
LINE
  5
4E7
330
18
100
AcDbEntity
  8
Object
100
AcDbLine
 10
17.331
 20
5.685
 30
0.0
 11
17.354
 21
5.641
 31
0.0
  0
LINE
  5
4E8
330
18
100
AcDbEntity
  8
Object
100
AcDbLine
 10
18.591
 20
6.525999999999999
 30
0.0
 11
18.607
 21
6.541999999999999
 31
0.0
  0
LINE
  5
4E9
330
18
100
AcDbEntity
  8
Object
100
AcDbLine
 10
18.607
 20
6.541999999999999
 30
0.0
 11
18.618
 21
6.552999999999999
 31
0.0
  0
LINE
  5
4EA
330
18
100
AcDbEntity
  8
Object
100
AcDbLine
 10
18.618
 20
6.552999999999999
 30
0.0
 11
18.622
 21
6.556
 31
0.0
  0
LINE
  5
4EB
330
18
100
AcDbEntity
  8
Object
100
AcDbLine
 10
18.601
 20
6.504999999999999
 30
0.0
 11
18.66
 21
6.564
 31
0.0
  0
LINE
  5
4EC
330
18
100
AcDbEntity
  8
Object
100
AcDbLine
 10
18.693
 20
6.599
 30
0.0
 11
18.622
 21
6.556
 31
0.0
  0
LINE
  5
4ED
330
18
100
AcDbEntity
  8
Object
100
AcDbLine
 10
18.569
 20
6.504999999999999
 30
0.0
 11
18.572
 21
6.504999999999999
 31
0.0
  0
LINE
  5
4EE
330
18
100
AcDbEntity
  8
Object
100
AcDbLine
 10
18.57
 20
6.506
 30
0.0
 11
18.591
 21
6.525999999999999
 31
0.0
  0
LINE
  5
4EF
330
18
100
AcDbEntity
  8
Object
100
AcDbLine
 10
16.398
 20
6.504999999999999
 30
0.0
 11
16.397
 21
6.504999999999999
 31
0.0
  0
LINE
  5
4F0
330
18
100
AcDbEntity
  8
Object
100
AcDbLine
 10
16.397
 20
6.504999999999999
 30
0.0
 11
16.395
 21
6.504999999999999
 31
0.0
  0
LINE
  5
4F1
330
18
100
AcDbEntity
  8
Object
100
AcDbLine
 10
16.376
 20
6.525999999999999
 30
0.0
 11
16.396
 21
6.506
 31
0.0
  0
LINE
  5
4F2
330
18
100
AcDbEntity
  8
Object
100
AcDbLine
 10
16.396
 20
6.506
 30
0.0
 11
16.397
 21
6.504999999999999
 31
0.0
  0
LINE
  5
4F3
330
18
100
AcDbEntity
  8
Object
100
AcDbLine
 10
16.376
 20
6.525999999999999
 30
0.0
 11
16.359
 21
6.541999999999999
 31
0.0
  0
LINE
  5
4F4
330
18
100
AcDbEntity
  8
Object
100
AcDbLine
 10
16.359
 20
6.541999999999999
 30
0.0
 11
16.349
 21
6.552999999999999
 31
0.0
  0
LINE
  5
4F5
330
18
100
AcDbEntity
  8
Object
100
AcDbLine
 10
16.366
 20
6.504999999999999
 30
0.0
 11
16.395
 21
6.504999999999999
 31
0.0
  0
LINE
  5
4F6
330
18
100
AcDbEntity
  8
Object
100
AcDbLine
 10
16.344
 20
6.556
 30
0.0
 11
16.273
 21
6.599
 31
0.0
  0
LINE
  5
4F7
330
18
100
AcDbEntity
  8
Object
100
AcDbLine
 10
16.465
 20
6.507
 30
0.0
 11
16.465
 21
6.504999999999999
 31
0.0
  0
LINE
  5
4F8
330
18
100
AcDbEntity
  8
Object
100
AcDbLine
 10
16.465
 20
6.504999999999999
 30
0.0
 11
16.441
 21
6.504999999999999
 31
0.0
  0
LINE
  5
4F9
330
18
100
AcDbEntity
  8
Object
100
AcDbLine
 10
16.441
 20
6.52
 30
0.0
 11
16.465
 21
6.52
 31
0.0
  0
LINE
  5
4FA
330
18
100
AcDbEntity
  8
Object
100
AcDbLine
 10
16.465
 20
6.52
 30
0.0
 11
16.465
 21
6.512
 31
0.0
  0
LINE
  5
4FB
330
18
100
AcDbEntity
  8
Object
100
AcDbLine
 10
16.465
 20
6.512
 30
0.0
 11
16.465
 21
6.507
 31
0.0
  0
LINE
  5
4FC
330
18
100
AcDbEntity
  8
Object
100
AcDbLine
 10
16.418
 20
6.504999999999999
 30
0.0
 11
16.441
 21
6.504999999999999
 31
0.0
  0
LINE
  5
4FD
330
18
100
AcDbEntity
  8
Object
100
AcDbLine
 10
16.441
 20
6.52
 30
0.0
 11
16.417
 21
6.52
 31
0.0
  0
LINE
  5
4FE
330
18
100
AcDbEntity
  8
Object
100
AcDbLine
 10
16.398
 20
6.504999999999999
 30
0.0
 11
16.418
 21
6.504999999999999
 31
0.0
  0
LINE
  5
4FF
330
18
100
AcDbEntity
  8
Object
100
AcDbLine
 10
18.542
 20
6.504999999999999
 30
0.0
 11
18.542
 21
5.014999999999999
 31
0.0
  0
LINE
  5
500
330
18
100
AcDbEntity
  8
Object
100
AcDbLine
 10
18.542
 20
5.014999999999999
 30
0.0
 11
18.491
 21
5.014999999999999
 31
0.0
  0
LINE
  5
501
330
18
100
AcDbEntity
  8
Object
100
AcDbLine
 10
16.425
 20
6.504999999999999
 30
0.0
 11
16.425
 21
5.014999999999999
 31
0.0
  0
LINE
  5
502
330
18
100
AcDbEntity
  8
Object
100
AcDbLine
 10
16.425
 20
5.014999999999999
 30
0.0
 11
16.41
 21
5.014999999999999
 31
0.0
  0
LINE
  5
503
330
18
100
AcDbEntity
  8
Object
100
AcDbLine
 10
16.41
 20
5.014999999999999
 30
0.0
 11
16.399
 21
5.014999999999999
 31
0.0
  0
LINE
  5
504
330
18
100
AcDbEntity
  8
Object
100
AcDbLine
 10
16.399
 20
5.014999999999999
 30
0.0
 11
16.395
 21
5.014999999999999
 31
0.0
  0
LINE
  5
505
330
18
100
AcDbEntity
  8
Object
100
AcDbLine
 10
18.598
 20
5.004
 30
0.0
 11
18.598
 21
5.004999999999999
 31
0.0
  0
LINE
  5
506
330
18
100
AcDbEntity
  8
Object
100
AcDbLine
 10
18.601
 20
6.398
 30
0.0
 11
18.601
 21
6.504999999999999
 31
0.0
  0
LINE
  5
507
330
18
100
AcDbEntity
  8
Object
100
AcDbLine
 10
18.589
 20
5.641
 30
0.0
 11
18.589
 21
5.685
 31
0.0
  0
LINE
  5
508
330
18
100
AcDbEntity
  8
Object
100
AcDbLine
 10
18.584
 20
5.735
 30
0.0
 11
18.589
 21
5.735
 31
0.0
  0
LINE
  5
509
330
18
100
AcDbEntity
  8
Object
100
AcDbLine
 10
18.589
 20
5.735
 30
0.0
 11
18.589
 21
5.685
 31
0.0
  0
LINE
  5
50A
330
18
100
AcDbEntity
  8
Object
100
AcDbLine
 10
18.589
 20
5.641
 30
0.0
 11
18.588
 21
5.605
 31
0.0
  0
LINE
  5
50B
330
18
100
AcDbEntity
  8
Object
100
AcDbLine
 10
18.588
 20
5.605
 30
0.0
 11
18.587
 21
5.583
 31
0.0
  0
LINE
  5
50C
330
18
100
AcDbEntity
  8
Object
100
AcDbLine
 10
18.587
 20
5.583
 30
0.0
 11
18.586
 21
5.575
 31
0.0
  0
LINE
  5
50D
330
18
100
AcDbEntity
  8
Object
100
AcDbLine
 10
18.586
 20
5.575
 30
0.0
 11
18.586
 21
5.583
 31
0.0
  0
LINE
  5
50E
330
18
100
AcDbEntity
  8
Object
100
AcDbLine
 10
18.586
 20
5.583
 30
0.0
 11
18.585
 21
5.605
 31
0.0
  0
LINE
  5
50F
330
18
100
AcDbEntity
  8
Object
100
AcDbLine
 10
18.585
 20
5.605
 30
0.0
 11
18.584
 21
5.641
 31
0.0
  0
LINE
  5
510
330
18
100
AcDbEntity
  8
Object
100
AcDbLine
 10
18.584
 20
5.641
 30
0.0
 11
18.584
 21
5.685
 31
0.0
  0
LINE
  5
511
330
18
100
AcDbEntity
  8
Object
100
AcDbLine
 10
18.584
 20
5.685
 30
0.0
 11
18.584
 21
5.735
 31
0.0
  0
LINE
  5
512
330
18
100
AcDbEntity
  8
Object
100
AcDbLine
 10
18.589
 20
5.828999999999999
 30
0.0
 11
18.589
 21
5.783999999999999
 31
0.0
  0
LINE
  5
513
330
18
100
AcDbEntity
  8
Object
100
AcDbLine
 10
18.589
 20
5.783999999999999
 30
0.0
 11
18.589
 21
5.735
 31
0.0
  0
LINE
  5
514
330
18
100
AcDbEntity
  8
Object
100
AcDbLine
 10
18.589
 20
5.828999999999999
 30
0.0
 11
18.588
 21
5.863999999999999
 31
0.0
  0
LINE
  5
515
330
18
100
AcDbEntity
  8
Object
100
AcDbLine
 10
18.588
 20
5.863999999999999
 30
0.0
 11
18.587
 21
5.887
 31
0.0
  0
LINE
  5
516
330
18
100
AcDbEntity
  8
Object
100
AcDbLine
 10
18.587
 20
5.887
 30
0.0
 11
18.586
 21
5.895
 31
0.0
  0
LINE
  5
517
330
18
100
AcDbEntity
  8
Object
100
AcDbLine
 10
18.586
 20
5.895
 30
0.0
 11
18.586
 21
5.887
 31
0.0
  0
LINE
  5
518
330
18
100
AcDbEntity
  8
Object
100
AcDbLine
 10
18.586
 20
5.887
 30
0.0
 11
18.585
 21
5.863999999999999
 31
0.0
  0
LINE
  5
519
330
18
100
AcDbEntity
  8
Object
100
AcDbLine
 10
18.585
 20
5.863999999999999
 30
0.0
 11
18.584
 21
5.828999999999999
 31
0.0
  0
LINE
  5
51A
330
18
100
AcDbEntity
  8
Object
100
AcDbLine
 10
18.584
 20
5.828999999999999
 30
0.0
 11
18.584
 21
5.783999999999999
 31
0.0
  0
LINE
  5
51B
330
18
100
AcDbEntity
  8
Object
100
AcDbLine
 10
18.584
 20
5.783999999999999
 30
0.0
 11
18.584
 21
5.735
 31
0.0
  0
LINE
  5
51C
330
18
100
AcDbEntity
  8
Object
100
AcDbLine
 10
18.542
 20
5.0
 30
0.0
 11
18.542
 21
4.988999999999999
 31
0.0
  0
LINE
  5
51D
330
18
100
AcDbEntity
  8
Object
100
AcDbLine
 10
18.542
 20
4.988999999999999
 30
0.0
 11
18.542
 21
4.985
 31
0.0
  0
LINE
  5
51E
330
18
100
AcDbEntity
  8
Object
100
AcDbLine
 10
18.542
 20
4.985
 30
0.0
 11
18.492
 21
4.985
 31
0.0
  0
LINE
  5
51F
330
18
100
AcDbEntity
  8
Object
100
AcDbLine
 10
18.542
 20
5.0
 30
0.0
 11
18.542
 21
5.014999999999999
 31
0.0
  0
LINE
  5
520
330
18
100
AcDbEntity
  8
Object
100
AcDbLine
 10
18.571
 20
4.985
 30
0.0
 11
18.542
 21
4.985
 31
0.0
  0
LINE
  5
521
330
18
100
AcDbEntity
  8
Object
100
AcDbLine
 10
18.542
 20
4.985
 30
0.0
 11
18.492
 21
4.985
 31
0.0
  0
LINE
  5
522
330
18
100
AcDbEntity
  8
Object
100
AcDbLine
 10
16.465
 20
7.927999999999999
 30
0.0
 11
18.502
 21
7.927999999999999
 31
0.0
  0
LINE
  5
523
330
18
100
AcDbEntity
  8
Object
100
AcDbLine
 10
18.502
 20
7.927999999999999
 30
0.0
 11
18.502
 21
6.52
 31
0.0
  0
LINE
  5
524
330
18
100
AcDbEntity
  8
Object
100
AcDbLine
 10
16.465
 20
6.52
 30
0.0
 11
16.465
 21
7.927999999999999
 31
0.0
  0
LINE
  5
525
330
18
100
AcDbEntity
  8
Object
100
AcDbLine
 10
16.396
 20
6.52
 30
0.0
 11
16.417
 21
6.52
 31
0.0
  0
LINE
  5
526
330
18
100
AcDbEntity
  8
Object
100
AcDbLine
 10
16.427
 20
7.927999999999999
 30
0.0
 11
16.393
 21
7.927999999999999
 31
0.0
  0
LINE
  5
527
330
18
100
AcDbEntity
  8
Object
100
AcDbLine
 10
16.374
 20
6.538999999999999
 30
0.0
 11
16.396
 21
6.52
 31
0.0
  0
LINE
  5
528
330
18
100
AcDbEntity
  8
Object
100
AcDbLine
 10
16.393
 20
7.927999999999999
 30
0.0
 11
16.366
 21
7.927999999999999
 31
0.0
  0
LINE
  5
529
330
18
100
AcDbEntity
  8
Object
100
AcDbLine
 10
16.356
 20
6.554
 30
0.0
 11
16.374
 21
6.538999999999999
 31
0.0
  0
LINE
  5
52A
330
18
100
AcDbEntity
  8
Object
100
AcDbLine
 10
16.366
 20
7.927999999999999
 30
0.0
 11
16.348
 21
7.927999999999999
 31
0.0
  0
LINE
  5
52B
330
18
100
AcDbEntity
  8
Object
100
AcDbLine
 10
16.345
 20
6.562999999999999
 30
0.0
 11
16.356
 21
6.554
 31
0.0
  0
LINE
  5
52C
330
18
100
AcDbEntity
  8
Object
100
AcDbLine
 10
16.348
 20
7.927999999999999
 30
0.0
 11
16.34
 21
7.927999999999999
 31
0.0
  0
LINE
  5
52D
330
18
100
AcDbEntity
  8
Object
100
AcDbLine
 10
16.34
 20
6.567
 30
0.0
 11
16.345
 21
6.562999999999999
 31
0.0
  0
LINE
  5
52E
330
18
100
AcDbEntity
  8
Object
100
AcDbLine
 10
18.626
 20
7.927999999999999
 30
0.0
 11
18.626
 21
6.567
 31
0.0
  0
LINE
  5
52F
330
18
100
AcDbEntity
  8
Object
100
AcDbLine
 10
18.626
 20
6.567
 30
0.0
 11
18.622
 21
6.562999999999999
 31
0.0
  0
LINE
  5
530
330
18
100
AcDbEntity
  8
Object
100
AcDbLine
 10
18.626
 20
7.927999999999999
 30
0.0
 11
18.619
 21
7.927999999999999
 31
0.0
  0
LINE
  5
531
330
18
100
AcDbEntity
  8
Object
100
AcDbLine
 10
18.61
 20
6.554
 30
0.0
 11
18.622
 21
6.562999999999999
 31
0.0
  0
LINE
  5
532
330
18
100
AcDbEntity
  8
Object
100
AcDbLine
 10
18.619
 20
7.927999999999999
 30
0.0
 11
18.601
 21
7.927999999999999
 31
0.0
  0
LINE
  5
533
330
18
100
AcDbEntity
  8
Object
100
AcDbLine
 10
18.593
 20
6.538999999999999
 30
0.0
 11
18.61
 21
6.554
 31
0.0
  0
LINE
  5
534
330
18
100
AcDbEntity
  8
Object
100
AcDbLine
 10
18.601
 20
7.927999999999999
 30
0.0
 11
18.573
 21
7.927999999999999
 31
0.0
  0
LINE
  5
535
330
18
100
AcDbEntity
  8
Object
100
AcDbLine
 10
18.571
 20
6.52
 30
0.0
 11
18.593
 21
6.538999999999999
 31
0.0
  0
LINE
  5
536
330
18
100
AcDbEntity
  8
Object
100
AcDbLine
 10
18.573
 20
7.927999999999999
 30
0.0
 11
18.539
 21
7.927999999999999
 31
0.0
  0
LINE
  5
537
330
18
100
AcDbEntity
  8
Object
100
AcDbLine
 10
18.539
 20
7.927999999999999
 30
0.0
 11
18.502
 21
7.927999999999999
 31
0.0
  0
LINE
  5
538
330
18
100
AcDbEntity
  8
Object
100
AcDbLine
 10
18.806
 20
11.778
 30
0.0
 11
18.809
 21
11.858
 31
0.0
  0
LINE
  5
539
330
18
100
AcDbEntity
  8
Object
100
AcDbLine
 10
18.809
 20
11.858
 30
0.0
 11
18.806
 21
11.858
 31
0.0
  0
LINE
  5
53A
330
18
100
AcDbEntity
  8
Object
100
AcDbLine
 10
18.809
 20
11.858
 30
0.0
 11
18.806
 21
11.778
 31
0.0
  0
LINE
  5
53B
330
18
100
AcDbEntity
  8
Object
100
AcDbLine
 10
18.806
 20
11.778
 30
0.0
 11
18.803
 21
11.778
 31
0.0
  0
LINE
  5
53C
330
18
100
AcDbEntity
  8
Object
100
AcDbLine
 10
18.806
 20
11.858
 30
0.0
 11
18.797
 21
11.858
 31
0.0
  0
LINE
  5
53D
330
18
100
AcDbEntity
  8
Object
100
AcDbLine
 10
18.794
 20
11.778
 30
0.0
 11
18.803
 21
11.778
 31
0.0
  0
LINE
  5
53E
330
18
100
AcDbEntity
  8
Object
100
AcDbLine
 10
18.797
 20
11.858
 30
0.0
 11
18.784
 21
11.858
 31
0.0
  0
LINE
  5
53F
330
18
100
AcDbEntity
  8
Object
100
AcDbLine
 10
18.781
 20
11.778
 30
0.0
 11
18.794
 21
11.778
 31
0.0
  0
LINE
  5
540
330
18
100
AcDbEntity
  8
Object
100
AcDbLine
 10
18.784
 20
11.858
 30
0.0
 11
18.769
 21
11.858
 31
0.0
  0
LINE
  5
541
330
18
100
AcDbEntity
  8
Object
100
AcDbLine
 10
18.766
 20
11.778
 30
0.0
 11
18.781
 21
11.778
 31
0.0
  0
LINE
  5
542
330
18
100
AcDbEntity
  8
Object
100
AcDbLine
 10
16.198
 20
11.858
 30
0.0
 11
16.2
 21
11.778
 31
0.0
  0
LINE
  5
543
330
18
100
AcDbEntity
  8
Object
100
AcDbLine
 10
16.2
 20
11.778
 30
0.0
 11
16.186
 21
11.778
 31
0.0
  0
LINE
  5
544
330
18
100
AcDbEntity
  8
Object
100
AcDbLine
 10
16.198
 20
11.858
 30
0.0
 11
16.183
 21
11.858
 31
0.0
  0
LINE
  5
545
330
18
100
AcDbEntity
  8
Object
100
AcDbLine
 10
16.172
 20
11.778
 30
0.0
 11
16.186
 21
11.778
 31
0.0
  0
LINE
  5
546
330
18
100
AcDbEntity
  8
Object
100
AcDbLine
 10
16.183
 20
11.858
 30
0.0
 11
16.169
 21
11.858
 31
0.0
  0
LINE
  5
547
330
18
100
AcDbEntity
  8
Object
100
AcDbLine
 10
16.163
 20
11.778
 30
0.0
 11
16.172
 21
11.778
 31
0.0
  0
LINE
  5
548
330
18
100
AcDbEntity
  8
Object
100
AcDbLine
 10
16.169
 20
11.858
 30
0.0
 11
16.16
 21
11.858
 31
0.0
  0
LINE
  5
549
330
18
100
AcDbEntity
  8
Object
100
AcDbLine
 10
16.16
 20
11.858
 30
0.0
 11
16.158
 21
11.858
 31
0.0
  0
LINE
  5
54A
330
18
100
AcDbEntity
  8
Object
100
AcDbLine
 10
16.163
 20
11.778
 30
0.0
 11
16.16
 21
11.778
 31
0.0
  0
LINE
  5
54B
330
18
100
AcDbEntity
  8
Object
100
AcDbLine
 10
16.16
 20
11.778
 30
0.0
 11
16.158
 21
11.858
 31
0.0
  0
LINE
  5
54C
330
18
100
AcDbEntity
  8
Object
100
AcDbLine
 10
16.158
 20
11.858
 30
0.0
 11
16.16
 21
11.778
 31
0.0
  0
LINE
  5
54D
330
18
100
AcDbEntity
  8
Object
100
AcDbLine
 10
16.269
 20
6.608999999999999
 30
0.0
 11
16.34
 21
6.567
 31
0.0
  0
LINE
  5
54E
330
18
100
AcDbEntity
  8
Object
100
AcDbLine
 10
16.34
 20
6.567
 30
0.0
 11
16.34
 21
7.927999999999999
 31
0.0
  0
LINE
  5
54F
330
18
100
AcDbEntity
  8
Object
100
AcDbLine
 10
16.41
 20
4.988999999999999
 30
0.0
 11
16.425
 21
4.985
 31
0.0
  0
LINE
  5
550
330
18
100
AcDbEntity
  8
Object
100
AcDbLine
 10
16.425
 20
4.985
 30
0.0
 11
16.396
 21
4.985
 31
0.0
  0
LINE
  5
551
330
18
100
AcDbEntity
  8
Object
100
AcDbLine
 10
16.41
 20
4.988999999999999
 30
0.0
 11
16.399
 21
5.0
 31
0.0
  0
LINE
  5
552
330
18
100
AcDbEntity
  8
Object
100
AcDbLine
 10
16.399
 20
5.0
 30
0.0
 11
16.395
 21
5.014999999999999
 31
0.0
  0
LINE
  5
553
330
18
100
AcDbEntity
  8
Object
100
AcDbLine
 10
16.395
 20
5.014999999999999
 30
0.0
 11
16.368
 21
5.014999999999999
 31
0.0
  0
LINE
  5
554
330
18
100
AcDbEntity
  8
Object
100
AcDbLine
 10
16.395
 20
5.014999999999999
 30
0.0
 11
16.395
 21
6.504999999999999
 31
0.0
  0
LINE
  5
555
330
18
100
AcDbEntity
  8
Object
100
AcDbLine
 10
16.383
 20
5.735
 30
0.0
 11
16.383
 21
5.685
 31
0.0
  0
LINE
  5
556
330
18
100
AcDbEntity
  8
Object
100
AcDbLine
 10
16.383
 20
5.685
 30
0.0
 11
16.382
 21
5.641
 31
0.0
  0
LINE
  5
557
330
18
100
AcDbEntity
  8
Object
100
AcDbLine
 10
16.382
 20
5.641
 30
0.0
 11
16.382
 21
5.605
 31
0.0
  0
LINE
  5
558
330
18
100
AcDbEntity
  8
Object
100
AcDbLine
 10
16.382
 20
5.605
 30
0.0
 11
16.381
 21
5.583
 31
0.0
  0
LINE
  5
559
330
18
100
AcDbEntity
  8
Object
100
AcDbLine
 10
16.381
 20
5.583
 30
0.0
 11
16.38
 21
5.575
 31
0.0
  0
LINE
  5
55A
330
18
100
AcDbEntity
  8
Object
100
AcDbLine
 10
16.38
 20
5.895
 30
0.0
 11
16.379
 21
5.887
 31
0.0
  0
LINE
  5
55B
330
18
100
AcDbEntity
  8
Object
100
AcDbLine
 10
16.379
 20
5.887
 30
0.0
 11
16.378
 21
5.863999999999999
 31
0.0
  0
LINE
  5
55C
330
18
100
AcDbEntity
  8
Object
100
AcDbLine
 10
16.378
 20
5.863999999999999
 30
0.0
 11
16.378
 21
5.828999999999999
 31
0.0
  0
LINE
  5
55D
330
18
100
AcDbEntity
  8
Object
100
AcDbLine
 10
16.378
 20
5.828999999999999
 30
0.0
 11
16.377
 21
5.783999999999999
 31
0.0
  0
LINE
  5
55E
330
18
100
AcDbEntity
  8
Object
100
AcDbLine
 10
16.377
 20
5.783999999999999
 30
0.0
 11
16.377
 21
5.735
 31
0.0
  0
LINE
  5
55F
330
18
100
AcDbEntity
  8
Object
100
AcDbLine
 10
16.377
 20
5.735
 30
0.0
 11
16.377
 21
5.685
 31
0.0
  0
LINE
  5
560
330
18
100
AcDbEntity
  8
Object
100
AcDbLine
 10
16.377
 20
5.685
 30
0.0
 11
16.378
 21
5.641
 31
0.0
  0
LINE
  5
561
330
18
100
AcDbEntity
  8
Object
100
AcDbLine
 10
16.378
 20
5.641
 30
0.0
 11
16.378
 21
5.605
 31
0.0
  0
LINE
  5
562
330
18
100
AcDbEntity
  8
Object
100
AcDbLine
 10
16.378
 20
5.605
 30
0.0
 11
16.379
 21
5.583
 31
0.0
  0
LINE
  5
563
330
18
100
AcDbEntity
  8
Object
100
AcDbLine
 10
16.379
 20
5.583
 30
0.0
 11
16.38
 21
5.575
 31
0.0
  0
LINE
  5
564
330
18
100
AcDbEntity
  8
Object
100
AcDbLine
 10
16.344
 20
6.556
 30
0.0
 11
16.342
 21
6.56
 31
0.0
  0
LINE
  5
565
330
18
100
AcDbEntity
  8
Object
100
AcDbLine
 10
16.342
 20
6.56
 30
0.0
 11
16.341
 21
6.562999999999999
 31
0.0
  0
LINE
  5
566
330
18
100
AcDbEntity
  8
Object
100
AcDbLine
 10
16.341
 20
6.562999999999999
 30
0.0
 11
16.34
 21
6.567
 31
0.0
  0
LINE
  5
567
330
18
100
AcDbEntity
  8
Object
100
AcDbLine
 10
16.425
 20
5.0
 30
0.0
 11
16.425
 21
4.988999999999999
 31
0.0
  0
LINE
  5
568
330
18
100
AcDbEntity
  8
Object
100
AcDbLine
 10
16.425
 20
4.988999999999999
 30
0.0
 11
16.425
 21
4.985
 31
0.0
  0
LINE
  5
569
330
18
100
AcDbEntity
  8
Object
100
AcDbLine
 10
16.425
 20
4.985
 30
0.0
 11
16.418
 21
4.988999999999999
 31
0.0
  0
LINE
  5
56A
330
18
100
AcDbEntity
  8
Object
100
AcDbLine
 10
16.425
 20
4.985
 30
0.0
 11
16.412
 21
4.988999999999999
 31
0.0
  0
LINE
  5
56B
330
18
100
AcDbEntity
  8
Object
100
AcDbLine
 10
16.425
 20
5.0
 30
0.0
 11
16.425
 21
5.014999999999999
 31
0.0
  0
LINE
  5
56C
330
18
100
AcDbEntity
  8
Object
100
AcDbLine
 10
16.678
 20
5.0
 30
0.0
 11
16.678
 21
5.014999999999999
 31
0.0
  0
LINE
  5
56D
330
18
100
AcDbEntity
  8
Object
100
AcDbLine
 10
16.67
 20
5.02
 30
0.0
 11
16.668
 21
5.025
 31
0.0
  0
LINE
  5
56E
330
18
100
AcDbEntity
  8
Object
100
AcDbLine
 10
16.678
 20
5.0
 30
0.0
 11
16.678
 21
4.988999999999999
 31
0.0
  0
LINE
  5
56F
330
18
100
AcDbEntity
  8
Object
100
AcDbLine
 10
16.678
 20
4.988999999999999
 30
0.0
 11
16.678
 21
4.985
 31
0.0
  0
LINE
  5
570
330
18
100
AcDbEntity
  8
Object
100
AcDbLine
 10
16.678
 20
4.985
 30
0.0
 11
16.658
 21
4.99
 31
0.0
  0
LINE
  5
571
330
18
100
AcDbEntity
  8
Object
100
AcDbLine
 10
16.658
 20
4.99
 30
0.0
 11
16.644
 21
5.004999999999999
 31
0.0
  0
LINE
  5
572
330
18
100
AcDbEntity
  8
Object
100
AcDbLine
 10
16.644
 20
5.004999999999999
 30
0.0
 11
16.638
 21
5.025
 31
0.0
  0
LINE
  5
573
330
18
100
AcDbEntity
  8
Object
100
AcDbLine
 10
16.678
 20
4.985
 30
0.0
 11
18.288
 21
4.985
 31
0.0
  0
LINE
  5
574
330
18
100
AcDbEntity
  8
Object
100
AcDbLine
 10
17.643
 20
5.735
 30
0.0
 11
17.635
 21
5.783999999999999
 31
0.0
  0
LINE
  5
575
330
18
100
AcDbEntity
  8
Object
100
AcDbLine
 10
17.635
 20
5.783999999999999
 30
0.0
 11
17.613
 21
5.828999999999999
 31
0.0
  0
LINE
  5
576
330
18
100
AcDbEntity
  8
Object
100
AcDbLine
 10
17.613
 20
5.828999999999999
 30
0.0
 11
17.577
 21
5.863999999999999
 31
0.0
  0
LINE
  5
577
330
18
100
AcDbEntity
  8
Object
100
AcDbLine
 10
17.577
 20
5.863999999999999
 30
0.0
 11
17.533
 21
5.887
 31
0.0
  0
LINE
  5
578
330
18
100
AcDbEntity
  8
Object
100
AcDbLine
 10
17.533
 20
5.887
 30
0.0
 11
17.483
 21
5.895
 31
0.0
  0
LINE
  5
579
330
18
100
AcDbEntity
  8
Object
100
AcDbLine
 10
17.483
 20
5.895
 30
0.0
 11
17.434
 21
5.887
 31
0.0
  0
LINE
  5
57A
330
18
100
AcDbEntity
  8
Object
100
AcDbLine
 10
17.434
 20
5.887
 30
0.0
 11
17.389
 21
5.863999999999999
 31
0.0
  0
LINE
  5
57B
330
18
100
AcDbEntity
  8
Object
100
AcDbLine
 10
17.389
 20
5.863999999999999
 30
0.0
 11
17.354
 21
5.828999999999999
 31
0.0
  0
LINE
  5
57C
330
18
100
AcDbEntity
  8
Object
100
AcDbLine
 10
17.354
 20
5.828999999999999
 30
0.0
 11
17.331
 21
5.783999999999999
 31
0.0
  0
LINE
  5
57D
330
18
100
AcDbEntity
  8
Object
100
AcDbLine
 10
17.331
 20
5.783999999999999
 30
0.0
 11
17.323
 21
5.735
 31
0.0
  0
LINE
  5
57E
330
18
100
AcDbEntity
  8
Object
100
AcDbLine
 10
17.643
 20
5.735
 30
0.0
 11
17.635
 21
5.685
 31
0.0
  0
LINE
  5
57F
330
18
100
AcDbEntity
  8
Object
100
AcDbLine
 10
17.635
 20
5.685
 30
0.0
 11
17.613
 21
5.641
 31
0.0
  0
LINE
  5
580
330
18
100
AcDbEntity
  8
Object
100
AcDbLine
 10
17.613
 20
5.641
 30
0.0
 11
17.577
 21
5.605
 31
0.0
  0
LINE
  5
581
330
18
100
AcDbEntity
  8
Object
100
AcDbLine
 10
17.577
 20
5.605
 30
0.0
 11
17.533
 21
5.583
 31
0.0
  0
LINE
  5
582
330
18
100
AcDbEntity
  8
Object
100
AcDbLine
 10
17.533
 20
5.583
 30
0.0
 11
17.483
 21
5.575
 31
0.0
  0
LINE
  5
583
330
18
100
AcDbEntity
  8
Object
100
AcDbLine
 10
17.483
 20
5.575
 30
0.0
 11
17.434
 21
5.583
 31
0.0
  0
LINE
  5
584
330
18
100
AcDbEntity
  8
Object
100
AcDbLine
 10
17.434
 20
5.583
 30
0.0
 11
17.389
 21
5.605
 31
0.0
  0
LINE
  5
585
330
18
100
AcDbEntity
  8
Object
100
AcDbLine
 10
17.389
 20
5.605
 30
0.0
 11
17.354
 21
5.641
 31
0.0
  0
LINE
  5
586
330
18
100
AcDbEntity
  8
Object
100
AcDbLine
 10
17.354
 20
5.641
 30
0.0
 11
17.331
 21
5.685
 31
0.0
  0
LINE
  5
587
330
18
100
AcDbEntity
  8
Object
100
AcDbLine
 10
17.331
 20
5.685
 30
0.0
 11
17.323
 21
5.735
 31
0.0
  0
LINE
  5
588
330
18
100
AcDbEntity
  8
Object
100
AcDbLine
 10
18.324
 20
5.025
 30
0.0
 11
18.328
 21
5.025
 31
0.0
  0
LINE
  5
589
330
18
100
AcDbEntity
  8
Object
100
AcDbLine
 10
18.328
 20
5.025
 30
0.0
 11
18.323
 21
5.004999999999999
 31
0.0
  0
LINE
  5
58A
330
18
100
AcDbEntity
  8
Object
100
AcDbLine
 10
18.324
 20
5.025
 30
0.0
 11
18.313
 21
5.025
 31
0.0
  0
LINE
  5
58B
330
18
100
AcDbEntity
  8
Object
100
AcDbLine
 10
18.323
 20
5.004999999999999
 30
0.0
 11
18.308
 21
4.99
 31
0.0
  0
LINE
  5
58C
330
18
100
AcDbEntity
  8
Object
100
AcDbLine
 10
18.308
 20
4.99
 30
0.0
 11
18.288
 21
4.985
 31
0.0
  0
LINE
  5
58D
330
18
100
AcDbEntity
  8
Object
100
AcDbLine
 10
18.601
 20
6.504999999999999
 30
0.0
 11
18.572
 21
6.504999999999999
 31
0.0
  0
LINE
  5
58E
330
18
100
AcDbEntity
  8
Object
100
AcDbLine
 10
18.599
 20
5.014999999999999
 30
0.0
 11
18.572
 21
5.014999999999999
 31
0.0
  0
LINE
  5
58F
330
18
100
AcDbEntity
  8
Object
100
AcDbLine
 10
18.572
 20
5.014999999999999
 30
0.0
 11
18.567
 21
5.014999999999999
 31
0.0
  0
LINE
  5
590
330
18
100
AcDbEntity
  8
Object
100
AcDbLine
 10
18.572
 20
5.014999999999999
 30
0.0
 11
18.568
 21
5.0
 31
0.0
  0
LINE
  5
591
330
18
100
AcDbEntity
  8
Object
100
AcDbLine
 10
18.568
 20
5.0
 30
0.0
 11
18.557
 21
4.988999999999999
 31
0.0
  0
LINE
  5
592
330
18
100
AcDbEntity
  8
Object
100
AcDbLine
 10
18.567
 20
5.014999999999999
 30
0.0
 11
18.556
 21
5.014999999999999
 31
0.0
  0
LINE
  5
593
330
18
100
AcDbEntity
  8
Object
100
AcDbLine
 10
18.557
 20
4.988999999999999
 30
0.0
 11
18.542
 21
4.985
 31
0.0
  0
LINE
  5
594
330
18
100
AcDbEntity
  8
Object
100
AcDbLine
 10
18.542
 20
4.985
 30
0.0
 11
18.555
 21
4.988999999999999
 31
0.0
  0
LINE
  5
595
330
18
100
AcDbEntity
  8
Object
100
AcDbLine
 10
18.624
 20
6.56
 30
0.0
 11
18.626
 21
6.562999999999999
 31
0.0
  0
LINE
  5
596
330
18
100
AcDbEntity
  8
Object
100
AcDbLine
 10
18.626
 20
6.562999999999999
 30
0.0
 11
18.626
 21
6.567
 31
0.0
  0
LINE
  5
597
330
18
100
AcDbEntity
  8
Object
100
AcDbLine
 10
18.622
 20
6.556
 30
0.0
 11
18.624
 21
6.56
 31
0.0
  0
LINE
  5
598
330
18
100
AcDbEntity
  8
Object
100
AcDbLine
 10
18.288
 20
5.014999999999999
 30
0.0
 11
18.288
 21
5.0
 31
0.0
  0
LINE
  5
599
330
18
100
AcDbEntity
  8
Object
100
AcDbLine
 10
18.288
 20
5.0
 30
0.0
 11
18.288
 21
4.988999999999999
 31
0.0
  0
LINE
  5
59A
330
18
100
AcDbEntity
  8
Object
100
AcDbLine
 10
18.288
 20
4.988999999999999
 30
0.0
 11
18.288
 21
4.985
 31
0.0
  0
LINE
  5
59B
330
18
100
AcDbEntity
  8
Object
100
AcDbLine
 10
18.288
 20
4.985
 30
0.0
 11
16.678
 21
4.985
 31
0.0
  0
LINE
  5
59C
330
18
100
AcDbEntity
  8
Object
100
AcDbLine
 10
18.698
 20
6.608999999999999
 30
0.0
 11
18.626
 21
6.567
 31
0.0
  0
LINE
  5
59D
330
18
100
AcDbEntity
  8
Object
100
AcDbLine
 10
16.396
 20
6.506
 30
0.0
 11
16.395
 21
6.508
 31
0.0
  0
LINE
  5
59E
330
18
100
AcDbEntity
  8
Object
100
AcDbLine
 10
16.396
 20
6.52
 30
0.0
 11
16.395
 21
6.515
 31
0.0
  0
LINE
  5
59F
330
18
100
AcDbEntity
  8
Object
100
AcDbLine
 10
16.395
 20
6.515
 30
0.0
 11
16.395
 21
6.512
 31
0.0
  0
LINE
  5
5A0
330
18
100
AcDbEntity
  8
Object
100
AcDbLine
 10
16.395
 20
6.512
 30
0.0
 11
16.395
 21
6.508
 31
0.0
  0
LINE
  5
5A1
330
18
100
AcDbEntity
  8
Object
100
AcDbLine
 10
16.344
 20
6.556
 30
0.0
 11
16.349
 21
6.552999999999999
 31
0.0
  0
LINE
  5
5A2
330
18
100
AcDbEntity
  8
Object
100
AcDbLine
 10
18.598
 20
5.004
 30
0.0
 11
18.592
 21
4.993
 31
0.0
  0
LINE
  5
5A3
330
18
100
AcDbEntity
  8
Object
100
AcDbLine
 10
18.592
 20
4.993
 30
0.0
 11
18.582
 21
4.987
 31
0.0
  0
LINE
  5
5A4
330
18
100
AcDbEntity
  8
Object
100
AcDbLine
 10
18.582
 20
4.987
 30
0.0
 11
18.571
 21
4.985
 31
0.0
  0
LINE
  5
5A5
330
18
100
AcDbEntity
  8
Object
100
AcDbLine
 10
18.571
 20
4.985
 30
0.0
 11
18.542
 21
4.985
 31
0.0
  0
LINE
  5
5A6
330
18
100
AcDbEntity
  8
Object
100
AcDbLine
 10
18.766
 20
6.871999999999999
 30
0.0
 11
18.769
 21
6.868999999999999
 31
0.0
  0
LINE
  5
5A7
330
18
100
AcDbEntity
  8
Object
100
AcDbLine
 10
18.769
 20
6.868999999999999
 30
0.0
 11
18.735
 21
6.868999999999999
 31
0.0
  0
LINE
  5
5A8
330
18
100
AcDbEntity
  8
Object
100
AcDbLine
 10
18.766
 20
6.871999999999999
 30
0.0
 11
18.735
 21
6.871999999999999
 31
0.0
  0
LINE
  5
5A9
330
18
100
AcDbEntity
  8
Object
100
AcDbLine
 10
18.806
 20
7.725
 30
0.0
 11
18.809
 21
7.805
 31
0.0
  0
LINE
  5
5AA
330
18
100
AcDbEntity
  8
Object
100
AcDbLine
 10
18.806
 20
6.911999999999999
 30
0.0
 11
18.803
 21
6.897
 31
0.0
  0
LINE
  5
5AB
330
18
100
AcDbEntity
  8
Object
100
AcDbLine
 10
18.803
 20
6.897
 30
0.0
 11
18.794
 21
6.884
 31
0.0
  0
LINE
  5
5AC
330
18
100
AcDbEntity
  8
Object
100
AcDbLine
 10
18.794
 20
6.884
 30
0.0
 11
18.781
 21
6.875
 31
0.0
  0
LINE
  5
5AD
330
18
100
AcDbEntity
  8
Object
100
AcDbLine
 10
18.781
 20
6.875
 30
0.0
 11
18.766
 21
6.871999999999999
 31
0.0
  0
LINE
  5
5AE
330
18
100
AcDbEntity
  8
Object
100
AcDbLine
 10
18.735
 20
7.725
 30
0.0
 11
18.806
 21
7.725
 31
0.0
  0
LINE
  5
5AF
330
18
100
AcDbEntity
  8
Object
100
AcDbLine
 10
18.806
 20
7.725
 30
0.0
 11
18.806
 21
6.911999999999999
 31
0.0
  0
LINE
  5
5B0
330
18
100
AcDbEntity
  8
Object
100
AcDbLine
 10
18.784
 20
6.871999999999999
 30
0.0
 11
18.797
 21
6.881
 31
0.0
  0
LINE
  5
5B1
330
18
100
AcDbEntity
  8
Object
100
AcDbLine
 10
18.797
 20
6.881
 30
0.0
 11
18.806
 21
6.895
 31
0.0
  0
LINE
  5
5B2
330
18
100
AcDbEntity
  8
Object
100
AcDbLine
 10
18.769
 20
6.868999999999999
 30
0.0
 11
18.784
 21
6.871999999999999
 31
0.0
  0
LINE
  5
5B3
330
18
100
AcDbEntity
  8
Object
100
AcDbLine
 10
18.806
 20
6.895
 30
0.0
 11
18.809
 21
6.908999999999999
 31
0.0
  0
LINE
  5
5B4
330
18
100
AcDbEntity
  8
Object
100
AcDbLine
 10
18.735
 20
7.805
 30
0.0
 11
18.809
 21
7.805
 31
0.0
  0
LINE
  5
5B5
330
18
100
AcDbEntity
  8
Object
100
AcDbLine
 10
18.809
 20
7.805
 30
0.0
 11
18.809
 21
6.908999999999999
 31
0.0
  0
LINE
  5
5B6
330
18
100
AcDbEntity
  8
Object
100
AcDbLine
 10
16.16
 20
6.895
 30
0.0
 11
16.169
 21
6.881
 31
0.0
  0
LINE
  5
5B7
330
18
100
AcDbEntity
  8
Object
100
AcDbLine
 10
16.169
 20
6.881
 30
0.0
 11
16.183
 21
6.871999999999999
 31
0.0
  0
LINE
  5
5B8
330
18
100
AcDbEntity
  8
Object
100
AcDbLine
 10
16.235
 20
7.805
 30
0.0
 11
16.158
 21
7.805
 31
0.0
  0
LINE
  5
5B9
330
18
100
AcDbEntity
  8
Object
100
AcDbLine
 10
16.158
 20
7.805
 30
0.0
 11
16.158
 21
6.908999999999999
 31
0.0
  0
LINE
  5
5BA
330
18
100
AcDbEntity
  8
Object
100
AcDbLine
 10
16.158
 20
6.908999999999999
 30
0.0
 11
16.16
 21
6.895
 31
0.0
  0
LINE
  5
5BB
330
18
100
AcDbEntity
  8
Object
100
AcDbLine
 10
16.183
 20
6.871999999999999
 30
0.0
 11
16.198
 21
6.868999999999999
 31
0.0
  0
LINE
  5
5BC
330
18
100
AcDbEntity
  8
Object
100
AcDbLine
 10
16.198
 20
6.868999999999999
 30
0.0
 11
16.235
 21
6.868999999999999
 31
0.0
  0
LINE
  5
5BD
330
18
100
AcDbEntity
  8
Object
100
AcDbLine
 10
16.172
 20
6.884
 30
0.0
 11
16.186
 21
6.875
 31
0.0
  0
LINE
  5
5BE
330
18
100
AcDbEntity
  8
Object
100
AcDbLine
 10
16.235
 20
6.871999999999999
 30
0.0
 11
16.2
 21
6.871999999999999
 31
0.0
  0
LINE
  5
5BF
330
18
100
AcDbEntity
  8
Object
100
AcDbLine
 10
16.2
 20
6.871999999999999
 30
0.0
 11
16.186
 21
6.875
 31
0.0
  0
LINE
  5
5C0
330
18
100
AcDbEntity
  8
Object
100
AcDbLine
 10
16.235
 20
7.725
 30
0.0
 11
16.16
 21
7.725
 31
0.0
  0
LINE
  5
5C1
330
18
100
AcDbEntity
  8
Object
100
AcDbLine
 10
18.809
 20
6.908999999999999
 30
0.0
 11
18.806
 21
6.911999999999999
 31
0.0
  0
LINE
  5
5C2
330
18
100
AcDbEntity
  8
Object
100
AcDbLine
 10
16.16
 20
7.725
 30
0.0
 11
16.16
 21
6.911999999999999
 31
0.0
  0
LINE
  5
5C3
330
18
100
AcDbEntity
  8
Object
100
AcDbLine
 10
16.16
 20
6.911999999999999
 30
0.0
 11
16.158
 21
6.908999999999999
 31
0.0
  0
LINE
  5
5C4
330
18
100
AcDbEntity
  8
Object
100
AcDbLine
 10
16.16
 20
7.725
 30
0.0
 11
16.158
 21
7.805
 31
0.0
  0
LINE
  5
5C5
330
18
100
AcDbEntity
  8
Object
100
AcDbLine
 10
16.198
 20
6.868999999999999
 30
0.0
 11
16.2
 21
6.871999999999999
 31
0.0
  0
LINE
  5
5C6
330
18
100
AcDbEntity
  8
Object
100
AcDbLine
 10
16.172
 20
6.884
 30
0.0
 11
16.163
 21
6.897
 31
0.0
  0
LINE
  5
5C7
330
18
100
AcDbEntity
  8
Object
100
AcDbLine
 10
16.163
 20
6.897
 30
0.0
 11
16.16
 21
6.911999999999999
 31
0.0
  0
LINE
  5
5C8
330
18
100
AcDbEntity
  8
Object
100
AcDbLine
 10
16.444
 20
11.878
 30
0.0
 11
18.525
 21
11.878
 31
0.0
  0
LINE
  5
5C9
330
18
100
AcDbEntity
  8
Object
100
AcDbLine
 10
16.249
 20
11.93
 30
0.0
 11
16.255
 21
11.94
 31
0.0
  0
LINE
  5
5CA
330
18
100
AcDbEntity
  8
Object
100
AcDbLine
 10
16.255
 20
11.94
 30
0.0
 11
16.26
 21
11.943
 31
0.0
  0
LINE
  5
5CB
330
18
100
AcDbEntity
  8
Object
100
AcDbLine
 10
18.605
 20
11.934
 30
0.0
 11
18.594
 21
11.944
 31
0.0
  0
LINE
  5
5CC
330
18
100
AcDbEntity
  8
Object
100
AcDbLine
 10
18.594
 20
11.944
 30
0.0
 11
18.58
 21
11.948
 31
0.0
  0
LINE
  5
5CD
330
18
100
AcDbEntity
  8
Object
100
AcDbLine
 10
18.61
 20
11.919
 30
0.0
 11
18.605
 21
11.934
 31
0.0
  0
LINE
  5
5CE
330
18
100
AcDbEntity
  8
Object
100
AcDbLine
 10
18.598
 20
11.598
 30
0.0
 11
18.621
 21
11.598
 31
0.0
  0
LINE
  5
5CF
330
18
100
AcDbEntity
  8
Object
100
AcDbLine
 10
18.621
 20
11.598
 30
0.0
 11
18.61
 21
11.919
 31
0.0
  0
LINE
  5
5D0
330
18
100
AcDbEntity
  8
Object
100
AcDbLine
 10
18.546
 20
11.698
 30
0.0
 11
18.54
 21
11.864
 31
0.0
  0
LINE
  5
5D1
330
18
100
AcDbEntity
  8
Object
100
AcDbLine
 10
18.54
 20
11.864
 30
0.0
 11
18.538
 21
11.871
 31
0.0
  0
LINE
  5
5D2
330
18
100
AcDbEntity
  8
Object
100
AcDbLine
 10
18.538
 20
11.871
 30
0.0
 11
18.533
 21
11.876
 31
0.0
  0
LINE
  5
5D3
330
18
100
AcDbEntity
  8
Object
100
AcDbLine
 10
18.533
 20
11.876
 30
0.0
 11
18.525
 21
11.878
 31
0.0
  0
LINE
  5
5D4
330
18
100
AcDbEntity
  8
Object
100
AcDbLine
 10
18.525
 20
11.878
 30
0.0
 11
16.444
 21
11.878
 31
0.0
  0
LINE
  5
5D5
330
18
100
AcDbEntity
  8
Object
100
AcDbLine
 10
16.444
 20
11.878
 30
0.0
 11
16.437
 21
11.876
 31
0.0
  0
LINE
  5
5D6
330
18
100
AcDbEntity
  8
Object
100
AcDbLine
 10
18.58
 20
11.948
 30
0.0
 11
16.39
 21
11.948
 31
0.0
  0
LINE
  5
5D7
330
18
100
AcDbEntity
  8
Object
100
AcDbLine
 10
16.364
 20
11.934
 30
0.0
 11
16.375
 21
11.944
 31
0.0
  0
LINE
  5
5D8
330
18
100
AcDbEntity
  8
Object
100
AcDbLine
 10
16.375
 20
11.944
 30
0.0
 11
16.39
 21
11.948
 31
0.0
  0
LINE
  5
5D9
330
18
100
AcDbEntity
  8
Object
100
AcDbLine
 10
16.437
 20
11.876
 30
0.0
 11
16.432
 21
11.871
 31
0.0
  0
LINE
  5
5DA
330
18
100
AcDbEntity
  8
Object
100
AcDbLine
 10
16.432
 20
11.871
 30
0.0
 11
16.429
 21
11.864
 31
0.0
  0
LINE
  5
5DB
330
18
100
AcDbEntity
  8
Object
100
AcDbLine
 10
16.364
 20
11.934
 30
0.0
 11
16.36
 21
11.919
 31
0.0
  0
LINE
  5
5DC
330
18
100
AcDbEntity
  8
Object
100
AcDbLine
 10
16.349
 20
11.598
 30
0.0
 11
16.368
 21
11.598
 31
0.0
  0
LINE
  5
5DD
330
18
100
AcDbEntity
  8
Object
100
AcDbLine
 10
16.423
 20
11.698
 30
0.0
 11
16.429
 21
11.864
 31
0.0
  0
LINE
  5
5DE
330
18
100
AcDbEntity
  8
Object
100
AcDbLine
 10
16.36
 20
11.919
 30
0.0
 11
16.349
 21
11.598
 31
0.0
  0
LINE
  5
5DF
330
18
100
AcDbEntity
  8
Object
100
AcDbLine
 10
18.54
 20
11.864
 30
0.0
 11
18.538
 21
11.871
 31
0.0
  0
LINE
  5
5E0
330
18
100
AcDbEntity
  8
Object
100
AcDbLine
 10
18.538
 20
11.871
 30
0.0
 11
18.533
 21
11.876
 31
0.0
  0
LINE
  5
5E1
330
18
100
AcDbEntity
  8
Object
100
AcDbLine
 10
18.533
 20
11.876
 30
0.0
 11
18.525
 21
11.878
 31
0.0
  0
LINE
  5
5E2
330
18
100
AcDbEntity
  8
Object
100
AcDbLine
 10
16.246
 20
11.919
 30
0.0
 11
16.244
 21
11.858
 31
0.0
  0
LINE
  5
5E3
330
18
100
AcDbEntity
  8
Object
100
AcDbLine
 10
18.728
 20
11.788
 30
0.0
 11
18.724
 21
11.919
 31
0.0
  0
LINE
  5
5E4
330
18
100
AcDbEntity
  8
Object
100
AcDbLine
 10
16.444
 20
11.878
 30
0.0
 11
16.437
 21
11.876
 31
0.0
  0
LINE
  5
5E5
330
18
100
AcDbEntity
  8
Object
100
AcDbLine
 10
16.437
 20
11.876
 30
0.0
 11
16.432
 21
11.871
 31
0.0
  0
LINE
  5
5E6
330
18
100
AcDbEntity
  8
Object
100
AcDbLine
 10
16.432
 20
11.871
 30
0.0
 11
16.429
 21
11.864
 31
0.0
  0
LINE
  5
5E7
330
18
100
AcDbEntity
  8
Object
100
AcDbLine
 10
18.728
 20
11.788
 30
0.0
 11
18.728
 21
11.787
 31
0.0
  0
LINE
  5
5E8
330
18
100
AcDbEntity
  8
Object
100
AcDbLine
 10
18.735
 20
11.598
 30
0.0
 11
18.724
 21
11.919
 31
0.0
  0
LINE
  5
5E9
330
18
100
AcDbEntity
  8
Object
100
AcDbLine
 10
18.724
 20
11.919
 30
0.0
 11
18.728
 21
11.788
 31
0.0
  0
LINE
  5
5EA
330
18
100
AcDbEntity
  8
Object
100
AcDbLine
 10
18.721
 20
11.93
 30
0.0
 11
18.719
 21
11.934
 31
0.0
  0
LINE
  5
5EB
330
18
100
AcDbEntity
  8
Object
100
AcDbLine
 10
18.719
 20
11.934
 30
0.0
 11
18.714
 21
11.94
 31
0.0
  0
LINE
  5
5EC
330
18
100
AcDbEntity
  8
Object
100
AcDbLine
 10
18.694
 20
11.948
 30
0.0
 11
18.58
 21
11.948
 31
0.0
  0
LINE
  5
5ED
330
18
100
AcDbEntity
  8
Object
100
AcDbLine
 10
18.58
 20
11.948
 30
0.0
 11
16.39
 21
11.948
 31
0.0
  0
LINE
  5
5EE
330
18
100
AcDbEntity
  8
Object
100
AcDbLine
 10
16.39
 20
11.948
 30
0.0
 11
16.276
 21
11.948
 31
0.0
  0
LINE
  5
5EF
330
18
100
AcDbEntity
  8
Object
100
AcDbLine
 10
16.246
 20
11.919
 30
0.0
 11
16.244
 21
11.858
 31
0.0
  0
LINE
  5
5F0
330
18
100
AcDbEntity
  8
Object
100
AcDbLine
 10
16.241
 20
11.781
 30
0.0
 11
16.241
 21
11.784
 31
0.0
  0
LINE
  5
5F1
330
18
100
AcDbEntity
  8
Object
100
AcDbLine
 10
16.241
 20
11.784
 30
0.0
 11
16.241
 21
11.785
 31
0.0
  0
LINE
  5
5F2
330
18
100
AcDbEntity
  8
Object
100
AcDbLine
 10
16.246
 20
11.919
 30
0.0
 11
16.235
 21
11.598
 31
0.0
  0
LINE
  5
5F3
330
18
100
AcDbEntity
  8
Object
100
AcDbLine
 10
16.241
 20
11.785
 30
0.0
 11
16.241
 21
11.784
 31
0.0
  0
LINE
  5
5F4
330
18
100
AcDbEntity
  8
Object
100
AcDbLine
 10
16.241
 20
11.784
 30
0.0
 11
16.241
 21
11.781
 31
0.0
  0
LINE
  5
5F5
330
18
100
AcDbEntity
  8
Object
100
AcDbLine
 10
16.276
 20
11.948
 30
0.0
 11
16.265
 21
11.946
 31
0.0
  0
LINE
  5
5F6
330
18
100
AcDbEntity
  8
Object
100
AcDbLine
 10
16.265
 20
11.946
 30
0.0
 11
16.255
 21
11.94
 31
0.0
  0
LINE
  5
5F7
330
18
100
AcDbEntity
  8
Object
100
AcDbLine
 10
16.255
 20
11.94
 30
0.0
 11
16.265
 21
11.946
 31
0.0
  0
LINE
  5
5F8
330
18
100
AcDbEntity
  8
Object
100
AcDbLine
 10
16.251
 20
11.939
 30
0.0
 11
16.26
 21
11.939
 31
0.0
  0
LINE
  5
5F9
330
18
100
AcDbEntity
  8
Object
100
AcDbLine
 10
16.265
 20
11.946
 30
0.0
 11
16.258
 21
11.941
 31
0.0
  0
LINE
  5
5FA
330
18
100
AcDbEntity
  8
Object
100
AcDbLine
 10
16.255
 20
11.939
 30
0.0
 11
16.255
 21
11.94
 31
0.0
  0
LINE
  5
5FB
330
18
100
AcDbEntity
  8
Object
100
AcDbLine
 10
16.255
 20
11.94
 30
0.0
 11
16.255
 21
11.939
 31
0.0
  0
LINE
  5
5FC
330
18
100
AcDbEntity
  8
Object
100
AcDbLine
 10
16.255
 20
11.939
 30
0.0
 11
16.249
 21
11.93
 31
0.0
  0
LINE
  5
5FD
330
18
100
AcDbEntity
  8
Object
100
AcDbLine
 10
16.249
 20
11.929
 30
0.0
 11
16.249
 21
11.931
 31
0.0
  0
LINE
  5
5FE
330
18
100
AcDbEntity
  8
Object
100
AcDbLine
 10
16.249
 20
11.931
 30
0.0
 11
16.249
 21
11.93
 31
0.0
  0
LINE
  5
5FF
330
18
100
AcDbEntity
  8
Object
100
AcDbLine
 10
16.249
 20
11.93
 30
0.0
 11
16.255
 21
11.94
 31
0.0
  0
LINE
  5
600
330
18
100
AcDbEntity
  8
Object
100
AcDbLine
 10
16.249
 20
11.93
 30
0.0
 11
16.246
 21
11.919
 31
0.0
  0
LINE
  5
601
330
18
100
AcDbEntity
  8
Object
100
AcDbLine
 10
16.379
 20
11.946
 30
0.0
 11
16.39
 21
11.948
 31
0.0
  0
LINE
  5
602
330
18
100
AcDbEntity
  8
Object
100
AcDbLine
 10
16.39
 20
11.948
 30
0.0
 11
16.379
 21
11.946
 31
0.0
  0
LINE
  5
603
330
18
100
AcDbEntity
  8
Object
100
AcDbLine
 10
16.379
 20
11.946
 30
0.0
 11
16.39
 21
11.948
 31
0.0
  0
LINE
  5
604
330
18
100
AcDbEntity
  8
Object
100
AcDbLine
 10
16.379
 20
11.946
 30
0.0
 11
16.375
 21
11.944
 31
0.0
  0
LINE
  5
605
330
18
100
AcDbEntity
  8
Object
100
AcDbLine
 10
16.375
 20
11.944
 30
0.0
 11
16.379
 21
11.946
 31
0.0
  0
LINE
  5
606
330
18
100
AcDbEntity
  8
Object
100
AcDbLine
 10
16.39
 20
11.948
 30
0.0
 11
16.375
 21
11.944
 31
0.0
  0
LINE
  5
607
330
18
100
AcDbEntity
  8
Object
100
AcDbLine
 10
16.375
 20
11.944
 30
0.0
 11
16.369
 21
11.939
 31
0.0
  0
LINE
  5
608
330
18
100
AcDbEntity
  8
Object
100
AcDbLine
 10
16.376
 20
11.944
 30
0.0
 11
16.379
 21
11.946
 31
0.0
  0
LINE
  5
609
330
18
100
AcDbEntity
  8
Object
100
AcDbLine
 10
16.373
 20
11.942
 30
0.0
 11
16.369
 21
11.939
 31
0.0
  0
LINE
  5
60A
330
18
100
AcDbEntity
  8
Object
100
AcDbLine
 10
16.369
 20
11.939
 30
0.0
 11
16.375
 21
11.944
 31
0.0
  0
LINE
  5
60B
330
18
100
AcDbEntity
  8
Object
100
AcDbLine
 10
16.365
 20
11.935
 30
0.0
 11
16.369
 21
11.939
 31
0.0
  0
LINE
  5
60C
330
18
100
AcDbEntity
  8
Object
100
AcDbLine
 10
16.375
 20
11.944
 30
0.0
 11
16.364
 21
11.934
 31
0.0
  0
LINE
  5
60D
330
18
100
AcDbEntity
  8
Object
100
AcDbLine
 10
16.364
 20
11.934
 30
0.0
 11
16.369
 21
11.939
 31
0.0
  0
LINE
  5
60E
330
18
100
AcDbEntity
  8
Object
100
AcDbLine
 10
16.369
 20
11.939
 30
0.0
 11
16.364
 21
11.934
 31
0.0
  0
LINE
  5
60F
330
18
100
AcDbEntity
  8
Object
100
AcDbLine
 10
16.364
 20
11.934
 30
0.0
 11
16.363
 21
11.93
 31
0.0
  0
LINE
  5
610
330
18
100
AcDbEntity
  8
Object
100
AcDbLine
 10
16.363
 20
11.93
 30
0.0
 11
16.363
 21
11.931
 31
0.0
  0
LINE
  5
611
330
18
100
AcDbEntity
  8
Object
100
AcDbLine
 10
16.363
 20
11.93
 30
0.0
 11
16.364
 21
11.934
 31
0.0
  0
LINE
  5
612
330
18
100
AcDbEntity
  8
Object
100
AcDbLine
 10
16.364
 20
11.934
 30
0.0
 11
16.36
 21
11.919
 31
0.0
  0
LINE
  5
613
330
18
100
AcDbEntity
  8
Object
100
AcDbLine
 10
16.36
 20
11.919
 30
0.0
 11
16.363
 21
11.93
 31
0.0
  0
LINE
  5
614
330
18
100
AcDbEntity
  8
Object
100
AcDbLine
 10
16.363
 20
11.93
 30
0.0
 11
16.36
 21
11.919
 31
0.0
  0
LINE
  5
615
330
18
100
AcDbEntity
  8
Object
100
AcDbLine
 10
16.36
 20
11.919
 30
0.0
 11
16.363
 21
11.93
 31
0.0
  0
LINE
  5
616
330
18
100
AcDbEntity
  8
Object
100
AcDbLine
 10
18.735
 20
11.598
 30
0.0
 11
18.733
 21
11.598
 31
0.0
  0
LINE
  5
617
330
18
100
AcDbEntity
  8
Object
100
AcDbLine
 10
18.733
 20
11.598
 30
0.0
 11
18.728
 21
11.598
 31
0.0
  0
LINE
  5
618
330
18
100
AcDbEntity
  8
Object
100
AcDbLine
 10
18.728
 20
11.598
 30
0.0
 11
18.628
 21
11.598
 31
0.0
  0
LINE
  5
619
330
18
100
AcDbEntity
  8
Object
100
AcDbLine
 10
18.628
 20
11.598
 30
0.0
 11
18.623
 21
11.598
 31
0.0
  0
LINE
  5
61A
330
18
100
AcDbEntity
  8
Object
100
AcDbLine
 10
18.623
 20
11.598
 30
0.0
 11
18.621
 21
11.598
 31
0.0
  0
LINE
  5
61B
330
18
100
AcDbEntity
  8
Object
100
AcDbLine
 10
18.621
 20
11.598
 30
0.0
 11
18.598
 21
11.598
 31
0.0
  0
LINE
  5
61C
330
18
100
AcDbEntity
  8
Object
100
AcDbLine
 10
18.607
 20
11.93
 30
0.0
 11
18.61
 21
11.919
 31
0.0
  0
LINE
  5
61D
330
18
100
AcDbEntity
  8
Object
100
AcDbLine
 10
18.61
 20
11.919
 30
0.0
 11
18.607
 21
11.93
 31
0.0
  0
LINE
  5
61E
330
18
100
AcDbEntity
  8
Object
100
AcDbLine
 10
18.607
 20
11.93
 30
0.0
 11
18.61
 21
11.919
 31
0.0
  0
LINE
  5
61F
330
18
100
AcDbEntity
  8
Object
100
AcDbLine
 10
18.607
 20
11.93
 30
0.0
 11
18.605
 21
11.934
 31
0.0
  0
LINE
  5
620
330
18
100
AcDbEntity
  8
Object
100
AcDbLine
 10
18.605
 20
11.934
 30
0.0
 11
18.607
 21
11.93
 31
0.0
  0
LINE
  5
621
330
18
100
AcDbEntity
  8
Object
100
AcDbLine
 10
18.61
 20
11.919
 30
0.0
 11
18.605
 21
11.934
 31
0.0
  0
LINE
  5
622
330
18
100
AcDbEntity
  8
Object
100
AcDbLine
 10
18.605
 20
11.932
 30
0.0
 11
18.607
 21
11.93
 31
0.0
  0
LINE
  5
623
330
18
100
AcDbEntity
  8
Object
100
AcDbLine
 10
18.605
 20
11.934
 30
0.0
 11
18.601
 21
11.939
 31
0.0
  0
LINE
  5
624
330
18
100
AcDbEntity
  8
Object
100
AcDbLine
 10
18.601
 20
11.939
 30
0.0
 11
18.604
 21
11.935
 31
0.0
  0
LINE
  5
625
330
18
100
AcDbEntity
  8
Object
100
AcDbLine
 10
18.605
 20
11.934
 30
0.0
 11
18.601
 21
11.939
 31
0.0
  0
LINE
  5
626
330
18
100
AcDbEntity
  8
Object
100
AcDbLine
 10
18.601
 20
11.939
 30
0.0
 11
18.594
 21
11.944
 31
0.0
  0
LINE
  5
627
330
18
100
AcDbEntity
  8
Object
100
AcDbLine
 10
18.594
 20
11.944
 30
0.0
 11
18.605
 21
11.934
 31
0.0
  0
LINE
  5
628
330
18
100
AcDbEntity
  8
Object
100
AcDbLine
 10
18.601
 20
11.939
 30
0.0
 11
18.594
 21
11.944
 31
0.0
  0
LINE
  5
629
330
18
100
AcDbEntity
  8
Object
100
AcDbLine
 10
18.594
 20
11.944
 30
0.0
 11
18.591
 21
11.946
 31
0.0
  0
LINE
  5
62A
330
18
100
AcDbEntity
  8
Object
100
AcDbLine
 10
18.595
 20
11.942
 30
0.0
 11
18.601
 21
11.939
 31
0.0
  0
LINE
  5
62B
330
18
100
AcDbEntity
  8
Object
100
AcDbLine
 10
18.591
 20
11.946
 30
0.0
 11
18.594
 21
11.944
 31
0.0
  0
LINE
  5
62C
330
18
100
AcDbEntity
  8
Object
100
AcDbLine
 10
18.594
 20
11.944
 30
0.0
 11
18.591
 21
11.946
 31
0.0
  0
LINE
  5
62D
330
18
100
AcDbEntity
  8
Object
100
AcDbLine
 10
18.594
 20
11.944
 30
0.0
 11
18.58
 21
11.948
 31
0.0
  0
LINE
  5
62E
330
18
100
AcDbEntity
  8
Object
100
AcDbLine
 10
18.58
 20
11.948
 30
0.0
 11
18.591
 21
11.946
 31
0.0
  0
LINE
  5
62F
330
18
100
AcDbEntity
  8
Object
100
AcDbLine
 10
18.591
 20
11.946
 30
0.0
 11
18.58
 21
11.948
 31
0.0
  0
LINE
  5
630
330
18
100
AcDbEntity
  8
Object
100
AcDbLine
 10
18.58
 20
11.948
 30
0.0
 11
18.591
 21
11.946
 31
0.0
  0
LINE
  5
631
330
18
100
AcDbEntity
  8
Object
100
AcDbLine
 10
16.423
 20
11.698
 30
0.0
 11
16.429
 21
11.864
 31
0.0
  0
LINE
  5
632
330
18
100
AcDbEntity
  8
Object
100
AcDbLine
 10
18.54
 20
11.864
 30
0.0
 11
18.546
 21
11.698
 31
0.0
  0
LINE
  5
633
330
18
100
AcDbEntity
  8
Object
100
AcDbLine
 10
18.621
 20
11.598
 30
0.0
 11
18.61
 21
11.919
 31
0.0
  0
LINE
  5
634
330
18
100
AcDbEntity
  8
Object
100
AcDbLine
 10
16.36
 20
11.919
 30
0.0
 11
16.349
 21
11.598
 31
0.0
  0
LINE
  5
635
330
18
100
AcDbEntity
  8
Object
100
AcDbLine
 10
16.349
 20
11.598
 30
0.0
 11
16.368
 21
11.598
 31
0.0
  0
LINE
  5
636
330
18
100
AcDbEntity
  8
Object
100
AcDbLine
 10
16.349
 20
11.598
 30
0.0
 11
16.347
 21
11.598
 31
0.0
  0
LINE
  5
637
330
18
100
AcDbEntity
  8
Object
100
AcDbLine
 10
16.347
 20
11.598
 30
0.0
 11
16.342
 21
11.598
 31
0.0
  0
LINE
  5
638
330
18
100
AcDbEntity
  8
Object
100
AcDbLine
 10
16.342
 20
11.598
 30
0.0
 11
16.242
 21
11.598
 31
0.0
  0
LINE
  5
639
330
18
100
AcDbEntity
  8
Object
100
AcDbLine
 10
16.242
 20
11.598
 30
0.0
 11
16.237
 21
11.598
 31
0.0
  0
LINE
  5
63A
330
18
100
AcDbEntity
  8
Object
100
AcDbLine
 10
16.237
 20
11.598
 30
0.0
 11
16.235
 21
11.598
 31
0.0
  0
LINE
  5
63B
330
18
100
AcDbEntity
  8
Object
100
AcDbLine
 10
16.263
 20
11.944
 30
0.0
 11
16.261
 21
11.944
 31
0.0
  0
LINE
  5
63C
330
18
100
AcDbEntity
  8
Object
100
AcDbLine
 10
16.261
 20
11.944
 30
0.0
 11
16.255
 21
11.94
 31
0.0
  0
LINE
  5
63D
330
18
100
AcDbEntity
  8
Object
100
AcDbLine
 10
16.255
 20
11.94
 30
0.0
 11
16.25
 21
11.934
 31
0.0
  0
LINE
  5
63E
330
18
100
AcDbEntity
  8
Object
100
AcDbLine
 10
16.25
 20
11.934
 30
0.0
 11
16.249
 21
11.93
 31
0.0
  0
LINE
  5
63F
330
18
100
AcDbEntity
  8
Object
100
AcDbLine
 10
18.724
 20
11.919
 30
0.0
 11
18.721
 21
11.93
 31
0.0
  0
LINE
  5
640
330
18
100
AcDbEntity
  8
Object
100
AcDbLine
 10
18.721
 20
11.929
 30
0.0
 11
18.721
 21
11.931
 31
0.0
  0
LINE
  5
641
330
18
100
AcDbEntity
  8
Object
100
AcDbLine
 10
18.721
 20
11.931
 30
0.0
 11
18.721
 21
11.93
 31
0.0
  0
LINE
  5
642
330
18
100
AcDbEntity
  8
Object
100
AcDbLine
 10
18.711
 20
11.941
 30
0.0
 11
18.705
 21
11.946
 31
0.0
  0
LINE
  5
643
330
18
100
AcDbEntity
  8
Object
100
AcDbLine
 10
18.705
 20
11.946
 30
0.0
 11
18.694
 21
11.948
 31
0.0
  0
LINE
  5
644
330
18
100
AcDbEntity
  8
Object
100
AcDbLine
 10
18.728
 20
11.787
 30
0.0
 11
18.728
 21
11.788
 31
0.0
  0
LINE
  5
645
330
18
100
AcDbEntity
  8
Object
100
AcDbLine
 10
18.323
 20
5.004999999999999
 30
0.0
 11
18.491
 21
5.004999999999999
 31
0.0
  0
LINE
  5
646
330
18
100
AcDbEntity
  8
Object
100
AcDbLine
 10
16.475
 20
5.004999999999999
 30
0.0
 11
16.644
 21
5.004999999999999
 31
0.0
  0
LINE
  5
647
330
18
100
AcDbEntity
  8
Object
100
AcDbLine
 10
18.724
 20
11.919
 30
0.0
 11
18.735
 21
11.598
 31
0.0
  0
LINE
  5
648
330
18
100
AcDbEntity
  8
Object
100
AcDbLine
 10
18.735
 20
11.598
 30
0.0
 11
18.733
 21
11.598
 31
0.0
  0
LINE
  5
649
330
18
100
AcDbEntity
  8
Object
100
AcDbLine
 10
18.733
 20
11.598
 30
0.0
 11
18.728
 21
11.598
 31
0.0
  0
LINE
  5
64A
330
18
100
AcDbEntity
  8
Object
100
AcDbLine
 10
16.276
 20
11.948
 30
0.0
 11
16.39
 21
11.948
 31
0.0
  0
LINE
  5
64B
330
18
100
AcDbEntity
  8
Object
100
AcDbLine
 10
16.39
 20
11.948
 30
0.0
 11
16.377
 21
11.946
 31
0.0
  0
LINE
  5
64C
330
18
100
AcDbEntity
  8
Object
100
AcDbLine
 10
16.377
 20
11.946
 30
0.0
 11
16.366
 21
11.939
 31
0.0
  0
LINE
  5
64D
330
18
100
AcDbEntity
  8
Object
100
AcDbLine
 10
18.703
 20
11.946
 30
0.0
 11
18.712
 21
11.939
 31
0.0
  0
LINE
  5
64E
330
18
100
AcDbEntity
  8
Object
100
AcDbLine
 10
18.712
 20
11.939
 30
0.0
 11
18.604
 21
11.939
 31
0.0
  0
LINE
  5
64F
330
18
100
AcDbEntity
  8
Object
100
AcDbLine
 10
18.703
 20
11.946
 30
0.0
 11
18.694
 21
11.948
 31
0.0
  0
LINE
  5
650
330
18
100
AcDbEntity
  8
Object
100
AcDbLine
 10
18.604
 20
11.939
 30
0.0
 11
18.593
 21
11.946
 31
0.0
  0
LINE
  5
651
330
18
100
AcDbEntity
  8
Object
100
AcDbLine
 10
18.593
 20
11.946
 30
0.0
 11
18.58
 21
11.948
 31
0.0
  0
LINE
  5
652
330
18
100
AcDbEntity
  8
Object
100
AcDbLine
 10
18.58
 20
11.948
 30
0.0
 11
18.694
 21
11.948
 31
0.0
  0
LINE
  5
653
330
18
100
AcDbEntity
  8
Object
100
AcDbLine
 10
16.235
 20
11.59
 30
0.0
 11
16.235
 21
11.567
 31
0.0
  0
LINE
  5
654
330
18
100
AcDbEntity
  8
Object
100
AcDbLine
 10
16.235
 20
11.528
 30
0.0
 11
16.235
 21
11.474
 31
0.0
  0
LINE
  5
655
330
18
100
AcDbEntity
  8
Object
100
AcDbLine
 10
16.235
 20
11.405
 30
0.0
 11
16.235
 21
11.32
 31
0.0
  0
LINE
  5
656
330
18
100
AcDbEntity
  8
Object
100
AcDbLine
 10
16.235
 20
11.109
 30
0.0
 11
16.235
 21
11.222
 31
0.0
  0
LINE
  5
657
330
18
100
AcDbEntity
  8
Object
100
AcDbLine
 10
16.235
 20
11.222
 30
0.0
 11
16.235
 21
11.32
 31
0.0
  0
LINE
  5
658
330
18
100
AcDbEntity
  8
Object
100
AcDbLine
 10
16.235
 20
11.474
 30
0.0
 11
16.235
 21
11.405
 31
0.0
  0
LINE
  5
659
330
18
100
AcDbEntity
  8
Object
100
AcDbLine
 10
16.235
 20
11.567
 30
0.0
 11
16.235
 21
11.528
 31
0.0
  0
LINE
  5
65A
330
18
100
AcDbEntity
  8
Object
100
AcDbLine
 10
16.235
 20
11.598
 30
0.0
 11
16.235
 21
11.59
 31
0.0
  0
LINE
  5
65B
330
18
100
AcDbEntity
  8
Object
100
AcDbLine
 10
16.235
 20
10.983
 30
0.0
 11
16.235
 21
10.844
 31
0.0
  0
LINE
  5
65C
330
18
100
AcDbEntity
  8
Object
100
AcDbLine
 10
16.235
 20
10.529
 30
0.0
 11
16.235
 21
10.692
 31
0.0
  0
LINE
  5
65D
330
18
100
AcDbEntity
  8
Object
100
AcDbLine
 10
16.235
 20
10.692
 30
0.0
 11
16.235
 21
10.844
 31
0.0
  0
LINE
  5
65E
330
18
100
AcDbEntity
  8
Object
100
AcDbLine
 10
16.235
 20
11.109
 30
0.0
 11
16.235
 21
10.983
 31
0.0
  0
LINE
  5
65F
330
18
100
AcDbEntity
  8
Object
100
AcDbLine
 10
16.235
 20
10.355
 30
0.0
 11
16.235
 21
10.17
 31
0.0
  0
LINE
  5
660
330
18
100
AcDbEntity
  8
Object
100
AcDbLine
 10
16.235
 20
10.17
 30
0.0
 11
16.235
 21
9.976
 31
0.0
  0
LINE
  5
661
330
18
100
AcDbEntity
  8
Object
100
AcDbLine
 10
16.235
 20
10.529
 30
0.0
 11
16.235
 21
10.355
 31
0.0
  0
LINE
  5
662
330
18
100
AcDbEntity
  8
Object
100
AcDbLine
 10
16.235
 20
9.976
 30
0.0
 11
16.235
 21
9.772999999999999
 31
0.0
  0
LINE
  5
663
330
18
100
AcDbEntity
  8
Object
100
AcDbLine
 10
16.235
 20
9.345
 30
0.0
 11
16.235
 21
9.563
 31
0.0
  0
LINE
  5
664
330
18
100
AcDbEntity
  8
Object
100
AcDbLine
 10
16.235
 20
9.563
 30
0.0
 11
16.235
 21
9.772999999999999
 31
0.0
  0
LINE
  5
665
330
18
100
AcDbEntity
  8
Object
100
AcDbLine
 10
16.235
 20
9.121999999999999
 30
0.0
 11
16.235
 21
8.893
 31
0.0
  0
LINE
  5
666
330
18
100
AcDbEntity
  8
Object
100
AcDbLine
 10
16.235
 20
8.893
 30
0.0
 11
16.235
 21
8.66
 31
0.0
  0
LINE
  5
667
330
18
100
AcDbEntity
  8
Object
100
AcDbLine
 10
16.235
 20
9.345
 30
0.0
 11
16.235
 21
9.121999999999999
 31
0.0
  0
LINE
  5
668
330
18
100
AcDbEntity
  8
Object
100
AcDbLine
 10
16.235
 20
8.66
 30
0.0
 11
16.235
 21
8.425
 31
0.0
  0
LINE
  5
669
330
18
100
AcDbEntity
  8
Object
100
AcDbLine
 10
16.235
 20
8.425
 30
0.0
 11
16.235
 21
8.186999999999999
 31
0.0
  0
LINE
  5
66A
330
18
100
AcDbEntity
  8
Object
100
AcDbLine
 10
16.235
 20
8.186999999999999
 30
0.0
 11
16.235
 21
7.948
 31
0.0
  0
LINE
  5
66B
330
18
100
AcDbEntity
  8
Object
100
AcDbLine
 10
16.25
 20
11.927
 30
0.0
 11
16.254
 21
11.929
 31
0.0
  0
LINE
  5
66C
330
18
100
AcDbEntity
  8
Object
100
AcDbLine
 10
16.254
 20
11.929
 30
0.0
 11
16.242
 21
11.598
 31
0.0
  0
LINE
  5
66D
330
18
100
AcDbEntity
  8
Object
100
AcDbLine
 10
16.25
 20
11.927
 30
0.0
 11
16.247
 21
11.923
 31
0.0
  0
LINE
  5
66E
330
18
100
AcDbEntity
  8
Object
100
AcDbLine
 10
16.242
 20
11.598
 30
0.0
 11
16.237
 21
11.598
 31
0.0
  0
LINE
  5
66F
330
18
100
AcDbEntity
  8
Object
100
AcDbLine
 10
16.237
 20
11.598
 30
0.0
 11
16.235
 21
11.598
 31
0.0
  0
LINE
  5
670
330
18
100
AcDbEntity
  8
Object
100
AcDbLine
 10
16.235
 20
11.598
 30
0.0
 11
16.246
 21
11.919
 31
0.0
  0
LINE
  5
671
330
18
100
AcDbEntity
  8
Object
100
AcDbLine
 10
16.246
 20
11.919
 30
0.0
 11
16.247
 21
11.923
 31
0.0
  0
LINE
  5
672
330
18
100
AcDbEntity
  8
Object
100
AcDbLine
 10
16.276
 20
11.948
 30
0.0
 11
16.266
 21
11.946
 31
0.0
  0
LINE
  5
673
330
18
100
AcDbEntity
  8
Object
100
AcDbLine
 10
16.266
 20
11.946
 30
0.0
 11
16.258
 21
11.939
 31
0.0
  0
LINE
  5
674
330
18
100
AcDbEntity
  8
Object
100
AcDbLine
 10
16.256
 20
11.94
 30
0.0
 11
16.265
 21
11.946
 31
0.0
  0
LINE
  5
675
330
18
100
AcDbEntity
  8
Object
100
AcDbLine
 10
16.265
 20
11.946
 30
0.0
 11
16.258
 21
11.941
 31
0.0
  0
LINE
  5
676
330
18
100
AcDbEntity
  8
Object
100
AcDbLine
 10
16.251
 20
11.939
 30
0.0
 11
16.26
 21
11.939
 31
0.0
  0
LINE
  5
677
330
18
100
AcDbEntity
  8
Object
100
AcDbLine
 10
16.258
 20
11.939
 30
0.0
 11
16.257
 21
11.94
 31
0.0
  0
LINE
  5
678
330
18
100
AcDbEntity
  8
Object
100
AcDbLine
 10
16.257
 20
11.94
 30
0.0
 11
16.256
 21
11.94
 31
0.0
  0
LINE
  5
679
330
18
100
AcDbEntity
  8
Object
100
AcDbLine
 10
16.256
 20
11.937
 30
0.0
 11
16.255
 21
11.935
 31
0.0
  0
LINE
  5
67A
330
18
100
AcDbEntity
  8
Object
100
AcDbLine
 10
16.255
 20
11.935
 30
0.0
 11
16.254
 21
11.929
 31
0.0
  0
LINE
  5
67B
330
18
100
AcDbEntity
  8
Object
100
AcDbLine
 10
16.256
 20
11.94
 30
0.0
 11
16.255
 21
11.939
 31
0.0
  0
LINE
  5
67C
330
18
100
AcDbEntity
  8
Object
100
AcDbLine
 10
16.255
 20
11.939
 30
0.0
 11
16.249
 21
11.93
 31
0.0
  0
LINE
  5
67D
330
18
100
AcDbEntity
  8
Object
100
AcDbLine
 10
16.252
 20
11.935
 30
0.0
 11
16.256
 21
11.94
 31
0.0
  0
LINE
  5
67E
330
18
100
AcDbEntity
  8
Object
100
AcDbLine
 10
16.256
 20
11.94
 30
0.0
 11
16.249
 21
11.93
 31
0.0
  0
LINE
  5
67F
330
18
100
AcDbEntity
  8
Object
100
AcDbLine
 10
16.249
 20
11.93
 30
0.0
 11
16.252
 21
11.935
 31
0.0
  0
LINE
  5
680
330
18
100
AcDbEntity
  8
Object
100
AcDbLine
 10
16.249
 20
11.93
 30
0.0
 11
16.246
 21
11.919
 31
0.0
  0
LINE
  5
681
330
18
100
AcDbEntity
  8
Object
100
AcDbLine
 10
16.368
 20
11.939
 30
0.0
 11
16.369
 21
11.939
 31
0.0
  0
LINE
  5
682
330
18
100
AcDbEntity
  8
Object
100
AcDbLine
 10
16.369
 20
11.939
 30
0.0
 11
16.365
 21
11.935
 31
0.0
  0
LINE
  5
683
330
18
100
AcDbEntity
  8
Object
100
AcDbLine
 10
16.368
 20
11.939
 30
0.0
 11
16.367
 21
11.939
 31
0.0
  0
LINE
  5
684
330
18
100
AcDbEntity
  8
Object
100
AcDbLine
 10
16.363
 20
11.93
 30
0.0
 11
16.363
 21
11.931
 31
0.0
  0
LINE
  5
685
330
18
100
AcDbEntity
  8
Object
100
AcDbLine
 10
16.367
 20
11.939
 30
0.0
 11
16.366
 21
11.939
 31
0.0
  0
LINE
  5
686
330
18
100
AcDbEntity
  8
Object
100
AcDbLine
 10
16.36
 20
11.919
 30
0.0
 11
16.363
 21
11.93
 31
0.0
  0
LINE
  5
687
330
18
100
AcDbEntity
  8
Object
100
AcDbLine
 10
16.39
 20
11.948
 30
0.0
 11
16.379
 21
11.946
 31
0.0
  0
LINE
  5
688
330
18
100
AcDbEntity
  8
Object
100
AcDbLine
 10
16.379
 20
11.946
 30
0.0
 11
16.376
 21
11.944
 31
0.0
  0
LINE
  5
689
330
18
100
AcDbEntity
  8
Object
100
AcDbLine
 10
16.369
 20
11.939
 30
0.0
 11
16.373
 21
11.942
 31
0.0
  0
LINE
  5
68A
330
18
100
AcDbEntity
  8
Object
100
AcDbLine
 10
18.617
 20
11.909
 30
0.0
 11
18.628
 21
11.598
 31
0.0
  0
LINE
  5
68B
330
18
100
AcDbEntity
  8
Object
100
AcDbLine
 10
18.628
 20
11.598
 30
0.0
 11
18.623
 21
11.598
 31
0.0
  0
LINE
  5
68C
330
18
100
AcDbEntity
  8
Object
100
AcDbLine
 10
18.623
 20
11.598
 30
0.0
 11
18.621
 21
11.598
 31
0.0
  0
LINE
  5
68D
330
18
100
AcDbEntity
  8
Object
100
AcDbLine
 10
18.613
 20
11.912
 30
0.0
 11
18.611
 21
11.915
 31
0.0
  0
LINE
  5
68E
330
18
100
AcDbEntity
  8
Object
100
AcDbLine
 10
18.611
 20
11.915
 30
0.0
 11
18.61
 21
11.919
 31
0.0
  0
LINE
  5
68F
330
18
100
AcDbEntity
  8
Object
100
AcDbLine
 10
18.712
 20
11.939
 30
0.0
 11
18.713
 21
11.937
 31
0.0
  0
LINE
  5
690
330
18
100
AcDbEntity
  8
Object
100
AcDbLine
 10
18.713
 20
11.937
 30
0.0
 11
18.715
 21
11.935
 31
0.0
  0
LINE
  5
691
330
18
100
AcDbEntity
  8
Object
100
AcDbLine
 10
18.715
 20
11.935
 30
0.0
 11
18.716
 21
11.929
 31
0.0
  0
LINE
  5
692
330
18
100
AcDbEntity
  8
Object
100
AcDbLine
 10
18.716
 20
11.929
 30
0.0
 11
18.728
 21
11.598
 31
0.0
  0
LINE
  5
693
330
18
100
AcDbEntity
  8
Object
100
AcDbLine
 10
18.728
 20
11.598
 30
0.0
 11
18.628
 21
11.598
 31
0.0
  0
LINE
  5
694
330
18
100
AcDbEntity
  8
Object
100
AcDbLine
 10
18.735
 20
11.222
 30
0.0
 11
18.735
 21
11.32
 31
0.0
  0
LINE
  5
695
330
18
100
AcDbEntity
  8
Object
100
AcDbLine
 10
18.735
 20
11.405
 30
0.0
 11
18.735
 21
11.474
 31
0.0
  0
LINE
  5
696
330
18
100
AcDbEntity
  8
Object
100
AcDbLine
 10
18.735
 20
11.528
 30
0.0
 11
18.735
 21
11.567
 31
0.0
  0
LINE
  5
697
330
18
100
AcDbEntity
  8
Object
100
AcDbLine
 10
18.735
 20
11.598
 30
0.0
 11
18.735
 21
11.59
 31
0.0
  0
LINE
  5
698
330
18
100
AcDbEntity
  8
Object
100
AcDbLine
 10
18.735
 20
11.59
 30
0.0
 11
18.735
 21
11.567
 31
0.0
  0
LINE
  5
699
330
18
100
AcDbEntity
  8
Object
100
AcDbLine
 10
18.735
 20
11.474
 30
0.0
 11
18.735
 21
11.528
 31
0.0
  0
LINE
  5
69A
330
18
100
AcDbEntity
  8
Object
100
AcDbLine
 10
18.735
 20
11.32
 30
0.0
 11
18.735
 21
11.405
 31
0.0
  0
LINE
  5
69B
330
18
100
AcDbEntity
  8
Object
100
AcDbLine
 10
18.735
 20
11.109
 30
0.0
 11
18.735
 21
11.222
 31
0.0
  0
LINE
  5
69C
330
18
100
AcDbEntity
  8
Object
100
AcDbLine
 10
18.735
 20
10.692
 30
0.0
 11
18.735
 21
10.844
 31
0.0
  0
LINE
  5
69D
330
18
100
AcDbEntity
  8
Object
100
AcDbLine
 10
18.735
 20
11.109
 30
0.0
 11
18.735
 21
10.983
 31
0.0
  0
LINE
  5
69E
330
18
100
AcDbEntity
  8
Object
100
AcDbLine
 10
18.735
 20
10.983
 30
0.0
 11
18.735
 21
10.844
 31
0.0
  0
LINE
  5
69F
330
18
100
AcDbEntity
  8
Object
100
AcDbLine
 10
18.735
 20
10.529
 30
0.0
 11
18.735
 21
10.692
 31
0.0
  0
LINE
  5
6A0
330
18
100
AcDbEntity
  8
Object
100
AcDbLine
 10
18.735
 20
9.976
 30
0.0
 11
18.735
 21
10.17
 31
0.0
  0
LINE
  5
6A1
330
18
100
AcDbEntity
  8
Object
100
AcDbLine
 10
18.735
 20
10.529
 30
0.0
 11
18.735
 21
10.355
 31
0.0
  0
LINE
  5
6A2
330
18
100
AcDbEntity
  8
Object
100
AcDbLine
 10
18.735
 20
10.355
 30
0.0
 11
18.735
 21
10.17
 31
0.0
  0
LINE
  5
6A3
330
18
100
AcDbEntity
  8
Object
100
AcDbLine
 10
18.735
 20
9.563
 30
0.0
 11
18.735
 21
9.772999999999999
 31
0.0
  0
LINE
  5
6A4
330
18
100
AcDbEntity
  8
Object
100
AcDbLine
 10
18.735
 20
9.772999999999999
 30
0.0
 11
18.735
 21
9.976
 31
0.0
  0
LINE
  5
6A5
330
18
100
AcDbEntity
  8
Object
100
AcDbLine
 10
18.735
 20
9.345
 30
0.0
 11
18.735
 21
9.563
 31
0.0
  0
LINE
  5
6A6
330
18
100
AcDbEntity
  8
Object
100
AcDbLine
 10
18.735
 20
8.66
 30
0.0
 11
18.735
 21
8.893
 31
0.0
  0
LINE
  5
6A7
330
18
100
AcDbEntity
  8
Object
100
AcDbLine
 10
18.735
 20
9.345
 30
0.0
 11
18.735
 21
9.121999999999999
 31
0.0
  0
LINE
  5
6A8
330
18
100
AcDbEntity
  8
Object
100
AcDbLine
 10
18.735
 20
9.121999999999999
 30
0.0
 11
18.735
 21
8.893
 31
0.0
  0
LINE
  5
6A9
330
18
100
AcDbEntity
  8
Object
100
AcDbLine
 10
18.735
 20
8.186999999999999
 30
0.0
 11
18.735
 21
8.425
 31
0.0
  0
LINE
  5
6AA
330
18
100
AcDbEntity
  8
Object
100
AcDbLine
 10
18.735
 20
8.425
 30
0.0
 11
18.735
 21
8.66
 31
0.0
  0
LINE
  5
6AB
330
18
100
AcDbEntity
  8
Object
100
AcDbLine
 10
18.735
 20
7.948
 30
0.0
 11
18.735
 21
8.186999999999999
 31
0.0
  0
LINE
  5
6AC
330
18
100
AcDbEntity
  8
Object
100
AcDbLine
 10
18.602
 20
11.939
 30
0.0
 11
18.603
 21
11.939
 31
0.0
  0
LINE
  5
6AD
330
18
100
AcDbEntity
  8
Object
100
AcDbLine
 10
18.603
 20
11.939
 30
0.0
 11
18.604
 21
11.939
 31
0.0
  0
LINE
  5
6AE
330
18
100
AcDbEntity
  8
Object
100
AcDbLine
 10
18.602
 20
11.939
 30
0.0
 11
18.601
 21
11.939
 31
0.0
  0
LINE
  5
6AF
330
18
100
AcDbEntity
  8
Object
100
AcDbLine
 10
18.601
 20
11.939
 30
0.0
 11
18.595
 21
11.942
 31
0.0
  0
LINE
  5
6B0
330
18
100
AcDbEntity
  8
Object
100
AcDbLine
 10
18.594
 20
11.944
 30
0.0
 11
18.591
 21
11.946
 31
0.0
  0
LINE
  5
6B1
330
18
100
AcDbEntity
  8
Object
100
AcDbLine
 10
18.591
 20
11.946
 30
0.0
 11
18.58
 21
11.948
 31
0.0
  0
LINE
  5
6B2
330
18
100
AcDbEntity
  8
Object
100
AcDbLine
 10
18.613
 20
11.926
 30
0.0
 11
18.617
 21
11.909
 31
0.0
  0
LINE
  5
6B3
330
18
100
AcDbEntity
  8
Object
100
AcDbLine
 10
18.617
 20
11.909
 30
0.0
 11
18.613
 21
11.912
 31
0.0
  0
LINE
  5
6B4
330
18
100
AcDbEntity
  8
Object
100
AcDbLine
 10
18.607
 20
11.93
 30
0.0
 11
18.61
 21
11.919
 31
0.0
  0
LINE
  5
6B5
330
18
100
AcDbEntity
  8
Object
100
AcDbLine
 10
18.613
 20
11.926
 30
0.0
 11
18.609
 21
11.933
 31
0.0
  0
LINE
  5
6B6
330
18
100
AcDbEntity
  8
Object
100
AcDbLine
 10
18.605
 20
11.932
 30
0.0
 11
18.607
 21
11.93
 31
0.0
  0
LINE
  5
6B7
330
18
100
AcDbEntity
  8
Object
100
AcDbLine
 10
18.609
 20
11.933
 30
0.0
 11
18.604
 21
11.939
 31
0.0
  0
LINE
  5
6B8
330
18
100
AcDbEntity
  8
Object
100
AcDbLine
 10
18.601
 20
11.939
 30
0.0
 11
18.604
 21
11.935
 31
0.0
  0
LINE
  5
6B9
330
18
100
AcDbEntity
  8
Object
100
AcDbLine
 10
16.36
 20
11.919
 30
0.0
 11
16.359
 21
11.915
 31
0.0
  0
LINE
  5
6BA
330
18
100
AcDbEntity
  8
Object
100
AcDbLine
 10
16.359
 20
11.915
 30
0.0
 11
16.357
 21
11.912
 31
0.0
  0
LINE
  5
6BB
330
18
100
AcDbEntity
  8
Object
100
AcDbLine
 10
16.349
 20
11.598
 30
0.0
 11
16.347
 21
11.598
 31
0.0
  0
LINE
  5
6BC
330
18
100
AcDbEntity
  8
Object
100
AcDbLine
 10
16.347
 20
11.598
 30
0.0
 11
16.342
 21
11.598
 31
0.0
  0
LINE
  5
6BD
330
18
100
AcDbEntity
  8
Object
100
AcDbLine
 10
16.357
 20
11.912
 30
0.0
 11
16.353
 21
11.909
 31
0.0
  0
LINE
  5
6BE
330
18
100
AcDbEntity
  8
Object
100
AcDbLine
 10
16.288
 20
11.079
 30
0.0
 11
16.297
 21
11.079
 31
0.0
  0
LINE
  5
6BF
330
18
100
AcDbEntity
  8
Object
100
AcDbLine
 10
16.256
 20
11.937
 30
0.0
 11
16.258
 21
11.939
 31
0.0
  0
LINE
  5
6C0
330
18
100
AcDbEntity
  8
Object
100
AcDbLine
 10
16.258
 20
11.939
 30
0.0
 11
16.366
 21
11.939
 31
0.0
  0
LINE
  5
6C1
330
18
100
AcDbEntity
  8
Object
100
AcDbLine
 10
16.366
 20
11.939
 30
0.0
 11
16.36
 21
11.933
 31
0.0
  0
LINE
  5
6C2
330
18
100
AcDbEntity
  8
Object
100
AcDbLine
 10
16.36
 20
11.933
 30
0.0
 11
16.356
 21
11.926
 31
0.0
  0
LINE
  5
6C3
330
18
100
AcDbEntity
  8
Object
100
AcDbLine
 10
16.356
 20
11.926
 30
0.0
 11
16.353
 21
11.909
 31
0.0
  0
LINE
  5
6C4
330
18
100
AcDbEntity
  8
Object
100
AcDbLine
 10
16.353
 20
11.909
 30
0.0
 11
16.342
 21
11.598
 31
0.0
  0
LINE
  5
6C5
330
18
100
AcDbEntity
  8
Object
100
AcDbLine
 10
16.342
 20
11.598
 30
0.0
 11
16.242
 21
11.598
 31
0.0
  0
LINE
  5
6C6
330
18
100
AcDbEntity
  8
Object
100
AcDbLine
 10
18.721
 20
11.93
 30
0.0
 11
18.724
 21
11.919
 31
0.0
  0
LINE
  5
6C7
330
18
100
AcDbEntity
  8
Object
100
AcDbLine
 10
18.724
 20
11.919
 30
0.0
 11
18.723
 21
11.923
 31
0.0
  0
LINE
  5
6C8
330
18
100
AcDbEntity
  8
Object
100
AcDbLine
 10
18.723
 20
11.923
 30
0.0
 11
18.72
 21
11.927
 31
0.0
  0
LINE
  5
6C9
330
18
100
AcDbEntity
  8
Object
100
AcDbLine
 10
18.72
 20
11.927
 30
0.0
 11
18.716
 21
11.929
 31
0.0
  0
LINE
  5
6CA
330
18
100
AcDbEntity
  8
Object
100
AcDbLine
 10
18.721
 20
11.93
 30
0.0
 11
18.718
 21
11.935
 31
0.0
  0
LINE
  5
6CB
330
18
100
AcDbEntity
  8
Object
100
AcDbLine
 10
18.718
 20
11.935
 30
0.0
 11
18.714
 21
11.94
 31
0.0
  0
LINE
  5
6CC
330
18
100
AcDbEntity
  8
Object
100
AcDbLine
 10
18.705
 20
11.946
 30
0.0
 11
18.711
 21
11.941
 31
0.0
  0
LINE
  5
6CD
330
18
100
AcDbEntity
  8
Object
100
AcDbLine
 10
18.715
 20
11.939
 30
0.0
 11
18.714
 21
11.94
 31
0.0
  0
LINE
  5
6CE
330
18
100
AcDbEntity
  8
Object
100
AcDbLine
 10
18.714
 20
11.94
 30
0.0
 11
18.705
 21
11.946
 31
0.0
  0
LINE
  5
6CF
330
18
100
AcDbEntity
  8
Object
100
AcDbLine
 10
18.714
 20
11.94
 30
0.0
 11
18.713
 21
11.94
 31
0.0
  0
LINE
  5
6D0
330
18
100
AcDbEntity
  8
Object
100
AcDbLine
 10
18.713
 20
11.94
 30
0.0
 11
18.712
 21
11.939
 31
0.0
  0
LINE
  5
6D1
330
18
100
AcDbEntity
  8
Object
100
AcDbLine
 10
18.597
 20
5.004999999999999
 30
0.0
 11
18.621
 21
5.004999999999999
 31
0.0
  0
LINE
  5
6D2
330
18
100
AcDbEntity
  8
Object
100
AcDbLine
 10
18.323
 20
5.004999999999999
 30
0.0
 11
18.491
 21
5.004999999999999
 31
0.0
  0
LINE
  5
6D3
330
18
100
AcDbEntity
  8
Object
100
AcDbLine
 10
16.475
 20
5.004999999999999
 30
0.0
 11
16.644
 21
5.004999999999999
 31
0.0
  0
LINE
  5
6D4
330
18
100
AcDbEntity
  8
Object
100
AcDbLine
 10
16.349
 20
5.004999999999999
 30
0.0
 11
16.369
 21
5.004999999999999
 31
0.0
  0
LINE
  5
6D5
330
18
100
AcDbEntity
  8
Object
100
AcDbLine
 10
16.307
 20
6.363999999999999
 30
0.0
 11
16.311
 21
6.559
 31
0.0
  0
LINE
  5
6D6
330
18
100
AcDbEntity
  8
Object
100
AcDbLine
 10
18.663
 20
6.363999999999999
 30
0.0
 11
18.663
 21
6.568
 31
0.0
  0
LINE
  5
6D7
330
18
100
AcDbEntity
  8
Object
100
AcDbLine
 10
16.235
 20
7.948
 30
0.0
 11
16.235
 21
6.275
 31
0.0
  0
LINE
  5
6D8
330
18
100
AcDbEntity
  8
Object
100
AcDbLine
 10
18.697
 20
7.948
 30
0.0
 11
18.735
 21
7.948
 31
0.0
  0
LINE
  5
6D9
330
18
100
AcDbEntity
  8
Object
100
AcDbLine
 10
18.735
 20
7.948
 30
0.0
 11
18.735
 21
6.275
 31
0.0
  0
LINE
  5
6DA
330
18
100
AcDbEntity
  8
Object
100
AcDbLine
 10
18.674
 20
6.339
 30
0.0
 11
18.664
 21
6.320999999999999
 31
0.0
  0
LINE
  5
6DB
330
18
100
AcDbEntity
  8
Object
100
AcDbLine
 10
18.623
 20
6.145
 30
0.0
 11
18.628
 21
6.153999999999999
 31
0.0
  0
LINE
  5
6DC
330
18
100
AcDbEntity
  8
Object
100
AcDbLine
 10
18.664
 20
6.320999999999999
 30
0.0
 11
18.599
 21
6.256
 31
0.0
  0
LINE
  5
6DD
330
18
100
AcDbEntity
  8
Object
100
AcDbLine
 10
18.623
 20
6.145
 30
0.0
 11
18.621
 21
6.133
 31
0.0
  0
LINE
  5
6DE
330
18
100
AcDbEntity
  8
Object
100
AcDbLine
 10
18.621
 20
6.133
 30
0.0
 11
18.621
 21
5.004999999999999
 31
0.0
  0
LINE
  5
6DF
330
18
100
AcDbEntity
  8
Object
100
AcDbLine
 10
18.621
 20
5.004999999999999
 30
0.0
 11
18.597
 21
5.004999999999999
 31
0.0
  0
LINE
  5
6E0
330
18
100
AcDbEntity
  8
Object
100
AcDbLine
 10
16.369
 20
5.004999999999999
 30
0.0
 11
16.349
 21
5.004999999999999
 31
0.0
  0
LINE
  5
6E1
330
18
100
AcDbEntity
  8
Object
100
AcDbLine
 10
16.349
 20
5.004999999999999
 30
0.0
 11
16.349
 21
6.133
 31
0.0
  0
LINE
  5
6E2
330
18
100
AcDbEntity
  8
Object
100
AcDbLine
 10
16.349
 20
6.133
 30
0.0
 11
16.347
 21
6.145
 31
0.0
  0
LINE
  5
6E3
330
18
100
AcDbEntity
  8
Object
100
AcDbLine
 10
16.347
 20
6.145
 30
0.0
 11
16.342
 21
6.153999999999999
 31
0.0
  0
LINE
  5
6E4
330
18
100
AcDbEntity
  8
Object
100
AcDbLine
 10
16.368
 20
6.258
 30
0.0
 11
16.306
 21
6.320999999999999
 31
0.0
  0
LINE
  5
6E5
330
18
100
AcDbEntity
  8
Object
100
AcDbLine
 10
16.342
 20
6.153999999999999
 30
0.0
 11
16.242
 21
6.254
 31
0.0
  0
LINE
  5
6E6
330
18
100
AcDbEntity
  8
Object
100
AcDbLine
 10
16.242
 20
6.254
 30
0.0
 11
16.237
 21
6.262999999999999
 31
0.0
  0
LINE
  5
6E7
330
18
100
AcDbEntity
  8
Object
100
AcDbLine
 10
16.237
 20
6.262999999999999
 30
0.0
 11
16.235
 21
6.275
 31
0.0
  0
LINE
  5
6E8
330
18
100
AcDbEntity
  8
Object
100
AcDbLine
 10
16.269
 20
7.948
 30
0.0
 11
16.235
 21
7.948
 31
0.0
  0
LINE
  5
6E9
330
18
100
AcDbEntity
  8
Object
100
AcDbLine
 10
16.292
 20
6.58
 30
0.0
 11
16.292
 21
6.363999999999999
 31
0.0
  0
LINE
  5
6EA
330
18
100
AcDbEntity
  8
Object
100
AcDbLine
 10
16.292
 20
6.363999999999999
 30
0.0
 11
16.295
 21
6.339
 31
0.0
  0
LINE
  5
6EB
330
18
100
AcDbEntity
  8
Object
100
AcDbLine
 10
16.295
 20
6.339
 30
0.0
 11
16.306
 21
6.320999999999999
 31
0.0
  0
LINE
  5
6EC
330
18
100
AcDbEntity
  8
Object
100
AcDbLine
 10
16.368
 20
6.274
 30
0.0
 11
16.313
 21
6.328999999999999
 31
0.0
  0
LINE
  5
6ED
330
18
100
AcDbEntity
  8
Object
100
AcDbLine
 10
16.313
 20
6.328999999999999
 30
0.0
 11
16.319
 21
6.552
 31
0.0
  0
LINE
  5
6EE
330
18
100
AcDbEntity
  8
Object
100
AcDbLine
 10
18.599
 20
6.270999999999999
 30
0.0
 11
18.656
 21
6.328999999999999
 31
0.0
  0
LINE
  5
6EF
330
18
100
AcDbEntity
  8
Object
100
AcDbLine
 10
18.656
 20
6.328999999999999
 30
0.0
 11
18.65
 21
6.554
 31
0.0
  0
LINE
  5
6F0
330
18
100
AcDbEntity
  8
Object
100
AcDbLine
 10
16.308
 20
6.344
 30
0.0
 11
16.313
 21
6.328999999999999
 31
0.0
  0
LINE
  5
6F1
330
18
100
AcDbEntity
  8
Object
100
AcDbLine
 10
16.307
 20
6.565
 30
0.0
 11
16.307
 21
6.363999999999999
 31
0.0
  0
LINE
  5
6F2
330
18
100
AcDbEntity
  8
Object
100
AcDbLine
 10
16.307
 20
6.363999999999999
 30
0.0
 11
16.304
 21
6.363999999999999
 31
0.0
  0
LINE
  5
6F3
330
18
100
AcDbEntity
  8
Object
100
AcDbLine
 10
16.304
 20
6.363999999999999
 30
0.0
 11
16.299
 21
6.363999999999999
 31
0.0
  0
LINE
  5
6F4
330
18
100
AcDbEntity
  8
Object
100
AcDbLine
 10
16.299
 20
6.363999999999999
 30
0.0
 11
16.292
 21
6.363999999999999
 31
0.0
  0
LINE
  5
6F5
330
18
100
AcDbEntity
  8
Object
100
AcDbLine
 10
18.735
 20
6.275
 30
0.0
 11
18.733
 21
6.262999999999999
 31
0.0
  0
LINE
  5
6F6
330
18
100
AcDbEntity
  8
Object
100
AcDbLine
 10
18.733
 20
6.262999999999999
 30
0.0
 11
18.728
 21
6.254
 31
0.0
  0
LINE
  5
6F7
330
18
100
AcDbEntity
  8
Object
100
AcDbLine
 10
18.678
 20
6.584
 30
0.0
 11
18.678
 21
6.363999999999999
 31
0.0
  0
LINE
  5
6F8
330
18
100
AcDbEntity
  8
Object
100
AcDbLine
 10
18.678
 20
6.363999999999999
 30
0.0
 11
18.671
 21
6.363999999999999
 31
0.0
  0
LINE
  5
6F9
330
18
100
AcDbEntity
  8
Object
100
AcDbLine
 10
18.671
 20
6.363999999999999
 30
0.0
 11
18.665
 21
6.363999999999999
 31
0.0
  0
LINE
  5
6FA
330
18
100
AcDbEntity
  8
Object
100
AcDbLine
 10
18.661
 20
6.344
 30
0.0
 11
18.663
 21
6.363999999999999
 31
0.0
  0
LINE
  5
6FB
330
18
100
AcDbEntity
  8
Object
100
AcDbLine
 10
18.663
 20
6.363999999999999
 30
0.0
 11
18.658
 21
6.562
 31
0.0
  0
LINE
  5
6FC
330
18
100
AcDbEntity
  8
Object
100
AcDbLine
 10
18.656
 20
6.328999999999999
 30
0.0
 11
18.661
 21
6.344
 31
0.0
  0
LINE
  5
6FD
330
18
100
AcDbEntity
  8
Object
100
AcDbLine
 10
18.628
 20
6.153999999999999
 30
0.0
 11
18.728
 21
6.254
 31
0.0
  0
LINE
  5
6FE
330
18
100
AcDbEntity
  8
Object
100
AcDbLine
 10
18.674
 20
6.339
 30
0.0
 11
18.678
 21
6.363999999999999
 31
0.0
  0
LINE
  5
6FF
330
18
100
AcDbEntity
  8
Object
100
AcDbLine
 10
18.665
 20
6.363999999999999
 30
0.0
 11
18.663
 21
6.363999999999999
 31
0.0
  0
LINE
  5
700
330
18
100
AcDbEntity
  8
Object
100
AcDbLine
 10
18.664
 20
6.320999999999999
 30
0.0
 11
18.661
 21
6.323999999999999
 31
0.0
  0
LINE
  5
701
330
18
100
AcDbEntity
  8
Object
100
AcDbLine
 10
18.661
 20
6.323999999999999
 30
0.0
 11
18.658
 21
6.326
 31
0.0
  0
LINE
  5
702
330
18
100
AcDbEntity
  8
Object
100
AcDbLine
 10
18.658
 20
6.326
 30
0.0
 11
18.656
 21
6.328999999999999
 31
0.0
  0
LINE
  5
703
330
18
100
AcDbEntity
  8
Object
100
AcDbLine
 10
16.313
 20
6.328999999999999
 30
0.0
 11
16.311
 21
6.326
 31
0.0
  0
LINE
  5
704
330
18
100
AcDbEntity
  8
Object
100
AcDbLine
 10
16.311
 20
6.326
 30
0.0
 11
16.309
 21
6.323999999999999
 31
0.0
  0
LINE
  5
705
330
18
100
AcDbEntity
  8
Object
100
AcDbLine
 10
16.309
 20
6.323999999999999
 30
0.0
 11
16.306
 21
6.320999999999999
 31
0.0
  0
LINE
  5
706
330
18
100
AcDbEntity
  8
Object
100
AcDbLine
 10
16.308
 20
6.344
 30
0.0
 11
16.307
 21
6.363999999999999
 31
0.0
  0
LINE
  5
707
330
18
100
AcDbEntity
  8
Object
100
AcDbLine
 10
10.18
 20
10.008
 30
0.0
 11
10.18
 21
9.958
 31
0.0
  0
LINE
  5
708
330
18
100
AcDbEntity
  8
Object
100
AcDbLine
 10
10.18
 20
9.958
 30
0.0
 11
8.700000000000001
 21
9.958
 31
0.0
  0
LINE
  5
709
330
18
100
AcDbEntity
  8
Object
100
AcDbLine
 10
10.22
 20
10.008
 30
0.0
 11
10.214
 21
10.008
 31
0.0
  0
LINE
  5
70A
330
18
100
AcDbEntity
  8
Object
100
AcDbLine
 10
10.214
 20
10.008
 30
0.0
 11
10.2
 21
10.008
 31
0.0
  0
LINE
  5
70B
330
18
100
AcDbEntity
  8
Object
100
AcDbLine
 10
10.2
 20
10.008
 30
0.0
 11
10.19
 21
10.008
 31
0.0
  0
LINE
  5
70C
330
18
100
AcDbEntity
  8
Object
100
AcDbLine
 10
10.214
 20
10.008
 30
0.0
 11
10.22
 21
10.008
 31
0.0
  0
LINE
  5
70D
330
18
100
AcDbEntity
  8
Object
100
AcDbLine
 10
10.22
 20
10.008
 30
0.0
 11
10.22
 21
9.958
 31
0.0
  0
LINE
  5
70E
330
18
100
AcDbEntity
  8
Object
100
AcDbLine
 10
10.214
 20
10.008
 30
0.0
 11
10.2
 21
10.008
 31
0.0
  0
LINE
  5
70F
330
18
100
AcDbEntity
  8
Object
100
AcDbLine
 10
10.18
 20
9.958
 30
0.0
 11
10.2
 21
9.958
 31
0.0
  0
LINE
  5
710
330
18
100
AcDbEntity
  8
Object
100
AcDbLine
 10
10.2
 20
10.008
 30
0.0
 11
10.19
 21
10.008
 31
0.0
  0
LINE
  5
711
330
18
100
AcDbEntity
  8
Object
100
AcDbLine
 10
8.700000000000001
 20
9.886000000000001
 30
0.0
 11
8.700000000000001
 21
10.038
 31
0.0
  0
LINE
  5
712
330
18
100
AcDbEntity
  8
Object
100
AcDbLine
 10
8.700000000000001
 20
9.865999999999999
 30
0.0
 11
8.700000000000001
 21
9.874
 31
0.0
  0
LINE
  5
713
330
18
100
AcDbEntity
  8
Object
100
AcDbLine
 10
8.700000000000001
 20
9.874
 30
0.0
 11
8.700000000000001
 21
9.886000000000001
 31
0.0
  0
LINE
  5
714
330
18
100
AcDbEntity
  8
Object
100
AcDbLine
 10
8.700000000000001
 20
9.862999999999999
 30
0.0
 11
8.700000000000001
 21
9.865999999999999
 31
0.0
  0
LINE
  5
715
330
18
100
AcDbEntity
  8
Object
100
AcDbLine
 10
10.18
 20
9.942999999999999
 30
0.0
 11
10.18
 21
9.932
 31
0.0
  0
LINE
  5
716
330
18
100
AcDbEntity
  8
Object
100
AcDbLine
 10
10.18
 20
9.932
 30
0.0
 11
10.18
 21
9.928
 31
0.0
  0
LINE
  5
717
330
18
100
AcDbEntity
  8
Object
100
AcDbLine
 10
10.18
 20
9.928
 30
0.0
 11
8.700000000000001
 21
9.928
 31
0.0
  0
LINE
  5
718
330
18
100
AcDbEntity
  8
Object
100
AcDbLine
 10
10.18
 20
9.942999999999999
 30
0.0
 11
10.18
 21
9.958
 31
0.0
  0
LINE
  5
719
330
18
100
AcDbEntity
  8
Object
100
AcDbLine
 10
9.628999999999999
 20
10.894
 30
0.0
 11
9.621999999999999
 21
10.845
 31
0.0
  0
LINE
  5
71A
330
18
100
AcDbEntity
  8
Object
100
AcDbLine
 10
9.621999999999999
 20
10.845
 30
0.0
 11
9.599
 21
10.801
 31
0.0
  0
LINE
  5
71B
330
18
100
AcDbEntity
  8
Object
100
AcDbLine
 10
9.599
 20
10.801
 30
0.0
 11
9.564
 21
10.765
 31
0.0
  0
LINE
  5
71C
330
18
100
AcDbEntity
  8
Object
100
AcDbLine
 10
9.564
 20
10.765
 30
0.0
 11
9.519
 21
10.743
 31
0.0
  0
LINE
  5
71D
330
18
100
AcDbEntity
  8
Object
100
AcDbLine
 10
9.519
 20
10.743
 30
0.0
 11
9.47
 21
10.735
 31
0.0
  0
LINE
  5
71E
330
18
100
AcDbEntity
  8
Object
100
AcDbLine
 10
9.47
 20
10.735
 30
0.0
 11
9.419999999999999
 21
10.743
 31
0.0
  0
LINE
  5
71F
330
18
100
AcDbEntity
  8
Object
100
AcDbLine
 10
9.419999999999999
 20
10.743
 30
0.0
 11
9.375999999999999
 21
10.765
 31
0.0
  0
LINE
  5
720
330
18
100
AcDbEntity
  8
Object
100
AcDbLine
 10
9.375999999999999
 20
10.765
 30
0.0
 11
9.339999999999999
 21
10.801
 31
0.0
  0
LINE
  5
721
330
18
100
AcDbEntity
  8
Object
100
AcDbLine
 10
9.339999999999999
 20
10.801
 30
0.0
 11
9.317
 21
10.845
 31
0.0
  0
LINE
  5
722
330
18
100
AcDbEntity
  8
Object
100
AcDbLine
 10
9.317
 20
10.845
 30
0.0
 11
9.31
 21
10.894
 31
0.0
  0
LINE
  5
723
330
18
100
AcDbEntity
  8
Object
100
AcDbLine
 10
10.22
 20
10.008
 30
0.0
 11
10.22
 21
9.958
 31
0.0
  0
LINE
  5
724
330
18
100
AcDbEntity
  8
Object
100
AcDbLine
 10
10.22
 20
9.958
 30
0.0
 11
10.214
 21
9.958
 31
0.0
  0
LINE
  5
725
330
18
100
AcDbEntity
  8
Object
100
AcDbLine
 10
10.22
 20
9.958
 30
0.0
 11
10.216
 21
9.942999999999999
 31
0.0
  0
LINE
  5
726
330
18
100
AcDbEntity
  8
Object
100
AcDbLine
 10
10.216
 20
9.942999999999999
 30
0.0
 11
10.205
 21
9.932
 31
0.0
  0
LINE
  5
727
330
18
100
AcDbEntity
  8
Object
100
AcDbLine
 10
10.214
 20
9.958
 30
0.0
 11
10.2
 21
9.958
 31
0.0
  0
LINE
  5
728
330
18
100
AcDbEntity
  8
Object
100
AcDbLine
 10
10.205
 20
9.932
 30
0.0
 11
10.19
 21
9.928
 31
0.0
  0
LINE
  5
729
330
18
100
AcDbEntity
  8
Object
100
AcDbLine
 10
10.19
 20
9.928
 30
0.0
 11
10.188
 21
9.928
 31
0.0
  0
LINE
  5
72A
330
18
100
AcDbEntity
  8
Object
100
AcDbLine
 10
10.188
 20
9.928
 30
0.0
 11
10.185
 21
9.928
 31
0.0
  0
LINE
  5
72B
330
18
100
AcDbEntity
  8
Object
100
AcDbLine
 10
10.185
 20
9.928
 30
0.0
 11
10.18
 21
9.928
 31
0.0
  0
LINE
  5
72C
330
18
100
AcDbEntity
  8
Object
100
AcDbLine
 10
8.700000000000001
 20
9.886000000000001
 30
0.0
 11
8.698999999999999
 21
9.883
 31
0.0
  0
LINE
  5
72D
330
18
100
AcDbEntity
  8
Object
100
AcDbLine
 10
8.698999999999999
 20
9.883
 30
0.0
 11
8.698
 21
9.88
 31
0.0
  0
LINE
  5
72E
330
18
100
AcDbEntity
  8
Object
100
AcDbLine
 10
8.700000000000001
 20
9.886000000000001
 30
0.0
 11
8.700000000000001
 21
10.038
 31
0.0
  0
LINE
  5
72F
330
18
100
AcDbEntity
  8
Object
100
AcDbLine
 10
8.698
 20
9.88
 30
0.0
 11
8.678
 21
9.896
 31
0.0
  0
LINE
  5
730
330
18
100
AcDbEntity
  8
Object
100
AcDbLine
 10
8.678
 20
9.896
 30
0.0
 11
8.662
 21
9.916999999999999
 31
0.0
  0
LINE
  5
731
330
18
100
AcDbEntity
  8
Object
100
AcDbLine
 10
8.700000000000001
 20
10.038
 30
0.0
 11
8.700000000000001
 21
11.598
 31
0.0
  0
LINE
  5
732
330
18
100
AcDbEntity
  8
Object
100
AcDbLine
 10
8.604
 20
11.598
 30
0.0
 11
8.647999999999999
 21
9.967999999999999
 31
0.0
  0
LINE
  5
733
330
18
100
AcDbEntity
  8
Object
100
AcDbLine
 10
8.700000000000001
 20
9.862999999999999
 30
0.0
 11
8.698
 21
9.855999999999999
 31
0.0
  0
LINE
  5
734
330
18
100
AcDbEntity
  8
Object
100
AcDbLine
 10
8.698
 20
9.855999999999999
 30
0.0
 11
8.692
 21
9.849999999999999
 31
0.0
  0
LINE
  5
735
330
18
100
AcDbEntity
  8
Object
100
AcDbLine
 10
8.692
 20
9.849999999999999
 30
0.0
 11
8.685
 21
9.848
 31
0.0
  0
LINE
  5
736
330
18
100
AcDbEntity
  8
Object
100
AcDbLine
 10
8.700000000000001
 20
9.886000000000001
 30
0.0
 11
8.700000000000001
 21
9.874
 31
0.0
  0
LINE
  5
737
330
18
100
AcDbEntity
  8
Object
100
AcDbLine
 10
8.700000000000001
 20
9.874
 30
0.0
 11
8.700000000000001
 21
9.865999999999999
 31
0.0
  0
LINE
  5
738
330
18
100
AcDbEntity
  8
Object
100
AcDbLine
 10
8.700000000000001
 20
9.865999999999999
 30
0.0
 11
8.700000000000001
 21
9.862999999999999
 31
0.0
  0
LINE
  5
739
330
18
100
AcDbEntity
  8
Object
100
AcDbLine
 10
8.700000000000001
 20
9.862999999999999
 30
0.0
 11
8.698
 21
9.855999999999999
 31
0.0
  0
LINE
  5
73A
330
18
100
AcDbEntity
  8
Object
100
AcDbLine
 10
8.698
 20
9.855999999999999
 30
0.0
 11
8.692
 21
9.849999999999999
 31
0.0
  0
LINE
  5
73B
330
18
100
AcDbEntity
  8
Object
100
AcDbLine
 10
8.692
 20
9.849999999999999
 30
0.0
 11
8.685
 21
9.848
 31
0.0
  0
LINE
  5
73C
330
18
100
AcDbEntity
  8
Object
100
AcDbLine
 10
10.19
 20
10.012
 30
0.0
 11
10.19
 21
10.008
 31
0.0
  0
LINE
  5
73D
330
18
100
AcDbEntity
  8
Object
100
AcDbLine
 10
10.19
 20
10.008
 30
0.0
 11
8.700000000000001
 21
10.008
 31
0.0
  0
LINE
  5
73E
330
18
100
AcDbEntity
  8
Object
100
AcDbLine
 10
10.19
 20
10.012
 30
0.0
 11
10.19
 21
10.023
 31
0.0
  0
LINE
  5
73F
330
18
100
AcDbEntity
  8
Object
100
AcDbLine
 10
8.700000000000001
 20
10.038
 30
0.0
 11
10.19
 21
10.038
 31
0.0
  0
LINE
  5
740
330
18
100
AcDbEntity
  8
Object
100
AcDbLine
 10
10.19
 20
10.038
 30
0.0
 11
10.19
 21
10.023
 31
0.0
  0
LINE
  5
741
330
18
100
AcDbEntity
  8
Object
100
AcDbLine
 10
8.700000000000001
 20
10.008
 30
0.0
 11
10.19
 21
10.008
 31
0.0
  0
LINE
  5
742
330
18
100
AcDbEntity
  8
Object
100
AcDbLine
 10
10.19
 20
9.928
 30
0.0
 11
10.188
 21
9.928
 31
0.0
  0
LINE
  5
743
330
18
100
AcDbEntity
  8
Object
100
AcDbLine
 10
10.188
 20
9.928
 30
0.0
 11
10.185
 21
9.928
 31
0.0
  0
LINE
  5
744
330
18
100
AcDbEntity
  8
Object
100
AcDbLine
 10
10.185
 20
9.928
 30
0.0
 11
10.18
 21
9.928
 31
0.0
  0
LINE
  5
745
330
18
100
AcDbEntity
  8
Object
100
AcDbLine
 10
10.18
 20
9.928
 30
0.0
 11
8.700000000000001
 21
9.928
 31
0.0
  0
LINE
  5
746
330
18
100
AcDbEntity
  8
Object
100
AcDbLine
 10
9.63
 20
10.893
 30
0.0
 11
9.621999999999999
 21
10.943
 31
0.0
  0
LINE
  5
747
330
18
100
AcDbEntity
  8
Object
100
AcDbLine
 10
9.621999999999999
 20
10.943
 30
0.0
 11
9.599
 21
10.987
 31
0.0
  0
LINE
  5
748
330
18
100
AcDbEntity
  8
Object
100
AcDbLine
 10
9.599
 20
10.987
 30
0.0
 11
9.564
 21
11.023
 31
0.0
  0
LINE
  5
749
330
18
100
AcDbEntity
  8
Object
100
AcDbLine
 10
9.564
 20
11.023
 30
0.0
 11
9.519
 21
11.045
 31
0.0
  0
LINE
  5
74A
330
18
100
AcDbEntity
  8
Object
100
AcDbLine
 10
9.519
 20
11.045
 30
0.0
 11
9.47
 21
11.053
 31
0.0
  0
LINE
  5
74B
330
18
100
AcDbEntity
  8
Object
100
AcDbLine
 10
10.22
 20
11.698
 30
0.0
 11
10.218
 21
11.698
 31
0.0
  0
LINE
  5
74C
330
18
100
AcDbEntity
  8
Object
100
AcDbLine
 10
10.218
 20
11.698
 30
0.0
 11
10.211
 21
11.698
 31
0.0
  0
LINE
  5
74D
330
18
100
AcDbEntity
  8
Object
100
AcDbLine
 10
10.211
 20
11.698
 30
0.0
 11
10.201
 21
11.698
 31
0.0
  0
LINE
  5
74E
330
18
100
AcDbEntity
  8
Object
100
AcDbLine
 10
10.201
 20
11.698
 30
0.0
 11
10.193
 21
11.698
 31
0.0
  0
LINE
  5
74F
330
18
100
AcDbEntity
  8
Object
100
AcDbLine
 10
10.22
 20
10.038
 30
0.0
 11
10.22
 21
11.698
 31
0.0
  0
LINE
  5
750
330
18
100
AcDbEntity
  8
Object
100
AcDbLine
 10
9.47
 20
10.733
 30
0.0
 11
9.47
 21
10.735
 31
0.0
  0
LINE
  5
751
330
18
100
AcDbEntity
  8
Object
100
AcDbLine
 10
10.218
 20
10.027
 30
0.0
 11
10.22
 21
10.038
 31
0.0
  0
LINE
  5
752
330
18
100
AcDbEntity
  8
Object
100
AcDbLine
 10
10.22
 20
10.038
 30
0.0
 11
10.216
 21
10.023
 31
0.0
  0
LINE
  5
753
330
18
100
AcDbEntity
  8
Object
100
AcDbLine
 10
10.22
 20
10.038
 30
0.0
 11
10.218
 21
10.027
 31
0.0
  0
LINE
  5
754
330
18
100
AcDbEntity
  8
Object
100
AcDbLine
 10
10.218
 20
10.027
 30
0.0
 11
10.216
 21
10.023
 31
0.0
  0
LINE
  5
755
330
18
100
AcDbEntity
  8
Object
100
AcDbLine
 10
10.216
 20
10.023
 30
0.0
 11
10.205
 21
10.012
 31
0.0
  0
LINE
  5
756
330
18
100
AcDbEntity
  8
Object
100
AcDbLine
 10
10.216
 20
10.023
 30
0.0
 11
10.211
 21
10.017
 31
0.0
  0
LINE
  5
757
330
18
100
AcDbEntity
  8
Object
100
AcDbLine
 10
10.211
 20
10.017
 30
0.0
 11
10.205
 21
10.012
 31
0.0
  0
LINE
  5
758
330
18
100
AcDbEntity
  8
Object
100
AcDbLine
 10
10.205
 20
10.012
 30
0.0
 11
10.201
 21
10.01
 31
0.0
  0
LINE
  5
759
330
18
100
AcDbEntity
  8
Object
100
AcDbLine
 10
10.201
 20
10.01
 30
0.0
 11
10.19
 21
10.008
 31
0.0
  0
LINE
  5
75A
330
18
100
AcDbEntity
  8
Object
100
AcDbLine
 10
10.19
 20
10.008
 30
0.0
 11
10.205
 21
10.012
 31
0.0
  0
LINE
  5
75B
330
18
100
AcDbEntity
  8
Object
100
AcDbLine
 10
10.19
 20
10.008
 30
0.0
 11
10.201
 21
10.01
 31
0.0
  0
LINE
  5
75C
330
18
100
AcDbEntity
  8
Object
100
AcDbLine
 10
10.22
 20
9.958
 30
0.0
 11
10.216
 21
9.942999999999999
 31
0.0
  0
LINE
  5
75D
330
18
100
AcDbEntity
  8
Object
100
AcDbLine
 10
10.216
 20
9.942999999999999
 30
0.0
 11
10.205
 21
9.932
 31
0.0
  0
LINE
  5
75E
330
18
100
AcDbEntity
  8
Object
100
AcDbLine
 10
10.205
 20
9.932
 30
0.0
 11
10.19
 21
9.928
 31
0.0
  0
LINE
  5
75F
330
18
100
AcDbEntity
  8
Object
100
AcDbLine
 10
8.647999999999999
 20
9.967999999999999
 30
0.0
 11
8.644999999999999
 21
9.967999999999999
 31
0.0
  0
LINE
  5
760
330
18
100
AcDbEntity
  8
Object
100
AcDbLine
 10
8.644999999999999
 20
9.967999999999999
 30
0.0
 11
8.641
 21
9.967999999999999
 31
0.0
  0
LINE
  5
761
330
18
100
AcDbEntity
  8
Object
100
AcDbLine
 10
8.641
 20
9.967999999999999
 30
0.0
 11
8.637
 21
9.967999999999999
 31
0.0
  0
LINE
  5
762
330
18
100
AcDbEntity
  8
Object
100
AcDbLine
 10
8.698
 20
9.88
 30
0.0
 11
8.695999999999999
 21
9.875999999999999
 31
0.0
  0
LINE
  5
763
330
18
100
AcDbEntity
  8
Object
100
AcDbLine
 10
8.695999999999999
 20
9.875999999999999
 30
0.0
 11
8.692999999999999
 21
9.872999999999999
 31
0.0
  0
LINE
  5
764
330
18
100
AcDbEntity
  8
Object
100
AcDbLine
 10
8.692999999999999
 20
9.872999999999999
 30
0.0
 11
8.689
 21
9.871
 31
0.0
  0
LINE
  5
765
330
18
100
AcDbEntity
  8
Object
100
AcDbLine
 10
8.689
 20
9.871
 30
0.0
 11
8.685
 21
9.868999999999999
 31
0.0
  0
LINE
  5
766
330
18
100
AcDbEntity
  8
Object
100
AcDbLine
 10
8.662
 20
9.916999999999999
 30
0.0
 11
8.652000000000001
 21
9.942
 31
0.0
  0
LINE
  5
767
330
18
100
AcDbEntity
  8
Object
100
AcDbLine
 10
8.652000000000001
 20
9.942
 30
0.0
 11
8.647999999999999
 21
9.967999999999999
 31
0.0
  0
LINE
  5
768
330
18
100
AcDbEntity
  8
Object
100
AcDbLine
 10
10.19
 20
10.038
 30
0.0
 11
10.19
 21
11.598
 31
0.0
  0
LINE
  5
769
330
18
100
AcDbEntity
  8
Object
100
AcDbLine
 10
9.63
 20
10.893
 30
0.0
 11
9.621999999999999
 21
10.844
 31
0.0
  0
LINE
  5
76A
330
18
100
AcDbEntity
  8
Object
100
AcDbLine
 10
9.621999999999999
 20
10.844
 30
0.0
 11
9.599
 21
10.799
 31
0.0
  0
LINE
  5
76B
330
18
100
AcDbEntity
  8
Object
100
AcDbLine
 10
9.599
 20
10.799
 30
0.0
 11
9.564
 21
10.764
 31
0.0
  0
LINE
  5
76C
330
18
100
AcDbEntity
  8
Object
100
AcDbLine
 10
9.564
 20
10.764
 30
0.0
 11
9.519
 21
10.741
 31
0.0
  0
LINE
  5
76D
330
18
100
AcDbEntity
  8
Object
100
AcDbLine
 10
9.519
 20
10.741
 30
0.0
 11
9.47
 21
10.733
 31
0.0
  0
LINE
  5
76E
330
18
100
AcDbEntity
  8
Object
100
AcDbLine
 10
9.47
 20
11.053
 30
0.0
 11
9.419999999999999
 21
11.045
 31
0.0
  0
LINE
  5
76F
330
18
100
AcDbEntity
  8
Object
100
AcDbLine
 10
9.419999999999999
 20
11.045
 30
0.0
 11
9.375999999999999
 21
11.023
 31
0.0
  0
LINE
  5
770
330
18
100
AcDbEntity
  8
Object
100
AcDbLine
 10
9.375999999999999
 20
11.023
 30
0.0
 11
9.339999999999999
 21
10.987
 31
0.0
  0
LINE
  5
771
330
18
100
AcDbEntity
  8
Object
100
AcDbLine
 10
9.339999999999999
 20
10.987
 30
0.0
 11
9.317
 21
10.943
 31
0.0
  0
LINE
  5
772
330
18
100
AcDbEntity
  8
Object
100
AcDbLine
 10
9.317
 20
10.943
 30
0.0
 11
9.31
 21
10.893
 31
0.0
  0
LINE
  5
773
330
18
100
AcDbEntity
  8
Object
100
AcDbLine
 10
9.31
 20
10.893
 30
0.0
 11
9.317
 21
10.844
 31
0.0
  0
LINE
  5
774
330
18
100
AcDbEntity
  8
Object
100
AcDbLine
 10
9.317
 20
10.844
 30
0.0
 11
9.339999999999999
 21
10.799
 31
0.0
  0
LINE
  5
775
330
18
100
AcDbEntity
  8
Object
100
AcDbLine
 10
9.339999999999999
 20
10.799
 30
0.0
 11
9.375999999999999
 21
10.764
 31
0.0
  0
LINE
  5
776
330
18
100
AcDbEntity
  8
Object
100
AcDbLine
 10
9.375999999999999
 20
10.764
 30
0.0
 11
9.419999999999999
 21
10.741
 31
0.0
  0
LINE
  5
777
330
18
100
AcDbEntity
  8
Object
100
AcDbLine
 10
9.419999999999999
 20
10.741
 30
0.0
 11
9.47
 21
10.733
 31
0.0
  0
LINE
  5
778
330
18
100
AcDbEntity
  8
Object
100
AcDbLine
 10
7.275999999999999
 20
9.848
 30
0.0
 11
8.685
 21
9.848
 31
0.0
  0
LINE
  5
779
330
18
100
AcDbEntity
  8
Object
100
AcDbLine
 10
8.65
 20
9.912
 30
0.0
 11
8.665
 21
9.887999999999999
 31
0.0
  0
LINE
  5
77A
330
18
100
AcDbEntity
  8
Object
100
AcDbLine
 10
8.665
 20
9.887999999999999
 30
0.0
 11
8.685
 21
9.868999999999999
 31
0.0
  0
LINE
  5
77B
330
18
100
AcDbEntity
  8
Object
100
AcDbLine
 10
8.685
 20
9.868999999999999
 30
0.0
 11
8.685
 21
9.858
 31
0.0
  0
LINE
  5
77C
330
18
100
AcDbEntity
  8
Object
100
AcDbLine
 10
8.685
 20
9.851
 30
0.0
 11
8.685
 21
9.848
 31
0.0
  0
LINE
  5
77D
330
18
100
AcDbEntity
  8
Object
100
AcDbLine
 10
8.685
 20
9.848
 30
0.0
 11
7.275999999999999
 21
9.848
 31
0.0
  0
LINE
  5
77E
330
18
100
AcDbEntity
  8
Object
100
AcDbLine
 10
8.685
 20
9.851
 30
0.0
 11
8.685
 21
9.858
 31
0.0
  0
LINE
  5
77F
330
18
100
AcDbEntity
  8
Object
100
AcDbLine
 10
8.65
 20
9.912
 30
0.0
 11
8.641
 21
9.939
 31
0.0
  0
LINE
  5
780
330
18
100
AcDbEntity
  8
Object
100
AcDbLine
 10
7.275999999999999
 20
9.967999999999999
 30
0.0
 11
8.637
 21
9.967999999999999
 31
0.0
  0
LINE
  5
781
330
18
100
AcDbEntity
  8
Object
100
AcDbLine
 10
8.637
 20
9.967999999999999
 30
0.0
 11
8.641
 21
9.939
 31
0.0
  0
LINE
  5
782
330
18
100
AcDbEntity
  8
Object
100
AcDbLine
 10
10.22
 20
10.038
 30
0.0
 11
10.216
 21
10.038
 31
0.0
  0
LINE
  5
783
330
18
100
AcDbEntity
  8
Object
100
AcDbLine
 10
10.216
 20
10.038
 30
0.0
 11
10.205
 21
10.038
 31
0.0
  0
LINE
  5
784
330
18
100
AcDbEntity
  8
Object
100
AcDbLine
 10
10.203
 20
10.012
 30
0.0
 11
10.19
 21
10.008
 31
0.0
  0
LINE
  5
785
330
18
100
AcDbEntity
  8
Object
100
AcDbLine
 10
10.19
 20
10.008
 30
0.0
 11
10.197
 21
10.012
 31
0.0
  0
LINE
  5
786
330
18
100
AcDbEntity
  8
Object
100
AcDbLine
 10
10.205
 20
10.038
 30
0.0
 11
10.19
 21
10.038
 31
0.0
  0
LINE
  5
787
330
18
100
AcDbEntity
  8
Object
100
AcDbLine
 10
10.218
 20
11.698
 30
0.0
 11
10.22
 21
11.698
 31
0.0
  0
LINE
  5
788
330
18
100
AcDbEntity
  8
Object
100
AcDbLine
 10
10.22
 20
11.698
 30
0.0
 11
10.22
 21
10.038
 31
0.0
  0
LINE
  5
789
330
18
100
AcDbEntity
  8
Object
100
AcDbLine
 10
10.218
 20
11.698
 30
0.0
 11
10.211
 21
11.698
 31
0.0
  0
LINE
  5
78A
330
18
100
AcDbEntity
  8
Object
100
AcDbLine
 10
10.211
 20
11.698
 30
0.0
 11
10.201
 21
11.698
 31
0.0
  0
LINE
  5
78B
330
18
100
AcDbEntity
  8
Object
100
AcDbLine
 10
10.201
 20
11.698
 30
0.0
 11
10.193
 21
11.698
 31
0.0
  0
LINE
  5
78C
330
18
100
AcDbEntity
  8
Object
100
AcDbLine
 10
8.637
 20
9.967999999999999
 30
0.0
 11
8.593999999999999
 21
11.598
 31
0.0
  0
LINE
  5
78D
330
18
100
AcDbEntity
  8
Object
100
AcDbLine
 10
8.336
 20
11.858
 30
0.0
 11
8.335
 21
11.858
 31
0.0
  0
LINE
  5
78E
330
18
100
AcDbEntity
  8
Object
100
AcDbLine
 10
7.399
 20
11.858
 30
0.0
 11
7.362
 21
11.858
 31
0.0
  0
LINE
  5
78F
330
18
100
AcDbEntity
  8
Object
100
AcDbLine
 10
4.461
 20
5.783999999999999
 30
0.0
 11
4.469
 21
5.735
 31
0.0
  0
LINE
  5
790
330
18
100
AcDbEntity
  8
Object
100
AcDbLine
 10
4.469
 20
5.735
 30
0.0
 11
4.461
 21
5.685
 31
0.0
  0
LINE
  5
791
330
18
100
AcDbEntity
  8
Object
100
AcDbLine
 10
4.439
 20
5.828999999999999
 30
0.0
 11
4.461
 21
5.783999999999999
 31
0.0
  0
LINE
  5
792
330
18
100
AcDbEntity
  8
Object
100
AcDbLine
 10
4.461
 20
5.685
 30
0.0
 11
4.439
 21
5.641
 31
0.0
  0
LINE
  5
793
330
18
100
AcDbEntity
  8
Object
100
AcDbLine
 10
4.403
 20
5.863999999999999
 30
0.0
 11
4.439
 21
5.828999999999999
 31
0.0
  0
LINE
  5
794
330
18
100
AcDbEntity
  8
Object
100
AcDbLine
 10
4.439
 20
5.641
 30
0.0
 11
4.403
 21
5.605
 31
0.0
  0
LINE
  5
795
330
18
100
AcDbEntity
  8
Object
100
AcDbLine
 10
4.358999999999999
 20
5.887
 30
0.0
 11
4.403
 21
5.863999999999999
 31
0.0
  0
LINE
  5
796
330
18
100
AcDbEntity
  8
Object
100
AcDbLine
 10
4.403
 20
5.605
 30
0.0
 11
4.358999999999999
 21
5.583
 31
0.0
  0
LINE
  5
797
330
18
100
AcDbEntity
  8
Object
100
AcDbLine
 10
4.31
 20
5.894
 30
0.0
 11
4.358999999999999
 21
5.887
 31
0.0
  0
LINE
  5
798
330
18
100
AcDbEntity
  8
Object
100
AcDbLine
 10
4.358999999999999
 20
5.583
 30
0.0
 11
4.31
 21
5.575
 31
0.0
  0
LINE
  5
799
330
18
100
AcDbEntity
  8
Object
100
AcDbLine
 10
5.246
 20
6.504999999999999
 30
0.0
 11
5.246
 21
5.025
 31
0.0
  0
LINE
  5
79A
330
18
100
AcDbEntity
  8
Object
100
AcDbLine
 10
5.246
 20
5.025
 30
0.0
 11
5.195999999999999
 21
5.025
 31
0.0
  0
LINE
  5
79B
330
18
100
AcDbEntity
  8
Object
100
AcDbLine
 10
5.341
 20
6.504999999999999
 30
0.0
 11
5.338
 21
6.504999999999999
 31
0.0
  0
LINE
  5
79C
330
18
100
AcDbEntity
  8
Object
100
AcDbLine
 10
5.338
 20
6.504999999999999
 30
0.0
 11
5.33
 21
6.504999999999999
 31
0.0
  0
LINE
  5
79D
330
18
100
AcDbEntity
  8
Object
100
AcDbLine
 10
5.166
 20
6.504999999999999
 30
0.0
 11
5.318
 21
6.504999999999999
 31
0.0
  0
LINE
  5
79E
330
18
100
AcDbEntity
  8
Object
100
AcDbLine
 10
7.275999999999999
 20
9.848
 30
0.0
 11
7.108999999999999
 21
9.841000000000001
 31
0.0
  0
LINE
  5
79F
330
18
100
AcDbEntity
  8
Object
100
AcDbLine
 10
7.108999999999999
 20
9.841000000000001
 30
0.0
 11
6.942
 21
9.819
 31
0.0
  0
LINE
  5
7A0
330
18
100
AcDbEntity
  8
Object
100
AcDbLine
 10
6.942
 20
9.819
 30
0.0
 11
6.778999999999999
 21
9.782999999999999
 31
0.0
  0
LINE
  5
7A1
330
18
100
AcDbEntity
  8
Object
100
AcDbLine
 10
6.778999999999999
 20
9.782999999999999
 30
0.0
 11
6.618999999999999
 21
9.731999999999999
 31
0.0
  0
LINE
  5
7A2
330
18
100
AcDbEntity
  8
Object
100
AcDbLine
 10
6.618999999999999
 20
9.731999999999999
 30
0.0
 11
6.464
 21
9.668000000000001
 31
0.0
  0
LINE
  5
7A3
330
18
100
AcDbEntity
  8
Object
100
AcDbLine
 10
6.464
 20
9.668000000000001
 30
0.0
 11
6.315999999999999
 21
9.591000000000001
 31
0.0
  0
LINE
  5
7A4
330
18
100
AcDbEntity
  8
Object
100
AcDbLine
 10
6.315999999999999
 20
9.591000000000001
 30
0.0
 11
6.174999999999999
 21
9.500999999999999
 31
0.0
  0
LINE
  5
7A5
330
18
100
AcDbEntity
  8
Object
100
AcDbLine
 10
6.174999999999999
 20
9.500999999999999
 30
0.0
 11
6.041999999999999
 21
9.399
 31
0.0
  0
LINE
  5
7A6
330
18
100
AcDbEntity
  8
Object
100
AcDbLine
 10
6.041999999999999
 20
9.399
 30
0.0
 11
5.918
 21
9.285999999999999
 31
0.0
  0
LINE
  5
7A7
330
18
100
AcDbEntity
  8
Object
100
AcDbLine
 10
5.918
 20
9.285999999999999
 30
0.0
 11
5.804999999999999
 21
9.162
 31
0.0
  0
LINE
  5
7A8
330
18
100
AcDbEntity
  8
Object
100
AcDbLine
 10
5.804999999999999
 20
9.162
 30
0.0
 11
5.703
 21
9.029999999999999
 31
0.0
  0
LINE
  5
7A9
330
18
100
AcDbEntity
  8
Object
100
AcDbLine
 10
5.703
 20
9.029999999999999
 30
0.0
 11
5.613
 21
8.887999999999999
 31
0.0
  0
LINE
  5
7AA
330
18
100
AcDbEntity
  8
Object
100
AcDbLine
 10
5.613
 20
8.887999999999999
 30
0.0
 11
5.536
 21
8.74
 31
0.0
  0
LINE
  5
7AB
330
18
100
AcDbEntity
  8
Object
100
AcDbLine
 10
5.536
 20
8.74
 30
0.0
 11
5.472
 21
8.585
 31
0.0
  0
LINE
  5
7AC
330
18
100
AcDbEntity
  8
Object
100
AcDbLine
 10
5.472
 20
8.585
 30
0.0
 11
5.421
 21
8.425
 31
0.0
  0
LINE
  5
7AD
330
18
100
AcDbEntity
  8
Object
100
AcDbLine
 10
5.421
 20
8.425
 30
0.0
 11
5.384999999999999
 21
8.262
 31
0.0
  0
LINE
  5
7AE
330
18
100
AcDbEntity
  8
Object
100
AcDbLine
 10
5.384999999999999
 20
8.262
 30
0.0
 11
5.363
 21
8.096
 31
0.0
  0
LINE
  5
7AF
330
18
100
AcDbEntity
  8
Object
100
AcDbLine
 10
5.363
 20
8.096
 30
0.0
 11
5.355999999999999
 21
7.927999999999999
 31
0.0
  0
LINE
  5
7B0
330
18
100
AcDbEntity
  8
Object
100
AcDbLine
 10
7.275999999999999
 20
9.854
 30
0.0
 11
7.275999999999999
 21
9.871
 31
0.0
  0
LINE
  5
7B1
330
18
100
AcDbEntity
  8
Object
100
AcDbLine
 10
7.275999999999999
 20
9.871
 30
0.0
 11
7.275999999999999
 21
9.897
 31
0.0
  0
LINE
  5
7B2
330
18
100
AcDbEntity
  8
Object
100
AcDbLine
 10
7.275999999999999
 20
9.854
 30
0.0
 11
7.275999999999999
 21
9.848
 31
0.0
  0
LINE
  5
7B3
330
18
100
AcDbEntity
  8
Object
100
AcDbLine
 10
7.275999999999999
 20
9.848
 30
0.0
 11
7.108999999999999
 21
9.841000000000001
 31
0.0
  0
LINE
  5
7B4
330
18
100
AcDbEntity
  8
Object
100
AcDbLine
 10
7.275999999999999
 20
9.897
 30
0.0
 11
7.275999999999999
 21
9.929999999999999
 31
0.0
  0
LINE
  5
7B5
330
18
100
AcDbEntity
  8
Object
100
AcDbLine
 10
7.275999999999999
 20
9.929999999999999
 30
0.0
 11
7.275999999999999
 21
9.967999999999999
 31
0.0
  0
LINE
  5
7B6
330
18
100
AcDbEntity
  8
Object
100
AcDbLine
 10
7.108999999999999
 20
9.841000000000001
 30
0.0
 11
6.942
 21
9.819
 31
0.0
  0
LINE
  5
7B7
330
18
100
AcDbEntity
  8
Object
100
AcDbLine
 10
6.942
 20
9.819
 30
0.0
 11
6.778999999999999
 21
9.782999999999999
 31
0.0
  0
LINE
  5
7B8
330
18
100
AcDbEntity
  8
Object
100
AcDbLine
 10
6.778999999999999
 20
9.782999999999999
 30
0.0
 11
6.618999999999999
 21
9.731999999999999
 31
0.0
  0
LINE
  5
7B9
330
18
100
AcDbEntity
  8
Object
100
AcDbLine
 10
6.618999999999999
 20
9.731999999999999
 30
0.0
 11
6.464
 21
9.668000000000001
 31
0.0
  0
LINE
  5
7BA
330
18
100
AcDbEntity
  8
Object
100
AcDbLine
 10
6.464
 20
9.668000000000001
 30
0.0
 11
6.315999999999999
 21
9.591000000000001
 31
0.0
  0
LINE
  5
7BB
330
18
100
AcDbEntity
  8
Object
100
AcDbLine
 10
6.315999999999999
 20
9.591000000000001
 30
0.0
 11
6.174999999999999
 21
9.500999999999999
 31
0.0
  0
LINE
  5
7BC
330
18
100
AcDbEntity
  8
Object
100
AcDbLine
 10
6.174999999999999
 20
9.500999999999999
 30
0.0
 11
6.041999999999999
 21
9.399
 31
0.0
  0
LINE
  5
7BD
330
18
100
AcDbEntity
  8
Object
100
AcDbLine
 10
6.041999999999999
 20
9.399
 30
0.0
 11
5.918
 21
9.285999999999999
 31
0.0
  0
LINE
  5
7BE
330
18
100
AcDbEntity
  8
Object
100
AcDbLine
 10
5.918
 20
9.285999999999999
 30
0.0
 11
5.804999999999999
 21
9.162
 31
0.0
  0
LINE
  5
7BF
330
18
100
AcDbEntity
  8
Object
100
AcDbLine
 10
5.804999999999999
 20
9.162
 30
0.0
 11
5.703
 21
9.029999999999999
 31
0.0
  0
LINE
  5
7C0
330
18
100
AcDbEntity
  8
Object
100
AcDbLine
 10
5.703
 20
9.029999999999999
 30
0.0
 11
5.613
 21
8.887999999999999
 31
0.0
  0
LINE
  5
7C1
330
18
100
AcDbEntity
  8
Object
100
AcDbLine
 10
5.613
 20
8.887999999999999
 30
0.0
 11
5.536
 21
8.74
 31
0.0
  0
LINE
  5
7C2
330
18
100
AcDbEntity
  8
Object
100
AcDbLine
 10
5.536
 20
8.74
 30
0.0
 11
5.472
 21
8.585
 31
0.0
  0
LINE
  5
7C3
330
18
100
AcDbEntity
  8
Object
100
AcDbLine
 10
5.472
 20
8.585
 30
0.0
 11
5.421
 21
8.425
 31
0.0
  0
LINE
  5
7C4
330
18
100
AcDbEntity
  8
Object
100
AcDbLine
 10
5.421
 20
8.425
 30
0.0
 11
5.384999999999999
 21
8.262
 31
0.0
  0
LINE
  5
7C5
330
18
100
AcDbEntity
  8
Object
100
AcDbLine
 10
5.384999999999999
 20
8.262
 30
0.0
 11
5.363
 21
8.096
 31
0.0
  0
LINE
  5
7C6
330
18
100
AcDbEntity
  8
Object
100
AcDbLine
 10
5.363
 20
8.096
 30
0.0
 11
5.355999999999999
 21
7.927999999999999
 31
0.0
  0
LINE
  5
7C7
330
18
100
AcDbEntity
  8
Object
100
AcDbLine
 10
8.332
 20
11.778
 30
0.0
 11
8.329
 21
11.778
 31
0.0
  0
LINE
  5
7C8
330
18
100
AcDbEntity
  8
Object
100
AcDbLine
 10
8.329
 20
11.778
 30
0.0
 11
8.32
 21
11.778
 31
0.0
  0
LINE
  5
7C9
330
18
100
AcDbEntity
  8
Object
100
AcDbLine
 10
8.32
 20
11.778
 30
0.0
 11
8.307
 21
11.778
 31
0.0
  0
LINE
  5
7CA
330
18
100
AcDbEntity
  8
Object
100
AcDbLine
 10
8.307
 20
11.778
 30
0.0
 11
8.291999999999999
 21
11.778
 31
0.0
  0
LINE
  5
7CB
330
18
100
AcDbEntity
  8
Object
100
AcDbLine
 10
8.291999999999999
 20
11.778
 30
0.0
 11
7.479
 21
11.778
 31
0.0
  0
LINE
  5
7CC
330
18
100
AcDbEntity
  8
Object
100
AcDbLine
 10
7.479
 20
11.778
 30
0.0
 11
7.399
 21
11.858
 31
0.0
  0
LINE
  5
7CD
330
18
100
AcDbEntity
  8
Object
100
AcDbLine
 10
8.332
 20
11.778
 30
0.0
 11
8.335
 21
11.858
 31
0.0
  0
LINE
  5
7CE
330
18
100
AcDbEntity
  8
Object
100
AcDbLine
 10
7.097999999999999
 20
9.96
 30
0.0
 11
7.275999999999999
 21
9.967999999999999
 31
0.0
  0
LINE
  5
7CF
330
18
100
AcDbEntity
  8
Object
100
AcDbLine
 10
7.275999999999999
 20
9.967999999999999
 30
0.0
 11
7.275999999999999
 21
11.598
 31
0.0
  0
LINE
  5
7D0
330
18
100
AcDbEntity
  8
Object
100
AcDbLine
 10
7.097999999999999
 20
9.96
 30
0.0
 11
6.921999999999999
 21
9.936999999999999
 31
0.0
  0
LINE
  5
7D1
330
18
100
AcDbEntity
  8
Object
100
AcDbLine
 10
6.921999999999999
 20
9.936999999999999
 30
0.0
 11
6.748
 21
9.897999999999999
 31
0.0
  0
LINE
  5
7D2
330
18
100
AcDbEntity
  8
Object
100
AcDbLine
 10
6.748
 20
9.897999999999999
 30
0.0
 11
6.578
 21
9.845
 31
0.0
  0
LINE
  5
7D3
330
18
100
AcDbEntity
  8
Object
100
AcDbLine
 10
6.578
 20
9.845
 30
0.0
 11
6.413999999999999
 21
9.777000000000001
 31
0.0
  0
LINE
  5
7D4
330
18
100
AcDbEntity
  8
Object
100
AcDbLine
 10
6.413999999999999
 20
9.777000000000001
 30
0.0
 11
6.256
 21
9.695
 31
0.0
  0
LINE
  5
7D5
330
18
100
AcDbEntity
  8
Object
100
AcDbLine
 10
6.256
 20
9.695
 30
0.0
 11
6.105999999999999
 21
9.599
 31
0.0
  0
LINE
  5
7D6
330
18
100
AcDbEntity
  8
Object
100
AcDbLine
 10
6.105999999999999
 20
9.599
 30
0.0
 11
5.964999999999999
 21
9.490999999999999
 31
0.0
  0
LINE
  5
7D7
330
18
100
AcDbEntity
  8
Object
100
AcDbLine
 10
4.663
 20
10.981
 30
0.0
 11
4.652
 21
10.984
 31
0.0
  0
LINE
  5
7D8
330
18
100
AcDbEntity
  8
Object
100
AcDbLine
 10
4.652
 20
10.984
 30
0.0
 11
4.641
 21
10.982
 31
0.0
  0
LINE
  5
7D9
330
18
100
AcDbEntity
  8
Object
100
AcDbLine
 10
4.641
 20
10.982
 30
0.0
 11
4.631999999999999
 21
10.976
 31
0.0
  0
LINE
  5
7DA
330
18
100
AcDbEntity
  8
Object
100
AcDbLine
 10
4.631999999999999
 20
10.976
 30
0.0
 11
4.490999999999999
 21
10.848
 31
0.0
  0
LINE
  5
7DB
330
18
100
AcDbEntity
  8
Object
100
AcDbLine
 10
5.834
 20
9.37
 30
0.0
 11
5.964999999999999
 21
9.490999999999999
 31
0.0
  0
LINE
  5
7DC
330
18
100
AcDbEntity
  8
Object
100
AcDbLine
 10
4.490999999999999
 20
10.848
 30
0.0
 11
4.355999999999999
 21
10.713
 31
0.0
  0
LINE
  5
7DD
330
18
100
AcDbEntity
  8
Object
100
AcDbLine
 10
5.713
 20
9.239
 30
0.0
 11
5.834
 21
9.37
 31
0.0
  0
LINE
  5
7DE
330
18
100
AcDbEntity
  8
Object
100
AcDbLine
 10
4.355999999999999
 20
10.713
 30
0.0
 11
4.227999999999999
 21
10.572
 31
0.0
  0
LINE
  5
7DF
330
18
100
AcDbEntity
  8
Object
100
AcDbLine
 10
4.227999999999999
 20
10.572
 30
0.0
 11
4.222
 21
10.563
 31
0.0
  0
LINE
  5
7E0
330
18
100
AcDbEntity
  8
Object
100
AcDbLine
 10
4.222
 20
10.543
 30
0.0
 11
4.219999999999999
 21
10.552
 31
0.0
  0
LINE
  5
7E1
330
18
100
AcDbEntity
  8
Object
100
AcDbLine
 10
4.219999999999999
 20
10.552
 30
0.0
 11
4.222
 21
10.563
 31
0.0
  0
LINE
  5
7E2
330
18
100
AcDbEntity
  8
Object
100
AcDbLine
 10
5.713
 20
9.239
 30
0.0
 11
5.605
 21
9.098
 31
0.0
  0
LINE
  5
7E3
330
18
100
AcDbEntity
  8
Object
100
AcDbLine
 10
5.605
 20
9.098
 30
0.0
 11
5.509
 21
8.948
 31
0.0
  0
LINE
  5
7E4
330
18
100
AcDbEntity
  8
Object
100
AcDbLine
 10
5.509
 20
8.948
 30
0.0
 11
5.427
 21
8.79
 31
0.0
  0
LINE
  5
7E5
330
18
100
AcDbEntity
  8
Object
100
AcDbLine
 10
5.427
 20
8.79
 30
0.0
 11
5.358999999999999
 21
8.625999999999999
 31
0.0
  0
LINE
  5
7E6
330
18
100
AcDbEntity
  8
Object
100
AcDbLine
 10
5.358999999999999
 20
8.625999999999999
 30
0.0
 11
5.306
 21
8.455999999999999
 31
0.0
  0
LINE
  5
7E7
330
18
100
AcDbEntity
  8
Object
100
AcDbLine
 10
5.306
 20
8.455999999999999
 30
0.0
 11
5.267
 21
8.282
 31
0.0
  0
LINE
  5
7E8
330
18
100
AcDbEntity
  8
Object
100
AcDbLine
 10
5.267
 20
8.282
 30
0.0
 11
5.243999999999999
 21
8.105999999999999
 31
0.0
  0
LINE
  5
7E9
330
18
100
AcDbEntity
  8
Object
100
AcDbLine
 10
5.243999999999999
 20
8.105999999999999
 30
0.0
 11
5.235999999999999
 21
7.927999999999999
 31
0.0
  0
LINE
  5
7EA
330
18
100
AcDbEntity
  8
Object
100
AcDbLine
 10
5.235999999999999
 20
7.927999999999999
 30
0.0
 11
3.599
 21
7.927999999999999
 31
0.0
  0
LINE
  5
7EB
330
18
100
AcDbEntity
  8
Object
100
AcDbLine
 10
8.336
 20
11.858
 30
0.0
 11
8.335
 21
11.858
 31
0.0
  0
LINE
  5
7EC
330
18
100
AcDbEntity
  8
Object
100
AcDbLine
 10
8.335
 20
11.858
 30
0.0
 11
8.332
 21
11.858
 31
0.0
  0
LINE
  5
7ED
330
18
100
AcDbEntity
  8
Object
100
AcDbLine
 10
8.332
 20
11.858
 30
0.0
 11
8.323
 21
11.858
 31
0.0
  0
LINE
  5
7EE
330
18
100
AcDbEntity
  8
Object
100
AcDbLine
 10
8.323
 20
11.858
 30
0.0
 11
8.31
 21
11.858
 31
0.0
  0
LINE
  5
7EF
330
18
100
AcDbEntity
  8
Object
100
AcDbLine
 10
8.31
 20
11.858
 30
0.0
 11
8.294999999999999
 21
11.858
 31
0.0
  0
LINE
  5
7F0
330
18
100
AcDbEntity
  8
Object
100
AcDbLine
 10
8.294999999999999
 20
11.858
 30
0.0
 11
7.399
 21
11.858
 31
0.0
  0
LINE
  5
7F1
330
18
100
AcDbEntity
  8
Object
100
AcDbLine
 10
7.399
 20
11.858
 30
0.0
 11
7.362
 21
11.858
 31
0.0
  0
LINE
  5
7F2
330
18
100
AcDbEntity
  8
Object
100
AcDbLine
 10
4.663
 20
10.981
 30
0.0
 11
4.652
 21
10.984
 31
0.0
  0
LINE
  5
7F3
330
18
100
AcDbEntity
  8
Object
100
AcDbLine
 10
4.652
 20
10.984
 30
0.0
 11
4.641
 21
10.982
 31
0.0
  0
LINE
  5
7F4
330
18
100
AcDbEntity
  8
Object
100
AcDbLine
 10
4.641
 20
10.982
 30
0.0
 11
4.631999999999999
 21
10.976
 31
0.0
  0
LINE
  5
7F5
330
18
100
AcDbEntity
  8
Object
100
AcDbLine
 10
4.631999999999999
 20
10.976
 30
0.0
 11
4.490999999999999
 21
10.848
 31
0.0
  0
LINE
  5
7F6
330
18
100
AcDbEntity
  8
Object
100
AcDbLine
 10
4.490999999999999
 20
10.848
 30
0.0
 11
4.355999999999999
 21
10.713
 31
0.0
  0
LINE
  5
7F7
330
18
100
AcDbEntity
  8
Object
100
AcDbLine
 10
4.355999999999999
 20
10.713
 30
0.0
 11
4.227999999999999
 21
10.572
 31
0.0
  0
LINE
  5
7F8
330
18
100
AcDbEntity
  8
Object
100
AcDbLine
 10
4.227999999999999
 20
10.572
 30
0.0
 11
4.222
 21
10.563
 31
0.0
  0
LINE
  5
7F9
330
18
100
AcDbEntity
  8
Object
100
AcDbLine
 10
4.222
 20
10.563
 30
0.0
 11
4.219999999999999
 21
10.552
 31
0.0
  0
LINE
  5
7FA
330
18
100
AcDbEntity
  8
Object
100
AcDbLine
 10
4.219999999999999
 20
10.552
 30
0.0
 11
4.222
 21
10.543
 31
0.0
  0
LINE
  5
7FB
330
18
100
AcDbEntity
  8
Object
100
AcDbLine
 10
3.506
 20
5.004999999999999
 30
0.0
 11
3.506
 21
5.004
 31
0.0
  0
LINE
  5
7FC
330
18
100
AcDbEntity
  8
Object
100
AcDbLine
 10
3.506
 20
5.004
 30
0.0
 11
3.506
 21
4.993
 31
0.0
  0
LINE
  5
7FD
330
18
100
AcDbEntity
  8
Object
100
AcDbLine
 10
3.506
 20
4.993
 30
0.0
 11
3.506
 21
4.987
 31
0.0
  0
LINE
  5
7FE
330
18
100
AcDbEntity
  8
Object
100
AcDbLine
 10
3.506
 20
4.987
 30
0.0
 11
3.506
 21
4.985
 31
0.0
  0
LINE
  5
7FF
330
18
100
AcDbEntity
  8
Object
100
AcDbLine
 10
3.506
 20
4.985
 30
0.0
 11
5.166
 21
4.985
 31
0.0
  0
LINE
  5
800
330
18
100
AcDbEntity
  8
Object
100
AcDbLine
 10
5.193999999999999
 20
5.004
 30
0.0
 11
5.195999999999999
 21
5.014999999999999
 31
0.0
  0
LINE
  5
801
330
18
100
AcDbEntity
  8
Object
100
AcDbLine
 10
5.195999999999999
 20
5.014999999999999
 30
0.0
 11
5.192
 21
5.0
 31
0.0
  0
LINE
  5
802
330
18
100
AcDbEntity
  8
Object
100
AcDbLine
 10
5.195999999999999
 20
5.014999999999999
 30
0.0
 11
5.193999999999999
 21
5.004
 31
0.0
  0
LINE
  5
803
330
18
100
AcDbEntity
  8
Object
100
AcDbLine
 10
5.193999999999999
 20
5.004
 30
0.0
 11
5.192
 21
5.0
 31
0.0
  0
LINE
  5
804
330
18
100
AcDbEntity
  8
Object
100
AcDbLine
 10
5.192
 20
5.0
 30
0.0
 11
5.187
 21
4.993
 31
0.0
  0
LINE
  5
805
330
18
100
AcDbEntity
  8
Object
100
AcDbLine
 10
5.187
 20
4.993
 30
0.0
 11
5.181
 21
4.988999999999999
 31
0.0
  0
LINE
  5
806
330
18
100
AcDbEntity
  8
Object
100
AcDbLine
 10
5.181
 20
4.988999999999999
 30
0.0
 11
5.177
 21
4.987
 31
0.0
  0
LINE
  5
807
330
18
100
AcDbEntity
  8
Object
100
AcDbLine
 10
5.177
 20
4.987
 30
0.0
 11
5.166
 21
4.985
 31
0.0
  0
LINE
  5
808
330
18
100
AcDbEntity
  8
Object
100
AcDbLine
 10
5.166
 20
4.985
 30
0.0
 11
5.181
 21
4.988999999999999
 31
0.0
  0
LINE
  5
809
330
18
100
AcDbEntity
  8
Object
100
AcDbLine
 10
5.166
 20
4.985
 30
0.0
 11
5.177
 21
4.987
 31
0.0
  0
LINE
  5
80A
330
18
100
AcDbEntity
  8
Object
100
AcDbLine
 10
4.463
 20
5.685
 30
0.0
 11
4.471
 21
5.735
 31
0.0
  0
LINE
  5
80B
330
18
100
AcDbEntity
  8
Object
100
AcDbLine
 10
4.471
 20
5.735
 30
0.0
 11
4.469
 21
5.735
 31
0.0
  0
LINE
  5
80C
330
18
100
AcDbEntity
  8
Object
100
AcDbLine
 10
4.463
 20
5.685
 30
0.0
 11
4.44
 21
5.641
 31
0.0
  0
LINE
  5
80D
330
18
100
AcDbEntity
  8
Object
100
AcDbLine
 10
4.44
 20
5.641
 30
0.0
 11
4.405
 21
5.605
 31
0.0
  0
LINE
  5
80E
330
18
100
AcDbEntity
  8
Object
100
AcDbLine
 10
4.405
 20
5.605
 30
0.0
 11
4.36
 21
5.583
 31
0.0
  0
LINE
  5
80F
330
18
100
AcDbEntity
  8
Object
100
AcDbLine
 10
4.36
 20
5.583
 30
0.0
 11
4.310999999999999
 21
5.575
 31
0.0
  0
LINE
  5
810
330
18
100
AcDbEntity
  8
Object
100
AcDbLine
 10
5.195999999999999
 20
5.014999999999999
 30
0.0
 11
5.195999999999999
 21
6.504999999999999
 31
0.0
  0
LINE
  5
811
330
18
100
AcDbEntity
  8
Object
100
AcDbLine
 10
4.471
 20
5.735
 30
0.0
 11
4.463
 21
5.783999999999999
 31
0.0
  0
LINE
  5
812
330
18
100
AcDbEntity
  8
Object
100
AcDbLine
 10
4.463
 20
5.783999999999999
 30
0.0
 11
4.44
 21
5.828999999999999
 31
0.0
  0
LINE
  5
813
330
18
100
AcDbEntity
  8
Object
100
AcDbLine
 10
4.44
 20
5.828999999999999
 30
0.0
 11
4.405
 21
5.863999999999999
 31
0.0
  0
LINE
  5
814
330
18
100
AcDbEntity
  8
Object
100
AcDbLine
 10
4.405
 20
5.863999999999999
 30
0.0
 11
4.36
 21
5.887
 31
0.0
  0
LINE
  5
815
330
18
100
AcDbEntity
  8
Object
100
AcDbLine
 10
4.36
 20
5.887
 30
0.0
 11
4.310999999999999
 21
5.895
 31
0.0
  0
LINE
  5
816
330
18
100
AcDbEntity
  8
Object
100
AcDbLine
 10
5.275999999999999
 20
6.504999999999999
 30
0.0
 11
5.275999999999999
 21
5.025
 31
0.0
  0
LINE
  5
817
330
18
100
AcDbEntity
  8
Object
100
AcDbLine
 10
5.275999999999999
 20
5.025
 30
0.0
 11
5.272
 21
5.025
 31
0.0
  0
LINE
  5
818
330
18
100
AcDbEntity
  8
Object
100
AcDbLine
 10
5.272
 20
5.025
 30
0.0
 11
5.261
 21
5.025
 31
0.0
  0
LINE
  5
819
330
18
100
AcDbEntity
  8
Object
100
AcDbLine
 10
5.261
 20
5.025
 30
0.0
 11
5.246
 21
5.025
 31
0.0
  0
LINE
  5
81A
330
18
100
AcDbEntity
  8
Object
100
AcDbLine
 10
5.195999999999999
 20
5.004999999999999
 30
0.0
 11
5.195999999999999
 21
4.99
 31
0.0
  0
LINE
  5
81B
330
18
100
AcDbEntity
  8
Object
100
AcDbLine
 10
5.246
 20
5.004999999999999
 30
0.0
 11
5.246
 21
4.99
 31
0.0
  0
LINE
  5
81C
330
18
100
AcDbEntity
  8
Object
100
AcDbLine
 10
5.246
 20
4.99
 30
0.0
 11
5.246
 21
4.985
 31
0.0
  0
LINE
  5
81D
330
18
100
AcDbEntity
  8
Object
100
AcDbLine
 10
5.246
 20
4.985
 30
0.0
 11
5.195999999999999
 21
4.985
 31
0.0
  0
LINE
  5
81E
330
18
100
AcDbEntity
  8
Object
100
AcDbLine
 10
5.195999999999999
 20
4.985
 30
0.0
 11
5.195999999999999
 21
4.99
 31
0.0
  0
LINE
  5
81F
330
18
100
AcDbEntity
  8
Object
100
AcDbLine
 10
5.246
 20
5.004999999999999
 30
0.0
 11
5.246
 21
5.025
 31
0.0
  0
LINE
  5
820
330
18
100
AcDbEntity
  8
Object
100
AcDbLine
 10
5.195999999999999
 20
5.014999999999999
 30
0.0
 11
5.195999999999999
 21
5.004999999999999
 31
0.0
  0
LINE
  5
821
330
18
100
AcDbEntity
  8
Object
100
AcDbLine
 10
5.195999999999999
 20
4.985
 30
0.0
 11
5.195999999999999
 21
4.99
 31
0.0
  0
LINE
  5
822
330
18
100
AcDbEntity
  8
Object
100
AcDbLine
 10
5.195999999999999
 20
4.99
 30
0.0
 11
5.195999999999999
 21
5.004999999999999
 31
0.0
  0
LINE
  5
823
330
18
100
AcDbEntity
  8
Object
100
AcDbLine
 10
5.195999999999999
 20
5.004999999999999
 30
0.0
 11
5.195999999999999
 21
5.014999999999999
 31
0.0
  0
LINE
  5
824
330
18
100
AcDbEntity
  8
Object
100
AcDbLine
 10
5.355999999999999
 20
6.52
 30
0.0
 11
5.354
 21
6.512
 31
0.0
  0
LINE
  5
825
330
18
100
AcDbEntity
  8
Object
100
AcDbLine
 10
5.354
 20
6.512
 30
0.0
 11
5.347999999999999
 21
6.507
 31
0.0
  0
LINE
  5
826
330
18
100
AcDbEntity
  8
Object
100
AcDbLine
 10
5.347999999999999
 20
6.507
 30
0.0
 11
5.341
 21
6.504999999999999
 31
0.0
  0
LINE
  5
827
330
18
100
AcDbEntity
  8
Object
100
AcDbLine
 10
5.275999999999999
 20
5.025
 30
0.0
 11
5.275999999999999
 21
6.504999999999999
 31
0.0
  0
LINE
  5
828
330
18
100
AcDbEntity
  8
Object
100
AcDbLine
 10
5.275999999999999
 20
5.014999999999999
 30
0.0
 11
5.275999999999999
 21
5.016
 31
0.0
  0
LINE
  5
829
330
18
100
AcDbEntity
  8
Object
100
AcDbLine
 10
5.275999999999999
 20
5.016
 30
0.0
 11
5.275999999999999
 21
5.02
 31
0.0
  0
LINE
  5
82A
330
18
100
AcDbEntity
  8
Object
100
AcDbLine
 10
5.275999999999999
 20
5.014999999999999
 30
0.0
 11
5.275999999999999
 21
5.016
 31
0.0
  0
LINE
  5
82B
330
18
100
AcDbEntity
  8
Object
100
AcDbLine
 10
5.275999999999999
 20
5.02
 30
0.0
 11
5.275999999999999
 21
5.025
 31
0.0
  0
LINE
  5
82C
330
18
100
AcDbEntity
  8
Object
100
AcDbLine
 10
5.318
 20
6.504999999999999
 30
0.0
 11
5.320999999999999
 21
6.504999999999999
 31
0.0
  0
LINE
  5
82D
330
18
100
AcDbEntity
  8
Object
100
AcDbLine
 10
5.307999999999999
 20
6.525999999999999
 30
0.0
 11
5.323999999999999
 21
6.506
 31
0.0
  0
LINE
  5
82E
330
18
100
AcDbEntity
  8
Object
100
AcDbLine
 10
5.323999999999999
 20
6.506
 30
0.0
 11
5.320999999999999
 21
6.504999999999999
 31
0.0
  0
LINE
  5
82F
330
18
100
AcDbEntity
  8
Object
100
AcDbLine
 10
5.166
 20
6.504999999999999
 30
0.0
 11
5.318
 21
6.504999999999999
 31
0.0
  0
LINE
  5
830
330
18
100
AcDbEntity
  8
Object
100
AcDbLine
 10
5.235999999999999
 20
6.556
 30
0.0
 11
5.262
 21
6.552999999999999
 31
0.0
  0
LINE
  5
831
330
18
100
AcDbEntity
  8
Object
100
AcDbLine
 10
5.262
 20
6.552999999999999
 30
0.0
 11
5.286999999999999
 21
6.541999999999999
 31
0.0
  0
LINE
  5
832
330
18
100
AcDbEntity
  8
Object
100
AcDbLine
 10
5.286999999999999
 20
6.541999999999999
 30
0.0
 11
5.307999999999999
 21
6.525999999999999
 31
0.0
  0
LINE
  5
833
330
18
100
AcDbEntity
  8
Object
100
AcDbLine
 10
5.235999999999999
 20
6.556
 30
0.0
 11
3.597999999999999
 21
6.599
 31
0.0
  0
LINE
  5
834
330
18
100
AcDbEntity
  8
Object
100
AcDbLine
 10
5.352999999999999
 20
6.52
 30
0.0
 11
5.355999999999999
 21
6.52
 31
0.0
  0
LINE
  5
835
330
18
100
AcDbEntity
  8
Object
100
AcDbLine
 10
5.355999999999999
 20
6.52
 30
0.0
 11
5.354
 21
6.512
 31
0.0
  0
LINE
  5
836
330
18
100
AcDbEntity
  8
Object
100
AcDbLine
 10
5.352999999999999
 20
6.52
 30
0.0
 11
5.346
 21
6.52
 31
0.0
  0
LINE
  5
837
330
18
100
AcDbEntity
  8
Object
100
AcDbLine
 10
5.354
 20
6.512
 30
0.0
 11
5.347999999999999
 21
6.507
 31
0.0
  0
LINE
  5
838
330
18
100
AcDbEntity
  8
Object
100
AcDbLine
 10
5.347999999999999
 20
6.507
 30
0.0
 11
5.341
 21
6.504999999999999
 31
0.0
  0
LINE
  5
839
330
18
100
AcDbEntity
  8
Object
100
AcDbLine
 10
5.341
 20
6.504999999999999
 30
0.0
 11
5.338
 21
6.504999999999999
 31
0.0
  0
LINE
  5
83A
330
18
100
AcDbEntity
  8
Object
100
AcDbLine
 10
5.346
 20
6.52
 30
0.0
 11
5.334999999999999
 21
6.52
 31
0.0
  0
LINE
  5
83B
330
18
100
AcDbEntity
  8
Object
100
AcDbLine
 10
5.33
 20
6.504999999999999
 30
0.0
 11
5.338
 21
6.504999999999999
 31
0.0
  0
LINE
  5
83C
330
18
100
AcDbEntity
  8
Object
100
AcDbLine
 10
5.195999999999999
 20
6.504999999999999
 30
0.0
 11
5.195999999999999
 21
5.014999999999999
 31
0.0
  0
LINE
  5
83D
330
18
100
AcDbEntity
  8
Object
100
AcDbLine
 10
5.195999999999999
 20
5.014999999999999
 30
0.0
 11
5.192
 21
5.014999999999999
 31
0.0
  0
LINE
  5
83E
330
18
100
AcDbEntity
  8
Object
100
AcDbLine
 10
5.192
 20
5.014999999999999
 30
0.0
 11
5.181
 21
5.014999999999999
 31
0.0
  0
LINE
  5
83F
330
18
100
AcDbEntity
  8
Object
100
AcDbLine
 10
5.181
 20
5.014999999999999
 30
0.0
 11
5.166
 21
5.014999999999999
 31
0.0
  0
LINE
  5
840
330
18
100
AcDbEntity
  8
Object
100
AcDbLine
 10
5.355999999999999
 20
6.52
 30
0.0
 11
5.355999999999999
 21
7.927999999999999
 31
0.0
  0
LINE
  5
841
330
18
100
AcDbEntity
  8
Object
100
AcDbLine
 10
5.355999999999999
 20
7.927999999999999
 30
0.0
 11
5.355999999999999
 21
6.52
 31
0.0
  0
LINE
  5
842
330
18
100
AcDbEntity
  8
Object
100
AcDbLine
 10
5.355999999999999
 20
7.927999999999999
 30
0.0
 11
5.35
 21
7.927999999999999
 31
0.0
  0
LINE
  5
843
330
18
100
AcDbEntity
  8
Object
100
AcDbLine
 10
5.35
 20
7.927999999999999
 30
0.0
 11
5.333
 21
7.927999999999999
 31
0.0
  0
LINE
  5
844
330
18
100
AcDbEntity
  8
Object
100
AcDbLine
 10
5.315999999999999
 20
6.538999999999999
 30
0.0
 11
5.334999999999999
 21
6.52
 31
0.0
  0
LINE
  5
845
330
18
100
AcDbEntity
  8
Object
100
AcDbLine
 10
5.333
 20
7.927999999999999
 30
0.0
 11
5.307
 21
7.927999999999999
 31
0.0
  0
LINE
  5
846
330
18
100
AcDbEntity
  8
Object
100
AcDbLine
 10
5.291999999999999
 20
6.554
 30
0.0
 11
5.315999999999999
 21
6.538999999999999
 31
0.0
  0
LINE
  5
847
330
18
100
AcDbEntity
  8
Object
100
AcDbLine
 10
5.307
 20
7.927999999999999
 30
0.0
 11
5.274
 21
7.927999999999999
 31
0.0
  0
LINE
  5
848
330
18
100
AcDbEntity
  8
Object
100
AcDbLine
 10
5.264999999999999
 20
6.562999999999999
 30
0.0
 11
5.291999999999999
 21
6.554
 31
0.0
  0
LINE
  5
849
330
18
100
AcDbEntity
  8
Object
100
AcDbLine
 10
5.274
 20
7.927999999999999
 30
0.0
 11
5.235999999999999
 21
7.927999999999999
 31
0.0
  0
LINE
  5
84A
330
18
100
AcDbEntity
  8
Object
100
AcDbLine
 10
5.235999999999999
 20
6.567
 30
0.0
 11
5.264999999999999
 21
6.562999999999999
 31
0.0
  0
LINE
  5
84B
330
18
100
AcDbEntity
  8
Object
100
AcDbLine
 10
8.332
 20
11.858
 30
0.0
 11
8.335
 21
11.858
 31
0.0
  0
LINE
  5
84C
330
18
100
AcDbEntity
  8
Object
100
AcDbLine
 10
8.335
 20
11.858
 30
0.0
 11
8.332
 21
11.778
 31
0.0
  0
LINE
  5
84D
330
18
100
AcDbEntity
  8
Object
100
AcDbLine
 10
8.332
 20
11.778
 30
0.0
 11
8.329
 21
11.778
 31
0.0
  0
LINE
  5
84E
330
18
100
AcDbEntity
  8
Object
100
AcDbLine
 10
8.332
 20
11.858
 30
0.0
 11
8.323
 21
11.858
 31
0.0
  0
LINE
  5
84F
330
18
100
AcDbEntity
  8
Object
100
AcDbLine
 10
8.32
 20
11.778
 30
0.0
 11
8.329
 21
11.778
 31
0.0
  0
LINE
  5
850
330
18
100
AcDbEntity
  8
Object
100
AcDbLine
 10
8.323
 20
11.858
 30
0.0
 11
8.31
 21
11.858
 31
0.0
  0
LINE
  5
851
330
18
100
AcDbEntity
  8
Object
100
AcDbLine
 10
8.307
 20
11.778
 30
0.0
 11
8.32
 21
11.778
 31
0.0
  0
LINE
  5
852
330
18
100
AcDbEntity
  8
Object
100
AcDbLine
 10
8.31
 20
11.858
 30
0.0
 11
8.294999999999999
 21
11.858
 31
0.0
  0
LINE
  5
853
330
18
100
AcDbEntity
  8
Object
100
AcDbLine
 10
8.307
 20
11.778
 30
0.0
 11
8.291999999999999
 21
11.778
 31
0.0
  0
LINE
  5
854
330
18
100
AcDbEntity
  8
Object
100
AcDbLine
 10
8.291999999999999
 20
11.778
 30
0.0
 11
8.294999999999999
 21
11.858
 31
0.0
  0
LINE
  5
855
330
18
100
AcDbEntity
  8
Object
100
AcDbLine
 10
8.291999999999999
 20
11.778
 30
0.0
 11
7.479
 21
11.778
 31
0.0
  0
LINE
  5
856
330
18
100
AcDbEntity
  8
Object
100
AcDbLine
 10
7.479
 20
11.778
 30
0.0
 11
7.399
 21
11.858
 31
0.0
  0
LINE
  5
857
330
18
100
AcDbEntity
  8
Object
100
AcDbLine
 10
7.399
 20
11.858
 30
0.0
 11
8.294999999999999
 21
11.858
 31
0.0
  0
LINE
  5
858
330
18
100
AcDbEntity
  8
Object
100
AcDbLine
 10
3.599
 20
6.608999999999999
 30
0.0
 11
5.235999999999999
 21
6.567
 31
0.0
  0
LINE
  5
859
330
18
100
AcDbEntity
  8
Object
100
AcDbLine
 10
5.235999999999999
 20
6.567
 30
0.0
 11
5.235999999999999
 21
7.927999999999999
 31
0.0
  0
LINE
  5
85A
330
18
100
AcDbEntity
  8
Object
100
AcDbLine
 10
3.346
 20
7.828
 30
0.0
 11
3.346
 21
7.805
 31
0.0
  0
LINE
  5
85B
330
18
100
AcDbEntity
  8
Object
100
AcDbLine
 10
3.346
 20
6.868999999999999
 30
0.0
 11
3.346
 21
6.86
 31
0.0
  0
LINE
  5
85C
330
18
100
AcDbEntity
  8
Object
100
AcDbLine
 10
5.166
 20
4.988999999999999
 30
0.0
 11
5.166
 21
5.0
 31
0.0
  0
LINE
  5
85D
330
18
100
AcDbEntity
  8
Object
100
AcDbLine
 10
3.506
 20
4.993
 30
0.0
 11
3.506
 21
5.004
 31
0.0
  0
LINE
  5
85E
330
18
100
AcDbEntity
  8
Object
100
AcDbLine
 10
3.506
 20
5.004
 30
0.0
 11
3.506
 21
5.004999999999999
 31
0.0
  0
LINE
  5
85F
330
18
100
AcDbEntity
  8
Object
100
AcDbLine
 10
3.599
 20
5.014999999999999
 30
0.0
 11
5.166
 21
5.014999999999999
 31
0.0
  0
LINE
  5
860
330
18
100
AcDbEntity
  8
Object
100
AcDbLine
 10
5.166
 20
5.014999999999999
 30
0.0
 11
5.166
 21
5.0
 31
0.0
  0
LINE
  5
861
330
18
100
AcDbEntity
  8
Object
100
AcDbLine
 10
3.506
 20
4.993
 30
0.0
 11
3.506
 21
4.987
 31
0.0
  0
LINE
  5
862
330
18
100
AcDbEntity
  8
Object
100
AcDbLine
 10
5.166
 20
4.988999999999999
 30
0.0
 11
5.166
 21
4.985
 31
0.0
  0
LINE
  5
863
330
18
100
AcDbEntity
  8
Object
100
AcDbLine
 10
5.166
 20
4.985
 30
0.0
 11
3.506
 21
4.985
 31
0.0
  0
LINE
  5
864
330
18
100
AcDbEntity
  8
Object
100
AcDbLine
 10
3.506
 20
4.985
 30
0.0
 11
3.506
 21
4.987
 31
0.0
  0
LINE
  5
865
330
18
100
AcDbEntity
  8
Object
100
AcDbLine
 10
5.166
 20
5.014999999999999
 30
0.0
 11
5.166
 21
6.504999999999999
 31
0.0
  0
LINE
  5
866
330
18
100
AcDbEntity
  8
Object
100
AcDbLine
 10
5.166
 20
6.504999999999999
 30
0.0
 11
3.599
 21
6.504999999999999
 31
0.0
  0
LINE
  5
867
330
18
100
AcDbEntity
  8
Object
100
AcDbLine
 10
4.310999999999999
 20
5.895
 30
0.0
 11
4.261
 21
5.887
 31
0.0
  0
LINE
  5
868
330
18
100
AcDbEntity
  8
Object
100
AcDbLine
 10
4.261
 20
5.887
 30
0.0
 11
4.217
 21
5.863999999999999
 31
0.0
  0
LINE
  5
869
330
18
100
AcDbEntity
  8
Object
100
AcDbLine
 10
4.217
 20
5.863999999999999
 30
0.0
 11
4.181
 21
5.828999999999999
 31
0.0
  0
LINE
  5
86A
330
18
100
AcDbEntity
  8
Object
100
AcDbLine
 10
4.181
 20
5.828999999999999
 30
0.0
 11
4.158
 21
5.783999999999999
 31
0.0
  0
LINE
  5
86B
330
18
100
AcDbEntity
  8
Object
100
AcDbLine
 10
4.158
 20
5.783999999999999
 30
0.0
 11
4.150999999999999
 21
5.735
 31
0.0
  0
LINE
  5
86C
330
18
100
AcDbEntity
  8
Object
100
AcDbLine
 10
4.150999999999999
 20
5.735
 30
0.0
 11
4.158
 21
5.685
 31
0.0
  0
LINE
  5
86D
330
18
100
AcDbEntity
  8
Object
100
AcDbLine
 10
4.158
 20
5.685
 30
0.0
 11
4.181
 21
5.641
 31
0.0
  0
LINE
  5
86E
330
18
100
AcDbEntity
  8
Object
100
AcDbLine
 10
4.181
 20
5.641
 30
0.0
 11
4.217
 21
5.605
 31
0.0
  0
LINE
  5
86F
330
18
100
AcDbEntity
  8
Object
100
AcDbLine
 10
4.217
 20
5.605
 30
0.0
 11
4.261
 21
5.583
 31
0.0
  0
LINE
  5
870
330
18
100
AcDbEntity
  8
Object
100
AcDbLine
 10
4.261
 20
5.583
 30
0.0
 11
4.310999999999999
 21
5.575
 31
0.0
  0
LINE
  5
871
330
18
100
AcDbEntity
  8
Object
100
AcDbLine
 10
5.235999999999999
 20
6.562999999999999
 30
0.0
 11
5.235999999999999
 21
6.56
 31
0.0
  0
LINE
  5
872
330
18
100
AcDbEntity
  8
Object
100
AcDbLine
 10
5.235999999999999
 20
6.56
 30
0.0
 11
5.235999999999999
 21
6.556
 31
0.0
  0
LINE
  5
873
330
18
100
AcDbEntity
  8
Object
100
AcDbLine
 10
5.235999999999999
 20
6.562999999999999
 30
0.0
 11
5.235999999999999
 21
6.567
 31
0.0
  0
LINE
  5
874
330
18
100
AcDbEntity
  8
Object
100
AcDbLine
 10
5.181
 20
4.988999999999999
 30
0.0
 11
5.192
 21
5.0
 31
0.0
  0
LINE
  5
875
330
18
100
AcDbEntity
  8
Object
100
AcDbLine
 10
5.173
 20
4.988999999999999
 30
0.0
 11
5.166
 21
4.985
 31
0.0
  0
LINE
  5
876
330
18
100
AcDbEntity
  8
Object
100
AcDbLine
 10
5.166
 20
4.985
 30
0.0
 11
5.179
 21
4.988999999999999
 31
0.0
  0
LINE
  5
877
330
18
100
AcDbEntity
  8
Object
100
AcDbLine
 10
5.275999999999999
 20
5.014999999999999
 30
0.0
 11
5.275999999999999
 21
5.016
 31
0.0
  0
LINE
  5
878
330
18
100
AcDbEntity
  8
Object
100
AcDbLine
 10
5.275999999999999
 20
5.016
 30
0.0
 11
5.275999999999999
 21
5.02
 31
0.0
  0
LINE
  5
879
330
18
100
AcDbEntity
  8
Object
100
AcDbLine
 10
5.275999999999999
 20
5.02
 30
0.0
 11
5.275999999999999
 21
5.025
 31
0.0
  0
LINE
  5
87A
330
18
100
AcDbEntity
  8
Object
100
AcDbLine
 10
5.275999999999999
 20
5.014999999999999
 30
0.0
 11
5.272
 21
5.0
 31
0.0
  0
LINE
  5
87B
330
18
100
AcDbEntity
  8
Object
100
AcDbLine
 10
5.272
 20
5.0
 30
0.0
 11
5.261
 21
4.988999999999999
 31
0.0
  0
LINE
  5
87C
330
18
100
AcDbEntity
  8
Object
100
AcDbLine
 10
5.261
 20
4.988999999999999
 30
0.0
 11
5.246
 21
4.985
 31
0.0
  0
LINE
  5
87D
330
18
100
AcDbEntity
  8
Object
100
AcDbLine
 10
5.246
 20
4.985
 30
0.0
 11
5.195999999999999
 21
4.985
 31
0.0
  0
LINE
  5
87E
330
18
100
AcDbEntity
  8
Object
100
AcDbLine
 10
5.275999999999999
 20
5.016
 30
0.0
 11
5.275999999999999
 21
5.014999999999999
 31
0.0
  0
LINE
  5
87F
330
18
100
AcDbEntity
  8
Object
100
AcDbLine
 10
5.275999999999999
 20
5.014999999999999
 30
0.0
 11
5.272
 21
5.0
 31
0.0
  0
LINE
  5
880
330
18
100
AcDbEntity
  8
Object
100
AcDbLine
 10
5.272
 20
5.0
 30
0.0
 11
5.261
 21
4.988999999999999
 31
0.0
  0
LINE
  5
881
330
18
100
AcDbEntity
  8
Object
100
AcDbLine
 10
5.261
 20
4.988999999999999
 30
0.0
 11
5.246
 21
4.985
 31
0.0
  0
LINE
  5
882
330
18
100
AcDbEntity
  8
Object
100
AcDbLine
 10
5.333
 20
6.515
 30
0.0
 11
5.334999999999999
 21
6.52
 31
0.0
  0
LINE
  5
883
330
18
100
AcDbEntity
  8
Object
100
AcDbLine
 10
5.323999999999999
 20
6.506
 30
0.0
 11
5.328
 21
6.508
 31
0.0
  0
LINE
  5
884
330
18
100
AcDbEntity
  8
Object
100
AcDbLine
 10
5.333
 20
6.515
 30
0.0
 11
5.331
 21
6.512
 31
0.0
  0
LINE
  5
885
330
18
100
AcDbEntity
  8
Object
100
AcDbLine
 10
5.331
 20
6.512
 30
0.0
 11
5.328
 21
6.508
 31
0.0
  0
LINE
  5
886
330
18
100
AcDbEntity
  8
Object
100
AcDbLine
 10
3.346
 20
7.805
 30
0.0
 11
3.346
 21
6.908999999999999
 31
0.0
  0
LINE
  5
887
330
18
100
AcDbEntity
  8
Object
100
AcDbLine
 10
3.346
 20
6.908999999999999
 30
0.0
 11
3.346
 21
6.895
 31
0.0
  0
LINE
  5
888
330
18
100
AcDbEntity
  8
Object
100
AcDbLine
 10
3.346
 20
6.895
 30
0.0
 11
3.346
 21
6.881
 31
0.0
  0
LINE
  5
889
330
18
100
AcDbEntity
  8
Object
100
AcDbLine
 10
3.346
 20
6.881
 30
0.0
 11
3.346
 21
6.871999999999999
 31
0.0
  0
LINE
  5
88A
330
18
100
AcDbEntity
  8
Object
100
AcDbLine
 10
3.346
 20
6.871999999999999
 30
0.0
 11
3.346
 21
6.868999999999999
 31
0.0
  0
LINE
  5
88B
330
18
100
AcDbEntity
  8
Object
100
AcDbLine
 10
3.346
 20
6.868999999999999
 30
0.0
 11
3.346
 21
6.86
 31
0.0
  0
LINE
  5
88C
330
18
100
AcDbEntity
  8
Object
100
AcDbLine
 10
3.346
 20
7.828
 30
0.0
 11
3.346
 21
7.805
 31
0.0
  0
LINE
  5
88D
330
18
100
AcDbEntity
  8
Object
100
AcDbLine
 10
3.346
 20
6.868999999999999
 30
0.0
 11
3.426
 21
6.871999999999999
 31
0.0
  0
LINE
  5
88E
330
18
100
AcDbEntity
  8
Object
100
AcDbLine
 10
3.426
 20
6.871999999999999
 30
0.0
 11
3.426
 21
6.875
 31
0.0
  0
LINE
  5
88F
330
18
100
AcDbEntity
  8
Object
100
AcDbLine
 10
3.426
 20
6.897
 30
0.0
 11
3.426
 21
6.884
 31
0.0
  0
LINE
  5
890
330
18
100
AcDbEntity
  8
Object
100
AcDbLine
 10
3.426
 20
6.884
 30
0.0
 11
3.426
 21
6.875
 31
0.0
  0
LINE
  5
891
330
18
100
AcDbEntity
  8
Object
100
AcDbLine
 10
3.426
 20
6.897
 30
0.0
 11
3.426
 21
6.911999999999999
 31
0.0
  0
LINE
  5
892
330
18
100
AcDbEntity
  8
Object
100
AcDbLine
 10
3.426
 20
6.911999999999999
 30
0.0
 11
3.426
 21
7.725
 31
0.0
  0
LINE
  5
893
330
18
100
AcDbEntity
  8
Object
100
AcDbLine
 10
3.426
 20
7.725
 30
0.0
 11
3.346
 21
7.805
 31
0.0
  0
LINE
  5
894
330
18
100
AcDbEntity
  8
Object
100
AcDbLine
 10
3.426
 20
7.725
 30
0.0
 11
3.426
 21
6.911999999999999
 31
0.0
  0
LINE
  5
895
330
18
100
AcDbEntity
  8
Object
100
AcDbLine
 10
3.426
 20
6.911999999999999
 30
0.0
 11
3.346
 21
6.908999999999999
 31
0.0
  0
LINE
  5
896
330
18
100
AcDbEntity
  8
Object
100
AcDbLine
 10
3.346
 20
6.908999999999999
 30
0.0
 11
3.346
 21
7.805
 31
0.0
  0
LINE
  5
897
330
18
100
AcDbEntity
  8
Object
100
AcDbLine
 10
3.346
 20
7.805
 30
0.0
 11
3.426
 21
7.725
 31
0.0
  0
LINE
  5
898
330
18
100
AcDbEntity
  8
Object
100
AcDbLine
 10
3.426
 20
6.875
 30
0.0
 11
3.426
 21
6.884
 31
0.0
  0
LINE
  5
899
330
18
100
AcDbEntity
  8
Object
100
AcDbLine
 10
3.346
 20
6.871999999999999
 30
0.0
 11
3.346
 21
6.881
 31
0.0
  0
LINE
  5
89A
330
18
100
AcDbEntity
  8
Object
100
AcDbLine
 10
3.346
 20
6.881
 30
0.0
 11
3.346
 21
6.895
 31
0.0
  0
LINE
  5
89B
330
18
100
AcDbEntity
  8
Object
100
AcDbLine
 10
3.346
 20
6.895
 30
0.0
 11
3.346
 21
6.908999999999999
 31
0.0
  0
LINE
  5
89C
330
18
100
AcDbEntity
  8
Object
100
AcDbLine
 10
3.426
 20
6.911999999999999
 30
0.0
 11
3.426
 21
6.897
 31
0.0
  0
LINE
  5
89D
330
18
100
AcDbEntity
  8
Object
100
AcDbLine
 10
3.426
 20
6.897
 30
0.0
 11
3.426
 21
6.884
 31
0.0
  0
LINE
  5
89E
330
18
100
AcDbEntity
  8
Object
100
AcDbLine
 10
3.346
 20
6.871999999999999
 30
0.0
 11
3.346
 21
6.868999999999999
 31
0.0
  0
LINE
  5
89F
330
18
100
AcDbEntity
  8
Object
100
AcDbLine
 10
3.426
 20
6.875
 30
0.0
 11
3.426
 21
6.871999999999999
 31
0.0
  0
LINE
  5
8A0
330
18
100
AcDbEntity
  8
Object
100
AcDbLine
 10
3.426
 20
6.871999999999999
 30
0.0
 11
3.346
 21
6.868999999999999
 31
0.0
  0
LINE
  5
8A1
330
18
100
AcDbEntity
  8
Object
100
AcDbLine
 10
8.336999999999999
 20
11.878
 30
0.0
 11
8.335
 21
11.878
 31
0.0
  0
LINE
  5
8A2
330
18
100
AcDbEntity
  8
Object
100
AcDbLine
 10
8.335
 20
11.878
 30
0.0
 11
8.330999999999999
 21
11.878
 31
0.0
  0
LINE
  5
8A3
330
18
100
AcDbEntity
  8
Object
100
AcDbLine
 10
8.330999999999999
 20
11.878
 30
0.0
 11
8.327999999999999
 21
11.878
 31
0.0
  0
LINE
  5
8A4
330
18
100
AcDbEntity
  8
Object
100
AcDbLine
 10
8.327999999999999
 20
11.878
 30
0.0
 11
7.355999999999999
 21
11.878
 31
0.0
  0
LINE
  5
8A5
330
18
100
AcDbEntity
  8
Object
100
AcDbLine
 10
7.355999999999999
 20
11.878
 30
0.0
 11
7.350999999999999
 21
11.878
 31
0.0
  0
LINE
  5
8A6
330
18
100
AcDbEntity
  8
Object
100
AcDbLine
 10
7.350999999999999
 20
11.878
 30
0.0
 11
7.347
 21
11.878
 31
0.0
  0
LINE
  5
8A7
330
18
100
AcDbEntity
  8
Object
100
AcDbLine
 10
7.342999999999999
 20
11.879
 30
0.0
 11
7.342999999999999
 21
11.878
 31
0.0
  0
LINE
  5
8A8
330
18
100
AcDbEntity
  8
Object
100
AcDbLine
 10
7.342999999999999
 20
11.878
 30
0.0
 11
7.347
 21
11.878
 31
0.0
  0
LINE
  5
8A9
330
18
100
AcDbEntity
  8
Object
100
AcDbLine
 10
7.342
 20
11.878
 30
0.0
 11
7.342999999999999
 21
11.878
 31
0.0
  0
LINE
  5
8AA
330
18
100
AcDbEntity
  8
Object
100
AcDbLine
 10
7.352
 20
11.869
 30
0.0
 11
7.347
 21
11.874
 31
0.0
  0
LINE
  5
8AB
330
18
100
AcDbEntity
  8
Object
100
AcDbLine
 10
7.344
 20
11.877
 30
0.0
 11
7.342999999999999
 21
11.878
 31
0.0
  0
LINE
  5
8AC
330
18
100
AcDbEntity
  8
Object
100
AcDbLine
 10
7.342999999999999
 20
11.878
 30
0.0
 11
7.342
 21
11.878
 31
0.0
  0
LINE
  5
8AD
330
18
100
AcDbEntity
  8
Object
100
AcDbLine
 10
7.347
 20
11.874
 30
0.0
 11
7.344
 21
11.877
 31
0.0
  0
LINE
  5
8AE
330
18
100
AcDbEntity
  8
Object
100
AcDbLine
 10
7.355999999999999
 20
11.864
 30
0.0
 11
7.357
 21
11.864
 31
0.0
  0
LINE
  5
8AF
330
18
100
AcDbEntity
  8
Object
100
AcDbLine
 10
7.357
 20
11.864
 30
0.0
 11
7.352
 21
11.869
 31
0.0
  0
LINE
  5
8B0
330
18
100
AcDbEntity
  8
Object
100
AcDbLine
 10
8.339999999999999
 20
11.94
 30
0.0
 11
8.339999999999999
 21
11.946
 31
0.0
  0
LINE
  5
8B1
330
18
100
AcDbEntity
  8
Object
100
AcDbLine
 10
8.339999999999999
 20
11.946
 30
0.0
 11
8.339999999999999
 21
11.948
 31
0.0
  0
LINE
  5
8B2
330
18
100
AcDbEntity
  8
Object
100
AcDbLine
 10
8.339999999999999
 20
11.94
 30
0.0
 11
8.339
 21
11.93
 31
0.0
  0
LINE
  5
8B3
330
18
100
AcDbEntity
  8
Object
100
AcDbLine
 10
8.339
 20
11.93
 30
0.0
 11
8.339
 21
11.919
 31
0.0
  0
LINE
  5
8B4
330
18
100
AcDbEntity
  8
Object
100
AcDbLine
 10
8.339
 20
11.936
 30
0.0
 11
8.339999999999999
 21
11.948
 31
0.0
  0
LINE
  5
8B5
330
18
100
AcDbEntity
  8
Object
100
AcDbLine
 10
8.336999999999999
 20
11.866
 30
0.0
 11
8.336999999999999
 21
11.869
 31
0.0
  0
LINE
  5
8B6
330
18
100
AcDbEntity
  8
Object
100
AcDbLine
 10
8.336999999999999
 20
11.869
 30
0.0
 11
8.336999999999999
 21
11.874
 31
0.0
  0
LINE
  5
8B7
330
18
100
AcDbEntity
  8
Object
100
AcDbLine
 10
8.339
 20
11.919
 30
0.0
 11
8.333999999999999
 21
11.788
 31
0.0
  0
LINE
  5
8B8
330
18
100
AcDbEntity
  8
Object
100
AcDbLine
 10
10.193
 20
11.598
 30
0.0
 11
10.193
 21
11.919
 31
0.0
  0
LINE
  5
8B9
330
18
100
AcDbEntity
  8
Object
100
AcDbLine
 10
10.193
 20
11.919
 30
0.0
 11
10.193
 21
11.934
 31
0.0
  0
LINE
  5
8BA
330
18
100
AcDbEntity
  8
Object
100
AcDbLine
 10
10.193
 20
11.934
 30
0.0
 11
10.193
 21
11.944
 31
0.0
  0
LINE
  5
8BB
330
18
100
AcDbEntity
  8
Object
100
AcDbLine
 10
10.193
 20
11.944
 30
0.0
 11
10.193
 21
11.948
 31
0.0
  0
LINE
  5
8BC
330
18
100
AcDbEntity
  8
Object
100
AcDbLine
 10
7.363
 20
11.858
 30
0.0
 11
7.357
 21
11.864
 31
0.0
  0
LINE
  5
8BD
330
18
100
AcDbEntity
  8
Object
100
AcDbLine
 10
7.357
 20
11.864
 30
0.0
 11
7.352
 21
11.869
 31
0.0
  0
LINE
  5
8BE
330
18
100
AcDbEntity
  8
Object
100
AcDbLine
 10
7.352
 20
11.869
 30
0.0
 11
7.347
 21
11.874
 31
0.0
  0
LINE
  5
8BF
330
18
100
AcDbEntity
  8
Object
100
AcDbLine
 10
7.347
 20
11.874
 30
0.0
 11
7.344
 21
11.877
 31
0.0
  0
LINE
  5
8C0
330
18
100
AcDbEntity
  8
Object
100
AcDbLine
 10
7.344
 20
11.877
 30
0.0
 11
7.342999999999999
 21
11.878
 31
0.0
  0
LINE
  5
8C1
330
18
100
AcDbEntity
  8
Object
100
AcDbLine
 10
7.44
 20
11.781
 30
0.0
 11
7.301
 21
11.919
 31
0.0
  0
LINE
  5
8C2
330
18
100
AcDbEntity
  8
Object
100
AcDbLine
 10
7.301
 20
11.919
 30
0.0
 11
7.291
 21
11.93
 31
0.0
  0
LINE
  5
8C3
330
18
100
AcDbEntity
  8
Object
100
AcDbLine
 10
7.291
 20
11.93
 30
0.0
 11
7.281
 21
11.94
 31
0.0
  0
LINE
  5
8C4
330
18
100
AcDbEntity
  8
Object
100
AcDbLine
 10
7.281
 20
11.94
 30
0.0
 11
7.275
 21
11.946
 31
0.0
  0
LINE
  5
8C5
330
18
100
AcDbEntity
  8
Object
100
AcDbLine
 10
7.275
 20
11.946
 30
0.0
 11
7.273
 21
11.948
 31
0.0
  0
LINE
  5
8C6
330
18
100
AcDbEntity
  8
Object
100
AcDbLine
 10
7.291
 20
11.93
 30
0.0
 11
7.342999999999999
 21
11.878
 31
0.0
  0
LINE
  5
8C7
330
18
100
AcDbEntity
  8
Object
100
AcDbLine
 10
8.339
 20
11.948
 30
0.0
 11
8.339999999999999
 21
11.948
 31
0.0
  0
LINE
  5
8C8
330
18
100
AcDbEntity
  8
Object
100
AcDbLine
 10
8.339999999999999
 20
11.948
 30
0.0
 11
8.339
 21
11.936
 31
0.0
  0
LINE
  5
8C9
330
18
100
AcDbEntity
  8
Object
100
AcDbLine
 10
8.333
 20
11.878
 30
0.0
 11
8.342
 21
11.878
 31
0.0
  0
LINE
  5
8CA
330
18
100
AcDbEntity
  8
Object
100
AcDbLine
 10
8.339
 20
11.948
 30
0.0
 11
8.336999999999999
 21
11.948
 31
0.0
  0
LINE
  5
8CB
330
18
100
AcDbEntity
  8
Object
100
AcDbLine
 10
8.335
 20
11.878
 30
0.0
 11
8.336999999999999
 21
11.878
 31
0.0
  0
LINE
  5
8CC
330
18
100
AcDbEntity
  8
Object
100
AcDbLine
 10
8.336999999999999
 20
11.948
 30
0.0
 11
8.333999999999999
 21
11.948
 31
0.0
  0
LINE
  5
8CD
330
18
100
AcDbEntity
  8
Object
100
AcDbLine
 10
8.330999999999999
 20
11.878
 30
0.0
 11
8.335
 21
11.878
 31
0.0
  0
LINE
  5
8CE
330
18
100
AcDbEntity
  8
Object
100
AcDbLine
 10
8.333999999999999
 20
11.948
 30
0.0
 11
8.33
 21
11.948
 31
0.0
  0
LINE
  5
8CF
330
18
100
AcDbEntity
  8
Object
100
AcDbLine
 10
8.330999999999999
 20
11.878
 30
0.0
 11
8.327999999999999
 21
11.878
 31
0.0
  0
LINE
  5
8D0
330
18
100
AcDbEntity
  8
Object
100
AcDbLine
 10
8.327999999999999
 20
11.878
 30
0.0
 11
8.33
 21
11.948
 31
0.0
  0
LINE
  5
8D1
330
18
100
AcDbEntity
  8
Object
100
AcDbLine
 10
8.327999999999999
 20
11.878
 30
0.0
 11
7.355999999999999
 21
11.878
 31
0.0
  0
LINE
  5
8D2
330
18
100
AcDbEntity
  8
Object
100
AcDbLine
 10
7.355999999999999
 20
11.878
 30
0.0
 11
7.286
 21
11.948
 31
0.0
  0
LINE
  5
8D3
330
18
100
AcDbEntity
  8
Object
100
AcDbLine
 10
7.286
 20
11.948
 30
0.0
 11
8.33
 21
11.948
 31
0.0
  0
LINE
  5
8D4
330
18
100
AcDbEntity
  8
Object
100
AcDbLine
 10
8.336999999999999
 20
11.869
 30
0.0
 11
8.336999999999999
 21
11.874
 31
0.0
  0
LINE
  5
8D5
330
18
100
AcDbEntity
  8
Object
100
AcDbLine
 10
8.336999999999999
 20
11.869
 30
0.0
 11
8.336999999999999
 21
11.866
 31
0.0
  0
LINE
  5
8D6
330
18
100
AcDbEntity
  8
Object
100
AcDbLine
 10
7.355999999999999
 20
11.878
 30
0.0
 11
7.350999999999999
 21
11.878
 31
0.0
  0
LINE
  5
8D7
330
18
100
AcDbEntity
  8
Object
100
AcDbLine
 10
7.350999999999999
 20
11.878
 30
0.0
 11
7.347
 21
11.878
 31
0.0
  0
LINE
  5
8D8
330
18
100
AcDbEntity
  8
Object
100
AcDbLine
 10
7.286
 20
11.948
 30
0.0
 11
7.281
 21
11.948
 31
0.0
  0
LINE
  5
8D9
330
18
100
AcDbEntity
  8
Object
100
AcDbLine
 10
7.281
 20
11.948
 30
0.0
 11
7.277
 21
11.948
 31
0.0
  0
LINE
  5
8DA
330
18
100
AcDbEntity
  8
Object
100
AcDbLine
 10
7.347
 20
11.878
 30
0.0
 11
7.342999999999999
 21
11.878
 31
0.0
  0
LINE
  5
8DB
330
18
100
AcDbEntity
  8
Object
100
AcDbLine
 10
7.342999999999999
 20
11.878
 30
0.0
 11
7.291
 21
11.93
 31
0.0
  0
LINE
  5
8DC
330
18
100
AcDbEntity
  8
Object
100
AcDbLine
 10
7.277
 20
11.948
 30
0.0
 11
7.273
 21
11.948
 31
0.0
  0
LINE
  5
8DD
330
18
100
AcDbEntity
  8
Object
100
AcDbLine
 10
7.291
 20
11.93
 30
0.0
 11
7.342999999999999
 21
11.878
 31
0.0
  0
LINE
  5
8DE
330
18
100
AcDbEntity
  8
Object
100
AcDbLine
 10
7.342999999999999
 20
11.878
 30
0.0
 11
7.291
 21
11.93
 31
0.0
  0
LINE
  5
8DF
330
18
100
AcDbEntity
  8
Object
100
AcDbLine
 10
7.363
 20
11.858
 30
0.0
 11
7.357
 21
11.864
 31
0.0
  0
LINE
  5
8E0
330
18
100
AcDbEntity
  8
Object
100
AcDbLine
 10
10.193
 20
11.948
 30
0.0
 11
8.579
 21
11.948
 31
0.0
  0
LINE
  5
8E1
330
18
100
AcDbEntity
  8
Object
100
AcDbLine
 10
8.579
 20
11.948
 30
0.0
 11
8.464999999999999
 21
11.948
 31
0.0
  0
LINE
  5
8E2
330
18
100
AcDbEntity
  8
Object
100
AcDbLine
 10
8.464999999999999
 20
11.948
 30
0.0
 11
8.339999999999999
 21
11.948
 31
0.0
  0
LINE
  5
8E3
330
18
100
AcDbEntity
  8
Object
100
AcDbLine
 10
8.339999999999999
 20
11.948
 30
0.0
 11
8.339
 21
11.948
 31
0.0
  0
LINE
  5
8E4
330
18
100
AcDbEntity
  8
Object
100
AcDbLine
 10
8.339
 20
11.948
 30
0.0
 11
8.336999999999999
 21
11.948
 31
0.0
  0
LINE
  5
8E5
330
18
100
AcDbEntity
  8
Object
100
AcDbLine
 10
8.336999999999999
 20
11.948
 30
0.0
 11
8.333999999999999
 21
11.948
 31
0.0
  0
LINE
  5
8E6
330
18
100
AcDbEntity
  8
Object
100
AcDbLine
 10
8.333999999999999
 20
11.948
 30
0.0
 11
8.33
 21
11.948
 31
0.0
  0
LINE
  5
8E7
330
18
100
AcDbEntity
  8
Object
100
AcDbLine
 10
8.33
 20
11.948
 30
0.0
 11
7.286
 21
11.948
 31
0.0
  0
LINE
  5
8E8
330
18
100
AcDbEntity
  8
Object
100
AcDbLine
 10
7.286
 20
11.948
 30
0.0
 11
7.281
 21
11.948
 31
0.0
  0
LINE
  5
8E9
330
18
100
AcDbEntity
  8
Object
100
AcDbLine
 10
7.281
 20
11.948
 30
0.0
 11
7.277
 21
11.948
 31
0.0
  0
LINE
  5
8EA
330
18
100
AcDbEntity
  8
Object
100
AcDbLine
 10
7.277
 20
11.948
 30
0.0
 11
7.273
 21
11.948
 31
0.0
  0
LINE
  5
8EB
330
18
100
AcDbEntity
  8
Object
100
AcDbLine
 10
7.273
 20
11.948
 30
0.0
 11
7.249
 21
11.948
 31
0.0
  0
LINE
  5
8EC
330
18
100
AcDbEntity
  8
Object
100
AcDbLine
 10
8.922
 20
11.598
 30
0.0
 11
8.479
 21
11.919
 31
0.0
  0
LINE
  5
8ED
330
18
100
AcDbEntity
  8
Object
100
AcDbLine
 10
8.333999999999999
 20
11.784
 30
0.0
 11
8.333999999999999
 21
11.788
 31
0.0
  0
LINE
  5
8EE
330
18
100
AcDbEntity
  8
Object
100
AcDbLine
 10
8.333999999999999
 20
11.788
 30
0.0
 11
8.339
 21
11.919
 31
0.0
  0
LINE
  5
8EF
330
18
100
AcDbEntity
  8
Object
100
AcDbLine
 10
8.339
 20
11.919
 30
0.0
 11
8.479
 21
11.919
 31
0.0
  0
LINE
  5
8F0
330
18
100
AcDbEntity
  8
Object
100
AcDbLine
 10
8.333999999999999
 20
11.784
 30
0.0
 11
8.332
 21
11.782
 31
0.0
  0
LINE
  5
8F1
330
18
100
AcDbEntity
  8
Object
100
AcDbLine
 10
7.249
 20
11.598
 30
0.0
 11
8.922
 21
11.598
 31
0.0
  0
LINE
  5
8F2
330
18
100
AcDbEntity
  8
Object
100
AcDbLine
 10
7.249
 20
11.919
 30
0.0
 11
7.301
 21
11.919
 31
0.0
  0
LINE
  5
8F3
330
18
100
AcDbEntity
  8
Object
100
AcDbLine
 10
7.301
 20
11.919
 30
0.0
 11
7.44
 21
11.781
 31
0.0
  0
LINE
  5
8F4
330
18
100
AcDbEntity
  8
Object
100
AcDbLine
 10
7.44
 20
11.781
 30
0.0
 11
7.443
 21
11.779
 31
0.0
  0
LINE
  5
8F5
330
18
100
AcDbEntity
  8
Object
100
AcDbLine
 10
7.443
 20
11.779
 30
0.0
 11
7.447
 21
11.778
 31
0.0
  0
LINE
  5
8F6
330
18
100
AcDbEntity
  8
Object
100
AcDbLine
 10
7.447
 20
11.778
 30
0.0
 11
7.479
 21
11.778
 31
0.0
  0
LINE
  5
8F7
330
18
100
AcDbEntity
  8
Object
100
AcDbLine
 10
8.333999999999999
 20
11.788
 30
0.0
 11
8.333999999999999
 21
11.784
 31
0.0
  0
LINE
  5
8F8
330
18
100
AcDbEntity
  8
Object
100
AcDbLine
 10
8.333999999999999
 20
11.784
 30
0.0
 11
8.332
 21
11.782
 31
0.0
  0
LINE
  5
8F9
330
18
100
AcDbEntity
  8
Object
100
AcDbLine
 10
8.339999999999999
 20
11.946
 30
0.0
 11
8.339999999999999
 21
11.94
 31
0.0
  0
LINE
  5
8FA
330
18
100
AcDbEntity
  8
Object
100
AcDbLine
 10
8.468999999999999
 20
11.939
 30
0.0
 11
8.467
 21
11.946
 31
0.0
  0
LINE
  5
8FB
330
18
100
AcDbEntity
  8
Object
100
AcDbLine
 10
8.467
 20
11.946
 30
0.0
 11
8.464999999999999
 21
11.948
 31
0.0
  0
LINE
  5
8FC
330
18
100
AcDbEntity
  8
Object
100
AcDbLine
 10
8.339999999999999
 20
11.946
 30
0.0
 11
8.339999999999999
 21
11.948
 31
0.0
  0
LINE
  5
8FD
330
18
100
AcDbEntity
  8
Object
100
AcDbLine
 10
8.339999999999999
 20
11.948
 30
0.0
 11
8.464999999999999
 21
11.948
 31
0.0
  0
LINE
  5
8FE
330
18
100
AcDbEntity
  8
Object
100
AcDbLine
 10
8.468999999999999
 20
11.939
 30
0.0
 11
8.473
 21
11.93
 31
0.0
  0
LINE
  5
8FF
330
18
100
AcDbEntity
  8
Object
100
AcDbLine
 10
8.473
 20
11.93
 30
0.0
 11
8.479
 21
11.919
 31
0.0
  0
LINE
  5
900
330
18
100
AcDbEntity
  8
Object
100
AcDbLine
 10
8.339
 20
11.919
 30
0.0
 11
8.339
 21
11.93
 31
0.0
  0
LINE
  5
901
330
18
100
AcDbEntity
  8
Object
100
AcDbLine
 10
8.339
 20
11.93
 30
0.0
 11
8.339999999999999
 21
11.94
 31
0.0
  0
LINE
  5
902
330
18
100
AcDbEntity
  8
Object
100
AcDbLine
 10
10.193
 20
11.934
 30
0.0
 11
10.193
 21
11.919
 31
0.0
  0
LINE
  5
903
330
18
100
AcDbEntity
  8
Object
100
AcDbLine
 10
10.193
 20
11.919
 30
0.0
 11
8.621999999999999
 21
11.919
 31
0.0
  0
LINE
  5
904
330
18
100
AcDbEntity
  8
Object
100
AcDbLine
 10
8.621999999999999
 20
11.919
 30
0.0
 11
8.602
 21
11.93
 31
0.0
  0
LINE
  5
905
330
18
100
AcDbEntity
  8
Object
100
AcDbLine
 10
10.193
 20
11.934
 30
0.0
 11
10.193
 21
11.944
 31
0.0
  0
LINE
  5
906
330
18
100
AcDbEntity
  8
Object
100
AcDbLine
 10
8.586
 20
11.946
 30
0.0
 11
8.592
 21
11.939
 31
0.0
  0
LINE
  5
907
330
18
100
AcDbEntity
  8
Object
100
AcDbLine
 10
10.193
 20
11.944
 30
0.0
 11
10.193
 21
11.948
 31
0.0
  0
LINE
  5
908
330
18
100
AcDbEntity
  8
Object
100
AcDbLine
 10
8.586
 20
11.946
 30
0.0
 11
8.579
 21
11.948
 31
0.0
  0
LINE
  5
909
330
18
100
AcDbEntity
  8
Object
100
AcDbLine
 10
8.579
 20
11.948
 30
0.0
 11
10.193
 21
11.948
 31
0.0
  0
LINE
  5
90A
330
18
100
AcDbEntity
  8
Object
100
AcDbLine
 10
10.193
 20
11.919
 30
0.0
 11
10.193
 21
11.598
 31
0.0
  0
LINE
  5
90B
330
18
100
AcDbEntity
  8
Object
100
AcDbLine
 10
10.193
 20
11.598
 30
0.0
 11
9.064999999999999
 21
11.598
 31
0.0
  0
LINE
  5
90C
330
18
100
AcDbEntity
  8
Object
100
AcDbLine
 10
9.064999999999999
 20
11.598
 30
0.0
 11
10.193
 21
11.598
 31
0.0
  0
LINE
  5
90D
330
18
100
AcDbEntity
  8
Object
100
AcDbLine
 10
9.064999999999999
 20
11.598
 30
0.0
 11
9.051999999999999
 21
11.598
 31
0.0
  0
LINE
  5
90E
330
18
100
AcDbEntity
  8
Object
100
AcDbLine
 10
9.051999999999999
 20
11.598
 30
0.0
 11
9.043000000000001
 21
11.598
 31
0.0
  0
LINE
  5
90F
330
18
100
AcDbEntity
  8
Object
100
AcDbLine
 10
9.043000000000001
 20
11.598
 30
0.0
 11
8.944
 21
11.598
 31
0.0
  0
LINE
  5
910
330
18
100
AcDbEntity
  8
Object
100
AcDbLine
 10
8.944
 20
11.598
 30
0.0
 11
8.934000000000001
 21
11.598
 31
0.0
  0
LINE
  5
911
330
18
100
AcDbEntity
  8
Object
100
AcDbLine
 10
8.934000000000001
 20
11.598
 30
0.0
 11
8.922
 21
11.598
 31
0.0
  0
LINE
  5
912
330
18
100
AcDbEntity
  8
Object
100
AcDbLine
 10
8.922
 20
11.598
 30
0.0
 11
7.249
 21
11.598
 31
0.0
  0
LINE
  5
913
330
18
100
AcDbEntity
  8
Object
100
AcDbLine
 10
7.447
 20
11.778
 30
0.0
 11
7.443
 21
11.779
 31
0.0
  0
LINE
  5
914
330
18
100
AcDbEntity
  8
Object
100
AcDbLine
 10
7.443
 20
11.779
 30
0.0
 11
7.44
 21
11.781
 31
0.0
  0
LINE
  5
915
330
18
100
AcDbEntity
  8
Object
100
AcDbLine
 10
7.291
 20
11.93
 30
0.0
 11
7.281
 21
11.94
 31
0.0
  0
LINE
  5
916
330
18
100
AcDbEntity
  8
Object
100
AcDbLine
 10
7.249
 20
11.948
 30
0.0
 11
7.273
 21
11.948
 31
0.0
  0
LINE
  5
917
330
18
100
AcDbEntity
  8
Object
100
AcDbLine
 10
7.273
 20
11.948
 30
0.0
 11
7.275
 21
11.946
 31
0.0
  0
LINE
  5
918
330
18
100
AcDbEntity
  8
Object
100
AcDbLine
 10
7.275
 20
11.946
 30
0.0
 11
7.281
 21
11.94
 31
0.0
  0
LINE
  5
919
330
18
100
AcDbEntity
  8
Object
100
AcDbLine
 10
7.301
 20
11.919
 30
0.0
 11
7.291
 21
11.93
 31
0.0
  0
LINE
  5
91A
330
18
100
AcDbEntity
  8
Object
100
AcDbLine
 10
3.318999999999999
 20
6.860999999999999
 30
0.0
 11
3.318999999999999
 21
6.86
 31
0.0
  0
LINE
  5
91B
330
18
100
AcDbEntity
  8
Object
100
AcDbLine
 10
3.318999999999999
 20
6.86
 30
0.0
 11
3.318999999999999
 21
6.858999999999999
 31
0.0
  0
LINE
  5
91C
330
18
100
AcDbEntity
  8
Object
100
AcDbLine
 10
3.318999999999999
 20
6.86
 30
0.0
 11
3.318999999999999
 21
6.863
 31
0.0
  0
LINE
  5
91D
330
18
100
AcDbEntity
  8
Object
100
AcDbLine
 10
3.318999999999999
 20
6.863
 30
0.0
 11
3.318999999999999
 21
6.866
 31
0.0
  0
LINE
  5
91E
330
18
100
AcDbEntity
  8
Object
100
AcDbLine
 10
3.318999999999999
 20
6.866
 30
0.0
 11
3.318999999999999
 21
6.87
 31
0.0
  0
LINE
  5
91F
330
18
100
AcDbEntity
  8
Object
100
AcDbLine
 10
3.318999999999999
 20
6.87
 30
0.0
 11
3.318999999999999
 21
7.841
 31
0.0
  0
LINE
  5
920
330
18
100
AcDbEntity
  8
Object
100
AcDbLine
 10
3.318999999999999
 20
7.841
 30
0.0
 11
3.318999999999999
 21
7.846
 31
0.0
  0
LINE
  5
921
330
18
100
AcDbEntity
  8
Object
100
AcDbLine
 10
3.318999999999999
 20
7.850999999999999
 30
0.0
 11
3.318999999999999
 21
7.854
 31
0.0
  0
LINE
  5
922
330
18
100
AcDbEntity
  8
Object
100
AcDbLine
 10
3.318999999999999
 20
7.854
 30
0.0
 11
3.318999999999999
 21
7.855
 31
0.0
  0
LINE
  5
923
330
18
100
AcDbEntity
  8
Object
100
AcDbLine
 10
3.318999999999999
 20
7.846
 30
0.0
 11
3.318999999999999
 21
7.850999999999999
 31
0.0
  0
LINE
  5
924
330
18
100
AcDbEntity
  8
Object
100
AcDbLine
 10
4.671
 20
11.007
 30
0.0
 11
4.642999999999999
 21
10.982
 31
0.0
  0
LINE
  5
925
330
18
100
AcDbEntity
  8
Object
100
AcDbLine
 10
4.221
 20
10.561
 30
0.0
 11
4.19
 21
10.526
 31
0.0
  0
LINE
  5
926
330
18
100
AcDbEntity
  8
Object
100
AcDbLine
 10
7.479
 20
11.778
 30
0.0
 11
7.447
 21
11.778
 31
0.0
  0
LINE
  5
927
330
18
100
AcDbEntity
  8
Object
100
AcDbLine
 10
7.249
 20
11.948
 30
0.0
 11
6.998
 21
11.94
 31
0.0
  0
LINE
  5
928
330
18
100
AcDbEntity
  8
Object
100
AcDbLine
 10
6.998
 20
11.94
 30
0.0
 11
6.748
 21
11.917
 31
0.0
  0
LINE
  5
929
330
18
100
AcDbEntity
  8
Object
100
AcDbLine
 10
6.748
 20
11.917
 30
0.0
 11
6.499
 21
11.877
 31
0.0
  0
LINE
  5
92A
330
18
100
AcDbEntity
  8
Object
100
AcDbLine
 10
6.499
 20
11.877
 30
0.0
 11
6.254
 21
11.823
 31
0.0
  0
LINE
  5
92B
330
18
100
AcDbEntity
  8
Object
100
AcDbLine
 10
6.254
 20
11.823
 30
0.0
 11
6.012999999999999
 21
11.752
 31
0.0
  0
LINE
  5
92C
330
18
100
AcDbEntity
  8
Object
100
AcDbLine
 10
6.012999999999999
 20
11.752
 30
0.0
 11
5.775999999999999
 21
11.667
 31
0.0
  0
LINE
  5
92D
330
18
100
AcDbEntity
  8
Object
100
AcDbLine
 10
5.775999999999999
 20
11.667
 30
0.0
 11
5.546
 21
11.568
 31
0.0
  0
LINE
  5
92E
330
18
100
AcDbEntity
  8
Object
100
AcDbLine
 10
5.546
 20
11.568
 30
0.0
 11
5.322
 21
11.453
 31
0.0
  0
LINE
  5
92F
330
18
100
AcDbEntity
  8
Object
100
AcDbLine
 10
5.322
 20
11.453
 30
0.0
 11
5.105999999999999
 21
11.326
 31
0.0
  0
LINE
  5
930
330
18
100
AcDbEntity
  8
Object
100
AcDbLine
 10
5.105999999999999
 20
11.326
 30
0.0
 11
4.897999999999999
 21
11.184
 31
0.0
  0
LINE
  5
931
330
18
100
AcDbEntity
  8
Object
100
AcDbLine
 10
4.897999999999999
 20
11.184
 30
0.0
 11
4.698999999999999
 21
11.03
 31
0.0
  0
LINE
  5
932
330
18
100
AcDbEntity
  8
Object
100
AcDbLine
 10
4.698999999999999
 20
11.03
 30
0.0
 11
4.671
 21
11.007
 31
0.0
  0
LINE
  5
933
330
18
100
AcDbEntity
  8
Object
100
AcDbLine
 10
4.671
 20
11.007
 30
0.0
 11
4.698999999999999
 21
11.03
 31
0.0
  0
LINE
  5
934
330
18
100
AcDbEntity
  8
Object
100
AcDbLine
 10
4.698999999999999
 20
11.03
 30
0.0
 11
4.645
 21
10.982
 31
0.0
  0
LINE
  5
935
330
18
100
AcDbEntity
  8
Object
100
AcDbLine
 10
4.19
 20
10.526
 30
0.0
 11
4.166999999999999
 21
10.498
 31
0.0
  0
LINE
  5
936
330
18
100
AcDbEntity
  8
Object
100
AcDbLine
 10
4.166999999999999
 20
10.498
 30
0.0
 11
4.221
 21
10.559
 31
0.0
  0
LINE
  5
937
330
18
100
AcDbEntity
  8
Object
100
AcDbLine
 10
4.19
 20
10.526
 30
0.0
 11
4.166999999999999
 21
10.498
 31
0.0
  0
LINE
  5
938
330
18
100
AcDbEntity
  8
Object
100
AcDbLine
 10
4.166999999999999
 20
10.498
 30
0.0
 11
4.012999999999999
 21
10.299
 31
0.0
  0
LINE
  5
939
330
18
100
AcDbEntity
  8
Object
100
AcDbLine
 10
4.012999999999999
 20
10.299
 30
0.0
 11
3.871999999999999
 21
10.092
 31
0.0
  0
LINE
  5
93A
330
18
100
AcDbEntity
  8
Object
100
AcDbLine
 10
3.871999999999999
 20
10.092
 30
0.0
 11
3.744
 21
9.875
 31
0.0
  0
LINE
  5
93B
330
18
100
AcDbEntity
  8
Object
100
AcDbLine
 10
3.744
 20
9.875
 30
0.0
 11
3.629
 21
9.650999999999999
 31
0.0
  0
LINE
  5
93C
330
18
100
AcDbEntity
  8
Object
100
AcDbLine
 10
3.629
 20
9.650999999999999
 30
0.0
 11
3.53
 21
9.420999999999999
 31
0.0
  0
LINE
  5
93D
330
18
100
AcDbEntity
  8
Object
100
AcDbLine
 10
3.53
 20
9.420999999999999
 30
0.0
 11
3.445
 21
9.184000000000001
 31
0.0
  0
LINE
  5
93E
330
18
100
AcDbEntity
  8
Object
100
AcDbLine
 10
3.445
 20
9.184000000000001
 30
0.0
 11
3.374
 21
8.942999999999999
 31
0.0
  0
LINE
  5
93F
330
18
100
AcDbEntity
  8
Object
100
AcDbLine
 10
3.374
 20
8.942999999999999
 30
0.0
 11
3.32
 21
8.698
 31
0.0
  0
LINE
  5
940
330
18
100
AcDbEntity
  8
Object
100
AcDbLine
 10
3.32
 20
8.698
 30
0.0
 11
3.28
 21
8.449999999999999
 31
0.0
  0
LINE
  5
941
330
18
100
AcDbEntity
  8
Object
100
AcDbLine
 10
3.28
 20
8.449999999999999
 30
0.0
 11
3.257
 21
8.198999999999999
 31
0.0
  0
LINE
  5
942
330
18
100
AcDbEntity
  8
Object
100
AcDbLine
 10
3.257
 20
8.198999999999999
 30
0.0
 11
3.249
 21
7.948
 31
0.0
  0
LINE
  5
943
330
18
100
AcDbEntity
  8
Object
100
AcDbLine
 10
8.582
 20
11.946
 30
0.0
 11
8.585
 21
11.939
 31
0.0
  0
LINE
  5
944
330
18
100
AcDbEntity
  8
Object
100
AcDbLine
 10
8.585
 20
11.939
 30
0.0
 11
8.477
 21
11.939
 31
0.0
  0
LINE
  5
945
330
18
100
AcDbEntity
  8
Object
100
AcDbLine
 10
8.477
 20
11.939
 30
0.0
 11
8.471
 21
11.946
 31
0.0
  0
LINE
  5
946
330
18
100
AcDbEntity
  8
Object
100
AcDbLine
 10
8.471
 20
11.946
 30
0.0
 11
8.464999999999999
 21
11.948
 31
0.0
  0
LINE
  5
947
330
18
100
AcDbEntity
  8
Object
100
AcDbLine
 10
8.464999999999999
 20
11.948
 30
0.0
 11
8.579
 21
11.948
 31
0.0
  0
LINE
  5
948
330
18
100
AcDbEntity
  8
Object
100
AcDbLine
 10
8.579
 20
11.948
 30
0.0
 11
8.582
 21
11.946
 31
0.0
  0
LINE
  5
949
330
18
100
AcDbEntity
  8
Object
100
AcDbLine
 10
7.009999999999999
 20
11.59
 30
0.0
 11
7.249
 21
11.598
 31
0.0
  0
LINE
  5
94A
330
18
100
AcDbEntity
  8
Object
100
AcDbLine
 10
7.249
 20
11.598
 30
0.0
 11
7.249
 21
11.919
 31
0.0
  0
LINE
  5
94B
330
18
100
AcDbEntity
  8
Object
100
AcDbLine
 10
7.009999999999999
 20
11.59
 30
0.0
 11
6.773
 21
11.567
 31
0.0
  0
LINE
  5
94C
330
18
100
AcDbEntity
  8
Object
100
AcDbLine
 10
6.773
 20
11.567
 30
0.0
 11
6.536999999999999
 21
11.528
 31
0.0
  0
LINE
  5
94D
330
18
100
AcDbEntity
  8
Object
100
AcDbLine
 10
6.751
 20
11.888
 30
0.0
 11
6.504999999999999
 21
11.849
 31
0.0
  0
LINE
  5
94E
330
18
100
AcDbEntity
  8
Object
100
AcDbLine
 10
6.536999999999999
 20
11.528
 30
0.0
 11
6.304
 21
11.474
 31
0.0
  0
LINE
  5
94F
330
18
100
AcDbEntity
  8
Object
100
AcDbLine
 10
6.304
 20
11.474
 30
0.0
 11
6.076
 21
11.405
 31
0.0
  0
LINE
  5
950
330
18
100
AcDbEntity
  8
Object
100
AcDbLine
 10
6.261
 20
11.795
 30
0.0
 11
6.022
 21
11.725
 31
0.0
  0
LINE
  5
951
330
18
100
AcDbEntity
  8
Object
100
AcDbLine
 10
5.852
 20
11.32
 30
0.0
 11
6.076
 21
11.405
 31
0.0
  0
LINE
  5
952
330
18
100
AcDbEntity
  8
Object
100
AcDbLine
 10
5.786999999999999
 20
11.64
 30
0.0
 11
5.557999999999999
 21
11.541
 31
0.0
  0
LINE
  5
953
330
18
100
AcDbEntity
  8
Object
100
AcDbLine
 10
5.634999999999999
 20
11.222
 30
0.0
 11
5.852
 21
11.32
 31
0.0
  0
LINE
  5
954
330
18
100
AcDbEntity
  8
Object
100
AcDbLine
 10
5.557999999999999
 20
11.541
 30
0.0
 11
5.336
 21
11.428
 31
0.0
  0
LINE
  5
955
330
18
100
AcDbEntity
  8
Object
100
AcDbLine
 10
5.634999999999999
 20
11.222
 30
0.0
 11
5.424
 21
11.109
 31
0.0
  0
LINE
  5
956
330
18
100
AcDbEntity
  8
Object
100
AcDbLine
 10
5.424
 20
11.109
 30
0.0
 11
5.221
 21
10.983
 31
0.0
  0
LINE
  5
957
330
18
100
AcDbEntity
  8
Object
100
AcDbLine
 10
5.336
 20
11.428
 30
0.0
 11
5.121
 21
11.301
 31
0.0
  0
LINE
  5
958
330
18
100
AcDbEntity
  8
Object
100
AcDbLine
 10
5.221
 20
10.983
 30
0.0
 11
5.027
 21
10.844
 31
0.0
  0
LINE
  5
959
330
18
100
AcDbEntity
  8
Object
100
AcDbLine
 10
5.027
 20
10.844
 30
0.0
 11
4.842
 21
10.692
 31
0.0
  0
LINE
  5
95A
330
18
100
AcDbEntity
  8
Object
100
AcDbLine
 10
4.915
 20
11.161
 30
0.0
 11
4.717999999999999
 21
11.008
 31
0.0
  0
LINE
  5
95B
330
18
100
AcDbEntity
  8
Object
100
AcDbLine
 10
4.717999999999999
 20
11.008
 30
0.0
 11
4.53
 21
10.843
 31
0.0
  0
LINE
  5
95C
330
18
100
AcDbEntity
  8
Object
100
AcDbLine
 10
4.842
 20
10.692
 30
0.0
 11
4.668
 21
10.529
 31
0.0
  0
LINE
  5
95D
330
18
100
AcDbEntity
  8
Object
100
AcDbLine
 10
4.668
 20
10.529
 30
0.0
 11
4.504999999999999
 21
10.355
 31
0.0
  0
LINE
  5
95E
330
18
100
AcDbEntity
  8
Object
100
AcDbLine
 10
4.354
 20
10.667
 30
0.0
 11
4.189
 21
10.479
 31
0.0
  0
LINE
  5
95F
330
18
100
AcDbEntity
  8
Object
100
AcDbLine
 10
4.352999999999999
 20
10.17
 30
0.0
 11
4.504999999999999
 21
10.355
 31
0.0
  0
LINE
  5
960
330
18
100
AcDbEntity
  8
Object
100
AcDbLine
 10
4.189
 20
10.479
 30
0.0
 11
4.036
 21
10.282
 31
0.0
  0
LINE
  5
961
330
18
100
AcDbEntity
  8
Object
100
AcDbLine
 10
4.352999999999999
 20
10.17
 30
0.0
 11
4.214
 21
9.976
 31
0.0
  0
LINE
  5
962
330
18
100
AcDbEntity
  8
Object
100
AcDbLine
 10
4.214
 20
9.976
 30
0.0
 11
4.088
 21
9.772999999999999
 31
0.0
  0
LINE
  5
963
330
18
100
AcDbEntity
  8
Object
100
AcDbLine
 10
4.088
 20
9.772999999999999
 30
0.0
 11
3.975
 21
9.563
 31
0.0
  0
LINE
  5
964
330
18
100
AcDbEntity
  8
Object
100
AcDbLine
 10
3.895999999999999
 20
10.076
 30
0.0
 11
3.769
 21
9.861
 31
0.0
  0
LINE
  5
965
330
18
100
AcDbEntity
  8
Object
100
AcDbLine
 10
3.769
 20
9.861
 30
0.0
 11
3.656
 21
9.638999999999999
 31
0.0
  0
LINE
  5
966
330
18
100
AcDbEntity
  8
Object
100
AcDbLine
 10
3.975
 20
9.563
 30
0.0
 11
3.877
 21
9.345
 31
0.0
  0
LINE
  5
967
330
18
100
AcDbEntity
  8
Object
100
AcDbLine
 10
3.877
 20
9.345
 30
0.0
 11
3.793
 21
9.121999999999999
 31
0.0
  0
LINE
  5
968
330
18
100
AcDbEntity
  8
Object
100
AcDbLine
 10
3.656
 20
9.638999999999999
 30
0.0
 11
3.556999999999999
 21
9.41
 31
0.0
  0
LINE
  5
969
330
18
100
AcDbEntity
  8
Object
100
AcDbLine
 10
3.556999999999999
 20
9.41
 30
0.0
 11
3.471999999999999
 21
9.175
 31
0.0
  0
LINE
  5
96A
330
18
100
AcDbEntity
  8
Object
100
AcDbLine
 10
3.793
 20
9.121999999999999
 30
0.0
 11
3.722999999999999
 21
8.893
 31
0.0
  0
LINE
  5
96B
330
18
100
AcDbEntity
  8
Object
100
AcDbLine
 10
3.722999999999999
 20
8.893
 30
0.0
 11
3.669
 21
8.66
 31
0.0
  0
LINE
  5
96C
330
18
100
AcDbEntity
  8
Object
100
AcDbLine
 10
3.402
 20
8.935999999999999
 30
0.0
 11
3.347999999999999
 21
8.692
 31
0.0
  0
LINE
  5
96D
330
18
100
AcDbEntity
  8
Object
100
AcDbLine
 10
3.669
 20
8.66
 30
0.0
 11
3.629999999999999
 21
8.425
 31
0.0
  0
LINE
  5
96E
330
18
100
AcDbEntity
  8
Object
100
AcDbLine
 10
3.629999999999999
 20
8.425
 30
0.0
 11
3.607
 21
8.186999999999999
 31
0.0
  0
LINE
  5
96F
330
18
100
AcDbEntity
  8
Object
100
AcDbLine
 10
3.347999999999999
 20
8.692
 30
0.0
 11
3.309
 21
8.445999999999999
 31
0.0
  0
LINE
  5
970
330
18
100
AcDbEntity
  8
Object
100
AcDbLine
 10
3.309
 20
8.445999999999999
 30
0.0
 11
3.286
 21
8.198
 31
0.0
  0
LINE
  5
971
330
18
100
AcDbEntity
  8
Object
100
AcDbLine
 10
3.607
 20
8.186999999999999
 30
0.0
 11
3.599
 21
7.948
 31
0.0
  0
LINE
  5
972
330
18
100
AcDbEntity
  8
Object
100
AcDbLine
 10
3.599
 20
7.948
 30
0.0
 11
3.278
 21
7.948
 31
0.0
  0
LINE
  5
973
330
18
100
AcDbEntity
  8
Object
100
AcDbLine
 10
8.487
 20
11.929
 30
0.0
 11
8.944
 21
11.598
 31
0.0
  0
LINE
  5
974
330
18
100
AcDbEntity
  8
Object
100
AcDbLine
 10
8.944
 20
11.598
 30
0.0
 11
8.934000000000001
 21
11.598
 31
0.0
  0
LINE
  5
975
330
18
100
AcDbEntity
  8
Object
100
AcDbLine
 10
8.934000000000001
 20
11.598
 30
0.0
 11
8.922
 21
11.598
 31
0.0
  0
LINE
  5
976
330
18
100
AcDbEntity
  8
Object
100
AcDbLine
 10
8.471999999999999
 20
11.94
 30
0.0
 11
8.474999999999999
 21
11.94
 31
0.0
  0
LINE
  5
977
330
18
100
AcDbEntity
  8
Object
100
AcDbLine
 10
8.474999999999999
 20
11.94
 30
0.0
 11
8.477
 21
11.939
 31
0.0
  0
LINE
  5
978
330
18
100
AcDbEntity
  8
Object
100
AcDbLine
 10
8.468999999999999
 20
11.939
 30
0.0
 11
8.471999999999999
 21
11.94
 31
0.0
  0
LINE
  5
979
330
18
100
AcDbEntity
  8
Object
100
AcDbLine
 10
8.484999999999999
 20
11.927
 30
0.0
 11
8.487
 21
11.929
 31
0.0
  0
LINE
  5
97A
330
18
100
AcDbEntity
  8
Object
100
AcDbLine
 10
8.48
 20
11.935
 30
0.0
 11
8.477999999999999
 21
11.937
 31
0.0
  0
LINE
  5
97B
330
18
100
AcDbEntity
  8
Object
100
AcDbLine
 10
8.481999999999999
 20
11.923
 30
0.0
 11
8.484999999999999
 21
11.927
 31
0.0
  0
LINE
  5
97C
330
18
100
AcDbEntity
  8
Object
100
AcDbLine
 10
8.477999999999999
 20
11.937
 30
0.0
 11
8.477
 21
11.939
 31
0.0
  0
LINE
  5
97D
330
18
100
AcDbEntity
  8
Object
100
AcDbLine
 10
8.479
 20
11.919
 30
0.0
 11
8.481999999999999
 21
11.923
 31
0.0
  0
LINE
  5
97E
330
18
100
AcDbEntity
  8
Object
100
AcDbLine
 10
8.621999999999999
 20
11.919
 30
0.0
 11
8.618999999999999
 21
11.915
 31
0.0
  0
LINE
  5
97F
330
18
100
AcDbEntity
  8
Object
100
AcDbLine
 10
8.618999999999999
 20
11.915
 30
0.0
 11
8.615999999999999
 21
11.912
 31
0.0
  0
LINE
  5
980
330
18
100
AcDbEntity
  8
Object
100
AcDbLine
 10
8.615999999999999
 20
11.912
 30
0.0
 11
8.614
 21
11.909
 31
0.0
  0
LINE
  5
981
330
18
100
AcDbEntity
  8
Object
100
AcDbLine
 10
8.602
 20
11.93
 30
0.0
 11
8.596
 21
11.935
 31
0.0
  0
LINE
  5
982
330
18
100
AcDbEntity
  8
Object
100
AcDbLine
 10
8.596
 20
11.935
 30
0.0
 11
8.592
 21
11.939
 31
0.0
  0
LINE
  5
983
330
18
100
AcDbEntity
  8
Object
100
AcDbLine
 10
8.586999999999999
 20
11.939
 30
0.0
 11
8.589999999999999
 21
11.939
 31
0.0
  0
LINE
  5
984
330
18
100
AcDbEntity
  8
Object
100
AcDbLine
 10
8.589999999999999
 20
11.939
 30
0.0
 11
8.592
 21
11.939
 31
0.0
  0
LINE
  5
985
330
18
100
AcDbEntity
  8
Object
100
AcDbLine
 10
8.585
 20
11.939
 30
0.0
 11
8.586999999999999
 21
11.939
 31
0.0
  0
LINE
  5
986
330
18
100
AcDbEntity
  8
Object
100
AcDbLine
 10
8.621999999999999
 20
11.919
 30
0.0
 11
9.064999999999999
 21
11.598
 31
0.0
  0
LINE
  5
987
330
18
100
AcDbEntity
  8
Object
100
AcDbLine
 10
9.064999999999999
 20
11.598
 30
0.0
 11
9.051999999999999
 21
11.598
 31
0.0
  0
LINE
  5
988
330
18
100
AcDbEntity
  8
Object
100
AcDbLine
 10
9.051999999999999
 20
11.598
 30
0.0
 11
9.043000000000001
 21
11.598
 31
0.0
  0
LINE
  5
989
330
18
100
AcDbEntity
  8
Object
100
AcDbLine
 10
9.043000000000001
 20
11.598
 30
0.0
 11
8.614
 21
11.909
 31
0.0
  0
LINE
  5
98A
330
18
100
AcDbEntity
  8
Object
100
AcDbLine
 10
7.249
 20
11.598
 30
0.0
 11
7.009999999999999
 21
11.59
 31
0.0
  0
LINE
  5
98B
330
18
100
AcDbEntity
  8
Object
100
AcDbLine
 10
7.009999999999999
 20
11.59
 30
0.0
 11
6.773
 21
11.567
 31
0.0
  0
LINE
  5
98C
330
18
100
AcDbEntity
  8
Object
100
AcDbLine
 10
6.773
 20
11.567
 30
0.0
 11
6.536999999999999
 21
11.528
 31
0.0
  0
LINE
  5
98D
330
18
100
AcDbEntity
  8
Object
100
AcDbLine
 10
6.536999999999999
 20
11.528
 30
0.0
 11
6.304
 21
11.474
 31
0.0
  0
LINE
  5
98E
330
18
100
AcDbEntity
  8
Object
100
AcDbLine
 10
6.304
 20
11.474
 30
0.0
 11
6.076
 21
11.405
 31
0.0
  0
LINE
  5
98F
330
18
100
AcDbEntity
  8
Object
100
AcDbLine
 10
6.076
 20
11.405
 30
0.0
 11
5.852
 21
11.32
 31
0.0
  0
LINE
  5
990
330
18
100
AcDbEntity
  8
Object
100
AcDbLine
 10
5.852
 20
11.32
 30
0.0
 11
5.634999999999999
 21
11.222
 31
0.0
  0
LINE
  5
991
330
18
100
AcDbEntity
  8
Object
100
AcDbLine
 10
5.634999999999999
 20
11.222
 30
0.0
 11
5.424
 21
11.109
 31
0.0
  0
LINE
  5
992
330
18
100
AcDbEntity
  8
Object
100
AcDbLine
 10
5.424
 20
11.109
 30
0.0
 11
5.221
 21
10.983
 31
0.0
  0
LINE
  5
993
330
18
100
AcDbEntity
  8
Object
100
AcDbLine
 10
5.221
 20
10.983
 30
0.0
 11
5.027
 21
10.844
 31
0.0
  0
LINE
  5
994
330
18
100
AcDbEntity
  8
Object
100
AcDbLine
 10
5.027
 20
10.844
 30
0.0
 11
4.842
 21
10.692
 31
0.0
  0
LINE
  5
995
330
18
100
AcDbEntity
  8
Object
100
AcDbLine
 10
4.842
 20
10.692
 30
0.0
 11
4.668
 21
10.529
 31
0.0
  0
LINE
  5
996
330
18
100
AcDbEntity
  8
Object
100
AcDbLine
 10
4.668
 20
10.529
 30
0.0
 11
4.504999999999999
 21
10.355
 31
0.0
  0
LINE
  5
997
330
18
100
AcDbEntity
  8
Object
100
AcDbLine
 10
4.504999999999999
 20
10.355
 30
0.0
 11
4.352999999999999
 21
10.17
 31
0.0
  0
LINE
  5
998
330
18
100
AcDbEntity
  8
Object
100
AcDbLine
 10
4.352999999999999
 20
10.17
 30
0.0
 11
4.214
 21
9.976
 31
0.0
  0
LINE
  5
999
330
18
100
AcDbEntity
  8
Object
100
AcDbLine
 10
4.214
 20
9.976
 30
0.0
 11
4.088
 21
9.772999999999999
 31
0.0
  0
LINE
  5
99A
330
18
100
AcDbEntity
  8
Object
100
AcDbLine
 10
4.088
 20
9.772999999999999
 30
0.0
 11
3.975
 21
9.563
 31
0.0
  0
LINE
  5
99B
330
18
100
AcDbEntity
  8
Object
100
AcDbLine
 10
3.975
 20
9.563
 30
0.0
 11
3.877
 21
9.345
 31
0.0
  0
LINE
  5
99C
330
18
100
AcDbEntity
  8
Object
100
AcDbLine
 10
3.877
 20
9.345
 30
0.0
 11
3.793
 21
9.121999999999999
 31
0.0
  0
LINE
  5
99D
330
18
100
AcDbEntity
  8
Object
100
AcDbLine
 10
3.793
 20
9.121999999999999
 30
0.0
 11
3.722999999999999
 21
8.893
 31
0.0
  0
LINE
  5
99E
330
18
100
AcDbEntity
  8
Object
100
AcDbLine
 10
3.722999999999999
 20
8.893
 30
0.0
 11
3.669
 21
8.66
 31
0.0
  0
LINE
  5
99F
330
18
100
AcDbEntity
  8
Object
100
AcDbLine
 10
3.669
 20
8.66
 30
0.0
 11
3.629999999999999
 21
8.425
 31
0.0
  0
LINE
  5
9A0
330
18
100
AcDbEntity
  8
Object
100
AcDbLine
 10
3.629999999999999
 20
8.425
 30
0.0
 11
3.607
 21
8.186999999999999
 31
0.0
  0
LINE
  5
9A1
330
18
100
AcDbEntity
  8
Object
100
AcDbLine
 10
3.607
 20
8.186999999999999
 30
0.0
 11
3.599
 21
7.948
 31
0.0
  0
LINE
  5
9A2
330
18
100
AcDbEntity
  8
Object
100
AcDbLine
 10
8.944
 20
11.598
 30
0.0
 11
9.043000000000001
 21
11.598
 31
0.0
  0
LINE
  5
9A3
330
18
100
AcDbEntity
  8
Object
100
AcDbLine
 10
8.585
 20
11.939
 30
0.0
 11
8.588
 21
11.933
 31
0.0
  0
LINE
  5
9A4
330
18
100
AcDbEntity
  8
Object
100
AcDbLine
 10
8.588
 20
11.933
 30
0.0
 11
8.595
 21
11.926
 31
0.0
  0
LINE
  5
9A5
330
18
100
AcDbEntity
  8
Object
100
AcDbLine
 10
8.595
 20
11.926
 30
0.0
 11
8.614
 21
11.909
 31
0.0
  0
LINE
  5
9A6
330
18
100
AcDbEntity
  8
Object
100
AcDbLine
 10
8.48
 20
11.935
 30
0.0
 11
8.487
 21
11.929
 31
0.0
  0
LINE
  5
9A7
330
18
100
AcDbEntity
  8
Object
100
AcDbLine
 10
7.249
 20
11.934
 30
0.0
 11
7.249
 21
11.919
 31
0.0
  0
LINE
  5
9A8
330
18
100
AcDbEntity
  8
Object
100
AcDbLine
 10
7.249
 20
11.919
 30
0.0
 11
7.0
 21
11.911
 31
0.0
  0
LINE
  5
9A9
330
18
100
AcDbEntity
  8
Object
100
AcDbLine
 10
7.249
 20
11.934
 30
0.0
 11
7.249
 21
11.944
 31
0.0
  0
LINE
  5
9AA
330
18
100
AcDbEntity
  8
Object
100
AcDbLine
 10
6.998
 20
11.94
 30
0.0
 11
7.249
 21
11.948
 31
0.0
  0
LINE
  5
9AB
330
18
100
AcDbEntity
  8
Object
100
AcDbLine
 10
7.249
 20
11.948
 30
0.0
 11
7.249
 21
11.944
 31
0.0
  0
LINE
  5
9AC
330
18
100
AcDbEntity
  8
Object
100
AcDbLine
 10
6.751
 20
11.888
 30
0.0
 11
7.0
 21
11.911
 31
0.0
  0
LINE
  5
9AD
330
18
100
AcDbEntity
  8
Object
100
AcDbLine
 10
6.998
 20
11.94
 30
0.0
 11
6.748
 21
11.917
 31
0.0
  0
LINE
  5
9AE
330
18
100
AcDbEntity
  8
Object
100
AcDbLine
 10
6.748
 20
11.917
 30
0.0
 11
6.499
 21
11.877
 31
0.0
  0
LINE
  5
9AF
330
18
100
AcDbEntity
  8
Object
100
AcDbLine
 10
6.261
 20
11.795
 30
0.0
 11
6.504999999999999
 21
11.849
 31
0.0
  0
LINE
  5
9B0
330
18
100
AcDbEntity
  8
Object
100
AcDbLine
 10
6.499
 20
11.877
 30
0.0
 11
6.254
 21
11.823
 31
0.0
  0
LINE
  5
9B1
330
18
100
AcDbEntity
  8
Object
100
AcDbLine
 10
6.254
 20
11.823
 30
0.0
 11
6.012999999999999
 21
11.752
 31
0.0
  0
LINE
  5
9B2
330
18
100
AcDbEntity
  8
Object
100
AcDbLine
 10
5.786999999999999
 20
11.64
 30
0.0
 11
6.022
 21
11.725
 31
0.0
  0
LINE
  5
9B3
330
18
100
AcDbEntity
  8
Object
100
AcDbLine
 10
6.012999999999999
 20
11.752
 30
0.0
 11
5.775999999999999
 21
11.667
 31
0.0
  0
LINE
  5
9B4
330
18
100
AcDbEntity
  8
Object
100
AcDbLine
 10
5.775999999999999
 20
11.667
 30
0.0
 11
5.546
 21
11.568
 31
0.0
  0
LINE
  5
9B5
330
18
100
AcDbEntity
  8
Object
100
AcDbLine
 10
5.546
 20
11.568
 30
0.0
 11
5.322
 21
11.453
 31
0.0
  0
LINE
  5
9B6
330
18
100
AcDbEntity
  8
Object
100
AcDbLine
 10
5.322
 20
11.453
 30
0.0
 11
5.105999999999999
 21
11.326
 31
0.0
  0
LINE
  5
9B7
330
18
100
AcDbEntity
  8
Object
100
AcDbLine
 10
4.915
 20
11.161
 30
0.0
 11
5.121
 21
11.301
 31
0.0
  0
LINE
  5
9B8
330
18
100
AcDbEntity
  8
Object
100
AcDbLine
 10
5.105999999999999
 20
11.326
 30
0.0
 11
4.897999999999999
 21
11.184
 31
0.0
  0
LINE
  5
9B9
330
18
100
AcDbEntity
  8
Object
100
AcDbLine
 10
4.897999999999999
 20
11.184
 30
0.0
 11
4.698999999999999
 21
11.03
 31
0.0
  0
LINE
  5
9BA
330
18
100
AcDbEntity
  8
Object
100
AcDbLine
 10
4.354
 20
10.667
 30
0.0
 11
4.53
 21
10.843
 31
0.0
  0
LINE
  5
9BB
330
18
100
AcDbEntity
  8
Object
100
AcDbLine
 10
4.166999999999999
 20
10.498
 30
0.0
 11
4.012999999999999
 21
10.299
 31
0.0
  0
LINE
  5
9BC
330
18
100
AcDbEntity
  8
Object
100
AcDbLine
 10
3.895999999999999
 20
10.076
 30
0.0
 11
4.036
 21
10.282
 31
0.0
  0
LINE
  5
9BD
330
18
100
AcDbEntity
  8
Object
100
AcDbLine
 10
4.012999999999999
 20
10.299
 30
0.0
 11
3.871999999999999
 21
10.092
 31
0.0
  0
LINE
  5
9BE
330
18
100
AcDbEntity
  8
Object
100
AcDbLine
 10
3.871999999999999
 20
10.092
 30
0.0
 11
3.744
 21
9.875
 31
0.0
  0
LINE
  5
9BF
330
18
100
AcDbEntity
  8
Object
100
AcDbLine
 10
3.744
 20
9.875
 30
0.0
 11
3.629
 21
9.650999999999999
 31
0.0
  0
LINE
  5
9C0
330
18
100
AcDbEntity
  8
Object
100
AcDbLine
 10
3.629
 20
9.650999999999999
 30
0.0
 11
3.53
 21
9.420999999999999
 31
0.0
  0
LINE
  5
9C1
330
18
100
AcDbEntity
  8
Object
100
AcDbLine
 10
3.53
 20
9.420999999999999
 30
0.0
 11
3.445
 21
9.184000000000001
 31
0.0
  0
LINE
  5
9C2
330
18
100
AcDbEntity
  8
Object
100
AcDbLine
 10
3.402
 20
8.935999999999999
 30
0.0
 11
3.471999999999999
 21
9.175
 31
0.0
  0
LINE
  5
9C3
330
18
100
AcDbEntity
  8
Object
100
AcDbLine
 10
3.445
 20
9.184000000000001
 30
0.0
 11
3.374
 21
8.942999999999999
 31
0.0
  0
LINE
  5
9C4
330
18
100
AcDbEntity
  8
Object
100
AcDbLine
 10
3.374
 20
8.942999999999999
 30
0.0
 11
3.32
 21
8.698
 31
0.0
  0
LINE
  5
9C5
330
18
100
AcDbEntity
  8
Object
100
AcDbLine
 10
3.32
 20
8.698
 30
0.0
 11
3.28
 21
8.449999999999999
 31
0.0
  0
LINE
  5
9C6
330
18
100
AcDbEntity
  8
Object
100
AcDbLine
 10
3.286
 20
8.198
 30
0.0
 11
3.278
 21
7.948
 31
0.0
  0
LINE
  5
9C7
330
18
100
AcDbEntity
  8
Object
100
AcDbLine
 10
3.278
 20
7.948
 30
0.0
 11
3.262999999999999
 21
7.948
 31
0.0
  0
LINE
  5
9C8
330
18
100
AcDbEntity
  8
Object
100
AcDbLine
 10
3.28
 20
8.449999999999999
 30
0.0
 11
3.257
 21
8.198999999999999
 31
0.0
  0
LINE
  5
9C9
330
18
100
AcDbEntity
  8
Object
100
AcDbLine
 10
3.262999999999999
 20
7.948
 30
0.0
 11
3.253
 21
7.948
 31
0.0
  0
LINE
  5
9CA
330
18
100
AcDbEntity
  8
Object
100
AcDbLine
 10
3.253
 20
7.948
 30
0.0
 11
3.249
 21
7.948
 31
0.0
  0
LINE
  5
9CB
330
18
100
AcDbEntity
  8
Object
100
AcDbLine
 10
3.249
 20
7.948
 30
0.0
 11
3.257
 21
8.198999999999999
 31
0.0
  0
LINE
  5
9CC
330
18
100
AcDbEntity
  8
Object
100
AcDbLine
 10
3.328
 20
7.846
 30
0.0
 11
3.333
 21
7.839999999999999
 31
0.0
  0
LINE
  5
9CD
330
18
100
AcDbEntity
  8
Object
100
AcDbLine
 10
3.333
 20
7.839999999999999
 30
0.0
 11
3.333
 21
7.841
 31
0.0
  0
LINE
  5
9CE
330
18
100
AcDbEntity
  8
Object
100
AcDbLine
 10
3.33
 20
6.86
 30
0.0
 11
3.328
 21
6.86
 31
0.0
  0
LINE
  5
9CF
330
18
100
AcDbEntity
  8
Object
100
AcDbLine
 10
3.328
 20
6.86
 30
0.0
 11
3.322999999999999
 21
6.86
 31
0.0
  0
LINE
  5
9D0
330
18
100
AcDbEntity
  8
Object
100
AcDbLine
 10
3.322999999999999
 20
6.86
 30
0.0
 11
3.32
 21
6.86
 31
0.0
  0
LINE
  5
9D1
330
18
100
AcDbEntity
  8
Object
100
AcDbLine
 10
3.32
 20
6.86
 30
0.0
 11
3.318999999999999
 21
6.86
 31
0.0
  0
LINE
  5
9D2
330
18
100
AcDbEntity
  8
Object
100
AcDbLine
 10
3.409
 20
6.863
 30
0.0
 11
3.278
 21
6.858
 31
0.0
  0
LINE
  5
9D3
330
18
100
AcDbEntity
  8
Object
100
AcDbLine
 10
3.278
 20
6.858
 30
0.0
 11
3.266999999999999
 21
6.858
 31
0.0
  0
LINE
  5
9D4
330
18
100
AcDbEntity
  8
Object
100
AcDbLine
 10
3.266999999999999
 20
6.858
 30
0.0
 11
3.257
 21
6.858
 31
0.0
  0
LINE
  5
9D5
330
18
100
AcDbEntity
  8
Object
100
AcDbLine
 10
3.257
 20
6.858
 30
0.0
 11
3.250999999999999
 21
6.857
 31
0.0
  0
LINE
  5
9D6
330
18
100
AcDbEntity
  8
Object
100
AcDbLine
 10
3.250999999999999
 20
6.857
 30
0.0
 11
3.249
 21
6.857
 31
0.0
  0
LINE
  5
9D7
330
18
100
AcDbEntity
  8
Object
100
AcDbLine
 10
3.272
 20
6.858
 30
0.0
 11
3.318999999999999
 21
6.86
 31
0.0
  0
LINE
  5
9D8
330
18
100
AcDbEntity
  8
Object
100
AcDbLine
 10
3.249
 20
6.857
 30
0.0
 11
3.250999999999999
 21
6.857
 31
0.0
  0
LINE
  5
9D9
330
18
100
AcDbEntity
  8
Object
100
AcDbLine
 10
3.318999999999999
 20
7.841
 30
0.0
 11
3.318999999999999
 21
6.87
 31
0.0
  0
LINE
  5
9DA
330
18
100
AcDbEntity
  8
Object
100
AcDbLine
 10
3.318999999999999
 20
6.87
 30
0.0
 11
3.249
 21
6.866999999999999
 31
0.0
  0
LINE
  5
9DB
330
18
100
AcDbEntity
  8
Object
100
AcDbLine
 10
3.249
 20
6.866999999999999
 30
0.0
 11
3.249
 21
7.911
 31
0.0
  0
LINE
  5
9DC
330
18
100
AcDbEntity
  8
Object
100
AcDbLine
 10
3.249
 20
7.911
 30
0.0
 11
3.318999999999999
 21
7.841
 31
0.0
  0
LINE
  5
9DD
330
18
100
AcDbEntity
  8
Object
100
AcDbLine
 10
3.599
 20
5.004999999999999
 30
0.0
 11
3.278
 21
5.004999999999999
 31
0.0
  0
LINE
  5
9DE
330
18
100
AcDbEntity
  8
Object
100
AcDbLine
 10
3.278
 20
5.004999999999999
 30
0.0
 11
3.262999999999999
 21
5.004999999999999
 31
0.0
  0
LINE
  5
9DF
330
18
100
AcDbEntity
  8
Object
100
AcDbLine
 10
3.262999999999999
 20
5.004999999999999
 30
0.0
 11
3.253
 21
5.004999999999999
 31
0.0
  0
LINE
  5
9E0
330
18
100
AcDbEntity
  8
Object
100
AcDbLine
 10
3.253
 20
5.004999999999999
 30
0.0
 11
3.249
 21
5.004999999999999
 31
0.0
  0
LINE
  5
9E1
330
18
100
AcDbEntity
  8
Object
100
AcDbLine
 10
3.318999999999999
 20
6.86
 30
0.0
 11
3.318999999999999
 21
6.863
 31
0.0
  0
LINE
  5
9E2
330
18
100
AcDbEntity
  8
Object
100
AcDbLine
 10
3.249
 20
6.858
 30
0.0
 11
3.249
 21
6.86
 31
0.0
  0
LINE
  5
9E3
330
18
100
AcDbEntity
  8
Object
100
AcDbLine
 10
3.249
 20
6.86
 30
0.0
 11
3.249
 21
6.863999999999999
 31
0.0
  0
LINE
  5
9E4
330
18
100
AcDbEntity
  8
Object
100
AcDbLine
 10
3.249
 20
6.863999999999999
 30
0.0
 11
3.249
 21
6.866999999999999
 31
0.0
  0
LINE
  5
9E5
330
18
100
AcDbEntity
  8
Object
100
AcDbLine
 10
3.318999999999999
 20
6.87
 30
0.0
 11
3.318999999999999
 21
6.866
 31
0.0
  0
LINE
  5
9E6
330
18
100
AcDbEntity
  8
Object
100
AcDbLine
 10
3.318999999999999
 20
6.866
 30
0.0
 11
3.318999999999999
 21
6.863
 31
0.0
  0
LINE
  5
9E7
330
18
100
AcDbEntity
  8
Object
100
AcDbLine
 10
3.272
 20
6.858
 30
0.0
 11
3.318999999999999
 21
6.86
 31
0.0
  0
LINE
  5
9E8
330
18
100
AcDbEntity
  8
Object
100
AcDbLine
 10
3.250999999999999
 20
6.857
 30
0.0
 11
3.249
 21
6.857
 31
0.0
  0
LINE
  5
9E9
330
18
100
AcDbEntity
  8
Object
100
AcDbLine
 10
3.249
 20
6.857
 30
0.0
 11
3.249
 21
6.858
 31
0.0
  0
LINE
  5
9EA
330
18
100
AcDbEntity
  8
Object
100
AcDbLine
 10
3.250999999999999
 20
6.857
 30
0.0
 11
3.249
 21
6.857
 31
0.0
  0
LINE
  5
9EB
330
18
100
AcDbEntity
  8
Object
100
AcDbLine
 10
3.318999999999999
 20
6.86
 30
0.0
 11
3.272
 21
6.858
 31
0.0
  0
LINE
  5
9EC
330
18
100
AcDbEntity
  8
Object
100
AcDbLine
 10
3.318999999999999
 20
7.846
 30
0.0
 11
3.318999999999999
 21
7.850999999999999
 31
0.0
  0
LINE
  5
9ED
330
18
100
AcDbEntity
  8
Object
100
AcDbLine
 10
3.249
 20
7.921
 30
0.0
 11
3.249
 21
7.916
 31
0.0
  0
LINE
  5
9EE
330
18
100
AcDbEntity
  8
Object
100
AcDbLine
 10
3.318999999999999
 20
7.854
 30
0.0
 11
3.318999999999999
 21
7.855
 31
0.0
  0
LINE
  5
9EF
330
18
100
AcDbEntity
  8
Object
100
AcDbLine
 10
3.249
 20
7.924999999999999
 30
0.0
 11
3.249
 21
7.924
 31
0.0
  0
LINE
  5
9F0
330
18
100
AcDbEntity
  8
Object
100
AcDbLine
 10
3.249
 20
7.924
 30
0.0
 11
3.249
 21
7.921
 31
0.0
  0
LINE
  5
9F1
330
18
100
AcDbEntity
  8
Object
100
AcDbLine
 10
3.318999999999999
 20
7.850999999999999
 30
0.0
 11
3.318999999999999
 21
7.854
 31
0.0
  0
LINE
  5
9F2
330
18
100
AcDbEntity
  8
Object
100
AcDbLine
 10
3.249
 20
7.916
 30
0.0
 11
3.249
 21
7.911
 31
0.0
  0
LINE
  5
9F3
330
18
100
AcDbEntity
  8
Object
100
AcDbLine
 10
3.318999999999999
 20
7.841
 30
0.0
 11
3.318999999999999
 21
7.846
 31
0.0
  0
LINE
  5
9F4
330
18
100
AcDbEntity
  8
Object
100
AcDbLine
 10
3.346
 20
7.826999999999999
 30
0.0
 11
3.333
 21
7.839999999999999
 31
0.0
  0
LINE
  5
9F5
330
18
100
AcDbEntity
  8
Object
100
AcDbLine
 10
3.333
 20
7.839999999999999
 30
0.0
 11
3.328
 21
7.846
 31
0.0
  0
LINE
  5
9F6
330
18
100
AcDbEntity
  8
Object
100
AcDbLine
 10
3.415999999999999
 20
7.758
 30
0.0
 11
3.278
 21
7.895999999999999
 31
0.0
  0
LINE
  5
9F7
330
18
100
AcDbEntity
  8
Object
100
AcDbLine
 10
3.278
 20
7.895999999999999
 30
0.0
 11
3.266999999999999
 21
7.907
 31
0.0
  0
LINE
  5
9F8
330
18
100
AcDbEntity
  8
Object
100
AcDbLine
 10
3.266999999999999
 20
7.907
 30
0.0
 11
3.257
 21
7.916
 31
0.0
  0
LINE
  5
9F9
330
18
100
AcDbEntity
  8
Object
100
AcDbLine
 10
3.257
 20
7.916
 30
0.0
 11
3.250999999999999
 21
7.923
 31
0.0
  0
LINE
  5
9FA
330
18
100
AcDbEntity
  8
Object
100
AcDbLine
 10
3.250999999999999
 20
7.923
 30
0.0
 11
3.249
 21
7.924999999999999
 31
0.0
  0
LINE
  5
9FB
330
18
100
AcDbEntity
  8
Object
100
AcDbLine
 10
3.33
 20
6.86
 30
0.0
 11
3.328
 21
6.86
 31
0.0
  0
LINE
  5
9FC
330
18
100
AcDbEntity
  8
Object
100
AcDbLine
 10
3.328
 20
6.86
 30
0.0
 11
3.322999999999999
 21
6.86
 31
0.0
  0
LINE
  5
9FD
330
18
100
AcDbEntity
  8
Object
100
AcDbLine
 10
3.322999999999999
 20
6.86
 30
0.0
 11
3.32
 21
6.86
 31
0.0
  0
LINE
  5
9FE
330
18
100
AcDbEntity
  8
Object
100
AcDbLine
 10
3.318999999999999
 20
6.858999999999999
 30
0.0
 11
3.318999999999999
 21
6.86
 31
0.0
  0
LINE
  5
9FF
330
18
100
AcDbEntity
  8
Object
100
AcDbLine
 10
3.318999999999999
 20
6.86
 30
0.0
 11
3.32
 21
6.86
 31
0.0
  0
LINE
  5
A00
330
18
100
AcDbEntity
  8
Object
100
AcDbLine
 10
3.333
 20
7.839999999999999
 30
0.0
 11
3.346
 21
7.826999999999999
 31
0.0
  0
LINE
  5
A01
330
18
100
AcDbEntity
  8
Object
100
AcDbLine
 10
3.249
 20
7.948
 30
0.0
 11
3.249
 21
7.924999999999999
 31
0.0
  0
LINE
  5
A02
330
18
100
AcDbEntity
  8
Object
100
AcDbLine
 10
3.249
 20
7.924999999999999
 30
0.0
 11
3.249
 21
7.924
 31
0.0
  0
LINE
  5
A03
330
18
100
AcDbEntity
  8
Object
100
AcDbLine
 10
3.249
 20
7.924
 30
0.0
 11
3.249
 21
7.921
 31
0.0
  0
LINE
  5
A04
330
18
100
AcDbEntity
  8
Object
100
AcDbLine
 10
3.249
 20
7.921
 30
0.0
 11
3.249
 21
7.916
 31
0.0
  0
LINE
  5
A05
330
18
100
AcDbEntity
  8
Object
100
AcDbLine
 10
3.249
 20
7.916
 30
0.0
 11
3.249
 21
7.911
 31
0.0
  0
LINE
  5
A06
330
18
100
AcDbEntity
  8
Object
100
AcDbLine
 10
3.249
 20
7.911
 30
0.0
 11
3.249
 21
6.866999999999999
 31
0.0
  0
LINE
  5
A07
330
18
100
AcDbEntity
  8
Object
100
AcDbLine
 10
3.249
 20
6.866999999999999
 30
0.0
 11
3.249
 21
6.863999999999999
 31
0.0
  0
LINE
  5
A08
330
18
100
AcDbEntity
  8
Object
100
AcDbLine
 10
3.249
 20
6.863999999999999
 30
0.0
 11
3.249
 21
6.86
 31
0.0
  0
LINE
  5
A09
330
18
100
AcDbEntity
  8
Object
100
AcDbLine
 10
3.249
 20
6.86
 30
0.0
 11
3.249
 21
6.858
 31
0.0
  0
LINE
  5
A0A
330
18
100
AcDbEntity
  8
Object
100
AcDbLine
 10
3.249
 20
6.858
 30
0.0
 11
3.249
 21
6.857
 31
0.0
  0
LINE
  5
A0B
330
18
100
AcDbEntity
  8
Object
100
AcDbLine
 10
3.249
 20
6.857
 30
0.0
 11
3.249
 21
6.732
 31
0.0
  0
LINE
  5
A0C
330
18
100
AcDbEntity
  8
Object
100
AcDbLine
 10
3.249
 20
6.732
 30
0.0
 11
3.249
 21
6.618
 31
0.0
  0
LINE
  5
A0D
330
18
100
AcDbEntity
  8
Object
100
AcDbLine
 10
3.249
 20
6.618
 30
0.0
 11
3.249
 21
5.004999999999999
 31
0.0
  0
LINE
  5
A0E
330
18
100
AcDbEntity
  8
Object
100
AcDbLine
 10
3.419
 20
7.751
 30
0.0
 11
3.419
 21
7.732
 31
0.0
  0
LINE
  5
A0F
330
18
100
AcDbEntity
  8
Object
100
AcDbLine
 10
3.599
 20
6.275
 30
0.0
 11
3.599
 21
7.948
 31
0.0
  0
LINE
  5
A10
330
18
100
AcDbEntity
  8
Object
100
AcDbLine
 10
3.418
 20
7.754
 30
0.0
 11
3.419
 21
7.751
 31
0.0
  0
LINE
  5
A11
330
18
100
AcDbEntity
  8
Object
100
AcDbLine
 10
3.418
 20
6.871
 30
0.0
 11
3.418
 21
6.868999999999999
 31
0.0
  0
LINE
  5
A12
330
18
100
AcDbEntity
  8
Object
100
AcDbLine
 10
3.415999999999999
 20
7.758
 30
0.0
 11
3.418
 21
7.754
 31
0.0
  0
LINE
  5
A13
330
18
100
AcDbEntity
  8
Object
100
AcDbLine
 10
3.418
 20
6.868999999999999
 30
0.0
 11
3.415999999999999
 21
6.866
 31
0.0
  0
LINE
  5
A14
330
18
100
AcDbEntity
  8
Object
100
AcDbLine
 10
3.415999999999999
 20
6.866
 30
0.0
 11
3.413
 21
6.863999999999999
 31
0.0
  0
LINE
  5
A15
330
18
100
AcDbEntity
  8
Object
100
AcDbLine
 10
3.278
 20
7.895999999999999
 30
0.0
 11
3.415999999999999
 21
7.758
 31
0.0
  0
LINE
  5
A16
330
18
100
AcDbEntity
  8
Object
100
AcDbLine
 10
3.413
 20
6.863999999999999
 30
0.0
 11
3.409
 21
6.863
 31
0.0
  0
LINE
  5
A17
330
18
100
AcDbEntity
  8
Object
100
AcDbLine
 10
3.409
 20
6.863
 30
0.0
 11
3.278
 21
6.858
 31
0.0
  0
LINE
  5
A18
330
18
100
AcDbEntity
  8
Object
100
AcDbLine
 10
3.599
 20
6.153999999999999
 30
0.0
 11
3.599
 21
6.254
 31
0.0
  0
LINE
  5
A19
330
18
100
AcDbEntity
  8
Object
100
AcDbLine
 10
3.599
 20
5.004999999999999
 30
0.0
 11
3.599
 21
6.133
 31
0.0
  0
LINE
  5
A1A
330
18
100
AcDbEntity
  8
Object
100
AcDbLine
 10
3.599
 20
6.133
 30
0.0
 11
3.599
 21
6.145
 31
0.0
  0
LINE
  5
A1B
330
18
100
AcDbEntity
  8
Object
100
AcDbLine
 10
3.599
 20
6.145
 30
0.0
 11
3.599
 21
6.153999999999999
 31
0.0
  0
LINE
  5
A1C
330
18
100
AcDbEntity
  8
Object
100
AcDbLine
 10
3.599
 20
6.254
 30
0.0
 11
3.599
 21
6.262999999999999
 31
0.0
  0
LINE
  5
A1D
330
18
100
AcDbEntity
  8
Object
100
AcDbLine
 10
3.599
 20
6.262999999999999
 30
0.0
 11
3.599
 21
6.275
 31
0.0
  0
LINE
  5
A1E
330
18
100
AcDbEntity
  8
Object
100
AcDbLine
 10
3.599
 20
6.275
 30
0.0
 11
3.599
 21
7.948
 31
0.0
  0
LINE
  5
A1F
330
18
100
AcDbEntity
  8
Object
100
AcDbLine
 10
3.278
 20
7.948
 30
0.0
 11
3.278
 21
7.895999999999999
 31
0.0
  0
LINE
  5
A20
330
18
100
AcDbEntity
  8
Object
100
AcDbLine
 10
3.278
 20
7.895999999999999
 30
0.0
 11
3.266999999999999
 21
7.907
 31
0.0
  0
LINE
  5
A21
330
18
100
AcDbEntity
  8
Object
100
AcDbLine
 10
3.266999999999999
 20
7.907
 30
0.0
 11
3.257
 21
7.916
 31
0.0
  0
LINE
  5
A22
330
18
100
AcDbEntity
  8
Object
100
AcDbLine
 10
3.257
 20
7.916
 30
0.0
 11
3.250999999999999
 21
7.923
 31
0.0
  0
LINE
  5
A23
330
18
100
AcDbEntity
  8
Object
100
AcDbLine
 10
3.250999999999999
 20
7.923
 30
0.0
 11
3.249
 21
7.924999999999999
 31
0.0
  0
LINE
  5
A24
330
18
100
AcDbEntity
  8
Object
100
AcDbLine
 10
3.249
 20
7.924999999999999
 30
0.0
 11
3.249
 21
7.948
 31
0.0
  0
LINE
  5
A25
330
18
100
AcDbEntity
  8
Object
100
AcDbLine
 10
3.418
 20
6.871
 30
0.0
 11
3.418
 21
6.868999999999999
 31
0.0
  0
LINE
  5
A26
330
18
100
AcDbEntity
  8
Object
100
AcDbLine
 10
3.418
 20
6.868999999999999
 30
0.0
 11
3.415999999999999
 21
6.866
 31
0.0
  0
LINE
  5
A27
330
18
100
AcDbEntity
  8
Object
100
AcDbLine
 10
3.415999999999999
 20
6.866
 30
0.0
 11
3.413
 21
6.863999999999999
 31
0.0
  0
LINE
  5
A28
330
18
100
AcDbEntity
  8
Object
100
AcDbLine
 10
3.413
 20
6.863999999999999
 30
0.0
 11
3.409
 21
6.863
 31
0.0
  0
LINE
  5
A29
330
18
100
AcDbEntity
  8
Object
100
AcDbLine
 10
3.266999999999999
 20
6.858
 30
0.0
 11
3.278
 21
6.858
 31
0.0
  0
LINE
  5
A2A
330
18
100
AcDbEntity
  8
Object
100
AcDbLine
 10
3.278
 20
6.858
 30
0.0
 11
3.278
 21
6.717999999999999
 31
0.0
  0
LINE
  5
A2B
330
18
100
AcDbEntity
  8
Object
100
AcDbLine
 10
3.278
 20
6.717999999999999
 30
0.0
 11
3.266999999999999
 21
6.725
 31
0.0
  0
LINE
  5
A2C
330
18
100
AcDbEntity
  8
Object
100
AcDbLine
 10
3.266999999999999
 20
6.858
 30
0.0
 11
3.257
 21
6.858
 31
0.0
  0
LINE
  5
A2D
330
18
100
AcDbEntity
  8
Object
100
AcDbLine
 10
3.250999999999999
 20
6.73
 30
0.0
 11
3.258
 21
6.727999999999999
 31
0.0
  0
LINE
  5
A2E
330
18
100
AcDbEntity
  8
Object
100
AcDbLine
 10
3.257
 20
6.858
 30
0.0
 11
3.250999999999999
 21
6.857
 31
0.0
  0
LINE
  5
A2F
330
18
100
AcDbEntity
  8
Object
100
AcDbLine
 10
3.250999999999999
 20
6.73
 30
0.0
 11
3.249
 21
6.732
 31
0.0
  0
LINE
  5
A30
330
18
100
AcDbEntity
  8
Object
100
AcDbLine
 10
3.249
 20
6.732
 30
0.0
 11
3.249
 21
6.857
 31
0.0
  0
LINE
  5
A31
330
18
100
AcDbEntity
  8
Object
100
AcDbLine
 10
3.249
 20
6.857
 30
0.0
 11
3.250999999999999
 21
6.857
 31
0.0
  0
LINE
  5
A32
330
18
100
AcDbEntity
  8
Object
100
AcDbLine
 10
3.599
 20
6.133
 30
0.0
 11
3.599
 21
5.004999999999999
 31
0.0
  0
LINE
  5
A33
330
18
100
AcDbEntity
  8
Object
100
AcDbLine
 10
3.599
 20
5.004999999999999
 30
0.0
 11
3.278
 21
5.004999999999999
 31
0.0
  0
LINE
  5
A34
330
18
100
AcDbEntity
  8
Object
100
AcDbLine
 10
3.599
 20
6.133
 30
0.0
 11
3.278
 21
6.576
 31
0.0
  0
LINE
  5
A35
330
18
100
AcDbEntity
  8
Object
100
AcDbLine
 10
3.278
 20
6.576
 30
0.0
 11
3.266999999999999
 21
6.594999999999999
 31
0.0
  0
LINE
  5
A36
330
18
100
AcDbEntity
  8
Object
100
AcDbLine
 10
3.278
 20
6.576
 30
0.0
 11
3.278
 21
5.004999999999999
 31
0.0
  0
LINE
  5
A37
330
18
100
AcDbEntity
  8
Object
100
AcDbLine
 10
3.278
 20
5.004999999999999
 30
0.0
 11
3.262999999999999
 21
5.004999999999999
 31
0.0
  0
LINE
  5
A38
330
18
100
AcDbEntity
  8
Object
100
AcDbLine
 10
3.262
 20
6.600999999999999
 30
0.0
 11
3.258
 21
6.605
 31
0.0
  0
LINE
  5
A39
330
18
100
AcDbEntity
  8
Object
100
AcDbLine
 10
3.253
 20
5.004999999999999
 30
0.0
 11
3.262999999999999
 21
5.004999999999999
 31
0.0
  0
LINE
  5
A3A
330
18
100
AcDbEntity
  8
Object
100
AcDbLine
 10
3.258
 20
6.605
 30
0.0
 11
3.250999999999999
 21
6.610999999999999
 31
0.0
  0
LINE
  5
A3B
330
18
100
AcDbEntity
  8
Object
100
AcDbLine
 10
3.253
 20
5.004999999999999
 30
0.0
 11
3.249
 21
5.004999999999999
 31
0.0
  0
LINE
  5
A3C
330
18
100
AcDbEntity
  8
Object
100
AcDbLine
 10
3.249
 20
5.004999999999999
 30
0.0
 11
3.249
 21
6.618
 31
0.0
  0
LINE
  5
A3D
330
18
100
AcDbEntity
  8
Object
100
AcDbLine
 10
3.249
 20
6.618
 30
0.0
 11
3.250999999999999
 21
6.610999999999999
 31
0.0
  0
LINE
  5
A3E
330
18
100
AcDbEntity
  8
Object
100
AcDbLine
 10
3.419
 20
7.751
 30
0.0
 11
3.418
 21
7.754
 31
0.0
  0
LINE
  5
A3F
330
18
100
AcDbEntity
  8
Object
100
AcDbLine
 10
3.418
 20
7.754
 30
0.0
 11
3.415999999999999
 21
7.758
 31
0.0
  0
LINE
  5
A40
330
18
100
AcDbEntity
  8
Object
100
AcDbLine
 10
3.419
 20
7.751
 30
0.0
 11
3.419
 21
7.732
 31
0.0
  0
LINE
  5
A41
330
18
100
AcDbEntity
  8
Object
100
AcDbLine
 10
3.250999999999999
 20
6.615
 30
0.0
 11
3.258
 21
6.613
 31
0.0
  0
LINE
  5
A42
330
18
100
AcDbEntity
  8
Object
100
AcDbLine
 10
3.250999999999999
 20
6.725999999999999
 30
0.0
 11
3.258
 21
6.719999999999999
 31
0.0
  0
LINE
  5
A43
330
18
100
AcDbEntity
  8
Object
100
AcDbLine
 10
3.258
 20
6.719999999999999
 30
0.0
 11
3.258
 21
6.613
 31
0.0
  0
LINE
  5
A44
330
18
100
AcDbEntity
  8
Object
100
AcDbLine
 10
3.250999999999999
 20
6.725999999999999
 30
0.0
 11
3.249
 21
6.732
 31
0.0
  0
LINE
  5
A45
330
18
100
AcDbEntity
  8
Object
100
AcDbLine
 10
3.250999999999999
 20
6.615
 30
0.0
 11
3.249
 21
6.618
 31
0.0
  0
LINE
  5
A46
330
18
100
AcDbEntity
  8
Object
100
AcDbLine
 10
3.249
 20
6.618
 30
0.0
 11
3.249
 21
6.732
 31
0.0
  0
LINE
  5
A47
330
18
100
AcDbEntity
  8
Object
100
AcDbLine
 10
3.278
 20
6.717999999999999
 30
0.0
 11
3.599
 21
6.275
 31
0.0
  0
LINE
  5
A48
330
18
100
AcDbEntity
  8
Object
100
AcDbLine
 10
3.599
 20
6.275
 30
0.0
 11
3.599
 21
6.262999999999999
 31
0.0
  0
LINE
  5
A49
330
18
100
AcDbEntity
  8
Object
100
AcDbLine
 10
3.599
 20
6.262999999999999
 30
0.0
 11
3.599
 21
6.254
 31
0.0
  0
LINE
  5
A4A
330
18
100
AcDbEntity
  8
Object
100
AcDbLine
 10
3.599
 20
6.254
 30
0.0
 11
3.268
 21
6.711
 31
0.0
  0
LINE
  5
A4B
330
18
100
AcDbEntity
  8
Object
100
AcDbLine
 10
3.288
 20
6.583
 30
0.0
 11
3.599
 21
6.153999999999999
 31
0.0
  0
LINE
  5
A4C
330
18
100
AcDbEntity
  8
Object
100
AcDbLine
 10
3.599
 20
6.153999999999999
 30
0.0
 11
3.599
 21
6.145
 31
0.0
  0
LINE
  5
A4D
330
18
100
AcDbEntity
  8
Object
100
AcDbLine
 10
3.599
 20
6.145
 30
0.0
 11
3.599
 21
6.133
 31
0.0
  0
LINE
  5
A4E
330
18
100
AcDbEntity
  8
Object
100
AcDbLine
 10
3.599
 20
6.153999999999999
 30
0.0
 11
3.599
 21
6.254
 31
0.0
  0
LINE
  5
A4F
330
18
100
AcDbEntity
  8
Object
100
AcDbLine
 10
3.270999999999999
 20
6.602
 30
0.0
 11
3.288
 21
6.583
 31
0.0
  0
LINE
  5
A50
330
18
100
AcDbEntity
  8
Object
100
AcDbLine
 10
3.258
 20
6.613
 30
0.0
 11
3.264
 21
6.608999999999999
 31
0.0
  0
LINE
  5
A51
330
18
100
AcDbEntity
  8
Object
100
AcDbLine
 10
3.26
 20
6.719
 30
0.0
 11
3.262
 21
6.717
 31
0.0
  0
LINE
  5
A52
330
18
100
AcDbEntity
  8
Object
100
AcDbLine
 10
3.262
 20
6.717
 30
0.0
 11
3.268
 21
6.711
 31
0.0
  0
LINE
  5
A53
330
18
100
AcDbEntity
  8
Object
100
AcDbLine
 10
3.278
 20
6.717999999999999
 30
0.0
 11
3.274
 21
6.714999999999999
 31
0.0
  0
LINE
  5
A54
330
18
100
AcDbEntity
  8
Object
100
AcDbLine
 10
3.274
 20
6.714999999999999
 30
0.0
 11
3.27
 21
6.713
 31
0.0
  0
LINE
  5
A55
330
18
100
AcDbEntity
  8
Object
100
AcDbLine
 10
3.27
 20
6.713
 30
0.0
 11
3.268
 21
6.711
 31
0.0
  0
LINE
  5
A56
330
18
100
AcDbEntity
  8
Object
100
AcDbLine
 10
3.258
 20
6.719999999999999
 30
0.0
 11
3.26
 21
6.719
 31
0.0
  0
LINE
  5
A57
330
18
100
AcDbEntity
  8
Object
100
AcDbLine
 10
3.266999999999999
 20
6.725
 30
0.0
 11
3.258
 21
6.727999999999999
 31
0.0
  0
LINE
  5
A58
330
18
100
AcDbEntity
  8
Object
100
AcDbLine
 10
3.258
 20
6.727999999999999
 30
0.0
 11
3.257
 21
6.725
 31
0.0
  0
LINE
  5
A59
330
18
100
AcDbEntity
  8
Object
100
AcDbLine
 10
3.257
 20
6.725
 30
0.0
 11
3.257
 21
6.722999999999999
 31
0.0
  0
LINE
  5
A5A
330
18
100
AcDbEntity
  8
Object
100
AcDbLine
 10
3.257
 20
6.722999999999999
 30
0.0
 11
3.258
 21
6.719999999999999
 31
0.0
  0
LINE
  5
A5B
330
18
100
AcDbEntity
  8
Object
100
AcDbLine
 10
3.288
 20
6.583
 30
0.0
 11
3.285
 21
6.581
 31
0.0
  0
LINE
  5
A5C
330
18
100
AcDbEntity
  8
Object
100
AcDbLine
 10
3.285
 20
6.581
 30
0.0
 11
3.282
 21
6.578
 31
0.0
  0
LINE
  5
A5D
330
18
100
AcDbEntity
  8
Object
100
AcDbLine
 10
3.282
 20
6.578
 30
0.0
 11
3.278
 21
6.576
 31
0.0
  0
LINE
  5
A5E
330
18
100
AcDbEntity
  8
Object
100
AcDbLine
 10
3.270999999999999
 20
6.602
 30
0.0
 11
3.264
 21
6.608999999999999
 31
0.0
  0
LINE
  5
A5F
330
18
100
AcDbEntity
  8
Object
100
AcDbLine
 10
3.262
 20
6.600999999999999
 30
0.0
 11
3.266999999999999
 21
6.594999999999999
 31
0.0
  0
LINE
  5
A60
330
18
100
AcDbEntity
  8
Object
100
AcDbLine
 10
3.258
 20
6.608
 30
0.0
 11
3.258
 21
6.61
 31
0.0
  0
LINE
  5
A61
330
18
100
AcDbEntity
  8
Object
100
AcDbLine
 10
3.258
 20
6.61
 30
0.0
 11
3.258
 21
6.613
 31
0.0
  0
LINE
  5
A62
330
18
100
AcDbEntity
  8
Object
100
AcDbLine
 10
3.258
 20
6.605
 30
0.0
 11
3.258
 21
6.608
 31
0.0
  0
DIMENSION
  5
A71
330
18
100
AcDbEntity
  8
Dimension
100
AcDbDimension
  2
*D0
 10
18.809
 20
12.83936935954833
 30
0.0
 11
17.4835
 21
12.83936935954833
 31
0.0
 70
    32
 71
     5
 42
2.650999999999999
  3
STANDARD
100
AcDbAlignedDimension
 13
16.158
 23
11.858
 33
0.0
 14
18.809
 24
11.858
 34
0.0
100
AcDbRotatedDimension
  0
MTEXT
  5
AE8
330
18
100
AcDbEntity
  8
Text
100
AcDbMText
 10
11.37324893148254
 20
0.8775685908585026
 30
0.0
 40
0.09
 41
0.25
 71
     5
 72
     5
  1
1
 73
     1
 44
1.0
1001
ACAD
1000
MTEXTBEGIN
1070
    73
1070
     1
1070
    44
1040
1.0
1070
    74
1070
     0
1000
MTEXTEND
  0
MTEXT
  5
AE9
330
18
100
AcDbEntity
  8
Text
100
AcDbMText
 10
11.74824893148254
 20
0.8775685908585026
 30
0.0
 40
0.07
 41
0.5
 71
     5
 72
     5
  1
7-3-07
 73
     1
 44
1.0
1001
ACAD
1000
MTEXTBEGIN
1070
    73
1070
     1
1070
    44
1040
1.0
1070
    74
1070
     0
1000
MTEXTEND
  0
MTEXT
  5
AEA
330
18
100
AcDbEntity
  8
Text
100
AcDbMText
 10
12.18574893148254
 20
0.8775685908585026
 30
0.0
 40
0.09
 41
0.375
 71
     5
 72
     5
  1
DTP
 73
     1
 44
1.0
1001
ACAD
1000
MTEXTBEGIN
1070
    73
1070
     1
1070
    44
1040
1.0
1070
    74
1070
     0
1000
MTEXTEND
  0
MTEXT
  5
AEB
330
18
100
AcDbEntity
  8
Text
100
AcDbMText
 10
12.77324893148254
 20
0.8775685908585021
 30
0.0
 40
0.07
 41
2.75
 71
     4
 72
     5
  1
B. REVISED DRAWING SIZE; WAS D SIZE.\PA. REVISED DRAWING TITLE.
 73
     1
 44
1.0
1001
ACAD
1000
MTEXTBEGIN
1070
    73
1070
     1
1070
    44
1040
1.0
1070
    74
1070
     0
1000
MTEXTEND
  0
MTEXT
  5
AEC
330
18
100
AcDbEntity
  8
Text
100
AcDbMText
 10
12.5604002814227
 20
0.8762490740326649
 30
0.0
 40
0.07
 41
0.375
 71
     5
 72
     5
  1
DJWA
 73
     1
 44
1.0
1001
ACAD
1000
MTEXTBEGIN
1070
    73
1070
     1
1070
    44
1040
1.0
1070
    74
1070
     0
1000
MTEXTEND
  0
MTEXT
  5
AED
330
18
100
AcDbEntity
  8
Text
100
AcDbMText
 10
11.37324893148254
 20
1.127568590858502
 30
0.0
 40
0.09
 41
0.25
 71
     5
 72
     5
  1
-
 73
     1
 44
1.0
1001
ACAD
1000
MTEXTBEGIN
1070
    73
1070
     1
1070
    44
1040
1.0
1070
    74
1070
     0
1000
MTEXTEND
  0
MTEXT
  5
AEE
330
18
100
AcDbEntity
  8
Text
100
AcDbMText
 10
11.74824893148254
 20
1.127568590858502
 30
0.0
 40
0.07
 41
0.5
 71
     5
 72
     5
  1
--------
 73
     1
 44
1.0
1001
ACAD
1000
MTEXTBEGIN
1070
    73
1070
     1
1070
    44
1040
1.0
1070
    74
1070
     0
1000
MTEXTEND
  0
MTEXT
  5
AEF
330
18
100
AcDbEntity
  8
Text
100
AcDbMText
 10
12.18574893148254
 20
1.127568590858502
 30
0.0
 40
0.09
 41
0.375
 71
     5
 72
     5
  1
---
 73
     1
 44
1.0
1001
ACAD
1000
MTEXTBEGIN
1070
    73
1070
     1
1070
    44
1040
1.0
1070
    74
1070
     0
1000
MTEXTEND
  0
MTEXT
  5
AF0
330
18
100
AcDbEntity
  8
Text
100
AcDbMText
 10
12.77324893148254
 20
1.127568590858502
 30
0.0
 40
0.07
 41
2.75
 71
     4
 72
     5
  1
D. REVISED DIMENSIONS.\PC. REVISED PART GEOMETRY.
 73
     1
 44
1.0
1001
ACAD
1000
MTEXTBEGIN
1070
    73
1070
     1
1070
    44
1040
1.0
1070
    74
1070
     0
1000
MTEXTEND
  0
MTEXT
  5
AF1
330
18
100
AcDbEntity
  8
Text
100
AcDbMText
 10
12.5604002814227
 20
1.126249074032664
 30
0.0
 40
0.07
 41
0.375
 71
     5
 72
     5
  1
----
 73
     1
 44
1.0
1001
ACAD
1000
MTEXTBEGIN
1070
    73
1070
     1
1070
    44
1040
1.0
1070
    74
1070
     0
1000
MTEXTEND
  0
LINE
  5
AF3
330
18
100
AcDbEntity
  8
Text
100
AcDbLine
 10
17.78244739566774
 20
1.519619481724049
 30
0.0
 11
17.93244739566773
 21
1.779427102859381
 31
0.0
  0
LINE
  5
AF4
330
18
100
AcDbEntity
  8
Text
100
AcDbLine
 10
17.93244739566773
 20
1.779427102859381
 30
0.0
 11
18.08244739566773
 21
1.519619481724048
 31
0.0
  0
LINE
  5
AF5
330
18
100
AcDbEntity
  8
Text
100
AcDbLine
 10
18.08244739566773
 20
1.519619481724048
 30
0.0
 11
17.78244739566774
 21
1.519619481724049
 31
0.0
  0
TEXT
  5
AF6
330
18
100
AcDbEntity
  8
Text
100
AcDbText
 10
17.89109810943089
 20
1.58234900056285
 30
0.0
 40
0.09
  1
A
100
AcDbText
  0
LINE
  5
AF7
330
18
100
AcDbEntity
  8
Text
100
AcDbLine
 10
16.48435268376909
 20
4.431358952833029
 30
0.0
 11
16.63435268376909
 21
4.691166573968361
 31
0.0
  0
LINE
  5
AF8
330
18
100
AcDbEntity
  8
Text
100
AcDbLine
 10
16.63435268376909
 20
4.691166573968361
 30
0.0
 11
16.78435268376909
 21
4.431358952833028
 31
0.0
  0
LINE
  5
AF9
330
18
100
AcDbEntity
  8
Text
100
AcDbLine
 10
16.78435268376909
 20
4.431358952833028
 30
0.0
 11
16.48435268376909
 21
4.431358952833029
 31
0.0
  0
TEXT
  5
AFA
330
18
100
AcDbEntity
  8
Text
100
AcDbText
 10
16.59300339753224
 20
4.49408847167183
 30
0.0
 40
0.09
  1
C
100
AcDbText
  0
LINE
  5
AFB
330
18
100
AcDbEntity
  8
Text
100
AcDbLine
 10
6.582168494084235
 20
12.98945276956525
 30
0.0
 11
6.732168494084234
 21
13.24926039070058
 31
0.0
  0
LINE
  5
AFC
330
18
100
AcDbEntity
  8
Text
100
AcDbLine
 10
6.732168494084234
 20
13.24926039070058
 30
0.0
 11
6.882168494084233
 21
12.98945276956525
 31
0.0
  0
LINE
  5
AFD
330
18
100
AcDbEntity
  8
Text
100
AcDbLine
 10
6.882168494084233
 20
12.98945276956525
 30
0.0
 11
6.582168494084235
 21
12.98945276956525
 31
0.0
  0
TEXT
  5
AFE
330
18
100
AcDbEntity
  8
Text
100
AcDbText
 10
6.695170346158892
 20
13.0413088661879
 30
0.0
 40
0.09
  1
D
100
AcDbText
  0
LINE
  5
AFF
330
18
100
AcDbEntity
  8
Text
100
AcDbLine
 10
5.584693613663297
 20
4.438440641838639
 30
0.0
 11
5.734693613663296
 21
4.698248262973971
 31
0.0
  0
LINE
  5
B00
330
18
100
AcDbEntity
  8
Text
100
AcDbLine
 10
5.734693613663296
 20
4.698248262973971
 30
0.0
 11
5.884693613663294
 21
4.438440641838638
 31
0.0
  0
LINE
  5
B01
330
18
100
AcDbEntity
  8
Text
100
AcDbLine
 10
5.884693613663294
 20
4.438440641838638
 30
0.0
 11
5.584693613663297
 21
4.438440641838639
 31
0.0
  0
TEXT
  5
B02
330
18
100
AcDbEntity
  8
Text
100
AcDbText
 10
5.691237567810215
 20
4.494852428082943
 30
0.0
 40
0.09
  1
C
100
AcDbText
  0
LINE
  5
B03
330
18
100
AcDbEntity
  8
Text
100
AcDbLine
 10
17.31547500997653
 20
12.96897738881357
 30
0.0
 11
17.46547500997653
 21
13.2287850099489
 31
0.0
  0
LINE
  5
B04
330
18
100
AcDbEntity
  8
Text
100
AcDbLine
 10
17.46547500997653
 20
13.2287850099489
 30
0.0
 11
17.61547500997653
 21
12.96897738881357
 31
0.0
  0
LINE
  5
B05
330
18
100
AcDbEntity
  8
Text
100
AcDbLine
 10
17.61547500997653
 20
12.96897738881357
 30
0.0
 11
17.31547500997653
 21
12.96897738881357
 31
0.0
  0
TEXT
  5
B06
330
18
100
AcDbEntity
  8
Text
100
AcDbText
 10
17.43032051877521
 20
13.01622609291184
 30
0.0
 40
0.09
  1
D
100
AcDbText
  0
LINE
  5
B0C
330
18
100
AcDbEntity
  8
Text
100
AcDbLine
 10
21.35526066284183
 20
0.7617367135477906
 30
0.0
 11
21.50526066284183
 21
1.021544334683122
 31
0.0
  0
LINE
  5
B0D
330
18
100
AcDbEntity
  8
Text
100
AcDbLine
 10
21.50526066284183
 20
1.021544334683122
 30
0.0
 11
21.65526066284183
 21
0.7617367135477898
 31
0.0
  0
LINE
  5
B0E
330
18
100
AcDbEntity
  8
Text
100
AcDbLine
 10
21.65526066284183
 20
0.7617367135477898
 30
0.0
 11
21.35526066284183
 21
0.7617367135477906
 31
0.0
  0
TEXT
  5
B0F
330
18
100
AcDbEntity
  8
Text
100
AcDbText
 10
21.46391137660498
 20
0.8244662323865911
 30
0.0
 40
0.09
  1
B
100
AcDbText
  0
DIMENSION
  5
B19
330
18
100
AcDbEntity
  8
Dimension
100
AcDbDimension
  2
*D1
 10
10.22
 20
12.83936935954833
 30
0.0
 11
6.7345
 21
12.83936935954833
 31
0.0
 70
    32
  1
6.94 [176.4mm]
 71
     5
 42
6.971
  3
STANDARD
100
AcDbAlignedDimension
 13
3.249
 23
7.948
 33
0.0
 14
10.22
 24
11.698
 34
0.0
100
AcDbRotatedDimension
  0
ENDSEC
  0
SECTION
  2
OBJECTS
  0
DICTIONARY
  5
C
330
0
100
AcDbDictionary
281
     1
  3
ACAD_COLOR
350
10D
  3
ACAD_GROUP
350
D
  3
ACAD_LAYOUT
350
110
  3
ACAD_MATERIAL
350
10C
  3
ACAD_MLINESTYLE
350
1B
  3
ACAD_PLOTSETTINGS
350
111
  3
ACAD_PLOTSTYLENAME
350
10A
  3
ACAD_TABLESTYLE
350
10E
  3
ACDBHEADERROUNDTRIPXREC
350
B50
  3
AcDbVariableDictionary
350
13E
  3
ASE_INDEX_DICTIONARY
350
148
  0
DICTIONARY
  5
154
330
2
100
AcDbDictionary
280
     1
281
     1
  3
ACAD_LAYERFILTERS
360
158
  3
ACLYDICTIONARY
360
157
  0
DICTIONARY
  5
10D
102
{ACAD_REACTORS
330
C
102
}
330
C
100
AcDbDictionary
281
     1
  0
DICTIONARY
  5
D
102
{ACAD_REACTORS
330
C
102
}
330
C
100
AcDbDictionary
281
     1
  0
DICTIONARY
  5
110
102
{ACAD_REACTORS
330
C
102
}
330
C
100
AcDbDictionary
281
     1
  3
Layout1
350
113
  3
Model
350
112
  0
DICTIONARY
  5
10C
102
{ACAD_REACTORS
330
C
102
}
330
C
100
AcDbDictionary
281
     1
  0
DICTIONARY
  5
1B
102
{ACAD_REACTORS
330
C
102
}
330
C
100
AcDbDictionary
281
     1
  3
STANDARD
350
1C
  0
DICTIONARY
  5
111
102
{ACAD_REACTORS
330
C
102
}
330
C
100
AcDbDictionary
281
     1
  0
ACDBDICTIONARYWDFLT
  5
10A
102
{ACAD_REACTORS
330
C
102
}
330
C
100
AcDbDictionary
281
     1
  3
Normal
350
10B
100
AcDbDictionaryWithDefault
340
10B
  0
DICTIONARY
  5
10E
102
{ACAD_REACTORS
330
C
102
}
330
C
100
AcDbDictionary
281
     1
  3
Standard
350
10F
  0
DICTIONARY
  5
B50
102
{ACAD_REACTORS
330
C
102
}
330
C
100
AcDbDictionary
281
     1
  0
DICTIONARY
  5
13E
102
{ACAD_REACTORS
330
C
102
}
330
C
100
AcDbDictionary
281
     1
  3
CTABLESTYLE
350
13F
  3
DIMASSOC
350
B4D
  3
PROJECTNAME
350
B4E
  0
DICTIONARY
  5
148
102
{ACAD_REACTORS
330
C
102
}
330
C
100
AcDbDictionary
281
     1
  3
ASEBlockHierarchyIndexRecord
350
14A
1001
DCO15
1040
1529148047.148
  0
DICTIONARY
  5
158
102
{ACAD_REACTORS
330
154
102
}
330
154
100
AcDbDictionary
281
     1
  0
DICTIONARY
  5
157
102
{ACAD_REACTORS
330
154
102
}
330
154
100
AcDbDictionary
281
     1
1001
ACAD
1000
<All
  0
LAYOUT
  5
113
102
{ACAD_XDICTIONARY
360
B53
102
}
102
{ACAD_REACTORS
330
110
102
}
330
110
100
AcDbPlotSettings
  1

  2
\\RSENG\RSplotter4NT
  4

  6

 40
0.0
 41
0.0
 42
0.0
 43
0.0
 44
0.0
 45
0.0
 46
0.0
 47
0.0
 48
0.0
 49
0.0
140
0.0
141
0.0
142
1.0
143
1.0
 70
   688
 72
     0
 73
     0
 74
     5
  7
Symantec Fax Starter Edition
 75
    16
147
1.0
148
0.0
149
0.0
100
AcDbLayout
  1
Layout1
 70
     1
 71
     1
 10
0.0
 20
0.0
 11
12.0
 21
9.0
 12
0.0
 22
0.0
 32
0.0
 14
1.000000000000000E+20
 24
1.000000000000000E+20
 34
1.000000000000000E+20
 15
-1.000000000000000E+20
 25
-1.000000000000000E+20
 35
-1.000000000000000E+20
146
0.0
 13
0.0
 23
0.0
 33
0.0
 16
1.0
 26
0.0
 36
0.0
 17
0.0
 27
1.0
 37
0.0
 76
     0
330
15
  0
LAYOUT
  5
112
102
{ACAD_XDICTIONARY
360
B51
102
}
102
{ACAD_REACTORS
330
110
102
}
330
110
100
AcDbPlotSettings
  1

  2
\\RSENG\RSplotter4NT
  4

  6

 40
0.0
 41
0.0
 42
0.0
 43
0.0
 44
0.0
 45
0.0
 46
0.0
 47
0.0
 48
0.0
 49
0.0
140
0.0
141
0.0
142
1.0
143
1.0
 70
  1712
 72
     0
 73
     0
 74
     0
  7
Symantec Fax Starter Edition
 75
     0
147
1.0
148
0.0
149
0.0
100
AcDbLayout
  1
Model
 70
     1
 71
     0
 10
0.0
 20
0.0
 11
12.0
 21
9.0
 12
0.0
 22
0.0
 32
0.0
 14
0.0
 24
0.0
 34
0.0
 15
0.0
 25
0.0
 35
0.0
146
0.0
 13
0.0
 23
0.0
 33
0.0
 16
1.0
 26
0.0
 36
0.0
 17
0.0
 27
1.0
 37
0.0
 76
     0
330
18
  0
MLINESTYLE
  5
1C
102
{ACAD_REACTORS
330
1B
102
}
330
1B
100
AcDbMlineStyle
  2
STANDARD
 70
     0
  3

 62
   256
 51
90.0
 52
90.0
 71
     2
 49
0.5
 62
   256
  6
BYLAYER
 49
-0.5
 62
   256
  6
BYLAYER
  0
ACDBPLACEHOLDER
  5
10B
102
{ACAD_REACTORS
330
10A
102
}
330
10A
  0
TABLESTYLE
  5
10F
102
{ACAD_REACTORS
330
10E
102
}
330
10E
100
AcDbTableStyle
  3
Standard
 70
     0
 71
     0
 40
0.06
 41
0.06
280
     0
281
     0
  7
STANDARD
140
0.18
170
     2
 62
     0
 63
     7
283
     0
274
    -2
284
     1
 64
     0
275
    -2
285
     1
 65
     0
276
    -2
286
     1
 66
     0
277
    -2
287
     1
 67
     0
278
    -2
288
     1
 68
     0
279
    -2
289
     1
 69
     0
  7
STANDARD
140
0.25
170
     5
 62
     0
 63
     7
283
     0
274
    -2
284
     1
 64
     0
275
    -2
285
     1
 65
     0
276
    -2
286
     1
 66
     0
277
    -2
287
     1
 67
     0
278
    -2
288
     1
 68
     0
279
    -2
289
     1
 69
     0
  7
STANDARD
140
0.18
170
     5
 62
     0
 63
     7
283
     0
274
    -2
284
     1
 64
     0
275
    -2
285
     1
 65
     0
276
    -2
286
     1
 66
     0
277
    -2
287
     1
 67
     0
278
    -2
288
     1
 68
     0
279
    -2
289
     1
 69
     0
  0
DICTIONARYVAR
  5
13F
102
{ACAD_REACTORS
330
13E
102
}
330
13E
100
DictionaryVariables
280
     0
  1
STANDARD
  0
DICTIONARYVAR
  5
B4D
102
{ACAD_REACTORS
330
13E
102
}
330
13E
100
DictionaryVariables
280
     0
  1
1
  0
DICTIONARYVAR
  5
B4E
102
{ACAD_REACTORS
330
13E
102
}
330
13E
100
DictionaryVariables
280
     0
  1

  0
XRECORD
  5
14A
102
{ACAD_REACTORS
330
148
102
}
330
148
100
AcDbXrecord
280
     1
  0
DICTIONARY
  5
B53
330
113
100
AcDbDictionary
280
     1
281
     1
  3
ACAD_XREC_ROUNDTRIP
360
B54
  0
DICTIONARY
  5
B51
330
112
100
AcDbDictionary
280
     1
281
     1
  3
ACAD_XREC_ROUNDTRIP
360
B52
  0
XRECORD
  5
B54
102
{ACAD_REACTORS
330
B53
102
}
330
B53
100
AcDbXrecord
280
     1
102
SHADEPLOT
 70
     0
102
SHADEPLOTRESLEVEL
 70
     2
102
SHADEPLOTCUSTOMDPI
 70
   300
  0
XRECORD
  5
B52
102
{ACAD_REACTORS
330
B51
102
}
330
B51
100
AcDbXrecord
280
     1
102
SHADEPLOT
 70
     0
102
SHADEPLOTRESLEVEL
 70
     2
102
SHADEPLOTCUSTOMDPI
 70
   300
  0
ENDSEC
  0
EOF
