  0
SECTION
  2
HEADER
  9
$ACADVER
  1
AC1015
  9
$ACADMAINTVER
 70
    20
  9
$DWGCODEPAGE
  3
ANSI_1252
  9
$INSBASE
 10
0.0
 20
0.0
 30
0.0
  9
$EXTMIN
 10
-0.075
 20
-0.0750000000000018
 30
0.0
  9
$EXTMAX
 10
17.075
 20
11.075
 30
0.0
  9
$LIMMIN
 10
0.0
 20
0.0
  9
$LIMMAX
 10
12.0
 20
9.0
  9
$ORTHOMODE
 70
     0
  9
$REGENMODE
 70
     1
  9
$FILLMODE
 70
     1
  9
$QTEXTMODE
 70
     0
  9
$MIRRTEXT
 70
     0
  9
$LTSCALE
 40
1.0
  9
$ATTMODE
 70
     1
  9
$TEXTSIZE
 40
0.09
  9
$TRACEWID
 40
0.05
  9
$TEXTSTYLE
  7
Standard
  9
$CLAYER
  8
0
  9
$CELTYPE
  6
ByLayer
  9
$CECOLOR
 62
   256
  9
$CELTSCALE
 40
1.0
  9
$DISPSILH
 70
     0
  9
$DIMSCALE
 40
1.0
  9
$DIMASZ
 40
0.1875
  9
$DIMEXO
 40
0.0625
  9
$DIMDLI
 40
0.38
  9
$DIMRND
 40
0.0
  9
$DIMDLE
 40
0.0
  9
$DIMEXE
 40
0.125
  9
$DIMTP
 40
0.0
  9
$DIMTM
 40
0.0
  9
$DIMTXT
 40
0.125
  9
$DIMCEN
 40
0.09
  9
$DIMTSZ
 40
0.0
  9
$DIMTOL
 70
     0
  9
$DIMLIM
 70
     0
  9
$DIMTIH
 70
     1
  9
$DIMTOH
 70
     1
  9
$DIMSE1
 70
     0
  9
$DIMSE2
 70
     0
  9
$DIMTAD
 70
     0
  9
$DIMZIN
 70
     0
  9
$DIMBLK
  1

  9
$DIMASO
 70
     1
  9
$DIMSHO
 70
     1
  9
$DIMPOST
  1

  9
$DIMAPOST
  1
mm
  9
$DIMALT
 70
     1
  9
$DIMALTD
 70
     1
  9
$DIMALTF
 40
25.4
  9
$DIMLFAC
 40
1.0
  9
$DIMTOFL
 70
     0
  9
$DIMTVP
 40
0.0
  9
$DIMTIX
 70
     0
  9
$DIMSOXD
 70
     0
  9
$DIMSAH
 70
     0
  9
$DIMBLK1
  1

  9
$DIMBLK2
  1

  9
$DIMSTYLE
  2
Standard
  9
$DIMCLRD
 70
     0
  9
$DIMCLRE
 70
     0
  9
$DIMCLRT
 70
     0
  9
$DIMTFAC
 40
1.0
  9
$DIMGAP
 40
0.09
  9
$DIMJUST
 70
     0
  9
$DIMSD1
 70
     0
  9
$DIMSD2
 70
     0
  9
$DIMTOLJ
 70
     1
  9
$DIMTZIN
 70
     0
  9
$DIMALTZ
 70
     0
  9
$DIMALTTZ
 70
     0
  9
$DIMUPT
 70
     0
  9
$DIMDEC
 70
     2
  9
$DIMTDEC
 70
     2
  9
$DIMALTU
 70
     2
  9
$DIMALTTD
 70
     1
  9
$DIMTXSTY
  7
Standard
  9
$DIMAUNIT
 70
     0
  9
$DIMADEC
 70
     0
  9
$DIMALTRND
 40
0.0
  9
$DIMAZIN
 70
     0
  9
$DIMDSEP
 70
    46
  9
$DIMATFIT
 70
     3
  9
$DIMFRAC
 70
     0
  9
$DIMLDRBLK
  1

  9
$DIMLUNIT
 70
     2
  9
$DIMLWD
 70
    -2
  9
$DIMLWE
 70
    -2
  9
$DIMTMOVE
 70
     0
  9
$LUNITS
 70
     2
  9
$LUPREC
 70
     4
  9
$SKETCHINC
 40
0.1
  9
$FILLETRAD
 40
0.0
  9
$AUNITS
 70
     0
  9
$AUPREC
 70
     0
  9
$MENU
  1
.
  9
$ELEVATION
 40
0.0
  9
$PELEVATION
 40
0.0
  9
$THICKNESS
 40
0.0
  9
$LIMCHECK
 70
     0
  9
$CHAMFERA
 40
0.0
  9
$CHAMFERB
 40
0.0
  9
$CHAMFERC
 40
0.0
  9
$CHAMFERD
 40
0.0
  9
$SKPOLY
 70
     0
  9
$TDCREATE
 40
2453662.570699722
  9
$TDUCREATE
 40
2453662.779033056
  9
$TDUPDATE
 40
2454294.571129421
  9
$TDUUPDATE
 40
2454294.779462755
  9
$TDINDWG
 40
0.0162231019
  9
$TDUSRTIMER
 40
0.0162231019
  9
$USRTIMER
 70
     1
  9
$ANGBASE
 50
0.0
  9
$ANGDIR
 70
     0
  9
$PDMODE
 70
     2
  9
$PDSIZE
 40
0.075
  9
$PLINEWID
 40
0.0
  9
$SPLFRAME
 70
     0
  9
$SPLINETYPE
 70
     6
  9
$SPLINESEGS
 70
     8
  9
$HANDSEED
  5
7B2
  9
$SURFTAB1
 70
     6
  9
$SURFTAB2
 70
     6
  9
$SURFTYPE
 70
     6
  9
$SURFU
 70
     6
  9
$SURFV
 70
     6
  9
$UCSBASE
  2

  9
$UCSNAME
  2

  9
$UCSORG
 10
0.0
 20
0.0
 30
0.0
  9
$UCSXDIR
 10
1.0
 20
0.0
 30
0.0
  9
$UCSYDIR
 10
0.0
 20
1.0
 30
0.0
  9
$UCSORTHOREF
  2

  9
$UCSORTHOVIEW
 70
     0
  9
$UCSORGTOP
 10
0.0
 20
0.0
 30
0.0
  9
$UCSORGBOTTOM
 10
0.0
 20
0.0
 30
0.0
  9
$UCSORGLEFT
 10
0.0
 20
0.0
 30
0.0
  9
$UCSORGRIGHT
 10
0.0
 20
0.0
 30
0.0
  9
$UCSORGFRONT
 10
0.0
 20
0.0
 30
0.0
  9
$UCSORGBACK
 10
0.0
 20
0.0
 30
0.0
  9
$PUCSBASE
  2

  9
$PUCSNAME
  2

  9
$PUCSORG
 10
0.0
 20
0.0
 30
0.0
  9
$PUCSXDIR
 10
1.0
 20
0.0
 30
0.0
  9
$PUCSYDIR
 10
0.0
 20
1.0
 30
0.0
  9
$PUCSORTHOREF
  2

  9
$PUCSORTHOVIEW
 70
     0
  9
$PUCSORGTOP
 10
0.0
 20
0.0
 30
0.0
  9
$PUCSORGBOTTOM
 10
0.0
 20
0.0
 30
0.0
  9
$PUCSORGLEFT
 10
0.0
 20
0.0
 30
0.0
  9
$PUCSORGRIGHT
 10
0.0
 20
0.0
 30
0.0
  9
$PUCSORGFRONT
 10
0.0
 20
0.0
 30
0.0
  9
$PUCSORGBACK
 10
0.0
 20
0.0
 30
0.0
  9
$USERI1
 70
     0
  9
$USERI2
 70
     0
  9
$USERI3
 70
     0
  9
$USERI4
 70
     0
  9
$USERI5
 70
     0
  9
$USERR1
 40
0.0
  9
$USERR2
 40
0.0
  9
$USERR3
 40
0.0
  9
$USERR4
 40
0.0
  9
$USERR5
 40
0.0
  9
$WORLDVIEW
 70
     1
  9
$SHADEDGE
 70
     3
  9
$SHADEDIF
 70
    70
  9
$TILEMODE
 70
     1
  9
$MAXACTVP
 70
    64
  9
$PINSBASE
 10
0.0
 20
0.0
 30
0.0
  9
$PLIMCHECK
 70
     0
  9
$PEXTMIN
 10
0.0
 20
0.0
 30
0.0
  9
$PEXTMAX
 10
0.0
 20
0.0
 30
0.0
  9
$PLIMMIN
 10
0.0
 20
0.0
  9
$PLIMMAX
 10
12.0
 20
9.0
  9
$UNITMODE
 70
     0
  9
$VISRETAIN
 70
     1
  9
$PLINEGEN
 70
     0
  9
$PSLTSCALE
 70
     1
  9
$TREEDEPTH
 70
  3020
  9
$CMLSTYLE
  2
Standard
  9
$CMLJUST
 70
     0
  9
$CMLSCALE
 40
1.0
  9
$PROXYGRAPHICS
 70
     1
  9
$MEASUREMENT
 70
     0
  9
$CELWEIGHT
370
    -1
  9
$ENDCAPS
280
     0
  9
$JOINSTYLE
280
     0
  9
$LWDISPLAY
290
     0
  9
$INSUNITS
 70
     1
  9
$HYPERLINKBASE
  1

  9
$STYLESHEET
  1

  9
$XEDIT
290
     1
  9
$CEPSNTYPE
380
     0
  9
$PSTYLEMODE
290
     1
  9
$FINGERPRINTGUID
  2
{26F9321B-C531-4958-8295-57AE33505208}
  9
$VERSIONGUID
  2
{F35DD8B7-E8EB-4178-8633-6067CBC7D8AF}
  9
$EXTNAMES
290
     1
  9
$PSVPSCALE
 40
0.0
  9
$OLESTARTUP
290
     0
  0
ENDSEC
  0
SECTION
  2
CLASSES
  0
CLASS
  1
ACDBDICTIONARYWDFLT
  2
AcDbDictionaryWithDefault
  3
ObjectDBX Classes
 90
        0
280
     0
281
     0
  0
CLASS
  1
ACDBPLACEHOLDER
  2
AcDbPlaceHolder
  3
ObjectDBX Classes
 90
        0
280
     0
281
     0
  0
CLASS
  1
LAYOUT
  2
AcDbLayout
  3
ObjectDBX Classes
 90
        0
280
     0
281
     0
  0
CLASS
  1
DICTIONARYVAR
  2
AcDbDictionaryVar
  3
ObjectDBX Classes
 90
        0
280
     0
281
     0
  0
CLASS
  1
TABLESTYLE
  2
AcDbTableStyle
  3
ObjectDBX Classes
 90
     2047
280
     0
281
     0
  0
CLASS
  1
DIMASSOC
  2
AcDbDimAssoc
  3
"AcDbDimAssoc|Product Desc:     AcDim ARX App For Dimension|Company:          Autodesk, Inc.|WEB Address:      www.autodesk.com"
 90
        0
280
     0
281
     0
  0
CLASS
  1
SORTENTSTABLE
  2
AcDbSortentsTable
  3
ObjectDBX Classes
 90
        0
280
     0
281
     0
  0
ENDSEC
  0
SECTION
  2
TABLES
  0
TABLE
  2
VPORT
  5
8
330
0
100
AcDbSymbolTable
 70
     2
  0
VPORT
  5
7AA
330
8
100
AcDbSymbolTableRecord
100
AcDbViewportTableRecord
  2
*Active
 70
     0
 10
0.0
 20
0.0
 11
1.0
 21
1.0
 12
8.500000120739905
 22
5.89262939344545
 13
0.0
 23
0.0
 14
0.5
 24
0.5
 15
0.5
 25
0.5
 16
0.0
 26
0.0
 36
1.0
 17
0.0
 27
0.0
 37
0.0
 40
12.00774367634147
 41
1.499364675984752
 42
50.0
 43
0.0
 44
0.0
 50
0.0
 51
0.0
 71
     0
 72
  1000
 73
     1
 74
     3
 75
     0
 76
     0
 77
     0
 78
     0
281
     0
 65
     1
110
0.0
120
0.0
130
0.0
111
1.0
121
0.0
131
0.0
112
0.0
122
1.0
132
0.0
 79
     0
146
0.0
  0
ENDTAB
  0
TABLE
  2
LTYPE
  5
5
330
0
100
AcDbSymbolTable
 70
     1
  0
LTYPE
  5
14
330
5
100
AcDbSymbolTableRecord
100
AcDbLinetypeTableRecord
  2
ByBlock
 70
     0
  3

 72
    65
 73
     0
 40
0.0
  0
LTYPE
  5
15
330
5
100
AcDbSymbolTableRecord
100
AcDbLinetypeTableRecord
  2
ByLayer
 70
     0
  3

 72
    65
 73
     0
 40
0.0
  0
LTYPE
  5
16
330
5
100
AcDbSymbolTableRecord
100
AcDbLinetypeTableRecord
  2
Continuous
 70
     0
  3
Solid line
 72
    65
 73
     0
 40
0.0
  0
ENDTAB
  0
TABLE
  2
LAYER
  5
2
330
0
100
AcDbSymbolTable
 70
     6
  0
LAYER
  5
10
330
2
100
AcDbSymbolTableRecord
100
AcDbLayerTableRecord
  2
0
 70
     0
 62
     7
  6
Continuous
370
    -3
390
F
  0
LAYER
  5
8B
330
2
100
AcDbSymbolTableRecord
100
AcDbLayerTableRecord
  2
Title Block
 70
     0
 62
     3
  6
Continuous
370
    -3
390
F
  0
LAYER
  5
8C
330
2
100
AcDbSymbolTableRecord
100
AcDbLayerTableRecord
  2
Dimension
 70
     0
 62
     6
  6
Continuous
370
    -3
390
F
  0
LAYER
  5
8D
330
2
100
AcDbSymbolTableRecord
100
AcDbLayerTableRecord
  2
Text
 70
     0
 62
     1
  6
Continuous
370
    -3
390
F
  0
LAYER
  5
8E
330
2
100
AcDbSymbolTableRecord
100
AcDbLayerTableRecord
  2
Object
 70
     0
 62
     5
  6
Continuous
370
    -3
390
F
  0
LAYER
  5
6BB
330
2
100
AcDbSymbolTableRecord
100
AcDbLayerTableRecord
  2
Defpoints
 70
     0
 62
     7
  6
Continuous
290
     0
370
    -3
390
F
  0
ENDTAB
  0
TABLE
  2
STYLE
  5
3
330
0
100
AcDbSymbolTable
 70
     1
  0
STYLE
  5
11
330
3
100
AcDbSymbolTableRecord
100
AcDbTextStyleTableRecord
  2
Standard
 70
     0
 40
0.0
 41
1.0
 50
0.0
 71
     0
 42
0.09
  3
technic_.ttf
  4

1001
ACAD
1000
Technic
1071
      514
  0
ENDTAB
  0
TABLE
  2
VIEW
  5
6
330
0
100
AcDbSymbolTable
 70
     0
  0
ENDTAB
  0
TABLE
  2
UCS
  5
7
330
0
100
AcDbSymbolTable
 70
     0
  0
ENDTAB
  0
TABLE
  2
APPID
  5
9
330
0
100
AcDbSymbolTable
 70
     4
  0
APPID
  5
12
330
9
100
AcDbSymbolTableRecord
100
AcDbRegAppTableRecord
  2
ACAD
 70
     0
  0
APPID
  5
90
330
9
100
AcDbSymbolTableRecord
100
AcDbRegAppTableRecord
  2
DCO15
 70
     0
  0
APPID
  5
91
330
9
100
AcDbSymbolTableRecord
100
AcDbRegAppTableRecord
  2
AcAecLayerStandard
 70
     0
  0
APPID
  5
E0
330
9
100
AcDbSymbolTableRecord
100
AcDbRegAppTableRecord
  2
ACAD_DSTYLE_DIMTEXT_FILL
 70
     0
  0
ENDTAB
  0
TABLE
  2
DIMSTYLE
  5
A
330
0
100
AcDbSymbolTable
 70
     1
100
AcDbDimStyleTable
 71
     1
340
27
  0
DIMSTYLE
105
27
102
{ACAD_REACTORS
330
6BA
330
6D7
330
6F2
102
}
330
A
100
AcDbSymbolTableRecord
100
AcDbDimStyleTableRecord
  2
Standard
 70
     0
  4
mm
 41
0.1875
 44
0.125
140
0.125
170
     1
171
     1
271
     2
272
     2
274
     1
340
11
  0
ENDTAB
  0
TABLE
  2
BLOCK_RECORD
  5
1
330
0
100
AcDbSymbolTable
 70
     4
  0
BLOCK_RECORD
  5
1F
102
{ACAD_XDICTIONARY
360
75E
102
}
330
1
100
AcDbSymbolTableRecord
100
AcDbBlockTableRecord
  2
*Model_Space
340
22
  0
BLOCK_RECORD
  5
58
330
1
100
AcDbSymbolTableRecord
100
AcDbBlockTableRecord
  2
*Paper_Space
340
59
  0
BLOCK_RECORD
  5
5D
330
1
100
AcDbSymbolTableRecord
100
AcDbBlockTableRecord
  2
*Paper_Space0
340
5E
  0
BLOCK_RECORD
  5
6BC
330
1
100
AcDbSymbolTableRecord
100
AcDbBlockTableRecord
  2
*D1
340
0
  0
BLOCK_RECORD
  5
6D8
330
1
100
AcDbSymbolTableRecord
100
AcDbBlockTableRecord
  2
*D2
340
0
  0
BLOCK_RECORD
  5
6F3
330
1
100
AcDbSymbolTableRecord
100
AcDbBlockTableRecord
  2
*D3
340
0
  0
ENDTAB
  0
ENDSEC
  0
SECTION
  2
BLOCKS
  0
BLOCK
  5
20
330
1F
100
AcDbEntity
  8
0
100
AcDbBlockBegin
  2
*Model_Space
 70
     0
 10
0.0
 20
0.0
 30
0.0
  3
*Model_Space
  1

  0
ENDBLK
  5
21
330
1F
100
AcDbEntity
  8
0
100
AcDbBlockEnd
  0
BLOCK
  5
5A
330
58
100
AcDbEntity
 67
     1
  8
0
100
AcDbBlockBegin
  2
*Paper_Space
 70
     0
 10
0.0
 20
0.0
 30
0.0
  3
*Paper_Space
  1

  0
ENDBLK
  5
5B
330
58
100
AcDbEntity
 67
     1
  8
0
100
AcDbBlockEnd
  0
BLOCK
  5
5F
330
5D
100
AcDbEntity
  8
0
100
AcDbBlockBegin
  2
*Paper_Space0
 70
     0
 10
0.0
 20
0.0
 30
0.0
  3
*Paper_Space0
  1

  0
ENDBLK
  5
60
330
5D
100
AcDbEntity
  8
0
100
AcDbBlockEnd
  0
BLOCK
  5
6C7
330
6BC
100
AcDbEntity
  8
0
100
AcDbBlockBegin
  2
*D1
 70
     1
 10
0.0
 20
0.0
 30
0.0
  3
*D1
  1

  0
LINE
  5
6CA
330
6BC
100
AcDbEntity
  8
Dimension
 62
     0
370
    -2
100
AcDbLine
 10
6.2795
 20
7.911574440706435
 30
0.0
 11
8.457540574440869
 21
7.911574440706435
 31
0.0
  0
LINE
  5
6CB
330
6BC
100
AcDbEntity
  8
Dimension
 62
     0
370
    -2
100
AcDbLine
 10
6.3135
 20
9.968574440706435
 30
0.0
 11
8.457540574440869
 21
9.968574440706435
 31
0.0
  0
LINE
  5
6CC
330
6BC
100
AcDbEntity
  8
Dimension
 62
     0
370
    -2
100
AcDbLine
 10
8.332540574440869
 20
8.099074440706436
 30
0.0
 11
8.332540574440869
 21
8.762537890998833
 31
0.0
  0
LINE
  5
6CD
330
6BC
100
AcDbEntity
  8
Dimension
 62
     0
370
    -2
100
AcDbLine
 10
8.332540574440869
 20
9.781074440706435
 30
0.0
 11
8.332540574440869
 21
9.117610990414037
 31
0.0
  0
SOLID
  5
6CE
330
6BC
100
AcDbEntity
  8
Dimension
 62
     0
100
AcDbTrace
 10
8.301290574440869
 20
8.099074440706436
 30
0.0
 11
8.363790574440869
 21
8.099074440706436
 31
0.0
 12
8.332540574440869
 22
7.911574440706435
 32
0.0
 13
8.332540574440869
 23
7.911574440706435
 33
0.0
  0
SOLID
  5
6CF
330
6BC
100
AcDbEntity
  8
Dimension
 62
     0
100
AcDbTrace
 10
8.301290574440869
 20
9.781074440706435
 30
0.0
 11
8.363790574440869
 21
9.781074440706435
 31
0.0
 12
8.332540574440869
 22
9.968574440706435
 32
0.0
 13
8.332540574440869
 23
9.968574440706435
 33
0.0
  0
MTEXT
  5
6D0
330
6BC
100
AcDbEntity
  8
Dimension
 62
     0
100
AcDbMText
 10
8.332540574440868
 20
8.940074440706437
 30
0.0
 40
0.125
 41
0.0
 71
     5
 72
     1
  1
\A1;2.06 [52.2mm]
 73
     1
 44
1.0
1001
ACAD
1000
MTEXTBEGIN
1070
    73
1070
     1
1070
    44
1040
1.0
1070
    74
1070
     0
1000
MTEXTEND
  0
POINT
  5
6D1
330
6BC
100
AcDbEntity
  8
Defpoints
 62
     0
100
AcDbPoint
 10
6.217
 20
7.911574440706435
 30
0.0
  0
POINT
  5
6D2
330
6BC
100
AcDbEntity
  8
Defpoints
 62
     0
100
AcDbPoint
 10
6.251
 20
9.968574440706435
 30
0.0
  0
POINT
  5
6D3
330
6BC
100
AcDbEntity
  8
Defpoints
 62
     0
100
AcDbPoint
 10
8.332540574440869
 20
9.968574440706435
 30
0.0
  0
ENDBLK
  5
6C8
330
6BC
100
AcDbEntity
  8
0
100
AcDbBlockEnd
  0
BLOCK
  5
6E3
330
6D8
100
AcDbEntity
  8
0
100
AcDbBlockBegin
  2
*D2
 70
     1
 10
0.0
 20
0.0
 30
0.0
  3
*D2
  1

  0
LINE
  5
6E6
330
6D8
100
AcDbEntity
  8
Dimension
 62
     0
370
    -2
100
AcDbLine
 10
2.414999999999999
 20
4.243074440706434
 30
0.0
 11
2.414999999999999
 21
6.798199569765721
 31
0.0
  0
LINE
  5
6E7
330
6D8
100
AcDbEntity
  8
Dimension
 62
     0
370
    -2
100
AcDbLine
 10
7.016
 20
4.243074440706434
 30
0.0
 11
7.016
 21
6.798199569765721
 31
0.0
  0
LINE
  5
6E8
330
6D8
100
AcDbEntity
  8
Dimension
 62
     0
370
    -2
100
AcDbLine
 10
2.602499999999999
 20
6.673199569765721
 30
0.0
 11
4.037141081871344
 21
6.673199569765721
 31
0.0
  0
LINE
  5
6E9
330
6D8
100
AcDbEntity
  8
Dimension
 62
     0
370
    -2
100
AcDbLine
 10
6.8285
 20
6.673199569765721
 30
0.0
 11
5.393858918128654
 21
6.673199569765721
 31
0.0
  0
SOLID
  5
6EA
330
6D8
100
AcDbEntity
  8
Dimension
 62
     0
100
AcDbTrace
 10
2.602499999999999
 20
6.704449569765721
 30
0.0
 11
2.602499999999999
 21
6.641949569765721
 31
0.0
 12
2.414999999999999
 22
6.673199569765721
 32
0.0
 13
2.414999999999999
 23
6.673199569765721
 33
0.0
  0
SOLID
  5
6EB
330
6D8
100
AcDbEntity
  8
Dimension
 62
     0
100
AcDbTrace
 10
6.8285
 20
6.704449569765721
 30
0.0
 11
6.8285
 21
6.641949569765721
 31
0.0
 12
7.016
 22
6.673199569765721
 32
0.0
 13
7.016
 23
6.673199569765721
 33
0.0
  0
MTEXT
  5
6EC
330
6D8
100
AcDbEntity
  8
Dimension
 62
     0
100
AcDbMText
 10
4.715499999999999
 20
6.673199569765721
 30
0.0
 40
0.125
 41
0.0
 71
     5
 72
     1
  1
\A1;4.60 [116.9mm]
 73
     1
 44
1.0
1001
ACAD
1000
MTEXTBEGIN
1070
    73
1070
     1
1070
    44
1040
1.0
1070
    74
1070
     0
1000
MTEXTEND
  0
POINT
  5
6ED
330
6D8
100
AcDbEntity
  8
Defpoints
 62
     0
100
AcDbPoint
 10
2.414999999999999
 20
4.180574440706434
 30
0.0
  0
POINT
  5
6EE
330
6D8
100
AcDbEntity
  8
Defpoints
 62
     0
100
AcDbPoint
 10
7.016
 20
4.180574440706434
 30
0.0
  0
POINT
  5
6EF
330
6D8
100
AcDbEntity
  8
Defpoints
 62
     0
100
AcDbPoint
 10
7.016
 20
6.673199569765721
 30
0.0
  0
ENDBLK
  5
6E4
330
6D8
100
AcDbEntity
  8
0
100
AcDbBlockEnd
  0
BLOCK
  5
6FE
330
6F3
100
AcDbEntity
  8
0
100
AcDbBlockBegin
  2
*D3
 70
     1
 10
0.0
 20
0.0
 30
0.0
  3
*D3
  1

  0
LINE
  5
701
330
6F3
100
AcDbEntity
  8
Dimension
 62
     0
370
    -2
100
AcDbLine
 10
11.8765
 20
4.091574440706435
 30
0.0
 11
10.44356553927548
 21
4.091574440706435
 31
0.0
  0
LINE
  5
702
330
6F3
100
AcDbEntity
  8
Dimension
 62
     0
370
    -2
100
AcDbLine
 10
11.9025
 20
5.790574440706435
 30
0.0
 11
10.44356553927548
 21
5.790574440706435
 31
0.0
  0
LINE
  5
703
330
6F3
100
AcDbEntity
  8
Dimension
 62
     0
370
    -2
100
AcDbLine
 10
10.56856553927548
 20
4.279074440706435
 30
0.0
 11
10.56856553927548
 21
4.763537890998833
 31
0.0
  0
LINE
  5
704
330
6F3
100
AcDbEntity
  8
Dimension
 62
     0
370
    -2
100
AcDbLine
 10
10.56856553927548
 20
5.603074440706435
 30
0.0
 11
10.56856553927548
 21
5.118610990414037
 31
0.0
  0
SOLID
  5
705
330
6F3
100
AcDbEntity
  8
Dimension
 62
     0
100
AcDbTrace
 10
10.53731553927548
 20
4.279074440706435
 30
0.0
 11
10.59981553927548
 21
4.279074440706435
 31
0.0
 12
10.56856553927548
 22
4.091574440706435
 32
0.0
 13
10.56856553927548
 23
4.091574440706435
 33
0.0
  0
SOLID
  5
706
330
6F3
100
AcDbEntity
  8
Dimension
 62
     0
100
AcDbTrace
 10
10.53731553927548
 20
5.603074440706435
 30
0.0
 11
10.59981553927548
 21
5.603074440706435
 31
0.0
 12
10.56856553927548
 22
5.790574440706435
 32
0.0
 13
10.56856553927548
 23
5.790574440706435
 33
0.0
  0
MTEXT
  5
707
330
6F3
100
AcDbEntity
  8
Dimension
 62
     0
100
AcDbMText
 10
10.56856553927548
 20
4.941074440706437
 30
0.0
 40
0.125
 41
0.0
 71
     5
 72
     1
  1
\A1;1.70 [43.2mm]
 73
     1
 44
1.0
1001
ACAD
1000
MTEXTBEGIN
1070
    73
1070
     1
1070
    44
1040
1.0
1070
    74
1070
     0
1000
MTEXTEND
  0
POINT
  5
708
330
6F3
100
AcDbEntity
  8
Defpoints
 62
     0
100
AcDbPoint
 10
11.939
 20
4.091574440706435
 30
0.0
  0
POINT
  5
709
330
6F3
100
AcDbEntity
  8
Defpoints
 62
     0
100
AcDbPoint
 10
11.965
 20
5.790574440706435
 30
0.0
  0
POINT
  5
70A
330
6F3
100
AcDbEntity
  8
Defpoints
 62
     0
100
AcDbPoint
 10
10.56856553927548
 20
5.790574440706435
 30
0.0
  0
ENDBLK
  5
6FF
330
6F3
100
AcDbEntity
  8
0
100
AcDbBlockEnd
  0
ENDSEC
  0
SECTION
  2
ENTITIES
  0
LINE
  5
1C9
330
1F
100
AcDbEntity
  8
Object
100
AcDbLine
 10
13.97
 20
5.493574440706435
 30
0.0
 11
13.963
 21
5.493574440706435
 31
0.0
  0
LINE
  5
1CA
330
1F
100
AcDbEntity
  8
Object
100
AcDbLine
 10
13.963
 20
5.493574440706435
 30
0.0
 11
13.942
 21
5.493574440706435
 31
0.0
  0
LINE
  5
1CB
330
1F
100
AcDbEntity
  8
Object
100
AcDbLine
 10
13.942
 20
5.493574440706435
 30
0.0
 11
13.909
 21
5.493574440706435
 31
0.0
  0
LINE
  5
1CC
330
1F
100
AcDbEntity
  8
Object
100
AcDbLine
 10
13.909
 20
5.493574440706435
 30
0.0
 11
13.862
 21
5.493574440706435
 31
0.0
  0
LINE
  5
1CD
330
1F
100
AcDbEntity
  8
Object
100
AcDbLine
 10
13.862
 20
5.493574440706435
 30
0.0
 11
13.803
 21
5.493574440706435
 31
0.0
  0
LINE
  5
1CE
330
1F
100
AcDbEntity
  8
Object
100
AcDbLine
 10
13.803
 20
5.493574440706435
 30
0.0
 11
13.733
 21
5.493574440706435
 31
0.0
  0
LINE
  5
1CF
330
1F
100
AcDbEntity
  8
Object
100
AcDbLine
 10
13.733
 20
5.493574440706435
 30
0.0
 11
13.652
 21
5.493574440706435
 31
0.0
  0
LINE
  5
1D0
330
1F
100
AcDbEntity
  8
Object
100
AcDbLine
 10
13.652
 20
5.493574440706435
 30
0.0
 11
13.579
 21
5.493574440706435
 31
0.0
  0
LINE
  5
1D1
330
1F
100
AcDbEntity
  8
Object
100
AcDbLine
 10
13.579
 20
5.493574440706435
 30
0.0
 11
13.576
 21
5.493574440706435
 31
0.0
  0
LINE
  5
1D2
330
1F
100
AcDbEntity
  8
Object
100
AcDbLine
 10
13.576
 20
5.493574440706435
 30
0.0
 11
13.573
 21
5.493574440706435
 31
0.0
  0
LINE
  5
1D3
330
1F
100
AcDbEntity
  8
Object
100
AcDbLine
 10
13.573
 20
5.493574440706435
 30
0.0
 11
13.571
 21
5.493574440706435
 31
0.0
  0
LINE
  5
1D4
330
1F
100
AcDbEntity
  8
Object
100
AcDbLine
 10
13.571
 20
5.493574440706435
 30
0.0
 11
13.568
 21
5.493574440706435
 31
0.0
  0
LINE
  5
1D5
330
1F
100
AcDbEntity
  8
Object
100
AcDbLine
 10
13.568
 20
5.493574440706435
 30
0.0
 11
13.565
 21
5.493574440706435
 31
0.0
  0
LINE
  5
1D6
330
1F
100
AcDbEntity
  8
Object
100
AcDbLine
 10
13.565
 20
5.493574440706435
 30
0.0
 11
13.563
 21
5.493574440706435
 31
0.0
  0
LINE
  5
1D7
330
1F
100
AcDbEntity
  8
Object
100
AcDbLine
 10
13.563
 20
5.493574440706435
 30
0.0
 11
13.562
 21
5.493574440706435
 31
0.0
  0
LINE
  5
1D8
330
1F
100
AcDbEntity
  8
Object
100
AcDbLine
 10
13.562
 20
5.493574440706435
 30
0.0
 11
13.507
 21
5.493574440706435
 31
0.0
  0
LINE
  5
1D9
330
1F
100
AcDbEntity
  8
Object
100
AcDbLine
 10
13.507
 20
5.493574440706435
 30
0.0
 11
13.488
 21
5.493574440706435
 31
0.0
  0
LINE
  5
1DA
330
1F
100
AcDbEntity
  8
Object
100
AcDbLine
 10
13.488
 20
5.493574440706435
 30
0.0
 11
13.471
 21
5.493574440706435
 31
0.0
  0
LINE
  5
1DB
330
1F
100
AcDbEntity
  8
Object
100
AcDbLine
 10
13.471
 20
5.493574440706435
 30
0.0
 11
13.459
 21
5.493574440706435
 31
0.0
  0
LINE
  5
1DC
330
1F
100
AcDbEntity
  8
Object
100
AcDbLine
 10
13.459
 20
5.493574440706435
 30
0.0
 11
13.455
 21
5.493574440706435
 31
0.0
  0
LINE
  5
1DD
330
1F
100
AcDbEntity
  8
Object
100
AcDbLine
 10
13.512
 20
4.973574440706435
 30
0.0
 11
13.511
 21
4.981574440706435
 31
0.0
  0
LINE
  5
1DE
330
1F
100
AcDbEntity
  8
Object
100
AcDbLine
 10
13.512
 20
4.927574440706434
 30
0.0
 11
13.512
 21
4.915574440706435
 31
0.0
  0
LINE
  5
1DF
330
1F
100
AcDbEntity
  8
Object
100
AcDbLine
 10
13.512
 20
4.915574440706435
 30
0.0
 11
13.493
 21
4.915574440706435
 31
0.0
  0
LINE
  5
1E0
330
1F
100
AcDbEntity
  8
Object
100
AcDbLine
 10
13.507
 20
5.493574440706435
 30
0.0
 11
13.488
 21
5.493574440706435
 31
0.0
  0
LINE
  5
1E1
330
1F
100
AcDbEntity
  8
Object
100
AcDbLine
 10
13.476
 20
4.915574440706435
 30
0.0
 11
13.493
 21
4.915574440706435
 31
0.0
  0
LINE
  5
1E2
330
1F
100
AcDbEntity
  8
Object
100
AcDbLine
 10
13.488
 20
5.493574440706435
 30
0.0
 11
13.471
 21
5.493574440706435
 31
0.0
  0
LINE
  5
1E3
330
1F
100
AcDbEntity
  8
Object
100
AcDbLine
 10
13.464
 20
4.915574440706435
 30
0.0
 11
13.476
 21
4.915574440706435
 31
0.0
  0
LINE
  5
1E4
330
1F
100
AcDbEntity
  8
Object
100
AcDbLine
 10
13.471
 20
5.493574440706435
 30
0.0
 11
13.459
 21
5.493574440706435
 31
0.0
  0
LINE
  5
1E5
330
1F
100
AcDbEntity
  8
Object
100
AcDbLine
 10
13.459
 20
5.493574440706435
 30
0.0
 11
13.455
 21
5.493574440706435
 31
0.0
  0
LINE
  5
1E6
330
1F
100
AcDbEntity
  8
Object
100
AcDbLine
 10
13.464
 20
4.915574440706435
 30
0.0
 11
13.46
 21
4.915574440706435
 31
0.0
  0
LINE
  5
1E7
330
1F
100
AcDbEntity
  8
Object
100
AcDbLine
 10
13.46
 20
4.915574440706435
 30
0.0
 11
13.454
 21
5.493574440706435
 31
0.0
  0
LINE
  5
1E8
330
1F
100
AcDbEntity
  8
Object
100
AcDbLine
 10
13.454
 20
5.493574440706435
 30
0.0
 11
13.455
 21
5.493574440706435
 31
0.0
  0
LINE
  5
1E9
330
1F
100
AcDbEntity
  8
Object
100
AcDbLine
 10
13.512
 20
4.915574440706435
 30
0.0
 11
13.512
 21
4.918574440706435
 31
0.0
  0
LINE
  5
1EA
330
1F
100
AcDbEntity
  8
Object
100
AcDbLine
 10
13.512
 20
4.918574440706435
 30
0.0
 11
13.512
 21
4.925574440706435
 31
0.0
  0
LINE
  5
1EB
330
1F
100
AcDbEntity
  8
Object
100
AcDbLine
 10
13.512
 20
4.925574440706435
 30
0.0
 11
13.512
 21
4.938574440706435
 31
0.0
  0
LINE
  5
1EC
330
1F
100
AcDbEntity
  8
Object
100
AcDbLine
 10
13.512
 20
4.978574440706434
 30
0.0
 11
13.512
 21
4.956574440706435
 31
0.0
  0
LINE
  5
1ED
330
1F
100
AcDbEntity
  8
Object
100
AcDbLine
 10
13.512
 20
4.956574440706435
 30
0.0
 11
13.512
 21
4.938574440706435
 31
0.0
  0
LINE
  5
1EE
330
1F
100
AcDbEntity
  8
Object
100
AcDbLine
 10
13.511
 20
5.028574440706435
 30
0.0
 11
13.511
 21
5.002574440706435
 31
0.0
  0
LINE
  5
1EF
330
1F
100
AcDbEntity
  8
Object
100
AcDbLine
 10
13.511
 20
5.002574440706435
 30
0.0
 11
13.512
 21
4.978574440706434
 31
0.0
  0
LINE
  5
1F0
330
1F
100
AcDbEntity
  8
Object
100
AcDbLine
 10
13.511
 20
5.053574440706436
 30
0.0
 11
13.511
 21
5.028574440706435
 31
0.0
  0
LINE
  5
1F1
330
1F
100
AcDbEntity
  8
Object
100
AcDbLine
 10
13.512
 20
4.973574440706435
 30
0.0
 11
13.511
 21
4.981574440706435
 31
0.0
  0
LINE
  5
1F2
330
1F
100
AcDbEntity
  8
Object
100
AcDbLine
 10
13.512
 20
4.915574440706435
 30
0.0
 11
13.512
 21
4.927574440706434
 31
0.0
  0
LINE
  5
1F3
330
1F
100
AcDbEntity
  8
Object
100
AcDbLine
 10
13.507
 20
5.493574440706435
 30
0.0
 11
13.511
 21
5.053574440706436
 31
0.0
  0
LINE
  5
1F4
330
1F
100
AcDbEntity
  8
Object
100
AcDbLine
 10
13.415
 20
5.640574440706435
 30
0.0
 11
13.455
 21
5.493574440706435
 31
0.0
  0
LINE
  5
1F5
330
1F
100
AcDbEntity
  8
Object
100
AcDbLine
 10
13.455
 20
5.493574440706435
 30
0.0
 11
13.375
 21
5.790574440706435
 31
0.0
  0
LINE
  5
1F6
330
1F
100
AcDbEntity
  8
Object
100
AcDbLine
 10
13.375
 20
5.790574440706435
 30
0.0
 11
13.415
 21
5.640574440706435
 31
0.0
  0
LINE
  5
1F7
330
1F
100
AcDbEntity
  8
Object
100
AcDbLine
 10
13.652
 20
5.493574440706435
 30
0.0
 11
13.652
 21
4.180574440706434
 31
0.0
  0
LINE
  5
1F8
330
1F
100
AcDbEntity
  8
Object
100
AcDbLine
 10
13.455
 20
5.493574440706435
 30
0.0
 11
13.454
 21
5.493574440706435
 31
0.0
  0
LINE
  5
1F9
330
1F
100
AcDbEntity
  8
Object
100
AcDbLine
 10
13.652
 20
5.493574440706435
 30
0.0
 11
13.579
 21
5.493574440706435
 31
0.0
  0
LINE
  5
1FA
330
1F
100
AcDbEntity
  8
Object
100
AcDbLine
 10
13.582
 20
4.723574440706435
 30
0.0
 11
13.639
 21
4.662574440706436
 31
0.0
  0
LINE
  5
1FB
330
1F
100
AcDbEntity
  8
Object
100
AcDbLine
 10
13.573
 20
4.915574440706435
 30
0.0
 11
13.568
 21
4.915574440706435
 31
0.0
  0
LINE
  5
1FC
330
1F
100
AcDbEntity
  8
Object
100
AcDbLine
 10
13.582
 20
4.723574440706435
 30
0.0
 11
13.518
 21
4.780574440706435
 31
0.0
  0
LINE
  5
1FD
330
1F
100
AcDbEntity
  8
Object
100
AcDbLine
 10
13.518
 20
4.780574440706435
 30
0.0
 11
13.447
 21
4.832574440706435
 31
0.0
  0
LINE
  5
1FE
330
1F
100
AcDbEntity
  8
Object
100
AcDbLine
 10
13.455
 20
5.493574440706435
 30
0.0
 11
13.415
 21
5.640574440706435
 31
0.0
  0
LINE
  5
1FF
330
1F
100
AcDbEntity
  8
Object
100
AcDbLine
 10
13.415
 20
5.640574440706435
 30
0.0
 11
13.375
 21
5.790574440706435
 31
0.0
  0
LINE
  5
200
330
1F
100
AcDbEntity
  8
Object
100
AcDbLine
 10
13.37
 20
4.878574440706435
 30
0.0
 11
13.447
 21
4.832574440706435
 31
0.0
  0
LINE
  5
201
330
1F
100
AcDbEntity
  8
Object
100
AcDbLine
 10
13.375
 20
5.790574440706435
 30
0.0
 11
13.267
 21
5.790574440706435
 31
0.0
  0
LINE
  5
202
330
1F
100
AcDbEntity
  8
Object
100
AcDbLine
 10
13.196
 20
4.949574440706435
 30
0.0
 11
13.286
 21
4.918574440706435
 31
0.0
  0
LINE
  5
203
330
1F
100
AcDbEntity
  8
Object
100
AcDbLine
 10
13.267
 20
5.790574440706435
 30
0.0
 11
13.155
 21
5.790574440706435
 31
0.0
  0
LINE
  5
204
330
1F
100
AcDbEntity
  8
Object
100
AcDbLine
 10
13.101
 20
4.971574440706435
 30
0.0
 11
13.196
 21
4.949574440706435
 31
0.0
  0
LINE
  5
205
330
1F
100
AcDbEntity
  8
Object
100
AcDbLine
 10
13.155
 20
5.790574440706435
 30
0.0
 11
13.039
 21
5.790574440706435
 31
0.0
  0
LINE
  5
206
330
1F
100
AcDbEntity
  8
Object
100
AcDbLine
 10
13.003
 20
4.981574440706435
 30
0.0
 11
13.101
 21
4.971574440706435
 31
0.0
  0
LINE
  5
207
330
1F
100
AcDbEntity
  8
Object
100
AcDbLine
 10
13.039
 20
5.790574440706435
 30
0.0
 11
12.922
 21
5.790574440706435
 31
0.0
  0
LINE
  5
208
330
1F
100
AcDbEntity
  8
Object
100
AcDbLine
 10
12.903
 20
4.980574440706435
 30
0.0
 11
13.003
 21
4.981574440706435
 31
0.0
  0
LINE
  5
209
330
1F
100
AcDbEntity
  8
Object
100
AcDbLine
 10
12.922
 20
5.790574440706435
 30
0.0
 11
12.806
 21
5.790574440706435
 31
0.0
  0
LINE
  5
20A
330
1F
100
AcDbEntity
  8
Object
100
AcDbLine
 10
12.903
 20
4.980574440706435
 30
0.0
 11
12.806
 21
4.967574440706435
 31
0.0
  0
LINE
  5
20B
330
1F
100
AcDbEntity
  8
Object
100
AcDbLine
 10
12.806
 20
4.967574440706435
 30
0.0
 11
12.712
 21
4.943574440706434
 31
0.0
  0
LINE
  5
20C
330
1F
100
AcDbEntity
  8
Object
100
AcDbLine
 10
12.806
 20
5.790574440706435
 30
0.0
 11
12.693
 21
5.790574440706435
 31
0.0
  0
LINE
  5
20D
330
1F
100
AcDbEntity
  8
Object
100
AcDbLine
 10
12.623
 20
4.910574440706435
 30
0.0
 11
12.712
 21
4.943574440706434
 31
0.0
  0
LINE
  5
20E
330
1F
100
AcDbEntity
  8
Object
100
AcDbLine
 10
12.693
 20
5.790574440706435
 30
0.0
 11
12.583
 21
5.790574440706435
 31
0.0
  0
LINE
  5
20F
330
1F
100
AcDbEntity
  8
Object
100
AcDbLine
 10
12.541
 20
4.869574440706434
 30
0.0
 11
12.623
 21
4.910574440706435
 31
0.0
  0
LINE
  5
210
330
1F
100
AcDbEntity
  8
Object
100
AcDbLine
 10
12.583
 20
5.790574440706435
 30
0.0
 11
12.48
 21
5.790574440706435
 31
0.0
  0
LINE
  5
211
330
1F
100
AcDbEntity
  8
Object
100
AcDbLine
 10
12.541
 20
4.869574440706434
 30
0.0
 11
12.465
 21
4.820574440706435
 31
0.0
  0
LINE
  5
212
330
1F
100
AcDbEntity
  8
Object
100
AcDbLine
 10
12.465
 20
4.820574440706435
 30
0.0
 11
12.396
 21
4.767574440706435
 31
0.0
  0
LINE
  5
213
330
1F
100
AcDbEntity
  8
Object
100
AcDbLine
 10
12.48
 20
5.790574440706435
 30
0.0
 11
12.385
 21
5.790574440706435
 31
0.0
  0
LINE
  5
214
330
1F
100
AcDbEntity
  8
Object
100
AcDbLine
 10
12.334
 20
4.710574440706435
 30
0.0
 11
12.396
 21
4.767574440706435
 31
0.0
  0
LINE
  5
215
330
1F
100
AcDbEntity
  8
Object
100
AcDbLine
 10
12.385
 20
5.790574440706435
 30
0.0
 11
12.299
 21
5.790574440706435
 31
0.0
  0
LINE
  5
216
330
1F
100
AcDbEntity
  8
Object
100
AcDbLine
 10
12.334
 20
4.710574440706435
 30
0.0
 11
12.277
 21
4.648574440706434
 31
0.0
  0
LINE
  5
217
330
1F
100
AcDbEntity
  8
Object
100
AcDbLine
 10
12.277
 20
4.648574440706434
 30
0.0
 11
12.227
 21
4.584574440706434
 31
0.0
  0
LINE
  5
218
330
1F
100
AcDbEntity
  8
Object
100
AcDbLine
 10
12.299
 20
5.790574440706435
 30
0.0
 11
12.224
 21
5.790574440706435
 31
0.0
  0
LINE
  5
219
330
1F
100
AcDbEntity
  8
Object
100
AcDbLine
 10
12.183
 20
4.518574440706435
 30
0.0
 11
12.227
 21
4.584574440706434
 31
0.0
  0
LINE
  5
21A
330
1F
100
AcDbEntity
  8
Object
100
AcDbLine
 10
12.224
 20
5.790574440706435
 30
0.0
 11
12.161
 21
5.790574440706435
 31
0.0
  0
LINE
  5
21B
330
1F
100
AcDbEntity
  8
Object
100
AcDbLine
 10
12.183
 20
4.518574440706435
 30
0.0
 11
12.145
 21
4.450574440706435
 31
0.0
  0
LINE
  5
21C
330
1F
100
AcDbEntity
  8
Object
100
AcDbLine
 10
12.145
 20
4.450574440706435
 30
0.0
 11
12.111
 21
4.380574440706435
 31
0.0
  0
LINE
  5
21D
330
1F
100
AcDbEntity
  8
Object
100
AcDbLine
 10
12.161
 20
5.790574440706435
 30
0.0
 11
12.111
 21
5.790574440706435
 31
0.0
  0
LINE
  5
21E
330
1F
100
AcDbEntity
  8
Object
100
AcDbLine
 10
12.111
 20
4.380574440706435
 30
0.0
 11
12.083
 21
4.309574440706435
 31
0.0
  0
LINE
  5
21F
330
1F
100
AcDbEntity
  8
Object
100
AcDbLine
 10
12.083
 20
4.309574440706435
 30
0.0
 11
12.059
 21
4.237574440706435
 31
0.0
  0
LINE
  5
220
330
1F
100
AcDbEntity
  8
Object
100
AcDbLine
 10
12.111
 20
5.790574440706435
 30
0.0
 11
12.074
 21
5.790574440706435
 31
0.0
  0
LINE
  5
221
330
1F
100
AcDbEntity
  8
Object
100
AcDbLine
 10
12.074
 20
5.790574440706435
 30
0.0
 11
12.052
 21
5.790574440706435
 31
0.0
  0
LINE
  5
222
330
1F
100
AcDbEntity
  8
Object
100
AcDbLine
 10
12.059
 20
4.237574440706435
 30
0.0
 11
12.041
 21
4.165574440706435
 31
0.0
  0
LINE
  5
223
330
1F
100
AcDbEntity
  8
Object
100
AcDbLine
 10
12.041
 20
4.165574440706435
 30
0.0
 11
12.027
 21
4.092574440706435
 31
0.0
  0
LINE
  5
224
330
1F
100
AcDbEntity
  8
Object
100
AcDbLine
 10
12.027
 20
4.092574440706435
 30
0.0
 11
12.022
 21
4.091574440706435
 31
0.0
  0
LINE
  5
225
330
1F
100
AcDbEntity
  8
Object
100
AcDbLine
 10
12.022
 20
4.091574440706435
 30
0.0
 11
12.021
 21
4.091574440706435
 31
0.0
  0
LINE
  5
226
330
1F
100
AcDbEntity
  8
Object
100
AcDbLine
 10
12.021
 20
4.091574440706435
 30
0.0
 11
12.02
 21
4.091574440706435
 31
0.0
  0
LINE
  5
227
330
1F
100
AcDbEntity
  8
Object
100
AcDbLine
 10
12.02
 20
4.091574440706435
 30
0.0
 11
12.019
 21
4.091574440706435
 31
0.0
  0
LINE
  5
228
330
1F
100
AcDbEntity
  8
Object
100
AcDbLine
 10
12.052
 20
5.790574440706435
 30
0.0
 11
12.045
 21
5.790574440706435
 31
0.0
  0
LINE
  5
229
330
1F
100
AcDbEntity
  8
Object
100
AcDbLine
 10
13.455
 20
5.493574440706435
 30
0.0
 11
13.375
 21
5.790574440706435
 31
0.0
  0
LINE
  5
22A
330
1F
100
AcDbEntity
  8
Object
100
AcDbLine
 10
11.937
 20
4.095574440706435
 30
0.0
 11
11.939
 21
4.091574440706435
 31
0.0
  0
LINE
  5
22B
330
1F
100
AcDbEntity
  8
Object
100
AcDbLine
 10
11.936
 20
4.128574440706435
 30
0.0
 11
11.936
 21
4.109574440706435
 31
0.0
  0
LINE
  5
22C
330
1F
100
AcDbEntity
  8
Object
100
AcDbLine
 10
11.965
 20
5.790574440706435
 30
0.0
 11
11.936
 21
4.152574440706435
 31
0.0
  0
LINE
  5
22D
330
1F
100
AcDbEntity
  8
Object
100
AcDbLine
 10
11.936
 20
4.152574440706435
 30
0.0
 11
11.936
 21
4.128574440706435
 31
0.0
  0
LINE
  5
22E
330
1F
100
AcDbEntity
  8
Object
100
AcDbLine
 10
11.936
 20
4.109574440706435
 30
0.0
 11
11.937
 21
4.095574440706435
 31
0.0
  0
LINE
  5
22F
330
1F
100
AcDbEntity
  8
Object
100
AcDbLine
 10
13.573
 20
5.493574440706435
 30
0.0
 11
13.576
 21
5.493574440706435
 31
0.0
  0
LINE
  5
230
330
1F
100
AcDbEntity
  8
Object
100
AcDbLine
 10
13.576
 20
5.493574440706435
 30
0.0
 11
13.579
 21
5.493574440706435
 31
0.0
  0
LINE
  5
231
330
1F
100
AcDbEntity
  8
Object
100
AcDbLine
 10
13.579
 20
5.493574440706435
 30
0.0
 11
13.573
 21
4.915574440706435
 31
0.0
  0
LINE
  5
232
330
1F
100
AcDbEntity
  8
Object
100
AcDbLine
 10
13.573
 20
4.915574440706435
 30
0.0
 11
13.571
 21
4.915574440706435
 31
0.0
  0
LINE
  5
233
330
1F
100
AcDbEntity
  8
Object
100
AcDbLine
 10
13.571
 20
4.915574440706435
 30
0.0
 11
13.568
 21
4.915574440706435
 31
0.0
  0
LINE
  5
234
330
1F
100
AcDbEntity
  8
Object
100
AcDbLine
 10
13.568
 20
5.493574440706435
 30
0.0
 11
13.571
 21
5.493574440706435
 31
0.0
  0
LINE
  5
235
330
1F
100
AcDbEntity
  8
Object
100
AcDbLine
 10
13.571
 20
5.493574440706435
 30
0.0
 11
13.573
 21
5.493574440706435
 31
0.0
  0
LINE
  5
236
330
1F
100
AcDbEntity
  8
Object
100
AcDbLine
 10
13.565
 20
4.915574440706435
 30
0.0
 11
13.568
 21
4.915574440706435
 31
0.0
  0
LINE
  5
237
330
1F
100
AcDbEntity
  8
Object
100
AcDbLine
 10
13.563
 20
5.493574440706435
 30
0.0
 11
13.565
 21
5.493574440706435
 31
0.0
  0
LINE
  5
238
330
1F
100
AcDbEntity
  8
Object
100
AcDbLine
 10
13.565
 20
5.493574440706435
 30
0.0
 11
13.568
 21
5.493574440706435
 31
0.0
  0
LINE
  5
239
330
1F
100
AcDbEntity
  8
Object
100
AcDbLine
 10
13.563
 20
4.915574440706435
 30
0.0
 11
13.565
 21
4.915574440706435
 31
0.0
  0
LINE
  5
23A
330
1F
100
AcDbEntity
  8
Object
100
AcDbLine
 10
13.562
 20
5.493574440706435
 30
0.0
 11
13.563
 21
5.493574440706435
 31
0.0
  0
LINE
  5
23B
330
1F
100
AcDbEntity
  8
Object
100
AcDbLine
 10
13.563
 20
4.915574440706435
 30
0.0
 11
13.56
 21
4.915574440706435
 31
0.0
  0
LINE
  5
23C
330
1F
100
AcDbEntity
  8
Object
100
AcDbLine
 10
13.56
 20
4.915574440706435
 30
0.0
 11
13.558
 21
4.915574440706435
 31
0.0
  0
LINE
  5
23D
330
1F
100
AcDbEntity
  8
Object
100
AcDbLine
 10
13.558
 20
4.915574440706435
 30
0.0
 11
13.557
 21
4.915574440706435
 31
0.0
  0
LINE
  5
23E
330
1F
100
AcDbEntity
  8
Object
100
AcDbLine
 10
13.557
 20
4.915574440706435
 30
0.0
 11
13.557
 21
4.927574440706434
 31
0.0
  0
LINE
  5
23F
330
1F
100
AcDbEntity
  8
Object
100
AcDbLine
 10
13.557
 20
4.981574440706435
 30
0.0
 11
13.557
 21
4.973574440706435
 31
0.0
  0
LINE
  5
240
330
1F
100
AcDbEntity
  8
Object
100
AcDbLine
 10
13.985
 20
4.180574440706434
 30
0.0
 11
13.993
 21
4.180574440706434
 31
0.0
  0
LINE
  5
241
330
1F
100
AcDbEntity
  8
Object
100
AcDbLine
 10
13.963
 20
5.493574440706435
 30
0.0
 11
13.97
 21
5.493574440706435
 31
0.0
  0
LINE
  5
242
330
1F
100
AcDbEntity
  8
Object
100
AcDbLine
 10
13.97
 20
5.493574440706435
 30
0.0
 11
13.993
 21
4.180574440706434
 31
0.0
  0
LINE
  5
243
330
1F
100
AcDbEntity
  8
Object
100
AcDbLine
 10
13.963
 20
5.493574440706435
 30
0.0
 11
13.942
 21
5.493574440706435
 31
0.0
  0
LINE
  5
244
330
1F
100
AcDbEntity
  8
Object
100
AcDbLine
 10
13.985
 20
4.180574440706434
 30
0.0
 11
13.963
 21
4.180574440706434
 31
0.0
  0
LINE
  5
245
330
1F
100
AcDbEntity
  8
Object
100
AcDbLine
 10
13.963
 20
4.180574440706434
 30
0.0
 11
13.927
 21
4.180574440706434
 31
0.0
  0
LINE
  5
246
330
1F
100
AcDbEntity
  8
Object
100
AcDbLine
 10
13.942
 20
5.493574440706435
 30
0.0
 11
13.909
 21
5.493574440706435
 31
0.0
  0
LINE
  5
247
330
1F
100
AcDbEntity
  8
Object
100
AcDbLine
 10
13.909
 20
5.493574440706435
 30
0.0
 11
13.862
 21
5.493574440706435
 31
0.0
  0
LINE
  5
248
330
1F
100
AcDbEntity
  8
Object
100
AcDbLine
 10
13.927
 20
4.180574440706434
 30
0.0
 11
13.877
 21
4.180574440706434
 31
0.0
  0
LINE
  5
249
330
1F
100
AcDbEntity
  8
Object
100
AcDbLine
 10
13.877
 20
4.180574440706434
 30
0.0
 11
13.814
 21
4.180574440706434
 31
0.0
  0
LINE
  5
24A
330
1F
100
AcDbEntity
  8
Object
100
AcDbLine
 10
13.862
 20
5.493574440706435
 30
0.0
 11
13.803
 21
5.493574440706435
 31
0.0
  0
LINE
  5
24B
330
1F
100
AcDbEntity
  8
Object
100
AcDbLine
 10
13.803
 20
5.493574440706435
 30
0.0
 11
13.733
 21
5.493574440706435
 31
0.0
  0
LINE
  5
24C
330
1F
100
AcDbEntity
  8
Object
100
AcDbLine
 10
13.814
 20
4.180574440706434
 30
0.0
 11
13.738
 21
4.180574440706434
 31
0.0
  0
LINE
  5
24D
330
1F
100
AcDbEntity
  8
Object
100
AcDbLine
 10
13.738
 20
4.180574440706434
 30
0.0
 11
13.652
 21
4.180574440706434
 31
0.0
  0
LINE
  5
24E
330
1F
100
AcDbEntity
  8
Object
100
AcDbLine
 10
13.652
 20
4.180574440706434
 30
0.0
 11
13.652
 21
5.493574440706435
 31
0.0
  0
LINE
  5
24F
330
1F
100
AcDbEntity
  8
Object
100
AcDbLine
 10
13.652
 20
5.493574440706435
 30
0.0
 11
13.733
 21
5.493574440706435
 31
0.0
  0
LINE
  5
250
330
1F
100
AcDbEntity
  8
Object
100
AcDbLine
 10
13.562
 20
5.493574440706435
 30
0.0
 11
13.558
 21
5.053574440706436
 31
0.0
  0
LINE
  5
251
330
1F
100
AcDbEntity
  8
Object
100
AcDbLine
 10
13.558
 20
5.053574440706436
 30
0.0
 11
13.511
 21
5.053574440706436
 31
0.0
  0
LINE
  5
252
330
1F
100
AcDbEntity
  8
Object
100
AcDbLine
 10
13.511
 20
5.053574440706436
 30
0.0
 11
13.507
 21
5.493574440706435
 31
0.0
  0
LINE
  5
253
330
1F
100
AcDbEntity
  8
Object
100
AcDbLine
 10
13.507
 20
5.493574440706435
 30
0.0
 11
13.562
 21
5.493574440706435
 31
0.0
  0
LINE
  5
254
330
1F
100
AcDbEntity
  8
Object
100
AcDbLine
 10
13.562
 20
5.493574440706435
 30
0.0
 11
13.558
 21
5.053574440706436
 31
0.0
  0
LINE
  5
255
330
1F
100
AcDbEntity
  8
Object
100
AcDbLine
 10
13.558
 20
5.002574440706435
 30
0.0
 11
13.558
 21
5.028574440706435
 31
0.0
  0
LINE
  5
256
330
1F
100
AcDbEntity
  8
Object
100
AcDbLine
 10
13.558
 20
5.028574440706435
 30
0.0
 11
13.558
 21
5.053574440706436
 31
0.0
  0
LINE
  5
257
330
1F
100
AcDbEntity
  8
Object
100
AcDbLine
 10
13.557
 20
4.978574440706434
 30
0.0
 11
13.557
 21
4.956574440706435
 31
0.0
  0
LINE
  5
258
330
1F
100
AcDbEntity
  8
Object
100
AcDbLine
 10
13.557
 20
4.956574440706435
 30
0.0
 11
13.557
 21
4.938574440706435
 31
0.0
  0
LINE
  5
259
330
1F
100
AcDbEntity
  8
Object
100
AcDbLine
 10
13.557
 20
4.978574440706434
 30
0.0
 11
13.558
 21
5.002574440706435
 31
0.0
  0
LINE
  5
25A
330
1F
100
AcDbEntity
  8
Object
100
AcDbLine
 10
13.557
 20
4.927574440706434
 30
0.0
 11
13.557
 21
4.915574440706435
 31
0.0
  0
LINE
  5
25B
330
1F
100
AcDbEntity
  8
Object
100
AcDbLine
 10
13.557
 20
4.981574440706435
 30
0.0
 11
13.557
 21
4.973574440706435
 31
0.0
  0
LINE
  5
25C
330
1F
100
AcDbEntity
  8
Object
100
AcDbLine
 10
13.557
 20
4.915574440706435
 30
0.0
 11
13.557
 21
4.918574440706435
 31
0.0
  0
LINE
  5
25D
330
1F
100
AcDbEntity
  8
Object
100
AcDbLine
 10
13.557
 20
4.938574440706435
 30
0.0
 11
13.557
 21
4.925574440706435
 31
0.0
  0
LINE
  5
25E
330
1F
100
AcDbEntity
  8
Object
100
AcDbLine
 10
13.557
 20
4.925574440706435
 30
0.0
 11
13.557
 21
4.918574440706435
 31
0.0
  0
LINE
  5
25F
330
1F
100
AcDbEntity
  8
Object
100
AcDbLine
 10
13.993
 20
4.180574440706434
 30
0.0
 11
13.985
 21
4.180574440706434
 31
0.0
  0
LINE
  5
260
330
1F
100
AcDbEntity
  8
Object
100
AcDbLine
 10
13.985
 20
4.180574440706434
 30
0.0
 11
13.963
 21
4.180574440706434
 31
0.0
  0
LINE
  5
261
330
1F
100
AcDbEntity
  8
Object
100
AcDbLine
 10
13.963
 20
4.180574440706434
 30
0.0
 11
13.927
 21
4.180574440706434
 31
0.0
  0
LINE
  5
262
330
1F
100
AcDbEntity
  8
Object
100
AcDbLine
 10
13.927
 20
4.180574440706434
 30
0.0
 11
13.877
 21
4.180574440706434
 31
0.0
  0
LINE
  5
263
330
1F
100
AcDbEntity
  8
Object
100
AcDbLine
 10
13.877
 20
4.180574440706434
 30
0.0
 11
13.814
 21
4.180574440706434
 31
0.0
  0
LINE
  5
264
330
1F
100
AcDbEntity
  8
Object
100
AcDbLine
 10
13.814
 20
4.180574440706434
 30
0.0
 11
13.738
 21
4.180574440706434
 31
0.0
  0
LINE
  5
265
330
1F
100
AcDbEntity
  8
Object
100
AcDbLine
 10
13.738
 20
4.180574440706434
 30
0.0
 11
13.652
 21
4.180574440706434
 31
0.0
  0
LINE
  5
266
330
1F
100
AcDbEntity
  8
Object
100
AcDbLine
 10
13.573
 20
4.915574440706435
 30
0.0
 11
13.571
 21
4.915574440706435
 31
0.0
  0
LINE
  5
267
330
1F
100
AcDbEntity
  8
Object
100
AcDbLine
 10
13.571
 20
4.915574440706435
 30
0.0
 11
13.568
 21
4.915574440706435
 31
0.0
  0
LINE
  5
268
330
1F
100
AcDbEntity
  8
Object
100
AcDbLine
 10
13.568
 20
4.915574440706435
 30
0.0
 11
13.565
 21
4.915574440706435
 31
0.0
  0
LINE
  5
269
330
1F
100
AcDbEntity
  8
Object
100
AcDbLine
 10
13.565
 20
4.915574440706435
 30
0.0
 11
13.563
 21
4.915574440706435
 31
0.0
  0
LINE
  5
26A
330
1F
100
AcDbEntity
  8
Object
100
AcDbLine
 10
13.563
 20
4.915574440706435
 30
0.0
 11
13.56
 21
4.915574440706435
 31
0.0
  0
LINE
  5
26B
330
1F
100
AcDbEntity
  8
Object
100
AcDbLine
 10
13.56
 20
4.915574440706435
 30
0.0
 11
13.558
 21
4.915574440706435
 31
0.0
  0
LINE
  5
26C
330
1F
100
AcDbEntity
  8
Object
100
AcDbLine
 10
13.558
 20
4.915574440706435
 30
0.0
 11
13.557
 21
4.915574440706435
 31
0.0
  0
LINE
  5
26D
330
1F
100
AcDbEntity
  8
Object
100
AcDbLine
 10
13.573
 20
4.915574440706435
 30
0.0
 11
13.568
 21
4.915574440706435
 31
0.0
  0
LINE
  5
26E
330
1F
100
AcDbEntity
  8
Object
100
AcDbLine
 10
13.557
 20
4.915574440706435
 30
0.0
 11
13.512
 21
4.915574440706435
 31
0.0
  0
LINE
  5
26F
330
1F
100
AcDbEntity
  8
Object
100
AcDbLine
 10
13.512
 20
4.915574440706435
 30
0.0
 11
13.493
 21
4.915574440706435
 31
0.0
  0
LINE
  5
270
330
1F
100
AcDbEntity
  8
Object
100
AcDbLine
 10
13.493
 20
4.915574440706435
 30
0.0
 11
13.476
 21
4.915574440706435
 31
0.0
  0
LINE
  5
271
330
1F
100
AcDbEntity
  8
Object
100
AcDbLine
 10
13.476
 20
4.915574440706435
 30
0.0
 11
13.464
 21
4.915574440706435
 31
0.0
  0
LINE
  5
272
330
1F
100
AcDbEntity
  8
Object
100
AcDbLine
 10
13.464
 20
4.915574440706435
 30
0.0
 11
13.46
 21
4.915574440706435
 31
0.0
  0
LINE
  5
273
330
1F
100
AcDbEntity
  8
Object
100
AcDbLine
 10
13.557
 20
4.938574440706435
 30
0.0
 11
13.557
 21
4.925574440706435
 31
0.0
  0
LINE
  5
274
330
1F
100
AcDbEntity
  8
Object
100
AcDbLine
 10
13.557
 20
4.925574440706435
 30
0.0
 11
13.557
 21
4.918574440706435
 31
0.0
  0
LINE
  5
275
330
1F
100
AcDbEntity
  8
Object
100
AcDbLine
 10
13.557
 20
4.918574440706435
 30
0.0
 11
13.557
 21
4.915574440706435
 31
0.0
  0
LINE
  5
276
330
1F
100
AcDbEntity
  8
Object
100
AcDbLine
 10
13.557
 20
4.915574440706435
 30
0.0
 11
13.512
 21
4.915574440706435
 31
0.0
  0
LINE
  5
277
330
1F
100
AcDbEntity
  8
Object
100
AcDbLine
 10
13.512
 20
4.915574440706435
 30
0.0
 11
13.512
 21
4.918574440706435
 31
0.0
  0
LINE
  5
278
330
1F
100
AcDbEntity
  8
Object
100
AcDbLine
 10
13.512
 20
4.918574440706435
 30
0.0
 11
13.512
 21
4.925574440706435
 31
0.0
  0
LINE
  5
279
330
1F
100
AcDbEntity
  8
Object
100
AcDbLine
 10
13.512
 20
4.925574440706435
 30
0.0
 11
13.512
 21
4.938574440706435
 31
0.0
  0
LINE
  5
27A
330
1F
100
AcDbEntity
  8
Object
100
AcDbLine
 10
13.558
 20
5.002574440706435
 30
0.0
 11
13.557
 21
4.978574440706434
 31
0.0
  0
LINE
  5
27B
330
1F
100
AcDbEntity
  8
Object
100
AcDbLine
 10
13.557
 20
4.978574440706434
 30
0.0
 11
13.557
 21
4.956574440706435
 31
0.0
  0
LINE
  5
27C
330
1F
100
AcDbEntity
  8
Object
100
AcDbLine
 10
13.512
 20
4.956574440706435
 30
0.0
 11
13.512
 21
4.938574440706435
 31
0.0
  0
LINE
  5
27D
330
1F
100
AcDbEntity
  8
Object
100
AcDbLine
 10
13.557
 20
4.938574440706435
 30
0.0
 11
13.557
 21
4.956574440706435
 31
0.0
  0
LINE
  5
27E
330
1F
100
AcDbEntity
  8
Object
100
AcDbLine
 10
13.512
 20
4.978574440706434
 30
0.0
 11
13.512
 21
4.956574440706435
 31
0.0
  0
LINE
  5
27F
330
1F
100
AcDbEntity
  8
Object
100
AcDbLine
 10
13.511
 20
5.028574440706435
 30
0.0
 11
13.511
 21
5.002574440706435
 31
0.0
  0
LINE
  5
280
330
1F
100
AcDbEntity
  8
Object
100
AcDbLine
 10
13.558
 20
5.002574440706435
 30
0.0
 11
13.558
 21
5.028574440706435
 31
0.0
  0
LINE
  5
281
330
1F
100
AcDbEntity
  8
Object
100
AcDbLine
 10
13.511
 20
5.002574440706435
 30
0.0
 11
13.512
 21
4.978574440706434
 31
0.0
  0
LINE
  5
282
330
1F
100
AcDbEntity
  8
Object
100
AcDbLine
 10
13.558
 20
5.028574440706435
 30
0.0
 11
13.558
 21
5.053574440706436
 31
0.0
  0
LINE
  5
283
330
1F
100
AcDbEntity
  8
Object
100
AcDbLine
 10
13.511
 20
5.053574440706436
 30
0.0
 11
13.511
 21
5.028574440706435
 31
0.0
  0
LINE
  5
284
330
1F
100
AcDbEntity
  8
Object
100
AcDbLine
 10
13.375
 20
5.790574440706435
 30
0.0
 11
13.267
 21
5.790574440706435
 31
0.0
  0
LINE
  5
285
330
1F
100
AcDbEntity
  8
Object
100
AcDbLine
 10
13.267
 20
5.790574440706435
 30
0.0
 11
13.155
 21
5.790574440706435
 31
0.0
  0
LINE
  5
286
330
1F
100
AcDbEntity
  8
Object
100
AcDbLine
 10
13.155
 20
5.790574440706435
 30
0.0
 11
13.039
 21
5.790574440706435
 31
0.0
  0
LINE
  5
287
330
1F
100
AcDbEntity
  8
Object
100
AcDbLine
 10
13.039
 20
5.790574440706435
 30
0.0
 11
12.922
 21
5.790574440706435
 31
0.0
  0
LINE
  5
288
330
1F
100
AcDbEntity
  8
Object
100
AcDbLine
 10
12.922
 20
5.790574440706435
 30
0.0
 11
12.806
 21
5.790574440706435
 31
0.0
  0
LINE
  5
289
330
1F
100
AcDbEntity
  8
Object
100
AcDbLine
 10
12.806
 20
5.790574440706435
 30
0.0
 11
12.693
 21
5.790574440706435
 31
0.0
  0
LINE
  5
28A
330
1F
100
AcDbEntity
  8
Object
100
AcDbLine
 10
12.693
 20
5.790574440706435
 30
0.0
 11
12.583
 21
5.790574440706435
 31
0.0
  0
LINE
  5
28B
330
1F
100
AcDbEntity
  8
Object
100
AcDbLine
 10
12.583
 20
5.790574440706435
 30
0.0
 11
12.48
 21
5.790574440706435
 31
0.0
  0
LINE
  5
28C
330
1F
100
AcDbEntity
  8
Object
100
AcDbLine
 10
12.48
 20
5.790574440706435
 30
0.0
 11
12.385
 21
5.790574440706435
 31
0.0
  0
LINE
  5
28D
330
1F
100
AcDbEntity
  8
Object
100
AcDbLine
 10
12.385
 20
5.790574440706435
 30
0.0
 11
12.299
 21
5.790574440706435
 31
0.0
  0
LINE
  5
28E
330
1F
100
AcDbEntity
  8
Object
100
AcDbLine
 10
12.299
 20
5.790574440706435
 30
0.0
 11
12.224
 21
5.790574440706435
 31
0.0
  0
LINE
  5
28F
330
1F
100
AcDbEntity
  8
Object
100
AcDbLine
 10
12.224
 20
5.790574440706435
 30
0.0
 11
12.161
 21
5.790574440706435
 31
0.0
  0
LINE
  5
290
330
1F
100
AcDbEntity
  8
Object
100
AcDbLine
 10
12.161
 20
5.790574440706435
 30
0.0
 11
12.111
 21
5.790574440706435
 31
0.0
  0
LINE
  5
291
330
1F
100
AcDbEntity
  8
Object
100
AcDbLine
 10
12.111
 20
5.790574440706435
 30
0.0
 11
12.074
 21
5.790574440706435
 31
0.0
  0
LINE
  5
292
330
1F
100
AcDbEntity
  8
Object
100
AcDbLine
 10
12.074
 20
5.790574440706435
 30
0.0
 11
12.052
 21
5.790574440706435
 31
0.0
  0
LINE
  5
293
330
1F
100
AcDbEntity
  8
Object
100
AcDbLine
 10
12.052
 20
5.790574440706435
 30
0.0
 11
12.045
 21
5.790574440706435
 31
0.0
  0
LINE
  5
294
330
1F
100
AcDbEntity
  8
Object
100
AcDbLine
 10
12.045
 20
5.790574440706435
 30
0.0
 11
11.965
 21
5.790574440706435
 31
0.0
  0
LINE
  5
295
330
1F
100
AcDbEntity
  8
Object
100
AcDbLine
 10
12.032
 20
4.099574440706435
 30
0.0
 11
12.027
 21
4.092574440706435
 31
0.0
  0
LINE
  5
296
330
1F
100
AcDbEntity
  8
Object
100
AcDbLine
 10
12.027
 20
4.092574440706435
 30
0.0
 11
12.022
 21
4.091574440706435
 31
0.0
  0
LINE
  5
297
102
{ACAD_REACTORS
330
70B
102
}
330
1F
100
AcDbEntity
  8
Object
100
AcDbLine
 10
11.965
 20
5.790574440706435
 30
0.0
 11
12.045
 21
5.790574440706435
 31
0.0
  0
LINE
  5
298
330
1F
100
AcDbEntity
  8
Object
100
AcDbLine
 10
12.045
 20
5.790574440706435
 30
0.0
 11
12.016
 21
4.152574440706435
 31
0.0
  0
LINE
  5
299
330
1F
100
AcDbEntity
  8
Object
100
AcDbLine
 10
12.016
 20
4.152574440706435
 30
0.0
 11
11.936
 21
4.152574440706435
 31
0.0
  0
LINE
  5
29A
330
1F
100
AcDbEntity
  8
Object
100
AcDbLine
 10
13.652
 20
4.646574440706435
 30
0.0
 11
13.639
 21
4.662574440706436
 31
0.0
  0
LINE
  5
29B
330
1F
100
AcDbEntity
  8
Object
100
AcDbLine
 10
13.652
 20
4.560574440706435
 30
0.0
 11
13.62
 21
4.593574440706435
 31
0.0
  0
LINE
  5
29C
330
1F
100
AcDbEntity
  8
Object
100
AcDbLine
 10
13.62
 20
4.593574440706435
 30
0.0
 11
13.562
 21
4.643574440706435
 31
0.0
  0
LINE
  5
29D
330
1F
100
AcDbEntity
  8
Object
100
AcDbLine
 10
13.562
 20
4.643574440706435
 30
0.0
 11
13.499
 21
4.690574440706435
 31
0.0
  0
LINE
  5
29E
330
1F
100
AcDbEntity
  8
Object
100
AcDbLine
 10
13.499
 20
4.690574440706435
 30
0.0
 11
13.428
 21
4.734574440706435
 31
0.0
  0
LINE
  5
29F
330
1F
100
AcDbEntity
  8
Object
100
AcDbLine
 10
13.428
 20
4.734574440706435
 30
0.0
 11
13.351
 21
4.772574440706435
 31
0.0
  0
LINE
  5
2A0
330
1F
100
AcDbEntity
  8
Object
100
AcDbLine
 10
13.37
 20
4.878574440706435
 30
0.0
 11
13.286
 21
4.918574440706435
 31
0.0
  0
LINE
  5
2A1
330
1F
100
AcDbEntity
  8
Object
100
AcDbLine
 10
13.351
 20
4.772574440706435
 30
0.0
 11
13.269
 21
4.804574440706435
 31
0.0
  0
LINE
  5
2A2
330
1F
100
AcDbEntity
  8
Object
100
AcDbLine
 10
13.269
 20
4.804574440706435
 30
0.0
 11
13.18
 21
4.829574440706435
 31
0.0
  0
LINE
  5
2A3
330
1F
100
AcDbEntity
  8
Object
100
AcDbLine
 10
13.18
 20
4.829574440706435
 30
0.0
 11
13.088
 21
4.846574440706435
 31
0.0
  0
LINE
  5
2A4
330
1F
100
AcDbEntity
  8
Object
100
AcDbLine
 10
13.088
 20
4.846574440706435
 30
0.0
 11
12.992
 21
4.854574440706435
 31
0.0
  0
LINE
  5
2A5
330
1F
100
AcDbEntity
  8
Object
100
AcDbLine
 10
12.992
 20
4.854574440706435
 30
0.0
 11
12.896
 21
4.852574440706435
 31
0.0
  0
LINE
  5
2A6
330
1F
100
AcDbEntity
  8
Object
100
AcDbLine
 10
12.896
 20
4.852574440706435
 30
0.0
 11
12.801
 21
4.840574440706435
 31
0.0
  0
LINE
  5
2A7
330
1F
100
AcDbEntity
  8
Object
100
AcDbLine
 10
12.801
 20
4.840574440706435
 30
0.0
 11
12.71
 21
4.819574440706436
 31
0.0
  0
LINE
  5
2A8
330
1F
100
AcDbEntity
  8
Object
100
AcDbLine
 10
12.71
 20
4.819574440706436
 30
0.0
 11
12.624
 21
4.791574440706435
 31
0.0
  0
LINE
  5
2A9
330
1F
100
AcDbEntity
  8
Object
100
AcDbLine
 10
12.624
 20
4.791574440706435
 30
0.0
 11
12.543
 21
4.756574440706435
 31
0.0
  0
LINE
  5
2AA
330
1F
100
AcDbEntity
  8
Object
100
AcDbLine
 10
12.543
 20
4.756574440706435
 30
0.0
 11
12.47
 21
4.716574440706435
 31
0.0
  0
LINE
  5
2AB
330
1F
100
AcDbEntity
  8
Object
100
AcDbLine
 10
12.47
 20
4.716574440706435
 30
0.0
 11
12.402
 21
4.671574440706435
 31
0.0
  0
LINE
  5
2AC
330
1F
100
AcDbEntity
  8
Object
100
AcDbLine
 10
12.402
 20
4.671574440706435
 30
0.0
 11
12.341
 21
4.622574440706435
 31
0.0
  0
LINE
  5
2AD
330
1F
100
AcDbEntity
  8
Object
100
AcDbLine
 10
12.341
 20
4.622574440706435
 30
0.0
 11
12.285
 21
4.570574440706435
 31
0.0
  0
LINE
  5
2AE
330
1F
100
AcDbEntity
  8
Object
100
AcDbLine
 10
12.285
 20
4.570574440706435
 30
0.0
 11
12.236
 21
4.516574440706435
 31
0.0
  0
LINE
  5
2AF
330
1F
100
AcDbEntity
  8
Object
100
AcDbLine
 10
12.236
 20
4.516574440706435
 30
0.0
 11
12.192
 21
4.460574440706435
 31
0.0
  0
LINE
  5
2B0
330
1F
100
AcDbEntity
  8
Object
100
AcDbLine
 10
12.192
 20
4.460574440706435
 30
0.0
 11
12.154
 21
4.402574440706435
 31
0.0
  0
LINE
  5
2B1
330
1F
100
AcDbEntity
  8
Object
100
AcDbLine
 10
12.154
 20
4.402574440706435
 30
0.0
 11
12.12
 21
4.343574440706435
 31
0.0
  0
LINE
  5
2B2
330
1F
100
AcDbEntity
  8
Object
100
AcDbLine
 10
12.12
 20
4.343574440706435
 30
0.0
 11
12.091
 21
4.283574440706435
 31
0.0
  0
LINE
  5
2B3
330
1F
100
AcDbEntity
  8
Object
100
AcDbLine
 10
12.091
 20
4.283574440706435
 30
0.0
 11
12.067
 21
4.222574440706434
 31
0.0
  0
LINE
  5
2B4
330
1F
100
AcDbEntity
  8
Object
100
AcDbLine
 10
12.067
 20
4.222574440706434
 30
0.0
 11
12.047
 21
4.160574440706435
 31
0.0
  0
LINE
  5
2B5
330
1F
100
AcDbEntity
  8
Object
100
AcDbLine
 10
12.047
 20
4.160574440706435
 30
0.0
 11
12.032
 21
4.099574440706435
 31
0.0
  0
LINE
  5
2B6
330
1F
100
AcDbEntity
  8
Object
100
AcDbLine
 10
12.032
 20
4.099574440706435
 30
0.0
 11
12.027
 21
4.092574440706435
 31
0.0
  0
LINE
  5
2B7
330
1F
100
AcDbEntity
  8
Object
100
AcDbLine
 10
12.022
 20
4.091574440706435
 30
0.0
 11
12.021
 21
4.091574440706435
 31
0.0
  0
LINE
  5
2B8
330
1F
100
AcDbEntity
  8
Object
100
AcDbLine
 10
12.021
 20
4.091574440706435
 30
0.0
 11
12.02
 21
4.091574440706435
 31
0.0
  0
LINE
  5
2B9
330
1F
100
AcDbEntity
  8
Object
100
AcDbLine
 10
12.02
 20
4.091574440706435
 30
0.0
 11
12.019
 21
4.091574440706435
 31
0.0
  0
LINE
  5
2BA
330
1F
100
AcDbEntity
  8
Object
100
AcDbLine
 10
12.019
 20
4.091574440706435
 30
0.0
 11
11.939
 21
4.091574440706435
 31
0.0
  0
LINE
  5
2BB
330
1F
100
AcDbEntity
  8
Object
100
AcDbLine
 10
12.017
 20
4.095574440706435
 30
0.0
 11
12.019
 21
4.091574440706435
 31
0.0
  0
LINE
  5
2BC
102
{ACAD_REACTORS
330
70B
102
}
330
1F
100
AcDbEntity
  8
Object
100
AcDbLine
 10
12.019
 20
4.091574440706435
 30
0.0
 11
11.939
 21
4.091574440706435
 31
0.0
  0
LINE
  5
2BD
330
1F
100
AcDbEntity
  8
Object
100
AcDbLine
 10
12.017
 20
4.095574440706435
 30
0.0
 11
12.016
 21
4.109574440706435
 31
0.0
  0
LINE
  5
2BE
330
1F
100
AcDbEntity
  8
Object
100
AcDbLine
 10
12.016
 20
4.152574440706435
 30
0.0
 11
12.016
 21
4.128574440706435
 31
0.0
  0
LINE
  5
2BF
330
1F
100
AcDbEntity
  8
Object
100
AcDbLine
 10
12.016
 20
4.128574440706435
 30
0.0
 11
12.016
 21
4.109574440706435
 31
0.0
  0
LINE
  5
2C0
330
1F
100
AcDbEntity
  8
Object
100
AcDbLine
 10
13.51
 20
4.682574440706435
 30
0.0
 11
13.512
 21
4.681574440706435
 31
0.0
  0
LINE
  5
2C1
330
1F
100
AcDbEntity
  8
Object
100
AcDbLine
 10
12.336
 20
4.618574440706435
 30
0.0
 11
12.342
 21
4.623574440706435
 31
0.0
  0
LINE
  5
2C2
330
1F
100
AcDbEntity
  8
Object
100
AcDbLine
 10
12.257
 20
4.540574440706435
 30
0.0
 11
12.29
 21
4.575574440706435
 31
0.0
  0
LINE
  5
2C3
330
1F
100
AcDbEntity
  8
Object
100
AcDbLine
 10
12.184
 20
4.448574440706435
 30
0.0
 11
12.212
 21
4.485574440706435
 31
0.0
  0
LINE
  5
2C4
330
1F
100
AcDbEntity
  8
Object
100
AcDbLine
 10
12.132
 20
4.365574440706435
 30
0.0
 11
12.159
 21
4.410574440706435
 31
0.0
  0
LINE
  5
2C5
330
1F
100
AcDbEntity
  8
Object
100
AcDbLine
 10
12.085
 20
4.268574440706435
 30
0.0
 11
12.111
 21
4.326574440706435
 31
0.0
  0
LINE
  5
2C6
330
1F
100
AcDbEntity
  8
Object
100
AcDbLine
 10
12.05
 20
4.171574440706435
 30
0.0
 11
12.072
 21
4.236574440706435
 31
0.0
  0
LINE
  5
2C7
330
1F
100
AcDbEntity
  8
Object
100
AcDbLine
 10
13.62
 20
4.593574440706435
 30
0.0
 11
13.652
 21
4.560574440706435
 31
0.0
  0
LINE
  5
2C8
330
1F
100
AcDbEntity
  8
Object
100
AcDbLine
 10
13.54
 20
4.659574440706435
 30
0.0
 11
13.541
 21
4.658574440706435
 31
0.0
  0
LINE
  5
2C9
330
1F
100
AcDbEntity
  8
Object
100
AcDbLine
 10
13.562
 20
4.643574440706435
 30
0.0
 11
13.5
 21
4.689574440706435
 31
0.0
  0
LINE
  5
2CA
330
1F
100
AcDbEntity
  8
Object
100
AcDbLine
 10
13.5
 20
4.689574440706435
 30
0.0
 11
13.573
 21
4.634574440706435
 31
0.0
  0
LINE
  5
2CB
330
1F
100
AcDbEntity
  8
Object
100
AcDbLine
 10
13.562
 20
4.643574440706435
 30
0.0
 11
13.5
 21
4.689574440706435
 31
0.0
  0
LINE
  5
2CC
330
1F
100
AcDbEntity
  8
Object
100
AcDbLine
 10
13.5
 20
4.689574440706435
 30
0.0
 11
13.499
 21
4.690574440706435
 31
0.0
  0
LINE
  5
2CD
330
1F
100
AcDbEntity
  8
Object
100
AcDbLine
 10
13.499
 20
4.690574440706435
 30
0.0
 11
13.562
 21
4.643574440706435
 31
0.0
  0
LINE
  5
2CE
330
1F
100
AcDbEntity
  8
Object
100
AcDbLine
 10
13.5
 20
4.689574440706435
 30
0.0
 11
13.499
 21
4.690574440706435
 31
0.0
  0
LINE
  5
2CF
330
1F
100
AcDbEntity
  8
Object
100
AcDbLine
 10
13.499
 20
4.690574440706435
 30
0.0
 11
13.5
 21
4.689574440706435
 31
0.0
  0
LINE
  5
2D0
330
1F
100
AcDbEntity
  8
Object
100
AcDbLine
 10
13.5
 20
4.689574440706435
 30
0.0
 11
13.499
 21
4.690574440706435
 31
0.0
  0
LINE
  5
2D1
330
1F
100
AcDbEntity
  8
Object
100
AcDbLine
 10
13.5
 20
4.689574440706435
 30
0.0
 11
13.494
 21
4.693574440706434
 31
0.0
  0
LINE
  5
2D2
330
1F
100
AcDbEntity
  8
Object
100
AcDbLine
 10
13.494
 20
4.693574440706434
 30
0.0
 11
13.5
 21
4.689574440706435
 31
0.0
  0
LINE
  5
2D3
330
1F
100
AcDbEntity
  8
Object
100
AcDbLine
 10
13.5
 20
4.689574440706435
 30
0.0
 11
13.494
 21
4.693574440706434
 31
0.0
  0
LINE
  5
2D4
330
1F
100
AcDbEntity
  8
Object
100
AcDbLine
 10
13.351
 20
4.772574440706435
 30
0.0
 11
13.269
 21
4.804574440706435
 31
0.0
  0
LINE
  5
2D5
330
1F
100
AcDbEntity
  8
Object
100
AcDbLine
 10
13.269
 20
4.804574440706435
 30
0.0
 11
13.18
 21
4.829574440706435
 31
0.0
  0
LINE
  5
2D6
330
1F
100
AcDbEntity
  8
Object
100
AcDbLine
 10
13.18
 20
4.829574440706435
 30
0.0
 11
13.088
 21
4.846574440706435
 31
0.0
  0
LINE
  5
2D7
330
1F
100
AcDbEntity
  8
Object
100
AcDbLine
 10
13.088
 20
4.846574440706435
 30
0.0
 11
12.992
 21
4.854574440706435
 31
0.0
  0
LINE
  5
2D8
330
1F
100
AcDbEntity
  8
Object
100
AcDbLine
 10
12.992
 20
4.854574440706435
 30
0.0
 11
12.896
 21
4.852574440706435
 31
0.0
  0
LINE
  5
2D9
330
1F
100
AcDbEntity
  8
Object
100
AcDbLine
 10
12.896
 20
4.852574440706435
 30
0.0
 11
12.801
 21
4.840574440706435
 31
0.0
  0
LINE
  5
2DA
330
1F
100
AcDbEntity
  8
Object
100
AcDbLine
 10
12.801
 20
4.840574440706435
 30
0.0
 11
12.71
 21
4.819574440706436
 31
0.0
  0
LINE
  5
2DB
330
1F
100
AcDbEntity
  8
Object
100
AcDbLine
 10
12.71
 20
4.819574440706436
 30
0.0
 11
12.624
 21
4.791574440706435
 31
0.0
  0
LINE
  5
2DC
330
1F
100
AcDbEntity
  8
Object
100
AcDbLine
 10
12.624
 20
4.791574440706435
 30
0.0
 11
12.543
 21
4.756574440706435
 31
0.0
  0
LINE
  5
2DD
330
1F
100
AcDbEntity
  8
Object
100
AcDbLine
 10
12.543
 20
4.756574440706435
 30
0.0
 11
12.47
 21
4.716574440706435
 31
0.0
  0
LINE
  5
2DE
330
1F
100
AcDbEntity
  8
Object
100
AcDbLine
 10
12.47
 20
4.716574440706435
 30
0.0
 11
12.402
 21
4.671574440706435
 31
0.0
  0
LINE
  5
2DF
330
1F
100
AcDbEntity
  8
Object
100
AcDbLine
 10
12.402
 20
4.671574440706435
 30
0.0
 11
12.341
 21
4.622574440706435
 31
0.0
  0
LINE
  5
2E0
330
1F
100
AcDbEntity
  8
Object
100
AcDbLine
 10
12.341
 20
4.622574440706435
 30
0.0
 11
12.285
 21
4.570574440706435
 31
0.0
  0
LINE
  5
2E1
330
1F
100
AcDbEntity
  8
Object
100
AcDbLine
 10
12.285
 20
4.570574440706435
 30
0.0
 11
12.236
 21
4.516574440706435
 31
0.0
  0
LINE
  5
2E2
330
1F
100
AcDbEntity
  8
Object
100
AcDbLine
 10
12.236
 20
4.516574440706435
 30
0.0
 11
12.192
 21
4.460574440706435
 31
0.0
  0
LINE
  5
2E3
330
1F
100
AcDbEntity
  8
Object
100
AcDbLine
 10
12.192
 20
4.460574440706435
 30
0.0
 11
12.154
 21
4.402574440706435
 31
0.0
  0
LINE
  5
2E4
330
1F
100
AcDbEntity
  8
Object
100
AcDbLine
 10
12.154
 20
4.402574440706435
 30
0.0
 11
12.12
 21
4.343574440706435
 31
0.0
  0
LINE
  5
2E5
330
1F
100
AcDbEntity
  8
Object
100
AcDbLine
 10
12.12
 20
4.343574440706435
 30
0.0
 11
12.091
 21
4.283574440706435
 31
0.0
  0
LINE
  5
2E6
330
1F
100
AcDbEntity
  8
Object
100
AcDbLine
 10
12.091
 20
4.283574440706435
 30
0.0
 11
12.067
 21
4.222574440706434
 31
0.0
  0
LINE
  5
2E7
330
1F
100
AcDbEntity
  8
Object
100
AcDbLine
 10
12.067
 20
4.222574440706434
 30
0.0
 11
12.047
 21
4.160574440706435
 31
0.0
  0
LINE
  5
2E8
330
1F
100
AcDbEntity
  8
Object
100
AcDbLine
 10
12.047
 20
4.160574440706435
 30
0.0
 11
12.032
 21
4.099574440706435
 31
0.0
  0
LINE
  5
2E9
330
1F
100
AcDbEntity
  8
Object
100
AcDbLine
 10
13.574
 20
4.630574440706435
 30
0.0
 11
13.57
 21
4.629574440706434
 31
0.0
  0
LINE
  5
2EA
330
1F
100
AcDbEntity
  8
Object
100
AcDbLine
 10
13.57
 20
4.629574440706434
 30
0.0
 11
13.568
 21
4.628574440706435
 31
0.0
  0
LINE
  5
2EB
330
1F
100
AcDbEntity
  8
Object
100
AcDbLine
 10
13.505
 20
4.681574440706435
 30
0.0
 11
13.505
 21
4.674574440706435
 31
0.0
  0
LINE
  5
2EC
330
1F
100
AcDbEntity
  8
Object
100
AcDbLine
 10
13.568
 20
4.628574440706435
 30
0.0
 11
13.567
 21
4.627574440706435
 31
0.0
  0
LINE
  5
2ED
330
1F
100
AcDbEntity
  8
Object
100
AcDbLine
 10
13.567
 20
4.627574440706435
 30
0.0
 11
13.505
 21
4.674574440706435
 31
0.0
  0
LINE
  5
2EE
330
1F
100
AcDbEntity
  8
Object
100
AcDbLine
 10
13.503
 20
4.686574440706435
 30
0.0
 11
13.505
 21
4.681574440706435
 31
0.0
  0
LINE
  5
2EF
330
1F
100
AcDbEntity
  8
Object
100
AcDbLine
 10
13.574
 20
4.630574440706435
 30
0.0
 11
13.578
 21
4.630574440706435
 31
0.0
  0
LINE
  5
2F0
330
1F
100
AcDbEntity
  8
Object
100
AcDbLine
 10
13.5
 20
4.689574440706435
 30
0.0
 11
13.503
 21
4.686574440706435
 31
0.0
  0
LINE
  5
2F1
330
1F
100
AcDbEntity
  8
Object
100
AcDbLine
 10
13.503
 20
4.686574440706435
 30
0.0
 11
13.5
 21
4.689574440706435
 31
0.0
  0
LINE
  5
2F2
330
1F
100
AcDbEntity
  8
Object
100
AcDbLine
 10
13.541
 20
4.658574440706435
 30
0.0
 11
13.54
 21
4.659574440706435
 31
0.0
  0
LINE
  5
2F3
330
1F
100
AcDbEntity
  8
Object
100
AcDbLine
 10
13.445
 20
4.719574440706435
 30
0.0
 11
13.443
 21
4.724574440706435
 31
0.0
  0
LINE
  5
2F4
330
1F
100
AcDbEntity
  8
Object
100
AcDbLine
 10
13.443
 20
4.724574440706435
 30
0.0
 11
13.442
 21
4.725574440706434
 31
0.0
  0
LINE
  5
2F5
330
1F
100
AcDbEntity
  8
Object
100
AcDbLine
 10
13.399
 20
4.743574440706435
 30
0.0
 11
13.394
 21
4.746574440706435
 31
0.0
  0
LINE
  5
2F6
330
1F
100
AcDbEntity
  8
Object
100
AcDbLine
 10
13.394
 20
4.746574440706435
 30
0.0
 11
13.393
 21
4.748574440706435
 31
0.0
  0
LINE
  5
2F7
330
1F
100
AcDbEntity
  8
Object
100
AcDbLine
 10
13.393
 20
4.748574440706435
 30
0.0
 11
13.392
 21
4.751574440706435
 31
0.0
  0
LINE
  5
2F8
330
1F
100
AcDbEntity
  8
Object
100
AcDbLine
 10
13.392
 20
4.751574440706435
 30
0.0
 11
13.391
 21
4.752574440706435
 31
0.0
  0
LINE
  5
2F9
330
1F
100
AcDbEntity
  8
Object
100
AcDbLine
 10
13.445
 20
4.713574440706435
 30
0.0
 11
13.445
 21
4.719574440706435
 31
0.0
  0
LINE
  5
2FA
330
1F
100
AcDbEntity
  8
Object
100
AcDbLine
 10
13.445
 20
4.719574440706435
 30
0.0
 11
13.443
 21
4.724574440706435
 31
0.0
  0
LINE
  5
2FB
330
1F
100
AcDbEntity
  8
Object
100
AcDbLine
 10
13.443
 20
4.724574440706435
 30
0.0
 11
13.442
 21
4.725574440706434
 31
0.0
  0
LINE
  5
2FC
330
1F
100
AcDbEntity
  8
Object
100
AcDbLine
 10
13.578
 20
4.630574440706435
 30
0.0
 11
13.574
 21
4.630574440706435
 31
0.0
  0
LINE
  5
2FD
330
1F
100
AcDbEntity
  8
Object
100
AcDbLine
 10
13.574
 20
4.630574440706435
 30
0.0
 11
13.57
 21
4.629574440706434
 31
0.0
  0
LINE
  5
2FE
330
1F
100
AcDbEntity
  8
Object
100
AcDbLine
 10
13.57
 20
4.629574440706434
 30
0.0
 11
13.568
 21
4.628574440706435
 31
0.0
  0
LINE
  5
2FF
330
1F
100
AcDbEntity
  8
Object
100
AcDbLine
 10
13.568
 20
4.628574440706435
 30
0.0
 11
13.567
 21
4.627574440706435
 31
0.0
  0
LINE
  5
300
330
1F
100
AcDbEntity
  8
Object
100
AcDbLine
 10
13.567
 20
4.627574440706435
 30
0.0
 11
13.565
 21
4.624574440706435
 31
0.0
  0
LINE
  5
301
330
1F
100
AcDbEntity
  8
Object
100
AcDbLine
 10
13.565
 20
4.624574440706435
 30
0.0
 11
13.564
 21
4.620574440706435
 31
0.0
  0
LINE
  5
302
330
1F
100
AcDbEntity
  8
Object
100
AcDbLine
 10
13.5
 20
4.689574440706435
 30
0.0
 11
13.494
 21
4.693574440706434
 31
0.0
  0
LINE
  5
303
330
1F
100
AcDbEntity
  8
Object
100
AcDbLine
 10
13.457
 20
4.711574440706435
 30
0.0
 11
13.46
 21
4.709574440706434
 31
0.0
  0
LINE
  5
304
330
1F
100
AcDbEntity
  8
Object
100
AcDbLine
 10
13.455
 20
4.712574440706434
 30
0.0
 11
13.456
 21
4.715574440706435
 31
0.0
  0
LINE
  5
305
330
1F
100
AcDbEntity
  8
Object
100
AcDbLine
 10
13.456
 20
4.715574440706435
 30
0.0
 11
13.455
 21
4.717574440706435
 31
0.0
  0
LINE
  5
306
330
1F
100
AcDbEntity
  8
Object
100
AcDbLine
 10
13.508
 20
4.260574440706434
 30
0.0
 11
13.508
 21
4.249574440706435
 31
0.0
  0
LINE
  5
307
330
1F
100
AcDbEntity
  8
Object
100
AcDbLine
 10
13.508
 20
4.232574440706435
 30
0.0
 11
13.508
 21
4.239574440706435
 31
0.0
  0
LINE
  5
308
330
1F
100
AcDbEntity
  8
Object
100
AcDbLine
 10
13.508
 20
4.239574440706435
 30
0.0
 11
13.508
 21
4.249574440706435
 31
0.0
  0
LINE
  5
309
330
1F
100
AcDbEntity
  8
Object
100
AcDbLine
 10
13.508
 20
4.232574440706435
 30
0.0
 11
13.508
 21
4.230574440706435
 31
0.0
  0
LINE
  5
30A
330
1F
100
AcDbEntity
  8
Object
100
AcDbLine
 10
13.508
 20
4.230574440706435
 30
0.0
 11
13.505
 21
4.674574440706435
 31
0.0
  0
LINE
  5
30B
330
1F
100
AcDbEntity
  8
Object
100
AcDbLine
 10
13.505
 20
4.674574440706435
 30
0.0
 11
13.508
 21
4.260574440706434
 31
0.0
  0
LINE
  5
30C
330
1F
100
AcDbEntity
  8
Object
100
AcDbLine
 10
13.505
 20
4.681574440706435
 30
0.0
 11
13.505
 21
4.674574440706435
 31
0.0
  0
LINE
  5
30D
330
1F
100
AcDbEntity
  8
Object
100
AcDbLine
 10
13.564
 20
4.620574440706435
 30
0.0
 11
13.561
 21
4.260574440706434
 31
0.0
  0
LINE
  5
30E
330
1F
100
AcDbEntity
  8
Object
100
AcDbLine
 10
13.561
 20
4.260574440706434
 30
0.0
 11
13.508
 21
4.260574440706434
 31
0.0
  0
LINE
  5
30F
330
1F
100
AcDbEntity
  8
Object
100
AcDbLine
 10
13.567
 20
4.627574440706435
 30
0.0
 11
13.565
 21
4.624574440706435
 31
0.0
  0
LINE
  5
310
330
1F
100
AcDbEntity
  8
Object
100
AcDbLine
 10
13.565
 20
4.624574440706435
 30
0.0
 11
13.564
 21
4.620574440706435
 31
0.0
  0
LINE
  5
311
330
1F
100
AcDbEntity
  8
Object
100
AcDbLine
 10
13.505
 20
4.674574440706435
 30
0.0
 11
13.508
 21
4.260574440706434
 31
0.0
  0
LINE
  5
312
330
1F
100
AcDbEntity
  8
Object
100
AcDbLine
 10
13.561
 20
4.230574440706435
 30
0.0
 11
13.561
 21
4.233574440706435
 31
0.0
  0
LINE
  5
313
330
1F
100
AcDbEntity
  8
Object
100
AcDbLine
 10
13.45
 20
4.130574440706435
 30
0.0
 11
13.45
 21
4.119574440706434
 31
0.0
  0
LINE
  5
314
330
1F
100
AcDbEntity
  8
Object
100
AcDbLine
 10
13.45
 20
4.102574440706435
 30
0.0
 11
13.45
 21
4.109574440706435
 31
0.0
  0
LINE
  5
315
330
1F
100
AcDbEntity
  8
Object
100
AcDbLine
 10
13.45
 20
4.109574440706435
 30
0.0
 11
13.45
 21
4.119574440706434
 31
0.0
  0
LINE
  5
316
330
1F
100
AcDbEntity
  8
Object
100
AcDbLine
 10
13.45
 20
4.102574440706435
 30
0.0
 11
13.45
 21
4.100574440706434
 31
0.0
  0
LINE
  5
317
330
1F
100
AcDbEntity
  8
Object
100
AcDbLine
 10
13.45
 20
4.100574440706434
 30
0.0
 11
13.445
 21
4.713574440706435
 31
0.0
  0
LINE
  5
318
330
1F
100
AcDbEntity
  8
Object
100
AcDbLine
 10
13.445
 20
4.713574440706435
 30
0.0
 11
13.45
 21
4.130574440706435
 31
0.0
  0
LINE
  5
319
330
1F
100
AcDbEntity
  8
Object
100
AcDbLine
 10
13.445
 20
4.719574440706435
 30
0.0
 11
13.445
 21
4.713574440706435
 31
0.0
  0
LINE
  5
31A
330
1F
100
AcDbEntity
  8
Object
100
AcDbLine
 10
13.445
 20
4.713574440706435
 30
0.0
 11
13.45
 21
4.100574440706434
 31
0.0
  0
LINE
  5
31B
330
1F
100
AcDbEntity
  8
Object
100
AcDbLine
 10
13.45
 20
4.100574440706434
 30
0.0
 11
13.431
 21
4.100574440706434
 31
0.0
  0
LINE
  5
31C
330
1F
100
AcDbEntity
  8
Object
100
AcDbLine
 10
13.445
 20
4.713574440706435
 30
0.0
 11
13.427
 21
4.725574440706434
 31
0.0
  0
LINE
  5
31D
330
1F
100
AcDbEntity
  8
Object
100
AcDbLine
 10
13.415
 20
4.100574440706434
 30
0.0
 11
13.431
 21
4.100574440706434
 31
0.0
  0
LINE
  5
31E
330
1F
100
AcDbEntity
  8
Object
100
AcDbLine
 10
13.427
 20
4.725574440706434
 30
0.0
 11
13.411
 21
4.735574440706435
 31
0.0
  0
LINE
  5
31F
330
1F
100
AcDbEntity
  8
Object
100
AcDbLine
 10
13.404
 20
4.100574440706434
 30
0.0
 11
13.415
 21
4.100574440706434
 31
0.0
  0
LINE
  5
320
330
1F
100
AcDbEntity
  8
Object
100
AcDbLine
 10
13.411
 20
4.735574440706435
 30
0.0
 11
13.399
 21
4.743574440706435
 31
0.0
  0
LINE
  5
321
330
1F
100
AcDbEntity
  8
Object
100
AcDbLine
 10
13.404
 20
4.100574440706434
 30
0.0
 11
13.4
 21
4.100574440706434
 31
0.0
  0
LINE
  5
322
330
1F
100
AcDbEntity
  8
Object
100
AcDbLine
 10
13.4
 20
4.100574440706434
 30
0.0
 11
13.394
 21
4.746574440706435
 31
0.0
  0
LINE
  5
323
330
1F
100
AcDbEntity
  8
Object
100
AcDbLine
 10
13.501
 20
4.230574440706435
 30
0.0
 11
13.5
 21
4.130574440706435
 31
0.0
  0
LINE
  5
324
330
1F
100
AcDbEntity
  8
Object
100
AcDbLine
 10
13.5
 20
4.130574440706435
 30
0.0
 11
13.45
 21
4.130574440706435
 31
0.0
  0
LINE
  5
325
330
1F
100
AcDbEntity
  8
Object
100
AcDbLine
 10
13.45
 20
4.130574440706435
 30
0.0
 11
13.445
 21
4.713574440706435
 31
0.0
  0
LINE
  5
326
330
1F
100
AcDbEntity
  8
Object
100
AcDbLine
 10
13.445
 20
4.713574440706435
 30
0.0
 11
13.455
 21
4.706574440706434
 31
0.0
  0
LINE
  5
327
330
1F
100
AcDbEntity
  8
Object
100
AcDbLine
 10
13.5
 20
4.119574440706434
 30
0.0
 11
13.5
 21
4.130574440706435
 31
0.0
  0
LINE
  5
328
330
1F
100
AcDbEntity
  8
Object
100
AcDbLine
 10
13.5
 20
4.130574440706435
 30
0.0
 11
13.501
 21
4.230574440706435
 31
0.0
  0
LINE
  5
329
330
1F
100
AcDbEntity
  8
Object
100
AcDbLine
 10
13.499
 20
4.100574440706434
 30
0.0
 11
13.499
 21
4.102574440706435
 31
0.0
  0
LINE
  5
32A
330
1F
100
AcDbEntity
  8
Object
100
AcDbLine
 10
13.499
 20
4.102574440706435
 30
0.0
 11
13.499
 21
4.109574440706435
 31
0.0
  0
LINE
  5
32B
330
1F
100
AcDbEntity
  8
Object
100
AcDbLine
 10
13.499
 20
4.109574440706435
 30
0.0
 11
13.5
 21
4.119574440706434
 31
0.0
  0
LINE
  5
32C
330
1F
100
AcDbEntity
  8
Object
100
AcDbLine
 10
13.561
 20
4.239574440706435
 30
0.0
 11
13.561
 21
4.249574440706435
 31
0.0
  0
LINE
  5
32D
330
1F
100
AcDbEntity
  8
Object
100
AcDbLine
 10
13.561
 20
4.249574440706435
 30
0.0
 11
13.561
 21
4.260574440706434
 31
0.0
  0
LINE
  5
32E
330
1F
100
AcDbEntity
  8
Object
100
AcDbLine
 10
13.561
 20
4.260574440706434
 30
0.0
 11
13.564
 21
4.620574440706435
 31
0.0
  0
LINE
  5
32F
330
1F
100
AcDbEntity
  8
Object
100
AcDbLine
 10
13.561
 20
4.233574440706435
 30
0.0
 11
13.561
 21
4.230574440706435
 31
0.0
  0
LINE
  5
330
330
1F
100
AcDbEntity
  8
Object
100
AcDbLine
 10
13.561
 20
4.239574440706435
 30
0.0
 11
13.561
 21
4.232574440706435
 31
0.0
  0
LINE
  5
331
330
1F
100
AcDbEntity
  8
Object
100
AcDbLine
 10
13.561
 20
4.232574440706435
 30
0.0
 11
13.561
 21
4.230574440706435
 31
0.0
  0
LINE
  5
332
330
1F
100
AcDbEntity
  8
Object
100
AcDbLine
 10
13.455
 20
4.712574440706434
 30
0.0
 11
13.46
 21
4.230574440706435
 31
0.0
  0
LINE
  5
333
330
1F
100
AcDbEntity
  8
Object
100
AcDbLine
 10
13.505
 20
4.674574440706435
 30
0.0
 11
13.508
 21
4.230574440706435
 31
0.0
  0
LINE
  5
334
330
1F
100
AcDbEntity
  8
Object
100
AcDbLine
 10
13.508
 20
4.230574440706435
 30
0.0
 11
13.49
 21
4.230574440706435
 31
0.0
  0
LINE
  5
335
330
1F
100
AcDbEntity
  8
Object
100
AcDbLine
 10
13.505
 20
4.674574440706435
 30
0.0
 11
13.488
 21
4.688574440706435
 31
0.0
  0
LINE
  5
336
330
1F
100
AcDbEntity
  8
Object
100
AcDbLine
 10
13.474
 20
4.230574440706435
 30
0.0
 11
13.49
 21
4.230574440706435
 31
0.0
  0
LINE
  5
337
330
1F
100
AcDbEntity
  8
Object
100
AcDbLine
 10
13.488
 20
4.688574440706435
 30
0.0
 11
13.472
 21
4.700574440706435
 31
0.0
  0
LINE
  5
338
330
1F
100
AcDbEntity
  8
Object
100
AcDbLine
 10
13.463
 20
4.230574440706435
 30
0.0
 11
13.474
 21
4.230574440706435
 31
0.0
  0
LINE
  5
339
330
1F
100
AcDbEntity
  8
Object
100
AcDbLine
 10
13.472
 20
4.700574440706435
 30
0.0
 11
13.46
 21
4.709574440706434
 31
0.0
  0
LINE
  5
33A
330
1F
100
AcDbEntity
  8
Object
100
AcDbLine
 10
13.46
 20
4.230574440706435
 30
0.0
 11
13.463
 21
4.230574440706435
 31
0.0
  0
LINE
  5
33B
330
1F
100
AcDbEntity
  8
Object
100
AcDbLine
 10
13.457
 20
4.711574440706435
 30
0.0
 11
13.455
 21
4.712574440706434
 31
0.0
  0
LINE
  5
33C
330
1F
100
AcDbEntity
  8
Object
100
AcDbLine
 10
13.561
 20
4.230574440706435
 30
0.0
 11
13.508
 21
4.230574440706435
 31
0.0
  0
LINE
  5
33D
330
1F
100
AcDbEntity
  8
Object
100
AcDbLine
 10
13.508
 20
4.230574440706435
 30
0.0
 11
13.49
 21
4.230574440706435
 31
0.0
  0
LINE
  5
33E
330
1F
100
AcDbEntity
  8
Object
100
AcDbLine
 10
13.49
 20
4.230574440706435
 30
0.0
 11
13.474
 21
4.230574440706435
 31
0.0
  0
LINE
  5
33F
330
1F
100
AcDbEntity
  8
Object
100
AcDbLine
 10
13.474
 20
4.230574440706435
 30
0.0
 11
13.463
 21
4.230574440706435
 31
0.0
  0
LINE
  5
340
330
1F
100
AcDbEntity
  8
Object
100
AcDbLine
 10
13.463
 20
4.230574440706435
 30
0.0
 11
13.46
 21
4.230574440706435
 31
0.0
  0
LINE
  5
341
330
1F
100
AcDbEntity
  8
Object
100
AcDbLine
 10
13.508
 20
4.232574440706435
 30
0.0
 11
13.508
 21
4.230574440706435
 31
0.0
  0
LINE
  5
342
330
1F
100
AcDbEntity
  8
Object
100
AcDbLine
 10
13.508
 20
4.260574440706434
 30
0.0
 11
13.508
 21
4.249574440706435
 31
0.0
  0
LINE
  5
343
330
1F
100
AcDbEntity
  8
Object
100
AcDbLine
 10
13.561
 20
4.239574440706435
 30
0.0
 11
13.561
 21
4.249574440706435
 31
0.0
  0
LINE
  5
344
330
1F
100
AcDbEntity
  8
Object
100
AcDbLine
 10
13.561
 20
4.232574440706435
 30
0.0
 11
13.561
 21
4.230574440706435
 31
0.0
  0
LINE
  5
345
330
1F
100
AcDbEntity
  8
Object
100
AcDbLine
 10
13.561
 20
4.230574440706435
 30
0.0
 11
13.508
 21
4.230574440706435
 31
0.0
  0
LINE
  5
346
330
1F
100
AcDbEntity
  8
Object
100
AcDbLine
 10
13.508
 20
4.239574440706435
 30
0.0
 11
13.508
 21
4.232574440706435
 31
0.0
  0
LINE
  5
347
330
1F
100
AcDbEntity
  8
Object
100
AcDbLine
 10
13.561
 20
4.232574440706435
 30
0.0
 11
13.561
 21
4.239574440706435
 31
0.0
  0
LINE
  5
348
330
1F
100
AcDbEntity
  8
Object
100
AcDbLine
 10
13.508
 20
4.249574440706435
 30
0.0
 11
13.508
 21
4.239574440706435
 31
0.0
  0
LINE
  5
349
330
1F
100
AcDbEntity
  8
Object
100
AcDbLine
 10
13.561
 20
4.249574440706435
 30
0.0
 11
13.561
 21
4.260574440706434
 31
0.0
  0
LINE
  5
34A
330
1F
100
AcDbEntity
  8
Object
100
AcDbLine
 10
13.499
 20
4.100574440706434
 30
0.0
 11
13.45
 21
4.100574440706434
 31
0.0
  0
LINE
  5
34B
330
1F
100
AcDbEntity
  8
Object
100
AcDbLine
 10
13.45
 20
4.100574440706434
 30
0.0
 11
13.431
 21
4.100574440706434
 31
0.0
  0
LINE
  5
34C
330
1F
100
AcDbEntity
  8
Object
100
AcDbLine
 10
13.431
 20
4.100574440706434
 30
0.0
 11
13.415
 21
4.100574440706434
 31
0.0
  0
LINE
  5
34D
330
1F
100
AcDbEntity
  8
Object
100
AcDbLine
 10
13.415
 20
4.100574440706434
 30
0.0
 11
13.404
 21
4.100574440706434
 31
0.0
  0
LINE
  5
34E
330
1F
100
AcDbEntity
  8
Object
100
AcDbLine
 10
13.404
 20
4.100574440706434
 30
0.0
 11
13.4
 21
4.100574440706434
 31
0.0
  0
LINE
  5
34F
330
1F
100
AcDbEntity
  8
Object
100
AcDbLine
 10
13.45
 20
4.130574440706435
 30
0.0
 11
13.45
 21
4.119574440706434
 31
0.0
  0
LINE
  5
350
330
1F
100
AcDbEntity
  8
Object
100
AcDbLine
 10
13.499
 20
4.109574440706435
 30
0.0
 11
13.5
 21
4.119574440706434
 31
0.0
  0
LINE
  5
351
330
1F
100
AcDbEntity
  8
Object
100
AcDbLine
 10
13.45
 20
4.119574440706434
 30
0.0
 11
13.45
 21
4.109574440706435
 31
0.0
  0
LINE
  5
352
330
1F
100
AcDbEntity
  8
Object
100
AcDbLine
 10
13.5
 20
4.119574440706434
 30
0.0
 11
13.5
 21
4.130574440706435
 31
0.0
  0
LINE
  5
353
330
1F
100
AcDbEntity
  8
Object
100
AcDbLine
 10
13.45
 20
4.109574440706435
 30
0.0
 11
13.45
 21
4.102574440706435
 31
0.0
  0
LINE
  5
354
330
1F
100
AcDbEntity
  8
Object
100
AcDbLine
 10
13.499
 20
4.102574440706435
 30
0.0
 11
13.499
 21
4.100574440706434
 31
0.0
  0
LINE
  5
355
330
1F
100
AcDbEntity
  8
Object
100
AcDbLine
 10
13.499
 20
4.100574440706434
 30
0.0
 11
13.45
 21
4.100574440706434
 31
0.0
  0
LINE
  5
356
330
1F
100
AcDbEntity
  8
Object
100
AcDbLine
 10
13.45
 20
4.100574440706434
 30
0.0
 11
13.45
 21
4.102574440706435
 31
0.0
  0
LINE
  5
357
330
1F
100
AcDbEntity
  8
Object
100
AcDbLine
 10
13.499
 20
4.102574440706435
 30
0.0
 11
13.499
 21
4.109574440706435
 31
0.0
  0
LINE
  5
358
330
1F
100
AcDbEntity
  8
Object
100
AcDbLine
 10
6.983999999999999
 20
5.493574440706435
 30
0.0
 11
6.87
 21
5.493574440706435
 31
0.0
  0
LINE
  5
359
330
1F
100
AcDbEntity
  8
Object
100
AcDbLine
 10
6.87
 20
5.493574440706435
 30
0.0
 11
6.825
 21
5.493574440706435
 31
0.0
  0
LINE
  5
35A
330
1F
100
AcDbEntity
  8
Object
100
AcDbLine
 10
6.825
 20
5.493574440706435
 30
0.0
 11
6.778
 21
5.493574440706435
 31
0.0
  0
LINE
  5
35B
330
1F
100
AcDbEntity
  8
Object
100
AcDbLine
 10
6.778
 20
5.493574440706435
 30
0.0
 11
6.727999999999999
 21
5.493574440706435
 31
0.0
  0
LINE
  5
35C
330
1F
100
AcDbEntity
  8
Object
100
AcDbLine
 10
6.727999999999999
 20
5.493574440706435
 30
0.0
 11
6.725999999999999
 21
5.493574440706435
 31
0.0
  0
LINE
  5
35D
330
1F
100
AcDbEntity
  8
Object
100
AcDbLine
 10
6.725999999999999
 20
5.493574440706435
 30
0.0
 11
6.722999999999999
 21
5.493574440706435
 31
0.0
  0
LINE
  5
35E
330
1F
100
AcDbEntity
  8
Object
100
AcDbLine
 10
6.722999999999999
 20
5.493574440706435
 30
0.0
 11
6.719999999999999
 21
5.493574440706435
 31
0.0
  0
LINE
  5
35F
330
1F
100
AcDbEntity
  8
Object
100
AcDbLine
 10
6.719999999999999
 20
5.493574440706435
 30
0.0
 11
6.717999999999999
 21
5.493574440706435
 31
0.0
  0
LINE
  5
360
330
1F
100
AcDbEntity
  8
Object
100
AcDbLine
 10
6.717999999999999
 20
5.493574440706435
 30
0.0
 11
6.716
 21
5.493574440706435
 31
0.0
  0
LINE
  5
361
330
1F
100
AcDbEntity
  8
Object
100
AcDbLine
 10
6.716
 20
5.493574440706435
 30
0.0
 11
6.714
 21
5.493574440706435
 31
0.0
  0
LINE
  5
362
330
1F
100
AcDbEntity
  8
Object
100
AcDbLine
 10
6.714
 20
5.493574440706435
 30
0.0
 11
6.713
 21
5.493574440706435
 31
0.0
  0
LINE
  5
363
330
1F
100
AcDbEntity
  8
Object
100
AcDbLine
 10
6.713
 20
5.493574440706435
 30
0.0
 11
6.658
 21
5.493574440706435
 31
0.0
  0
LINE
  5
364
330
1F
100
AcDbEntity
  8
Object
100
AcDbLine
 10
6.658
 20
5.493574440706435
 30
0.0
 11
6.657
 21
5.493574440706435
 31
0.0
  0
LINE
  5
365
330
1F
100
AcDbEntity
  8
Object
100
AcDbLine
 10
6.657
 20
5.493574440706435
 30
0.0
 11
6.655
 21
5.493574440706435
 31
0.0
  0
LINE
  5
366
330
1F
100
AcDbEntity
  8
Object
100
AcDbLine
 10
6.655
 20
5.493574440706435
 30
0.0
 11
6.652
 21
5.493574440706435
 31
0.0
  0
LINE
  5
367
330
1F
100
AcDbEntity
  8
Object
100
AcDbLine
 10
6.652
 20
5.493574440706435
 30
0.0
 11
6.557
 21
5.493574440706435
 31
0.0
  0
LINE
  5
368
330
1F
100
AcDbEntity
  8
Object
100
AcDbLine
 10
6.557
 20
5.493574440706435
 30
0.0
 11
6.456999999999999
 21
5.493574440706435
 31
0.0
  0
LINE
  5
369
330
1F
100
AcDbEntity
  8
Object
100
AcDbLine
 10
6.456999999999999
 20
5.493574440706435
 30
0.0
 11
6.355
 21
5.493574440706435
 31
0.0
  0
LINE
  5
36A
330
1F
100
AcDbEntity
  8
Object
100
AcDbLine
 10
6.355
 20
5.493574440706435
 30
0.0
 11
6.251
 21
5.493574440706435
 31
0.0
  0
LINE
  5
36B
330
1F
100
AcDbEntity
  8
Object
100
AcDbLine
 10
6.251
 20
5.493574440706435
 30
0.0
 11
6.246
 21
5.493574440706435
 31
0.0
  0
LINE
  5
36C
330
1F
100
AcDbEntity
  8
Object
100
AcDbLine
 10
6.825
 20
5.493574440706435
 30
0.0
 11
6.87
 21
5.493574440706435
 31
0.0
  0
LINE
  5
36D
330
1F
100
AcDbEntity
  8
Object
100
AcDbLine
 10
6.87
 20
5.493574440706435
 30
0.0
 11
6.903999999999999
 21
4.180574440706434
 31
0.0
  0
LINE
  5
36E
330
1F
100
AcDbEntity
  8
Object
100
AcDbLine
 10
6.903999999999999
 20
4.180574440706434
 30
0.0
 11
6.812
 21
4.180574440706434
 31
0.0
  0
LINE
  5
36F
330
1F
100
AcDbEntity
  8
Object
100
AcDbLine
 10
6.825
 20
5.493574440706435
 30
0.0
 11
6.778
 21
5.493574440706435
 31
0.0
  0
LINE
  5
370
330
1F
100
AcDbEntity
  8
Object
100
AcDbLine
 10
6.778
 20
5.493574440706435
 30
0.0
 11
6.727999999999999
 21
5.493574440706435
 31
0.0
  0
LINE
  5
371
330
1F
100
AcDbEntity
  8
Object
100
AcDbLine
 10
6.711
 20
4.180574440706434
 30
0.0
 11
6.812
 21
4.180574440706434
 31
0.0
  0
LINE
  5
372
330
1F
100
AcDbEntity
  8
Object
100
AcDbLine
 10
6.722
 20
4.790574440706435
 30
0.0
 11
6.719
 21
4.790574440706435
 31
0.0
  0
LINE
  5
373
330
1F
100
AcDbEntity
  8
Object
100
AcDbLine
 10
6.661
 20
4.790574440706435
 30
0.0
 11
6.658999999999999
 21
4.790574440706435
 31
0.0
  0
LINE
  5
374
330
1F
100
AcDbEntity
  8
Object
100
AcDbLine
 10
6.602999999999999
 20
4.180574440706434
 30
0.0
 11
6.711
 21
4.180574440706434
 31
0.0
  0
LINE
  5
375
330
1F
100
AcDbEntity
  8
Object
100
AcDbLine
 10
6.658999999999999
 20
4.790574440706435
 30
0.0
 11
6.652
 21
5.493574440706435
 31
0.0
  0
LINE
  5
376
330
1F
100
AcDbEntity
  8
Object
100
AcDbLine
 10
6.652
 20
5.493574440706435
 30
0.0
 11
6.557
 21
5.493574440706435
 31
0.0
  0
LINE
  5
377
330
1F
100
AcDbEntity
  8
Object
100
AcDbLine
 10
6.488999999999999
 20
4.180574440706434
 30
0.0
 11
6.602999999999999
 21
4.180574440706434
 31
0.0
  0
LINE
  5
378
330
1F
100
AcDbEntity
  8
Object
100
AcDbLine
 10
6.557
 20
5.493574440706435
 30
0.0
 11
6.456999999999999
 21
5.493574440706435
 31
0.0
  0
LINE
  5
379
330
1F
100
AcDbEntity
  8
Object
100
AcDbLine
 10
6.371
 20
4.180574440706434
 30
0.0
 11
6.488999999999999
 21
4.180574440706434
 31
0.0
  0
LINE
  5
37A
330
1F
100
AcDbEntity
  8
Object
100
AcDbLine
 10
6.456999999999999
 20
5.493574440706435
 30
0.0
 11
6.355
 21
5.493574440706435
 31
0.0
  0
LINE
  5
37B
330
1F
100
AcDbEntity
  8
Object
100
AcDbLine
 10
6.251
 20
4.180574440706434
 30
0.0
 11
6.371
 21
4.180574440706434
 31
0.0
  0
LINE
  5
37C
330
1F
100
AcDbEntity
  8
Object
100
AcDbLine
 10
6.355
 20
5.493574440706435
 30
0.0
 11
6.251
 21
5.493574440706435
 31
0.0
  0
LINE
  5
37D
330
1F
100
AcDbEntity
  8
Object
100
AcDbLine
 10
6.708
 20
4.890574440706435
 30
0.0
 11
6.713
 21
5.493574440706435
 31
0.0
  0
LINE
  5
37E
330
1F
100
AcDbEntity
  8
Object
100
AcDbLine
 10
6.706999999999999
 20
4.820574440706435
 30
0.0
 11
6.706999999999999
 21
4.836574440706435
 31
0.0
  0
LINE
  5
37F
330
1F
100
AcDbEntity
  8
Object
100
AcDbLine
 10
6.706999999999999
 20
4.836574440706435
 30
0.0
 11
6.706999999999999
 21
4.853574440706434
 31
0.0
  0
LINE
  5
380
330
1F
100
AcDbEntity
  8
Object
100
AcDbLine
 10
6.706999999999999
 20
4.853574440706434
 30
0.0
 11
6.708
 21
4.890574440706435
 31
0.0
  0
LINE
  5
381
330
1F
100
AcDbEntity
  8
Object
100
AcDbLine
 10
6.706999999999999
 20
4.811574440706435
 30
0.0
 11
6.706999999999999
 21
4.790574440706435
 31
0.0
  0
LINE
  5
382
330
1F
100
AcDbEntity
  8
Object
100
AcDbLine
 10
6.706999999999999
 20
4.861574440706435
 30
0.0
 11
6.706999999999999
 21
4.849574440706435
 31
0.0
  0
LINE
  5
383
330
1F
100
AcDbEntity
  8
Object
100
AcDbLine
 10
6.706999999999999
 20
4.790574440706435
 30
0.0
 11
6.706999999999999
 21
4.797574440706435
 31
0.0
  0
LINE
  5
384
330
1F
100
AcDbEntity
  8
Object
100
AcDbLine
 10
6.706999999999999
 20
4.797574440706435
 30
0.0
 11
6.706999999999999
 21
4.807574440706435
 31
0.0
  0
LINE
  5
385
330
1F
100
AcDbEntity
  8
Object
100
AcDbLine
 10
6.706999999999999
 20
4.807574440706435
 30
0.0
 11
6.706999999999999
 21
4.820574440706435
 31
0.0
  0
LINE
  5
386
330
1F
100
AcDbEntity
  8
Object
100
AcDbLine
 10
6.66
 20
4.790574440706435
 30
0.0
 11
6.669
 21
4.790574440706435
 31
0.0
  0
LINE
  5
387
330
1F
100
AcDbEntity
  8
Object
100
AcDbLine
 10
6.653999999999999
 20
5.493574440706435
 30
0.0
 11
6.663
 21
5.493574440706435
 31
0.0
  0
LINE
  5
388
330
1F
100
AcDbEntity
  8
Object
100
AcDbLine
 10
6.663999999999999
 20
4.849574440706435
 30
0.0
 11
6.663
 21
4.861574440706435
 31
0.0
  0
LINE
  5
389
330
1F
100
AcDbEntity
  8
Object
100
AcDbLine
 10
6.663999999999999
 20
4.790574440706435
 30
0.0
 11
6.663999999999999
 21
4.831574440706435
 31
0.0
  0
LINE
  5
38A
330
1F
100
AcDbEntity
  8
Object
100
AcDbLine
 10
6.658
 20
5.493574440706435
 30
0.0
 11
6.657
 21
5.493574440706435
 31
0.0
  0
LINE
  5
38B
330
1F
100
AcDbEntity
  8
Object
100
AcDbLine
 10
6.663999999999999
 20
4.790574440706435
 30
0.0
 11
6.663
 21
4.790574440706435
 31
0.0
  0
LINE
  5
38C
330
1F
100
AcDbEntity
  8
Object
100
AcDbLine
 10
6.663
 20
4.790574440706435
 30
0.0
 11
6.661
 21
4.790574440706435
 31
0.0
  0
LINE
  5
38D
330
1F
100
AcDbEntity
  8
Object
100
AcDbLine
 10
6.657
 20
5.493574440706435
 30
0.0
 11
6.655
 21
5.493574440706435
 31
0.0
  0
LINE
  5
38E
330
1F
100
AcDbEntity
  8
Object
100
AcDbLine
 10
6.655
 20
5.493574440706435
 30
0.0
 11
6.652
 21
5.493574440706435
 31
0.0
  0
LINE
  5
38F
330
1F
100
AcDbEntity
  8
Object
100
AcDbLine
 10
6.658999999999999
 20
4.790574440706435
 30
0.0
 11
6.661
 21
4.790574440706435
 31
0.0
  0
LINE
  5
390
330
1F
100
AcDbEntity
  8
Object
100
AcDbLine
 10
6.708
 20
4.890574440706435
 30
0.0
 11
6.663
 21
4.890574440706435
 31
0.0
  0
LINE
  5
391
330
1F
100
AcDbEntity
  8
Object
100
AcDbLine
 10
6.663
 20
4.890574440706435
 30
0.0
 11
6.658
 21
5.493574440706435
 31
0.0
  0
LINE
  5
392
330
1F
100
AcDbEntity
  8
Object
100
AcDbLine
 10
6.658
 20
5.493574440706435
 30
0.0
 11
6.713
 21
5.493574440706435
 31
0.0
  0
LINE
  5
393
330
1F
100
AcDbEntity
  8
Object
100
AcDbLine
 10
6.713
 20
5.493574440706435
 30
0.0
 11
6.708
 21
4.890574440706435
 31
0.0
  0
LINE
  5
394
330
1F
100
AcDbEntity
  8
Object
100
AcDbLine
 10
6.983999999999999
 20
5.493574440706435
 30
0.0
 11
7.016
 21
4.180574440706434
 31
0.0
  0
LINE
  5
395
330
1F
100
AcDbEntity
  8
Object
100
AcDbLine
 10
7.016
 20
4.180574440706434
 30
0.0
 11
6.903999999999999
 21
4.180574440706434
 31
0.0
  0
LINE
  5
396
330
1F
100
AcDbEntity
  8
Object
100
AcDbLine
 10
6.983999999999999
 20
5.493574440706435
 30
0.0
 11
6.87
 21
5.493574440706435
 31
0.0
  0
LINE
  5
397
330
1F
100
AcDbEntity
  8
Object
100
AcDbLine
 10
6.663999999999999
 20
4.820574440706435
 30
0.0
 11
6.663999999999999
 21
4.807574440706435
 31
0.0
  0
LINE
  5
398
330
1F
100
AcDbEntity
  8
Object
100
AcDbLine
 10
6.663999999999999
 20
4.807574440706435
 30
0.0
 11
6.663999999999999
 21
4.797574440706435
 31
0.0
  0
LINE
  5
399
330
1F
100
AcDbEntity
  8
Object
100
AcDbLine
 10
6.663999999999999
 20
4.797574440706435
 30
0.0
 11
6.663999999999999
 21
4.790574440706435
 31
0.0
  0
LINE
  5
39A
330
1F
100
AcDbEntity
  8
Object
100
AcDbLine
 10
6.663999999999999
 20
4.853574440706434
 30
0.0
 11
6.663999999999999
 21
4.836574440706435
 31
0.0
  0
LINE
  5
39B
330
1F
100
AcDbEntity
  8
Object
100
AcDbLine
 10
6.663999999999999
 20
4.836574440706435
 30
0.0
 11
6.663999999999999
 21
4.820574440706435
 31
0.0
  0
LINE
  5
39C
330
1F
100
AcDbEntity
  8
Object
100
AcDbLine
 10
6.663
 20
4.890574440706435
 30
0.0
 11
6.663999999999999
 21
4.853574440706434
 31
0.0
  0
LINE
  5
39D
330
1F
100
AcDbEntity
  8
Object
100
AcDbLine
 10
6.663999999999999
 20
4.849574440706435
 30
0.0
 11
6.663
 21
4.861574440706435
 31
0.0
  0
LINE
  5
39E
330
1F
100
AcDbEntity
  8
Object
100
AcDbLine
 10
6.663999999999999
 20
4.790574440706435
 30
0.0
 11
6.663999999999999
 21
4.831574440706435
 31
0.0
  0
LINE
  5
39F
330
1F
100
AcDbEntity
  8
Object
100
AcDbLine
 10
6.658
 20
5.493574440706435
 30
0.0
 11
6.663
 21
4.890574440706435
 31
0.0
  0
LINE
  5
3A0
330
1F
100
AcDbEntity
  8
Object
100
AcDbLine
 10
6.217
 20
4.128574440706435
 30
0.0
 11
6.222999999999999
 21
4.152574440706435
 31
0.0
  0
LINE
  5
3A1
330
1F
100
AcDbEntity
  8
Object
100
AcDbLine
 10
6.222999999999999
 20
4.152574440706435
 30
0.0
 11
6.251
 21
5.790574440706435
 31
0.0
  0
LINE
  5
3A2
330
1F
100
AcDbEntity
  8
Object
100
AcDbLine
 10
6.251
 20
5.493574440706435
 30
0.0
 11
6.251
 21
4.180574440706434
 31
0.0
  0
LINE
  5
3A3
330
1F
100
AcDbEntity
  8
Object
100
AcDbLine
 10
6.251
 20
4.180574440706434
 30
0.0
 11
6.222999999999999
 21
4.180574440706434
 31
0.0
  0
LINE
  5
3A4
330
1F
100
AcDbEntity
  8
Object
100
AcDbLine
 10
6.251
 20
5.493574440706435
 30
0.0
 11
6.246
 21
5.493574440706435
 31
0.0
  0
LINE
  5
3A5
330
1F
100
AcDbEntity
  8
Object
100
AcDbLine
 10
6.16
 20
4.091574440706435
 30
0.0
 11
6.184
 21
4.095574440706435
 31
0.0
  0
LINE
  5
3A6
330
1F
100
AcDbEntity
  8
Object
100
AcDbLine
 10
6.719999999999999
 20
5.493574440706435
 30
0.0
 11
6.722999999999999
 21
5.493574440706435
 31
0.0
  0
LINE
  5
3A7
330
1F
100
AcDbEntity
  8
Object
100
AcDbLine
 10
6.722999999999999
 20
5.493574440706435
 30
0.0
 11
6.725999999999999
 21
5.493574440706435
 31
0.0
  0
LINE
  5
3A8
330
1F
100
AcDbEntity
  8
Object
100
AcDbLine
 10
6.725999999999999
 20
5.493574440706435
 30
0.0
 11
6.727999999999999
 21
5.493574440706435
 31
0.0
  0
LINE
  5
3A9
330
1F
100
AcDbEntity
  8
Object
100
AcDbLine
 10
6.727999999999999
 20
5.493574440706435
 30
0.0
 11
6.722
 21
4.790574440706435
 31
0.0
  0
LINE
  5
3AA
330
1F
100
AcDbEntity
  8
Object
100
AcDbLine
 10
6.722
 20
4.790574440706435
 30
0.0
 11
6.719
 21
4.790574440706435
 31
0.0
  0
LINE
  5
3AB
330
1F
100
AcDbEntity
  8
Object
100
AcDbLine
 10
6.719
 20
4.790574440706435
 30
0.0
 11
6.717
 21
4.790574440706435
 31
0.0
  0
LINE
  5
3AC
330
1F
100
AcDbEntity
  8
Object
100
AcDbLine
 10
6.716
 20
5.493574440706435
 30
0.0
 11
6.717999999999999
 21
5.493574440706435
 31
0.0
  0
LINE
  5
3AD
330
1F
100
AcDbEntity
  8
Object
100
AcDbLine
 10
6.717999999999999
 20
5.493574440706435
 30
0.0
 11
6.719999999999999
 21
5.493574440706435
 31
0.0
  0
LINE
  5
3AE
330
1F
100
AcDbEntity
  8
Object
100
AcDbLine
 10
6.717
 20
4.790574440706435
 30
0.0
 11
6.714
 21
4.790574440706435
 31
0.0
  0
LINE
  5
3AF
330
1F
100
AcDbEntity
  8
Object
100
AcDbLine
 10
6.714
 20
4.790574440706435
 30
0.0
 11
6.711999999999999
 21
4.790574440706435
 31
0.0
  0
LINE
  5
3B0
330
1F
100
AcDbEntity
  8
Object
100
AcDbLine
 10
6.713
 20
5.493574440706435
 30
0.0
 11
6.714
 21
5.493574440706435
 31
0.0
  0
LINE
  5
3B1
330
1F
100
AcDbEntity
  8
Object
100
AcDbLine
 10
6.714
 20
5.493574440706435
 30
0.0
 11
6.716
 21
5.493574440706435
 31
0.0
  0
LINE
  5
3B2
330
1F
100
AcDbEntity
  8
Object
100
AcDbLine
 10
6.711999999999999
 20
4.790574440706435
 30
0.0
 11
6.709999999999999
 21
4.790574440706435
 31
0.0
  0
LINE
  5
3B3
330
1F
100
AcDbEntity
  8
Object
100
AcDbLine
 10
6.709999999999999
 20
4.790574440706435
 30
0.0
 11
6.708
 21
4.790574440706435
 31
0.0
  0
LINE
  5
3B4
330
1F
100
AcDbEntity
  8
Object
100
AcDbLine
 10
6.708
 20
4.790574440706435
 30
0.0
 11
6.706999999999999
 21
4.790574440706435
 31
0.0
  0
LINE
  5
3B5
330
1F
100
AcDbEntity
  8
Object
100
AcDbLine
 10
6.706999999999999
 20
4.790574440706435
 30
0.0
 11
6.706999999999999
 21
4.811574440706435
 31
0.0
  0
LINE
  5
3B6
330
1F
100
AcDbEntity
  8
Object
100
AcDbLine
 10
6.706999999999999
 20
4.861574440706435
 30
0.0
 11
6.706999999999999
 21
4.849574440706435
 31
0.0
  0
LINE
  5
3B7
330
1F
100
AcDbEntity
  8
Object
100
AcDbLine
 10
6.251
 20
5.790574440706435
 30
0.0
 11
6.222
 21
4.152574440706435
 31
0.0
  0
LINE
  5
3B8
330
1F
100
AcDbEntity
  8
Object
100
AcDbLine
 10
6.222
 20
4.152574440706435
 30
0.0
 11
6.217
 21
4.128574440706435
 31
0.0
  0
LINE
  5
3B9
330
1F
100
AcDbEntity
  8
Object
100
AcDbLine
 10
6.217
 20
4.128574440706435
 30
0.0
 11
6.203999999999999
 21
4.109574440706435
 31
0.0
  0
LINE
  5
3BA
330
1F
100
AcDbEntity
  8
Object
100
AcDbLine
 10
6.203999999999999
 20
4.109574440706435
 30
0.0
 11
6.184
 21
4.095574440706435
 31
0.0
  0
LINE
  5
3BB
330
1F
100
AcDbEntity
  8
Object
100
AcDbLine
 10
6.251
 20
5.790574440706435
 30
0.0
 11
6.126999999999999
 21
5.790574440706435
 31
0.0
  0
LINE
  5
3BC
330
1F
100
AcDbEntity
  8
Object
100
AcDbLine
 10
6.184
 20
4.095574440706435
 30
0.0
 11
6.16
 21
4.091574440706435
 31
0.0
  0
LINE
  5
3BD
330
1F
100
AcDbEntity
  8
Object
100
AcDbLine
 10
6.16
 20
4.091574440706435
 30
0.0
 11
6.142
 21
4.091574440706435
 31
0.0
  0
LINE
  5
3BE
330
1F
100
AcDbEntity
  8
Object
100
AcDbLine
 10
6.142
 20
4.091574440706435
 30
0.0
 11
6.124
 21
4.091574440706435
 31
0.0
  0
LINE
  5
3BF
330
1F
100
AcDbEntity
  8
Object
100
AcDbLine
 10
6.124
 20
4.091574440706435
 30
0.0
 11
6.105999999999999
 21
4.091574440706435
 31
0.0
  0
LINE
  5
3C0
330
1F
100
AcDbEntity
  8
Object
100
AcDbLine
 10
6.105999999999999
 20
4.091574440706435
 30
0.0
 11
6.033999999999999
 21
4.172574440706435
 31
0.0
  0
LINE
  5
3C1
330
1F
100
AcDbEntity
  8
Object
100
AcDbLine
 10
6.126999999999999
 20
5.790574440706435
 30
0.0
 11
6.004
 21
5.790574440706435
 31
0.0
  0
LINE
  5
3C2
330
1F
100
AcDbEntity
  8
Object
100
AcDbLine
 10
5.961999999999999
 20
4.252574440706435
 30
0.0
 11
6.033999999999999
 21
4.172574440706435
 31
0.0
  0
LINE
  5
3C3
330
1F
100
AcDbEntity
  8
Object
100
AcDbLine
 10
6.004
 20
5.790574440706435
 30
0.0
 11
5.886
 21
5.790574440706435
 31
0.0
  0
LINE
  5
3C4
330
1F
100
AcDbEntity
  8
Object
100
AcDbLine
 10
5.892
 20
4.332574440706435
 30
0.0
 11
5.961999999999999
 21
4.252574440706435
 31
0.0
  0
LINE
  5
3C5
330
1F
100
AcDbEntity
  8
Object
100
AcDbLine
 10
5.886
 20
5.790574440706435
 30
0.0
 11
5.772999999999999
 21
5.790574440706435
 31
0.0
  0
LINE
  5
3C6
330
1F
100
AcDbEntity
  8
Object
100
AcDbLine
 10
5.823
 20
4.411574440706434
 30
0.0
 11
5.754999999999999
 21
4.489574440706435
 31
0.0
  0
LINE
  5
3C7
330
1F
100
AcDbEntity
  8
Object
100
AcDbLine
 10
5.754999999999999
 20
4.489574440706435
 30
0.0
 11
5.689
 21
4.565574440706435
 31
0.0
  0
LINE
  5
3C8
330
1F
100
AcDbEntity
  8
Object
100
AcDbLine
 10
5.772999999999999
 20
5.790574440706435
 30
0.0
 11
5.668
 21
5.790574440706435
 31
0.0
  0
LINE
  5
3C9
330
1F
100
AcDbEntity
  8
Object
100
AcDbLine
 10
5.668
 20
5.790574440706435
 30
0.0
 11
5.570999999999999
 21
5.790574440706435
 31
0.0
  0
LINE
  5
3CA
330
1F
100
AcDbEntity
  8
Object
100
AcDbLine
 10
5.624
 20
4.639574440706435
 30
0.0
 11
5.562
 21
4.710574440706435
 31
0.0
  0
LINE
  5
3CB
330
1F
100
AcDbEntity
  8
Object
100
AcDbLine
 10
5.562
 20
4.710574440706435
 30
0.0
 11
5.503
 21
4.778574440706435
 31
0.0
  0
LINE
  5
3CC
330
1F
100
AcDbEntity
  8
Object
100
AcDbLine
 10
5.570999999999999
 20
5.790574440706435
 30
0.0
 11
5.485
 21
5.790574440706435
 31
0.0
  0
LINE
  5
3CD
330
1F
100
AcDbEntity
  8
Object
100
AcDbLine
 10
5.445999999999999
 20
4.843574440706435
 30
0.0
 11
5.503
 21
4.778574440706435
 31
0.0
  0
LINE
  5
3CE
330
1F
100
AcDbEntity
  8
Object
100
AcDbLine
 10
5.485
 20
5.790574440706435
 30
0.0
 11
5.411
 21
5.790574440706435
 31
0.0
  0
LINE
  5
3CF
330
1F
100
AcDbEntity
  8
Object
100
AcDbLine
 10
5.411
 20
5.790574440706435
 30
0.0
 11
5.35
 21
5.790574440706435
 31
0.0
  0
LINE
  5
3D0
330
1F
100
AcDbEntity
  8
Object
100
AcDbLine
 10
5.307999999999999
 20
5.002574440706435
 30
0.0
 11
5.347999999999999
 21
4.956574440706435
 31
0.0
  0
LINE
  5
3D1
330
1F
100
AcDbEntity
  8
Object
100
AcDbLine
 10
5.35
 20
5.790574440706435
 30
0.0
 11
5.302999999999999
 21
5.790574440706435
 31
0.0
  0
LINE
  5
3D2
330
1F
100
AcDbEntity
  8
Object
100
AcDbLine
 10
5.275
 20
5.039574440706434
 30
0.0
 11
5.307999999999999
 21
5.002574440706435
 31
0.0
  0
LINE
  5
3D3
330
1F
100
AcDbEntity
  8
Object
100
AcDbLine
 10
5.302999999999999
 20
5.790574440706435
 30
0.0
 11
5.270999999999999
 21
5.790574440706435
 31
0.0
  0
LINE
  5
3D4
330
1F
100
AcDbEntity
  8
Object
100
AcDbLine
 10
5.270999999999999
 20
5.790574440706435
 30
0.0
 11
5.254
 21
5.790574440706435
 31
0.0
  0
LINE
  5
3D5
330
1F
100
AcDbEntity
  8
Object
100
AcDbLine
 10
5.245
 20
5.074574440706435
 30
0.0
 11
5.251999999999999
 21
5.066574440706435
 31
0.0
  0
LINE
  5
3D6
330
1F
100
AcDbEntity
  8
Object
100
AcDbLine
 10
5.254
 20
5.790574440706435
 30
0.0
 11
5.251999999999999
 21
5.790574440706435
 31
0.0
  0
LINE
  5
3D7
330
1F
100
AcDbEntity
  8
Object
100
AcDbLine
 10
5.251999999999999
 20
5.790574440706435
 30
0.0
 11
5.238999999999999
 21
5.081574440706435
 31
0.0
  0
LINE
  5
3D8
330
1F
100
AcDbEntity
  8
Object
100
AcDbLine
 10
6.722
 20
4.790574440706435
 30
0.0
 11
6.719
 21
4.790574440706435
 31
0.0
  0
LINE
  5
3D9
330
1F
100
AcDbEntity
  8
Object
100
AcDbLine
 10
6.719
 20
4.790574440706435
 30
0.0
 11
6.717
 21
4.790574440706435
 31
0.0
  0
LINE
  5
3DA
330
1F
100
AcDbEntity
  8
Object
100
AcDbLine
 10
6.717
 20
4.790574440706435
 30
0.0
 11
6.714
 21
4.790574440706435
 31
0.0
  0
LINE
  5
3DB
330
1F
100
AcDbEntity
  8
Object
100
AcDbLine
 10
6.714
 20
4.790574440706435
 30
0.0
 11
6.711999999999999
 21
4.790574440706435
 31
0.0
  0
LINE
  5
3DC
330
1F
100
AcDbEntity
  8
Object
100
AcDbLine
 10
6.711999999999999
 20
4.790574440706435
 30
0.0
 11
6.709999999999999
 21
4.790574440706435
 31
0.0
  0
LINE
  5
3DD
330
1F
100
AcDbEntity
  8
Object
100
AcDbLine
 10
6.709999999999999
 20
4.790574440706435
 30
0.0
 11
6.708
 21
4.790574440706435
 31
0.0
  0
LINE
  5
3DE
330
1F
100
AcDbEntity
  8
Object
100
AcDbLine
 10
6.708
 20
4.790574440706435
 30
0.0
 11
6.706999999999999
 21
4.790574440706435
 31
0.0
  0
LINE
  5
3DF
330
1F
100
AcDbEntity
  8
Object
100
AcDbLine
 10
6.722
 20
4.790574440706435
 30
0.0
 11
6.719
 21
4.790574440706435
 31
0.0
  0
LINE
  5
3E0
330
1F
100
AcDbEntity
  8
Object
100
AcDbLine
 10
6.706999999999999
 20
4.790574440706435
 30
0.0
 11
6.663999999999999
 21
4.790574440706435
 31
0.0
  0
LINE
  5
3E1
330
1F
100
AcDbEntity
  8
Object
100
AcDbLine
 10
6.663999999999999
 20
4.790574440706435
 30
0.0
 11
6.663
 21
4.790574440706435
 31
0.0
  0
LINE
  5
3E2
330
1F
100
AcDbEntity
  8
Object
100
AcDbLine
 10
6.663
 20
4.790574440706435
 30
0.0
 11
6.661
 21
4.790574440706435
 31
0.0
  0
LINE
  5
3E3
330
1F
100
AcDbEntity
  8
Object
100
AcDbLine
 10
6.661
 20
4.790574440706435
 30
0.0
 11
6.658999999999999
 21
4.790574440706435
 31
0.0
  0
LINE
  5
3E4
330
1F
100
AcDbEntity
  8
Object
100
AcDbLine
 10
6.658999999999999
 20
4.790574440706435
 30
0.0
 11
6.661
 21
4.790574440706435
 31
0.0
  0
LINE
  5
3E5
102
{ACAD_REACTORS
330
6F0
102
}
330
1F
100
AcDbEntity
  8
Object
100
AcDbLine
 10
7.016
 20
4.180574440706434
 30
0.0
 11
6.903999999999999
 21
4.180574440706434
 31
0.0
  0
LINE
  5
3E6
330
1F
100
AcDbEntity
  8
Object
100
AcDbLine
 10
6.903999999999999
 20
4.180574440706434
 30
0.0
 11
6.812
 21
4.180574440706434
 31
0.0
  0
LINE
  5
3E7
330
1F
100
AcDbEntity
  8
Object
100
AcDbLine
 10
6.812
 20
4.180574440706434
 30
0.0
 11
6.711
 21
4.180574440706434
 31
0.0
  0
LINE
  5
3E8
330
1F
100
AcDbEntity
  8
Object
100
AcDbLine
 10
6.711
 20
4.180574440706434
 30
0.0
 11
6.602999999999999
 21
4.180574440706434
 31
0.0
  0
LINE
  5
3E9
330
1F
100
AcDbEntity
  8
Object
100
AcDbLine
 10
6.602999999999999
 20
4.180574440706434
 30
0.0
 11
6.488999999999999
 21
4.180574440706434
 31
0.0
  0
LINE
  5
3EA
330
1F
100
AcDbEntity
  8
Object
100
AcDbLine
 10
6.488999999999999
 20
4.180574440706434
 30
0.0
 11
6.371
 21
4.180574440706434
 31
0.0
  0
LINE
  5
3EB
330
1F
100
AcDbEntity
  8
Object
100
AcDbLine
 10
6.371
 20
4.180574440706434
 30
0.0
 11
6.251
 21
4.180574440706434
 31
0.0
  0
LINE
  5
3EC
330
1F
100
AcDbEntity
  8
Object
100
AcDbLine
 10
6.251
 20
4.180574440706434
 30
0.0
 11
6.222999999999999
 21
4.180574440706434
 31
0.0
  0
LINE
  5
3ED
330
1F
100
AcDbEntity
  8
Object
100
AcDbLine
 10
3.206999999999999
 20
4.180574440706434
 30
0.0
 11
3.179
 21
4.180574440706434
 31
0.0
  0
LINE
  5
3EE
330
1F
100
AcDbEntity
  8
Object
100
AcDbLine
 10
3.179
 20
4.180574440706434
 30
0.0
 11
3.059
 21
4.180574440706434
 31
0.0
  0
LINE
  5
3EF
330
1F
100
AcDbEntity
  8
Object
100
AcDbLine
 10
3.059
 20
4.180574440706434
 30
0.0
 11
2.942
 21
4.180574440706434
 31
0.0
  0
LINE
  5
3F0
330
1F
100
AcDbEntity
  8
Object
100
AcDbLine
 10
2.942
 20
4.180574440706434
 30
0.0
 11
2.827999999999999
 21
4.180574440706434
 31
0.0
  0
LINE
  5
3F1
330
1F
100
AcDbEntity
  8
Object
100
AcDbLine
 10
2.827999999999999
 20
4.180574440706434
 30
0.0
 11
2.718999999999999
 21
4.180574440706434
 31
0.0
  0
LINE
  5
3F2
330
1F
100
AcDbEntity
  8
Object
100
AcDbLine
 10
2.718999999999999
 20
4.180574440706434
 30
0.0
 11
2.618
 21
4.180574440706434
 31
0.0
  0
LINE
  5
3F3
330
1F
100
AcDbEntity
  8
Object
100
AcDbLine
 10
2.618
 20
4.180574440706434
 30
0.0
 11
2.525999999999999
 21
4.180574440706434
 31
0.0
  0
LINE
  5
3F4
330
1F
100
AcDbEntity
  8
Object
100
AcDbLine
 10
2.525999999999999
 20
4.180574440706434
 30
0.0
 11
2.414999999999999
 21
4.180574440706434
 31
0.0
  0
LINE
  5
3F5
330
1F
100
AcDbEntity
  8
Object
100
AcDbLine
 10
6.663999999999999
 20
4.820574440706435
 30
0.0
 11
6.663999999999999
 21
4.807574440706435
 31
0.0
  0
LINE
  5
3F6
330
1F
100
AcDbEntity
  8
Object
100
AcDbLine
 10
6.706999999999999
 20
4.820574440706435
 30
0.0
 11
6.706999999999999
 21
4.807574440706435
 31
0.0
  0
LINE
  5
3F7
330
1F
100
AcDbEntity
  8
Object
100
AcDbLine
 10
6.706999999999999
 20
4.807574440706435
 30
0.0
 11
6.706999999999999
 21
4.797574440706435
 31
0.0
  0
LINE
  5
3F8
330
1F
100
AcDbEntity
  8
Object
100
AcDbLine
 10
6.706999999999999
 20
4.797574440706435
 30
0.0
 11
6.706999999999999
 21
4.790574440706435
 31
0.0
  0
LINE
  5
3F9
330
1F
100
AcDbEntity
  8
Object
100
AcDbLine
 10
6.706999999999999
 20
4.790574440706435
 30
0.0
 11
6.663999999999999
 21
4.790574440706435
 31
0.0
  0
LINE
  5
3FA
330
1F
100
AcDbEntity
  8
Object
100
AcDbLine
 10
6.663999999999999
 20
4.790574440706435
 30
0.0
 11
6.663999999999999
 21
4.797574440706435
 31
0.0
  0
LINE
  5
3FB
330
1F
100
AcDbEntity
  8
Object
100
AcDbLine
 10
6.663999999999999
 20
4.797574440706435
 30
0.0
 11
6.663999999999999
 21
4.807574440706435
 31
0.0
  0
LINE
  5
3FC
330
1F
100
AcDbEntity
  8
Object
100
AcDbLine
 10
6.708
 20
4.890574440706435
 30
0.0
 11
6.706999999999999
 21
4.853574440706434
 31
0.0
  0
LINE
  5
3FD
330
1F
100
AcDbEntity
  8
Object
100
AcDbLine
 10
6.706999999999999
 20
4.853574440706434
 30
0.0
 11
6.706999999999999
 21
4.836574440706435
 31
0.0
  0
LINE
  5
3FE
330
1F
100
AcDbEntity
  8
Object
100
AcDbLine
 10
6.663999999999999
 20
4.836574440706435
 30
0.0
 11
6.663999999999999
 21
4.820574440706435
 31
0.0
  0
LINE
  5
3FF
330
1F
100
AcDbEntity
  8
Object
100
AcDbLine
 10
6.706999999999999
 20
4.820574440706435
 30
0.0
 11
6.706999999999999
 21
4.836574440706435
 31
0.0
  0
LINE
  5
400
330
1F
100
AcDbEntity
  8
Object
100
AcDbLine
 10
6.663999999999999
 20
4.836574440706435
 30
0.0
 11
6.663999999999999
 21
4.853574440706434
 31
0.0
  0
LINE
  5
401
330
1F
100
AcDbEntity
  8
Object
100
AcDbLine
 10
6.663999999999999
 20
4.853574440706434
 30
0.0
 11
6.663
 21
4.890574440706435
 31
0.0
  0
LINE
  5
402
330
1F
100
AcDbEntity
  8
Object
100
AcDbLine
 10
6.251
 20
5.790574440706435
 30
0.0
 11
6.126999999999999
 21
5.790574440706435
 31
0.0
  0
LINE
  5
403
330
1F
100
AcDbEntity
  8
Object
100
AcDbLine
 10
6.126999999999999
 20
5.790574440706435
 30
0.0
 11
6.004
 21
5.790574440706435
 31
0.0
  0
LINE
  5
404
330
1F
100
AcDbEntity
  8
Object
100
AcDbLine
 10
6.004
 20
5.790574440706435
 30
0.0
 11
5.886
 21
5.790574440706435
 31
0.0
  0
LINE
  5
405
330
1F
100
AcDbEntity
  8
Object
100
AcDbLine
 10
5.886
 20
5.790574440706435
 30
0.0
 11
5.772999999999999
 21
5.790574440706435
 31
0.0
  0
LINE
  5
406
330
1F
100
AcDbEntity
  8
Object
100
AcDbLine
 10
5.772999999999999
 20
5.790574440706435
 30
0.0
 11
5.668
 21
5.790574440706435
 31
0.0
  0
LINE
  5
407
330
1F
100
AcDbEntity
  8
Object
100
AcDbLine
 10
5.668
 20
5.790574440706435
 30
0.0
 11
5.570999999999999
 21
5.790574440706435
 31
0.0
  0
LINE
  5
408
330
1F
100
AcDbEntity
  8
Object
100
AcDbLine
 10
5.570999999999999
 20
5.790574440706435
 30
0.0
 11
5.485
 21
5.790574440706435
 31
0.0
  0
LINE
  5
409
330
1F
100
AcDbEntity
  8
Object
100
AcDbLine
 10
5.485
 20
5.790574440706435
 30
0.0
 11
5.411
 21
5.790574440706435
 31
0.0
  0
LINE
  5
40A
330
1F
100
AcDbEntity
  8
Object
100
AcDbLine
 10
5.411
 20
5.790574440706435
 30
0.0
 11
5.35
 21
5.790574440706435
 31
0.0
  0
LINE
  5
40B
330
1F
100
AcDbEntity
  8
Object
100
AcDbLine
 10
5.35
 20
5.790574440706435
 30
0.0
 11
5.302999999999999
 21
5.790574440706435
 31
0.0
  0
LINE
  5
40C
330
1F
100
AcDbEntity
  8
Object
100
AcDbLine
 10
5.302999999999999
 20
5.790574440706435
 30
0.0
 11
5.270999999999999
 21
5.790574440706435
 31
0.0
  0
LINE
  5
40D
330
1F
100
AcDbEntity
  8
Object
100
AcDbLine
 10
5.270999999999999
 20
5.790574440706435
 30
0.0
 11
5.254
 21
5.790574440706435
 31
0.0
  0
LINE
  5
40E
330
1F
100
AcDbEntity
  8
Object
100
AcDbLine
 10
5.254
 20
5.790574440706435
 30
0.0
 11
5.251999999999999
 21
5.790574440706435
 31
0.0
  0
LINE
  5
40F
330
1F
100
AcDbEntity
  8
Object
100
AcDbLine
 10
6.222999999999999
 20
4.152574440706435
 30
0.0
 11
6.251
 21
5.790574440706435
 31
0.0
  0
LINE
  5
410
330
1F
100
AcDbEntity
  8
Object
100
AcDbLine
 10
6.251
 20
5.790574440706435
 30
0.0
 11
6.222
 21
4.152574440706435
 31
0.0
  0
LINE
  5
411
330
1F
100
AcDbEntity
  8
Object
100
AcDbLine
 10
6.16
 20
4.091574440706435
 30
0.0
 11
6.142
 21
4.091574440706435
 31
0.0
  0
LINE
  5
412
330
1F
100
AcDbEntity
  8
Object
100
AcDbLine
 10
6.142
 20
4.091574440706435
 30
0.0
 11
6.124
 21
4.091574440706435
 31
0.0
  0
LINE
  5
413
330
1F
100
AcDbEntity
  8
Object
100
AcDbLine
 10
6.124
 20
4.091574440706435
 30
0.0
 11
6.105999999999999
 21
4.091574440706435
 31
0.0
  0
LINE
  5
414
330
1F
100
AcDbEntity
  8
Object
100
AcDbLine
 10
6.105999999999999
 20
4.091574440706435
 30
0.0
 11
6.059
 21
4.091574440706435
 31
0.0
  0
LINE
  5
415
330
1F
100
AcDbEntity
  8
Object
100
AcDbLine
 10
6.059
 20
4.091574440706435
 30
0.0
 11
3.371
 21
4.091574440706435
 31
0.0
  0
LINE
  5
416
330
1F
100
AcDbEntity
  8
Object
100
AcDbLine
 10
3.371
 20
4.091574440706435
 30
0.0
 11
3.323999999999999
 21
4.091574440706435
 31
0.0
  0
LINE
  5
417
330
1F
100
AcDbEntity
  8
Object
100
AcDbLine
 10
3.323999999999999
 20
4.091574440706435
 30
0.0
 11
3.306
 21
4.091574440706435
 31
0.0
  0
LINE
  5
418
330
1F
100
AcDbEntity
  8
Object
100
AcDbLine
 10
3.306
 20
4.091574440706435
 30
0.0
 11
3.288
 21
4.091574440706435
 31
0.0
  0
LINE
  5
419
330
1F
100
AcDbEntity
  8
Object
100
AcDbLine
 10
3.288
 20
4.091574440706435
 30
0.0
 11
3.269999999999999
 21
4.091574440706435
 31
0.0
  0
LINE
  5
41A
330
1F
100
AcDbEntity
  8
Object
100
AcDbLine
 10
6.222
 20
4.152574440706435
 30
0.0
 11
6.217
 21
4.128574440706435
 31
0.0
  0
LINE
  5
41B
330
1F
100
AcDbEntity
  8
Object
100
AcDbLine
 10
6.217
 20
4.128574440706435
 30
0.0
 11
6.222999999999999
 21
4.152574440706435
 31
0.0
  0
LINE
  5
41C
330
1F
100
AcDbEntity
  8
Object
100
AcDbLine
 10
6.217
 20
4.128574440706435
 30
0.0
 11
6.203999999999999
 21
4.109574440706435
 31
0.0
  0
LINE
  5
41D
330
1F
100
AcDbEntity
  8
Object
100
AcDbLine
 10
6.203999999999999
 20
4.109574440706435
 30
0.0
 11
6.184
 21
4.095574440706435
 31
0.0
  0
LINE
  5
41E
330
1F
100
AcDbEntity
  8
Object
100
AcDbLine
 10
6.184
 20
4.095574440706435
 30
0.0
 11
6.16
 21
4.091574440706435
 31
0.0
  0
LINE
  5
41F
330
1F
100
AcDbEntity
  8
Object
100
AcDbLine
 10
6.16
 20
4.091574440706435
 30
0.0
 11
6.184
 21
4.095574440706435
 31
0.0
  0
LINE
  5
420
330
1F
100
AcDbEntity
  8
Object
100
AcDbLine
 10
6.059
 20
4.091574440706435
 30
0.0
 11
6.105999999999999
 21
4.091574440706435
 31
0.0
  0
LINE
  5
421
330
1F
100
AcDbEntity
  8
Object
100
AcDbLine
 10
5.892
 20
4.332574440706435
 30
0.0
 11
5.823
 21
4.411574440706434
 31
0.0
  0
LINE
  5
422
330
1F
100
AcDbEntity
  8
Object
100
AcDbLine
 10
5.689
 20
4.565574440706435
 30
0.0
 11
5.624
 21
4.639574440706435
 31
0.0
  0
LINE
  5
423
330
1F
100
AcDbEntity
  8
Object
100
AcDbLine
 10
5.445999999999999
 20
4.843574440706435
 30
0.0
 11
5.394
 21
4.903574440706435
 31
0.0
  0
LINE
  5
424
330
1F
100
AcDbEntity
  8
Object
100
AcDbLine
 10
5.394
 20
4.903574440706435
 30
0.0
 11
5.347999999999999
 21
4.956574440706435
 31
0.0
  0
LINE
  5
425
330
1F
100
AcDbEntity
  8
Object
100
AcDbLine
 10
5.275
 20
5.039574440706434
 30
0.0
 11
5.262999999999999
 21
5.054574440706435
 31
0.0
  0
LINE
  5
426
330
1F
100
AcDbEntity
  8
Object
100
AcDbLine
 10
5.262999999999999
 20
5.054574440706435
 30
0.0
 11
5.251999999999999
 21
5.066574440706435
 31
0.0
  0
LINE
  5
427
330
1F
100
AcDbEntity
  8
Object
100
AcDbLine
 10
5.235
 20
5.048574440706435
 30
0.0
 11
5.238999999999999
 21
5.081574440706435
 31
0.0
  0
LINE
  5
428
330
1F
100
AcDbEntity
  8
Object
100
AcDbLine
 10
5.238999999999999
 20
5.081574440706435
 30
0.0
 11
5.24
 21
5.079574440706435
 31
0.0
  0
LINE
  5
429
330
1F
100
AcDbEntity
  8
Object
100
AcDbLine
 10
5.24
 20
5.079574440706435
 30
0.0
 11
5.245
 21
5.074574440706435
 31
0.0
  0
LINE
  5
42A
330
1F
100
AcDbEntity
  8
Object
100
AcDbLine
 10
5.235
 20
5.048574440706435
 30
0.0
 11
5.169
 21
4.956574440706435
 31
0.0
  0
LINE
  5
42B
330
1F
100
AcDbEntity
  8
Object
100
AcDbLine
 10
5.169
 20
4.956574440706435
 30
0.0
 11
5.089
 21
4.934574440706435
 31
0.0
  0
LINE
  5
42C
330
1F
100
AcDbEntity
  8
Object
100
AcDbLine
 10
3.184
 20
5.493574440706435
 30
0.0
 11
3.179
 21
5.493574440706435
 31
0.0
  0
LINE
  5
42D
330
1F
100
AcDbEntity
  8
Object
100
AcDbLine
 10
3.179
 20
4.180574440706434
 30
0.0
 11
3.206999999999999
 21
4.180574440706434
 31
0.0
  0
LINE
  5
42E
330
1F
100
AcDbEntity
  8
Object
100
AcDbLine
 10
4.341
 20
4.934574440706435
 30
0.0
 11
5.089
 21
4.934574440706435
 31
0.0
  0
LINE
  5
42F
330
1F
100
AcDbEntity
  8
Object
100
AcDbLine
 10
5.089
 20
4.934574440706435
 30
0.0
 11
5.092
 21
4.931574440706435
 31
0.0
  0
LINE
  5
430
330
1F
100
AcDbEntity
  8
Object
100
AcDbLine
 10
5.092
 20
4.931574440706435
 30
0.0
 11
5.097
 21
4.926574440706435
 31
0.0
  0
LINE
  5
431
330
1F
100
AcDbEntity
  8
Object
100
AcDbLine
 10
5.097
 20
4.926574440706435
 30
0.0
 11
5.105999999999999
 21
4.919574440706435
 31
0.0
  0
LINE
  5
432
330
1F
100
AcDbEntity
  8
Object
100
AcDbLine
 10
5.105999999999999
 20
4.919574440706435
 30
0.0
 11
5.133
 21
4.896574440706435
 31
0.0
  0
LINE
  5
433
330
1F
100
AcDbEntity
  8
Object
100
AcDbLine
 10
5.133
 20
4.896574440706435
 30
0.0
 11
5.169
 21
4.864574440706435
 31
0.0
  0
LINE
  5
434
330
1F
100
AcDbEntity
  8
Object
100
AcDbLine
 10
5.169
 20
4.864574440706435
 30
0.0
 11
5.214
 21
4.825574440706435
 31
0.0
  0
LINE
  5
435
330
1F
100
AcDbEntity
  8
Object
100
AcDbLine
 10
5.214
 20
4.825574440706435
 30
0.0
 11
5.267
 21
4.779574440706435
 31
0.0
  0
LINE
  5
436
330
1F
100
AcDbEntity
  8
Object
100
AcDbLine
 10
4.216
 20
4.825574440706435
 30
0.0
 11
4.163999999999999
 21
4.779574440706435
 31
0.0
  0
LINE
  5
437
330
1F
100
AcDbEntity
  8
Object
100
AcDbLine
 10
4.163999999999999
 20
4.779574440706435
 30
0.0
 11
4.105999999999999
 21
4.728574440706434
 31
0.0
  0
LINE
  5
438
330
1F
100
AcDbEntity
  8
Object
100
AcDbLine
 10
5.267
 20
4.779574440706435
 30
0.0
 11
5.325
 21
4.728574440706434
 31
0.0
  0
LINE
  5
439
330
1F
100
AcDbEntity
  8
Object
100
AcDbLine
 10
5.325
 20
4.728574440706434
 30
0.0
 11
5.387
 21
4.674574440706435
 31
0.0
  0
LINE
  5
43A
330
1F
100
AcDbEntity
  8
Object
100
AcDbLine
 10
4.105999999999999
 20
4.728574440706434
 30
0.0
 11
4.043
 21
4.674574440706435
 31
0.0
  0
LINE
  5
43B
330
1F
100
AcDbEntity
  8
Object
100
AcDbLine
 10
5.387
 20
4.674574440706435
 30
0.0
 11
5.453999999999999
 21
4.615574440706435
 31
0.0
  0
LINE
  5
43C
330
1F
100
AcDbEntity
  8
Object
100
AcDbLine
 10
5.453999999999999
 20
4.615574440706435
 30
0.0
 11
5.524
 21
4.555574440706434
 31
0.0
  0
LINE
  5
43D
330
1F
100
AcDbEntity
  8
Object
100
AcDbLine
 10
5.524
 20
4.555574440706434
 30
0.0
 11
5.594999999999999
 21
4.493574440706435
 31
0.0
  0
LINE
  5
43E
330
1F
100
AcDbEntity
  8
Object
100
AcDbLine
 10
3.907
 20
4.555574440706434
 30
0.0
 11
3.834999999999999
 21
4.493574440706435
 31
0.0
  0
LINE
  5
43F
330
1F
100
AcDbEntity
  8
Object
100
AcDbLine
 10
3.834999999999999
 20
4.493574440706435
 30
0.0
 11
3.762
 21
4.429574440706435
 31
0.0
  0
LINE
  5
440
330
1F
100
AcDbEntity
  8
Object
100
AcDbLine
 10
5.594999999999999
 20
4.493574440706435
 30
0.0
 11
5.669
 21
4.429574440706435
 31
0.0
  0
LINE
  5
441
330
1F
100
AcDbEntity
  8
Object
100
AcDbLine
 10
5.669
 20
4.429574440706435
 30
0.0
 11
5.743999999999999
 21
4.363574440706434
 31
0.0
  0
LINE
  5
442
330
1F
100
AcDbEntity
  8
Object
100
AcDbLine
 10
5.743999999999999
 20
4.363574440706434
 30
0.0
 11
5.820999999999999
 21
4.296574440706435
 31
0.0
  0
LINE
  5
443
330
1F
100
AcDbEntity
  8
Object
100
AcDbLine
 10
3.685999999999999
 20
4.363574440706434
 30
0.0
 11
3.608999999999999
 21
4.296574440706435
 31
0.0
  0
LINE
  5
444
330
1F
100
AcDbEntity
  8
Object
100
AcDbLine
 10
3.608999999999999
 20
4.296574440706435
 30
0.0
 11
3.53
 21
4.228574440706434
 31
0.0
  0
LINE
  5
445
330
1F
100
AcDbEntity
  8
Object
100
AcDbLine
 10
5.820999999999999
 20
4.296574440706435
 30
0.0
 11
5.9
 21
4.228574440706434
 31
0.0
  0
LINE
  5
446
330
1F
100
AcDbEntity
  8
Object
100
AcDbLine
 10
5.9
 20
4.228574440706434
 30
0.0
 11
5.979
 21
4.159574440706435
 31
0.0
  0
LINE
  5
447
330
1F
100
AcDbEntity
  8
Object
100
AcDbLine
 10
5.979
 20
4.159574440706435
 30
0.0
 11
6.059
 21
4.091574440706435
 31
0.0
  0
LINE
  5
448
330
1F
100
AcDbEntity
  8
Object
100
AcDbLine
 10
3.53
 20
4.228574440706434
 30
0.0
 11
3.451
 21
4.159574440706435
 31
0.0
  0
LINE
  5
449
330
1F
100
AcDbEntity
  8
Object
100
AcDbLine
 10
6.059
 20
4.091574440706435
 30
0.0
 11
3.371
 21
4.091574440706435
 31
0.0
  0
LINE
  5
44A
330
1F
100
AcDbEntity
  8
Object
100
AcDbLine
 10
3.371
 20
4.091574440706435
 30
0.0
 11
3.451
 21
4.159574440706435
 31
0.0
  0
LINE
  5
44B
330
1F
100
AcDbEntity
  8
Object
100
AcDbLine
 10
2.445999999999999
 20
5.493574440706435
 30
0.0
 11
2.56
 21
5.493574440706435
 31
0.0
  0
LINE
  5
44C
330
1F
100
AcDbEntity
  8
Object
100
AcDbLine
 10
2.56
 20
5.493574440706435
 30
0.0
 11
2.525999999999999
 21
4.180574440706434
 31
0.0
  0
LINE
  5
44D
330
1F
100
AcDbEntity
  8
Object
100
AcDbLine
 10
2.525999999999999
 20
4.180574440706434
 30
0.0
 11
2.414999999999999
 21
4.180574440706434
 31
0.0
  0
LINE
  5
44E
102
{ACAD_REACTORS
330
6F0
102
}
330
1F
100
AcDbEntity
  8
Object
100
AcDbLine
 10
2.414999999999999
 20
4.180574440706434
 30
0.0
 11
2.445999999999999
 21
5.493574440706435
 31
0.0
  0
LINE
  5
44F
330
1F
100
AcDbEntity
  8
Object
100
AcDbLine
 10
3.076
 20
5.493574440706435
 30
0.0
 11
3.179
 21
5.493574440706435
 31
0.0
  0
LINE
  5
450
330
1F
100
AcDbEntity
  8
Object
100
AcDbLine
 10
3.179
 20
5.493574440706435
 30
0.0
 11
3.179
 21
4.180574440706434
 31
0.0
  0
LINE
  5
451
330
1F
100
AcDbEntity
  8
Object
100
AcDbLine
 10
3.179
 20
4.180574440706434
 30
0.0
 11
3.059
 21
4.180574440706434
 31
0.0
  0
LINE
  5
452
330
1F
100
AcDbEntity
  8
Object
100
AcDbLine
 10
3.076
 20
5.493574440706435
 30
0.0
 11
2.972999999999998
 21
5.493574440706435
 31
0.0
  0
LINE
  5
453
330
1F
100
AcDbEntity
  8
Object
100
AcDbLine
 10
2.942
 20
4.180574440706434
 30
0.0
 11
3.059
 21
4.180574440706434
 31
0.0
  0
LINE
  5
454
330
1F
100
AcDbEntity
  8
Object
100
AcDbLine
 10
2.972999999999998
 20
5.493574440706435
 30
0.0
 11
2.874
 21
5.493574440706435
 31
0.0
  0
LINE
  5
455
330
1F
100
AcDbEntity
  8
Object
100
AcDbLine
 10
2.827999999999999
 20
4.180574440706434
 30
0.0
 11
2.942
 21
4.180574440706434
 31
0.0
  0
LINE
  5
456
330
1F
100
AcDbEntity
  8
Object
100
AcDbLine
 10
2.874
 20
5.493574440706435
 30
0.0
 11
2.778
 21
5.493574440706435
 31
0.0
  0
LINE
  5
457
330
1F
100
AcDbEntity
  8
Object
100
AcDbLine
 10
2.718999999999999
 20
4.180574440706434
 30
0.0
 11
2.827999999999999
 21
4.180574440706434
 31
0.0
  0
LINE
  5
458
330
1F
100
AcDbEntity
  8
Object
100
AcDbLine
 10
2.772
 20
4.790574440706435
 30
0.0
 11
2.769
 21
4.790574440706435
 31
0.0
  0
LINE
  5
459
330
1F
100
AcDbEntity
  8
Object
100
AcDbLine
 10
2.711
 20
4.790574440706435
 30
0.0
 11
2.708
 21
4.790574440706435
 31
0.0
  0
LINE
  5
45A
330
1F
100
AcDbEntity
  8
Object
100
AcDbLine
 10
2.653
 20
5.493574440706435
 30
0.0
 11
2.701999999999999
 21
5.493574440706435
 31
0.0
  0
LINE
  5
45B
330
1F
100
AcDbEntity
  8
Object
100
AcDbLine
 10
2.701999999999999
 20
5.493574440706435
 30
0.0
 11
2.708
 21
4.790574440706435
 31
0.0
  0
LINE
  5
45C
330
1F
100
AcDbEntity
  8
Object
100
AcDbLine
 10
2.618
 20
4.180574440706434
 30
0.0
 11
2.718999999999999
 21
4.180574440706434
 31
0.0
  0
LINE
  5
45D
330
1F
100
AcDbEntity
  8
Object
100
AcDbLine
 10
2.653
 20
5.493574440706435
 30
0.0
 11
2.605
 21
5.493574440706435
 31
0.0
  0
LINE
  5
45E
330
1F
100
AcDbEntity
  8
Object
100
AcDbLine
 10
2.525999999999999
 20
4.180574440706434
 30
0.0
 11
2.618
 21
4.180574440706434
 31
0.0
  0
LINE
  5
45F
330
1F
100
AcDbEntity
  8
Object
100
AcDbLine
 10
2.605
 20
5.493574440706435
 30
0.0
 11
2.56
 21
5.493574440706435
 31
0.0
  0
LINE
  5
460
330
1F
100
AcDbEntity
  8
Object
100
AcDbLine
 10
4.192
 20
5.081574440706435
 30
0.0
 11
4.19
 21
5.079574440706435
 31
0.0
  0
LINE
  5
461
330
1F
100
AcDbEntity
  8
Object
100
AcDbLine
 10
4.19
 20
5.079574440706435
 30
0.0
 11
4.185
 21
5.074574440706435
 31
0.0
  0
LINE
  5
462
330
1F
100
AcDbEntity
  8
Object
100
AcDbLine
 10
4.192
 20
5.081574440706435
 30
0.0
 11
4.177999999999999
 21
5.790574440706435
 31
0.0
  0
LINE
  5
463
330
1F
100
AcDbEntity
  8
Object
100
AcDbLine
 10
4.177999999999999
 20
5.790574440706435
 30
0.0
 11
4.176
 21
5.790574440706435
 31
0.0
  0
LINE
  5
464
330
1F
100
AcDbEntity
  8
Object
100
AcDbLine
 10
4.185
 20
5.074574440706435
 30
0.0
 11
4.177999999999999
 21
5.066574440706435
 31
0.0
  0
LINE
  5
465
330
1F
100
AcDbEntity
  8
Object
100
AcDbLine
 10
4.177999999999999
 20
5.066574440706435
 30
0.0
 11
4.168
 21
5.054574440706435
 31
0.0
  0
LINE
  5
466
330
1F
100
AcDbEntity
  8
Object
100
AcDbLine
 10
4.176
 20
5.790574440706435
 30
0.0
 11
4.158999999999999
 21
5.790574440706435
 31
0.0
  0
LINE
  5
467
330
1F
100
AcDbEntity
  8
Object
100
AcDbLine
 10
4.158999999999999
 20
5.790574440706435
 30
0.0
 11
4.126999999999999
 21
5.790574440706435
 31
0.0
  0
LINE
  5
468
330
1F
100
AcDbEntity
  8
Object
100
AcDbLine
 10
4.123
 20
5.002574440706435
 30
0.0
 11
4.155
 21
5.039574440706434
 31
0.0
  0
LINE
  5
469
330
1F
100
AcDbEntity
  8
Object
100
AcDbLine
 10
4.126999999999999
 20
5.790574440706435
 30
0.0
 11
4.08
 21
5.790574440706435
 31
0.0
  0
LINE
  5
46A
330
1F
100
AcDbEntity
  8
Object
100
AcDbLine
 10
4.123
 20
5.002574440706435
 30
0.0
 11
4.081999999999999
 21
4.956574440706435
 31
0.0
  0
LINE
  5
46B
330
1F
100
AcDbEntity
  8
Object
100
AcDbLine
 10
4.081999999999999
 20
4.956574440706435
 30
0.0
 11
4.036
 21
4.903574440706435
 31
0.0
  0
LINE
  5
46C
330
1F
100
AcDbEntity
  8
Object
100
AcDbLine
 10
4.08
 20
5.790574440706435
 30
0.0
 11
4.019
 21
5.790574440706435
 31
0.0
  0
LINE
  5
46D
330
1F
100
AcDbEntity
  8
Object
100
AcDbLine
 10
3.983999999999999
 20
4.843574440706435
 30
0.0
 11
4.036
 21
4.903574440706435
 31
0.0
  0
LINE
  5
46E
330
1F
100
AcDbEntity
  8
Object
100
AcDbLine
 10
4.019
 20
5.790574440706435
 30
0.0
 11
3.945
 21
5.790574440706435
 31
0.0
  0
LINE
  5
46F
330
1F
100
AcDbEntity
  8
Object
100
AcDbLine
 10
3.927999999999999
 20
4.778574440706435
 30
0.0
 11
3.983999999999999
 21
4.843574440706435
 31
0.0
  0
LINE
  5
470
330
1F
100
AcDbEntity
  8
Object
100
AcDbLine
 10
3.945
 20
5.790574440706435
 30
0.0
 11
3.858999999999999
 21
5.790574440706435
 31
0.0
  0
LINE
  5
471
330
1F
100
AcDbEntity
  8
Object
100
AcDbLine
 10
3.927999999999999
 20
4.778574440706435
 30
0.0
 11
3.868
 21
4.710574440706435
 31
0.0
  0
LINE
  5
472
330
1F
100
AcDbEntity
  8
Object
100
AcDbLine
 10
3.868
 20
4.710574440706435
 30
0.0
 11
3.806
 21
4.639574440706435
 31
0.0
  0
LINE
  5
473
330
1F
100
AcDbEntity
  8
Object
100
AcDbLine
 10
3.858999999999999
 20
5.790574440706435
 30
0.0
 11
3.762999999999999
 21
5.790574440706435
 31
0.0
  0
LINE
  5
474
330
1F
100
AcDbEntity
  8
Object
100
AcDbLine
 10
3.741999999999999
 20
4.565574440706435
 30
0.0
 11
3.806
 21
4.639574440706435
 31
0.0
  0
LINE
  5
475
330
1F
100
AcDbEntity
  8
Object
100
AcDbLine
 10
3.762999999999999
 20
5.790574440706435
 30
0.0
 11
3.657
 21
5.790574440706435
 31
0.0
  0
LINE
  5
476
330
1F
100
AcDbEntity
  8
Object
100
AcDbLine
 10
3.741999999999999
 20
4.565574440706435
 30
0.0
 11
3.675
 21
4.489574440706435
 31
0.0
  0
LINE
  5
477
330
1F
100
AcDbEntity
  8
Object
100
AcDbLine
 10
3.675
 20
4.489574440706435
 30
0.0
 11
3.607
 21
4.411574440706434
 31
0.0
  0
LINE
  5
478
330
1F
100
AcDbEntity
  8
Object
100
AcDbLine
 10
3.657
 20
5.790574440706435
 30
0.0
 11
3.544
 21
5.790574440706435
 31
0.0
  0
LINE
  5
479
330
1F
100
AcDbEntity
  8
Object
100
AcDbLine
 10
3.607
 20
4.411574440706434
 30
0.0
 11
3.538
 21
4.332574440706435
 31
0.0
  0
LINE
  5
47A
330
1F
100
AcDbEntity
  8
Object
100
AcDbLine
 10
3.538
 20
4.332574440706435
 30
0.0
 11
3.467999999999999
 21
4.252574440706435
 31
0.0
  0
LINE
  5
47B
330
1F
100
AcDbEntity
  8
Object
100
AcDbLine
 10
3.544
 20
5.790574440706435
 30
0.0
 11
3.426
 21
5.790574440706435
 31
0.0
  0
LINE
  5
47C
330
1F
100
AcDbEntity
  8
Object
100
AcDbLine
 10
3.397
 20
4.172574440706435
 30
0.0
 11
3.467999999999999
 21
4.252574440706435
 31
0.0
  0
LINE
  5
47D
330
1F
100
AcDbEntity
  8
Object
100
AcDbLine
 10
3.426
 20
5.790574440706435
 30
0.0
 11
3.302999999999999
 21
5.790574440706435
 31
0.0
  0
LINE
  5
47E
330
1F
100
AcDbEntity
  8
Object
100
AcDbLine
 10
3.397
 20
4.172574440706435
 30
0.0
 11
3.323999999999999
 21
4.091574440706435
 31
0.0
  0
LINE
  5
47F
330
1F
100
AcDbEntity
  8
Object
100
AcDbLine
 10
3.323999999999999
 20
4.091574440706435
 30
0.0
 11
3.306
 21
4.091574440706435
 31
0.0
  0
LINE
  5
480
330
1F
100
AcDbEntity
  8
Object
100
AcDbLine
 10
3.306
 20
4.091574440706435
 30
0.0
 11
3.288
 21
4.091574440706435
 31
0.0
  0
LINE
  5
481
330
1F
100
AcDbEntity
  8
Object
100
AcDbLine
 10
3.288
 20
4.091574440706435
 30
0.0
 11
3.269999999999999
 21
4.091574440706435
 31
0.0
  0
LINE
  5
482
330
1F
100
AcDbEntity
  8
Object
100
AcDbLine
 10
3.269999999999999
 20
4.091574440706435
 30
0.0
 11
3.246999999999999
 21
4.095574440706435
 31
0.0
  0
LINE
  5
483
330
1F
100
AcDbEntity
  8
Object
100
AcDbLine
 10
3.246999999999999
 20
4.095574440706435
 30
0.0
 11
3.227
 21
4.109574440706435
 31
0.0
  0
LINE
  5
484
330
1F
100
AcDbEntity
  8
Object
100
AcDbLine
 10
3.227
 20
4.109574440706435
 30
0.0
 11
3.213
 21
4.128574440706435
 31
0.0
  0
LINE
  5
485
330
1F
100
AcDbEntity
  8
Object
100
AcDbLine
 10
3.213
 20
4.128574440706435
 30
0.0
 11
3.208
 21
4.152574440706435
 31
0.0
  0
LINE
  5
486
330
1F
100
AcDbEntity
  8
Object
100
AcDbLine
 10
3.208
 20
4.152574440706435
 30
0.0
 11
3.179
 21
5.790574440706435
 31
0.0
  0
LINE
  5
487
330
1F
100
AcDbEntity
  8
Object
100
AcDbLine
 10
3.179
 20
5.790574440706435
 30
0.0
 11
3.302999999999999
 21
5.790574440706435
 31
0.0
  0
LINE
  5
488
330
1F
100
AcDbEntity
  8
Object
100
AcDbLine
 10
4.309
 20
4.937574440706435
 30
0.0
 11
4.341
 21
4.934574440706435
 31
0.0
  0
LINE
  5
489
330
1F
100
AcDbEntity
  8
Object
100
AcDbLine
 10
4.341
 20
4.934574440706435
 30
0.0
 11
4.339
 21
4.931574440706435
 31
0.0
  0
LINE
  5
48A
330
1F
100
AcDbEntity
  8
Object
100
AcDbLine
 10
4.339
 20
4.931574440706435
 30
0.0
 11
4.333
 21
4.926574440706435
 31
0.0
  0
LINE
  5
48B
330
1F
100
AcDbEntity
  8
Object
100
AcDbLine
 10
4.333
 20
4.926574440706435
 30
0.0
 11
4.323999999999999
 21
4.919574440706435
 31
0.0
  0
LINE
  5
48C
330
1F
100
AcDbEntity
  8
Object
100
AcDbLine
 10
4.323999999999999
 20
4.919574440706435
 30
0.0
 11
4.298
 21
4.896574440706435
 31
0.0
  0
LINE
  5
48D
330
1F
100
AcDbEntity
  8
Object
100
AcDbLine
 10
4.298
 20
4.896574440706435
 30
0.0
 11
4.261
 21
4.864574440706435
 31
0.0
  0
LINE
  5
48E
330
1F
100
AcDbEntity
  8
Object
100
AcDbLine
 10
4.309
 20
4.937574440706435
 30
0.0
 11
4.214999999999999
 21
5.002574440706435
 31
0.0
  0
LINE
  5
48F
330
1F
100
AcDbEntity
  8
Object
100
AcDbLine
 10
4.216
 20
4.825574440706435
 30
0.0
 11
4.261
 21
4.864574440706435
 31
0.0
  0
LINE
  5
490
330
1F
100
AcDbEntity
  8
Object
100
AcDbLine
 10
4.214999999999999
 20
5.002574440706435
 30
0.0
 11
4.192
 21
5.081574440706435
 31
0.0
  0
LINE
  5
491
330
1F
100
AcDbEntity
  8
Object
100
AcDbLine
 10
4.168
 20
5.054574440706435
 30
0.0
 11
4.155
 21
5.039574440706434
 31
0.0
  0
LINE
  5
492
330
1F
100
AcDbEntity
  8
Object
100
AcDbLine
 10
4.043
 20
4.674574440706435
 30
0.0
 11
3.975999999999999
 21
4.615574440706435
 31
0.0
  0
LINE
  5
493
330
1F
100
AcDbEntity
  8
Object
100
AcDbLine
 10
3.975999999999999
 20
4.615574440706435
 30
0.0
 11
3.907
 21
4.555574440706434
 31
0.0
  0
LINE
  5
494
330
1F
100
AcDbEntity
  8
Object
100
AcDbLine
 10
3.685999999999999
 20
4.363574440706434
 30
0.0
 11
3.762
 21
4.429574440706435
 31
0.0
  0
LINE
  5
495
330
1F
100
AcDbEntity
  8
Object
100
AcDbLine
 10
3.323999999999999
 20
4.091574440706435
 30
0.0
 11
3.371
 21
4.091574440706435
 31
0.0
  0
LINE
  5
496
330
1F
100
AcDbEntity
  8
Object
100
AcDbLine
 10
3.269999999999999
 20
4.091574440706435
 30
0.0
 11
3.246999999999999
 21
4.095574440706435
 31
0.0
  0
LINE
  5
497
330
1F
100
AcDbEntity
  8
Object
100
AcDbLine
 10
3.246999999999999
 20
4.095574440706435
 30
0.0
 11
3.227
 21
4.109574440706435
 31
0.0
  0
LINE
  5
498
330
1F
100
AcDbEntity
  8
Object
100
AcDbLine
 10
3.227
 20
4.109574440706435
 30
0.0
 11
3.213
 21
4.128574440706435
 31
0.0
  0
LINE
  5
499
330
1F
100
AcDbEntity
  8
Object
100
AcDbLine
 10
3.213
 20
4.128574440706435
 30
0.0
 11
3.208
 21
4.152574440706435
 31
0.0
  0
LINE
  5
49A
330
1F
100
AcDbEntity
  8
Object
100
AcDbLine
 10
4.177999999999999
 20
5.790574440706435
 30
0.0
 11
4.176
 21
5.790574440706435
 31
0.0
  0
LINE
  5
49B
330
1F
100
AcDbEntity
  8
Object
100
AcDbLine
 10
4.176
 20
5.790574440706435
 30
0.0
 11
4.158999999999999
 21
5.790574440706435
 31
0.0
  0
LINE
  5
49C
330
1F
100
AcDbEntity
  8
Object
100
AcDbLine
 10
4.158999999999999
 20
5.790574440706435
 30
0.0
 11
4.126999999999999
 21
5.790574440706435
 31
0.0
  0
LINE
  5
49D
330
1F
100
AcDbEntity
  8
Object
100
AcDbLine
 10
4.126999999999999
 20
5.790574440706435
 30
0.0
 11
4.08
 21
5.790574440706435
 31
0.0
  0
LINE
  5
49E
330
1F
100
AcDbEntity
  8
Object
100
AcDbLine
 10
4.08
 20
5.790574440706435
 30
0.0
 11
4.019
 21
5.790574440706435
 31
0.0
  0
LINE
  5
49F
330
1F
100
AcDbEntity
  8
Object
100
AcDbLine
 10
4.019
 20
5.790574440706435
 30
0.0
 11
3.945
 21
5.790574440706435
 31
0.0
  0
LINE
  5
4A0
330
1F
100
AcDbEntity
  8
Object
100
AcDbLine
 10
3.945
 20
5.790574440706435
 30
0.0
 11
3.858999999999999
 21
5.790574440706435
 31
0.0
  0
LINE
  5
4A1
330
1F
100
AcDbEntity
  8
Object
100
AcDbLine
 10
3.858999999999999
 20
5.790574440706435
 30
0.0
 11
3.762999999999999
 21
5.790574440706435
 31
0.0
  0
LINE
  5
4A2
330
1F
100
AcDbEntity
  8
Object
100
AcDbLine
 10
3.762999999999999
 20
5.790574440706435
 30
0.0
 11
3.657
 21
5.790574440706435
 31
0.0
  0
LINE
  5
4A3
330
1F
100
AcDbEntity
  8
Object
100
AcDbLine
 10
3.657
 20
5.790574440706435
 30
0.0
 11
3.544
 21
5.790574440706435
 31
0.0
  0
LINE
  5
4A4
330
1F
100
AcDbEntity
  8
Object
100
AcDbLine
 10
3.544
 20
5.790574440706435
 30
0.0
 11
3.426
 21
5.790574440706435
 31
0.0
  0
LINE
  5
4A5
330
1F
100
AcDbEntity
  8
Object
100
AcDbLine
 10
3.426
 20
5.790574440706435
 30
0.0
 11
3.302999999999999
 21
5.790574440706435
 31
0.0
  0
LINE
  5
4A6
330
1F
100
AcDbEntity
  8
Object
100
AcDbLine
 10
3.302999999999999
 20
5.790574440706435
 30
0.0
 11
3.179
 21
5.790574440706435
 31
0.0
  0
LINE
  5
4A7
330
1F
100
AcDbEntity
  8
Object
100
AcDbLine
 10
3.179
 20
5.790574440706435
 30
0.0
 11
3.208
 21
4.152574440706435
 31
0.0
  0
LINE
  5
4A8
330
1F
100
AcDbEntity
  8
Object
100
AcDbLine
 10
3.184
 20
5.493574440706435
 30
0.0
 11
3.179
 21
5.493574440706435
 31
0.0
  0
LINE
  5
4A9
330
1F
100
AcDbEntity
  8
Object
100
AcDbLine
 10
3.179
 20
5.493574440706435
 30
0.0
 11
3.076
 21
5.493574440706435
 31
0.0
  0
LINE
  5
4AA
330
1F
100
AcDbEntity
  8
Object
100
AcDbLine
 10
3.076
 20
5.493574440706435
 30
0.0
 11
2.972999999999998
 21
5.493574440706435
 31
0.0
  0
LINE
  5
4AB
330
1F
100
AcDbEntity
  8
Object
100
AcDbLine
 10
2.972999999999998
 20
5.493574440706435
 30
0.0
 11
2.874
 21
5.493574440706435
 31
0.0
  0
LINE
  5
4AC
330
1F
100
AcDbEntity
  8
Object
100
AcDbLine
 10
2.874
 20
5.493574440706435
 30
0.0
 11
2.778
 21
5.493574440706435
 31
0.0
  0
LINE
  5
4AD
330
1F
100
AcDbEntity
  8
Object
100
AcDbLine
 10
2.778
 20
5.493574440706435
 30
0.0
 11
2.775999999999999
 21
5.493574440706435
 31
0.0
  0
LINE
  5
4AE
330
1F
100
AcDbEntity
  8
Object
100
AcDbLine
 10
2.775999999999999
 20
5.493574440706435
 30
0.0
 11
2.774
 21
5.493574440706435
 31
0.0
  0
LINE
  5
4AF
330
1F
100
AcDbEntity
  8
Object
100
AcDbLine
 10
2.774
 20
5.493574440706435
 30
0.0
 11
2.772999999999999
 21
5.493574440706435
 31
0.0
  0
LINE
  5
4B0
330
1F
100
AcDbEntity
  8
Object
100
AcDbLine
 10
2.772999999999999
 20
5.493574440706435
 30
0.0
 11
2.772
 21
5.493574440706435
 31
0.0
  0
LINE
  5
4B1
330
1F
100
AcDbEntity
  8
Object
100
AcDbLine
 10
2.772
 20
5.493574440706435
 30
0.0
 11
2.717
 21
5.493574440706435
 31
0.0
  0
LINE
  5
4B2
330
1F
100
AcDbEntity
  8
Object
100
AcDbLine
 10
2.717
 20
5.493574440706435
 30
0.0
 11
2.716000000000001
 21
5.493574440706435
 31
0.0
  0
LINE
  5
4B3
330
1F
100
AcDbEntity
  8
Object
100
AcDbLine
 10
2.716000000000001
 20
5.493574440706435
 30
0.0
 11
2.714
 21
5.493574440706435
 31
0.0
  0
LINE
  5
4B4
330
1F
100
AcDbEntity
  8
Object
100
AcDbLine
 10
2.714
 20
5.493574440706435
 30
0.0
 11
2.711999999999999
 21
5.493574440706435
 31
0.0
  0
LINE
  5
4B5
330
1F
100
AcDbEntity
  8
Object
100
AcDbLine
 10
2.711999999999999
 20
5.493574440706435
 30
0.0
 11
2.71
 21
5.493574440706435
 31
0.0
  0
LINE
  5
4B6
330
1F
100
AcDbEntity
  8
Object
100
AcDbLine
 10
2.71
 20
5.493574440706435
 30
0.0
 11
2.707
 21
5.493574440706435
 31
0.0
  0
LINE
  5
4B7
330
1F
100
AcDbEntity
  8
Object
100
AcDbLine
 10
2.707
 20
5.493574440706435
 30
0.0
 11
2.705
 21
5.493574440706435
 31
0.0
  0
LINE
  5
4B8
330
1F
100
AcDbEntity
  8
Object
100
AcDbLine
 10
2.705
 20
5.493574440706435
 30
0.0
 11
2.701999999999999
 21
5.493574440706435
 31
0.0
  0
LINE
  5
4B9
330
1F
100
AcDbEntity
  8
Object
100
AcDbLine
 10
2.701999999999999
 20
5.493574440706435
 30
0.0
 11
2.653
 21
5.493574440706435
 31
0.0
  0
LINE
  5
4BA
330
1F
100
AcDbEntity
  8
Object
100
AcDbLine
 10
2.653
 20
5.493574440706435
 30
0.0
 11
2.605
 21
5.493574440706435
 31
0.0
  0
LINE
  5
4BB
330
1F
100
AcDbEntity
  8
Object
100
AcDbLine
 10
2.605
 20
5.493574440706435
 30
0.0
 11
2.56
 21
5.493574440706435
 31
0.0
  0
LINE
  5
4BC
330
1F
100
AcDbEntity
  8
Object
100
AcDbLine
 10
2.56
 20
5.493574440706435
 30
0.0
 11
2.445999999999999
 21
5.493574440706435
 31
0.0
  0
LINE
  5
4BD
330
1F
100
AcDbEntity
  8
Object
100
AcDbLine
 10
2.775999999999999
 20
5.493574440706435
 30
0.0
 11
2.778
 21
5.493574440706435
 31
0.0
  0
LINE
  5
4BE
330
1F
100
AcDbEntity
  8
Object
100
AcDbLine
 10
2.778
 20
5.493574440706435
 30
0.0
 11
2.772
 21
4.790574440706435
 31
0.0
  0
LINE
  5
4BF
330
1F
100
AcDbEntity
  8
Object
100
AcDbLine
 10
2.772
 20
4.790574440706435
 30
0.0
 11
2.769
 21
4.790574440706435
 31
0.0
  0
LINE
  5
4C0
330
1F
100
AcDbEntity
  8
Object
100
AcDbLine
 10
2.775999999999999
 20
5.493574440706435
 30
0.0
 11
2.774
 21
5.493574440706435
 31
0.0
  0
LINE
  5
4C1
330
1F
100
AcDbEntity
  8
Object
100
AcDbLine
 10
2.769
 20
4.790574440706435
 30
0.0
 11
2.768
 21
4.790574440706435
 31
0.0
  0
LINE
  5
4C2
330
1F
100
AcDbEntity
  8
Object
100
AcDbLine
 10
2.768
 20
4.790574440706435
 30
0.0
 11
2.766
 21
4.790574440706435
 31
0.0
  0
LINE
  5
4C3
330
1F
100
AcDbEntity
  8
Object
100
AcDbLine
 10
2.766
 20
4.790574440706435
 30
0.0
 11
2.772999999999999
 21
5.493574440706435
 31
0.0
  0
LINE
  5
4C4
330
1F
100
AcDbEntity
  8
Object
100
AcDbLine
 10
2.766
 20
4.790574440706435
 30
0.0
 11
2.772
 21
5.493574440706435
 31
0.0
  0
LINE
  5
4C5
330
1F
100
AcDbEntity
  8
Object
100
AcDbLine
 10
2.772
 20
5.493574440706435
 30
0.0
 11
2.772999999999999
 21
5.493574440706435
 31
0.0
  0
LINE
  5
4C6
330
1F
100
AcDbEntity
  8
Object
100
AcDbLine
 10
2.772999999999999
 20
5.493574440706435
 30
0.0
 11
2.774
 21
5.493574440706435
 31
0.0
  0
LINE
  5
4C7
330
1F
100
AcDbEntity
  8
Object
100
AcDbLine
 10
2.766
 20
4.790574440706435
 30
0.0
 11
2.772999999999999
 21
5.493574440706435
 31
0.0
  0
LINE
  5
4C8
330
1F
100
AcDbEntity
  8
Object
100
AcDbLine
 10
2.721
 20
4.790574440706435
 30
0.0
 11
2.721999999999999
 21
4.790574440706435
 31
0.0
  0
LINE
  5
4C9
330
1F
100
AcDbEntity
  8
Object
100
AcDbLine
 10
2.721999999999999
 20
4.790574440706435
 30
0.0
 11
2.722999999999998
 21
4.790574440706435
 31
0.0
  0
LINE
  5
4CA
330
1F
100
AcDbEntity
  8
Object
100
AcDbLine
 10
2.722999999999998
 20
4.790574440706435
 30
0.0
 11
2.717
 21
5.493574440706435
 31
0.0
  0
LINE
  5
4CB
330
1F
100
AcDbEntity
  8
Object
100
AcDbLine
 10
2.718999999999999
 20
5.136574440706435
 30
0.0
 11
2.722999999999998
 21
4.790574440706435
 31
0.0
  0
LINE
  5
4CC
330
1F
100
AcDbEntity
  8
Object
100
AcDbLine
 10
2.717
 20
5.493574440706435
 30
0.0
 11
2.716000000000001
 21
5.493574440706435
 31
0.0
  0
LINE
  5
4CD
330
1F
100
AcDbEntity
  8
Object
100
AcDbLine
 10
2.721
 20
4.790574440706435
 30
0.0
 11
2.717999999999999
 21
4.790574440706435
 31
0.0
  0
LINE
  5
4CE
330
1F
100
AcDbEntity
  8
Object
100
AcDbLine
 10
2.717999999999999
 20
4.790574440706435
 30
0.0
 11
2.716000000000001
 21
4.790574440706435
 31
0.0
  0
LINE
  5
4CF
330
1F
100
AcDbEntity
  8
Object
100
AcDbLine
 10
2.716000000000001
 20
5.493574440706435
 30
0.0
 11
2.714
 21
5.493574440706435
 31
0.0
  0
LINE
  5
4D0
330
1F
100
AcDbEntity
  8
Object
100
AcDbLine
 10
2.714
 20
5.493574440706435
 30
0.0
 11
2.711999999999999
 21
5.493574440706435
 31
0.0
  0
LINE
  5
4D1
330
1F
100
AcDbEntity
  8
Object
100
AcDbLine
 10
2.716000000000001
 20
4.790574440706435
 30
0.0
 11
2.713
 21
4.790574440706435
 31
0.0
  0
LINE
  5
4D2
330
1F
100
AcDbEntity
  8
Object
100
AcDbLine
 10
2.713
 20
4.790574440706435
 30
0.0
 11
2.711
 21
4.790574440706435
 31
0.0
  0
LINE
  5
4D3
330
1F
100
AcDbEntity
  8
Object
100
AcDbLine
 10
2.711999999999999
 20
5.493574440706435
 30
0.0
 11
2.71
 21
5.493574440706435
 31
0.0
  0
LINE
  5
4D4
330
1F
100
AcDbEntity
  8
Object
100
AcDbLine
 10
2.708
 20
4.790574440706435
 30
0.0
 11
2.711
 21
4.790574440706435
 31
0.0
  0
LINE
  5
4D5
330
1F
100
AcDbEntity
  8
Object
100
AcDbLine
 10
2.71
 20
5.493574440706435
 30
0.0
 11
2.707
 21
5.493574440706435
 31
0.0
  0
LINE
  5
4D6
330
1F
100
AcDbEntity
  8
Object
100
AcDbLine
 10
2.707
 20
5.493574440706435
 30
0.0
 11
2.705
 21
5.493574440706435
 31
0.0
  0
LINE
  5
4D7
330
1F
100
AcDbEntity
  8
Object
100
AcDbLine
 10
2.705
 20
5.493574440706435
 30
0.0
 11
2.701999999999999
 21
5.493574440706435
 31
0.0
  0
LINE
  5
4D8
330
1F
100
AcDbEntity
  8
Object
100
AcDbLine
 10
2.772
 20
4.790574440706435
 30
0.0
 11
2.769
 21
4.790574440706435
 31
0.0
  0
LINE
  5
4D9
330
1F
100
AcDbEntity
  8
Object
100
AcDbLine
 10
2.769
 20
4.790574440706435
 30
0.0
 11
2.768
 21
4.790574440706435
 31
0.0
  0
LINE
  5
4DA
330
1F
100
AcDbEntity
  8
Object
100
AcDbLine
 10
2.766
 20
4.790574440706435
 30
0.0
 11
2.768
 21
4.790574440706435
 31
0.0
  0
LINE
  5
4DB
330
1F
100
AcDbEntity
  8
Object
100
AcDbLine
 10
2.772
 20
4.790574440706435
 30
0.0
 11
2.769
 21
4.790574440706435
 31
0.0
  0
LINE
  5
4DC
330
1F
100
AcDbEntity
  8
Object
100
AcDbLine
 10
2.722999999999998
 20
4.790574440706435
 30
0.0
 11
2.766
 21
4.790574440706435
 31
0.0
  0
LINE
  5
4DD
330
1F
100
AcDbEntity
  8
Object
100
AcDbLine
 10
2.722999999999998
 20
4.790574440706435
 30
0.0
 11
2.721999999999999
 21
4.790574440706435
 31
0.0
  0
LINE
  5
4DE
330
1F
100
AcDbEntity
  8
Object
100
AcDbLine
 10
2.721999999999999
 20
4.790574440706435
 30
0.0
 11
2.721
 21
4.790574440706435
 31
0.0
  0
LINE
  5
4DF
330
1F
100
AcDbEntity
  8
Object
100
AcDbLine
 10
2.721
 20
4.790574440706435
 30
0.0
 11
2.717999999999999
 21
4.790574440706435
 31
0.0
  0
LINE
  5
4E0
330
1F
100
AcDbEntity
  8
Object
100
AcDbLine
 10
2.717999999999999
 20
4.790574440706435
 30
0.0
 11
2.716000000000001
 21
4.790574440706435
 31
0.0
  0
LINE
  5
4E1
330
1F
100
AcDbEntity
  8
Object
100
AcDbLine
 10
2.716000000000001
 20
4.790574440706435
 30
0.0
 11
2.713
 21
4.790574440706435
 31
0.0
  0
LINE
  5
4E2
330
1F
100
AcDbEntity
  8
Object
100
AcDbLine
 10
2.713
 20
4.790574440706435
 30
0.0
 11
2.711
 21
4.790574440706435
 31
0.0
  0
LINE
  5
4E3
330
1F
100
AcDbEntity
  8
Object
100
AcDbLine
 10
2.711
 20
4.790574440706435
 30
0.0
 11
2.708
 21
4.790574440706435
 31
0.0
  0
LINE
  5
4E4
330
1F
100
AcDbEntity
  8
Object
100
AcDbLine
 10
2.708
 20
4.790574440706435
 30
0.0
 11
2.711
 21
4.790574440706435
 31
0.0
  0
LINE
  5
4E5
330
1F
100
AcDbEntity
  8
Object
100
AcDbLine
 10
2.722999999999998
 20
4.836574440706435
 30
0.0
 11
2.722999999999998
 21
4.820574440706435
 31
0.0
  0
LINE
  5
4E6
330
1F
100
AcDbEntity
  8
Object
100
AcDbLine
 10
2.722999999999998
 20
4.820574440706435
 30
0.0
 11
2.722999999999998
 21
4.807574440706435
 31
0.0
  0
LINE
  5
4E7
330
1F
100
AcDbEntity
  8
Object
100
AcDbLine
 10
2.722999999999998
 20
4.807574440706435
 30
0.0
 11
2.722999999999998
 21
4.797574440706435
 31
0.0
  0
LINE
  5
4E8
330
1F
100
AcDbEntity
  8
Object
100
AcDbLine
 10
2.722999999999998
 20
4.797574440706435
 30
0.0
 11
2.722999999999998
 21
4.790574440706435
 31
0.0
  0
LINE
  5
4E9
330
1F
100
AcDbEntity
  8
Object
100
AcDbLine
 10
2.722999999999998
 20
4.890574440706435
 30
0.0
 11
2.722999999999998
 21
4.853574440706434
 31
0.0
  0
LINE
  5
4EA
330
1F
100
AcDbEntity
  8
Object
100
AcDbLine
 10
2.722999999999998
 20
4.853574440706434
 30
0.0
 11
2.722999999999998
 21
4.836574440706435
 31
0.0
  0
LINE
  5
4EB
330
1F
100
AcDbEntity
  8
Object
100
AcDbLine
 10
2.722999999999998
 20
4.790574440706435
 30
0.0
 11
2.717
 21
5.493574440706435
 31
0.0
  0
LINE
  5
4EC
330
1F
100
AcDbEntity
  8
Object
100
AcDbLine
 10
2.717
 20
5.493574440706435
 30
0.0
 11
2.722999999999998
 21
4.890574440706435
 31
0.0
  0
LINE
  5
4ED
330
1F
100
AcDbEntity
  8
Object
100
AcDbLine
 10
2.766999999999999
 20
4.853574440706434
 30
0.0
 11
2.766999999999999
 21
4.890574440706435
 31
0.0
  0
LINE
  5
4EE
330
1F
100
AcDbEntity
  8
Object
100
AcDbLine
 10
2.766999999999999
 20
4.890574440706435
 30
0.0
 11
2.772
 21
5.493574440706435
 31
0.0
  0
LINE
  5
4EF
330
1F
100
AcDbEntity
  8
Object
100
AcDbLine
 10
2.772
 20
5.493574440706435
 30
0.0
 11
2.766
 21
4.790574440706435
 31
0.0
  0
LINE
  5
4F0
330
1F
100
AcDbEntity
  8
Object
100
AcDbLine
 10
2.766
 20
4.807574440706435
 30
0.0
 11
2.766
 21
4.797574440706435
 31
0.0
  0
LINE
  5
4F1
330
1F
100
AcDbEntity
  8
Object
100
AcDbLine
 10
2.766
 20
4.797574440706435
 30
0.0
 11
2.766
 21
4.790574440706435
 31
0.0
  0
LINE
  5
4F2
330
1F
100
AcDbEntity
  8
Object
100
AcDbLine
 10
2.766
 20
4.807574440706435
 30
0.0
 11
2.766
 21
4.820574440706435
 31
0.0
  0
LINE
  5
4F3
330
1F
100
AcDbEntity
  8
Object
100
AcDbLine
 10
2.766
 20
4.820574440706435
 30
0.0
 11
2.766
 21
4.836574440706435
 31
0.0
  0
LINE
  5
4F4
330
1F
100
AcDbEntity
  8
Object
100
AcDbLine
 10
2.766
 20
4.836574440706435
 30
0.0
 11
2.766999999999999
 21
4.853574440706434
 31
0.0
  0
LINE
  5
4F5
330
1F
100
AcDbEntity
  8
Object
100
AcDbLine
 10
2.766999999999999
 20
4.890574440706435
 30
0.0
 11
2.722999999999998
 21
4.890574440706435
 31
0.0
  0
LINE
  5
4F6
330
1F
100
AcDbEntity
  8
Object
100
AcDbLine
 10
2.722999999999998
 20
4.890574440706435
 30
0.0
 11
2.717
 21
5.493574440706435
 31
0.0
  0
LINE
  5
4F7
330
1F
100
AcDbEntity
  8
Object
100
AcDbLine
 10
2.717
 20
5.493574440706435
 30
0.0
 11
2.772
 21
5.493574440706435
 31
0.0
  0
LINE
  5
4F8
330
1F
100
AcDbEntity
  8
Object
100
AcDbLine
 10
2.772
 20
5.493574440706435
 30
0.0
 11
2.766999999999999
 21
4.890574440706435
 31
0.0
  0
LINE
  5
4F9
330
1F
100
AcDbEntity
  8
Object
100
AcDbLine
 10
2.766
 20
4.820574440706435
 30
0.0
 11
2.766
 21
4.836574440706435
 31
0.0
  0
LINE
  5
4FA
330
1F
100
AcDbEntity
  8
Object
100
AcDbLine
 10
2.722999999999998
 20
4.790574440706435
 30
0.0
 11
2.722999999999998
 21
4.797574440706435
 31
0.0
  0
LINE
  5
4FB
330
1F
100
AcDbEntity
  8
Object
100
AcDbLine
 10
2.722999999999998
 20
4.797574440706435
 30
0.0
 11
2.722999999999998
 21
4.807574440706435
 31
0.0
  0
LINE
  5
4FC
330
1F
100
AcDbEntity
  8
Object
100
AcDbLine
 10
2.722999999999998
 20
4.836574440706435
 30
0.0
 11
2.722999999999998
 21
4.820574440706435
 31
0.0
  0
LINE
  5
4FD
330
1F
100
AcDbEntity
  8
Object
100
AcDbLine
 10
2.766
 20
4.836574440706435
 30
0.0
 11
2.766999999999999
 21
4.853574440706434
 31
0.0
  0
LINE
  5
4FE
330
1F
100
AcDbEntity
  8
Object
100
AcDbLine
 10
2.766
 20
4.807574440706435
 30
0.0
 11
2.766
 21
4.820574440706435
 31
0.0
  0
LINE
  5
4FF
330
1F
100
AcDbEntity
  8
Object
100
AcDbLine
 10
2.722999999999998
 20
4.820574440706435
 30
0.0
 11
2.722999999999998
 21
4.807574440706435
 31
0.0
  0
LINE
  5
500
330
1F
100
AcDbEntity
  8
Object
100
AcDbLine
 10
2.766
 20
4.807574440706435
 30
0.0
 11
2.766
 21
4.797574440706435
 31
0.0
  0
LINE
  5
501
330
1F
100
AcDbEntity
  8
Object
100
AcDbLine
 10
2.766
 20
4.797574440706435
 30
0.0
 11
2.766
 21
4.790574440706435
 31
0.0
  0
LINE
  5
502
330
1F
100
AcDbEntity
  8
Object
100
AcDbLine
 10
2.766
 20
4.790574440706435
 30
0.0
 11
2.722999999999998
 21
4.790574440706435
 31
0.0
  0
LINE
  5
503
330
1F
100
AcDbEntity
  8
Object
100
AcDbLine
 10
2.722999999999998
 20
4.836574440706435
 30
0.0
 11
2.722999999999998
 21
4.853574440706434
 31
0.0
  0
LINE
  5
504
330
1F
100
AcDbEntity
  8
Object
100
AcDbLine
 10
2.722999999999998
 20
4.853574440706434
 30
0.0
 11
2.722999999999998
 21
4.890574440706435
 31
0.0
  0
LINE
  5
505
330
1F
100
AcDbEntity
  8
Object
100
AcDbLine
 10
2.766999999999999
 20
4.853574440706434
 30
0.0
 11
2.766999999999999
 21
4.890574440706435
 31
0.0
  0
LINE
  5
506
330
1F
100
AcDbEntity
  8
Object
100
AcDbLine
 10
6.899
 20
9.708574440706435
 30
0.0
 11
6.983999999999999
 21
9.628574440706435
 31
0.0
  0
LINE
  5
507
330
1F
100
AcDbEntity
  8
Object
100
AcDbLine
 10
6.983999999999999
 20
9.628574440706435
 30
0.0
 11
6.87
 21
9.628574440706435
 31
0.0
  0
LINE
  5
508
330
1F
100
AcDbEntity
  8
Object
100
AcDbLine
 10
6.87
 20
9.628574440706435
 30
0.0
 11
6.825
 21
9.666574440706435
 31
0.0
  0
LINE
  5
509
330
1F
100
AcDbEntity
  8
Object
100
AcDbLine
 10
6.899
 20
9.708574440706435
 30
0.0
 11
6.804999999999999
 21
9.779574440706435
 31
0.0
  0
LINE
  5
50A
330
1F
100
AcDbEntity
  8
Object
100
AcDbLine
 10
6.825
 20
9.666574440706435
 30
0.0
 11
6.778
 21
9.701574440706435
 31
0.0
  0
LINE
  5
50B
330
1F
100
AcDbEntity
  8
Object
100
AcDbLine
 10
6.778
 20
9.701574440706435
 30
0.0
 11
6.727999999999999
 21
9.733574440706435
 31
0.0
  0
LINE
  5
50C
330
1F
100
AcDbEntity
  8
Object
100
AcDbLine
 10
6.725999999999999
 20
9.734574440706435
 30
0.0
 11
6.722999999999999
 21
9.734574440706435
 31
0.0
  0
LINE
  5
50D
330
1F
100
AcDbEntity
  8
Object
100
AcDbLine
 10
6.722999999999999
 20
9.734574440706435
 30
0.0
 11
6.719999999999999
 21
9.734574440706435
 31
0.0
  0
LINE
  5
50E
330
1F
100
AcDbEntity
  8
Object
100
AcDbLine
 10
6.804999999999999
 20
9.779574440706435
 30
0.0
 11
6.703999999999999
 21
9.838574440706434
 31
0.0
  0
LINE
  5
50F
330
1F
100
AcDbEntity
  8
Object
100
AcDbLine
 10
6.717999999999999
 20
9.733574440706435
 30
0.0
 11
6.716
 21
9.731574440706435
 31
0.0
  0
LINE
  5
510
330
1F
100
AcDbEntity
  8
Object
100
AcDbLine
 10
6.716
 20
9.731574440706435
 30
0.0
 11
6.714
 21
9.729574440706436
 31
0.0
  0
LINE
  5
511
330
1F
100
AcDbEntity
  8
Object
100
AcDbLine
 10
6.714
 20
9.729574440706436
 30
0.0
 11
6.713
 21
9.727574440706435
 31
0.0
  0
LINE
  5
512
330
1F
100
AcDbEntity
  8
Object
100
AcDbLine
 10
6.713
 20
9.727574440706435
 30
0.0
 11
6.713
 21
9.724574440706435
 31
0.0
  0
LINE
  5
513
330
1F
100
AcDbEntity
  8
Object
100
AcDbLine
 10
6.713
 20
9.724574440706435
 30
0.0
 11
6.713
 21
9.628574440706435
 31
0.0
  0
LINE
  5
514
330
1F
100
AcDbEntity
  8
Object
100
AcDbLine
 10
6.713
 20
9.628574440706435
 30
0.0
 11
6.658
 21
9.628574440706435
 31
0.0
  0
LINE
  5
515
330
1F
100
AcDbEntity
  8
Object
100
AcDbLine
 10
6.658
 20
9.628574440706435
 30
0.0
 11
6.658
 21
9.765574440706435
 31
0.0
  0
LINE
  5
516
330
1F
100
AcDbEntity
  8
Object
100
AcDbLine
 10
6.717999999999999
 20
9.733574440706435
 30
0.0
 11
6.719999999999999
 21
9.734574440706435
 31
0.0
  0
LINE
  5
517
330
1F
100
AcDbEntity
  8
Object
100
AcDbLine
 10
6.658
 20
9.765574440706435
 30
0.0
 11
6.658
 21
9.767574440706436
 31
0.0
  0
LINE
  5
518
330
1F
100
AcDbEntity
  8
Object
100
AcDbLine
 10
6.658
 20
9.767574440706436
 30
0.0
 11
6.657
 21
9.770574440706436
 31
0.0
  0
LINE
  5
519
330
1F
100
AcDbEntity
  8
Object
100
AcDbLine
 10
6.657
 20
9.770574440706436
 30
0.0
 11
6.655
 21
9.772574440706435
 31
0.0
  0
LINE
  5
51A
330
1F
100
AcDbEntity
  8
Object
100
AcDbLine
 10
6.655
 20
9.772574440706435
 30
0.0
 11
6.652
 21
9.774574440706434
 31
0.0
  0
LINE
  5
51B
330
1F
100
AcDbEntity
  8
Object
100
AcDbLine
 10
6.703999999999999
 20
9.838574440706434
 30
0.0
 11
6.596
 21
9.884574440706435
 31
0.0
  0
LINE
  5
51C
330
1F
100
AcDbEntity
  8
Object
100
AcDbLine
 10
6.557
 20
9.813574440706435
 30
0.0
 11
6.652
 21
9.774574440706434
 31
0.0
  0
LINE
  5
51D
330
1F
100
AcDbEntity
  8
Object
100
AcDbLine
 10
6.596
 20
9.884574440706435
 30
0.0
 11
6.483999999999999
 21
9.918574440706436
 31
0.0
  0
LINE
  5
51E
330
1F
100
AcDbEntity
  8
Object
100
AcDbLine
 10
6.456999999999999
 20
9.842574440706435
 30
0.0
 11
6.557
 21
9.813574440706435
 31
0.0
  0
LINE
  5
51F
330
1F
100
AcDbEntity
  8
Object
100
AcDbLine
 10
6.483999999999999
 20
9.918574440706436
 30
0.0
 11
6.368
 21
9.938574440706435
 31
0.0
  0
LINE
  5
520
330
1F
100
AcDbEntity
  8
Object
100
AcDbLine
 10
6.355
 20
9.859574440706435
 30
0.0
 11
6.456999999999999
 21
9.842574440706435
 31
0.0
  0
LINE
  5
521
330
1F
100
AcDbEntity
  8
Object
100
AcDbLine
 10
6.368
 20
9.938574440706435
 30
0.0
 11
6.251
 21
9.945574440706435
 31
0.0
  0
LINE
  5
522
330
1F
100
AcDbEntity
  8
Object
100
AcDbLine
 10
6.355
 20
9.859574440706435
 30
0.0
 11
6.251
 21
9.865574440706435
 31
0.0
  0
LINE
  5
523
330
1F
100
AcDbEntity
  8
Object
100
AcDbLine
 10
6.251
 20
9.865574440706435
 30
0.0
 11
6.14
 21
9.859574440706435
 31
0.0
  0
LINE
  5
524
330
1F
100
AcDbEntity
  8
Object
100
AcDbLine
 10
6.251
 20
9.945574440706435
 30
0.0
 11
6.133
 21
9.938574440706435
 31
0.0
  0
LINE
  5
525
330
1F
100
AcDbEntity
  8
Object
100
AcDbLine
 10
6.133
 20
9.938574440706435
 30
0.0
 11
6.016
 21
9.917574440706435
 31
0.0
  0
LINE
  5
526
330
1F
100
AcDbEntity
  8
Object
100
AcDbLine
 10
6.14
 20
9.859574440706435
 30
0.0
 11
6.03
 21
9.838574440706434
 31
0.0
  0
LINE
  5
527
330
1F
100
AcDbEntity
  8
Object
100
AcDbLine
 10
6.03
 20
9.838574440706434
 30
0.0
 11
5.923
 21
9.805574440706436
 31
0.0
  0
LINE
  5
528
330
1F
100
AcDbEntity
  8
Object
100
AcDbLine
 10
6.016
 20
9.917574440706435
 30
0.0
 11
5.903
 21
9.883574440706436
 31
0.0
  0
LINE
  5
529
330
1F
100
AcDbEntity
  8
Object
100
AcDbLine
 10
5.903
 20
9.883574440706436
 30
0.0
 11
5.794
 21
9.835574440706434
 31
0.0
  0
LINE
  5
52A
330
1F
100
AcDbEntity
  8
Object
100
AcDbLine
 10
5.820999999999999
 20
9.759574440706435
 30
0.0
 11
5.923
 21
9.805574440706436
 31
0.0
  0
LINE
  5
52B
330
1F
100
AcDbEntity
  8
Object
100
AcDbLine
 10
5.794
 20
9.835574440706434
 30
0.0
 11
5.692
 21
9.775574440706435
 31
0.0
  0
LINE
  5
52C
330
1F
100
AcDbEntity
  8
Object
100
AcDbLine
 10
5.725999999999999
 20
9.702574440706435
 30
0.0
 11
5.820999999999999
 21
9.759574440706435
 31
0.0
  0
LINE
  5
52D
330
1F
100
AcDbEntity
  8
Object
100
AcDbLine
 10
5.794
 20
9.537574440706436
 30
0.0
 11
5.794
 21
9.483574440706435
 31
0.0
  0
LINE
  5
52E
330
1F
100
AcDbEntity
  8
Object
100
AcDbLine
 10
5.794
 20
9.483574440706435
 30
0.0
 11
5.642999999999999
 21
9.483574440706435
 31
0.0
  0
LINE
  5
52F
330
1F
100
AcDbEntity
  8
Object
100
AcDbLine
 10
5.692
 20
9.775574440706435
 30
0.0
 11
5.597999999999999
 21
9.704574440706435
 31
0.0
  0
LINE
  5
530
330
1F
100
AcDbEntity
  8
Object
100
AcDbLine
 10
5.637999999999999
 20
9.633574440706436
 30
0.0
 11
5.725999999999999
 21
9.702574440706435
 31
0.0
  0
LINE
  5
531
330
1F
100
AcDbEntity
  8
Object
100
AcDbLine
 10
5.794
 20
9.537574440706436
 30
0.0
 11
5.565999999999999
 21
9.537574440706436
 31
0.0
  0
LINE
  5
532
330
1F
100
AcDbEntity
  8
Object
100
AcDbLine
 10
5.629999999999999
 20
9.446574440706434
 30
0.0
 11
5.613999999999999
 21
9.435574440706435
 31
0.0
  0
LINE
  5
533
330
1F
100
AcDbEntity
  8
Object
100
AcDbLine
 10
5.613999999999999
 20
9.435574440706435
 30
0.0
 11
5.594999999999999
 21
9.430574440706436
 31
0.0
  0
LINE
  5
534
330
1F
100
AcDbEntity
  8
Object
100
AcDbLine
 10
5.594999999999999
 20
9.430574440706436
 30
0.0
 11
5.591
 21
9.430574440706436
 31
0.0
  0
LINE
  5
535
330
1F
100
AcDbEntity
  8
Object
100
AcDbLine
 10
5.591
 20
9.430574440706436
 30
0.0
 11
5.570999999999999
 21
9.435574440706435
 31
0.0
  0
LINE
  5
536
330
1F
100
AcDbEntity
  8
Object
100
AcDbLine
 10
5.570999999999999
 20
9.435574440706435
 30
0.0
 11
5.556
 21
9.446574440706434
 31
0.0
  0
LINE
  5
537
330
1F
100
AcDbEntity
  8
Object
100
AcDbLine
 10
5.556
 20
9.446574440706434
 30
0.0
 11
5.544999999999999
 21
9.463574440706434
 31
0.0
  0
LINE
  5
538
330
1F
100
AcDbEntity
  8
Object
100
AcDbLine
 10
5.629999999999999
 20
9.446574440706434
 30
0.0
 11
5.639999999999999
 21
9.463574440706434
 31
0.0
  0
LINE
  5
539
330
1F
100
AcDbEntity
  8
Object
100
AcDbLine
 10
5.559
 20
9.541574440706435
 30
0.0
 11
5.560999999999999
 21
9.539574440706434
 31
0.0
  0
LINE
  5
53A
330
1F
100
AcDbEntity
  8
Object
100
AcDbLine
 10
5.560999999999999
 20
9.539574440706434
 30
0.0
 11
5.564
 21
9.538574440706435
 31
0.0
  0
LINE
  5
53B
330
1F
100
AcDbEntity
  8
Object
100
AcDbLine
 10
5.564
 20
9.538574440706435
 30
0.0
 11
5.565999999999999
 21
9.537574440706436
 31
0.0
  0
LINE
  5
53C
330
1F
100
AcDbEntity
  8
Object
100
AcDbLine
 10
5.639999999999999
 20
9.463574440706434
 30
0.0
 11
5.642999999999999
 21
9.483574440706435
 31
0.0
  0
LINE
  5
53D
330
1F
100
AcDbEntity
  8
Object
100
AcDbLine
 10
5.543
 20
9.483574440706435
 30
0.0
 11
5.544999999999999
 21
9.463574440706434
 31
0.0
  0
LINE
  5
53E
330
1F
100
AcDbEntity
  8
Object
100
AcDbLine
 10
5.637999999999999
 20
9.633574440706436
 30
0.0
 11
5.559
 21
9.554574440706435
 31
0.0
  0
LINE
  5
53F
330
1F
100
AcDbEntity
  8
Object
100
AcDbLine
 10
5.559
 20
9.554574440706435
 30
0.0
 11
5.557
 21
9.552574440706436
 31
0.0
  0
LINE
  5
540
330
1F
100
AcDbEntity
  8
Object
100
AcDbLine
 10
5.557
 20
9.552574440706436
 30
0.0
 11
5.557
 21
9.549574440706436
 31
0.0
  0
LINE
  5
541
330
1F
100
AcDbEntity
  8
Object
100
AcDbLine
 10
5.597999999999999
 20
9.704574440706435
 30
0.0
 11
5.512
 21
9.622574440706435
 31
0.0
  0
LINE
  5
542
330
1F
100
AcDbEntity
  8
Object
100
AcDbLine
 10
5.557
 20
9.546574440706436
 30
0.0
 11
5.557
 21
9.543574440706436
 31
0.0
  0
LINE
  5
543
330
1F
100
AcDbEntity
  8
Object
100
AcDbLine
 10
5.557
 20
9.543574440706436
 30
0.0
 11
5.559
 21
9.541574440706435
 31
0.0
  0
LINE
  5
544
330
1F
100
AcDbEntity
  8
Object
100
AcDbLine
 10
5.506999999999999
 20
9.483574440706435
 30
0.0
 11
5.543
 21
9.483574440706435
 31
0.0
  0
LINE
  5
545
330
1F
100
AcDbEntity
  8
Object
100
AcDbLine
 10
5.557
 20
9.546574440706436
 30
0.0
 11
5.557
 21
9.549574440706436
 31
0.0
  0
LINE
  5
546
330
1F
100
AcDbEntity
  8
Object
100
AcDbLine
 10
5.512
 20
9.622574440706435
 30
0.0
 11
5.437
 21
9.530574440706434
 31
0.0
  0
LINE
  5
547
330
1F
100
AcDbEntity
  8
Object
100
AcDbLine
 10
5.506999999999999
 20
9.483574440706435
 30
0.0
 11
5.501999999999999
 21
9.482574440706436
 31
0.0
  0
LINE
  5
548
330
1F
100
AcDbEntity
  8
Object
100
AcDbLine
 10
5.501999999999999
 20
9.482574440706436
 30
0.0
 11
5.499
 21
9.478574440706434
 31
0.0
  0
LINE
  5
549
330
1F
100
AcDbEntity
  8
Object
100
AcDbLine
 10
5.499
 20
9.478574440706434
 30
0.0
 11
5.488
 21
9.463574440706434
 31
0.0
  0
LINE
  5
54A
330
1F
100
AcDbEntity
  8
Object
100
AcDbLine
 10
5.488
 20
9.463574440706434
 30
0.0
 11
5.477
 21
9.446574440706434
 31
0.0
  0
LINE
  5
54B
330
1F
100
AcDbEntity
  8
Object
100
AcDbLine
 10
5.477
 20
9.446574440706434
 30
0.0
 11
5.466
 21
9.430574440706436
 31
0.0
  0
LINE
  5
54C
330
1F
100
AcDbEntity
  8
Object
100
AcDbLine
 10
5.466
 20
9.430574440706436
 30
0.0
 11
5.373
 21
9.430574440706436
 31
0.0
  0
LINE
  5
54D
330
1F
100
AcDbEntity
  8
Object
100
AcDbLine
 10
5.373
 20
9.430574440706436
 30
0.0
 11
5.437
 21
9.530574440706434
 31
0.0
  0
LINE
  5
54E
330
1F
100
AcDbEntity
  8
Object
100
AcDbLine
 10
6.658
 20
9.628574440706435
 30
0.0
 11
6.713
 21
9.628574440706435
 31
0.0
  0
LINE
  5
54F
330
1F
100
AcDbEntity
  8
Object
100
AcDbLine
 10
5.445999999999999
 20
9.391574440706435
 30
0.0
 11
5.466
 21
9.430574440706436
 31
0.0
  0
LINE
  5
550
330
1F
100
AcDbEntity
  8
Object
100
AcDbLine
 10
5.373
 20
9.430574440706436
 30
0.0
 11
5.339
 21
9.350574440706434
 31
0.0
  0
LINE
  5
551
330
1F
100
AcDbEntity
  8
Object
100
AcDbLine
 10
5.427999999999999
 20
9.350574440706434
 30
0.0
 11
5.445999999999999
 21
9.391574440706435
 31
0.0
  0
LINE
  5
552
330
1F
100
AcDbEntity
  8
Object
100
AcDbLine
 10
7.016
 20
9.628574440706435
 30
0.0
 11
6.983999999999999
 21
9.628574440706435
 31
0.0
  0
LINE
  5
553
330
1F
100
AcDbEntity
  8
Object
100
AcDbLine
 10
6.983999999999999
 20
9.628574440706435
 30
0.0
 11
6.87
 21
9.628574440706435
 31
0.0
  0
LINE
  5
554
330
1F
100
AcDbEntity
  8
Object
100
AcDbLine
 10
5.594999999999999
 20
9.430574440706436
 30
0.0
 11
5.592999999999999
 21
9.430574440706436
 31
0.0
  0
LINE
  5
555
330
1F
100
AcDbEntity
  8
Object
100
AcDbLine
 10
5.592999999999999
 20
9.430574440706436
 30
0.0
 11
5.591
 21
9.430574440706436
 31
0.0
  0
LINE
  5
556
330
1F
100
AcDbEntity
  8
Object
100
AcDbLine
 10
6.725999999999999
 20
9.734574440706435
 30
0.0
 11
6.727999999999999
 21
9.733574440706435
 31
0.0
  0
LINE
  5
557
330
1F
100
AcDbEntity
  8
Object
100
AcDbLine
 10
6.251
 20
7.940574440706435
 30
0.0
 11
6.222
 21
7.912574440706435
 31
0.0
  0
LINE
  5
558
330
1F
100
AcDbEntity
  8
Object
100
AcDbLine
 10
6.222
 20
7.912574440706435
 30
0.0
 11
6.217
 21
7.911574440706435
 31
0.0
  0
LINE
  5
559
102
{ACAD_REACTORS
330
6D4
102
}
330
1F
100
AcDbEntity
  8
Object
100
AcDbLine
 10
6.217
 20
7.911574440706435
 30
0.0
 11
6.203999999999999
 21
7.912574440706435
 31
0.0
  0
LINE
  5
55A
330
1F
100
AcDbEntity
  8
Object
100
AcDbLine
 10
6.203999999999999
 20
7.912574440706435
 30
0.0
 11
6.184
 21
7.912574440706435
 31
0.0
  0
LINE
  5
55B
330
1F
100
AcDbEntity
  8
Object
100
AcDbLine
 10
6.174999999999999
 20
9.965574440706435
 30
0.0
 11
6.251
 21
9.968574440706435
 31
0.0
  0
LINE
  5
55C
330
1F
100
AcDbEntity
  8
Object
100
AcDbLine
 10
6.251
 20
9.968574440706435
 30
0.0
 11
6.251
 21
9.945574440706435
 31
0.0
  0
LINE
  5
55D
330
1F
100
AcDbEntity
  8
Object
100
AcDbLine
 10
6.251
 20
7.940574440706435
 30
0.0
 11
6.126999999999999
 21
7.948574440706435
 31
0.0
  0
LINE
  5
55E
330
1F
100
AcDbEntity
  8
Object
100
AcDbLine
 10
6.184
 20
7.912574440706435
 30
0.0
 11
6.16
 21
7.914574440706435
 31
0.0
  0
LINE
  5
55F
330
1F
100
AcDbEntity
  8
Object
100
AcDbLine
 10
6.16
 20
7.914574440706435
 30
0.0
 11
6.142
 21
7.916574440706435
 31
0.0
  0
LINE
  5
560
330
1F
100
AcDbEntity
  8
Object
100
AcDbLine
 10
6.142
 20
7.916574440706435
 30
0.0
 11
6.124
 21
7.918574440706435
 31
0.0
  0
LINE
  5
561
330
1F
100
AcDbEntity
  8
Object
100
AcDbLine
 10
6.124
 20
7.918574440706435
 30
0.0
 11
6.105999999999999
 21
7.920574440706435
 31
0.0
  0
LINE
  5
562
330
1F
100
AcDbEntity
  8
Object
100
AcDbLine
 10
6.174999999999999
 20
9.965574440706435
 30
0.0
 11
6.099
 21
9.957574440706434
 31
0.0
  0
LINE
  5
563
330
1F
100
AcDbEntity
  8
Object
100
AcDbLine
 10
6.033999999999999
 20
7.935574440706435
 30
0.0
 11
6.105999999999999
 21
7.920574440706435
 31
0.0
  0
LINE
  5
564
330
1F
100
AcDbEntity
  8
Object
100
AcDbLine
 10
6.099
 20
9.957574440706434
 30
0.0
 11
6.024
 21
9.943574440706434
 31
0.0
  0
LINE
  5
565
330
1F
100
AcDbEntity
  8
Object
100
AcDbLine
 10
6.126999999999999
 20
7.948574440706435
 30
0.0
 11
6.004
 21
7.971574440706435
 31
0.0
  0
LINE
  5
566
330
1F
100
AcDbEntity
  8
Object
100
AcDbLine
 10
5.961999999999999
 20
7.954574440706435
 30
0.0
 11
6.033999999999999
 21
7.935574440706435
 31
0.0
  0
LINE
  5
567
330
1F
100
AcDbEntity
  8
Object
100
AcDbLine
 10
6.004
 20
7.971574440706435
 30
0.0
 11
5.886
 21
8.009574440706435
 31
0.0
  0
LINE
  5
568
330
1F
100
AcDbEntity
  8
Object
100
AcDbLine
 10
5.892
 20
7.979574440706435
 30
0.0
 11
5.961999999999999
 21
7.954574440706435
 31
0.0
  0
LINE
  5
569
330
1F
100
AcDbEntity
  8
Object
100
AcDbLine
 10
5.953
 20
9.923574440706435
 30
0.0
 11
5.884
 21
9.897574440706435
 31
0.0
  0
LINE
  5
56A
330
1F
100
AcDbEntity
  8
Object
100
AcDbLine
 10
5.823
 20
8.009574440706435
 30
0.0
 11
5.892
 21
7.979574440706435
 31
0.0
  0
LINE
  5
56B
330
1F
100
AcDbEntity
  8
Object
100
AcDbLine
 10
5.884
 20
9.897574440706435
 30
0.0
 11
5.815
 21
9.867574440706434
 31
0.0
  0
LINE
  5
56C
330
1F
100
AcDbEntity
  8
Object
100
AcDbLine
 10
5.886
 20
8.009574440706435
 30
0.0
 11
5.772999999999999
 21
8.061574440706435
 31
0.0
  0
LINE
  5
56D
330
1F
100
AcDbEntity
  8
Object
100
AcDbLine
 10
5.823
 20
8.009574440706435
 30
0.0
 11
5.754999999999999
 21
8.045574440706435
 31
0.0
  0
LINE
  5
56E
330
1F
100
AcDbEntity
  8
Object
100
AcDbLine
 10
5.754999999999999
 20
8.045574440706435
 30
0.0
 11
5.689
 21
8.087574440706436
 31
0.0
  0
LINE
  5
56F
330
1F
100
AcDbEntity
  8
Object
100
AcDbLine
 10
5.748
 20
9.830574440706435
 30
0.0
 11
5.682
 21
9.788574440706435
 31
0.0
  0
LINE
  5
570
330
1F
100
AcDbEntity
  8
Object
100
AcDbLine
 10
5.772999999999999
 20
8.061574440706435
 30
0.0
 11
5.668
 21
8.128574440706435
 31
0.0
  0
LINE
  5
571
330
1F
100
AcDbEntity
  8
Object
100
AcDbLine
 10
5.682
 20
9.788574440706435
 30
0.0
 11
5.618
 21
9.740574440706435
 31
0.0
  0
LINE
  5
572
330
1F
100
AcDbEntity
  8
Object
100
AcDbLine
 10
5.668
 20
8.128574440706435
 30
0.0
 11
5.570999999999999
 21
8.207574440706434
 31
0.0
  0
LINE
  5
573
330
1F
100
AcDbEntity
  8
Object
100
AcDbLine
 10
5.562
 20
8.189574440706435
 30
0.0
 11
5.624
 21
8.135574440706434
 31
0.0
  0
LINE
  5
574
330
1F
100
AcDbEntity
  8
Object
100
AcDbLine
 10
5.618
 20
9.740574440706435
 30
0.0
 11
5.556
 21
9.685574440706435
 31
0.0
  0
LINE
  5
575
330
1F
100
AcDbEntity
  8
Object
100
AcDbLine
 10
5.503
 20
8.250574440706435
 30
0.0
 11
5.562
 21
8.189574440706435
 31
0.0
  0
LINE
  5
576
330
1F
100
AcDbEntity
  8
Object
100
AcDbLine
 10
5.570999999999999
 20
8.207574440706434
 30
0.0
 11
5.485
 21
8.297574440706435
 31
0.0
  0
LINE
  5
577
330
1F
100
AcDbEntity
  8
Object
100
AcDbLine
 10
5.445999999999999
 20
8.319574440706436
 30
0.0
 11
5.503
 21
8.250574440706435
 31
0.0
  0
LINE
  5
578
330
1F
100
AcDbEntity
  8
Object
100
AcDbLine
 10
5.485
 20
8.297574440706435
 30
0.0
 11
5.411
 21
8.397574440706435
 31
0.0
  0
LINE
  5
579
330
1F
100
AcDbEntity
  8
Object
100
AcDbLine
 10
5.440999999999999
 20
9.554574440706435
 30
0.0
 11
5.389
 21
9.477574440706435
 31
0.0
  0
LINE
  5
57A
330
1F
100
AcDbEntity
  8
Object
100
AcDbLine
 10
5.411
 20
8.397574440706435
 30
0.0
 11
5.35
 21
8.505574440706435
 31
0.0
  0
LINE
  5
57B
330
1F
100
AcDbEntity
  8
Object
100
AcDbLine
 10
5.389
 20
9.477574440706435
 30
0.0
 11
5.342999999999999
 21
9.393574440706435
 31
0.0
  0
LINE
  5
57C
330
1F
100
AcDbEntity
  8
Object
100
AcDbLine
 10
5.307999999999999
 20
8.569574440706436
 30
0.0
 11
5.347999999999999
 21
8.478574440706434
 31
0.0
  0
LINE
  5
57D
330
1F
100
AcDbEntity
  8
Object
100
AcDbLine
 10
5.342999999999999
 20
9.393574440706435
 30
0.0
 11
5.304
 21
9.301574440706435
 31
0.0
  0
LINE
  5
57E
330
1F
100
AcDbEntity
  8
Object
100
AcDbLine
 10
5.35
 20
8.505574440706435
 30
0.0
 11
5.302999999999999
 21
8.621574440706435
 31
0.0
  0
LINE
  5
57F
330
1F
100
AcDbEntity
  8
Object
100
AcDbLine
 10
5.294999999999999
 20
9.234574440706435
 30
0.0
 11
5.339
 21
9.350574440706434
 31
0.0
  0
LINE
  5
580
330
1F
100
AcDbEntity
  8
Object
100
AcDbLine
 10
5.275
 20
8.667574440706435
 30
0.0
 11
5.307999999999999
 21
8.569574440706436
 31
0.0
  0
LINE
  5
581
330
1F
100
AcDbEntity
  8
Object
100
AcDbLine
 10
5.304
 20
9.301574440706435
 30
0.0
 11
5.272
 21
9.202574440706435
 31
0.0
  0
LINE
  5
582
330
1F
100
AcDbEntity
  8
Object
100
AcDbLine
 10
5.302999999999999
 20
8.621574440706435
 30
0.0
 11
5.270999999999999
 21
8.741574440706436
 31
0.0
  0
LINE
  5
583
330
1F
100
AcDbEntity
  8
Object
100
AcDbLine
 10
5.262999999999999
 20
8.719574440706434
 30
0.0
 11
5.275
 21
8.667574440706435
 31
0.0
  0
LINE
  5
584
330
1F
100
AcDbEntity
  8
Object
100
AcDbLine
 10
5.266
 20
9.113574440706436
 30
0.0
 11
5.294999999999999
 21
9.234574440706435
 31
0.0
  0
LINE
  5
585
330
1F
100
AcDbEntity
  8
Object
100
AcDbLine
 10
5.259999999999999
 20
9.151574440706436
 30
0.0
 11
5.251
 21
9.098574440706435
 31
0.0
  0
LINE
  5
586
330
1F
100
AcDbEntity
  8
Object
100
AcDbLine
 10
5.270999999999999
 20
8.741574440706436
 30
0.0
 11
5.254
 21
8.864574440706434
 31
0.0
  0
LINE
  5
587
330
1F
100
AcDbEntity
  8
Object
100
AcDbLine
 10
5.245
 20
8.825574440706436
 30
0.0
 11
5.251999999999999
 21
8.771574440706434
 31
0.0
  0
LINE
  5
588
330
1F
100
AcDbEntity
  8
Object
100
AcDbLine
 10
5.266
 20
9.113574440706436
 30
0.0
 11
5.251999999999999
 21
8.989574440706434
 31
0.0
  0
LINE
  5
589
330
1F
100
AcDbEntity
  8
Object
100
AcDbLine
 10
5.251999999999999
 20
8.989574440706434
 30
0.0
 11
5.254
 21
8.864574440706434
 31
0.0
  0
LINE
  5
58A
330
1F
100
AcDbEntity
  8
Object
100
AcDbLine
 10
6.983999999999999
 20
9.628574440706435
 30
0.0
 11
7.016
 21
9.628574440706435
 31
0.0
  0
LINE
  5
58B
102
{ACAD_REACTORS
330
6D4
102
}
330
1F
100
AcDbEntity
  8
Object
100
AcDbLine
 10
6.374
 20
9.961574440706435
 30
0.0
 11
6.251
 21
9.968574440706435
 31
0.0
  0
LINE
  5
58C
330
1F
100
AcDbEntity
  8
Object
100
AcDbLine
 10
7.016
 20
9.628574440706435
 30
0.0
 11
6.927999999999999
 21
9.714574440706435
 31
0.0
  0
LINE
  5
58D
330
1F
100
AcDbEntity
  8
Object
100
AcDbLine
 10
6.927999999999999
 20
9.714574440706435
 30
0.0
 11
6.831
 21
9.789574440706434
 31
0.0
  0
LINE
  5
58E
330
1F
100
AcDbEntity
  8
Object
100
AcDbLine
 10
6.831
 20
9.789574440706434
 30
0.0
 11
6.725
 21
9.852574440706435
 31
0.0
  0
LINE
  5
58F
330
1F
100
AcDbEntity
  8
Object
100
AcDbLine
 10
6.725
 20
9.852574440706435
 30
0.0
 11
6.613
 21
9.903574440706435
 31
0.0
  0
LINE
  5
590
330
1F
100
AcDbEntity
  8
Object
100
AcDbLine
 10
6.613
 20
9.903574440706435
 30
0.0
 11
6.495
 21
9.939574440706435
 31
0.0
  0
LINE
  5
591
330
1F
100
AcDbEntity
  8
Object
100
AcDbLine
 10
6.495
 20
9.939574440706435
 30
0.0
 11
6.374
 21
9.961574440706435
 31
0.0
  0
LINE
  5
592
330
1F
100
AcDbEntity
  8
Object
100
AcDbLine
 10
5.953
 20
9.935574440706435
 30
0.0
 11
3.477999999999999
 21
9.935574440706435
 31
0.0
  0
LINE
  5
593
330
1F
100
AcDbEntity
  8
Object
100
AcDbLine
 10
3.477999999999999
 20
9.935574440706435
 30
0.0
 11
3.442
 21
9.937574440706434
 31
0.0
  0
LINE
  5
594
330
1F
100
AcDbEntity
  8
Object
100
AcDbLine
 10
3.442
 20
9.937574440706434
 30
0.0
 11
3.406
 21
9.943574440706434
 31
0.0
  0
LINE
  5
595
330
1F
100
AcDbEntity
  8
Object
100
AcDbLine
 10
3.406
 20
9.943574440706434
 30
0.0
 11
3.330999999999999
 21
9.957574440706434
 31
0.0
  0
LINE
  5
596
330
1F
100
AcDbEntity
  8
Object
100
AcDbLine
 10
3.330999999999999
 20
9.957574440706434
 30
0.0
 11
3.254999999999999
 21
9.965574440706435
 31
0.0
  0
LINE
  5
597
330
1F
100
AcDbEntity
  8
Object
100
AcDbLine
 10
3.254999999999999
 20
9.965574440706435
 30
0.0
 11
3.179
 21
9.968574440706435
 31
0.0
  0
LINE
  5
598
330
1F
100
AcDbEntity
  8
Object
100
AcDbLine
 10
3.179
 20
9.968574440706435
 30
0.0
 11
3.056
 21
9.961574440706435
 31
0.0
  0
LINE
  5
599
330
1F
100
AcDbEntity
  8
Object
100
AcDbLine
 10
3.056
 20
9.961574440706435
 30
0.0
 11
2.935
 21
9.939574440706435
 31
0.0
  0
LINE
  5
59A
330
1F
100
AcDbEntity
  8
Object
100
AcDbLine
 10
2.935
 20
9.939574440706435
 30
0.0
 11
2.817999999999999
 21
9.903574440706435
 31
0.0
  0
LINE
  5
59B
330
1F
100
AcDbEntity
  8
Object
100
AcDbLine
 10
2.817999999999999
 20
9.903574440706435
 30
0.0
 11
2.705
 21
9.852574440706435
 31
0.0
  0
LINE
  5
59C
330
1F
100
AcDbEntity
  8
Object
100
AcDbLine
 10
2.705
 20
9.852574440706435
 30
0.0
 11
2.599999999999999
 21
9.789574440706434
 31
0.0
  0
LINE
  5
59D
330
1F
100
AcDbEntity
  8
Object
100
AcDbLine
 10
2.599999999999999
 20
9.789574440706434
 30
0.0
 11
2.502
 21
9.714574440706435
 31
0.0
  0
LINE
  5
59E
330
1F
100
AcDbEntity
  8
Object
100
AcDbLine
 10
2.502
 20
9.714574440706435
 30
0.0
 11
2.414999999999999
 21
9.628574440706435
 31
0.0
  0
LINE
  5
59F
330
1F
100
AcDbEntity
  8
Object
100
AcDbLine
 10
6.134999999999999
 20
8.027574440706434
 30
0.0
 11
6.251
 21
8.020574440706436
 31
0.0
  0
LINE
  5
5A0
330
1F
100
AcDbEntity
  8
Object
100
AcDbLine
 10
6.251
 20
8.020574440706436
 30
0.0
 11
6.251
 21
7.940574440706435
 31
0.0
  0
LINE
  5
5A1
330
1F
100
AcDbEntity
  8
Object
100
AcDbLine
 10
6.134999999999999
 20
8.027574440706434
 30
0.0
 11
6.02
 21
8.049574440706436
 31
0.0
  0
LINE
  5
5A2
330
1F
100
AcDbEntity
  8
Object
100
AcDbLine
 10
6.02
 20
8.049574440706436
 30
0.0
 11
5.908999999999999
 21
8.086574440706435
 31
0.0
  0
LINE
  5
5A3
330
1F
100
AcDbEntity
  8
Object
100
AcDbLine
 10
5.908999999999999
 20
8.086574440706435
 30
0.0
 11
5.802999999999999
 21
8.136574440706436
 31
0.0
  0
LINE
  5
5A4
330
1F
100
AcDbEntity
  8
Object
100
AcDbLine
 10
5.802999999999999
 20
8.136574440706436
 30
0.0
 11
5.705
 21
8.199574440706435
 31
0.0
  0
LINE
  5
5A5
330
1F
100
AcDbEntity
  8
Object
100
AcDbLine
 10
5.705
 20
8.199574440706435
 30
0.0
 11
5.616
 21
8.275574440706435
 31
0.0
  0
LINE
  5
5A6
330
1F
100
AcDbEntity
  8
Object
100
AcDbLine
 10
5.616
 20
8.275574440706435
 30
0.0
 11
5.536
 21
8.360574440706436
 31
0.0
  0
LINE
  5
5A7
330
1F
100
AcDbEntity
  8
Object
100
AcDbLine
 10
5.536
 20
8.360574440706436
 30
0.0
 11
5.469
 21
8.456574440706436
 31
0.0
  0
LINE
  5
5A8
330
1F
100
AcDbEntity
  8
Object
100
AcDbLine
 10
5.469
 20
8.456574440706436
 30
0.0
 11
5.413999999999999
 21
8.559574440706434
 31
0.0
  0
LINE
  5
5A9
330
1F
100
AcDbEntity
  8
Object
100
AcDbLine
 10
5.339
 20
9.350574440706434
 30
0.0
 11
5.427999999999999
 21
9.350574440706434
 31
0.0
  0
LINE
  5
5AA
330
1F
100
AcDbEntity
  8
Object
100
AcDbLine
 10
5.427999999999999
 20
9.350574440706434
 30
0.0
 11
5.381999999999999
 21
9.243574440706435
 31
0.0
  0
LINE
  5
5AB
330
1F
100
AcDbEntity
  8
Object
100
AcDbLine
 10
5.413999999999999
 20
8.559574440706434
 30
0.0
 11
5.371999999999999
 21
8.668574440706436
 31
0.0
  0
LINE
  5
5AC
330
1F
100
AcDbEntity
  8
Object
100
AcDbLine
 10
5.350999999999999
 20
9.130574440706435
 30
0.0
 11
5.381999999999999
 21
9.243574440706435
 31
0.0
  0
LINE
  5
5AD
330
1F
100
AcDbEntity
  8
Object
100
AcDbLine
 10
5.371999999999999
 20
8.668574440706436
 30
0.0
 11
5.344999999999999
 21
8.781574440706435
 31
0.0
  0
LINE
  5
5AE
330
1F
100
AcDbEntity
  8
Object
100
AcDbLine
 10
5.334
 20
9.014574440706436
 30
0.0
 11
5.350999999999999
 21
9.130574440706435
 31
0.0
  0
LINE
  5
5AF
330
1F
100
AcDbEntity
  8
Object
100
AcDbLine
 10
5.344999999999999
 20
8.781574440706435
 30
0.0
 11
5.331999999999999
 21
8.898574440706436
 31
0.0
  0
LINE
  5
5B0
330
1F
100
AcDbEntity
  8
Object
100
AcDbLine
 10
5.331999999999999
 20
8.898574440706436
 30
0.0
 11
5.334
 21
9.014574440706436
 31
0.0
  0
LINE
  5
5B1
330
1F
100
AcDbEntity
  8
Object
100
AcDbLine
 10
3.371
 20
7.924574440706435
 30
0.0
 11
6.059
 21
7.924574440706435
 31
0.0
  0
LINE
  5
5B2
330
1F
100
AcDbEntity
  8
Object
100
AcDbLine
 10
3.306
 20
7.918574440706435
 30
0.0
 11
3.323999999999999
 21
7.920574440706435
 31
0.0
  0
LINE
  5
5B3
330
1F
100
AcDbEntity
  8
Object
100
AcDbLine
 10
3.323999999999999
 20
7.920574440706435
 30
0.0
 11
3.371
 21
7.924574440706435
 31
0.0
  0
LINE
  5
5B4
330
1F
100
AcDbEntity
  8
Object
100
AcDbLine
 10
3.306
 20
7.918574440706435
 30
0.0
 11
3.288
 21
7.916574440706435
 31
0.0
  0
LINE
  5
5B5
330
1F
100
AcDbEntity
  8
Object
100
AcDbLine
 10
3.288
 20
7.916574440706435
 30
0.0
 11
3.269999999999999
 21
7.914574440706435
 31
0.0
  0
LINE
  5
5B6
330
1F
100
AcDbEntity
  8
Object
100
AcDbLine
 10
6.059
 20
7.924574440706435
 30
0.0
 11
6.105999999999999
 21
7.920574440706435
 31
0.0
  0
LINE
  5
5B7
330
1F
100
AcDbEntity
  8
Object
100
AcDbLine
 10
5.988999999999999
 20
9.937574440706434
 30
0.0
 11
6.024
 21
9.943574440706434
 31
0.0
  0
LINE
  5
5B8
330
1F
100
AcDbEntity
  8
Object
100
AcDbLine
 10
6.024
 20
9.943574440706434
 30
0.0
 11
5.953
 21
9.923574440706435
 31
0.0
  0
LINE
  5
5B9
330
1F
100
AcDbEntity
  8
Object
100
AcDbLine
 10
5.961999999999999
 20
7.954574440706435
 30
0.0
 11
6.035
 21
7.934574440706435
 31
0.0
  0
LINE
  5
5BA
330
1F
100
AcDbEntity
  8
Object
100
AcDbLine
 10
5.988999999999999
 20
9.937574440706434
 30
0.0
 11
5.953
 21
9.935574440706435
 31
0.0
  0
LINE
  5
5BB
330
1F
100
AcDbEntity
  8
Object
100
AcDbLine
 10
5.916999999999999
 20
7.969574440706435
 30
0.0
 11
5.961999999999999
 21
7.954574440706435
 31
0.0
  0
LINE
  5
5BC
330
1F
100
AcDbEntity
  8
Object
100
AcDbLine
 10
5.953
 20
9.923574440706435
 30
0.0
 11
5.927999999999999
 21
9.915574440706436
 31
0.0
  0
LINE
  5
5BD
330
1F
100
AcDbEntity
  8
Object
100
AcDbLine
 10
5.927999999999999
 20
9.915574440706436
 30
0.0
 11
5.884
 21
9.897574440706435
 31
0.0
  0
LINE
  5
5BE
330
1F
100
AcDbEntity
  8
Object
100
AcDbLine
 10
5.823
 20
8.009574440706435
 30
0.0
 11
5.892
 21
7.979574440706435
 31
0.0
  0
LINE
  5
5BF
330
1F
100
AcDbEntity
  8
Object
100
AcDbLine
 10
5.884
 20
9.897574440706435
 30
0.0
 11
5.826999999999999
 21
9.873574440706434
 31
0.0
  0
LINE
  5
5C0
330
1F
100
AcDbEntity
  8
Object
100
AcDbLine
 10
5.892
 20
7.979574440706435
 30
0.0
 11
5.916999999999999
 21
7.969574440706435
 31
0.0
  0
LINE
  5
5C1
330
1F
100
AcDbEntity
  8
Object
100
AcDbLine
 10
5.806
 20
8.017574440706436
 30
0.0
 11
5.823
 21
8.009574440706435
 31
0.0
  0
LINE
  5
5C2
330
1F
100
AcDbEntity
  8
Object
100
AcDbLine
 10
5.823
 20
8.009574440706435
 30
0.0
 11
5.806
 21
8.017574440706436
 31
0.0
  0
LINE
  5
5C3
330
1F
100
AcDbEntity
  8
Object
100
AcDbLine
 10
5.748
 20
9.830574440706435
 30
0.0
 11
5.815
 21
9.867574440706434
 31
0.0
  0
LINE
  5
5C4
330
1F
100
AcDbEntity
  8
Object
100
AcDbLine
 10
5.806
 20
8.017574440706436
 30
0.0
 11
5.754999999999999
 21
8.045574440706435
 31
0.0
  0
LINE
  5
5C5
330
1F
100
AcDbEntity
  8
Object
100
AcDbLine
 10
5.754999999999999
 20
8.045574440706435
 30
0.0
 11
5.706
 21
8.074574440706435
 31
0.0
  0
LINE
  5
5C6
330
1F
100
AcDbEntity
  8
Object
100
AcDbLine
 10
5.73
 20
9.821574440706434
 30
0.0
 11
5.682
 21
9.788574440706435
 31
0.0
  0
LINE
  5
5C7
330
1F
100
AcDbEntity
  8
Object
100
AcDbLine
 10
5.682
 20
9.788574440706435
 30
0.0
 11
5.637999999999999
 21
9.758574440706436
 31
0.0
  0
LINE
  5
5C8
330
1F
100
AcDbEntity
  8
Object
100
AcDbLine
 10
5.689
 20
8.087574440706436
 30
0.0
 11
5.624
 21
8.135574440706434
 31
0.0
  0
LINE
  5
5C9
330
1F
100
AcDbEntity
  8
Object
100
AcDbLine
 10
5.556
 20
9.685574440706435
 30
0.0
 11
5.496999999999999
 21
9.623574440706434
 31
0.0
  0
LINE
  5
5CA
330
1F
100
AcDbEntity
  8
Object
100
AcDbLine
 10
5.496999999999999
 20
9.623574440706434
 30
0.0
 11
5.440999999999999
 21
9.554574440706435
 31
0.0
  0
LINE
  5
5CB
330
1F
100
AcDbEntity
  8
Object
100
AcDbLine
 10
5.445999999999999
 20
8.319574440706436
 30
0.0
 11
5.394
 21
8.395574440706436
 31
0.0
  0
LINE
  5
5CC
330
1F
100
AcDbEntity
  8
Object
100
AcDbLine
 10
5.394
 20
8.395574440706436
 30
0.0
 11
5.347999999999999
 21
8.478574440706434
 31
0.0
  0
LINE
  5
5CD
330
1F
100
AcDbEntity
  8
Object
100
AcDbLine
 10
5.259999999999999
 20
9.151574440706436
 30
0.0
 11
5.272
 21
9.202574440706435
 31
0.0
  0
LINE
  5
5CE
330
1F
100
AcDbEntity
  8
Object
100
AcDbLine
 10
5.262999999999999
 20
8.719574440706434
 30
0.0
 11
5.251999999999999
 21
8.771574440706434
 31
0.0
  0
LINE
  5
5CF
330
1F
100
AcDbEntity
  8
Object
100
AcDbLine
 10
5.251
 20
9.098574440706435
 30
0.0
 11
5.243999999999999
 21
9.044574440706435
 31
0.0
  0
LINE
  5
5D0
330
1F
100
AcDbEntity
  8
Object
100
AcDbLine
 10
5.243999999999999
 20
9.044574440706435
 30
0.0
 11
5.24
 21
8.989574440706434
 31
0.0
  0
LINE
  5
5D1
330
1F
100
AcDbEntity
  8
Object
100
AcDbLine
 10
5.24
 20
8.989574440706434
 30
0.0
 11
5.238999999999999
 21
8.934574440706434
 31
0.0
  0
LINE
  5
5D2
330
1F
100
AcDbEntity
  8
Object
100
AcDbLine
 10
5.238999999999999
 20
8.934574440706434
 30
0.0
 11
5.24
 21
8.880574440706435
 31
0.0
  0
LINE
  5
5D3
330
1F
100
AcDbEntity
  8
Object
100
AcDbLine
 10
5.24
 20
8.880574440706435
 30
0.0
 11
5.245
 21
8.825574440706436
 31
0.0
  0
LINE
  5
5D4
330
1F
100
AcDbEntity
  8
Object
100
AcDbLine
 10
4.096
 20
9.014574440706436
 30
0.0
 11
4.097999999999999
 21
8.898574440706436
 31
0.0
  0
LINE
  5
5D5
330
1F
100
AcDbEntity
  8
Object
100
AcDbLine
 10
4.097999999999999
 20
8.898574440706436
 30
0.0
 11
4.086
 21
8.781574440706435
 31
0.0
  0
LINE
  5
5D6
330
1F
100
AcDbEntity
  8
Object
100
AcDbLine
 10
4.078999999999999
 20
9.130574440706435
 30
0.0
 11
4.096
 21
9.014574440706436
 31
0.0
  0
LINE
  5
5D7
330
1F
100
AcDbEntity
  8
Object
100
AcDbLine
 10
4.086
 20
8.781574440706435
 30
0.0
 11
4.057999999999999
 21
8.668574440706436
 31
0.0
  0
LINE
  5
5D8
330
1F
100
AcDbEntity
  8
Object
100
AcDbLine
 10
4.048
 20
9.243574440706435
 30
0.0
 11
4.078999999999999
 21
9.130574440706435
 31
0.0
  0
LINE
  5
5D9
330
1F
100
AcDbEntity
  8
Object
100
AcDbLine
 10
4.057999999999999
 20
8.668574440706436
 30
0.0
 11
4.017
 21
8.559574440706434
 31
0.0
  0
LINE
  5
5DA
330
1F
100
AcDbEntity
  8
Object
100
AcDbLine
 10
4.048
 20
9.243574440706435
 30
0.0
 11
4.003
 21
9.350574440706434
 31
0.0
  0
LINE
  5
5DB
330
1F
100
AcDbEntity
  8
Object
100
AcDbLine
 10
4.003
 20
9.350574440706434
 30
0.0
 11
3.983999999999999
 21
9.391574440706435
 31
0.0
  0
LINE
  5
5DC
330
1F
100
AcDbEntity
  8
Object
100
AcDbLine
 10
3.983999999999999
 20
9.391574440706435
 30
0.0
 11
3.964
 21
9.430574440706436
 31
0.0
  0
LINE
  5
5DD
330
1F
100
AcDbEntity
  8
Object
100
AcDbLine
 10
4.017
 20
8.559574440706434
 30
0.0
 11
3.961999999999999
 21
8.456574440706436
 31
0.0
  0
LINE
  5
5DE
330
1F
100
AcDbEntity
  8
Object
100
AcDbLine
 10
3.964
 20
9.430574440706436
 30
0.0
 11
3.954
 21
9.446574440706434
 31
0.0
  0
LINE
  5
5DF
330
1F
100
AcDbEntity
  8
Object
100
AcDbLine
 10
3.954
 20
9.446574440706434
 30
0.0
 11
3.942999999999999
 21
9.463574440706434
 31
0.0
  0
LINE
  5
5E0
330
1F
100
AcDbEntity
  8
Object
100
AcDbLine
 10
3.942999999999999
 20
9.463574440706434
 30
0.0
 11
3.932
 21
9.478574440706434
 31
0.0
  0
LINE
  5
5E1
330
1F
100
AcDbEntity
  8
Object
100
AcDbLine
 10
3.961999999999999
 20
8.456574440706436
 30
0.0
 11
3.894
 21
8.360574440706436
 31
0.0
  0
LINE
  5
5E2
330
1F
100
AcDbEntity
  8
Object
100
AcDbLine
 10
3.894
 20
8.360574440706436
 30
0.0
 11
3.814999999999999
 21
8.275574440706435
 31
0.0
  0
LINE
  5
5E3
330
1F
100
AcDbEntity
  8
Object
100
AcDbLine
 10
3.791999999999999
 20
9.633574440706436
 30
0.0
 11
3.871
 21
9.554574440706435
 31
0.0
  0
LINE
  5
5E4
330
1F
100
AcDbEntity
  8
Object
100
AcDbLine
 10
3.814999999999999
 20
8.275574440706435
 30
0.0
 11
3.724999999999999
 21
8.199574440706435
 31
0.0
  0
LINE
  5
5E5
330
1F
100
AcDbEntity
  8
Object
100
AcDbLine
 10
3.704
 20
9.702574440706435
 30
0.0
 11
3.791999999999999
 21
9.633574440706436
 31
0.0
  0
LINE
  5
5E6
330
1F
100
AcDbEntity
  8
Object
100
AcDbLine
 10
3.724999999999999
 20
8.199574440706435
 30
0.0
 11
3.627
 21
8.136574440706436
 31
0.0
  0
LINE
  5
5E7
330
1F
100
AcDbEntity
  8
Object
100
AcDbLine
 10
3.608999999999999
 20
9.759574440706435
 30
0.0
 11
3.704
 21
9.702574440706435
 31
0.0
  0
LINE
  5
5E8
330
1F
100
AcDbEntity
  8
Object
100
AcDbLine
 10
3.627
 20
8.136574440706436
 30
0.0
 11
3.520999999999999
 21
8.086574440706435
 31
0.0
  0
LINE
  5
5E9
330
1F
100
AcDbEntity
  8
Object
100
AcDbLine
 10
3.608999999999999
 20
9.759574440706435
 30
0.0
 11
3.506999999999999
 21
9.805574440706436
 31
0.0
  0
LINE
  5
5EA
330
1F
100
AcDbEntity
  8
Object
100
AcDbLine
 10
3.506999999999999
 20
9.805574440706436
 30
0.0
 11
3.4
 21
9.838574440706434
 31
0.0
  0
LINE
  5
5EB
330
1F
100
AcDbEntity
  8
Object
100
AcDbLine
 10
3.410999999999999
 20
8.049574440706436
 30
0.0
 11
3.296
 21
8.027574440706434
 31
0.0
  0
LINE
  5
5EC
330
1F
100
AcDbEntity
  8
Object
100
AcDbLine
 10
3.4
 20
9.838574440706434
 30
0.0
 11
3.291
 21
9.859574440706435
 31
0.0
  0
LINE
  5
5ED
330
1F
100
AcDbEntity
  8
Object
100
AcDbLine
 10
3.291
 20
9.859574440706435
 30
0.0
 11
3.179
 21
9.865574440706435
 31
0.0
  0
LINE
  5
5EE
330
1F
100
AcDbEntity
  8
Object
100
AcDbLine
 10
3.296
 20
8.027574440706434
 30
0.0
 11
3.179
 21
8.020574440706436
 31
0.0
  0
LINE
  5
5EF
330
1F
100
AcDbEntity
  8
Object
100
AcDbLine
 10
5.089
 20
8.974574440706435
 30
0.0
 11
5.089
 21
8.920574440706435
 31
0.0
  0
LINE
  5
5F0
330
1F
100
AcDbEntity
  8
Object
100
AcDbLine
 10
5.089
 20
8.920574440706435
 30
0.0
 11
5.092
 21
8.867574440706434
 31
0.0
  0
LINE
  5
5F1
330
1F
100
AcDbEntity
  8
Object
100
AcDbLine
 10
5.092
 20
8.867574440706434
 30
0.0
 11
5.097
 21
8.815574440706434
 31
0.0
  0
LINE
  5
5F2
330
1F
100
AcDbEntity
  8
Object
100
AcDbLine
 10
5.089
 20
8.974574440706435
 30
0.0
 11
5.092999999999999
 21
9.028574440706435
 31
0.0
  0
LINE
  5
5F3
330
1F
100
AcDbEntity
  8
Object
100
AcDbLine
 10
5.105999999999999
 20
8.763574440706435
 30
0.0
 11
5.097
 21
8.815574440706434
 31
0.0
  0
LINE
  5
5F4
330
1F
100
AcDbEntity
  8
Object
100
AcDbLine
 10
5.092999999999999
 20
9.028574440706435
 30
0.0
 11
5.1
 21
9.081574440706436
 31
0.0
  0
LINE
  5
5F5
330
1F
100
AcDbEntity
  8
Object
100
AcDbLine
 10
5.133
 20
8.661574440706434
 30
0.0
 11
5.105999999999999
 21
8.763574440706435
 31
0.0
  0
LINE
  5
5F6
330
1F
100
AcDbEntity
  8
Object
100
AcDbLine
 10
5.1
 20
9.081574440706436
 30
0.0
 11
5.121999999999999
 21
9.184574440706434
 31
0.0
  0
LINE
  5
5F7
330
1F
100
AcDbEntity
  8
Object
100
AcDbLine
 10
5.121999999999999
 20
9.184574440706434
 30
0.0
 11
5.155
 21
9.282574440706435
 31
0.0
  0
LINE
  5
5F8
330
1F
100
AcDbEntity
  8
Object
100
AcDbLine
 10
5.133
 20
8.661574440706434
 30
0.0
 11
5.169
 21
8.566574440706435
 31
0.0
  0
LINE
  5
5F9
330
1F
100
AcDbEntity
  8
Object
100
AcDbLine
 10
5.169
 20
8.566574440706435
 30
0.0
 11
5.214
 21
8.477574440706435
 31
0.0
  0
LINE
  5
5FA
330
1F
100
AcDbEntity
  8
Object
100
AcDbLine
 10
5.248
 20
9.458574440706435
 30
0.0
 11
5.198
 21
9.373574440706434
 31
0.0
  0
LINE
  5
5FB
330
1F
100
AcDbEntity
  8
Object
100
AcDbLine
 10
5.198
 20
9.373574440706434
 30
0.0
 11
5.155
 21
9.282574440706435
 31
0.0
  0
LINE
  5
5FC
330
1F
100
AcDbEntity
  8
Object
100
AcDbLine
 10
5.267
 20
8.395574440706436
 30
0.0
 11
5.214
 21
8.477574440706435
 31
0.0
  0
LINE
  5
5FD
330
1F
100
AcDbEntity
  8
Object
100
AcDbLine
 10
4.216
 20
8.477574440706435
 30
0.0
 11
4.163999999999999
 21
8.395574440706436
 31
0.0
  0
LINE
  5
5FE
330
1F
100
AcDbEntity
  8
Object
100
AcDbLine
 10
4.126
 20
9.534574440706435
 30
0.0
 11
4.182
 21
9.458574440706435
 31
0.0
  0
LINE
  5
5FF
330
1F
100
AcDbEntity
  8
Object
100
AcDbLine
 10
5.248
 20
9.458574440706435
 30
0.0
 11
5.304
 21
9.534574440706435
 31
0.0
  0
LINE
  5
600
330
1F
100
AcDbEntity
  8
Object
100
AcDbLine
 10
4.163999999999999
 20
8.395574440706436
 30
0.0
 11
4.105999999999999
 21
8.321574440706434
 31
0.0
  0
LINE
  5
601
330
1F
100
AcDbEntity
  8
Object
100
AcDbLine
 10
5.325
 20
8.321574440706434
 30
0.0
 11
5.267
 21
8.395574440706436
 31
0.0
  0
LINE
  5
602
330
1F
100
AcDbEntity
  8
Object
100
AcDbLine
 10
5.304
 20
9.534574440706435
 30
0.0
 11
5.365
 21
9.604574440706436
 31
0.0
  0
LINE
  5
603
330
1F
100
AcDbEntity
  8
Object
100
AcDbLine
 10
4.065
 20
9.604574440706436
 30
0.0
 11
4.126
 21
9.534574440706435
 31
0.0
  0
LINE
  5
604
330
1F
100
AcDbEntity
  8
Object
100
AcDbLine
 10
5.387
 20
8.254574440706434
 30
0.0
 11
5.325
 21
8.321574440706434
 31
0.0
  0
LINE
  5
605
330
1F
100
AcDbEntity
  8
Object
100
AcDbLine
 10
4.105999999999999
 20
8.321574440706434
 30
0.0
 11
4.043
 21
8.254574440706434
 31
0.0
  0
LINE
  5
606
330
1F
100
AcDbEntity
  8
Object
100
AcDbLine
 10
4.0
 20
9.666574440706435
 30
0.0
 11
4.065
 21
9.604574440706436
 31
0.0
  0
LINE
  5
607
330
1F
100
AcDbEntity
  8
Object
100
AcDbLine
 10
5.365
 20
9.604574440706436
 30
0.0
 11
5.431
 21
9.666574440706435
 31
0.0
  0
LINE
  5
608
330
1F
100
AcDbEntity
  8
Object
100
AcDbLine
 10
5.387
 20
8.254574440706434
 30
0.0
 11
5.453999999999999
 21
8.193574440706434
 31
0.0
  0
LINE
  5
609
330
1F
100
AcDbEntity
  8
Object
100
AcDbLine
 10
5.453999999999999
 20
8.193574440706434
 30
0.0
 11
5.524
 21
8.140574440706435
 31
0.0
  0
LINE
  5
60A
330
1F
100
AcDbEntity
  8
Object
100
AcDbLine
 10
5.431
 20
9.666574440706435
 30
0.0
 11
5.499
 21
9.722574440706434
 31
0.0
  0
LINE
  5
60B
330
1F
100
AcDbEntity
  8
Object
100
AcDbLine
 10
3.931
 20
9.722574440706434
 30
0.0
 11
4.0
 21
9.666574440706435
 31
0.0
  0
LINE
  5
60C
330
1F
100
AcDbEntity
  8
Object
100
AcDbLine
 10
5.499
 20
9.722574440706434
 30
0.0
 11
5.570999999999999
 21
9.772574440706435
 31
0.0
  0
LINE
  5
60D
330
1F
100
AcDbEntity
  8
Object
100
AcDbLine
 10
5.594999999999999
 20
8.093574440706435
 30
0.0
 11
5.524
 21
8.140574440706435
 31
0.0
  0
LINE
  5
60E
330
1F
100
AcDbEntity
  8
Object
100
AcDbLine
 10
3.907
 20
8.140574440706435
 30
0.0
 11
3.834999999999999
 21
8.093574440706435
 31
0.0
  0
LINE
  5
60F
330
1F
100
AcDbEntity
  8
Object
100
AcDbLine
 10
5.570999999999999
 20
9.772574440706435
 30
0.0
 11
5.644
 21
9.815574440706434
 31
0.0
  0
LINE
  5
610
330
1F
100
AcDbEntity
  8
Object
100
AcDbLine
 10
3.786999999999999
 20
9.815574440706434
 30
0.0
 11
3.859999999999999
 21
9.772574440706435
 31
0.0
  0
LINE
  5
611
330
1F
100
AcDbEntity
  8
Object
100
AcDbLine
 10
3.834999999999999
 20
8.093574440706435
 30
0.0
 11
3.762
 21
8.051574440706435
 31
0.0
  0
LINE
  5
612
330
1F
100
AcDbEntity
  8
Object
100
AcDbLine
 10
5.594999999999999
 20
8.093574440706435
 30
0.0
 11
5.669
 21
8.051574440706435
 31
0.0
  0
LINE
  5
613
330
1F
100
AcDbEntity
  8
Object
100
AcDbLine
 10
5.669
 20
8.051574440706435
 30
0.0
 11
5.743999999999999
 21
8.015574440706435
 31
0.0
  0
LINE
  5
614
330
1F
100
AcDbEntity
  8
Object
100
AcDbLine
 10
3.711999999999999
 20
9.853574440706434
 30
0.0
 11
3.786999999999999
 21
9.815574440706434
 31
0.0
  0
LINE
  5
615
330
1F
100
AcDbEntity
  8
Object
100
AcDbLine
 10
5.644
 20
9.815574440706434
 30
0.0
 11
5.719
 21
9.853574440706434
 31
0.0
  0
LINE
  5
616
330
1F
100
AcDbEntity
  8
Object
100
AcDbLine
 10
5.820999999999999
 20
7.985574440706435
 30
0.0
 11
5.743999999999999
 21
8.015574440706435
 31
0.0
  0
LINE
  5
617
330
1F
100
AcDbEntity
  8
Object
100
AcDbLine
 10
5.873
 20
9.913574440706435
 30
0.0
 11
5.794999999999999
 21
9.885574440706434
 31
0.0
  0
LINE
  5
618
330
1F
100
AcDbEntity
  8
Object
100
AcDbLine
 10
5.794999999999999
 20
9.885574440706434
 30
0.0
 11
5.719
 21
9.853574440706434
 31
0.0
  0
LINE
  5
619
330
1F
100
AcDbEntity
  8
Object
100
AcDbLine
 10
3.634999999999999
 20
9.885574440706434
 30
0.0
 11
3.711999999999999
 21
9.853574440706434
 31
0.0
  0
LINE
  5
61A
330
1F
100
AcDbEntity
  8
Object
100
AcDbLine
 10
3.685999999999999
 20
8.015574440706435
 30
0.0
 11
3.608999999999999
 21
7.985574440706435
 31
0.0
  0
LINE
  5
61B
330
1F
100
AcDbEntity
  8
Object
100
AcDbLine
 10
3.608999999999999
 20
7.985574440706435
 30
0.0
 11
3.53
 21
7.959574440706435
 31
0.0
  0
LINE
  5
61C
330
1F
100
AcDbEntity
  8
Object
100
AcDbLine
 10
5.9
 20
7.959574440706435
 30
0.0
 11
5.820999999999999
 21
7.985574440706435
 31
0.0
  0
LINE
  5
61D
330
1F
100
AcDbEntity
  8
Object
100
AcDbLine
 10
3.477999999999999
 20
9.935574440706435
 30
0.0
 11
3.557
 21
9.913574440706435
 31
0.0
  0
LINE
  5
61E
330
1F
100
AcDbEntity
  8
Object
100
AcDbLine
 10
5.873
 20
9.913574440706435
 30
0.0
 11
5.953
 21
9.935574440706435
 31
0.0
  0
LINE
  5
61F
330
1F
100
AcDbEntity
  8
Object
100
AcDbLine
 10
5.9
 20
7.959574440706435
 30
0.0
 11
5.979
 21
7.939574440706435
 31
0.0
  0
LINE
  5
620
330
1F
100
AcDbEntity
  8
Object
100
AcDbLine
 10
5.979
 20
7.939574440706435
 30
0.0
 11
6.059
 21
7.924574440706435
 31
0.0
  0
LINE
  5
621
330
1F
100
AcDbEntity
  8
Object
100
AcDbLine
 10
3.53
 20
7.959574440706435
 30
0.0
 11
3.451
 21
7.939574440706435
 31
0.0
  0
LINE
  5
622
330
1F
100
AcDbEntity
  8
Object
100
AcDbLine
 10
3.451
 20
7.939574440706435
 30
0.0
 11
3.371
 21
7.924574440706435
 31
0.0
  0
LINE
  5
623
330
1F
100
AcDbEntity
  8
Object
100
AcDbLine
 10
2.56
 20
9.628574440706435
 30
0.0
 11
2.445999999999999
 21
9.628574440706435
 31
0.0
  0
LINE
  5
624
330
1F
100
AcDbEntity
  8
Object
100
AcDbLine
 10
2.445999999999999
 20
9.628574440706435
 30
0.0
 11
2.414999999999999
 21
9.628574440706435
 31
0.0
  0
LINE
  5
625
330
1F
100
AcDbEntity
  8
Object
100
AcDbLine
 10
3.179
 20
9.865574440706435
 30
0.0
 11
3.076
 21
9.859574440706435
 31
0.0
  0
LINE
  5
626
330
1F
100
AcDbEntity
  8
Object
100
AcDbLine
 10
3.076
 20
9.859574440706435
 30
0.0
 11
2.972999999999998
 21
9.842574440706435
 31
0.0
  0
LINE
  5
627
330
1F
100
AcDbEntity
  8
Object
100
AcDbLine
 10
2.972999999999998
 20
9.842574440706435
 30
0.0
 11
2.874
 21
9.813574440706435
 31
0.0
  0
LINE
  5
628
330
1F
100
AcDbEntity
  8
Object
100
AcDbLine
 10
2.874
 20
9.813574440706435
 30
0.0
 11
2.778
 21
9.774574440706434
 31
0.0
  0
LINE
  5
629
330
1F
100
AcDbEntity
  8
Object
100
AcDbLine
 10
2.653
 20
9.701574440706435
 30
0.0
 11
2.701999999999999
 21
9.733574440706435
 31
0.0
  0
LINE
  5
62A
330
1F
100
AcDbEntity
  8
Object
100
AcDbLine
 10
2.56
 20
9.628574440706435
 30
0.0
 11
2.605
 21
9.666574440706435
 31
0.0
  0
LINE
  5
62B
330
1F
100
AcDbEntity
  8
Object
100
AcDbLine
 10
4.185999999999999
 20
9.044574440706435
 30
0.0
 11
4.19
 21
8.989574440706434
 31
0.0
  0
LINE
  5
62C
330
1F
100
AcDbEntity
  8
Object
100
AcDbLine
 10
4.19
 20
8.989574440706434
 30
0.0
 11
4.192
 21
8.934574440706434
 31
0.0
  0
LINE
  5
62D
330
1F
100
AcDbEntity
  8
Object
100
AcDbLine
 10
4.192
 20
8.934574440706434
 30
0.0
 11
4.19
 21
8.880574440706435
 31
0.0
  0
LINE
  5
62E
330
1F
100
AcDbEntity
  8
Object
100
AcDbLine
 10
4.19
 20
8.880574440706435
 30
0.0
 11
4.185
 21
8.825574440706436
 31
0.0
  0
LINE
  5
62F
330
1F
100
AcDbEntity
  8
Object
100
AcDbLine
 10
4.169999999999999
 20
9.151574440706436
 30
0.0
 11
4.179999999999999
 21
9.098574440706435
 31
0.0
  0
LINE
  5
630
330
1F
100
AcDbEntity
  8
Object
100
AcDbLine
 10
4.179999999999999
 20
9.098574440706435
 30
0.0
 11
4.185999999999999
 21
9.044574440706435
 31
0.0
  0
LINE
  5
631
330
1F
100
AcDbEntity
  8
Object
100
AcDbLine
 10
4.185
 20
8.825574440706436
 30
0.0
 11
4.177999999999999
 21
8.771574440706434
 31
0.0
  0
LINE
  5
632
330
1F
100
AcDbEntity
  8
Object
100
AcDbLine
 10
4.177999999999999
 20
8.771574440706434
 30
0.0
 11
4.168
 21
8.719574440706434
 31
0.0
  0
LINE
  5
633
330
1F
100
AcDbEntity
  8
Object
100
AcDbLine
 10
4.168
 20
8.719574440706434
 30
0.0
 11
4.155
 21
8.667574440706435
 31
0.0
  0
LINE
  5
634
330
1F
100
AcDbEntity
  8
Object
100
AcDbLine
 10
4.169999999999999
 20
9.151574440706436
 30
0.0
 11
4.158
 21
9.202574440706435
 31
0.0
  0
LINE
  5
635
330
1F
100
AcDbEntity
  8
Object
100
AcDbLine
 10
4.158
 20
9.202574440706435
 30
0.0
 11
4.126
 21
9.301574440706435
 31
0.0
  0
LINE
  5
636
330
1F
100
AcDbEntity
  8
Object
100
AcDbLine
 10
4.123
 20
8.569574440706436
 30
0.0
 11
4.155
 21
8.667574440706435
 31
0.0
  0
LINE
  5
637
330
1F
100
AcDbEntity
  8
Object
100
AcDbLine
 10
4.126
 20
9.301574440706435
 30
0.0
 11
4.086999999999999
 21
9.393574440706435
 31
0.0
  0
LINE
  5
638
330
1F
100
AcDbEntity
  8
Object
100
AcDbLine
 10
4.081999999999999
 20
8.478574440706434
 30
0.0
 11
4.123
 21
8.569574440706436
 31
0.0
  0
LINE
  5
639
330
1F
100
AcDbEntity
  8
Object
100
AcDbLine
 10
4.086999999999999
 20
9.393574440706435
 30
0.0
 11
4.041
 21
9.477574440706435
 31
0.0
  0
LINE
  5
63A
330
1F
100
AcDbEntity
  8
Object
100
AcDbLine
 10
4.036
 20
8.395574440706436
 30
0.0
 11
4.081999999999999
 21
8.478574440706434
 31
0.0
  0
LINE
  5
63B
330
1F
100
AcDbEntity
  8
Object
100
AcDbLine
 10
4.041
 20
9.477574440706435
 30
0.0
 11
3.988999999999999
 21
9.554574440706435
 31
0.0
  0
LINE
  5
63C
330
1F
100
AcDbEntity
  8
Object
100
AcDbLine
 10
4.036
 20
8.395574440706436
 30
0.0
 11
3.983999999999999
 21
8.319574440706436
 31
0.0
  0
LINE
  5
63D
330
1F
100
AcDbEntity
  8
Object
100
AcDbLine
 10
3.983999999999999
 20
8.319574440706436
 30
0.0
 11
3.927999999999999
 21
8.250574440706435
 31
0.0
  0
LINE
  5
63E
330
1F
100
AcDbEntity
  8
Object
100
AcDbLine
 10
3.988999999999999
 20
9.554574440706435
 30
0.0
 11
3.934
 21
9.623574440706434
 31
0.0
  0
LINE
  5
63F
330
1F
100
AcDbEntity
  8
Object
100
AcDbLine
 10
3.934
 20
9.623574440706434
 30
0.0
 11
3.875
 21
9.685574440706435
 31
0.0
  0
LINE
  5
640
330
1F
100
AcDbEntity
  8
Object
100
AcDbLine
 10
3.868
 20
8.189574440706435
 30
0.0
 11
3.927999999999999
 21
8.250574440706435
 31
0.0
  0
LINE
  5
641
330
1F
100
AcDbEntity
  8
Object
100
AcDbLine
 10
3.875
 20
9.685574440706435
 30
0.0
 11
3.812
 21
9.740574440706435
 31
0.0
  0
LINE
  5
642
330
1F
100
AcDbEntity
  8
Object
100
AcDbLine
 10
3.868
 20
8.189574440706435
 30
0.0
 11
3.806
 21
8.135574440706434
 31
0.0
  0
LINE
  5
643
330
1F
100
AcDbEntity
  8
Object
100
AcDbLine
 10
3.806
 20
8.135574440706434
 30
0.0
 11
3.741999999999999
 21
8.087574440706436
 31
0.0
  0
LINE
  5
644
330
1F
100
AcDbEntity
  8
Object
100
AcDbLine
 10
3.812
 20
9.740574440706435
 30
0.0
 11
3.748
 21
9.788574440706435
 31
0.0
  0
LINE
  5
645
330
1F
100
AcDbEntity
  8
Object
100
AcDbLine
 10
3.748
 20
9.788574440706435
 30
0.0
 11
3.682
 21
9.830574440706435
 31
0.0
  0
LINE
  5
646
330
1F
100
AcDbEntity
  8
Object
100
AcDbLine
 10
3.675
 20
8.045574440706435
 30
0.0
 11
3.741999999999999
 21
8.087574440706436
 31
0.0
  0
LINE
  5
647
330
1F
100
AcDbEntity
  8
Object
100
AcDbLine
 10
3.682
 20
9.830574440706435
 30
0.0
 11
3.615
 21
9.867574440706434
 31
0.0
  0
LINE
  5
648
330
1F
100
AcDbEntity
  8
Object
100
AcDbLine
 10
3.675
 20
8.045574440706435
 30
0.0
 11
3.607
 21
8.009574440706435
 31
0.0
  0
LINE
  5
649
330
1F
100
AcDbEntity
  8
Object
100
AcDbLine
 10
3.607
 20
8.009574440706435
 30
0.0
 11
3.538
 21
7.979574440706435
 31
0.0
  0
LINE
  5
64A
330
1F
100
AcDbEntity
  8
Object
100
AcDbLine
 10
3.615
 20
9.867574440706434
 30
0.0
 11
3.547
 21
9.897574440706435
 31
0.0
  0
LINE
  5
64B
330
1F
100
AcDbEntity
  8
Object
100
AcDbLine
 10
3.547
 20
9.897574440706435
 30
0.0
 11
3.477
 21
9.923574440706435
 31
0.0
  0
LINE
  5
64C
330
1F
100
AcDbEntity
  8
Object
100
AcDbLine
 10
3.467999999999999
 20
7.954574440706435
 30
0.0
 11
3.538
 21
7.979574440706435
 31
0.0
  0
LINE
  5
64D
330
1F
100
AcDbEntity
  8
Object
100
AcDbLine
 10
3.477
 20
9.923574440706435
 30
0.0
 11
3.406
 21
9.943574440706434
 31
0.0
  0
LINE
  5
64E
330
1F
100
AcDbEntity
  8
Object
100
AcDbLine
 10
3.467999999999999
 20
7.954574440706435
 30
0.0
 11
3.397
 21
7.935574440706435
 31
0.0
  0
LINE
  5
64F
330
1F
100
AcDbEntity
  8
Object
100
AcDbLine
 10
3.397
 20
7.935574440706435
 30
0.0
 11
3.323999999999999
 21
7.920574440706435
 31
0.0
  0
LINE
  5
650
330
1F
100
AcDbEntity
  8
Object
100
AcDbLine
 10
3.246999999999999
 20
7.912574440706435
 30
0.0
 11
3.269999999999999
 21
7.914574440706435
 31
0.0
  0
LINE
  5
651
330
1F
100
AcDbEntity
  8
Object
100
AcDbLine
 10
3.179
 20
9.945574440706435
 30
0.0
 11
3.298
 21
9.938574440706435
 31
0.0
  0
LINE
  5
652
330
1F
100
AcDbEntity
  8
Object
100
AcDbLine
 10
3.246999999999999
 20
7.912574440706435
 30
0.0
 11
3.227
 21
7.912574440706435
 31
0.0
  0
LINE
  5
653
330
1F
100
AcDbEntity
  8
Object
100
AcDbLine
 10
3.227
 20
7.912574440706435
 30
0.0
 11
3.213
 21
7.911574440706435
 31
0.0
  0
LINE
  5
654
330
1F
100
AcDbEntity
  8
Object
100
AcDbLine
 10
3.213
 20
7.911574440706435
 30
0.0
 11
3.208
 21
7.912574440706435
 31
0.0
  0
LINE
  5
655
330
1F
100
AcDbEntity
  8
Object
100
AcDbLine
 10
3.208
 20
7.912574440706435
 30
0.0
 11
3.179
 21
7.940574440706435
 31
0.0
  0
LINE
  5
656
330
1F
100
AcDbEntity
  8
Object
100
AcDbLine
 10
3.179
 20
7.940574440706435
 30
0.0
 11
3.302999999999999
 21
7.948574440706435
 31
0.0
  0
LINE
  5
657
330
1F
100
AcDbEntity
  8
Object
100
AcDbLine
 10
4.341
 20
8.974574440706435
 30
0.0
 11
4.341
 21
8.920574440706435
 31
0.0
  0
LINE
  5
658
330
1F
100
AcDbEntity
  8
Object
100
AcDbLine
 10
4.341
 20
8.920574440706435
 30
0.0
 11
4.339
 21
8.867574440706434
 31
0.0
  0
LINE
  5
659
330
1F
100
AcDbEntity
  8
Object
100
AcDbLine
 10
4.331
 20
9.081574440706436
 30
0.0
 11
4.336999999999999
 21
9.028574440706435
 31
0.0
  0
LINE
  5
65A
330
1F
100
AcDbEntity
  8
Object
100
AcDbLine
 10
4.336999999999999
 20
9.028574440706435
 30
0.0
 11
4.341
 21
8.974574440706435
 31
0.0
  0
LINE
  5
65B
330
1F
100
AcDbEntity
  8
Object
100
AcDbLine
 10
4.339
 20
8.867574440706434
 30
0.0
 11
4.333
 21
8.815574440706434
 31
0.0
  0
LINE
  5
65C
330
1F
100
AcDbEntity
  8
Object
100
AcDbLine
 10
4.333
 20
8.815574440706434
 30
0.0
 11
4.323999999999999
 21
8.763574440706435
 31
0.0
  0
LINE
  5
65D
330
1F
100
AcDbEntity
  8
Object
100
AcDbLine
 10
4.331
 20
9.081574440706436
 30
0.0
 11
4.307999999999999
 21
9.184574440706434
 31
0.0
  0
LINE
  5
65E
330
1F
100
AcDbEntity
  8
Object
100
AcDbLine
 10
4.298
 20
8.661574440706434
 30
0.0
 11
4.323999999999999
 21
8.763574440706435
 31
0.0
  0
LINE
  5
65F
330
1F
100
AcDbEntity
  8
Object
100
AcDbLine
 10
4.307999999999999
 20
9.184574440706434
 30
0.0
 11
4.275
 21
9.282574440706435
 31
0.0
  0
LINE
  5
660
330
1F
100
AcDbEntity
  8
Object
100
AcDbLine
 10
4.261
 20
8.566574440706435
 30
0.0
 11
4.298
 21
8.661574440706434
 31
0.0
  0
LINE
  5
661
330
1F
100
AcDbEntity
  8
Object
100
AcDbLine
 10
4.275
 20
9.282574440706435
 30
0.0
 11
4.232999999999999
 21
9.373574440706434
 31
0.0
  0
LINE
  5
662
330
1F
100
AcDbEntity
  8
Object
100
AcDbLine
 10
4.216
 20
8.477574440706435
 30
0.0
 11
4.261
 21
8.566574440706435
 31
0.0
  0
LINE
  5
663
330
1F
100
AcDbEntity
  8
Object
100
AcDbLine
 10
4.232999999999999
 20
9.373574440706434
 30
0.0
 11
4.182
 21
9.458574440706435
 31
0.0
  0
LINE
  5
664
330
1F
100
AcDbEntity
  8
Object
100
AcDbLine
 10
4.043
 20
8.254574440706434
 30
0.0
 11
3.975999999999999
 21
8.193574440706434
 31
0.0
  0
LINE
  5
665
330
1F
100
AcDbEntity
  8
Object
100
AcDbLine
 10
3.975999999999999
 20
8.193574440706434
 30
0.0
 11
3.907
 21
8.140574440706435
 31
0.0
  0
LINE
  5
666
330
1F
100
AcDbEntity
  8
Object
100
AcDbLine
 10
3.931
 20
9.722574440706434
 30
0.0
 11
3.859999999999999
 21
9.772574440706435
 31
0.0
  0
LINE
  5
667
330
1F
100
AcDbEntity
  8
Object
100
AcDbLine
 10
3.685999999999999
 20
8.015574440706435
 30
0.0
 11
3.762
 21
8.051574440706435
 31
0.0
  0
LINE
  5
668
330
1F
100
AcDbEntity
  8
Object
100
AcDbLine
 10
3.634999999999999
 20
9.885574440706434
 30
0.0
 11
3.557
 21
9.913574440706435
 31
0.0
  0
LINE
  5
669
330
1F
100
AcDbEntity
  8
Object
100
AcDbLine
 10
3.179
 20
9.968574440706435
 30
0.0
 11
3.179
 21
9.945574440706435
 31
0.0
  0
LINE
  5
66A
330
1F
100
AcDbEntity
  8
Object
100
AcDbLine
 10
3.179
 20
9.945574440706435
 30
0.0
 11
3.062
 21
9.938574440706435
 31
0.0
  0
LINE
  5
66B
330
1F
100
AcDbEntity
  8
Object
100
AcDbLine
 10
3.062
 20
9.938574440706435
 30
0.0
 11
2.945999999999999
 21
9.918574440706436
 31
0.0
  0
LINE
  5
66C
330
1F
100
AcDbEntity
  8
Object
100
AcDbLine
 10
2.945999999999999
 20
9.918574440706436
 30
0.0
 11
2.833999999999999
 21
9.884574440706435
 31
0.0
  0
LINE
  5
66D
330
1F
100
AcDbEntity
  8
Object
100
AcDbLine
 10
2.833999999999999
 20
9.884574440706435
 30
0.0
 11
2.725999999999999
 21
9.838574440706434
 31
0.0
  0
LINE
  5
66E
330
1F
100
AcDbEntity
  8
Object
100
AcDbLine
 10
2.625
 20
9.779574440706435
 30
0.0
 11
2.531
 21
9.708574440706435
 31
0.0
  0
LINE
  5
66F
330
1F
100
AcDbEntity
  8
Object
100
AcDbLine
 10
2.531
 20
9.708574440706435
 30
0.0
 11
2.445999999999999
 21
9.628574440706435
 31
0.0
  0
LINE
  5
670
330
1F
100
AcDbEntity
  8
Object
100
AcDbLine
 10
2.445999999999999
 20
9.628574440706435
 30
0.0
 11
2.414999999999999
 21
9.628574440706435
 31
0.0
  0
LINE
  5
671
330
1F
100
AcDbEntity
  8
Object
100
AcDbLine
 10
3.932
 20
9.478574440706434
 30
0.0
 11
3.927999999999999
 21
9.482574440706436
 31
0.0
  0
LINE
  5
672
330
1F
100
AcDbEntity
  8
Object
100
AcDbLine
 10
3.927999999999999
 20
9.482574440706436
 30
0.0
 11
3.923
 21
9.483574440706435
 31
0.0
  0
LINE
  5
673
330
1F
100
AcDbEntity
  8
Object
100
AcDbLine
 10
4.176
 20
8.864574440706434
 30
0.0
 11
4.177999999999999
 21
8.989574440706434
 31
0.0
  0
LINE
  5
674
330
1F
100
AcDbEntity
  8
Object
100
AcDbLine
 10
4.177999999999999
 20
8.989574440706434
 30
0.0
 11
4.163999999999999
 21
9.113574440706436
 31
0.0
  0
LINE
  5
675
330
1F
100
AcDbEntity
  8
Object
100
AcDbLine
 10
4.158999999999999
 20
8.741574440706436
 30
0.0
 11
4.176
 21
8.864574440706434
 31
0.0
  0
LINE
  5
676
330
1F
100
AcDbEntity
  8
Object
100
AcDbLine
 10
4.163999999999999
 20
9.113574440706436
 30
0.0
 11
4.134999999999999
 21
9.234574440706435
 31
0.0
  0
LINE
  5
677
330
1F
100
AcDbEntity
  8
Object
100
AcDbLine
 10
4.126999999999999
 20
8.621574440706435
 30
0.0
 11
4.158999999999999
 21
8.741574440706436
 31
0.0
  0
LINE
  5
678
330
1F
100
AcDbEntity
  8
Object
100
AcDbLine
 10
4.134999999999999
 20
9.234574440706435
 30
0.0
 11
4.091
 21
9.350574440706434
 31
0.0
  0
LINE
  5
679
330
1F
100
AcDbEntity
  8
Object
100
AcDbLine
 10
4.126999999999999
 20
8.621574440706435
 30
0.0
 11
4.08
 21
8.505574440706435
 31
0.0
  0
LINE
  5
67A
330
1F
100
AcDbEntity
  8
Object
100
AcDbLine
 10
4.08
 20
8.505574440706435
 30
0.0
 11
4.019
 21
8.397574440706435
 31
0.0
  0
LINE
  5
67B
330
1F
100
AcDbEntity
  8
Object
100
AcDbLine
 10
4.019
 20
8.397574440706435
 30
0.0
 11
3.945
 21
8.297574440706435
 31
0.0
  0
LINE
  5
67C
330
1F
100
AcDbEntity
  8
Object
100
AcDbLine
 10
3.945
 20
8.297574440706435
 30
0.0
 11
3.858999999999999
 21
8.207574440706434
 31
0.0
  0
LINE
  5
67D
330
1F
100
AcDbEntity
  8
Object
100
AcDbLine
 10
3.858999999999999
 20
8.207574440706434
 30
0.0
 11
3.762999999999999
 21
8.128574440706435
 31
0.0
  0
LINE
  5
67E
330
1F
100
AcDbEntity
  8
Object
100
AcDbLine
 10
3.762999999999999
 20
8.128574440706435
 30
0.0
 11
3.657
 21
8.061574440706435
 31
0.0
  0
LINE
  5
67F
330
1F
100
AcDbEntity
  8
Object
100
AcDbLine
 10
3.657
 20
8.061574440706435
 30
0.0
 11
3.544
 21
8.009574440706435
 31
0.0
  0
LINE
  5
680
330
1F
100
AcDbEntity
  8
Object
100
AcDbLine
 10
3.520999999999999
 20
8.086574440706435
 30
0.0
 11
3.410999999999999
 21
8.049574440706436
 31
0.0
  0
LINE
  5
681
330
1F
100
AcDbEntity
  8
Object
100
AcDbLine
 10
3.544
 20
8.009574440706435
 30
0.0
 11
3.426
 21
7.971574440706435
 31
0.0
  0
LINE
  5
682
330
1F
100
AcDbEntity
  8
Object
100
AcDbLine
 10
3.426
 20
7.971574440706435
 30
0.0
 11
3.302999999999999
 21
7.948574440706435
 31
0.0
  0
LINE
  5
683
330
1F
100
AcDbEntity
  8
Object
100
AcDbLine
 10
3.179
 20
8.020574440706436
 30
0.0
 11
3.179
 21
7.940574440706435
 31
0.0
  0
LINE
  5
684
330
1F
100
AcDbEntity
  8
Object
100
AcDbLine
 10
3.874
 20
9.546574440706436
 30
0.0
 11
3.874
 21
9.549574440706436
 31
0.0
  0
LINE
  5
685
330
1F
100
AcDbEntity
  8
Object
100
AcDbLine
 10
3.874
 20
9.549574440706436
 30
0.0
 11
3.873
 21
9.552574440706436
 31
0.0
  0
LINE
  5
686
330
1F
100
AcDbEntity
  8
Object
100
AcDbLine
 10
3.873
 20
9.552574440706436
 30
0.0
 11
3.871
 21
9.554574440706435
 31
0.0
  0
LINE
  5
687
330
1F
100
AcDbEntity
  8
Object
100
AcDbLine
 10
4.057
 20
9.430574440706436
 30
0.0
 11
4.091
 21
9.350574440706434
 31
0.0
  0
LINE
  5
688
330
1F
100
AcDbEntity
  8
Object
100
AcDbLine
 10
4.091
 20
9.350574440706434
 30
0.0
 11
4.003
 21
9.350574440706434
 31
0.0
  0
LINE
  5
689
330
1F
100
AcDbEntity
  8
Object
100
AcDbLine
 10
3.993
 20
9.530574440706434
 30
0.0
 11
4.057
 21
9.430574440706436
 31
0.0
  0
LINE
  5
68A
330
1F
100
AcDbEntity
  8
Object
100
AcDbLine
 10
4.057
 20
9.430574440706436
 30
0.0
 11
3.964
 21
9.430574440706436
 31
0.0
  0
LINE
  5
68B
330
1F
100
AcDbEntity
  8
Object
100
AcDbLine
 10
3.993
 20
9.530574440706434
 30
0.0
 11
3.918
 21
9.622574440706435
 31
0.0
  0
LINE
  5
68C
330
1F
100
AcDbEntity
  8
Object
100
AcDbLine
 10
3.874
 20
9.546574440706436
 30
0.0
 11
3.873
 21
9.543574440706436
 31
0.0
  0
LINE
  5
68D
330
1F
100
AcDbEntity
  8
Object
100
AcDbLine
 10
3.873
 20
9.543574440706436
 30
0.0
 11
3.871
 21
9.541574440706435
 31
0.0
  0
LINE
  5
68E
330
1F
100
AcDbEntity
  8
Object
100
AcDbLine
 10
3.887999999999999
 20
9.483574440706435
 30
0.0
 11
3.923
 21
9.483574440706435
 31
0.0
  0
LINE
  5
68F
330
1F
100
AcDbEntity
  8
Object
100
AcDbLine
 10
3.871
 20
9.541574440706435
 30
0.0
 11
3.868999999999999
 21
9.539574440706434
 31
0.0
  0
LINE
  5
690
330
1F
100
AcDbEntity
  8
Object
100
AcDbLine
 10
3.868999999999999
 20
9.539574440706434
 30
0.0
 11
3.866999999999999
 21
9.538574440706435
 31
0.0
  0
LINE
  5
691
330
1F
100
AcDbEntity
  8
Object
100
AcDbLine
 10
3.866999999999999
 20
9.538574440706435
 30
0.0
 11
3.863999999999999
 21
9.537574440706436
 31
0.0
  0
LINE
  5
692
330
1F
100
AcDbEntity
  8
Object
100
AcDbLine
 10
3.875
 20
9.446574440706434
 30
0.0
 11
3.858999999999999
 21
9.435574440706435
 31
0.0
  0
LINE
  5
693
330
1F
100
AcDbEntity
  8
Object
100
AcDbLine
 10
3.858999999999999
 20
9.435574440706435
 30
0.0
 11
3.839999999999999
 21
9.430574440706436
 31
0.0
  0
LINE
  5
694
330
1F
100
AcDbEntity
  8
Object
100
AcDbLine
 10
3.839999999999999
 20
9.430574440706436
 30
0.0
 11
3.836
 21
9.430574440706436
 31
0.0
  0
LINE
  5
695
330
1F
100
AcDbEntity
  8
Object
100
AcDbLine
 10
3.836
 20
9.430574440706436
 30
0.0
 11
3.817
 21
9.435574440706435
 31
0.0
  0
LINE
  5
696
330
1F
100
AcDbEntity
  8
Object
100
AcDbLine
 10
3.817
 20
9.435574440706435
 30
0.0
 11
3.801
 21
9.446574440706434
 31
0.0
  0
LINE
  5
697
330
1F
100
AcDbEntity
  8
Object
100
AcDbLine
 10
3.875
 20
9.446574440706434
 30
0.0
 11
3.884999999999999
 21
9.463574440706434
 31
0.0
  0
LINE
  5
698
330
1F
100
AcDbEntity
  8
Object
100
AcDbLine
 10
3.918
 20
9.622574440706435
 30
0.0
 11
3.833
 21
9.704574440706435
 31
0.0
  0
LINE
  5
699
330
1F
100
AcDbEntity
  8
Object
100
AcDbLine
 10
3.791
 20
9.463574440706434
 30
0.0
 11
3.801
 21
9.446574440706434
 31
0.0
  0
LINE
  5
69A
330
1F
100
AcDbEntity
  8
Object
100
AcDbLine
 10
3.884999999999999
 20
9.463574440706434
 30
0.0
 11
3.887999999999999
 21
9.483574440706435
 31
0.0
  0
LINE
  5
69B
330
1F
100
AcDbEntity
  8
Object
100
AcDbLine
 10
3.788
 20
9.483574440706435
 30
0.0
 11
3.791
 21
9.463574440706434
 31
0.0
  0
LINE
  5
69C
330
1F
100
AcDbEntity
  8
Object
100
AcDbLine
 10
3.833
 20
9.704574440706435
 30
0.0
 11
3.737999999999999
 21
9.775574440706435
 31
0.0
  0
LINE
  5
69D
330
1F
100
AcDbEntity
  8
Object
100
AcDbLine
 10
3.863999999999999
 20
9.537574440706436
 30
0.0
 11
3.637
 21
9.537574440706436
 31
0.0
  0
LINE
  5
69E
330
1F
100
AcDbEntity
  8
Object
100
AcDbLine
 10
3.788
 20
9.483574440706435
 30
0.0
 11
3.637
 21
9.483574440706435
 31
0.0
  0
LINE
  5
69F
330
1F
100
AcDbEntity
  8
Object
100
AcDbLine
 10
3.637
 20
9.483574440706435
 30
0.0
 11
3.637
 21
9.537574440706436
 31
0.0
  0
LINE
  5
6A0
330
1F
100
AcDbEntity
  8
Object
100
AcDbLine
 10
3.737999999999999
 20
9.775574440706435
 30
0.0
 11
3.636
 21
9.835574440706434
 31
0.0
  0
LINE
  5
6A1
330
1F
100
AcDbEntity
  8
Object
100
AcDbLine
 10
3.636
 20
9.835574440706434
 30
0.0
 11
3.528
 21
9.883574440706436
 31
0.0
  0
LINE
  5
6A2
330
1F
100
AcDbEntity
  8
Object
100
AcDbLine
 10
3.528
 20
9.883574440706436
 30
0.0
 11
3.413999999999999
 21
9.917574440706435
 31
0.0
  0
LINE
  5
6A3
330
1F
100
AcDbEntity
  8
Object
100
AcDbLine
 10
3.413999999999999
 20
9.917574440706435
 30
0.0
 11
3.298
 21
9.938574440706435
 31
0.0
  0
LINE
  5
6A4
330
1F
100
AcDbEntity
  8
Object
100
AcDbLine
 10
2.778
 20
9.774574440706434
 30
0.0
 11
2.775999999999999
 21
9.772574440706435
 31
0.0
  0
LINE
  5
6A5
330
1F
100
AcDbEntity
  8
Object
100
AcDbLine
 10
2.775999999999999
 20
9.772574440706435
 30
0.0
 11
2.774
 21
9.770574440706436
 31
0.0
  0
LINE
  5
6A6
330
1F
100
AcDbEntity
  8
Object
100
AcDbLine
 10
2.774
 20
9.770574440706436
 30
0.0
 11
2.772999999999999
 21
9.767574440706436
 31
0.0
  0
LINE
  5
6A7
330
1F
100
AcDbEntity
  8
Object
100
AcDbLine
 10
2.772
 20
9.765574440706435
 30
0.0
 11
2.772
 21
9.628574440706435
 31
0.0
  0
LINE
  5
6A8
330
1F
100
AcDbEntity
  8
Object
100
AcDbLine
 10
2.772
 20
9.628574440706435
 30
0.0
 11
2.717
 21
9.628574440706435
 31
0.0
  0
LINE
  5
6A9
330
1F
100
AcDbEntity
  8
Object
100
AcDbLine
 10
2.717
 20
9.628574440706435
 30
0.0
 11
2.717
 21
9.724574440706435
 31
0.0
  0
LINE
  5
6AA
330
1F
100
AcDbEntity
  8
Object
100
AcDbLine
 10
2.717
 20
9.724574440706435
 30
0.0
 11
2.717
 21
9.727574440706435
 31
0.0
  0
LINE
  5
6AB
330
1F
100
AcDbEntity
  8
Object
100
AcDbLine
 10
2.717
 20
9.727574440706435
 30
0.0
 11
2.716000000000001
 21
9.729574440706436
 31
0.0
  0
LINE
  5
6AC
330
1F
100
AcDbEntity
  8
Object
100
AcDbLine
 10
2.716000000000001
 20
9.729574440706436
 30
0.0
 11
2.714
 21
9.731574440706435
 31
0.0
  0
LINE
  5
6AD
330
1F
100
AcDbEntity
  8
Object
100
AcDbLine
 10
2.714
 20
9.731574440706435
 30
0.0
 11
2.711999999999999
 21
9.733574440706435
 31
0.0
  0
LINE
  5
6AE
330
1F
100
AcDbEntity
  8
Object
100
AcDbLine
 10
2.772
 20
9.765574440706435
 30
0.0
 11
2.772999999999999
 21
9.767574440706436
 31
0.0
  0
LINE
  5
6AF
330
1F
100
AcDbEntity
  8
Object
100
AcDbLine
 10
2.711999999999999
 20
9.733574440706435
 30
0.0
 11
2.71
 21
9.734574440706435
 31
0.0
  0
LINE
  5
6B0
330
1F
100
AcDbEntity
  8
Object
100
AcDbLine
 10
2.71
 20
9.734574440706435
 30
0.0
 11
2.707
 21
9.734574440706435
 31
0.0
  0
LINE
  5
6B1
330
1F
100
AcDbEntity
  8
Object
100
AcDbLine
 10
2.707
 20
9.734574440706435
 30
0.0
 11
2.705
 21
9.734574440706435
 31
0.0
  0
LINE
  5
6B2
330
1F
100
AcDbEntity
  8
Object
100
AcDbLine
 10
2.705
 20
9.734574440706435
 30
0.0
 11
2.701999999999999
 21
9.733574440706435
 31
0.0
  0
LINE
  5
6B3
330
1F
100
AcDbEntity
  8
Object
100
AcDbLine
 10
2.725999999999999
 20
9.838574440706434
 30
0.0
 11
2.625
 21
9.779574440706435
 31
0.0
  0
LINE
  5
6B4
330
1F
100
AcDbEntity
  8
Object
100
AcDbLine
 10
2.605
 20
9.666574440706435
 30
0.0
 11
2.653
 21
9.701574440706435
 31
0.0
  0
LINE
  5
6B5
330
1F
100
AcDbEntity
  8
Object
100
AcDbLine
 10
2.445999999999999
 20
9.628574440706435
 30
0.0
 11
2.56
 21
9.628574440706435
 31
0.0
  0
LINE
  5
6B6
330
1F
100
AcDbEntity
  8
Object
100
AcDbLine
 10
3.836
 20
9.430574440706436
 30
0.0
 11
3.838
 21
9.430574440706436
 31
0.0
  0
LINE
  5
6B7
330
1F
100
AcDbEntity
  8
Object
100
AcDbLine
 10
2.717
 20
9.628574440706435
 30
0.0
 11
2.772
 21
9.628574440706435
 31
0.0
  0
LINE
  5
6B8
330
1F
100
AcDbEntity
  8
Object
100
AcDbLine
 10
3.838
 20
9.430574440706436
 30
0.0
 11
3.839999999999999
 21
9.430574440706436
 31
0.0
  0
DIMENSION
  5
6BA
102
{ACAD_XDICTIONARY
360
6C9
102
}
102
{ACAD_REACTORS
330
6D4
102
}
330
1F
100
AcDbEntity
  8
Dimension
100
AcDbDimension
  2
*D1
 10
8.332540574440869
 20
9.968574440706435
 30
0.0
 11
8.332540574440868
 21
8.940074440706437
 31
0.0
 70
    32
 71
     5
 42
2.056999999999999
  3
Standard
100
AcDbAlignedDimension
 13
6.217
 23
7.911574440706435
 33
0.0
 14
6.251
 24
9.968574440706435
 34
0.0
 50
90.0
100
AcDbRotatedDimension
  0
DIMENSION
  5
6D7
102
{ACAD_XDICTIONARY
360
6E5
102
}
102
{ACAD_REACTORS
330
6F0
102
}
330
1F
100
AcDbEntity
  8
Dimension
100
AcDbDimension
  2
*D2
 10
7.016
 20
6.673199569765721
 30
0.0
 11
4.715499999999999
 21
6.673199569765721
 31
0.0
 70
    32
 71
     5
 42
4.601
  3
Standard
100
AcDbAlignedDimension
 13
2.414999999999999
 23
4.180574440706434
 33
0.0
 14
7.016
 24
4.180574440706434
 34
0.0
100
AcDbRotatedDimension
  0
DIMENSION
  5
6F2
102
{ACAD_XDICTIONARY
360
700
102
}
102
{ACAD_REACTORS
330
70B
102
}
330
1F
100
AcDbEntity
  8
Dimension
100
AcDbDimension
  2
*D3
 10
10.56856553927548
 20
5.790574440706435
 30
0.0
 11
10.56856553927548
 21
4.941074440706437
 31
0.0
 70
    32
 71
     5
 42
1.698999999999999
  3
Standard
100
AcDbAlignedDimension
 13
11.939
 23
4.091574440706435
 33
0.0
 14
11.965
 24
5.790574440706435
 34
0.0
 50
90.0
100
AcDbRotatedDimension
  0
TEXT
  5
712
330
1F
100
AcDbEntity
  8
Text
100
AcDbText
 10
4.354624313409459
 20
7.327045859854841
 30
0.0
 40
0.125
  1
TOP VIEW
100
AcDbText
  0
TEXT
  5
713
330
1F
100
AcDbEntity
  8
Text
100
AcDbText
 10
4.195442500610568
 20
3.556238059950755
 30
0.0
 40
0.125
  1
FRONT VIEW
100
AcDbText
  0
TEXT
  5
714
330
1F
100
AcDbEntity
  8
Text
100
AcDbText
 10
12.30244591313647
 20
3.554281316067859
 30
0.0
 40
0.125
  1
RIGHT SIDE VIEW
100
AcDbText
  0
TEXT
  5
716
330
1F
100
AcDbEntity
  8
Title Block
100
AcDbText
 10
12.77669501265555
 20
2.672489851525506
 30
0.0
 40
0.05
  1
FILENAME:
100
AcDbText
  0
TEXT
  5
717
330
1F
100
AcDbEntity
  8
Title Block
100
AcDbText
 10
12.76928502872825
 20
2.076224967549324
 30
0.0
 40
0.35
  1
PANDUIT
100
AcDbText
  0
TEXT
  5
718
330
1F
100
AcDbEntity
  8
Title Block
100
AcDbText
 10
14.72182039882138
 20
2.061410940562984
 30
0.0
 40
0.125
  1
CORP. TINLEY PARK, IL
100
AcDbText
  0
TEXT
  5
719
330
1F
100
AcDbEntity
  8
Title Block
100
AcDbText
 10
12.78039997670862
 20
1.916974097093918
 30
0.0
 40
0.05
  1
TITLE:
100
AcDbText
  0
MTEXT
  5
71A
330
1F
100
AcDbEntity
  8
Title Block
100
AcDbMText
 10
14.0
 20
1.372215793536346
 30
0.0
 40
0.075
 41
2.5
 71
     5
 72
     5
  1
UNLESS OTHERWISE SPECIFIED,\PDIMENSIONAL TOLERANCES ARE:       
 73
     1
 44
1.0
1001
ACAD
1000
MTEXTBEGIN
1070
    73
1070
     1
1070
    44
1040
1.0
1070
    74
1070
     0
1000
MTEXTEND
  0
MTEXT
  5
71B
330
1F
100
AcDbEntity
  8
Title Block
100
AcDbMText
 10
13.39237986661002
 20
1.13148770848363
 30
0.0
 40
0.075
 41
2.5
 71
     5
 72
     5
  1
(.X)\P(.XX)
 73
     1
 44
1.0
1001
ACAD
1000
MTEXTBEGIN
1070
    73
1070
     1
1070
    44
1040
1.0
1070
    74
1070
     0
1000
MTEXTEND
  0
MTEXT
  5
71C
330
1F
100
AcDbEntity
  8
Title Block
100
AcDbMText
 10
14.40014005312412
 20
1.13148770848363
 30
0.0
 40
0.075
 41
2.5
 71
     5
 72
     5
  1
(.XXX)\PANGLES:
 73
     1
 44
1.0
1001
ACAD
1000
MTEXTBEGIN
1070
    73
1070
     1
1070
    44
1040
1.0
1070
    74
1070
     0
1000
MTEXTEND
  0
MTEXT
  5
71D
330
1F
100
AcDbEntity
  8
Title Block
100
AcDbMText
 10
16.0
 20
1.249999999999998
 30
0.0
 40
0.06
 41
1.5
 71
     5
 72
     5
  1
UNLESS OTHERWISE SPECIFIED,\PALL DIMENSIONS ARE GIVEN IN INCHES, THIRD ANGLE PROJECTION
 73
     1
 44
1.0
1001
ACAD
1000
MTEXTBEGIN
1070
    73
1070
     1
1070
    44
1040
1.0
1070
    74
1070
     0
1000
MTEXTEND
  0
TEXT
  5
71E
330
1F
100
AcDbEntity
  8
Title Block
100
AcDbText
 10
12.76076445430619
 20
0.9281373372752295
 30
0.0
 40
0.05
  1
DRAWN BY:
100
AcDbText
  0
TEXT
  5
71F
330
1F
100
AcDbEntity
  8
Title Block
100
AcDbText
 10
12.76446947418044
 20
0.681143186563501
 30
0.0
 40
0.05
  1
DATE:
100
AcDbText
  0
TEXT
  5
720
330
1F
100
AcDbEntity
  8
Title Block
100
AcDbText
 10
12.7681744382335
 20
0.430445533831795
 30
0.0
 40
0.05
  1
CHECKED BY:
100
AcDbText
  0
TEXT
  5
721
330
1F
100
AcDbEntity
  8
Title Block
100
AcDbText
 10
13.52028959313307
 20
0.9281373372752295
 30
0.0
 40
0.05
  1
MATERIAL:
100
AcDbText
  0
TEXT
  5
722
330
1F
100
AcDbEntity
  8
Title Block
100
AcDbText
 10
15.26534493878154
 20
0.9281373372752295
 30
0.0
 40
0.05
  1
SCALE:
100
AcDbText
  0
TEXT
  5
723
330
1F
100
AcDbEntity
  8
Title Block
100
AcDbText
 10
15.26534493878154
 20
0.6725952630489989
 30
0.0
 40
0.05
  1
DRAWING NUMBER:
100
AcDbText
  0
TEXT
  5
724
330
1F
100
AcDbEntity
  8
Title Block
100
AcDbText
 10
16.34942622928998
 20
0.6762987650689798
 30
0.0
 40
0.05
  1
DRAWING
100
AcDbText
  0
TEXT
  5
725
330
1F
100
AcDbEntity
  8
Title Block
100
AcDbText
 10
16.42723125590086
 20
0.2811642688682008
 30
0.0
 40
0.05
  1
SIZE
100
AcDbText
  0
TEXT
  5
726
330
1F
100
AcDbEntity
  8
Title Block
100
AcDbText
 10
16.40622108086223
 20
0.3826699445861035
 30
0.0
 40
0.25
  1
B
100
AcDbText
  0
MTEXT
  5
727
330
1F
100
AcDbEntity
  8
Title Block
100
AcDbMText
 10
6.375000000000003
 20
0.3749999999999982
 30
0.0
 40
0.05
 41
0.25
 71
     5
 72
     5
  1
REV
 73
     1
 44
1.0
1001
ACAD
1000
MTEXTBEGIN
1070
    73
1070
     1
1070
    44
1040
1.0
1070
    74
1070
     0
1000
MTEXTEND
  0
MTEXT
  5
728
330
1F
100
AcDbEntity
  8
Title Block
100
AcDbMText
 10
6.750000000000003
 20
0.3749999999999982
 30
0.0
 40
0.05
 41
0.5
 71
     5
 72
     5
  1
DATE
 73
     1
 44
1.0
1001
ACAD
1000
MTEXTBEGIN
1070
    73
1070
     1
1070
    44
1040
1.0
1070
    74
1070
     0
1000
MTEXTEND
  0
MTEXT
  5
729
330
1F
100
AcDbEntity
  8
Title Block
100
AcDbMText
 10
7.190000000000003
 20
0.3749999999999982
 30
0.0
 40
0.05
 41
0.38
 71
     5
 72
     5
  1
BY
 73
     1
 44
1.0
1001
ACAD
1000
MTEXTBEGIN
1070
    73
1070
     1
1070
    44
1040
1.0
1070
    74
1070
     0
1000
MTEXTEND
  0
MTEXT
  5
72A
330
1F
100
AcDbEntity
  8
Title Block
100
AcDbMText
 10
7.565000000000003
 20
0.3749999999999982
 30
0.0
 40
0.05
 41
0.38
 71
     5
 72
     5
  1
CHK
 73
     1
 44
1.0
1001
ACAD
1000
MTEXTBEGIN
1070
    73
1070
     1
1070
    44
1040
1.0
1070
    74
1070
     0
1000
MTEXTEND
  0
MTEXT
  5
72B
330
1F
100
AcDbEntity
  8
Title Block
100
AcDbMText
 10
9.125000000000003
 20
0.3749999999999982
 30
0.0
 40
0.05
 41
2.75
 71
     5
 72
     5
  1
DESCRIPTION
 73
     1
 44
1.0
1001
ACAD
1000
MTEXTBEGIN
1070
    73
1070
     1
1070
    44
1040
1.0
1070
    74
1070
     0
1000
MTEXTEND
  0
MTEXT
  5
72C
330
1F
100
AcDbEntity
  8
Title Block
100
AcDbMText
 10
11.065
 20
0.3749999999999982
 30
0.0
 40
0.05
 41
1.129999999999999
 71
     5
 72
     5
  1
ECN   -   R
 73
     1
 44
1.0
1001
ACAD
1000
MTEXTBEGIN
1070
    73
1070
     1
1070
    44
1040
1.0
1070
    74
1070
     0
1000
MTEXTEND
  0
MTEXT
  5
72D
330
1F
100
AcDbEntity
  8
Title Block
100
AcDbMText
 10
11.815
 20
0.3749999999999982
 30
0.0
 40
0.05
 41
0.38
 71
     5
 72
     5
  1
CUST
 73
     1
 44
1.0
1001
ACAD
1000
MTEXTBEGIN
1070
    73
1070
     1
1070
    44
1040
1.0
1070
    74
1070
     0
1000
MTEXTEND
  0
MTEXT
  5
72E
330
1F
100
AcDbEntity
  8
Title Block
100
AcDbMText
 10
12.19
 20
0.3749999999999982
 30
0.0
 40
0.05
 41
0.38
 71
     5
 72
     5
  1
SUP
 73
     1
 44
1.0
1001
ACAD
1000
MTEXTBEGIN
1070
    73
1070
     1
1070
    44
1040
1.0
1070
    74
1070
     0
1000
MTEXTEND
  0
LINE
  5
72F
330
1F
100
AcDbEntity
  8
Title Block
100
AcDbLine
 10
16.75
 20
2.749999999999997
 30
0.0
 11
6.250000000000003
 21
2.749999999999999
 31
0.0
  0
LINE
  5
730
330
1F
100
AcDbEntity
  8
Title Block
100
AcDbLine
 10
12.75
 20
2.749999999999998
 30
0.0
 11
12.75
 21
0.2499999999999982
 31
0.0
  0
LINE
  5
731
330
1F
100
AcDbEntity
  8
Title Block
100
AcDbLine
 10
16.75
 20
2.499999999999997
 30
0.0
 11
6.250000000000003
 21
2.499999999999999
 31
0.0
  0
LINE
  5
732
330
1F
100
AcDbEntity
  8
Title Block
100
AcDbLine
 10
12.75
 20
2.249999999999998
 30
0.0
 11
6.250000000000003
 21
2.249999999999999
 31
0.0
  0
LINE
  5
733
330
1F
100
AcDbEntity
  8
Title Block
100
AcDbLine
 10
16.75
 20
1.999999999999997
 30
0.0
 11
6.250000000000003
 21
1.999999999999999
 31
0.0
  0
LINE
  5
734
330
1F
100
AcDbEntity
  8
Title Block
100
AcDbLine
 10
12.75
 20
1.749999999999998
 30
0.0
 11
6.250000000000003
 21
1.749999999999999
 31
0.0
  0
LINE
  5
735
330
1F
100
AcDbEntity
  8
Title Block
100
AcDbLine
 10
16.75
 20
1.499999999999997
 30
0.0
 11
6.250000000000003
 21
1.499999999999999
 31
0.0
  0
LINE
  5
736
330
1F
100
AcDbEntity
  8
Title Block
100
AcDbLine
 10
12.75
 20
1.249999999999998
 30
0.0
 11
6.250000000000003
 21
1.249999999999999
 31
0.0
  0
LINE
  5
737
330
1F
100
AcDbEntity
  8
Title Block
100
AcDbLine
 10
16.75
 20
0.9999999999999978
 30
0.0
 11
6.250000000000003
 21
0.9999999999999991
 31
0.0
  0
LINE
  5
738
330
1F
100
AcDbEntity
  8
Title Block
100
AcDbLine
 10
13.5
 20
0.7499999999999983
 30
0.0
 11
6.250000000000003
 21
0.7499999999999992
 31
0.0
  0
LINE
  5
739
330
1F
100
AcDbEntity
  8
Title Block
100
AcDbLine
 10
13.5
 20
0.4999999999999983
 30
0.0
 11
6.250000000000003
 21
0.4999999999999992
 31
0.0
  0
LINE
  5
73A
330
1F
100
AcDbEntity
  8
Title Block
100
AcDbLine
 10
6.250000000000003
 20
0.2499999999999982
 30
0.0
 11
6.250000000000003
 21
2.749999999999999
 31
0.0
  0
LINE
  5
73B
330
1F
100
AcDbEntity
  8
Title Block
100
AcDbLine
 10
6.500000000000003
 20
0.2499999999999982
 30
0.0
 11
6.500000000000003
 21
2.75
 31
0.0
  0
LINE
  5
73C
330
1F
100
AcDbEntity
  8
Title Block
100
AcDbLine
 10
7.000000000000003
 20
0.2499999999999982
 30
0.0
 11
7.000000000000003
 21
2.75
 31
0.0
  0
LINE
  5
73D
330
1F
100
AcDbEntity
  8
Title Block
100
AcDbLine
 10
7.375000000000003
 20
0.2499999999999982
 30
0.0
 11
7.375000000000003
 21
2.75
 31
0.0
  0
LINE
  5
73E
330
1F
100
AcDbEntity
  8
Title Block
100
AcDbLine
 10
7.750000000000003
 20
0.2499999999999982
 30
0.0
 11
7.750000000000003
 21
2.75
 31
0.0
  0
LINE
  5
73F
330
1F
100
AcDbEntity
  8
Title Block
100
AcDbLine
 10
12.375
 20
2.749999999999998
 30
0.0
 11
12.375
 21
0.2499999999999982
 31
0.0
  0
LINE
  5
740
330
1F
100
AcDbEntity
  8
Title Block
100
AcDbLine
 10
12.0
 20
2.749999999999998
 30
0.0
 11
12.0
 21
0.2499999999999982
 31
0.0
  0
LINE
  5
741
330
1F
100
AcDbEntity
  8
Title Block
100
AcDbLine
 10
11.625
 20
2.749999999999998
 30
0.0
 11
11.625
 21
0.2499999999999982
 31
0.0
  0
LINE
  5
742
330
1F
100
AcDbEntity
  8
Title Block
100
AcDbLine
 10
11.25
 20
2.749999999999998
 30
0.0
 11
11.25
 21
0.4999999999999984
 31
0.0
  0
LINE
  5
743
330
1F
100
AcDbEntity
  8
Title Block
100
AcDbLine
 10
10.5
 20
2.749999999999998
 30
0.0
 11
10.5
 21
0.2499999999999982
 31
0.0
  0
LINE
  5
744
330
1F
100
AcDbEntity
  8
Title Block
100
AcDbLine
 10
15.25
 20
0.7499999999999983
 30
0.0
 11
15.25
 21
1.499999999999997
 31
0.0
  0
LINE
  5
745
330
1F
100
AcDbEntity
  8
Title Block
100
AcDbLine
 10
15.25
 20
0.7499999999999983
 30
0.0
 11
15.25
 21
0.2499999999999982
 31
0.0
  0
LINE
  5
746
330
1F
100
AcDbEntity
  8
Title Block
100
AcDbLine
 10
15.25
 20
0.7499999999999983
 30
0.0
 11
16.75
 21
0.7499999999999983
 31
0.0
  0
LINE
  5
747
330
1F
100
AcDbEntity
  8
Title Block
100
AcDbLine
 10
13.5
 20
0.4999999999999983
 30
0.0
 11
13.5
 21
0.2499999999999982
 31
0.0
  0
LINE
  5
748
330
1F
100
AcDbEntity
  8
Title Block
100
AcDbLine
 10
13.5
 20
0.4999999999999983
 30
0.0
 11
13.5
 21
0.9999999999999982
 31
0.0
  0
LINE
  5
749
330
1F
100
AcDbEntity
  8
Title Block
100
AcDbLine
 10
16.25
 20
0.7499999999999983
 30
0.0
 11
16.25
 21
0.2499999999999982
 31
0.0
  0
LWPOLYLINE
  5
74A
330
1F
100
AcDbEntity
  8
Title Block
100
AcDbPolyline
 90
        5
 70
     0
 43
0.01
 10
16.75
 20
0.2499999999999982
 10
16.75
 20
10.75
 10
0.2500000000000035
 20
10.75
 10
0.25
 20
0.25
 10
16.75
 20
0.2499999999999982
  0
POINT
  5
74B
330
1F
100
AcDbEntity
  8
Title Block
100
AcDbPoint
 10
17.0
 20
-0.0000000000000018
 30
0.0
  0
POINT
  5
74C
330
1F
100
AcDbEntity
  8
Title Block
100
AcDbPoint
 10
0.0
 20
0.0
 30
0.0
  0
POINT
  5
74D
330
1F
100
AcDbEntity
  8
Title Block
100
AcDbPoint
 10
0.0000000000000036
 20
11.0
 30
0.0
  0
POINT
  5
74E
330
1F
100
AcDbEntity
  8
Title Block
100
AcDbPoint
 10
17.0
 20
11.0
 30
0.0
  0
MTEXT
  5
74F
330
1F
100
AcDbEntity
  8
Text
100
AcDbMText
 10
6.376628153647693
 20
0.6232951697642469
 30
0.0
 40
0.09
 41
0.25
 71
     5
 72
     5
  1
R
 73
     1
 44
1.0
1001
ACAD
1000
MTEXTBEGIN
1070
    73
1070
     1
1070
    44
1040
1.0
1070
    74
1070
     0
1000
MTEXTEND
  0
MTEXT
  5
750
330
1F
100
AcDbEntity
  8
Text
100
AcDbMText
 10
6.751628153647693
 20
0.6232951697642469
 30
0.0
 40
0.07
 41
0.5
 71
     5
 72
     5
  1
10-18-05
 73
     1
 44
1.0
1001
ACAD
1000
MTEXTBEGIN
1070
    73
1070
     1
1070
    44
1040
1.0
1070
    74
1070
     0
1000
MTEXTEND
  0
MTEXT
  5
751
330
1F
100
AcDbEntity
  8
Text
100
AcDbMText
 10
7.189128153647693
 20
0.6232951697642469
 30
0.0
 40
0.09
 41
0.375
 71
     5
 72
     5
  1
MSO
 73
     1
 44
1.0
1001
ACAD
1000
MTEXTBEGIN
1070
    73
1070
     1
1070
    44
1040
1.0
1070
    74
1070
     0
1000
MTEXTEND
  0
MTEXT
  5
752
330
1F
100
AcDbEntity
  8
Text
100
AcDbMText
 10
7.564128153647693
 20
0.6232951697642469
 30
0.0
 40
0.07
 41
0.375
 71
     5
 72
     5
  1
DJWA
 73
     1
 44
1.0
1001
ACAD
1000
MTEXTBEGIN
1070
    73
1070
     1
1070
    44
1040
1.0
1070
    74
1070
     0
1000
MTEXTEND
  0
MTEXT
  5
753
330
1F
100
AcDbEntity
  8
Text
100
AcDbMText
 10
9.126628153647693
 20
0.6232951697642464
 30
0.0
 40
0.09
 41
2.75
 71
     5
 72
     5
  1
DRAWING RELEASED
 73
     1
 44
1.0
1001
ACAD
1000
MTEXTBEGIN
1070
    73
1070
     1
1070
    44
1040
1.0
1070
    74
1070
     0
1000
MTEXTEND
  0
MTEXT
  5
756
330
1F
100
AcDbEntity
  8
Text
100
AcDbMText
 10
13.47662815364769
 20
0.8482951697642459
 30
0.0
 40
0.09
 41
0.75
 71
     6
 72
     5
  1
MSO
 73
     1
 44
1.0
1001
ACAD
1000
MTEXTBEGIN
1070
    73
1070
     1
1070
    44
1040
1.0
1070
    74
1070
     0
1000
MTEXTEND
  0
MTEXT
  5
757
330
1F
100
AcDbEntity
  8
Text
100
AcDbMText
 10
13.47662815364769
 20
0.5982951697642458
 30
0.0
 40
0.09
 41
0.75
 71
     6
 72
     5
  1
10-18-05
 73
     1
 44
1.0
1001
ACAD
1000
MTEXTBEGIN
1070
    73
1070
     1
1070
    44
1040
1.0
1070
    74
1070
     0
1000
MTEXTEND
  0
MTEXT
  5
758
330
1F
100
AcDbEntity
  8
Text
100
AcDbMText
 10
13.47662815364769
 20
0.348295169764246
 30
0.0
 40
0.09
 41
0.75
 71
     6
 72
     5
  1
DJWA
 73
     1
 44
1.0
1001
ACAD
1000
MTEXTBEGIN
1070
    73
1070
     1
1070
    44
1040
1.0
1070
    74
1070
     0
1000
MTEXTEND
  0
MTEXT
  5
759
330
1F
100
AcDbEntity
  8
Text
100
AcDbMText
 10
14.75162815364769
 20
2.623295169764245
 30
0.0
 40
0.09
 41
4.0
 71
     5
 72
     5
  1
TRC2HDBL.dwg
 73
     1
 44
1.0
1001
ACAD
1000
MTEXTBEGIN
1070
    73
1070
     1
1070
    44
1040
1.0
1070
    74
1070
     0
1000
MTEXTEND
  0
MTEXT
  5
75A
330
1F
100
AcDbEntity
  8
Text
100
AcDbMText
 10
14.75451196692409
 20
1.719468490203096
 30
0.0
 40
0.07
 41
4.0
 71
     5
 72
     5
  1
{\H1.286x;PANDUCT TYPES H AND HS 2x2 HINGED WIRING DUCT AND FIBERRUNNER 2x2 BEND RADIUS CONTROL TRUMPET (TRC2HDBL)\P}MARKETING DRAWING
 73
     1
 44
1.0
1001
ACAD
1000
MTEXTBEGIN
1070
    73
1070
     1
1070
    44
1040
1.0
1070
    74
1070
     0
1000
MTEXTEND
  0
MTEXT
  5
75B
330
1F
100
AcDbEntity
  8
Text
100
AcDbMText
 10
16.00162815364769
 20
0.8732951697642457
 30
0.0
 40
0.12
 41
1.5
 71
     5
 72
     5
  1
FULL
 73
     1
 44
1.0
1001
ACAD
1000
MTEXTBEGIN
1070
    73
1070
     1
1070
    44
1040
1.0
1070
    74
1070
     0
1000
MTEXTEND
  0
MTEXT
  5
75C
330
1F
100
AcDbEntity
  8
Text
100
AcDbMText
 10
15.75162815364769
 20
0.498295169764246
 30
0.0
 40
0.12
 41
1.0
 71
     5
 72
     5
  1
36897-1082
 73
     1
 44
1.0
1001
ACAD
1000
MTEXTBEGIN
1070
    73
1070
     1
1070
    44
1040
1.0
1070
    74
1070
     0
1000
MTEXTEND
  0
MTEXT
  5
780
330
1F
100
AcDbEntity
  8
Text
100
AcDbMText
 10
6.376628153647693
 20
0.8732951697642468
 30
0.0
 40
0.09
 41
0.25
 71
     5
 72
     5
  1
1
 73
     1
 44
1.0
1001
ACAD
1000
MTEXTBEGIN
1070
    73
1070
     1
1070
    44
1040
1.0
1070
    74
1070
     0
1000
MTEXTEND
  0
MTEXT
  5
781
330
1F
100
AcDbEntity
  8
Text
100
AcDbMText
 10
6.751628153647693
 20
0.8732951697642468
 30
0.0
 40
0.07
 41
0.5
 71
     5
 72
     5
  1
6-6-07
 73
     1
 44
1.0
1001
ACAD
1000
MTEXTBEGIN
1070
    73
1070
     1
1070
    44
1040
1.0
1070
    74
1070
     0
1000
MTEXTEND
  0
MTEXT
  5
782
330
1F
100
AcDbEntity
  8
Text
100
AcDbMText
 10
7.189128153647693
 20
0.8732951697642468
 30
0.0
 40
0.09
 41
0.375
 71
     5
 72
     5
  1
DTP
 73
     1
 44
1.0
1001
ACAD
1000
MTEXTBEGIN
1070
    73
1070
     1
1070
    44
1040
1.0
1070
    74
1070
     0
1000
MTEXTEND
  0
MTEXT
  5
783
330
1F
100
AcDbEntity
  8
Text
100
AcDbMText
 10
7.564128153647693
 20
0.8732951697642468
 30
0.0
 40
0.07
 41
0.375
 71
     5
 72
     5
  1
DJWA
 73
     1
 44
1.0
1001
ACAD
1000
MTEXTBEGIN
1070
    73
1070
     1
1070
    44
1040
1.0
1070
    74
1070
     0
1000
MTEXTEND
  0
MTEXT
  5
784
330
1F
100
AcDbEntity
  8
Text
100
AcDbMText
 10
7.776628153647694
 20
0.8732951697642462
 30
0.0
 40
0.07
 41
2.75
 71
     4
 72
     5
  1
A. REVISED DRAWING TITLE
 73
     1
 44
1.0
1001
ACAD
1000
MTEXTBEGIN
1070
    73
1070
     1
1070
    44
1040
1.0
1070
    74
1070
     0
1000
MTEXTEND
  0
LINE
  5
785
330
1F
100
AcDbEntity
  8
Text
100
AcDbLine
 10
12.77569174464548
 20
1.327313396286971
 30
0.0
 11
12.92569174464548
 21
1.587121017422302
 31
0.0
  0
LINE
  5
786
330
1F
100
AcDbEntity
  8
Text
100
AcDbLine
 10
12.92569174464548
 20
1.587121017422302
 30
0.0
 11
13.07569174464547
 21
1.32731339628697
 31
0.0
  0
LINE
  5
787
330
1F
100
AcDbEntity
  8
Text
100
AcDbLine
 10
13.07569174464547
 20
1.32731339628697
 30
0.0
 11
12.77569174464548
 21
1.327313396286971
 31
0.0
  0
TEXT
  5
788
330
1F
100
AcDbEntity
  8
Text
100
AcDbText
 10
12.88404004907572
 20
1.378033237164544
 30
0.0
 40
0.09
  1
A
100
AcDbText
  0
ENDSEC
  0
SECTION
  2
OBJECTS
  0
DICTIONARY
  5
C
330
0
100
AcDbDictionary
281
     1
  3
ACAD_COLOR
350
73
  3
ACAD_GROUP
350
D
  3
ACAD_LAYOUT
350
1A
  3
ACAD_MATERIAL
350
72
  3
ACAD_MLINESTYLE
350
17
  3
ACAD_PLOTSETTINGS
350
19
  3
ACAD_PLOTSTYLENAME
350
E
  3
ACAD_TABLESTYLE
350
86
  3
ACDBHEADERROUNDTRIPXREC
350
7AB
  3
AcDbVariableDictionary
350
66
  0
DICTIONARY
  5
75E
330
1F
100
AcDbDictionary
280
     1
281
     1
  3
ACAD_SORTENTS
360
75F
  0
DICTIONARY
  5
6C9
330
6BA
100
AcDbDictionary
280
     1
281
     1
  3
ACAD_DIMASSOC
360
6D4
  0
DICTIONARY
  5
6E5
330
6D7
100
AcDbDictionary
280
     1
281
     1
  3
ACAD_DIMASSOC
360
6F0
  0
DICTIONARY
  5
700
330
6F2
100
AcDbDictionary
280
     1
281
     1
  3
ACAD_DIMASSOC
360
70B
  0
DICTIONARY
  5
73
102
{ACAD_REACTORS
330
C
102
}
330
C
100
AcDbDictionary
281
     1
  0
DICTIONARY
  5
D
102
{ACAD_REACTORS
330
C
102
}
330
C
100
AcDbDictionary
281
     1
  0
DICTIONARY
  5
1A
102
{ACAD_REACTORS
330
C
102
}
330
C
100
AcDbDictionary
281
     1
  3
Layout1
350
59
  3
Layout2
350
5E
  3
Model
350
22
  0
DICTIONARY
  5
72
102
{ACAD_REACTORS
330
C
102
}
330
C
100
AcDbDictionary
281
     1
  0
DICTIONARY
  5
17
102
{ACAD_REACTORS
330
C
102
}
330
C
100
AcDbDictionary
281
     1
  3
Standard
350
18
  0
DICTIONARY
  5
19
102
{ACAD_REACTORS
330
C
102
}
330
C
100
AcDbDictionary
281
     1
  0
ACDBDICTIONARYWDFLT
  5
E
102
{ACAD_REACTORS
330
C
102
}
330
C
100
AcDbDictionary
281
     1
  3
Normal
350
F
100
AcDbDictionaryWithDefault
340
F
  0
DICTIONARY
  5
86
102
{ACAD_REACTORS
330
C
102
}
330
C
100
AcDbDictionary
281
     1
  3
Standard
350
87
  0
DICTIONARY
  5
7AB
102
{ACAD_REACTORS
330
C
102
}
330
C
100
AcDbDictionary
281
     1
  0
DICTIONARY
  5
66
102
{ACAD_REACTORS
330
C
102
}
330
C
100
AcDbDictionary
281
     1
  3
CTABLESTYLE
350
710
  3
DIMASSOC
350
67
  3
HIDETEXT
350
6B
  3
PROJECTNAME
350
7A9
  0
SORTENTSTABLE
  5
75F
102
{ACAD_REACTORS
330
75E
102
}
330
75E
100
AcDbSortentsTable
330
1F
331
595
  5
595
331
557
  5
557
331
502
  5
502
331
4E3
  5
4E3
331
46F
  5
46F
331
48E
  5
48E
331
4C4
  5
4C4
331
538
  5
538
331
576
  5
576
331
577
  5
577
331
539
  5
539
331
503
  5
503
331
4C5
  5
4C5
331
48F
  5
48F
331
4E4
  5
4E4
331
558
  5
558
331
596
  5
596
331
597
  5
597
331
559
  5
559
331
504
  5
504
331
4C6
  5
4C6
331
4E5
  5
4E5
331
53A
  5
53A
331
578
  5
578
331
579
  5
579
331
53B
  5
53B
331
505
  5
505
331
4C7
  5
4C7
331
4E6
  5
4E6
331
55A
  5
55A
331
1D8
  5
1D8
331
55B
  5
55B
331
506
  5
506
331
4E7
  5
4E7
331
53C
  5
53C
331
57A
  5
57A
331
1F8
  5
1F8
331
1D9
  5
1D9
331
57B
  5
57B
331
53D
  5
53D
331
507
  5
507
331
55C
  5
55C
331
218
  5
218
331
1DA
  5
1DA
331
1F9
  5
1F9
331
55D
  5
55D
331
53E
  5
53E
331
57C
  5
57C
331
238
  5
238
331
1FA
  5
1FA
331
1DB
  5
1DB
331
219
  5
219
331
57D
  5
57D
331
53F
  5
53F
331
55E
  5
55E
331
21A
  5
21A
331
1DC
  5
1DC
331
1FB
  5
1FB
331
239
  5
239
331
250
  5
250
331
55F
  5
55F
331
57E
  5
57E
331
23A
  5
23A
331
1FC
  5
1FC
331
1DD
  5
1DD
331
21B
  5
21B
331
251
  5
251
331
270
  5
270
331
57F
  5
57F
331
271
  5
271
331
21C
  5
21C
331
1DE
  5
1DE
331
1FD
  5
1FD
331
23B
  5
23B
331
252
  5
252
331
290
  5
290
331
291
  5
291
331
23C
  5
23C
331
1FE
  5
1FE
331
1DF
  5
1DF
331
21D
  5
21D
331
253
  5
253
331
272
  5
272
331
2B0
  5
2B0
331
2B1
  5
2B1
331
254
  5
254
331
21E
  5
21E
331
1E0
  5
1E0
331
1FF
  5
1FF
331
23D
  5
23D
331
273
  5
273
331
292
  5
292
331
2C8
  5
2C8
331
598
  5
598
331
2C9
  5
2C9
331
293
  5
293
331
23E
  5
23E
331
200
  5
200
331
1E1
  5
1E1
331
21F
  5
21F
331
255
  5
255
331
274
  5
274
331
2B2
  5
2B2
331
2E8
  5
2E8
331
599
  5
599
331
5B8
  5
5B8
331
2E9
  5
2E9
331
294
  5
294
331
256
  5
256
331
220
  5
220
331
1E2
  5
1E2
331
201
  5
201
331
23F
  5
23F
331
275
  5
275
331
2B3
  5
2B3
331
2CA
  5
2CA
331
308
  5
308
331
5B9
  5
5B9
331
59A
  5
59A
331
5D8
  5
5D8
331
309
  5
309
331
2CB
  5
2CB
331
276
  5
276
331
221
  5
221
331
202
  5
202
331
1E3
  5
1E3
331
240
  5
240
331
257
  5
257
331
295
  5
295
331
2B4
  5
2B4
331
2EA
  5
2EA
331
328
  5
328
331
5D9
  5
5D9
331
59B
  5
59B
331
5BA
  5
5BA
331
5F8
  5
5F8
331
329
  5
329
331
2EB
  5
2EB
331
296
  5
296
331
258
  5
258
331
222
  5
222
331
1E4
  5
1E4
331
203
  5
203
331
241
  5
241
331
277
  5
277
331
2B5
  5
2B5
331
2CC
  5
2CC
331
30A
  5
30A
331
340
  5
340
331
5F9
  5
5F9
331
5BB
  5
5BB
331
59C
  5
59C
331
5DA
  5
5DA
331
610
  5
610
331
360
  5
360
331
30B
  5
30B
331
2B6
  5
2B6
331
278
  5
278
331
223
  5
223
331
1E5
  5
1E5
331
204
  5
204
331
242
  5
242
331
259
  5
259
331
297
  5
297
331
2CD
  5
2CD
331
2EC
  5
2EC
331
32A
  5
32A
331
341
  5
341
331
630
  5
630
331
5DB
  5
5DB
331
59D
  5
59D
331
5BC
  5
5BC
331
5FA
  5
5FA
331
611
  5
611
331
380
  5
380
331
32B
  5
32B
331
2ED
  5
2ED
331
298
  5
298
331
243
  5
243
331
224
  5
224
331
1E6
  5
1E6
331
205
  5
205
331
25A
  5
25A
331
279
  5
279
331
2B7
  5
2B7
331
2CE
  5
2CE
331
30C
  5
30C
331
342
  5
342
331
361
  5
361
331
650
  5
650
331
5FB
  5
5FB
331
5BD
  5
5BD
331
59E
  5
59E
331
5DC
  5
5DC
331
612
  5
612
331
631
  5
631
331
3A0
  5
3A0
331
362
  5
362
331
30D
  5
30D
331
2B8
  5
2B8
331
27A
  5
27A
331
225
  5
225
331
1E7
  5
1E7
331
206
  5
206
331
244
  5
244
331
25B
  5
25B
331
299
  5
299
331
2CF
  5
2CF
331
2EE
  5
2EE
331
32C
  5
32C
331
343
  5
343
331
381
  5
381
331
651
  5
651
331
613
  5
613
331
5DD
  5
5DD
331
59F
  5
59F
331
5BE
  5
5BE
331
5FC
  5
5FC
331
632
  5
632
331
670
  5
670
331
382
  5
382
331
32D
  5
32D
331
2EF
  5
2EF
331
29A
  5
29A
331
245
  5
245
331
207
  5
207
331
1E8
  5
1E8
331
226
  5
226
331
25C
  5
25C
331
27B
  5
27B
331
2B9
  5
2B9
331
2D0
  5
2D0
331
30E
  5
30E
331
344
  5
344
331
363
  5
363
331
3A1
  5
3A1
331
671
  5
671
331
652
  5
652
331
5FD
  5
5FD
331
5BF
  5
5BF
331
5A0
  5
5A0
331
5DE
  5
5DE
331
614
  5
614
331
633
  5
633
331
688
  5
688
331
383
  5
383
331
364
  5
364
331
30F
  5
30F
331
2BA
  5
2BA
331
27C
  5
27C
331
227
  5
227
331
1E9
  5
1E9
331
208
  5
208
331
246
  5
246
331
25D
  5
25D
331
29B
  5
29B
331
2D1
  5
2D1
331
2F0
  5
2F0
331
32E
  5
32E
331
345
  5
345
331
3A2
  5
3A2
331
6A8
  5
6A8
331
653
  5
653
331
615
  5
615
331
5DF
  5
5DF
331
5A1
  5
5A1
331
5C0
  5
5C0
331
5FE
  5
5FE
331
634
  5
634
331
672
  5
672
331
689
  5
689
331
384
  5
384
331
32F
  5
32F
331
2F1
  5
2F1
331
29C
  5
29C
331
247
  5
247
331
209
  5
209
331
1EA
  5
1EA
331
228
  5
228
331
25E
  5
25E
331
27D
  5
27D
331
2BB
  5
2BB
331
2D2
  5
2D2
331
310
  5
310
331
346
  5
346
331
365
  5
365
331
3A3
  5
3A3
331
673
  5
673
331
635
  5
635
331
5E0
  5
5E0
331
5C1
  5
5C1
331
5A2
  5
5A2
331
5FF
  5
5FF
331
616
  5
616
331
654
  5
654
331
68A
  5
68A
331
6A9
  5
6A9
331
2BC
  5
2BC
331
27E
  5
27E
331
229
  5
229
331
1EB
  5
1EB
331
20A
  5
20A
331
248
  5
248
331
25F
  5
25F
331
29D
  5
29D
331
2D3
  5
2D3
331
2F2
  5
2F2
331
311
  5
311
331
330
  5
330
331
347
  5
347
331
366
  5
366
331
385
  5
385
331
3A4
  5
3A4
331
6AA
  5
6AA
331
655
  5
655
331
617
  5
617
331
5E1
  5
5E1
331
5A3
  5
5A3
331
5C2
  5
5C2
331
600
  5
600
331
636
  5
636
331
674
  5
674
331
68B
  5
68B
331
29E
  5
29E
331
249
  5
249
331
20B
  5
20B
331
1EC
  5
1EC
331
22A
  5
22A
331
260
  5
260
331
27F
  5
27F
331
2BD
  5
2BD
331
2D4
  5
2D4
331
2F3
  5
2F3
331
312
  5
312
331
331
  5
331
331
348
  5
348
331
367
  5
367
331
386
  5
386
331
3A5
  5
3A5
331
675
  5
675
331
637
  5
637
331
5E2
  5
5E2
331
5A4
  5
5A4
331
5C3
  5
5C3
331
601
  5
601
331
618
  5
618
331
656
  5
656
331
68C
  5
68C
331
6AB
  5
6AB
331
2BE
  5
2BE
331
280
  5
280
331
22B
  5
22B
331
1ED
  5
1ED
331
20C
  5
20C
331
24A
  5
24A
331
261
  5
261
331
29F
  5
29F
331
2D5
  5
2D5
331
2F4
  5
2F4
331
313
  5
313
331
332
  5
332
331
349
  5
349
331
368
  5
368
331
387
  5
387
331
3A6
  5
3A6
331
720
  5
720
331
6AC
  5
6AC
331
657
  5
657
331
602
  5
602
331
5E3
  5
5E3
331
5A5
  5
5A5
331
5C4
  5
5C4
331
619
  5
619
331
638
  5
638
331
676
  5
676
331
68D
  5
68D
331
2A0
  5
2A0
331
24B
  5
24B
331
20D
  5
20D
331
1EE
  5
1EE
331
22C
  5
22C
331
262
  5
262
331
281
  5
281
331
2BF
  5
2BF
331
2D6
  5
2D6
331
2F5
  5
2F5
331
314
  5
314
331
333
  5
333
331
34A
  5
34A
331
369
  5
369
331
388
  5
388
331
3A7
  5
3A7
331
740
  5
740
331
721
  5
721
331
677
  5
677
331
639
  5
639
331
5E4
  5
5E4
331
5A6
  5
5A6
331
5C5
  5
5C5
331
603
  5
603
331
61A
  5
61A
331
658
  5
658
331
68E
  5
68E
331
6AD
  5
6AD
331
2C0
  5
2C0
331
282
  5
282
331
22D
  5
22D
331
1EF
  5
1EF
331
20E
  5
20E
331
24C
  5
24C
331
263
  5
263
331
2A1
  5
2A1
331
2D7
  5
2D7
331
2F6
  5
2F6
331
315
  5
315
331
334
  5
334
331
34B
  5
34B
331
36A
  5
36A
331
389
  5
389
331
3A8
  5
3A8
331
722
  5
722
331
68F
  5
68F
331
659
  5
659
331
604
  5
604
331
5C6
  5
5C6
331
5A7
  5
5A7
331
5E5
  5
5E5
331
61B
  5
61B
331
63A
  5
63A
331
678
  5
678
331
6AE
  5
6AE
331
741
  5
741
331
3B8
  5
3B8
331
2A2
  5
2A2
331
24D
  5
24D
331
20F
  5
20F
331
1F0
  5
1F0
331
22E
  5
22E
331
264
  5
264
331
283
  5
283
331
2C1
  5
2C1
331
2D8
  5
2D8
331
2F7
  5
2F7
331
316
  5
316
331
335
  5
335
331
34C
  5
34C
331
36B
  5
36B
331
38A
  5
38A
331
3A9
  5
3A9
331
742
  5
742
331
723
  5
723
331
679
  5
679
331
63B
  5
63B
331
5E6
  5
5E6
331
5A8
  5
5A8
331
5C7
  5
5C7
331
605
  5
605
331
61C
  5
61C
331
65A
  5
65A
331
690
  5
690
331
6AF
  5
6AF
331
1C9
  5
1C9
331
3B9
  5
3B9
331
3D8
  5
3D8
331
2C2
  5
2C2
331
265
  5
265
331
22F
  5
22F
331
1F1
  5
1F1
331
210
  5
210
331
24E
  5
24E
331
284
  5
284
331
2A3
  5
2A3
331
2D9
  5
2D9
331
2F8
  5
2F8
331
317
  5
317
331
336
  5
336
331
34D
  5
34D
331
36C
  5
36C
331
38B
  5
38B
331
3AA
  5
3AA
331
724
  5
724
331
691
  5
691
331
65B
  5
65B
331
606
  5
606
331
5C8
  5
5C8
331
5A9
  5
5A9
331
5E7
  5
5E7
331
61D
  5
61D
331
63C
  5
63C
331
67A
  5
67A
331
6B0
  5
6B0
331
743
  5
743
331
1CA
  5
1CA
331
3BA
  5
3BA
331
3D9
  5
3D9
331
3F8
  5
3F8
331
2A4
  5
2A4
331
24F
  5
24F
331
211
  5
211
331
1F2
  5
1F2
331
230
  5
230
331
266
  5
266
331
285
  5
285
331
2C3
  5
2C3
331
2DA
  5
2DA
331
2F9
  5
2F9
331
318
  5
318
331
337
  5
337
331
34E
  5
34E
331
36D
  5
36D
331
38C
  5
38C
331
3AB
  5
3AB
331
744
  5
744
331
6B1
  5
6B1
331
65C
  5
65C
331
63D
  5
63D
331
5E8
  5
5E8
331
5AA
  5
5AA
331
5C9
  5
5C9
331
607
  5
607
331
61E
  5
61E
331
67B
  5
67B
331
692
  5
692
331
725
  5
725
331
1CB
  5
1CB
331
3BB
  5
3BB
331
3DA
  5
3DA
331
3F9
  5
3F9
331
418
  5
418
331
2A5
  5
2A5
331
267
  5
267
331
231
  5
231
331
1F3
  5
1F3
331
212
  5
212
331
286
  5
286
331
2C4
  5
2C4
331
2DB
  5
2DB
331
2FA
  5
2FA
331
319
  5
319
331
338
  5
338
331
34F
  5
34F
331
36E
  5
36E
331
38D
  5
38D
331
3AC
  5
3AC
331
726
  5
726
331
693
  5
693
331
65D
  5
65D
331
608
  5
608
331
5CA
  5
5CA
331
5AB
  5
5AB
331
5E9
  5
5E9
331
61F
  5
61F
331
63E
  5
63E
331
67C
  5
67C
331
6B2
  5
6B2
331
745
  5
745
331
1CC
  5
1CC
331
3BC
  5
3BC
331
3DB
  5
3DB
331
3FA
  5
3FA
331
419
  5
419
331
430
  5
430
331
287
  5
287
331
232
  5
232
331
213
  5
213
331
1F4
  5
1F4
331
268
  5
268
331
2A6
  5
2A6
331
2C5
  5
2C5
331
2DC
  5
2DC
331
2FB
  5
2FB
331
31A
  5
31A
331
339
  5
339
331
350
  5
350
331
36F
  5
36F
331
38E
  5
38E
331
3AD
  5
3AD
331
746
  5
746
331
6B3
  5
6B3
331
65E
  5
65E
331
63F
  5
63F
331
5EA
  5
5EA
331
5AC
  5
5AC
331
5CB
  5
5CB
331
609
  5
609
331
620
  5
620
331
67D
  5
67D
331
694
  5
694
331
727
  5
727
331
1CD
  5
1CD
331
3BD
  5
3BD
331
3DC
  5
3DC
331
3FB
  5
3FB
331
41A
  5
41A
331
431
  5
431
331
450
  5
450
331
2A7
  5
2A7
331
269
  5
269
331
233
  5
233
331
1F5
  5
1F5
331
214
  5
214
331
288
  5
288
331
2C6
  5
2C6
331
2DD
  5
2DD
331
2FC
  5
2FC
331
31B
  5
31B
331
33A
  5
33A
331
351
  5
351
331
370
  5
370
331
38F
  5
38F
331
3AE
  5
3AE
331
728
  5
728
331
67E
  5
67E
331
65F
  5
65F
331
60A
  5
60A
331
5CC
  5
5CC
331
5AD
  5
5AD
331
5EB
  5
5EB
331
621
  5
621
331
640
  5
640
331
695
  5
695
331
6B4
  5
6B4
331
6F2
  5
6F2
331
747
  5
747
331
1CE
  5
1CE
331
3BE
  5
3BE
331
3DD
  5
3DD
331
3FC
  5
3FC
331
41B
  5
41B
331
432
  5
432
331
451
  5
451
331
470
  5
470
331
2C7
  5
2C7
331
289
  5
289
331
234
  5
234
331
1F6
  5
1F6
331
215
  5
215
331
26A
  5
26A
331
2A8
  5
2A8
331
2DE
  5
2DE
331
2FD
  5
2FD
331
31C
  5
31C
331
33B
  5
33B
331
352
  5
352
331
371
  5
371
331
390
  5
390
331
3AF
  5
3AF
331
748
  5
748
331
6B5
  5
6B5
331
660
  5
660
331
641
  5
641
331
5EC
  5
5EC
331
5AE
  5
5AE
331
5CD
  5
5CD
331
60B
  5
60B
331
622
  5
622
331
67F
  5
67F
331
696
  5
696
331
729
  5
729
331
1CF
  5
1CF
331
3BF
  5
3BF
331
3DE
  5
3DE
331
3FD
  5
3FD
331
41C
  5
41C
331
433
  5
433
331
452
  5
452
331
471
  5
471
331
490
  5
490
331
2A9
  5
2A9
331
26B
  5
26B
331
235
  5
235
331
1F7
  5
1F7
331
216
  5
216
331
28A
  5
28A
331
2DF
  5
2DF
331
2FE
  5
2FE
331
31D
  5
31D
331
33C
  5
33C
331
353
  5
353
331
372
  5
372
331
391
  5
391
331
3B0
  5
3B0
331
72A
  5
72A
331
680
  5
680
331
661
  5
661
331
60C
  5
60C
331
5CE
  5
5CE
331
5AF
  5
5AF
331
5ED
  5
5ED
331
623
  5
623
331
642
  5
642
331
697
  5
697
331
6B6
  5
6B6
331
749
  5
749
331
1D0
  5
1D0
331
3C0
  5
3C0
331
3DF
  5
3DF
331
3FE
  5
3FE
331
41D
  5
41D
331
434
  5
434
331
453
  5
453
331
472
  5
472
331
491
  5
491
331
4A8
  5
4A8
331
28B
  5
28B
331
236
  5
236
331
217
  5
217
331
26C
  5
26C
331
2AA
  5
2AA
331
2E0
  5
2E0
331
2FF
  5
2FF
331
31E
  5
31E
331
33D
  5
33D
331
354
  5
354
331
373
  5
373
331
392
  5
392
331
3B1
  5
3B1
331
74A
  5
74A
331
6B7
  5
6B7
331
662
  5
662
331
624
  5
624
331
5EE
  5
5EE
331
5B0
  5
5B0
331
5CF
  5
5CF
331
60D
  5
60D
331
643
  5
643
331
681
  5
681
331
698
  5
698
331
72B
  5
72B
331
1D1
  5
1D1
331
4C8
  5
4C8
331
3C1
  5
3C1
331
3E0
  5
3E0
331
3FF
  5
3FF
331
41E
  5
41E
331
435
  5
435
331
454
  5
454
331
473
  5
473
331
492
  5
492
331
4A9
  5
4A9
331
2AB
  5
2AB
331
26D
  5
26D
331
237
  5
237
331
28C
  5
28C
331
2E1
  5
2E1
331
300
  5
300
331
31F
  5
31F
331
33E
  5
33E
331
355
  5
355
331
374
  5
374
331
393
  5
393
331
3B2
  5
3B2
331
74B
  5
74B
331
6D7
  5
6D7
331
682
  5
682
331
663
  5
663
331
60E
  5
60E
331
5D0
  5
5D0
331
5B1
  5
5B1
331
5EF
  5
5EF
331
625
  5
625
331
644
  5
644
331
699
  5
699
331
6B8
  5
6B8
331
72C
  5
72C
331
1D2
  5
1D2
331
4E8
  5
4E8
331
3C2
  5
3C2
331
3E1
  5
3E1
331
400
  5
400
331
41F
  5
41F
331
436
  5
436
331
455
  5
455
331
474
  5
474
331
493
  5
493
331
4AA
  5
4AA
331
4C9
  5
4C9
331
28D
  5
28D
331
26E
  5
26E
331
2AC
  5
2AC
331
2E2
  5
2E2
331
301
  5
301
331
320
  5
320
331
33F
  5
33F
331
356
  5
356
331
375
  5
375
331
394
  5
394
331
3B3
  5
3B3
331
74C
  5
74C
331
664
  5
664
331
626
  5
626
331
5F0
  5
5F0
331
5B2
  5
5B2
331
5D1
  5
5D1
331
60F
  5
60F
331
645
  5
645
331
683
  5
683
331
69A
  5
69A
331
72D
  5
72D
331
1D3
  5
1D3
331
508
  5
508
331
4CA
  5
4CA
331
475
  5
475
331
420
  5
420
331
3E2
  5
3E2
331
3C3
  5
3C3
331
401
  5
401
331
437
  5
437
331
456
  5
456
331
494
  5
494
331
4AB
  5
4AB
331
4E9
  5
4E9
331
2AD
  5
2AD
331
26F
  5
26F
331
28E
  5
28E
331
2E3
  5
2E3
331
302
  5
302
331
321
  5
321
331
357
  5
357
331
376
  5
376
331
395
  5
395
331
3B4
  5
3B4
331
74D
  5
74D
331
72E
  5
72E
331
684
  5
684
331
646
  5
646
331
5F1
  5
5F1
331
5D2
  5
5D2
331
5B3
  5
5B3
331
627
  5
627
331
665
  5
665
331
69B
  5
69B
331
6BA
  5
6BA
331
1D4
  5
1D4
331
4EA
  5
4EA
331
495
  5
495
331
438
  5
438
331
402
  5
402
331
3C4
  5
3C4
331
3E3
  5
3E3
331
421
  5
421
331
457
  5
457
331
476
  5
476
331
4AC
  5
4AC
331
4CB
  5
4CB
331
509
  5
509
331
520
  5
520
331
28F
  5
28F
331
2AE
  5
2AE
331
2E4
  5
2E4
331
303
  5
303
331
322
  5
322
331
358
  5
358
331
377
  5
377
331
396
  5
396
331
3B5
  5
3B5
331
74E
  5
74E
331
666
  5
666
331
628
  5
628
331
5F2
  5
5F2
331
5B4
  5
5B4
331
5D3
  5
5D3
331
647
  5
647
331
685
  5
685
331
69C
  5
69C
331
72F
  5
72F
331
1D5
  5
1D5
331
50A
  5
50A
331
4CC
  5
4CC
331
458
  5
458
331
403
  5
403
331
3E4
  5
3E4
331
3C5
  5
3C5
331
422
  5
422
331
439
  5
439
331
477
  5
477
331
496
  5
496
331
4AD
  5
4AD
331
4EB
  5
4EB
331
521
  5
521
331
540
  5
540
331
2AF
  5
2AF
331
2E5
  5
2E5
331
304
  5
304
331
323
  5
323
331
359
  5
359
331
378
  5
378
331
397
  5
397
331
3B6
  5
3B6
331
74F
  5
74F
331
686
  5
686
331
648
  5
648
331
5F3
  5
5F3
331
5B5
  5
5B5
331
5D4
  5
5D4
331
629
  5
629
331
667
  5
667
331
69D
  5
69D
331
730
  5
730
331
1D6
  5
1D6
331
560
  5
560
331
541
  5
541
331
4EC
  5
4EC
331
497
  5
497
331
43A
  5
43A
331
404
  5
404
331
3C6
  5
3C6
331
3E5
  5
3E5
331
423
  5
423
331
459
  5
459
331
478
  5
478
331
4AE
  5
4AE
331
4CD
  5
4CD
331
50B
  5
50B
331
522
  5
522
331
2E6
  5
2E6
331
305
  5
305
331
324
  5
324
331
35A
  5
35A
331
379
  5
379
331
398
  5
398
331
3B7
  5
3B7
331
731
  5
731
331
712
  5
712
331
668
  5
668
331
62A
  5
62A
331
5F4
  5
5F4
331
5B6
  5
5B6
331
5D5
  5
5D5
331
649
  5
649
331
687
  5
687
331
69E
  5
69E
331
750
  5
750
331
1D7
  5
1D7
331
561
  5
561
331
50C
  5
50C
331
4CE
  5
4CE
331
45A
  5
45A
331
405
  5
405
331
3C7
  5
3C7
331
3E6
  5
3E6
331
424
  5
424
331
43B
  5
43B
331
479
  5
479
331
498
  5
498
331
4AF
  5
4AF
331
4ED
  5
4ED
331
523
  5
523
331
542
  5
542
331
580
  5
580
331
2E7
  5
2E7
331
306
  5
306
331
325
  5
325
331
35B
  5
35B
331
37A
  5
37A
331
399
  5
399
331
751
  5
751
331
713
  5
713
331
69F
  5
69F
331
64A
  5
64A
331
5F5
  5
5F5
331
5B7
  5
5B7
331
5D6
  5
5D6
331
62B
  5
62B
331
669
  5
669
331
732
  5
732
331
562
  5
562
331
524
  5
524
331
4EE
  5
4EE
331
499
  5
499
331
425
  5
425
331
406
  5
406
331
3C8
  5
3C8
331
3E7
  5
3E7
331
43C
  5
43C
331
45B
  5
45B
331
47A
  5
47A
331
4B0
  5
4B0
331
4CF
  5
4CF
331
50D
  5
50D
331
543
  5
543
331
581
  5
581
331
307
  5
307
331
326
  5
326
331
35C
  5
35C
331
37B
  5
37B
331
39A
  5
39A
331
733
  5
733
331
6A0
  5
6A0
331
66A
  5
66A
331
62C
  5
62C
331
5D7
  5
5D7
331
5F6
  5
5F6
331
64B
  5
64B
331
714
  5
714
331
752
  5
752
331
582
  5
582
331
563
  5
563
331
50E
  5
50E
331
4D0
  5
4D0
331
45C
  5
45C
331
407
  5
407
331
3C9
  5
3C9
331
3E8
  5
3E8
331
426
  5
426
331
43D
  5
43D
331
47B
  5
47B
331
49A
  5
49A
331
4B1
  5
4B1
331
4EF
  5
4EF
331
525
  5
525
331
544
  5
544
331
327
  5
327
331
35D
  5
35D
331
37C
  5
37C
331
39B
  5
39B
331
753
  5
753
331
6A1
  5
6A1
331
64C
  5
64C
331
5F7
  5
5F7
331
62D
  5
62D
331
66B
  5
66B
331
734
  5
734
331
564
  5
564
331
526
  5
526
331
4F0
  5
4F0
331
49B
  5
49B
331
427
  5
427
331
3E9
  5
3E9
331
3CA
  5
3CA
331
408
  5
408
331
43E
  5
43E
331
45D
  5
45D
331
47C
  5
47C
331
4B2
  5
4B2
331
4D1
  5
4D1
331
50F
  5
50F
331
545
  5
545
331
583
  5
583
331
35E
  5
35E
331
37D
  5
37D
331
39C
  5
39C
331
735
  5
735
331
6A2
  5
6A2
331
66C
  5
66C
331
62E
  5
62E
331
64D
  5
64D
331
716
  5
716
331
584
  5
584
331
546
  5
546
331
4F1
  5
4F1
331
4D2
  5
4D2
331
45E
  5
45E
331
409
  5
409
331
3CB
  5
3CB
331
3EA
  5
3EA
331
428
  5
428
331
43F
  5
43F
331
47D
  5
47D
331
49C
  5
49C
331
4B3
  5
4B3
331
510
  5
510
331
527
  5
527
331
565
  5
565
331
35F
  5
35F
331
37E
  5
37E
331
39D
  5
39D
331
717
  5
717
331
66D
  5
66D
331
64E
  5
64E
331
62F
  5
62F
331
6A3
  5
6A3
331
736
  5
736
331
566
  5
566
331
528
  5
528
331
4F2
  5
4F2
331
49D
  5
49D
331
429
  5
429
331
3EB
  5
3EB
331
3CC
  5
3CC
331
40A
  5
40A
331
440
  5
440
331
45F
  5
45F
331
47E
  5
47E
331
4B4
  5
4B4
331
4D3
  5
4D3
331
511
  5
511
331
547
  5
547
331
585
  5
585
331
37F
  5
37F
331
39E
  5
39E
331
737
  5
737
331
6A4
  5
6A4
331
66E
  5
66E
331
64F
  5
64F
331
718
  5
718
331
756
  5
756
331
586
  5
586
331
548
  5
548
331
4F3
  5
4F3
331
4B5
  5
4B5
331
460
  5
460
331
40B
  5
40B
331
3CD
  5
3CD
331
3EC
  5
3EC
331
42A
  5
42A
331
441
  5
441
331
47F
  5
47F
331
49E
  5
49E
331
4D4
  5
4D4
331
512
  5
512
331
529
  5
529
331
567
  5
567
331
39F
  5
39F
331
757
  5
757
331
719
  5
719
331
66F
  5
66F
331
6A5
  5
6A5
331
738
  5
738
331
568
  5
568
331
513
  5
513
331
4F4
  5
4F4
331
49F
  5
49F
331
42B
  5
42B
331
3ED
  5
3ED
331
3CE
  5
3CE
331
40C
  5
40C
331
442
  5
442
331
461
  5
461
331
480
  5
480
331
4B6
  5
4B6
331
4D5
  5
4D5
331
52A
  5
52A
331
549
  5
549
331
587
  5
587
331
739
  5
739
331
6A6
  5
6A6
331
71A
  5
71A
331
758
  5
758
331
588
  5
588
331
54A
  5
54A
331
4F5
  5
4F5
331
4B7
  5
4B7
331
462
  5
462
331
40D
  5
40D
331
3CF
  5
3CF
331
3EE
  5
3EE
331
42C
  5
42C
331
443
  5
443
331
481
  5
481
331
4A0
  5
4A0
331
4D6
  5
4D6
331
514
  5
514
331
52B
  5
52B
331
569
  5
569
331
759
  5
759
331
71B
  5
71B
331
6A7
  5
6A7
331
73A
  5
73A
331
56A
  5
56A
331
515
  5
515
331
4D7
  5
4D7
331
482
  5
482
331
42D
  5
42D
331
3EF
  5
3EF
331
3D0
  5
3D0
331
40E
  5
40E
331
444
  5
444
331
463
  5
463
331
4A1
  5
4A1
331
4B8
  5
4B8
331
4F6
  5
4F6
331
52C
  5
52C
331
54B
  5
54B
331
589
  5
589
331
73B
  5
73B
331
71C
  5
71C
331
75A
  5
75A
331
58A
  5
58A
331
54C
  5
54C
331
4F7
  5
4F7
331
4B9
  5
4B9
331
464
  5
464
331
40F
  5
40F
331
3D1
  5
3D1
331
3F0
  5
3F0
331
42E
  5
42E
331
445
  5
445
331
483
  5
483
331
4A2
  5
4A2
331
4D8
  5
4D8
331
516
  5
516
331
52D
  5
52D
331
56B
  5
56B
331
75B
  5
75B
331
71D
  5
71D
331
73C
  5
73C
331
56C
  5
56C
331
517
  5
517
331
4D9
  5
4D9
331
484
  5
484
331
42F
  5
42F
331
3F1
  5
3F1
331
3D2
  5
3D2
331
410
  5
410
331
446
  5
446
331
465
  5
465
331
4A3
  5
4A3
331
4BA
  5
4BA
331
4F8
  5
4F8
331
52E
  5
52E
331
54D
  5
54D
331
58B
  5
58B
331
75C
  5
75C
331
73D
  5
73D
331
71E
  5
71E
331
58C
  5
58C
331
54E
  5
54E
331
4F9
  5
4F9
331
4A4
  5
4A4
331
447
  5
447
331
411
  5
411
331
3D3
  5
3D3
331
3F2
  5
3F2
331
466
  5
466
331
485
  5
485
331
4BB
  5
4BB
331
4DA
  5
4DA
331
518
  5
518
331
52F
  5
52F
331
56D
  5
56D
331
71F
  5
71F
331
73E
  5
73E
331
56E
  5
56E
331
519
  5
519
331
4DB
  5
4DB
331
486
  5
486
331
448
  5
448
331
3F3
  5
3F3
331
3D4
  5
3D4
331
412
  5
412
331
467
  5
467
331
4A5
  5
4A5
331
4BC
  5
4BC
331
4FA
  5
4FA
331
530
  5
530
331
54F
  5
54F
331
58D
  5
58D
331
73F
  5
73F
331
58E
  5
58E
331
550
  5
550
331
4FB
  5
4FB
331
4A6
  5
4A6
331
449
  5
449
331
413
  5
413
331
3D5
  5
3D5
331
3F4
  5
3F4
331
468
  5
468
331
487
  5
487
331
4BD
  5
4BD
331
4DC
  5
4DC
331
51A
  5
51A
331
531
  5
531
331
56F
  5
56F
331
570
  5
570
331
51B
  5
51B
331
4DD
  5
4DD
331
469
  5
469
331
414
  5
414
331
3F5
  5
3F5
331
3D6
  5
3D6
331
44A
  5
44A
331
488
  5
488
331
4A7
  5
4A7
331
4BE
  5
4BE
331
4FC
  5
4FC
331
532
  5
532
331
551
  5
551
331
58F
  5
58F
331
571
  5
571
331
552
  5
552
331
4FD
  5
4FD
331
4BF
  5
4BF
331
44B
  5
44B
331
415
  5
415
331
3D7
  5
3D7
331
3F6
  5
3F6
331
46A
  5
46A
331
489
  5
489
331
4DE
  5
4DE
331
51C
  5
51C
331
533
  5
533
331
590
  5
590
331
572
  5
572
331
51D
  5
51D
331
4DF
  5
4DF
331
46B
  5
46B
331
416
  5
416
331
3F7
  5
3F7
331
44C
  5
44C
331
48A
  5
48A
331
4C0
  5
4C0
331
4FE
  5
4FE
331
534
  5
534
331
553
  5
553
331
591
  5
591
331
573
  5
573
331
535
  5
535
331
4FF
  5
4FF
331
4C1
  5
4C1
331
44D
  5
44D
331
417
  5
417
331
46C
  5
46C
331
48B
  5
48B
331
4E0
  5
4E0
331
51E
  5
51E
331
554
  5
554
331
592
  5
592
331
593
  5
593
331
574
  5
574
331
51F
  5
51F
331
4E1
  5
4E1
331
46D
  5
46D
331
44E
  5
44E
331
48C
  5
48C
331
4C2
  5
4C2
331
500
  5
500
331
536
  5
536
331
555
  5
555
331
575
  5
575
331
537
  5
537
331
501
  5
501
331
4C3
  5
4C3
331
44F
  5
44F
331
46E
  5
46E
331
48D
  5
48D
331
4E2
  5
4E2
331
556
  5
556
331
594
  5
594
  0
DIMASSOC
  5
6D4
102
{ACAD_REACTORS
330
6C9
102
}
330
6C9
100
AcDbDimAssoc
330
6BA
 90
        3
 70
     0
 71
     0
  1
AcDbOsnapPointRef
 72
    13
331
559
 73
     2
 91
        0
 40
0.0
 10
0.0
 20
0.0
 30
2.000000000000000E+50
 75
     0
  1
AcDbOsnapPointRef
 72
     1
331
58B
 73
     2
 91
        0
 40
1.0
 10
0.0
 20
0.0
 30
2.000000000000000E+50
 75
     0
  0
DIMASSOC
  5
6F0
102
{ACAD_REACTORS
330
6E5
102
}
330
6E5
100
AcDbDimAssoc
330
6D7
 90
        3
 70
     0
 71
     0
  1
AcDbOsnapPointRef
 72
    13
331
44E
 73
     2
 91
        0
 40
0.0
 10
0.0
 20
0.0
 30
2.000000000000000E+50
 75
     0
  1
AcDbOsnapPointRef
 72
    13
331
3E5
 73
     2
 91
        0
 40
0.0
 10
0.0
 20
0.0
 30
2.000000000000000E+50
 75
     0
  0
DIMASSOC
  5
70B
102
{ACAD_REACTORS
330
700
102
}
330
700
100
AcDbDimAssoc
330
6F2
 90
        3
 70
     0
 71
     0
  1
AcDbOsnapPointRef
 72
     1
331
2BC
 73
     2
 91
        0
 40
1.0
 10
0.0
 20
0.0
 30
2.000000000000000E+50
 75
     0
  1
AcDbOsnapPointRef
 72
    13
331
297
 73
     2
 91
        0
 40
0.0
 10
0.0
 20
0.0
 30
2.000000000000000E+50
 75
     0
  0
LAYOUT
  5
59
102
{ACAD_XDICTIONARY
360
7AE
102
}
102
{ACAD_REACTORS
330
1A
102
}
330
1A
100
AcDbPlotSettings
  1

  2
None
  4

  6

 40
0.0
 41
0.0
 42
0.0
 43
0.0
 44
0.0
 45
0.0
 46
0.0
 47
0.0
 48
0.0
 49
0.0
140
0.0
141
0.0
142
1.0
143
1.0
 70
   688
 72
     0
 73
     0
 74
     5
  7

 75
    16
147
1.0
148
0.0
149
0.0
100
AcDbLayout
  1
Layout1
 70
     1
 71
     1
 10
0.0
 20
0.0
 11
12.0
 21
9.0
 12
0.0
 22
0.0
 32
0.0
 14
0.0
 24
0.0
 34
0.0
 15
0.0
 25
0.0
 35
0.0
146
0.0
 13
0.0
 23
0.0
 33
0.0
 16
1.0
 26
0.0
 36
0.0
 17
0.0
 27
1.0
 37
0.0
 76
     0
330
58
  0
LAYOUT
  5
5E
102
{ACAD_XDICTIONARY
360
7B0
102
}
102
{ACAD_REACTORS
330
1A
102
}
330
1A
100
AcDbPlotSettings
  1

  2
None
  4

  6

 40
0.0
 41
0.0
 42
0.0
 43
0.0
 44
0.0
 45
0.0
 46
0.0
 47
0.0
 48
0.0
 49
0.0
140
0.0
141
0.0
142
1.0
143
1.0
 70
   688
 72
     0
 73
     0
 74
     5
  7

 75
    16
147
1.0
148
0.0
149
0.0
100
AcDbLayout
  1
Layout2
 70
     1
 71
     2
 10
0.0
 20
0.0
 11
12.0
 21
9.0
 12
0.0
 22
0.0
 32
0.0
 14
0.0
 24
0.0
 34
0.0
 15
0.0
 25
0.0
 35
0.0
146
0.0
 13
0.0
 23
0.0
 33
0.0
 16
1.0
 26
0.0
 36
0.0
 17
0.0
 27
1.0
 37
0.0
 76
     0
330
5D
  0
LAYOUT
  5
22
102
{ACAD_XDICTIONARY
360
7AC
102
}
102
{ACAD_REACTORS
330
1A
102
}
330
1A
100
AcDbPlotSettings
  1

  2
none_device
  4
ANSI_A_(8.50_x_11.00_Inches)
  6

 40
6.349999904632568
 41
19.04999923706055
 42
6.350006103515625
 43
19.04998779296875
 44
215.8999938964844
 45
279.3999938964844
 46
0.0
 47
0.0
 48
0.0
 49
0.0
140
0.0
141
0.0
142
1.0
143
2.584895464708373
 70
 11952
 72
     0
 73
     1
 74
     0
  7

 75
     0
147
0.3868628397755418
148
0.0
149
0.0
100
AcDbLayout
  1
Model
 70
     1
 71
     0
 10
0.0
 20
0.0
 11
12.0
 21
9.0
 12
0.0
 22
0.0
 32
0.0
 14
0.0
 24
0.0
 34
0.0
 15
0.0
 25
0.0
 35
0.0
146
0.0
 13
0.0
 23
0.0
 33
0.0
 16
1.0
 26
0.0
 36
0.0
 17
0.0
 27
1.0
 37
0.0
 76
     0
330
1F
  0
MLINESTYLE
  5
18
102
{ACAD_REACTORS
330
17
102
}
330
17
100
AcDbMlineStyle
  2
STANDARD
 70
     0
  3

 62
   256
 51
90.0
 52
90.0
 71
     2
 49
0.5
 62
   256
  6
BYLAYER
 49
-0.5
 62
   256
  6
BYLAYER
  0
ACDBPLACEHOLDER
  5
F
102
{ACAD_REACTORS
330
E
102
}
330
E
  0
TABLESTYLE
  5
87
102
{ACAD_REACTORS
330
86
102
}
330
86
100
AcDbTableStyle
  3
Standard
 70
     0
 71
     0
 40
0.06
 41
0.06
280
     0
281
     0
  7
Standard
140
0.18
170
     2
 62
     0
 63
     7
283
     0
274
    -2
284
     1
 64
     0
275
    -2
285
     1
 65
     0
276
    -2
286
     1
 66
     0
277
    -2
287
     1
 67
     0
278
    -2
288
     1
 68
     0
279
    -2
289
     1
 69
     0
  7
Standard
140
0.25
170
     5
 62
     0
 63
     7
283
     0
274
    -2
284
     1
 64
     0
275
    -2
285
     1
 65
     0
276
    -2
286
     1
 66
     0
277
    -2
287
     1
 67
     0
278
    -2
288
     1
 68
     0
279
    -2
289
     1
 69
     0
  7
Standard
140
0.18
170
     5
 62
     0
 63
     7
283
     0
274
    -2
284
     1
 64
     0
275
    -2
285
     1
 65
     0
276
    -2
286
     1
 66
     0
277
    -2
287
     1
 67
     0
278
    -2
288
     1
 68
     0
279
    -2
289
     1
 69
     0
  0
DICTIONARYVAR
  5
710
102
{ACAD_REACTORS
330
66
102
}
330
66
100
DictionaryVariables
280
     0
  1
STANDARD
  0
DICTIONARYVAR
  5
67
102
{ACAD_REACTORS
330
66
102
}
330
66
100
DictionaryVariables
280
     0
  1
2
  0
DICTIONARYVAR
  5
6B
102
{ACAD_REACTORS
330
66
102
}
330
66
100
DictionaryVariables
280
     0
  1
1
  0
DICTIONARYVAR
  5
7A9
102
{ACAD_REACTORS
330
66
102
}
330
66
100
DictionaryVariables
280
     0
  1

  0
DICTIONARY
  5
7AE
330
59
100
AcDbDictionary
280
     1
281
     1
  3
ACAD_XREC_ROUNDTRIP
360
7AF
  0
DICTIONARY
  5
7B0
330
5E
100
AcDbDictionary
280
     1
281
     1
  3
ACAD_XREC_ROUNDTRIP
360
7B1
  0
DICTIONARY
  5
7AC
330
22
100
AcDbDictionary
280
     1
281
     1
  3
ACAD_XREC_ROUNDTRIP
360
7AD
  0
XRECORD
  5
7AF
102
{ACAD_REACTORS
330
7AE
102
}
330
7AE
100
AcDbXrecord
280
     1
102
SHADEPLOT
 70
     0
102
SHADEPLOTRESLEVEL
 70
     2
102
SHADEPLOTCUSTOMDPI
 70
   300
  0
XRECORD
  5
7B1
102
{ACAD_REACTORS
330
7B0
102
}
330
7B0
100
AcDbXrecord
280
     1
102
SHADEPLOT
 70
     0
102
SHADEPLOTRESLEVEL
 70
     2
102
SHADEPLOTCUSTOMDPI
 70
   300
  0
XRECORD
  5
7AD
102
{ACAD_REACTORS
330
7AC
102
}
330
7AC
100
AcDbXrecord
280
     1
102
SHADEPLOT
 70
     0
102
SHADEPLOTRESLEVEL
 70
     2
102
SHADEPLOTCUSTOMDPI
 70
   300
  0
ENDSEC
  0
EOF
