  0
SECTION
  2
HEADER
  9
$ACADVER
  1
AC1015
  9
$ACADMAINTVER
 70
    20
  9
$DWGCODEPAGE
  3
ANSI_1252
  9
$INSBASE
 10
0.0
 20
0.0
 30
0.0
  9
$EXTMIN
 10
-0.075
 20
-0.075
 30
0.0
  9
$EXTMAX
 10
22.075
 20
17.075
 30
0.0
  9
$LIMMIN
 10
0.0
 20
0.0
  9
$LIMMAX
 10
12.0
 20
9.0
  9
$ORTHOMODE
 70
     0
  9
$REGENMODE
 70
     1
  9
$FILLMODE
 70
     1
  9
$QTEXTMODE
 70
     0
  9
$MIRRTEXT
 70
     0
  9
$LTSCALE
 40
1.0
  9
$ATTMODE
 70
     1
  9
$TEXTSIZE
 40
0.09
  9
$TRACEWID
 40
0.05
  9
$TEXTSTYLE
  7
Standard
  9
$CLAYER
  8
0
  9
$CELTYPE
  6
ByLayer
  9
$CECOLOR
 62
   256
  9
$CELTSCALE
 40
1.0
  9
$DISPSILH
 70
     0
  9
$DIMSCALE
 40
1.0
  9
$DIMASZ
 40
0.1875
  9
$DIMEXO
 40
0.0625
  9
$DIMDLI
 40
0.38
  9
$DIMRND
 40
0.0
  9
$DIMDLE
 40
0.0
  9
$DIMEXE
 40
0.125
  9
$DIMTP
 40
0.0
  9
$DIMTM
 40
0.0
  9
$DIMTXT
 40
0.125
  9
$DIMCEN
 40
0.09
  9
$DIMTSZ
 40
0.0
  9
$DIMTOL
 70
     0
  9
$DIMLIM
 70
     0
  9
$DIMTIH
 70
     1
  9
$DIMTOH
 70
     1
  9
$DIMSE1
 70
     0
  9
$DIMSE2
 70
     0
  9
$DIMTAD
 70
     0
  9
$DIMZIN
 70
     0
  9
$DIMBLK
  1

  9
$DIMASO
 70
     1
  9
$DIMSHO
 70
     1
  9
$DIMPOST
  1

  9
$DIMAPOST
  1
mm
  9
$DIMALT
 70
     1
  9
$DIMALTD
 70
     1
  9
$DIMALTF
 40
25.4
  9
$DIMLFAC
 40
1.0
  9
$DIMTOFL
 70
     0
  9
$DIMTVP
 40
0.0
  9
$DIMTIX
 70
     0
  9
$DIMSOXD
 70
     0
  9
$DIMSAH
 70
     0
  9
$DIMBLK1
  1

  9
$DIMBLK2
  1

  9
$DIMSTYLE
  2
Standard
  9
$DIMCLRD
 70
     0
  9
$DIMCLRE
 70
     0
  9
$DIMCLRT
 70
     0
  9
$DIMTFAC
 40
1.0
  9
$DIMGAP
 40
0.09
  9
$DIMJUST
 70
     0
  9
$DIMSD1
 70
     0
  9
$DIMSD2
 70
     0
  9
$DIMTOLJ
 70
     1
  9
$DIMTZIN
 70
     0
  9
$DIMALTZ
 70
     0
  9
$DIMALTTZ
 70
     0
  9
$DIMUPT
 70
     0
  9
$DIMDEC
 70
     2
  9
$DIMTDEC
 70
     2
  9
$DIMALTU
 70
     2
  9
$DIMALTTD
 70
     1
  9
$DIMTXSTY
  7
Standard
  9
$DIMAUNIT
 70
     0
  9
$DIMADEC
 70
     0
  9
$DIMALTRND
 40
0.0
  9
$DIMAZIN
 70
     0
  9
$DIMDSEP
 70
    46
  9
$DIMATFIT
 70
     3
  9
$DIMFRAC
 70
     0
  9
$DIMLDRBLK
  1

  9
$DIMLUNIT
 70
     2
  9
$DIMLWD
 70
    -2
  9
$DIMLWE
 70
    -2
  9
$DIMTMOVE
 70
     0
  9
$LUNITS
 70
     2
  9
$LUPREC
 70
     4
  9
$SKETCHINC
 40
0.1
  9
$FILLETRAD
 40
0.0
  9
$AUNITS
 70
     0
  9
$AUPREC
 70
     0
  9
$MENU
  1
.
  9
$ELEVATION
 40
0.0
  9
$PELEVATION
 40
0.0
  9
$THICKNESS
 40
0.0
  9
$LIMCHECK
 70
     0
  9
$CHAMFERA
 40
0.0
  9
$CHAMFERB
 40
0.0
  9
$CHAMFERC
 40
0.0
  9
$CHAMFERD
 40
0.0
  9
$SKPOLY
 70
     0
  9
$TDCREATE
 40
2453662.486718935
  9
$TDUCREATE
 40
2453662.695052269
  9
$TDUPDATE
 40
2454294.639133368
  9
$TDUUPDATE
 40
2454294.847466702
  9
$TDINDWG
 40
0.0883196065
  9
$TDUSRTIMER
 40
0.0883194213
  9
$USRTIMER
 70
     1
  9
$ANGBASE
 50
0.0
  9
$ANGDIR
 70
     0
  9
$PDMODE
 70
     2
  9
$PDSIZE
 40
0.075
  9
$PLINEWID
 40
0.0
  9
$SPLFRAME
 70
     0
  9
$SPLINETYPE
 70
     6
  9
$SPLINESEGS
 70
     8
  9
$HANDSEED
  5
963
  9
$SURFTAB1
 70
     6
  9
$SURFTAB2
 70
     6
  9
$SURFTYPE
 70
     6
  9
$SURFU
 70
     6
  9
$SURFV
 70
     6
  9
$UCSBASE
  2

  9
$UCSNAME
  2

  9
$UCSORG
 10
0.0
 20
0.0
 30
0.0
  9
$UCSXDIR
 10
1.0
 20
0.0
 30
0.0
  9
$UCSYDIR
 10
0.0
 20
1.0
 30
0.0
  9
$UCSORTHOREF
  2

  9
$UCSORTHOVIEW
 70
     0
  9
$UCSORGTOP
 10
0.0
 20
0.0
 30
0.0
  9
$UCSORGBOTTOM
 10
0.0
 20
0.0
 30
0.0
  9
$UCSORGLEFT
 10
0.0
 20
0.0
 30
0.0
  9
$UCSORGRIGHT
 10
0.0
 20
0.0
 30
0.0
  9
$UCSORGFRONT
 10
0.0
 20
0.0
 30
0.0
  9
$UCSORGBACK
 10
0.0
 20
0.0
 30
0.0
  9
$PUCSBASE
  2

  9
$PUCSNAME
  2

  9
$PUCSORG
 10
0.0
 20
0.0
 30
0.0
  9
$PUCSXDIR
 10
1.0
 20
0.0
 30
0.0
  9
$PUCSYDIR
 10
0.0
 20
1.0
 30
0.0
  9
$PUCSORTHOREF
  2

  9
$PUCSORTHOVIEW
 70
     0
  9
$PUCSORGTOP
 10
0.0
 20
0.0
 30
0.0
  9
$PUCSORGBOTTOM
 10
0.0
 20
0.0
 30
0.0
  9
$PUCSORGLEFT
 10
0.0
 20
0.0
 30
0.0
  9
$PUCSORGRIGHT
 10
0.0
 20
0.0
 30
0.0
  9
$PUCSORGFRONT
 10
0.0
 20
0.0
 30
0.0
  9
$PUCSORGBACK
 10
0.0
 20
0.0
 30
0.0
  9
$USERI1
 70
     0
  9
$USERI2
 70
     0
  9
$USERI3
 70
     0
  9
$USERI4
 70
     0
  9
$USERI5
 70
     0
  9
$USERR1
 40
0.0
  9
$USERR2
 40
0.0
  9
$USERR3
 40
0.0
  9
$USERR4
 40
0.0
  9
$USERR5
 40
0.0
  9
$WORLDVIEW
 70
     1
  9
$SHADEDGE
 70
     3
  9
$SHADEDIF
 70
    70
  9
$TILEMODE
 70
     1
  9
$MAXACTVP
 70
    64
  9
$PINSBASE
 10
0.0
 20
0.0
 30
0.0
  9
$PLIMCHECK
 70
     0
  9
$PEXTMIN
 10
0.0
 20
0.0
 30
0.0
  9
$PEXTMAX
 10
0.0
 20
0.0
 30
0.0
  9
$PLIMMIN
 10
0.0
 20
0.0
  9
$PLIMMAX
 10
12.0
 20
9.0
  9
$UNITMODE
 70
     0
  9
$VISRETAIN
 70
     1
  9
$PLINEGEN
 70
     0
  9
$PSLTSCALE
 70
     1
  9
$TREEDEPTH
 70
  3020
  9
$CMLSTYLE
  2
Standard
  9
$CMLJUST
 70
     0
  9
$CMLSCALE
 40
1.0
  9
$PROXYGRAPHICS
 70
     1
  9
$MEASUREMENT
 70
     0
  9
$CELWEIGHT
370
    -1
  9
$ENDCAPS
280
     0
  9
$JOINSTYLE
280
     0
  9
$LWDISPLAY
290
     0
  9
$INSUNITS
 70
     1
  9
$HYPERLINKBASE
  1

  9
$STYLESHEET
  1

  9
$XEDIT
290
     1
  9
$CEPSNTYPE
380
     0
  9
$PSTYLEMODE
290
     1
  9
$FINGERPRINTGUID
  2
{B02D96DB-DB6E-4693-88FA-578E88D325A2}
  9
$VERSIONGUID
  2
{579202CB-D721-41E7-ABCA-402275E83145}
  9
$EXTNAMES
290
     1
  9
$PSVPSCALE
 40
0.0
  9
$OLESTARTUP
290
     0
  0
ENDSEC
  0
SECTION
  2
CLASSES
  0
CLASS
  1
ACDBDICTIONARYWDFLT
  2
AcDbDictionaryWithDefault
  3
ObjectDBX Classes
 90
        0
280
     0
281
     0
  0
CLASS
  1
ACDBPLACEHOLDER
  2
AcDbPlaceHolder
  3
ObjectDBX Classes
 90
        0
280
     0
281
     0
  0
CLASS
  1
LAYOUT
  2
AcDbLayout
  3
ObjectDBX Classes
 90
        0
280
     0
281
     0
  0
CLASS
  1
DICTIONARYVAR
  2
AcDbDictionaryVar
  3
ObjectDBX Classes
 90
        0
280
     0
281
     0
  0
CLASS
  1
TABLESTYLE
  2
AcDbTableStyle
  3
ObjectDBX Classes
 90
     2047
280
     0
281
     0
  0
CLASS
  1
DIMASSOC
  2
AcDbDimAssoc
  3
"AcDbDimAssoc|Product Desc:     AcDim ARX App For Dimension|Company:          Autodesk, Inc.|WEB Address:      www.autodesk.com"
 90
        0
280
     0
281
     0
  0
CLASS
  1
SORTENTSTABLE
  2
AcDbSortentsTable
  3
ObjectDBX Classes
 90
        0
280
     0
281
     0
  0
ENDSEC
  0
SECTION
  2
TABLES
  0
TABLE
  2
VPORT
  5
8
330
0
100
AcDbSymbolTable
 70
     2
  0
VPORT
  5
95B
330
8
100
AcDbSymbolTableRecord
100
AcDbViewportTableRecord
  2
*Active
 70
     0
 10
0.0
 20
0.0
 11
1.0
 21
1.0
 12
11.0000001563653
 22
9.103911970357756
 13
0.0
 23
0.0
 14
0.5
 24
0.5
 15
0.5
 25
0.5
 16
0.0
 26
0.0
 36
1.0
 17
0.0
 27
0.0
 37
0.0
 40
18.46937662289368
 41
1.499364675984752
 42
50.0
 43
0.0
 44
0.0
 50
0.0
 51
0.0
 71
     0
 72
  1000
 73
     1
 74
     3
 75
     0
 76
     0
 77
     0
 78
     0
281
     0
 65
     1
110
0.0
120
0.0
130
0.0
111
1.0
121
0.0
131
0.0
112
0.0
122
1.0
132
0.0
 79
     0
146
0.0
  0
ENDTAB
  0
TABLE
  2
LTYPE
  5
5
330
0
100
AcDbSymbolTable
 70
     1
  0
LTYPE
  5
14
330
5
100
AcDbSymbolTableRecord
100
AcDbLinetypeTableRecord
  2
ByBlock
 70
     0
  3

 72
    65
 73
     0
 40
0.0
  0
LTYPE
  5
15
330
5
100
AcDbSymbolTableRecord
100
AcDbLinetypeTableRecord
  2
ByLayer
 70
     0
  3

 72
    65
 73
     0
 40
0.0
  0
LTYPE
  5
16
330
5
100
AcDbSymbolTableRecord
100
AcDbLinetypeTableRecord
  2
Continuous
 70
     0
  3
Solid line
 72
    65
 73
     0
 40
0.0
  0
ENDTAB
  0
TABLE
  2
LAYER
  5
2
330
0
100
AcDbSymbolTable
 70
     6
  0
LAYER
  5
10
330
2
100
AcDbSymbolTableRecord
100
AcDbLayerTableRecord
  2
0
 70
     0
 62
     7
  6
Continuous
370
    -3
390
F
  0
LAYER
  5
8B
330
2
100
AcDbSymbolTableRecord
100
AcDbLayerTableRecord
  2
Title Block
 70
     0
 62
     3
  6
Continuous
370
    -3
390
F
  0
LAYER
  5
8C
330
2
100
AcDbSymbolTableRecord
100
AcDbLayerTableRecord
  2
Dimension
 70
     0
 62
     6
  6
Continuous
370
    -3
390
F
  0
LAYER
  5
8D
330
2
100
AcDbSymbolTableRecord
100
AcDbLayerTableRecord
  2
Text
 70
     0
 62
     1
  6
Continuous
370
    -3
390
F
  0
LAYER
  5
8E
330
2
100
AcDbSymbolTableRecord
100
AcDbLayerTableRecord
  2
Object
 70
     0
 62
     5
  6
Continuous
370
    -3
390
F
  0
LAYER
  5
736
330
2
100
AcDbSymbolTableRecord
100
AcDbLayerTableRecord
  2
Defpoints
 70
     0
 62
     7
  6
Continuous
290
     0
370
    -3
390
F
  0
ENDTAB
  0
TABLE
  2
STYLE
  5
3
330
0
100
AcDbSymbolTable
 70
     1
  0
STYLE
  5
11
330
3
100
AcDbSymbolTableRecord
100
AcDbTextStyleTableRecord
  2
Standard
 70
     0
 40
0.0
 41
1.0
 50
0.0
 71
     0
 42
0.09
  3
technic_.ttf
  4

1001
ACAD
1000
Technic
1071
      514
  0
ENDTAB
  0
TABLE
  2
VIEW
  5
6
330
0
100
AcDbSymbolTable
 70
     0
  0
ENDTAB
  0
TABLE
  2
UCS
  5
7
330
0
100
AcDbSymbolTable
 70
     0
  0
ENDTAB
  0
TABLE
  2
APPID
  5
9
330
0
100
AcDbSymbolTable
 70
     4
  0
APPID
  5
12
330
9
100
AcDbSymbolTableRecord
100
AcDbRegAppTableRecord
  2
ACAD
 70
     0
  0
APPID
  5
90
330
9
100
AcDbSymbolTableRecord
100
AcDbRegAppTableRecord
  2
DCO15
 70
     0
  0
APPID
  5
91
330
9
100
AcDbSymbolTableRecord
100
AcDbRegAppTableRecord
  2
AcAecLayerStandard
 70
     0
  0
APPID
  5
E0
330
9
100
AcDbSymbolTableRecord
100
AcDbRegAppTableRecord
  2
ACAD_DSTYLE_DIMTEXT_FILL
 70
     0
  0
ENDTAB
  0
TABLE
  2
DIMSTYLE
  5
A
330
0
100
AcDbSymbolTable
 70
     1
100
AcDbDimStyleTable
 71
     1
340
27
  0
DIMSTYLE
105
27
102
{ACAD_REACTORS
330
735
330
7B9
330
7D4
102
}
330
A
100
AcDbSymbolTableRecord
100
AcDbDimStyleTableRecord
  2
Standard
 70
     0
  4
mm
 41
0.1875
 44
0.125
140
0.125
170
     1
171
     1
271
     2
272
     2
274
     1
340
11
  0
ENDTAB
  0
TABLE
  2
BLOCK_RECORD
  5
1
330
0
100
AcDbSymbolTable
 70
     4
  0
BLOCK_RECORD
  5
1F
102
{ACAD_XDICTIONARY
360
920
102
}
330
1
100
AcDbSymbolTableRecord
100
AcDbBlockTableRecord
  2
*Model_Space
340
22
  0
BLOCK_RECORD
  5
58
330
1
100
AcDbSymbolTableRecord
100
AcDbBlockTableRecord
  2
*Paper_Space
340
59
  0
BLOCK_RECORD
  5
5D
330
1
100
AcDbSymbolTableRecord
100
AcDbBlockTableRecord
  2
*Paper_Space0
340
5E
  0
BLOCK_RECORD
  5
737
330
1
100
AcDbSymbolTableRecord
100
AcDbBlockTableRecord
  2
*D1
340
0
  0
BLOCK_RECORD
  5
7BA
330
1
100
AcDbSymbolTableRecord
100
AcDbBlockTableRecord
  2
*D2
340
0
  0
BLOCK_RECORD
  5
7D5
330
1
100
AcDbSymbolTableRecord
100
AcDbBlockTableRecord
  2
*D3
340
0
  0
ENDTAB
  0
ENDSEC
  0
SECTION
  2
BLOCKS
  0
BLOCK
  5
20
330
1F
100
AcDbEntity
  8
0
100
AcDbBlockBegin
  2
*Model_Space
 70
     0
 10
0.0
 20
0.0
 30
0.0
  3
*Model_Space
  1

  0
ENDBLK
  5
21
330
1F
100
AcDbEntity
  8
0
100
AcDbBlockEnd
  0
BLOCK
  5
5A
330
58
100
AcDbEntity
 67
     1
  8
0
100
AcDbBlockBegin
  2
*Paper_Space
 70
     0
 10
0.0
 20
0.0
 30
0.0
  3
*Paper_Space
  1

  0
ENDBLK
  5
5B
330
58
100
AcDbEntity
 67
     1
  8
0
100
AcDbBlockEnd
  0
BLOCK
  5
5F
330
5D
100
AcDbEntity
  8
0
100
AcDbBlockBegin
  2
*Paper_Space0
 70
     0
 10
0.0
 20
0.0
 30
0.0
  3
*Paper_Space0
  1

  0
ENDBLK
  5
60
330
5D
100
AcDbEntity
  8
0
100
AcDbBlockEnd
  0
BLOCK
  5
742
330
737
100
AcDbEntity
  8
0
100
AcDbBlockBegin
  2
*D1
 70
     1
 10
0.0
 20
0.0
 30
0.0
  3
*D1
  1

  0
LINE
  5
936
330
737
100
AcDbEntity
  8
Dimension
 62
     0
370
    -2
100
AcDbLine
 10
8.1035
 20
13.08123081449144
 30
0.0
 11
10.44227656018575
 21
13.08123081449144
 31
0.0
  0
LINE
  5
937
330
737
100
AcDbEntity
  8
Dimension
 62
     0
370
    -2
100
AcDbLine
 10
8.107499999999999
 20
15.30523081449144
 30
0.0
 11
10.44227656018575
 21
15.30523081449144
 31
0.0
  0
LINE
  5
938
330
737
100
AcDbEntity
  8
Dimension
 62
     0
370
    -2
100
AcDbLine
 10
10.31727656018575
 20
13.26873081449144
 30
0.0
 11
10.31727656018575
 21
14.01569426478384
 31
0.0
  0
LINE
  5
939
330
737
100
AcDbEntity
  8
Dimension
 62
     0
370
    -2
100
AcDbLine
 10
10.31727656018575
 20
15.11773081449144
 30
0.0
 11
10.31727656018575
 21
14.37076736419905
 31
0.0
  0
SOLID
  5
93A
330
737
100
AcDbEntity
  8
Dimension
 62
     0
100
AcDbTrace
 10
10.28602656018575
 20
13.26873081449144
 30
0.0
 11
10.34852656018575
 21
13.26873081449144
 31
0.0
 12
10.31727656018575
 22
13.08123081449144
 32
0.0
 13
10.31727656018575
 23
13.08123081449144
 33
0.0
  0
SOLID
  5
93B
330
737
100
AcDbEntity
  8
Dimension
 62
     0
100
AcDbTrace
 10
10.28602656018575
 20
15.11773081449144
 30
0.0
 11
10.34852656018575
 21
15.11773081449144
 31
0.0
 12
10.31727656018575
 22
15.30523081449144
 32
0.0
 13
10.31727656018575
 23
15.30523081449144
 33
0.0
  0
MTEXT
  5
93C
330
737
100
AcDbEntity
  8
Dimension
 62
     0
100
AcDbMText
 10
10.31727656018575
 20
14.19323081449144
 30
0.0
 40
0.125
 41
0.0
 71
     5
 72
     1
  1
\A1;2.22 [56.4mm]
 73
     1
 44
1.0
1001
ACAD
1000
MTEXTBEGIN
1070
    73
1070
     1
1070
    44
1040
1.0
1070
    74
1070
     0
1000
MTEXTEND
  0
POINT
  5
93D
330
737
100
AcDbEntity
  8
Defpoints
 62
     0
100
AcDbPoint
 10
8.041
 20
13.08123081449144
 30
0.0
  0
POINT
  5
93E
330
737
100
AcDbEntity
  8
Defpoints
 62
     0
100
AcDbPoint
 10
8.044999999999999
 20
15.30523081449144
 30
0.0
  0
POINT
  5
93F
330
737
100
AcDbEntity
  8
Defpoints
 62
     0
100
AcDbPoint
 10
10.31727656018575
 20
15.30523081449144
 30
0.0
  0
ENDBLK
  5
743
330
737
100
AcDbEntity
  8
0
100
AcDbBlockEnd
  0
BLOCK
  5
7C5
330
7BA
100
AcDbEntity
  8
0
100
AcDbBlockBegin
  2
*D2
 70
     1
 10
0.0
 20
0.0
 30
0.0
  3
*D2
  1

  0
LINE
  5
7C8
330
7BA
100
AcDbEntity
  8
Dimension
 62
     0
370
    -2
100
AcDbLine
 10
3.455
 20
5.520730814491445
 30
0.0
 11
3.455
 21
10.28449634179668
 31
0.0
  0
LINE
  5
7C9
330
7BA
100
AcDbEntity
  8
Dimension
 62
     0
370
    -2
100
AcDbLine
 10
8.916999999999999
 20
5.520730814491445
 30
0.0
 11
8.916999999999999
 21
10.28449634179668
 31
0.0
  0
LINE
  5
7CA
330
7BA
100
AcDbEntity
  8
Dimension
 62
     0
370
    -2
100
AcDbLine
 10
3.6425
 20
10.15949634179668
 30
0.0
 11
5.494940058479532
 21
10.15949634179668
 31
0.0
  0
LINE
  5
7CB
330
7BA
100
AcDbEntity
  8
Dimension
 62
     0
370
    -2
100
AcDbLine
 10
8.729499999999999
 20
10.15949634179668
 30
0.0
 11
6.877059941520467
 21
10.15949634179668
 31
0.0
  0
SOLID
  5
7CC
330
7BA
100
AcDbEntity
  8
Dimension
 62
     0
100
AcDbTrace
 10
3.6425
 20
10.19074634179668
 30
0.0
 11
3.6425
 21
10.12824634179668
 31
0.0
 12
3.455
 22
10.15949634179668
 32
0.0
 13
3.455
 23
10.15949634179668
 33
0.0
  0
SOLID
  5
7CD
330
7BA
100
AcDbEntity
  8
Dimension
 62
     0
100
AcDbTrace
 10
8.729499999999999
 20
10.19074634179668
 30
0.0
 11
8.729499999999999
 21
10.12824634179668
 31
0.0
 12
8.916999999999999
 22
10.15949634179668
 32
0.0
 13
8.916999999999999
 23
10.15949634179668
 33
0.0
  0
MTEXT
  5
7CE
330
7BA
100
AcDbEntity
  8
Dimension
 62
     0
100
AcDbMText
 10
6.185999999999999
 20
10.15949634179668
 30
0.0
 40
0.125
 41
0.0
 71
     5
 72
     1
  1
\A1;5.46 [138.7mm]
 73
     1
 44
1.0
1001
ACAD
1000
MTEXTBEGIN
1070
    73
1070
     1
1070
    44
1040
1.0
1070
    74
1070
     0
1000
MTEXTEND
  0
POINT
  5
7CF
330
7BA
100
AcDbEntity
  8
Defpoints
 62
     0
100
AcDbPoint
 10
3.455
 20
5.458230814491445
 30
0.0
  0
POINT
  5
7D0
330
7BA
100
AcDbEntity
  8
Defpoints
 62
     0
100
AcDbPoint
 10
8.916999999999999
 20
5.458230814491445
 30
0.0
  0
POINT
  5
7D1
330
7BA
100
AcDbEntity
  8
Defpoints
 62
     0
100
AcDbPoint
 10
8.916999999999999
 20
10.15949634179668
 30
0.0
  0
ENDBLK
  5
7C6
330
7BA
100
AcDbEntity
  8
0
100
AcDbBlockEnd
  0
BLOCK
  5
7E0
330
7D5
100
AcDbEntity
  8
0
100
AcDbBlockBegin
  2
*D3
 70
     1
 10
0.0
 20
0.0
 30
0.0
  3
*D3
  1

  0
LINE
  5
7E3
330
7D5
100
AcDbEntity
  8
Dimension
 62
     0
370
    -2
100
AcDbLine
 10
17.2855
 20
5.353230814491444
 30
0.0
 11
14.10840765656696
 21
5.353230814491444
 31
0.0
  0
LINE
  5
7E4
330
7D5
100
AcDbEntity
  8
Dimension
 62
     0
370
    -2
100
AcDbLine
 10
15.7925
 20
9.037230814491445
 30
0.0
 11
14.10840765656696
 21
9.037230814491445
 31
0.0
  0
LINE
  5
7E5
330
7D5
100
AcDbEntity
  8
Dimension
 62
     0
370
    -2
100
AcDbLine
 10
14.23340765656696
 20
5.540730814491444
 30
0.0
 11
14.23340765656696
 21
7.017694264783843
 31
0.0
  0
LINE
  5
7E6
330
7D5
100
AcDbEntity
  8
Dimension
 62
     0
370
    -2
100
AcDbLine
 10
14.23340765656696
 20
8.849730814491445
 30
0.0
 11
14.23340765656696
 21
7.372767364199047
 31
0.0
  0
SOLID
  5
7E7
330
7D5
100
AcDbEntity
  8
Dimension
 62
     0
100
AcDbTrace
 10
14.20215765656696
 20
5.540730814491444
 30
0.0
 11
14.26465765656696
 21
5.540730814491444
 31
0.0
 12
14.23340765656696
 22
5.353230814491444
 32
0.0
 13
14.23340765656696
 23
5.353230814491444
 33
0.0
  0
SOLID
  5
7E8
330
7D5
100
AcDbEntity
  8
Dimension
 62
     0
100
AcDbTrace
 10
14.20215765656696
 20
8.849730814491445
 30
0.0
 11
14.26465765656696
 21
8.849730814491445
 31
0.0
 12
14.23340765656696
 22
9.037230814491445
 32
0.0
 13
14.23340765656696
 23
9.037230814491445
 33
0.0
  0
MTEXT
  5
7E9
330
7D5
100
AcDbEntity
  8
Dimension
 62
     0
100
AcDbMText
 10
14.23340765656696
 20
7.195230814491448
 30
0.0
 40
0.125
 41
0.0
 71
     5
 72
     1
  1
\A1;3.68 [93.6mm]
 73
     1
 44
1.0
1001
ACAD
1000
MTEXTBEGIN
1070
    73
1070
     1
1070
    44
1040
1.0
1070
    74
1070
     0
1000
MTEXTEND
  0
POINT
  5
7EA
330
7D5
100
AcDbEntity
  8
Defpoints
 62
     0
100
AcDbPoint
 10
17.348
 20
5.353230814491444
 30
0.0
  0
POINT
  5
7EB
330
7D5
100
AcDbEntity
  8
Defpoints
 62
     0
100
AcDbPoint
 10
15.855
 20
9.037230814491445
 30
0.0
  0
POINT
  5
7EC
330
7D5
100
AcDbEntity
  8
Defpoints
 62
     0
100
AcDbPoint
 10
14.23340765656696
 20
9.037230814491445
 30
0.0
  0
ENDBLK
  5
7E1
330
7D5
100
AcDbEntity
  8
0
100
AcDbBlockEnd
  0
ENDSEC
  0
SECTION
  2
ENTITIES
  0
LINE
  5
199
330
1F
100
AcDbEntity
  8
Object
100
AcDbLine
 10
18.046
 20
5.458230814491445
 30
0.0
 11
18.039
 21
5.458230814491445
 31
0.0
  0
LINE
  5
19A
330
1F
100
AcDbEntity
  8
Object
100
AcDbLine
 10
18.039
 20
5.458230814491445
 30
0.0
 11
18.018
 21
5.458230814491445
 31
0.0
  0
LINE
  5
19B
330
1F
100
AcDbEntity
  8
Object
100
AcDbLine
 10
18.018
 20
5.458230814491445
 30
0.0
 11
17.983
 21
5.458230814491445
 31
0.0
  0
LINE
  5
19C
330
1F
100
AcDbEntity
  8
Object
100
AcDbLine
 10
17.983
 20
5.458230814491445
 30
0.0
 11
17.934
 21
5.458230814491445
 31
0.0
  0
LINE
  5
19D
330
1F
100
AcDbEntity
  8
Object
100
AcDbLine
 10
17.934
 20
5.458230814491445
 30
0.0
 11
17.873
 21
5.458230814491445
 31
0.0
  0
LINE
  5
19E
330
1F
100
AcDbEntity
  8
Object
100
AcDbLine
 10
17.873
 20
5.458230814491445
 30
0.0
 11
17.8
 21
5.458230814491445
 31
0.0
  0
LINE
  5
19F
330
1F
100
AcDbEntity
  8
Object
100
AcDbLine
 10
17.8
 20
5.458230814491445
 30
0.0
 11
17.716
 21
5.458230814491445
 31
0.0
  0
LINE
  5
1A0
330
1F
100
AcDbEntity
  8
Object
100
AcDbLine
 10
17.716
 20
5.458230814491445
 30
0.0
 11
17.622
 21
5.458230814491445
 31
0.0
  0
LINE
  5
1A1
330
1F
100
AcDbEntity
  8
Object
100
AcDbLine
 10
15.935
 20
5.458230814491445
 30
0.0
 11
15.931
 21
5.458230814491445
 31
0.0
  0
LINE
  5
1A2
330
1F
100
AcDbEntity
  8
Object
100
AcDbLine
 10
15.931
 20
5.458230814491445
 30
0.0
 11
15.928
 21
5.458230814491445
 31
0.0
  0
LINE
  5
1A3
330
1F
100
AcDbEntity
  8
Object
100
AcDbLine
 10
15.928
 20
5.458230814491445
 30
0.0
 11
15.924
 21
5.458230814491445
 31
0.0
  0
LINE
  5
1A4
330
1F
100
AcDbEntity
  8
Object
100
AcDbLine
 10
15.924
 20
5.458230814491445
 30
0.0
 11
15.921
 21
5.458230814491445
 31
0.0
  0
LINE
  5
1A5
330
1F
100
AcDbEntity
  8
Object
100
AcDbLine
 10
15.921
 20
5.458230814491445
 30
0.0
 11
15.84
 21
5.458230814491445
 31
0.0
  0
LINE
  5
1A6
330
1F
100
AcDbEntity
  8
Object
100
AcDbLine
 10
17.622
 20
8.740230814491445
 30
0.0
 11
17.615
 21
8.740230814491445
 31
0.0
  0
LINE
  5
1A7
330
1F
100
AcDbEntity
  8
Object
100
AcDbLine
 10
17.622
 20
6.279230814491445
 30
0.0
 11
17.619
 21
6.283230814491445
 31
0.0
  0
LINE
  5
1A8
330
1F
100
AcDbEntity
  8
Object
100
AcDbLine
 10
17.619
 20
6.283230814491445
 30
0.0
 11
17.546
 21
6.353230814491444
 31
0.0
  0
LINE
  5
1A9
330
1F
100
AcDbEntity
  8
Object
100
AcDbLine
 10
17.615
 20
8.740230814491445
 30
0.0
 11
17.523
 21
8.740230814491445
 31
0.0
  0
LINE
  5
1AA
330
1F
100
AcDbEntity
  8
Object
100
AcDbLine
 10
17.523
 20
8.740230814491445
 30
0.0
 11
17.503
 21
6.527230814491446
 31
0.0
  0
LINE
  5
1AB
330
1F
100
AcDbEntity
  8
Object
100
AcDbLine
 10
17.466
 20
6.527230814491446
 30
0.0
 11
17.485
 21
6.527230814491446
 31
0.0
  0
LINE
  5
1AC
330
1F
100
AcDbEntity
  8
Object
100
AcDbLine
 10
17.485
 20
6.527230814491446
 30
0.0
 11
17.503
 21
6.527230814491446
 31
0.0
  0
LINE
  5
1AD
330
1F
100
AcDbEntity
  8
Object
100
AcDbLine
 10
17.464
 20
6.417230814491444
 30
0.0
 11
17.546
 21
6.353230814491444
 31
0.0
  0
LINE
  5
1AE
330
1F
100
AcDbEntity
  8
Object
100
AcDbLine
 10
17.466
 20
6.527230814491446
 30
0.0
 11
17.447
 21
6.527230814491446
 31
0.0
  0
LINE
  5
1AF
330
1F
100
AcDbEntity
  8
Object
100
AcDbLine
 10
17.447
 20
6.527230814491446
 30
0.0
 11
17.446
 21
6.537230814491445
 31
0.0
  0
LINE
  5
1B0
330
1F
100
AcDbEntity
  8
Object
100
AcDbLine
 10
17.366
 20
8.740230814491445
 30
0.0
 11
17.355
 21
8.740230814491445
 31
0.0
  0
LINE
  5
1B1
330
1F
100
AcDbEntity
  8
Object
100
AcDbLine
 10
17.324
 20
6.499230814491445
 30
0.0
 11
17.373
 21
6.474230814491445
 31
0.0
  0
LINE
  5
1B2
330
1F
100
AcDbEntity
  8
Object
100
AcDbLine
 10
17.355
 20
8.740230814491445
 30
0.0
 11
17.275
 21
9.037230814491445
 31
0.0
  0
LINE
  5
1B3
330
1F
100
AcDbEntity
  8
Object
100
AcDbLine
 10
17.22
 20
6.541230814491445
 30
0.0
 11
17.273
 21
6.521230814491445
 31
0.0
  0
LINE
  5
1B4
330
1F
100
AcDbEntity
  8
Object
100
AcDbLine
 10
17.275
 20
9.037230814491445
 30
0.0
 11
17.16
 21
9.037230814491445
 31
0.0
  0
LINE
  5
1B5
330
1F
100
AcDbEntity
  8
Object
100
AcDbLine
 10
17.166
 20
6.557230814491445
 30
0.0
 11
17.109
 21
6.570230814491445
 31
0.0
  0
LINE
  5
1B6
330
1F
100
AcDbEntity
  8
Object
100
AcDbLine
 10
17.109
 20
6.570230814491445
 30
0.0
 11
17.051
 21
6.580230814491445
 31
0.0
  0
LINE
  5
1B7
330
1F
100
AcDbEntity
  8
Object
100
AcDbLine
 10
17.16
 20
9.037230814491445
 30
0.0
 11
17.042
 21
9.037230814491445
 31
0.0
  0
LINE
  5
1B8
330
1F
100
AcDbEntity
  8
Object
100
AcDbLine
 10
17.051
 20
6.580230814491445
 30
0.0
 11
16.993
 21
6.585230814491445
 31
0.0
  0
LINE
  5
1B9
330
1F
100
AcDbEntity
  8
Object
100
AcDbLine
 10
16.993
 20
6.585230814491445
 30
0.0
 11
16.935
 21
6.587230814491445
 31
0.0
  0
LINE
  5
1BA
330
1F
100
AcDbEntity
  8
Object
100
AcDbLine
 10
17.042
 20
9.037230814491445
 30
0.0
 11
16.922
 21
9.037230814491445
 31
0.0
  0
LINE
  5
1BB
330
1F
100
AcDbEntity
  8
Object
100
AcDbLine
 10
16.935
 20
6.587230814491445
 30
0.0
 11
16.876
 21
6.585230814491445
 31
0.0
  0
LINE
  5
1BC
330
1F
100
AcDbEntity
  8
Object
100
AcDbLine
 10
16.876
 20
6.585230814491445
 30
0.0
 11
16.817
 21
6.580230814491445
 31
0.0
  0
LINE
  5
1BD
330
1F
100
AcDbEntity
  8
Object
100
AcDbLine
 10
16.922
 20
9.037230814491445
 30
0.0
 11
16.803
 21
9.037230814491445
 31
0.0
  0
LINE
  5
1BE
330
1F
100
AcDbEntity
  8
Object
100
AcDbLine
 10
16.704
 20
6.557230814491445
 30
0.0
 11
16.76
 21
6.570230814491445
 31
0.0
  0
LINE
  5
1BF
330
1F
100
AcDbEntity
  8
Object
100
AcDbLine
 10
16.803
 20
9.037230814491445
 30
0.0
 11
16.685
 21
9.037230814491445
 31
0.0
  0
LINE
  5
1C0
330
1F
100
AcDbEntity
  8
Object
100
AcDbLine
 10
16.596
 20
6.521230814491445
 30
0.0
 11
16.649
 21
6.540230814491446
 31
0.0
  0
LINE
  5
1C1
330
1F
100
AcDbEntity
  8
Object
100
AcDbLine
 10
16.685
 20
9.037230814491445
 30
0.0
 11
16.571
 21
9.037230814491445
 31
0.0
  0
LINE
  5
1C2
330
1F
100
AcDbEntity
  8
Object
100
AcDbLine
 10
16.496
 20
6.473230814491445
 30
0.0
 11
16.596
 21
6.521230814491445
 31
0.0
  0
LINE
  5
1C3
330
1F
100
AcDbEntity
  8
Object
100
AcDbLine
 10
16.571
 20
9.037230814491445
 30
0.0
 11
16.463
 21
9.037230814491445
 31
0.0
  0
LINE
  5
1C4
330
1F
100
AcDbEntity
  8
Object
100
AcDbLine
 10
16.405
 20
6.417230814491444
 30
0.0
 11
16.496
 21
6.473230814491445
 31
0.0
  0
LINE
  5
1C5
330
1F
100
AcDbEntity
  8
Object
100
AcDbLine
 10
16.463
 20
9.037230814491445
 30
0.0
 11
16.361
 21
9.037230814491445
 31
0.0
  0
LINE
  5
1C6
330
1F
100
AcDbEntity
  8
Object
100
AcDbLine
 10
16.323
 20
6.353230814491444
 30
0.0
 11
16.405
 21
6.417230814491444
 31
0.0
  0
LINE
  5
1C7
330
1F
100
AcDbEntity
  8
Object
100
AcDbLine
 10
16.361
 20
9.037230814491445
 30
0.0
 11
16.267
 21
9.037230814491445
 31
0.0
  0
LINE
  5
1C8
330
1F
100
AcDbEntity
  8
Object
100
AcDbLine
 10
16.323
 20
6.353230814491444
 30
0.0
 11
16.25
 21
6.283230814491445
 31
0.0
  0
LINE
  5
1C9
330
1F
100
AcDbEntity
  8
Object
100
AcDbLine
 10
16.25
 20
6.283230814491445
 30
0.0
 11
16.185
 21
6.208230814491445
 31
0.0
  0
LINE
  5
1CA
330
1F
100
AcDbEntity
  8
Object
100
AcDbLine
 10
16.267
 20
9.037230814491445
 30
0.0
 11
16.183
 21
9.037230814491445
 31
0.0
  0
LINE
  5
1CB
330
1F
100
AcDbEntity
  8
Object
100
AcDbLine
 10
16.128
 20
6.128230814491445
 30
0.0
 11
16.185
 21
6.208230814491445
 31
0.0
  0
LINE
  5
1CC
330
1F
100
AcDbEntity
  8
Object
100
AcDbLine
 10
16.183
 20
9.037230814491445
 30
0.0
 11
16.109
 21
9.037230814491445
 31
0.0
  0
LINE
  5
1CD
330
1F
100
AcDbEntity
  8
Object
100
AcDbLine
 10
16.128
 20
6.128230814491445
 30
0.0
 11
16.079
 21
6.046230814491445
 31
0.0
  0
LINE
  5
1CE
330
1F
100
AcDbEntity
  8
Object
100
AcDbLine
 10
16.079
 20
6.046230814491445
 30
0.0
 11
16.037
 21
5.961230814491445
 31
0.0
  0
LINE
  5
1CF
330
1F
100
AcDbEntity
  8
Object
100
AcDbLine
 10
16.109
 20
9.037230814491445
 30
0.0
 11
16.048
 21
9.037230814491445
 31
0.0
  0
LINE
  5
1D0
330
1F
100
AcDbEntity
  8
Object
100
AcDbLine
 10
16.002
 20
5.872230814491445
 30
0.0
 11
16.037
 21
5.961230814491445
 31
0.0
  0
LINE
  5
1D1
330
1F
100
AcDbEntity
  8
Object
100
AcDbLine
 10
16.048
 20
9.037230814491445
 30
0.0
 11
15.999
 21
9.037230814491445
 31
0.0
  0
LINE
  5
1D2
330
1F
100
AcDbEntity
  8
Object
100
AcDbLine
 10
16.002
 20
5.872230814491445
 30
0.0
 11
15.973
 21
5.779230814491445
 31
0.0
  0
LINE
  5
1D3
330
1F
100
AcDbEntity
  8
Object
100
AcDbLine
 10
15.973
 20
5.779230814491445
 30
0.0
 11
15.951
 21
5.681230814491446
 31
0.0
  0
LINE
  5
1D4
330
1F
100
AcDbEntity
  8
Object
100
AcDbLine
 10
15.999
 20
9.037230814491445
 30
0.0
 11
15.963
 21
9.037230814491445
 31
0.0
  0
LINE
  5
1D5
330
1F
100
AcDbEntity
  8
Object
100
AcDbLine
 10
15.951
 20
5.681230814491446
 30
0.0
 11
15.943
 21
5.629230814491445
 31
0.0
  0
LINE
  5
1D6
330
1F
100
AcDbEntity
  8
Object
100
AcDbLine
 10
15.943
 20
5.629230814491445
 30
0.0
 11
15.937
 21
5.574230814491444
 31
0.0
  0
LINE
  5
1D7
330
1F
100
AcDbEntity
  8
Object
100
AcDbLine
 10
15.937
 20
5.574230814491444
 30
0.0
 11
15.933
 21
5.517230814491445
 31
0.0
  0
LINE
  5
1D8
330
1F
100
AcDbEntity
  8
Object
100
AcDbLine
 10
15.933
 20
5.517230814491445
 30
0.0
 11
15.931
 21
5.458230814491445
 31
0.0
  0
LINE
  5
1D9
330
1F
100
AcDbEntity
  8
Object
100
AcDbLine
 10
15.931
 20
5.458230814491445
 30
0.0
 11
15.928
 21
5.458230814491445
 31
0.0
  0
LINE
  5
1DA
330
1F
100
AcDbEntity
  8
Object
100
AcDbLine
 10
15.928
 20
5.458230814491445
 30
0.0
 11
15.924
 21
5.458230814491445
 31
0.0
  0
LINE
  5
1DB
330
1F
100
AcDbEntity
  8
Object
100
AcDbLine
 10
15.924
 20
5.458230814491445
 30
0.0
 11
15.921
 21
5.458230814491445
 31
0.0
  0
LINE
  5
1DC
330
1F
100
AcDbEntity
  8
Object
100
AcDbLine
 10
15.963
 20
9.037230814491445
 30
0.0
 11
15.942
 21
9.037230814491445
 31
0.0
  0
LINE
  5
1DD
330
1F
100
AcDbEntity
  8
Object
100
AcDbLine
 10
15.942
 20
9.037230814491445
 30
0.0
 11
15.935
 21
9.037230814491445
 31
0.0
  0
LINE
  5
1DE
330
1F
100
AcDbEntity
  8
Object
100
AcDbLine
 10
17.564
 20
6.236230814491445
 30
0.0
 11
17.622
 21
6.183230814491444
 31
0.0
  0
LINE
  5
1DF
330
1F
100
AcDbEntity
  8
Object
100
AcDbLine
 10
17.546
 20
6.249230814491445
 30
0.0
 11
17.592
 21
6.210230814491445
 31
0.0
  0
LINE
  5
1E0
330
1F
100
AcDbEntity
  8
Object
100
AcDbLine
 10
17.473
 20
6.302230814491445
 30
0.0
 11
17.564
 21
6.236230814491445
 31
0.0
  0
LINE
  5
1E1
330
1F
100
AcDbEntity
  8
Object
100
AcDbLine
 10
17.46
 20
6.309230814491445
 30
0.0
 11
17.512
 21
6.274230814491446
 31
0.0
  0
LINE
  5
1E2
330
1F
100
AcDbEntity
  8
Object
100
AcDbLine
 10
17.366
 20
6.361230814491445
 30
0.0
 11
17.429
 21
6.326230814491445
 31
0.0
  0
LINE
  5
1E3
330
1F
100
AcDbEntity
  8
Object
100
AcDbLine
 10
17.464
 20
6.417230814491444
 30
0.0
 11
17.373
 21
6.474230814491445
 31
0.0
  0
LINE
  5
1E4
330
1F
100
AcDbEntity
  8
Object
100
AcDbLine
 10
17.37
 20
6.360230814491445
 30
0.0
 11
17.473
 21
6.302230814491445
 31
0.0
  0
LINE
  5
1E5
330
1F
100
AcDbEntity
  8
Object
100
AcDbLine
 10
17.256
 20
6.406230814491445
 30
0.0
 11
17.366
 21
6.361230814491445
 31
0.0
  0
LINE
  5
1E6
330
1F
100
AcDbEntity
  8
Object
100
AcDbLine
 10
17.324
 20
6.499230814491445
 30
0.0
 11
17.273
 21
6.521230814491445
 31
0.0
  0
LINE
  5
1E7
330
1F
100
AcDbEntity
  8
Object
100
AcDbLine
 10
17.234
 20
6.412230814491445
 30
0.0
 11
17.266
 21
6.402230814491446
 31
0.0
  0
LINE
  5
1E8
330
1F
100
AcDbEntity
  8
Object
100
AcDbLine
 10
17.22
 20
6.541230814491445
 30
0.0
 11
17.166
 21
6.557230814491445
 31
0.0
  0
LINE
  5
1E9
330
1F
100
AcDbEntity
  8
Object
100
AcDbLine
 10
17.134
 20
6.439230814491445
 30
0.0
 11
17.256
 21
6.406230814491445
 31
0.0
  0
LINE
  5
1EA
330
1F
100
AcDbEntity
  8
Object
100
AcDbLine
 10
17.116
 20
6.441230814491445
 30
0.0
 11
17.156
 21
6.433230814491444
 31
0.0
  0
LINE
  5
1EB
330
1F
100
AcDbEntity
  8
Object
100
AcDbLine
 10
17.005
 20
6.457230814491445
 30
0.0
 11
17.134
 21
6.439230814491445
 31
0.0
  0
LINE
  5
1EC
330
1F
100
AcDbEntity
  8
Object
100
AcDbLine
 10
17.028
 20
6.453230814491445
 30
0.0
 11
16.992
 21
6.457230814491445
 31
0.0
  0
LINE
  5
1ED
330
1F
100
AcDbEntity
  8
Object
100
AcDbLine
 10
16.992
 20
6.457230814491445
 30
0.0
 11
16.987
 21
6.457230814491445
 31
0.0
  0
LINE
  5
1EE
330
1F
100
AcDbEntity
  8
Object
100
AcDbLine
 10
16.874
 20
6.458230814491445
 30
0.0
 11
17.005
 21
6.457230814491445
 31
0.0
  0
LINE
  5
1EF
330
1F
100
AcDbEntity
  8
Object
100
AcDbLine
 10
16.906
 20
6.457230814491445
 30
0.0
 11
16.877
 21
6.457230814491445
 31
0.0
  0
LINE
  5
1F0
330
1F
100
AcDbEntity
  8
Object
100
AcDbLine
 10
16.877
 20
6.457230814491445
 30
0.0
 11
16.82
 21
6.452230814491445
 31
0.0
  0
LINE
  5
1F1
330
1F
100
AcDbEntity
  8
Object
100
AcDbLine
 10
16.817
 20
6.580230814491445
 30
0.0
 11
16.76
 21
6.570230814491445
 31
0.0
  0
LINE
  5
1F2
330
1F
100
AcDbEntity
  8
Object
100
AcDbLine
 10
16.82
 20
6.452230814491445
 30
0.0
 11
16.763
 21
6.444230814491445
 31
0.0
  0
LINE
  5
1F3
330
1F
100
AcDbEntity
  8
Object
100
AcDbLine
 10
16.763
 20
6.444230814491445
 30
0.0
 11
16.719
 21
6.434230814491445
 31
0.0
  0
LINE
  5
1F4
330
1F
100
AcDbEntity
  8
Object
100
AcDbLine
 10
16.704
 20
6.557230814491445
 30
0.0
 11
16.649
 21
6.540230814491446
 31
0.0
  0
LINE
  5
1F5
330
1F
100
AcDbEntity
  8
Object
100
AcDbLine
 10
16.621
 20
6.409230814491445
 30
0.0
 11
16.745
 21
6.441230814491445
 31
0.0
  0
LINE
  5
1F6
330
1F
100
AcDbEntity
  8
Object
100
AcDbLine
 10
16.603
 20
6.402230814491446
 30
0.0
 11
16.642
 21
6.414230814491444
 31
0.0
  0
LINE
  5
1F7
330
1F
100
AcDbEntity
  8
Object
100
AcDbLine
 10
16.505
 20
6.362230814491445
 30
0.0
 11
16.621
 21
6.409230814491445
 31
0.0
  0
LINE
  5
1F8
330
1F
100
AcDbEntity
  8
Object
100
AcDbLine
 10
16.588
 20
6.395230814491445
 30
0.0
 11
16.504
 21
6.361230814491445
 31
0.0
  0
LINE
  5
1F9
330
1F
100
AcDbEntity
  8
Object
100
AcDbLine
 10
16.504
 20
6.361230814491445
 30
0.0
 11
16.423
 21
6.317230814491445
 31
0.0
  0
LINE
  5
1FA
330
1F
100
AcDbEntity
  8
Object
100
AcDbLine
 10
16.401
 20
6.305230814491444
 30
0.0
 11
16.505
 21
6.362230814491445
 31
0.0
  0
LINE
  5
1FB
330
1F
100
AcDbEntity
  8
Object
100
AcDbLine
 10
16.361
 20
6.276230814491444
 30
0.0
 11
16.413
 21
6.312230814491445
 31
0.0
  0
LINE
  5
1FC
330
1F
100
AcDbEntity
  8
Object
100
AcDbLine
 10
16.307
 20
6.237230814491445
 30
0.0
 11
16.401
 21
6.305230814491444
 31
0.0
  0
LINE
  5
1FD
330
1F
100
AcDbEntity
  8
Object
100
AcDbLine
 10
16.322
 20
6.248230814491445
 30
0.0
 11
16.26
 21
6.196230814491444
 31
0.0
  0
LINE
  5
1FE
330
1F
100
AcDbEntity
  8
Object
100
AcDbLine
 10
16.26
 20
6.196230814491444
 30
0.0
 11
16.207
 21
6.143230814491445
 31
0.0
  0
LINE
  5
1FF
330
1F
100
AcDbEntity
  8
Object
100
AcDbLine
 10
16.147
 20
6.075230814491445
 30
0.0
 11
16.221
 21
6.159230814491445
 31
0.0
  0
LINE
  5
200
330
1F
100
AcDbEntity
  8
Object
100
AcDbLine
 10
16.138
 20
6.063230814491445
 30
0.0
 11
16.173
 21
6.104230814491446
 31
0.0
  0
LINE
  5
201
330
1F
100
AcDbEntity
  8
Object
100
AcDbLine
 10
16.094
 20
6.000230814491445
 30
0.0
 11
16.147
 21
6.075230814491445
 31
0.0
  0
LINE
  5
202
330
1F
100
AcDbEntity
  8
Object
100
AcDbLine
 10
16.089
 20
5.992230814491446
 30
0.0
 11
16.137
 21
6.061230814491445
 31
0.0
  0
LINE
  5
203
330
1F
100
AcDbEntity
  8
Object
100
AcDbLine
 10
16.057
 20
5.937230814491445
 30
0.0
 11
16.094
 21
6.000230814491445
 31
0.0
  0
LINE
  5
204
330
1F
100
AcDbEntity
  8
Object
100
AcDbLine
 10
16.047
 20
5.918230814491445
 30
0.0
 11
16.084
 21
5.984230814491445
 31
0.0
  0
LINE
  5
205
330
1F
100
AcDbEntity
  8
Object
100
AcDbLine
 10
16.029
 20
5.882230814491445
 30
0.0
 11
16.057
 21
5.937230814491445
 31
0.0
  0
LINE
  5
206
330
1F
100
AcDbEntity
  8
Object
100
AcDbLine
 10
16.012
 20
5.843230814491445
 30
0.0
 11
16.044
 21
5.912230814491445
 31
0.0
  0
LINE
  5
207
330
1F
100
AcDbEntity
  8
Object
100
AcDbLine
 10
16.008
 20
5.833230814491445
 30
0.0
 11
16.029
 21
5.882230814491445
 31
0.0
  0
LINE
  5
208
330
1F
100
AcDbEntity
  8
Object
100
AcDbLine
 10
15.983
 20
5.764230814491445
 30
0.0
 11
16.009
 21
5.836230814491445
 31
0.0
  0
LINE
  5
209
330
1F
100
AcDbEntity
  8
Object
100
AcDbLine
 10
15.973
 20
5.733230814491445
 30
0.0
 11
15.989
 21
5.784230814491445
 31
0.0
  0
LINE
  5
20A
330
1F
100
AcDbEntity
  8
Object
100
AcDbLine
 10
15.957
 20
5.670230814491445
 30
0.0
 11
15.978
 21
5.749230814491445
 31
0.0
  0
LINE
  5
20B
330
1F
100
AcDbEntity
  8
Object
100
AcDbLine
 10
15.949
 20
5.628230814491445
 30
0.0
 11
15.96
 21
5.682230814491445
 31
0.0
  0
LINE
  5
20C
330
1F
100
AcDbEntity
  8
Object
100
AcDbLine
 10
15.949
 20
5.625230814491445
 30
0.0
 11
15.954
 21
5.655230814491445
 31
0.0
  0
LINE
  5
20D
330
1F
100
AcDbEntity
  8
Object
100
AcDbLine
 10
15.949
 20
5.628230814491445
 30
0.0
 11
15.941
 21
5.571230814491444
 31
0.0
  0
LINE
  5
20E
330
1F
100
AcDbEntity
  8
Object
100
AcDbLine
 10
15.941
 20
5.571230814491444
 30
0.0
 11
15.936
 21
5.508230814491446
 31
0.0
  0
LINE
  5
20F
330
1F
100
AcDbEntity
  8
Object
100
AcDbLine
 10
15.936
 20
5.508230814491446
 30
0.0
 11
15.935
 21
5.458230814491445
 31
0.0
  0
LINE
  5
210
330
1F
100
AcDbEntity
  8
Object
100
AcDbLine
 10
15.935
 20
5.458230814491445
 30
0.0
 11
15.931
 21
5.458230814491445
 31
0.0
  0
LINE
  5
211
330
1F
100
AcDbEntity
  8
Object
100
AcDbLine
 10
18.039
 20
5.458230814491445
 30
0.0
 11
18.046
 21
5.458230814491445
 31
0.0
  0
LINE
  5
212
330
1F
100
AcDbEntity
  8
Object
100
AcDbLine
 10
18.046
 20
5.458230814491445
 30
0.0
 11
18.017
 21
8.740230814491445
 31
0.0
  0
LINE
  5
213
330
1F
100
AcDbEntity
  8
Object
100
AcDbLine
 10
18.018
 20
5.458230814491445
 30
0.0
 11
18.039
 21
5.458230814491445
 31
0.0
  0
LINE
  5
214
330
1F
100
AcDbEntity
  8
Object
100
AcDbLine
 10
18.017
 20
8.740230814491445
 30
0.0
 11
18.004
 21
8.740230814491445
 31
0.0
  0
LINE
  5
215
330
1F
100
AcDbEntity
  8
Object
100
AcDbLine
 10
18.004
 20
8.740230814491445
 30
0.0
 11
17.976
 21
8.740230814491445
 31
0.0
  0
LINE
  5
216
330
1F
100
AcDbEntity
  8
Object
100
AcDbLine
 10
18.018
 20
5.458230814491445
 30
0.0
 11
17.983
 21
5.458230814491445
 31
0.0
  0
LINE
  5
217
330
1F
100
AcDbEntity
  8
Object
100
AcDbLine
 10
17.983
 20
5.458230814491445
 30
0.0
 11
17.934
 21
5.458230814491445
 31
0.0
  0
LINE
  5
218
330
1F
100
AcDbEntity
  8
Object
100
AcDbLine
 10
17.976
 20
8.740230814491445
 30
0.0
 11
17.932
 21
8.740230814491445
 31
0.0
  0
LINE
  5
219
330
1F
100
AcDbEntity
  8
Object
100
AcDbLine
 10
17.932
 20
8.740230814491445
 30
0.0
 11
17.874
 21
8.740230814491445
 31
0.0
  0
LINE
  5
21A
330
1F
100
AcDbEntity
  8
Object
100
AcDbLine
 10
17.873
 20
5.458230814491445
 30
0.0
 11
17.934
 21
5.458230814491445
 31
0.0
  0
LINE
  5
21B
330
1F
100
AcDbEntity
  8
Object
100
AcDbLine
 10
17.874
 20
8.740230814491445
 30
0.0
 11
17.803
 21
8.740230814491445
 31
0.0
  0
LINE
  5
21C
330
1F
100
AcDbEntity
  8
Object
100
AcDbLine
 10
17.8
 20
5.458230814491445
 30
0.0
 11
17.873
 21
5.458230814491445
 31
0.0
  0
LINE
  5
21D
330
1F
100
AcDbEntity
  8
Object
100
AcDbLine
 10
17.803
 20
8.740230814491445
 30
0.0
 11
17.718
 21
8.740230814491445
 31
0.0
  0
LINE
  5
21E
330
1F
100
AcDbEntity
  8
Object
100
AcDbLine
 10
17.8
 20
5.458230814491445
 30
0.0
 11
17.716
 21
5.458230814491445
 31
0.0
  0
LINE
  5
21F
330
1F
100
AcDbEntity
  8
Object
100
AcDbLine
 10
17.716
 20
5.458230814491445
 30
0.0
 11
17.622
 21
5.458230814491445
 31
0.0
  0
LINE
  5
220
330
1F
100
AcDbEntity
  8
Object
100
AcDbLine
 10
17.622
 20
5.458230814491445
 30
0.0
 11
17.622
 21
8.740230814491445
 31
0.0
  0
LINE
  5
221
330
1F
100
AcDbEntity
  8
Object
100
AcDbLine
 10
17.622
 20
8.740230814491445
 30
0.0
 11
17.718
 21
8.740230814491445
 31
0.0
  0
LINE
  5
222
330
1F
100
AcDbEntity
  8
Object
100
AcDbLine
 10
15.84
 20
5.458230814491445
 30
0.0
 11
15.834
 21
5.462230814491444
 31
0.0
  0
LINE
  5
223
330
1F
100
AcDbEntity
  8
Object
100
AcDbLine
 10
15.834
 20
5.462230814491444
 30
0.0
 11
15.83
 21
5.472230814491445
 31
0.0
  0
LINE
  5
224
330
1F
100
AcDbEntity
  8
Object
100
AcDbLine
 10
15.83
 20
5.472230814491445
 30
0.0
 11
15.827
 21
5.490230814491445
 31
0.0
  0
LINE
  5
225
330
1F
100
AcDbEntity
  8
Object
100
AcDbLine
 10
15.827
 20
5.490230814491445
 30
0.0
 11
15.825
 21
5.513230814491445
 31
0.0
  0
LINE
  5
226
330
1F
100
AcDbEntity
  8
Object
100
AcDbLine
 10
15.855
 20
9.037230814491445
 30
0.0
 11
15.825
 21
5.646230814491445
 31
0.0
  0
LINE
  5
227
330
1F
100
AcDbEntity
  8
Object
100
AcDbLine
 10
15.825
 20
5.646230814491445
 30
0.0
 11
15.825
 21
5.609230814491445
 31
0.0
  0
LINE
  5
228
330
1F
100
AcDbEntity
  8
Object
100
AcDbLine
 10
15.825
 20
5.609230814491445
 30
0.0
 11
15.825
 21
5.574230814491444
 31
0.0
  0
LINE
  5
229
330
1F
100
AcDbEntity
  8
Object
100
AcDbLine
 10
15.855
 20
9.037230814491445
 30
0.0
 11
15.825
 21
5.609230814491445
 31
0.0
  0
LINE
  5
22A
330
1F
100
AcDbEntity
  8
Object
100
AcDbLine
 10
15.825
 20
5.574230814491444
 30
0.0
 11
15.825
 21
5.541230814491445
 31
0.0
  0
LINE
  5
22B
330
1F
100
AcDbEntity
  8
Object
100
AcDbLine
 10
15.825
 20
5.541230814491445
 30
0.0
 11
15.825
 21
5.513230814491445
 31
0.0
  0
LINE
  5
22C
330
1F
100
AcDbEntity
  8
Object
100
AcDbLine
 10
17.622
 20
8.740230814491445
 30
0.0
 11
17.622
 21
5.458230814491445
 31
0.0
  0
LINE
  5
22D
330
1F
100
AcDbEntity
  8
Object
100
AcDbLine
 10
17.546
 20
6.249230814491445
 30
0.0
 11
17.592
 21
6.210230814491445
 31
0.0
  0
LINE
  5
22E
330
1F
100
AcDbEntity
  8
Object
100
AcDbLine
 10
17.421
 20
6.331230814491445
 30
0.0
 11
17.463
 21
6.307230814491445
 31
0.0
  0
LINE
  5
22F
330
1F
100
AcDbEntity
  8
Object
100
AcDbLine
 10
17.234
 20
6.412230814491445
 30
0.0
 11
17.266
 21
6.402230814491446
 31
0.0
  0
LINE
  5
230
330
1F
100
AcDbEntity
  8
Object
100
AcDbLine
 10
17.116
 20
6.441230814491445
 30
0.0
 11
17.156
 21
6.433230814491444
 31
0.0
  0
LINE
  5
231
330
1F
100
AcDbEntity
  8
Object
100
AcDbLine
 10
16.992
 20
6.457230814491445
 30
0.0
 11
17.028
 21
6.453230814491445
 31
0.0
  0
LINE
  5
232
330
1F
100
AcDbEntity
  8
Object
100
AcDbLine
 10
16.999
 20
6.456230814491445
 30
0.0
 11
16.983
 21
6.457230814491445
 31
0.0
  0
LINE
  5
233
330
1F
100
AcDbEntity
  8
Object
100
AcDbLine
 10
16.889
 20
6.457230814491445
 30
0.0
 11
16.87
 21
6.456230814491445
 31
0.0
  0
LINE
  5
234
330
1F
100
AcDbEntity
  8
Object
100
AcDbLine
 10
16.877
 20
6.457230814491445
 30
0.0
 11
16.82
 21
6.452230814491445
 31
0.0
  0
LINE
  5
235
330
1F
100
AcDbEntity
  8
Object
100
AcDbLine
 10
16.82
 20
6.452230814491445
 30
0.0
 11
16.763
 21
6.444230814491445
 31
0.0
  0
LINE
  5
236
330
1F
100
AcDbEntity
  8
Object
100
AcDbLine
 10
16.763
 20
6.444230814491445
 30
0.0
 11
16.719
 21
6.434230814491445
 31
0.0
  0
LINE
  5
237
330
1F
100
AcDbEntity
  8
Object
100
AcDbLine
 10
16.603
 20
6.402230814491446
 30
0.0
 11
16.642
 21
6.414230814491444
 31
0.0
  0
LINE
  5
238
330
1F
100
AcDbEntity
  8
Object
100
AcDbLine
 10
16.588
 20
6.395230814491445
 30
0.0
 11
16.504
 21
6.361230814491445
 31
0.0
  0
LINE
  5
239
330
1F
100
AcDbEntity
  8
Object
100
AcDbLine
 10
16.504
 20
6.361230814491445
 30
0.0
 11
16.423
 21
6.317230814491445
 31
0.0
  0
LINE
  5
23A
330
1F
100
AcDbEntity
  8
Object
100
AcDbLine
 10
16.361
 20
6.276230814491444
 30
0.0
 11
16.413
 21
6.312230814491445
 31
0.0
  0
LINE
  5
23B
330
1F
100
AcDbEntity
  8
Object
100
AcDbLine
 10
16.322
 20
6.248230814491445
 30
0.0
 11
16.26
 21
6.196230814491444
 31
0.0
  0
LINE
  5
23C
330
1F
100
AcDbEntity
  8
Object
100
AcDbLine
 10
16.26
 20
6.196230814491444
 30
0.0
 11
16.207
 21
6.143230814491445
 31
0.0
  0
LINE
  5
23D
330
1F
100
AcDbEntity
  8
Object
100
AcDbLine
 10
16.138
 20
6.063230814491445
 30
0.0
 11
16.173
 21
6.104230814491446
 31
0.0
  0
LINE
  5
23E
330
1F
100
AcDbEntity
  8
Object
100
AcDbLine
 10
16.089
 20
5.992230814491446
 30
0.0
 11
16.137
 21
6.061230814491445
 31
0.0
  0
LINE
  5
23F
330
1F
100
AcDbEntity
  8
Object
100
AcDbLine
 10
16.047
 20
5.918230814491445
 30
0.0
 11
16.084
 21
5.984230814491445
 31
0.0
  0
LINE
  5
240
330
1F
100
AcDbEntity
  8
Object
100
AcDbLine
 10
16.012
 20
5.843230814491445
 30
0.0
 11
16.044
 21
5.912230814491445
 31
0.0
  0
LINE
  5
241
330
1F
100
AcDbEntity
  8
Object
100
AcDbLine
 10
15.983
 20
5.764230814491445
 30
0.0
 11
16.009
 21
5.836230814491445
 31
0.0
  0
LINE
  5
242
330
1F
100
AcDbEntity
  8
Object
100
AcDbLine
 10
15.957
 20
5.670230814491445
 30
0.0
 11
15.978
 21
5.749230814491445
 31
0.0
  0
LINE
  5
243
330
1F
100
AcDbEntity
  8
Object
100
AcDbLine
 10
15.949
 20
5.625230814491445
 30
0.0
 11
15.954
 21
5.655230814491445
 31
0.0
  0
LINE
  5
244
330
1F
100
AcDbEntity
  8
Object
100
AcDbLine
 10
15.915
 20
5.462230814491444
 30
0.0
 11
15.921
 21
5.458230814491445
 31
0.0
  0
LINE
  5
245
330
1F
100
AcDbEntity
  8
Object
100
AcDbLine
 10
15.921
 20
5.458230814491445
 30
0.0
 11
15.84
 21
5.458230814491445
 31
0.0
  0
LINE
  5
246
330
1F
100
AcDbEntity
  8
Object
100
AcDbLine
 10
15.915
 20
5.462230814491444
 30
0.0
 11
15.91
 21
5.472230814491445
 31
0.0
  0
LINE
  5
247
330
1F
100
AcDbEntity
  8
Object
100
AcDbLine
 10
15.91
 20
5.472230814491445
 30
0.0
 11
15.907
 21
5.490230814491445
 31
0.0
  0
LINE
  5
248
330
1F
100
AcDbEntity
  8
Object
100
AcDbLine
 10
15.825
 20
5.646230814491445
 30
0.0
 11
15.905
 21
5.646230814491445
 31
0.0
  0
LINE
  5
249
330
1F
100
AcDbEntity
  8
Object
100
AcDbLine
 10
15.905
 20
5.646230814491445
 30
0.0
 11
15.905
 21
5.609230814491445
 31
0.0
  0
LINE
  5
24A
330
1F
100
AcDbEntity
  8
Object
100
AcDbLine
 10
15.907
 20
5.490230814491445
 30
0.0
 11
15.906
 21
5.513230814491445
 31
0.0
  0
LINE
  5
24B
330
1F
100
AcDbEntity
  8
Object
100
AcDbLine
 10
15.906
 20
5.513230814491445
 30
0.0
 11
15.905
 21
5.542230814491444
 31
0.0
  0
LINE
  5
24C
330
1F
100
AcDbEntity
  8
Object
100
AcDbLine
 10
15.905
 20
5.609230814491445
 30
0.0
 11
15.905
 21
5.574230814491444
 31
0.0
  0
LINE
  5
24D
330
1F
100
AcDbEntity
  8
Object
100
AcDbLine
 10
15.905
 20
5.574230814491444
 30
0.0
 11
15.905
 21
5.542230814491444
 31
0.0
  0
LINE
  5
24E
330
1F
100
AcDbEntity
  8
Object
100
AcDbLine
 10
17.428
 20
8.740230814491445
 30
0.0
 11
17.437
 21
8.740230814491445
 31
0.0
  0
LINE
  5
24F
330
1F
100
AcDbEntity
  8
Object
100
AcDbLine
 10
17.275
 20
9.037230814491445
 30
0.0
 11
17.16
 21
9.037230814491445
 31
0.0
  0
LINE
  5
250
330
1F
100
AcDbEntity
  8
Object
100
AcDbLine
 10
17.16
 20
9.037230814491445
 30
0.0
 11
17.042
 21
9.037230814491445
 31
0.0
  0
LINE
  5
251
330
1F
100
AcDbEntity
  8
Object
100
AcDbLine
 10
17.042
 20
9.037230814491445
 30
0.0
 11
16.922
 21
9.037230814491445
 31
0.0
  0
LINE
  5
252
330
1F
100
AcDbEntity
  8
Object
100
AcDbLine
 10
16.922
 20
9.037230814491445
 30
0.0
 11
16.803
 21
9.037230814491445
 31
0.0
  0
LINE
  5
253
330
1F
100
AcDbEntity
  8
Object
100
AcDbLine
 10
16.803
 20
9.037230814491445
 30
0.0
 11
16.685
 21
9.037230814491445
 31
0.0
  0
LINE
  5
254
330
1F
100
AcDbEntity
  8
Object
100
AcDbLine
 10
16.685
 20
9.037230814491445
 30
0.0
 11
16.571
 21
9.037230814491445
 31
0.0
  0
LINE
  5
255
330
1F
100
AcDbEntity
  8
Object
100
AcDbLine
 10
16.571
 20
9.037230814491445
 30
0.0
 11
16.463
 21
9.037230814491445
 31
0.0
  0
LINE
  5
256
330
1F
100
AcDbEntity
  8
Object
100
AcDbLine
 10
16.463
 20
9.037230814491445
 30
0.0
 11
16.361
 21
9.037230814491445
 31
0.0
  0
LINE
  5
257
330
1F
100
AcDbEntity
  8
Object
100
AcDbLine
 10
16.361
 20
9.037230814491445
 30
0.0
 11
16.267
 21
9.037230814491445
 31
0.0
  0
LINE
  5
258
330
1F
100
AcDbEntity
  8
Object
100
AcDbLine
 10
16.267
 20
9.037230814491445
 30
0.0
 11
16.183
 21
9.037230814491445
 31
0.0
  0
LINE
  5
259
330
1F
100
AcDbEntity
  8
Object
100
AcDbLine
 10
16.183
 20
9.037230814491445
 30
0.0
 11
16.109
 21
9.037230814491445
 31
0.0
  0
LINE
  5
25A
330
1F
100
AcDbEntity
  8
Object
100
AcDbLine
 10
16.109
 20
9.037230814491445
 30
0.0
 11
16.048
 21
9.037230814491445
 31
0.0
  0
LINE
  5
25B
330
1F
100
AcDbEntity
  8
Object
100
AcDbLine
 10
16.048
 20
9.037230814491445
 30
0.0
 11
15.999
 21
9.037230814491445
 31
0.0
  0
LINE
  5
25C
330
1F
100
AcDbEntity
  8
Object
100
AcDbLine
 10
15.999
 20
9.037230814491445
 30
0.0
 11
15.963
 21
9.037230814491445
 31
0.0
  0
LINE
  5
25D
330
1F
100
AcDbEntity
  8
Object
100
AcDbLine
 10
15.963
 20
9.037230814491445
 30
0.0
 11
15.942
 21
9.037230814491445
 31
0.0
  0
LINE
  5
25E
330
1F
100
AcDbEntity
  8
Object
100
AcDbLine
 10
15.942
 20
9.037230814491445
 30
0.0
 11
15.935
 21
9.037230814491445
 31
0.0
  0
LINE
  5
25F
330
1F
100
AcDbEntity
  8
Object
100
AcDbLine
 10
15.935
 20
9.037230814491445
 30
0.0
 11
15.855
 21
9.037230814491445
 31
0.0
  0
LINE
  5
260
102
{ACAD_REACTORS
330
7ED
102
}
330
1F
100
AcDbEntity
  8
Object
100
AcDbLine
 10
15.855
 20
9.037230814491445
 30
0.0
 11
15.935
 21
9.037230814491445
 31
0.0
  0
LINE
  5
261
330
1F
100
AcDbEntity
  8
Object
100
AcDbLine
 10
15.935
 20
9.037230814491445
 30
0.0
 11
15.905
 21
5.646230814491445
 31
0.0
  0
LINE
  5
262
330
1F
100
AcDbEntity
  8
Object
100
AcDbLine
 10
17.503
 20
6.527230814491446
 30
0.0
 11
17.5
 21
6.530230814491445
 31
0.0
  0
LINE
  5
263
330
1F
100
AcDbEntity
  8
Object
100
AcDbLine
 10
17.49
 20
6.537230814491445
 30
0.0
 11
17.491
 21
6.536230814491445
 31
0.0
  0
LINE
  5
264
330
1F
100
AcDbEntity
  8
Object
100
AcDbLine
 10
17.491
 20
6.536230814491445
 30
0.0
 11
17.493
 21
6.536230814491445
 31
0.0
  0
LINE
  5
265
330
1F
100
AcDbEntity
  8
Object
100
AcDbLine
 10
17.452
 20
6.537230814491445
 30
0.0
 11
17.452
 21
6.535230814491445
 31
0.0
  0
LINE
  5
266
330
1F
100
AcDbEntity
  8
Object
100
AcDbLine
 10
17.493
 20
6.536230814491445
 30
0.0
 11
17.497
 21
6.533230814491445
 31
0.0
  0
LINE
  5
267
330
1F
100
AcDbEntity
  8
Object
100
AcDbLine
 10
17.497
 20
6.533230814491445
 30
0.0
 11
17.5
 21
6.530230814491445
 31
0.0
  0
LINE
  5
268
330
1F
100
AcDbEntity
  8
Object
100
AcDbLine
 10
17.518
 20
8.740230814491445
 30
0.0
 11
17.521
 21
8.740230814491445
 31
0.0
  0
LINE
  5
269
330
1F
100
AcDbEntity
  8
Object
100
AcDbLine
 10
17.521
 20
8.740230814491445
 30
0.0
 11
17.523
 21
8.740230814491445
 31
0.0
  0
LINE
  5
26A
330
1F
100
AcDbEntity
  8
Object
100
AcDbLine
 10
17.513
 20
8.740230814491445
 30
0.0
 11
17.515
 21
8.740230814491445
 31
0.0
  0
LINE
  5
26B
330
1F
100
AcDbEntity
  8
Object
100
AcDbLine
 10
17.515
 20
8.740230814491445
 30
0.0
 11
17.518
 21
8.740230814491445
 31
0.0
  0
LINE
  5
26C
330
1F
100
AcDbEntity
  8
Object
100
AcDbLine
 10
17.509
 20
8.740230814491445
 30
0.0
 11
17.51
 21
8.740230814491445
 31
0.0
  0
LINE
  5
26D
330
1F
100
AcDbEntity
  8
Object
100
AcDbLine
 10
17.51
 20
8.740230814491445
 30
0.0
 11
17.513
 21
8.740230814491445
 31
0.0
  0
LINE
  5
26E
330
1F
100
AcDbEntity
  8
Object
100
AcDbLine
 10
17.507
 20
8.740230814491445
 30
0.0
 11
17.508
 21
8.740230814491445
 31
0.0
  0
LINE
  5
26F
330
1F
100
AcDbEntity
  8
Object
100
AcDbLine
 10
17.508
 20
8.740230814491445
 30
0.0
 11
17.509
 21
8.740230814491445
 31
0.0
  0
LINE
  5
270
330
1F
100
AcDbEntity
  8
Object
100
AcDbLine
 10
17.49
 20
6.537230814491445
 30
0.0
 11
17.488
 21
6.537230814491445
 31
0.0
  0
LINE
  5
271
330
1F
100
AcDbEntity
  8
Object
100
AcDbLine
 10
17.488
 20
6.537230814491445
 30
0.0
 11
17.488
 21
6.539230814491444
 31
0.0
  0
LINE
  5
272
330
1F
100
AcDbEntity
  8
Object
100
AcDbLine
 10
17.355
 20
8.740230814491445
 30
0.0
 11
17.275
 21
9.037230814491445
 31
0.0
  0
LINE
  5
273
330
1F
100
AcDbEntity
  8
Object
100
AcDbLine
 10
18.017
 20
8.740230814491445
 30
0.0
 11
18.004
 21
8.740230814491445
 31
0.0
  0
LINE
  5
274
330
1F
100
AcDbEntity
  8
Object
100
AcDbLine
 10
18.004
 20
8.740230814491445
 30
0.0
 11
17.976
 21
8.740230814491445
 31
0.0
  0
LINE
  5
275
330
1F
100
AcDbEntity
  8
Object
100
AcDbLine
 10
17.976
 20
8.740230814491445
 30
0.0
 11
17.932
 21
8.740230814491445
 31
0.0
  0
LINE
  5
276
330
1F
100
AcDbEntity
  8
Object
100
AcDbLine
 10
17.932
 20
8.740230814491445
 30
0.0
 11
17.874
 21
8.740230814491445
 31
0.0
  0
LINE
  5
277
330
1F
100
AcDbEntity
  8
Object
100
AcDbLine
 10
17.874
 20
8.740230814491445
 30
0.0
 11
17.803
 21
8.740230814491445
 31
0.0
  0
LINE
  5
278
330
1F
100
AcDbEntity
  8
Object
100
AcDbLine
 10
17.803
 20
8.740230814491445
 30
0.0
 11
17.718
 21
8.740230814491445
 31
0.0
  0
LINE
  5
279
330
1F
100
AcDbEntity
  8
Object
100
AcDbLine
 10
17.718
 20
8.740230814491445
 30
0.0
 11
17.622
 21
8.740230814491445
 31
0.0
  0
LINE
  5
27A
330
1F
100
AcDbEntity
  8
Object
100
AcDbLine
 10
17.622
 20
8.740230814491445
 30
0.0
 11
17.615
 21
8.740230814491445
 31
0.0
  0
LINE
  5
27B
330
1F
100
AcDbEntity
  8
Object
100
AcDbLine
 10
17.615
 20
8.740230814491445
 30
0.0
 11
17.523
 21
8.740230814491445
 31
0.0
  0
LINE
  5
27C
330
1F
100
AcDbEntity
  8
Object
100
AcDbLine
 10
17.523
 20
8.740230814491445
 30
0.0
 11
17.521
 21
8.740230814491445
 31
0.0
  0
LINE
  5
27D
330
1F
100
AcDbEntity
  8
Object
100
AcDbLine
 10
17.521
 20
8.740230814491445
 30
0.0
 11
17.518
 21
8.740230814491445
 31
0.0
  0
LINE
  5
27E
330
1F
100
AcDbEntity
  8
Object
100
AcDbLine
 10
17.518
 20
8.740230814491445
 30
0.0
 11
17.515
 21
8.740230814491445
 31
0.0
  0
LINE
  5
27F
330
1F
100
AcDbEntity
  8
Object
100
AcDbLine
 10
17.515
 20
8.740230814491445
 30
0.0
 11
17.513
 21
8.740230814491445
 31
0.0
  0
LINE
  5
280
330
1F
100
AcDbEntity
  8
Object
100
AcDbLine
 10
17.513
 20
8.740230814491445
 30
0.0
 11
17.51
 21
8.740230814491445
 31
0.0
  0
LINE
  5
281
330
1F
100
AcDbEntity
  8
Object
100
AcDbLine
 10
17.51
 20
8.740230814491445
 30
0.0
 11
17.509
 21
8.740230814491445
 31
0.0
  0
LINE
  5
282
330
1F
100
AcDbEntity
  8
Object
100
AcDbLine
 10
17.509
 20
8.740230814491445
 30
0.0
 11
17.508
 21
8.740230814491445
 31
0.0
  0
LINE
  5
283
330
1F
100
AcDbEntity
  8
Object
100
AcDbLine
 10
17.508
 20
8.740230814491445
 30
0.0
 11
17.507
 21
8.740230814491445
 31
0.0
  0
LINE
  5
284
330
1F
100
AcDbEntity
  8
Object
100
AcDbLine
 10
17.432
 20
8.740230814491445
 30
0.0
 11
17.507
 21
8.740230814491445
 31
0.0
  0
LINE
  5
285
330
1F
100
AcDbEntity
  8
Object
100
AcDbLine
 10
17.432
 20
8.740230814491445
 30
0.0
 11
17.407
 21
8.740230814491445
 31
0.0
  0
LINE
  5
286
330
1F
100
AcDbEntity
  8
Object
100
AcDbLine
 10
17.407
 20
8.740230814491445
 30
0.0
 11
17.385
 21
8.740230814491445
 31
0.0
  0
LINE
  5
287
330
1F
100
AcDbEntity
  8
Object
100
AcDbLine
 10
17.385
 20
8.740230814491445
 30
0.0
 11
17.371
 21
8.740230814491445
 31
0.0
  0
LINE
  5
288
330
1F
100
AcDbEntity
  8
Object
100
AcDbLine
 10
17.371
 20
8.740230814491445
 30
0.0
 11
17.366
 21
8.740230814491445
 31
0.0
  0
LINE
  5
289
330
1F
100
AcDbEntity
  8
Object
100
AcDbLine
 10
17.366
 20
8.740230814491445
 30
0.0
 11
17.355
 21
8.740230814491445
 31
0.0
  0
LINE
  5
28A
330
1F
100
AcDbEntity
  8
Object
100
AcDbLine
 10
17.447
 20
6.527230814491446
 30
0.0
 11
17.45
 21
6.531230814491445
 31
0.0
  0
LINE
  5
28B
330
1F
100
AcDbEntity
  8
Object
100
AcDbLine
 10
17.45
 20
6.531230814491445
 30
0.0
 11
17.452
 21
6.535230814491445
 31
0.0
  0
LINE
  5
28C
330
1F
100
AcDbEntity
  8
Object
100
AcDbLine
 10
17.452
 20
6.535230814491445
 30
0.0
 11
17.451
 21
6.537230814491445
 31
0.0
  0
LINE
  5
28D
330
1F
100
AcDbEntity
  8
Object
100
AcDbLine
 10
16.983
 20
6.457230814491445
 30
0.0
 11
16.999
 21
6.456230814491445
 31
0.0
  0
LINE
  5
28E
330
1F
100
AcDbEntity
  8
Object
100
AcDbLine
 10
17.389
 20
6.346230814491445
 30
0.0
 11
17.39
 21
6.343230814491445
 31
0.0
  0
LINE
  5
28F
330
1F
100
AcDbEntity
  8
Object
100
AcDbLine
 10
17.388
 20
6.348230814491445
 30
0.0
 11
17.389
 21
6.346230814491445
 31
0.0
  0
LINE
  5
290
330
1F
100
AcDbEntity
  8
Object
100
AcDbLine
 10
17.387
 20
6.349230814491445
 30
0.0
 11
17.388
 21
6.348230814491445
 31
0.0
  0
LINE
  5
291
330
1F
100
AcDbEntity
  8
Object
100
AcDbLine
 10
17.52
 20
6.267230814491445
 30
0.0
 11
17.522
 21
6.266230814491445
 31
0.0
  0
LINE
  5
292
330
1F
100
AcDbEntity
  8
Object
100
AcDbLine
 10
17.46
 20
6.308230814491444
 30
0.0
 11
17.464
 21
6.306230814491446
 31
0.0
  0
LINE
  5
293
330
1F
100
AcDbEntity
  8
Object
100
AcDbLine
 10
17.339
 20
6.370230814491446
 30
0.0
 11
17.34
 21
6.366230814491445
 31
0.0
  0
LINE
  5
294
330
1F
100
AcDbEntity
  8
Object
100
AcDbLine
 10
17.34
 20
6.366230814491445
 30
0.0
 11
17.344
 21
6.364230814491445
 31
0.0
  0
LINE
  5
295
330
1F
100
AcDbEntity
  8
Object
100
AcDbLine
 10
17.337
 20
6.372230814491445
 30
0.0
 11
17.339
 21
6.370230814491446
 31
0.0
  0
LINE
  5
296
330
1F
100
AcDbEntity
  8
Object
100
AcDbLine
 10
17.453
 20
6.305230814491444
 30
0.0
 11
17.455
 21
6.307230814491445
 31
0.0
  0
LINE
  5
297
330
1F
100
AcDbEntity
  8
Object
100
AcDbLine
 10
17.39
 20
6.343230814491445
 30
0.0
 11
17.39
 21
6.338230814491446
 31
0.0
  0
LINE
  5
298
330
1F
100
AcDbEntity
  8
Object
100
AcDbLine
 10
17.453
 20
6.305230814491444
 30
0.0
 11
17.451
 21
6.303230814491445
 31
0.0
  0
LINE
  5
299
330
1F
100
AcDbEntity
  8
Object
100
AcDbLine
 10
17.451
 20
6.303230814491445
 30
0.0
 11
17.39
 21
6.338230814491446
 31
0.0
  0
LINE
  5
29A
330
1F
100
AcDbEntity
  8
Object
100
AcDbLine
 10
17.389
 20
6.346230814491445
 30
0.0
 11
17.39
 21
6.343230814491445
 31
0.0
  0
LINE
  5
29B
330
1F
100
AcDbEntity
  8
Object
100
AcDbLine
 10
17.455
 20
6.307230814491445
 30
0.0
 11
17.46
 21
6.308230814491444
 31
0.0
  0
LINE
  5
29C
330
1F
100
AcDbEntity
  8
Object
100
AcDbLine
 10
17.46
 20
6.308230814491444
 30
0.0
 11
17.464
 21
6.306230814491446
 31
0.0
  0
LINE
  5
29D
330
1F
100
AcDbEntity
  8
Object
100
AcDbLine
 10
17.389
 20
6.346230814491445
 30
0.0
 11
17.388
 21
6.348230814491445
 31
0.0
  0
LINE
  5
29E
330
1F
100
AcDbEntity
  8
Object
100
AcDbLine
 10
17.388
 20
6.348230814491445
 30
0.0
 11
17.387
 21
6.349230814491445
 31
0.0
  0
LINE
  5
29F
330
1F
100
AcDbEntity
  8
Object
100
AcDbLine
 10
17.522
 20
6.266230814491445
 30
0.0
 11
17.52
 21
6.267230814491445
 31
0.0
  0
LINE
  5
2A0
330
1F
100
AcDbEntity
  8
Object
100
AcDbLine
 10
17.52
 20
6.267230814491445
 30
0.0
 11
17.515
 21
6.266230814491445
 31
0.0
  0
LINE
  5
2A1
330
1F
100
AcDbEntity
  8
Object
100
AcDbLine
 10
17.515
 20
6.266230814491445
 30
0.0
 11
17.513
 21
6.265230814491445
 31
0.0
  0
LINE
  5
2A2
330
1F
100
AcDbEntity
  8
Object
100
AcDbLine
 10
17.513
 20
6.265230814491445
 30
0.0
 11
17.512
 21
6.263230814491445
 31
0.0
  0
LINE
  5
2A3
330
1F
100
AcDbEntity
  8
Object
100
AcDbLine
 10
16.87
 20
6.456230814491445
 30
0.0
 11
16.889
 21
6.457230814491445
 31
0.0
  0
LINE
  5
2A4
330
1F
100
AcDbEntity
  8
Object
100
AcDbLine
 10
17.452
 20
6.537230814491445
 30
0.0
 11
17.452
 21
6.535230814491445
 31
0.0
  0
LINE
  5
2A5
330
1F
100
AcDbEntity
  8
Object
100
AcDbLine
 10
17.452
 20
6.535230814491445
 30
0.0
 11
17.451
 21
6.537230814491445
 31
0.0
  0
LINE
  5
2A6
330
1F
100
AcDbEntity
  8
Object
100
AcDbLine
 10
17.49
 20
6.537230814491445
 30
0.0
 11
17.488
 21
6.537230814491445
 31
0.0
  0
LINE
  5
2A7
330
1F
100
AcDbEntity
  8
Object
100
AcDbLine
 10
17.488
 20
6.537230814491445
 30
0.0
 11
17.452
 21
6.537230814491445
 31
0.0
  0
LINE
  5
2A8
330
1F
100
AcDbEntity
  8
Object
100
AcDbLine
 10
17.452
 20
6.537230814491445
 30
0.0
 11
17.429
 21
6.537230814491445
 31
0.0
  0
LINE
  5
2A9
330
1F
100
AcDbEntity
  8
Object
100
AcDbLine
 10
17.429
 20
6.537230814491445
 30
0.0
 11
17.407
 21
6.537230814491445
 31
0.0
  0
LINE
  5
2AA
330
1F
100
AcDbEntity
  8
Object
100
AcDbLine
 10
17.407
 20
6.537230814491445
 30
0.0
 11
17.391
 21
6.537230814491445
 31
0.0
  0
LINE
  5
2AB
330
1F
100
AcDbEntity
  8
Object
100
AcDbLine
 10
17.391
 20
6.537230814491445
 30
0.0
 11
17.385
 21
6.537230814491445
 31
0.0
  0
LINE
  5
2AC
330
1F
100
AcDbEntity
  8
Object
100
AcDbLine
 10
17.489
 20
6.662230814491445
 30
0.0
 11
17.507
 21
8.740230814491445
 31
0.0
  0
LINE
  5
2AD
330
1F
100
AcDbEntity
  8
Object
100
AcDbLine
 10
17.489
 20
6.616230814491445
 30
0.0
 11
17.489
 21
6.639230814491445
 31
0.0
  0
LINE
  5
2AE
330
1F
100
AcDbEntity
  8
Object
100
AcDbLine
 10
17.489
 20
6.639230814491445
 30
0.0
 11
17.489
 21
6.662230814491445
 31
0.0
  0
LINE
  5
2AF
330
1F
100
AcDbEntity
  8
Object
100
AcDbLine
 10
17.488
 20
6.545230814491445
 30
0.0
 11
17.488
 21
6.557230814491445
 31
0.0
  0
LINE
  5
2B0
330
1F
100
AcDbEntity
  8
Object
100
AcDbLine
 10
17.488
 20
6.557230814491445
 30
0.0
 11
17.488
 21
6.573230814491445
 31
0.0
  0
LINE
  5
2B1
330
1F
100
AcDbEntity
  8
Object
100
AcDbLine
 10
17.488
 20
6.573230814491445
 30
0.0
 11
17.488
 21
6.593230814491445
 31
0.0
  0
LINE
  5
2B2
330
1F
100
AcDbEntity
  8
Object
100
AcDbLine
 10
17.488
 20
6.593230814491445
 30
0.0
 11
17.489
 21
6.616230814491445
 31
0.0
  0
LINE
  5
2B3
330
1F
100
AcDbEntity
  8
Object
100
AcDbLine
 10
17.488
 20
6.539230814491444
 30
0.0
 11
17.488
 21
6.537230814491445
 31
0.0
  0
LINE
  5
2B4
330
1F
100
AcDbEntity
  8
Object
100
AcDbLine
 10
17.488
 20
6.537230814491445
 30
0.0
 11
17.488
 21
6.539230814491444
 31
0.0
  0
LINE
  5
2B5
330
1F
100
AcDbEntity
  8
Object
100
AcDbLine
 10
17.488
 20
6.539230814491444
 30
0.0
 11
17.488
 21
6.545230814491445
 31
0.0
  0
LINE
  5
2B6
330
1F
100
AcDbEntity
  8
Object
100
AcDbLine
 10
17.366
 20
8.740230814491445
 30
0.0
 11
17.385
 21
6.537230814491445
 31
0.0
  0
LINE
  5
2B7
330
1F
100
AcDbEntity
  8
Object
100
AcDbLine
 10
17.451
 20
6.649230814491445
 30
0.0
 11
17.432
 21
8.740230814491445
 31
0.0
  0
LINE
  5
2B8
330
1F
100
AcDbEntity
  8
Object
100
AcDbLine
 10
17.451
 20
6.547230814491445
 30
0.0
 11
17.452
 21
6.537230814491445
 31
0.0
  0
LINE
  5
2B9
330
1F
100
AcDbEntity
  8
Object
100
AcDbLine
 10
17.452
 20
6.537230814491445
 30
0.0
 11
17.429
 21
6.537230814491445
 31
0.0
  0
LINE
  5
2BA
330
1F
100
AcDbEntity
  8
Object
100
AcDbLine
 10
17.432
 20
8.740230814491445
 30
0.0
 11
17.407
 21
8.740230814491445
 31
0.0
  0
LINE
  5
2BB
330
1F
100
AcDbEntity
  8
Object
100
AcDbLine
 10
17.429
 20
6.537230814491445
 30
0.0
 11
17.407
 21
6.537230814491445
 31
0.0
  0
LINE
  5
2BC
330
1F
100
AcDbEntity
  8
Object
100
AcDbLine
 10
17.407
 20
6.537230814491445
 30
0.0
 11
17.391
 21
6.537230814491445
 31
0.0
  0
LINE
  5
2BD
330
1F
100
AcDbEntity
  8
Object
100
AcDbLine
 10
17.407
 20
8.740230814491445
 30
0.0
 11
17.385
 21
8.740230814491445
 31
0.0
  0
LINE
  5
2BE
330
1F
100
AcDbEntity
  8
Object
100
AcDbLine
 10
17.385
 20
8.740230814491445
 30
0.0
 11
17.371
 21
8.740230814491445
 31
0.0
  0
LINE
  5
2BF
330
1F
100
AcDbEntity
  8
Object
100
AcDbLine
 10
17.385
 20
6.537230814491445
 30
0.0
 11
17.391
 21
6.537230814491445
 31
0.0
  0
LINE
  5
2C0
330
1F
100
AcDbEntity
  8
Object
100
AcDbLine
 10
17.371
 20
8.740230814491445
 30
0.0
 11
17.366
 21
8.740230814491445
 31
0.0
  0
LINE
  5
2C1
330
1F
100
AcDbEntity
  8
Object
100
AcDbLine
 10
17.452
 20
6.537230814491445
 30
0.0
 11
17.452
 21
6.539230814491444
 31
0.0
  0
LINE
  5
2C2
330
1F
100
AcDbEntity
  8
Object
100
AcDbLine
 10
17.452
 20
6.539230814491444
 30
0.0
 11
17.452
 21
6.545230814491445
 31
0.0
  0
LINE
  5
2C3
330
1F
100
AcDbEntity
  8
Object
100
AcDbLine
 10
17.452
 20
6.545230814491445
 30
0.0
 11
17.451
 21
6.557230814491445
 31
0.0
  0
LINE
  5
2C4
330
1F
100
AcDbEntity
  8
Object
100
AcDbLine
 10
17.451
 20
6.593230814491445
 30
0.0
 11
17.451
 21
6.573230814491445
 31
0.0
  0
LINE
  5
2C5
330
1F
100
AcDbEntity
  8
Object
100
AcDbLine
 10
17.451
 20
6.573230814491445
 30
0.0
 11
17.451
 21
6.557230814491445
 31
0.0
  0
LINE
  5
2C6
330
1F
100
AcDbEntity
  8
Object
100
AcDbLine
 10
17.451
 20
6.639230814491445
 30
0.0
 11
17.451
 21
6.616230814491445
 31
0.0
  0
LINE
  5
2C7
330
1F
100
AcDbEntity
  8
Object
100
AcDbLine
 10
17.451
 20
6.616230814491445
 30
0.0
 11
17.451
 21
6.593230814491445
 31
0.0
  0
LINE
  5
2C8
330
1F
100
AcDbEntity
  8
Object
100
AcDbLine
 10
17.451
 20
6.662230814491445
 30
0.0
 11
17.451
 21
6.639230814491445
 31
0.0
  0
LINE
  5
2C9
330
1F
100
AcDbEntity
  8
Object
100
AcDbLine
 10
17.451
 20
6.649230814491445
 30
0.0
 11
17.432
 21
8.740230814491445
 31
0.0
  0
LINE
  5
2CA
330
1F
100
AcDbEntity
  8
Object
100
AcDbLine
 10
17.452
 20
6.537230814491445
 30
0.0
 11
17.451
 21
6.547230814491445
 31
0.0
  0
LINE
  5
2CB
330
1F
100
AcDbEntity
  8
Object
100
AcDbLine
 10
17.432
 20
8.740230814491445
 30
0.0
 11
17.451
 21
6.662230814491445
 31
0.0
  0
LINE
  5
2CC
330
1F
100
AcDbEntity
  8
Object
100
AcDbLine
 10
17.507
 20
8.740230814491445
 30
0.0
 11
17.489
 21
6.662230814491445
 31
0.0
  0
LINE
  5
2CD
330
1F
100
AcDbEntity
  8
Object
100
AcDbLine
 10
17.489
 20
6.662230814491445
 30
0.0
 11
17.451
 21
6.662230814491445
 31
0.0
  0
LINE
  5
2CE
330
1F
100
AcDbEntity
  8
Object
100
AcDbLine
 10
17.451
 20
6.662230814491445
 30
0.0
 11
17.432
 21
8.740230814491445
 31
0.0
  0
LINE
  5
2CF
330
1F
100
AcDbEntity
  8
Object
100
AcDbLine
 10
17.432
 20
8.740230814491445
 30
0.0
 11
17.507
 21
8.740230814491445
 31
0.0
  0
LINE
  5
2D0
330
1F
100
AcDbEntity
  8
Object
100
AcDbLine
 10
17.398
 20
5.402230814491445
 30
0.0
 11
17.398
 21
5.377230814491445
 31
0.0
  0
LINE
  5
2D1
330
1F
100
AcDbEntity
  8
Object
100
AcDbLine
 10
17.398
 20
5.377230814491445
 30
0.0
 11
17.398
 21
5.359230814491445
 31
0.0
  0
LINE
  5
2D2
330
1F
100
AcDbEntity
  8
Object
100
AcDbLine
 10
17.398
 20
5.359230814491445
 30
0.0
 11
17.398
 21
5.353230814491444
 31
0.0
  0
LINE
  5
2D3
330
1F
100
AcDbEntity
  8
Object
100
AcDbLine
 10
17.398
 20
5.433230814491444
 30
0.0
 11
17.398
 21
5.402230814491445
 31
0.0
  0
LINE
  5
2D4
330
1F
100
AcDbEntity
  8
Object
100
AcDbLine
 10
17.398
 20
5.353230814491444
 30
0.0
 11
17.39
 21
6.317230814491445
 31
0.0
  0
LINE
  5
2D5
330
1F
100
AcDbEntity
  8
Object
100
AcDbLine
 10
17.398
 20
5.433230814491444
 30
0.0
 11
17.39
 21
6.338230814491446
 31
0.0
  0
LINE
  5
2D6
330
1F
100
AcDbEntity
  8
Object
100
AcDbLine
 10
17.39
 20
6.338230814491446
 30
0.0
 11
17.39
 21
6.343230814491445
 31
0.0
  0
LINE
  5
2D7
330
1F
100
AcDbEntity
  8
Object
100
AcDbLine
 10
17.52
 20
6.267230814491445
 30
0.0
 11
17.515
 21
6.266230814491445
 31
0.0
  0
LINE
  5
2D8
330
1F
100
AcDbEntity
  8
Object
100
AcDbLine
 10
17.515
 20
6.266230814491445
 30
0.0
 11
17.513
 21
6.265230814491445
 31
0.0
  0
LINE
  5
2D9
330
1F
100
AcDbEntity
  8
Object
100
AcDbLine
 10
17.513
 20
6.265230814491445
 30
0.0
 11
17.512
 21
6.263230814491445
 31
0.0
  0
LINE
  5
2DA
330
1F
100
AcDbEntity
  8
Object
100
AcDbLine
 10
17.512
 20
6.263230814491445
 30
0.0
 11
17.51
 21
6.260230814491444
 31
0.0
  0
LINE
  5
2DB
330
1F
100
AcDbEntity
  8
Object
100
AcDbLine
 10
17.51
 20
6.260230814491444
 30
0.0
 11
17.51
 21
6.257230814491445
 31
0.0
  0
LINE
  5
2DC
330
1F
100
AcDbEntity
  8
Object
100
AcDbLine
 10
17.46
 20
6.308230814491444
 30
0.0
 11
17.455
 21
6.307230814491445
 31
0.0
  0
LINE
  5
2DD
330
1F
100
AcDbEntity
  8
Object
100
AcDbLine
 10
17.455
 20
6.307230814491445
 30
0.0
 11
17.453
 21
6.305230814491444
 31
0.0
  0
LINE
  5
2DE
330
1F
100
AcDbEntity
  8
Object
100
AcDbLine
 10
17.453
 20
6.305230814491444
 30
0.0
 11
17.451
 21
6.303230814491445
 31
0.0
  0
LINE
  5
2DF
330
1F
100
AcDbEntity
  8
Object
100
AcDbLine
 10
17.451
 20
6.303230814491445
 30
0.0
 11
17.45
 21
6.301230814491445
 31
0.0
  0
LINE
  5
2E0
330
1F
100
AcDbEntity
  8
Object
100
AcDbLine
 10
17.45
 20
6.301230814491445
 30
0.0
 11
17.45
 21
6.298230814491445
 31
0.0
  0
LINE
  5
2E1
330
1F
100
AcDbEntity
  8
Object
100
AcDbLine
 10
17.39
 20
6.317230814491445
 30
0.0
 11
17.398
 21
5.353230814491444
 31
0.0
  0
LINE
  5
2E2
330
1F
100
AcDbEntity
  8
Object
100
AcDbLine
 10
17.398
 20
5.353230814491444
 30
0.0
 11
17.38
 21
5.353230814491444
 31
0.0
  0
LINE
  5
2E3
330
1F
100
AcDbEntity
  8
Object
100
AcDbLine
 10
17.39
 20
6.338230814491446
 30
0.0
 11
17.372
 21
6.349230814491445
 31
0.0
  0
LINE
  5
2E4
330
1F
100
AcDbEntity
  8
Object
100
AcDbLine
 10
17.363
 20
5.353230814491444
 30
0.0
 11
17.38
 21
5.353230814491444
 31
0.0
  0
LINE
  5
2E5
330
1F
100
AcDbEntity
  8
Object
100
AcDbLine
 10
17.372
 20
6.349230814491445
 30
0.0
 11
17.356
 21
6.358230814491445
 31
0.0
  0
LINE
  5
2E6
330
1F
100
AcDbEntity
  8
Object
100
AcDbLine
 10
17.352
 20
5.353230814491444
 30
0.0
 11
17.363
 21
5.353230814491444
 31
0.0
  0
LINE
  5
2E7
330
1F
100
AcDbEntity
  8
Object
100
AcDbLine
 10
17.356
 20
6.358230814491445
 30
0.0
 11
17.344
 21
6.364230814491445
 31
0.0
  0
LINE
  5
2E8
330
1F
100
AcDbEntity
  8
Object
100
AcDbLine
 10
17.352
 20
5.353230814491444
 30
0.0
 11
17.348
 21
5.353230814491444
 31
0.0
  0
LINE
  5
2E9
330
1F
100
AcDbEntity
  8
Object
100
AcDbLine
 10
17.348
 20
5.353230814491444
 30
0.0
 11
17.34
 21
6.366230814491445
 31
0.0
  0
LINE
  5
2EA
330
1F
100
AcDbEntity
  8
Object
100
AcDbLine
 10
17.398
 20
5.353230814491444
 30
0.0
 11
17.398
 21
5.424230814491445
 31
0.0
  0
LINE
  5
2EB
330
1F
100
AcDbEntity
  8
Object
100
AcDbLine
 10
17.398
 20
5.424230814491445
 30
0.0
 11
17.398
 21
5.432230814491445
 31
0.0
  0
LINE
  5
2EC
330
1F
100
AcDbEntity
  8
Object
100
AcDbLine
 10
17.441
 20
5.353230814491444
 30
0.0
 11
17.441
 21
5.361230814491445
 31
0.0
  0
LINE
  5
2ED
330
1F
100
AcDbEntity
  8
Object
100
AcDbLine
 10
17.45
 20
6.298230814491445
 30
0.0
 11
17.45
 21
6.301230814491445
 31
0.0
  0
LINE
  5
2EE
330
1F
100
AcDbEntity
  8
Object
100
AcDbLine
 10
17.45
 20
6.301230814491445
 30
0.0
 11
17.451
 21
6.303230814491445
 31
0.0
  0
LINE
  5
2EF
330
1F
100
AcDbEntity
  8
Object
100
AcDbLine
 10
17.39
 20
6.338230814491446
 30
0.0
 11
17.398
 21
5.433230814491444
 31
0.0
  0
LINE
  5
2F0
330
1F
100
AcDbEntity
  8
Object
100
AcDbLine
 10
17.398
 20
5.433230814491444
 30
0.0
 11
17.442
 21
5.433230814491444
 31
0.0
  0
LINE
  5
2F1
330
1F
100
AcDbEntity
  8
Object
100
AcDbLine
 10
17.442
 20
5.433230814491444
 30
0.0
 11
17.45
 21
6.298230814491445
 31
0.0
  0
LINE
  5
2F2
330
1F
100
AcDbEntity
  8
Object
100
AcDbLine
 10
17.51
 20
6.257230814491445
 30
0.0
 11
17.51
 21
6.260230814491444
 31
0.0
  0
LINE
  5
2F3
330
1F
100
AcDbEntity
  8
Object
100
AcDbLine
 10
17.451
 20
6.303230814491445
 30
0.0
 11
17.512
 21
6.263230814491445
 31
0.0
  0
LINE
  5
2F4
330
1F
100
AcDbEntity
  8
Object
100
AcDbLine
 10
17.512
 20
6.263230814491445
 30
0.0
 11
17.51
 21
6.260230814491444
 31
0.0
  0
LINE
  5
2F5
330
1F
100
AcDbEntity
  8
Object
100
AcDbLine
 10
17.51
 20
6.257230814491445
 30
0.0
 11
17.503
 21
5.478230814491444
 31
0.0
  0
LINE
  5
2F6
330
1F
100
AcDbEntity
  8
Object
100
AcDbLine
 10
17.503
 20
5.478230814491444
 30
0.0
 11
17.442
 21
5.478230814491444
 31
0.0
  0
LINE
  5
2F7
330
1F
100
AcDbEntity
  8
Object
100
AcDbLine
 10
17.452
 20
6.539230814491444
 30
0.0
 11
17.452
 21
6.537230814491445
 31
0.0
  0
LINE
  5
2F8
330
1F
100
AcDbEntity
  8
Object
100
AcDbLine
 10
17.488
 20
6.539230814491444
 30
0.0
 11
17.488
 21
6.537230814491445
 31
0.0
  0
LINE
  5
2F9
330
1F
100
AcDbEntity
  8
Object
100
AcDbLine
 10
17.488
 20
6.537230814491445
 30
0.0
 11
17.452
 21
6.537230814491445
 31
0.0
  0
LINE
  5
2FA
330
1F
100
AcDbEntity
  8
Object
100
AcDbLine
 10
17.488
 20
6.539230814491444
 30
0.0
 11
17.488
 21
6.545230814491445
 31
0.0
  0
LINE
  5
2FB
330
1F
100
AcDbEntity
  8
Object
100
AcDbLine
 10
17.452
 20
6.545230814491445
 30
0.0
 11
17.452
 21
6.539230814491444
 31
0.0
  0
LINE
  5
2FC
330
1F
100
AcDbEntity
  8
Object
100
AcDbLine
 10
17.488
 20
6.593230814491445
 30
0.0
 11
17.488
 21
6.573230814491445
 31
0.0
  0
LINE
  5
2FD
330
1F
100
AcDbEntity
  8
Object
100
AcDbLine
 10
17.488
 20
6.573230814491445
 30
0.0
 11
17.488
 21
6.557230814491445
 31
0.0
  0
LINE
  5
2FE
330
1F
100
AcDbEntity
  8
Object
100
AcDbLine
 10
17.488
 20
6.557230814491445
 30
0.0
 11
17.488
 21
6.545230814491445
 31
0.0
  0
LINE
  5
2FF
330
1F
100
AcDbEntity
  8
Object
100
AcDbLine
 10
17.452
 20
6.545230814491445
 30
0.0
 11
17.451
 21
6.557230814491445
 31
0.0
  0
LINE
  5
300
330
1F
100
AcDbEntity
  8
Object
100
AcDbLine
 10
17.451
 20
6.557230814491445
 30
0.0
 11
17.451
 21
6.573230814491445
 31
0.0
  0
LINE
  5
301
330
1F
100
AcDbEntity
  8
Object
100
AcDbLine
 10
17.451
 20
6.573230814491445
 30
0.0
 11
17.451
 21
6.593230814491445
 31
0.0
  0
LINE
  5
302
330
1F
100
AcDbEntity
  8
Object
100
AcDbLine
 10
17.451
 20
6.662230814491445
 30
0.0
 11
17.451
 21
6.639230814491445
 31
0.0
  0
LINE
  5
303
330
1F
100
AcDbEntity
  8
Object
100
AcDbLine
 10
17.489
 20
6.616230814491445
 30
0.0
 11
17.489
 21
6.639230814491445
 31
0.0
  0
LINE
  5
304
330
1F
100
AcDbEntity
  8
Object
100
AcDbLine
 10
17.451
 20
6.616230814491445
 30
0.0
 11
17.451
 21
6.593230814491445
 31
0.0
  0
LINE
  5
305
330
1F
100
AcDbEntity
  8
Object
100
AcDbLine
 10
17.488
 20
6.593230814491445
 30
0.0
 11
17.489
 21
6.616230814491445
 31
0.0
  0
LINE
  5
306
330
1F
100
AcDbEntity
  8
Object
100
AcDbLine
 10
17.451
 20
6.639230814491445
 30
0.0
 11
17.451
 21
6.616230814491445
 31
0.0
  0
LINE
  5
307
330
1F
100
AcDbEntity
  8
Object
100
AcDbLine
 10
17.489
 20
6.639230814491445
 30
0.0
 11
17.489
 21
6.662230814491445
 31
0.0
  0
LINE
  5
308
330
1F
100
AcDbEntity
  8
Object
100
AcDbLine
 10
17.442
 20
5.478230814491444
 30
0.0
 11
17.503
 21
5.478230814491444
 31
0.0
  0
LINE
  5
309
330
1F
100
AcDbEntity
  8
Object
100
AcDbLine
 10
17.441
 20
5.353230814491444
 30
0.0
 11
17.398
 21
5.353230814491444
 31
0.0
  0
LINE
  5
30A
330
1F
100
AcDbEntity
  8
Object
100
AcDbLine
 10
17.398
 20
5.353230814491444
 30
0.0
 11
17.38
 21
5.353230814491444
 31
0.0
  0
LINE
  5
30B
330
1F
100
AcDbEntity
  8
Object
100
AcDbLine
 10
17.38
 20
5.353230814491444
 30
0.0
 11
17.363
 21
5.353230814491444
 31
0.0
  0
LINE
  5
30C
330
1F
100
AcDbEntity
  8
Object
100
AcDbLine
 10
17.363
 20
5.353230814491444
 30
0.0
 11
17.352
 21
5.353230814491444
 31
0.0
  0
LINE
  5
30D
102
{ACAD_REACTORS
330
7ED
102
}
330
1F
100
AcDbEntity
  8
Object
100
AcDbLine
 10
17.352
 20
5.353230814491444
 30
0.0
 11
17.348
 21
5.353230814491444
 31
0.0
  0
LINE
  5
30E
330
1F
100
AcDbEntity
  8
Object
100
AcDbLine
 10
17.442
 20
5.377230814491445
 30
0.0
 11
17.441
 21
5.359230814491445
 31
0.0
  0
LINE
  5
30F
330
1F
100
AcDbEntity
  8
Object
100
AcDbLine
 10
17.441
 20
5.359230814491445
 30
0.0
 11
17.441
 21
5.353230814491444
 31
0.0
  0
LINE
  5
310
330
1F
100
AcDbEntity
  8
Object
100
AcDbLine
 10
17.442
 20
5.377230814491445
 30
0.0
 11
17.442
 21
5.402230814491445
 31
0.0
  0
LINE
  5
311
330
1F
100
AcDbEntity
  8
Object
100
AcDbLine
 10
17.442
 20
5.402230814491445
 30
0.0
 11
17.442
 21
5.433230814491444
 31
0.0
  0
LINE
  5
312
330
1F
100
AcDbEntity
  8
Object
100
AcDbLine
 10
17.441
 20
5.353230814491444
 30
0.0
 11
17.398
 21
5.353230814491444
 31
0.0
  0
LINE
  5
313
330
1F
100
AcDbEntity
  8
Object
100
AcDbLine
 10
17.398
 20
5.353230814491444
 30
0.0
 11
17.398
 21
5.359230814491445
 31
0.0
  0
LINE
  5
314
330
1F
100
AcDbEntity
  8
Object
100
AcDbLine
 10
17.398
 20
5.359230814491445
 30
0.0
 11
17.398
 21
5.377230814491445
 31
0.0
  0
LINE
  5
315
330
1F
100
AcDbEntity
  8
Object
100
AcDbLine
 10
17.398
 20
5.377230814491445
 30
0.0
 11
17.398
 21
5.402230814491445
 31
0.0
  0
LINE
  5
316
330
1F
100
AcDbEntity
  8
Object
100
AcDbLine
 10
17.398
 20
5.402230814491445
 30
0.0
 11
17.398
 21
5.433230814491444
 31
0.0
  0
LINE
  5
317
330
1F
100
AcDbEntity
  8
Object
100
AcDbLine
 10
17.503
 20
5.478230814491444
 30
0.0
 11
17.51
 21
6.257230814491445
 31
0.0
  0
LINE
  5
318
330
1F
100
AcDbEntity
  8
Object
100
AcDbLine
 10
17.442
 20
5.433230814491444
 30
0.0
 11
17.45
 21
6.298230814491445
 31
0.0
  0
LINE
  5
319
330
1F
100
AcDbEntity
  8
Object
100
AcDbLine
 10
17.442
 20
5.377230814491445
 30
0.0
 11
17.442
 21
5.402230814491445
 31
0.0
  0
LINE
  5
31A
330
1F
100
AcDbEntity
  8
Object
100
AcDbLine
 10
17.442
 20
5.402230814491445
 30
0.0
 11
17.442
 21
5.433230814491444
 31
0.0
  0
LINE
  5
31B
330
1F
100
AcDbEntity
  8
Object
100
AcDbLine
 10
17.441
 20
5.361230814491445
 30
0.0
 11
17.441
 21
5.353230814491444
 31
0.0
  0
LINE
  5
31C
330
1F
100
AcDbEntity
  8
Object
100
AcDbLine
 10
17.441
 20
5.353230814491444
 30
0.0
 11
17.441
 21
5.359230814491445
 31
0.0
  0
LINE
  5
31D
330
1F
100
AcDbEntity
  8
Object
100
AcDbLine
 10
17.441
 20
5.359230814491445
 30
0.0
 11
17.442
 21
5.377230814491445
 31
0.0
  0
LINE
  5
31E
330
1F
100
AcDbEntity
  8
Object
100
AcDbLine
 10
17.398
 20
5.424230814491445
 30
0.0
 11
17.398
 21
5.353230814491444
 31
0.0
  0
LINE
  5
31F
330
1F
100
AcDbEntity
  8
Object
100
AcDbLine
 10
17.398
 20
5.353230814491444
 30
0.0
 11
17.398
 21
5.424230814491445
 31
0.0
  0
LINE
  5
320
330
1F
100
AcDbEntity
  8
Object
100
AcDbLine
 10
5.512
 20
6.547230814491445
 30
0.0
 11
5.559000000000001
 21
6.538230814491445
 31
0.0
  0
LINE
  5
321
330
1F
100
AcDbEntity
  8
Object
100
AcDbLine
 10
5.559000000000001
 20
6.538230814491445
 30
0.0
 11
5.557
 21
6.537230814491445
 31
0.0
  0
LINE
  5
322
330
1F
100
AcDbEntity
  8
Object
100
AcDbLine
 10
5.557
 20
6.537230814491445
 30
0.0
 11
5.551
 21
6.531230814491445
 31
0.0
  0
LINE
  5
323
330
1F
100
AcDbEntity
  8
Object
100
AcDbLine
 10
5.551
 20
6.531230814491445
 30
0.0
 11
5.541999999999999
 21
6.523230814491445
 31
0.0
  0
LINE
  5
324
330
1F
100
AcDbEntity
  8
Object
100
AcDbLine
 10
5.541999999999999
 20
6.523230814491445
 30
0.0
 11
5.528
 21
6.510230814491444
 31
0.0
  0
LINE
  5
325
330
1F
100
AcDbEntity
  8
Object
100
AcDbLine
 10
5.528
 20
6.510230814491444
 30
0.0
 11
5.512
 21
6.495230814491446
 31
0.0
  0
LINE
  5
326
330
1F
100
AcDbEntity
  8
Object
100
AcDbLine
 10
5.512
 20
6.547230814491445
 30
0.0
 11
5.467
 21
6.576230814491445
 31
0.0
  0
LINE
  5
327
330
1F
100
AcDbEntity
  8
Object
100
AcDbLine
 10
5.512
 20
6.495230814491446
 30
0.0
 11
5.492
 21
6.477230814491445
 31
0.0
  0
LINE
  5
328
330
1F
100
AcDbEntity
  8
Object
100
AcDbLine
 10
5.492
 20
6.477230814491445
 30
0.0
 11
5.469000000000001
 21
6.456230814491445
 31
0.0
  0
LINE
  5
329
330
1F
100
AcDbEntity
  8
Object
100
AcDbLine
 10
5.467
 20
6.576230814491445
 30
0.0
 11
5.429
 21
6.667230814491445
 31
0.0
  0
LINE
  5
32A
330
1F
100
AcDbEntity
  8
Object
100
AcDbLine
 10
5.469000000000001
 20
6.456230814491445
 30
0.0
 11
5.443999999999999
 21
6.433230814491444
 31
0.0
  0
LINE
  5
32B
330
1F
100
AcDbEntity
  8
Object
100
AcDbLine
 10
5.443999999999999
 20
6.433230814491444
 30
0.0
 11
5.387
 21
6.380230814491445
 31
0.0
  0
LINE
  5
32C
330
1F
100
AcDbEntity
  8
Object
100
AcDbLine
 10
5.385999999999999
 20
6.617230814491445
 30
0.0
 11
5.367
 21
6.596230814491445
 31
0.0
  0
LINE
  5
32D
330
1F
100
AcDbEntity
  8
Object
100
AcDbLine
 10
5.347000000000001
 20
6.572230814491445
 30
0.0
 11
5.323
 21
6.546230814491445
 31
0.0
  0
LINE
  5
32E
330
1F
100
AcDbEntity
  8
Object
100
AcDbLine
 10
5.321999999999999
 20
6.320230814491445
 30
0.0
 11
5.387
 21
6.380230814491445
 31
0.0
  0
LINE
  5
32F
330
1F
100
AcDbEntity
  8
Object
100
AcDbLine
 10
5.323
 20
6.546230814491445
 30
0.0
 11
5.271
 21
6.485230814491445
 31
0.0
  0
LINE
  5
330
330
1F
100
AcDbEntity
  8
Object
100
AcDbLine
 10
5.321999999999999
 20
6.320230814491445
 30
0.0
 11
5.251999999999998
 21
6.255230814491445
 31
0.0
  0
LINE
  5
331
330
1F
100
AcDbEntity
  8
Object
100
AcDbLine
 10
5.251999999999998
 20
6.255230814491445
 30
0.0
 11
5.176999999999999
 21
6.185230814491445
 31
0.0
  0
LINE
  5
332
330
1F
100
AcDbEntity
  8
Object
100
AcDbLine
 10
5.176999999999999
 20
6.185230814491445
 30
0.0
 11
5.100000000000001
 21
6.111230814491445
 31
0.0
  0
LINE
  5
333
330
1F
100
AcDbEntity
  8
Object
100
AcDbLine
 10
5.147999999999999
 20
6.342230814491445
 30
0.0
 11
5.08
 21
6.262230814491445
 31
0.0
  0
LINE
  5
334
330
1F
100
AcDbEntity
  8
Object
100
AcDbLine
 10
5.019999999999999
 20
6.033230814491445
 30
0.0
 11
5.100000000000001
 21
6.111230814491445
 31
0.0
  0
LINE
  5
335
330
1F
100
AcDbEntity
  8
Object
100
AcDbLine
 10
5.08
 20
6.262230814491445
 30
0.0
 11
5.009999999999999
 21
6.178230814491445
 31
0.0
  0
LINE
  5
336
330
1F
100
AcDbEntity
  8
Object
100
AcDbLine
 10
4.937000000000001
 20
5.952230814491445
 30
0.0
 11
5.019999999999999
 21
6.033230814491445
 31
0.0
  0
LINE
  5
337
330
1F
100
AcDbEntity
  8
Object
100
AcDbLine
 10
4.937000000000001
 20
6.089230814491445
 30
0.0
 11
4.862
 21
5.997230814491445
 31
0.0
  0
LINE
  5
338
330
1F
100
AcDbEntity
  8
Object
100
AcDbLine
 10
4.855
 20
5.868230814491445
 30
0.0
 11
4.937000000000001
 21
5.952230814491445
 31
0.0
  0
LINE
  5
339
330
1F
100
AcDbEntity
  8
Object
100
AcDbLine
 10
4.862
 20
5.997230814491445
 30
0.0
 11
4.788999999999999
 21
5.902230814491445
 31
0.0
  0
LINE
  5
33A
330
1F
100
AcDbEntity
  8
Object
100
AcDbLine
 10
4.855
 20
5.868230814491445
 30
0.0
 11
4.774
 21
5.779230814491445
 31
0.0
  0
LINE
  5
33B
330
1F
100
AcDbEntity
  8
Object
100
AcDbLine
 10
4.774
 20
5.779230814491445
 30
0.0
 11
4.695999999999999
 21
5.685230814491445
 31
0.0
  0
LINE
  5
33C
330
1F
100
AcDbEntity
  8
Object
100
AcDbLine
 10
4.695999999999999
 20
5.685230814491445
 30
0.0
 11
4.661000000000001
 21
5.634230814491445
 31
0.0
  0
LINE
  5
33D
330
1F
100
AcDbEntity
  8
Object
100
AcDbLine
 10
4.717
 20
5.803230814491445
 30
0.0
 11
4.65
 21
5.698230814491445
 31
0.0
  0
LINE
  5
33E
330
1F
100
AcDbEntity
  8
Object
100
AcDbLine
 10
4.661000000000001
 20
5.634230814491445
 30
0.0
 11
4.631999999999999
 21
5.580230814491445
 31
0.0
  0
LINE
  5
33F
330
1F
100
AcDbEntity
  8
Object
100
AcDbLine
 10
4.631999999999999
 20
5.580230814491445
 30
0.0
 11
4.611
 21
5.521230814491445
 31
0.0
  0
LINE
  5
340
330
1F
100
AcDbEntity
  8
Object
100
AcDbLine
 10
4.611
 20
5.521230814491445
 30
0.0
 11
4.605999999999999
 21
5.490230814491445
 31
0.0
  0
LINE
  5
341
330
1F
100
AcDbEntity
  8
Object
100
AcDbLine
 10
4.605999999999999
 20
5.490230814491445
 30
0.0
 11
4.605
 21
5.458230814491445
 31
0.0
  0
LINE
  5
342
330
1F
100
AcDbEntity
  8
Object
100
AcDbLine
 10
4.597000000000001
 20
5.584230814491445
 30
0.0
 11
4.580999999999999
 21
5.522230814491445
 31
0.0
  0
LINE
  5
343
330
1F
100
AcDbEntity
  8
Object
100
AcDbLine
 10
4.605
 20
5.458230814491445
 30
0.0
 11
4.576
 21
5.458230814491445
 31
0.0
  0
LINE
  5
344
330
1F
100
AcDbEntity
  8
Object
100
AcDbLine
 10
4.576
 20
5.458230814491445
 30
0.0
 11
4.580999999999999
 21
5.522230814491445
 31
0.0
  0
LINE
  5
345
330
1F
100
AcDbEntity
  8
Object
100
AcDbLine
 10
8.916999999999999
 20
5.458230814491445
 30
0.0
 11
8.813
 21
5.458230814491445
 31
0.0
  0
LINE
  5
346
330
1F
100
AcDbEntity
  8
Object
100
AcDbLine
 10
8.813
 20
5.458230814491445
 30
0.0
 11
8.724999999999999
 21
5.458230814491445
 31
0.0
  0
LINE
  5
347
330
1F
100
AcDbEntity
  8
Object
100
AcDbLine
 10
8.724999999999999
 20
5.458230814491445
 30
0.0
 11
8.627
 21
5.458230814491445
 31
0.0
  0
LINE
  5
348
330
1F
100
AcDbEntity
  8
Object
100
AcDbLine
 10
8.627
 20
5.458230814491445
 30
0.0
 11
8.521
 21
5.458230814491445
 31
0.0
  0
LINE
  5
349
330
1F
100
AcDbEntity
  8
Object
100
AcDbLine
 10
8.521
 20
5.458230814491445
 30
0.0
 11
8.407999999999999
 21
5.458230814491445
 31
0.0
  0
LINE
  5
34A
330
1F
100
AcDbEntity
  8
Object
100
AcDbLine
 10
8.407999999999999
 20
5.458230814491445
 30
0.0
 11
8.29
 21
5.458230814491445
 31
0.0
  0
LINE
  5
34B
330
1F
100
AcDbEntity
  8
Object
100
AcDbLine
 10
8.29
 20
5.458230814491445
 30
0.0
 11
8.168000000000001
 21
5.458230814491445
 31
0.0
  0
LINE
  5
34C
330
1F
100
AcDbEntity
  8
Object
100
AcDbLine
 10
8.168000000000001
 20
5.458230814491445
 30
0.0
 11
8.044
 21
5.458230814491445
 31
0.0
  0
LINE
  5
34D
330
1F
100
AcDbEntity
  8
Object
100
AcDbLine
 10
8.044
 20
5.458230814491445
 30
0.0
 11
7.964
 21
5.458230814491445
 31
0.0
  0
LINE
  5
34E
330
1F
100
AcDbEntity
  8
Object
100
AcDbLine
 10
7.964
 20
5.458230814491445
 30
0.0
 11
7.884999999999999
 21
5.458230814491445
 31
0.0
  0
LINE
  5
34F
330
1F
100
AcDbEntity
  8
Object
100
AcDbLine
 10
7.884999999999999
 20
5.458230814491445
 30
0.0
 11
7.857
 21
5.458230814491445
 31
0.0
  0
LINE
  5
350
330
1F
100
AcDbEntity
  8
Object
100
AcDbLine
 10
4.516
 20
5.458230814491445
 30
0.0
 11
4.487
 21
5.458230814491445
 31
0.0
  0
LINE
  5
351
330
1F
100
AcDbEntity
  8
Object
100
AcDbLine
 10
4.487
 20
5.458230814491445
 30
0.0
 11
4.408000000000001
 21
5.458230814491445
 31
0.0
  0
LINE
  5
352
330
1F
100
AcDbEntity
  8
Object
100
AcDbLine
 10
4.408000000000001
 20
5.458230814491445
 30
0.0
 11
4.327999999999999
 21
5.458230814491445
 31
0.0
  0
LINE
  5
353
330
1F
100
AcDbEntity
  8
Object
100
AcDbLine
 10
4.327999999999999
 20
5.458230814491445
 30
0.0
 11
4.205
 21
5.458230814491445
 31
0.0
  0
LINE
  5
354
330
1F
100
AcDbEntity
  8
Object
100
AcDbLine
 10
4.205
 20
5.458230814491445
 30
0.0
 11
4.083
 21
5.458230814491445
 31
0.0
  0
LINE
  5
355
330
1F
100
AcDbEntity
  8
Object
100
AcDbLine
 10
4.083
 20
5.458230814491445
 30
0.0
 11
3.964999999999999
 21
5.458230814491445
 31
0.0
  0
LINE
  5
356
330
1F
100
AcDbEntity
  8
Object
100
AcDbLine
 10
3.964999999999999
 20
5.458230814491445
 30
0.0
 11
3.852
 21
5.458230814491445
 31
0.0
  0
LINE
  5
357
330
1F
100
AcDbEntity
  8
Object
100
AcDbLine
 10
3.852
 20
5.458230814491445
 30
0.0
 11
3.745
 21
5.458230814491445
 31
0.0
  0
LINE
  5
358
330
1F
100
AcDbEntity
  8
Object
100
AcDbLine
 10
3.745
 20
5.458230814491445
 30
0.0
 11
3.647999999999999
 21
5.458230814491445
 31
0.0
  0
LINE
  5
359
330
1F
100
AcDbEntity
  8
Object
100
AcDbLine
 10
3.647999999999999
 20
5.458230814491445
 30
0.0
 11
3.56
 21
5.458230814491445
 31
0.0
  0
LINE
  5
35A
330
1F
100
AcDbEntity
  8
Object
100
AcDbLine
 10
3.56
 20
5.458230814491445
 30
0.0
 11
3.455
 21
5.458230814491445
 31
0.0
  0
LINE
  5
35B
330
1F
100
AcDbEntity
  8
Object
100
AcDbLine
 10
7.857
 20
5.458230814491445
 30
0.0
 11
7.836999999999999
 21
5.458230814491445
 31
0.0
  0
LINE
  5
35C
330
1F
100
AcDbEntity
  8
Object
100
AcDbLine
 10
7.836999999999999
 20
5.458230814491445
 30
0.0
 11
7.815999999999999
 21
5.458230814491445
 31
0.0
  0
LINE
  5
35D
330
1F
100
AcDbEntity
  8
Object
100
AcDbLine
 10
7.815999999999999
 20
5.458230814491445
 30
0.0
 11
7.796
 21
5.458230814491445
 31
0.0
  0
LINE
  5
35E
330
1F
100
AcDbEntity
  8
Object
100
AcDbLine
 10
7.796
 20
5.458230814491445
 30
0.0
 11
7.767
 21
5.458230814491445
 31
0.0
  0
LINE
  5
35F
330
1F
100
AcDbEntity
  8
Object
100
AcDbLine
 10
7.767
 20
5.458230814491445
 30
0.0
 11
4.605
 21
5.458230814491445
 31
0.0
  0
LINE
  5
360
330
1F
100
AcDbEntity
  8
Object
100
AcDbLine
 10
4.605
 20
5.458230814491445
 30
0.0
 11
4.576
 21
5.458230814491445
 31
0.0
  0
LINE
  5
361
330
1F
100
AcDbEntity
  8
Object
100
AcDbLine
 10
4.576
 20
5.458230814491445
 30
0.0
 11
4.556
 21
5.458230814491445
 31
0.0
  0
LINE
  5
362
330
1F
100
AcDbEntity
  8
Object
100
AcDbLine
 10
4.556
 20
5.458230814491445
 30
0.0
 11
4.536000000000001
 21
5.458230814491445
 31
0.0
  0
LINE
  5
363
330
1F
100
AcDbEntity
  8
Object
100
AcDbLine
 10
4.536000000000001
 20
5.458230814491445
 30
0.0
 11
4.516
 21
5.458230814491445
 31
0.0
  0
LINE
  5
364
330
1F
100
AcDbEntity
  8
Object
100
AcDbLine
 10
6.812999999999999
 20
6.538230814491445
 30
0.0
 11
6.815
 21
6.537230814491445
 31
0.0
  0
LINE
  5
365
330
1F
100
AcDbEntity
  8
Object
100
AcDbLine
 10
6.815
 20
6.537230814491445
 30
0.0
 11
6.820999999999999
 21
6.531230814491445
 31
0.0
  0
LINE
  5
366
330
1F
100
AcDbEntity
  8
Object
100
AcDbLine
 10
6.812999999999999
 20
6.538230814491445
 30
0.0
 11
5.559000000000001
 21
6.538230814491445
 31
0.0
  0
LINE
  5
367
330
1F
100
AcDbEntity
  8
Object
100
AcDbLine
 10
6.820999999999999
 20
6.531230814491445
 30
0.0
 11
6.831
 21
6.523230814491445
 31
0.0
  0
LINE
  5
368
330
1F
100
AcDbEntity
  8
Object
100
AcDbLine
 10
6.831
 20
6.523230814491445
 30
0.0
 11
6.844
 21
6.510230814491444
 31
0.0
  0
LINE
  5
369
330
1F
100
AcDbEntity
  8
Object
100
AcDbLine
 10
6.844
 20
6.510230814491444
 30
0.0
 11
6.860999999999999
 21
6.495230814491446
 31
0.0
  0
LINE
  5
36A
330
1F
100
AcDbEntity
  8
Object
100
AcDbLine
 10
6.860999999999999
 20
6.495230814491446
 30
0.0
 11
6.879999999999999
 21
6.477230814491445
 31
0.0
  0
LINE
  5
36B
330
1F
100
AcDbEntity
  8
Object
100
AcDbLine
 10
6.879999999999999
 20
6.477230814491445
 30
0.0
 11
6.903
 21
6.456230814491445
 31
0.0
  0
LINE
  5
36C
330
1F
100
AcDbEntity
  8
Object
100
AcDbLine
 10
6.903
 20
6.456230814491445
 30
0.0
 11
6.927999999999999
 21
6.433230814491444
 31
0.0
  0
LINE
  5
36D
330
1F
100
AcDbEntity
  8
Object
100
AcDbLine
 10
6.927999999999999
 20
6.433230814491444
 30
0.0
 11
6.985
 21
6.380230814491445
 31
0.0
  0
LINE
  5
36E
330
1F
100
AcDbEntity
  8
Object
100
AcDbLine
 10
6.985
 20
6.380230814491445
 30
0.0
 11
7.049999999999999
 21
6.320230814491445
 31
0.0
  0
LINE
  5
36F
330
1F
100
AcDbEntity
  8
Object
100
AcDbLine
 10
7.049999999999999
 20
6.320230814491445
 30
0.0
 11
7.121
 21
6.255230814491445
 31
0.0
  0
LINE
  5
370
330
1F
100
AcDbEntity
  8
Object
100
AcDbLine
 10
7.121
 20
6.255230814491445
 30
0.0
 11
7.195
 21
6.185230814491445
 31
0.0
  0
LINE
  5
371
330
1F
100
AcDbEntity
  8
Object
100
AcDbLine
 10
7.195
 20
6.185230814491445
 30
0.0
 11
7.273
 21
6.111230814491445
 31
0.0
  0
LINE
  5
372
330
1F
100
AcDbEntity
  8
Object
100
AcDbLine
 10
7.273
 20
6.111230814491445
 30
0.0
 11
7.352999999999999
 21
6.033230814491445
 31
0.0
  0
LINE
  5
373
330
1F
100
AcDbEntity
  8
Object
100
AcDbLine
 10
7.352999999999999
 20
6.033230814491445
 30
0.0
 11
7.435
 21
5.952230814491445
 31
0.0
  0
LINE
  5
374
330
1F
100
AcDbEntity
  8
Object
100
AcDbLine
 10
7.435
 20
5.952230814491445
 30
0.0
 11
7.517999999999999
 21
5.868230814491445
 31
0.0
  0
LINE
  5
375
330
1F
100
AcDbEntity
  8
Object
100
AcDbLine
 10
7.517999999999999
 20
5.868230814491445
 30
0.0
 11
7.599
 21
5.779230814491445
 31
0.0
  0
LINE
  5
376
330
1F
100
AcDbEntity
  8
Object
100
AcDbLine
 10
7.599
 20
5.779230814491445
 30
0.0
 11
7.676
 21
5.685230814491445
 31
0.0
  0
LINE
  5
377
330
1F
100
AcDbEntity
  8
Object
100
AcDbLine
 10
7.676
 20
5.685230814491445
 30
0.0
 11
7.711
 21
5.634230814491445
 31
0.0
  0
LINE
  5
378
330
1F
100
AcDbEntity
  8
Object
100
AcDbLine
 10
7.711
 20
5.634230814491445
 30
0.0
 11
7.741
 21
5.580230814491445
 31
0.0
  0
LINE
  5
379
330
1F
100
AcDbEntity
  8
Object
100
AcDbLine
 10
7.741
 20
5.580230814491445
 30
0.0
 11
7.762
 21
5.521230814491445
 31
0.0
  0
LINE
  5
37A
330
1F
100
AcDbEntity
  8
Object
100
AcDbLine
 10
7.762
 20
5.521230814491445
 30
0.0
 11
7.767
 21
5.490230814491445
 31
0.0
  0
LINE
  5
37B
330
1F
100
AcDbEntity
  8
Object
100
AcDbLine
 10
7.767
 20
5.490230814491445
 30
0.0
 11
7.767
 21
5.458230814491445
 31
0.0
  0
LINE
  5
37C
330
1F
100
AcDbEntity
  8
Object
100
AcDbLine
 10
7.767
 20
5.458230814491445
 30
0.0
 11
4.605
 21
5.458230814491445
 31
0.0
  0
LINE
  5
37D
330
1F
100
AcDbEntity
  8
Object
100
AcDbLine
 10
5.429
 20
6.667230814491445
 30
0.0
 11
5.426999999999999
 21
6.665230814491445
 31
0.0
  0
LINE
  5
37E
330
1F
100
AcDbEntity
  8
Object
100
AcDbLine
 10
5.426999999999999
 20
6.665230814491445
 30
0.0
 11
5.422
 21
6.659230814491445
 31
0.0
  0
LINE
  5
37F
330
1F
100
AcDbEntity
  8
Object
100
AcDbLine
 10
5.429
 20
6.667230814491445
 30
0.0
 11
5.408000000000001
 21
9.037230814491445
 31
0.0
  0
LINE
  5
380
330
1F
100
AcDbEntity
  8
Object
100
AcDbLine
 10
5.422
 20
6.659230814491445
 30
0.0
 11
5.413
 21
6.649230814491445
 31
0.0
  0
LINE
  5
381
330
1F
100
AcDbEntity
  8
Object
100
AcDbLine
 10
5.413
 20
6.649230814491445
 30
0.0
 11
5.400999999999999
 21
6.635230814491445
 31
0.0
  0
LINE
  5
382
330
1F
100
AcDbEntity
  8
Object
100
AcDbLine
 10
5.408000000000001
 20
9.037230814491445
 30
0.0
 11
5.396
 21
9.037230814491445
 31
0.0
  0
LINE
  5
383
330
1F
100
AcDbEntity
  8
Object
100
AcDbLine
 10
5.385999999999999
 20
6.617230814491445
 30
0.0
 11
5.400999999999999
 21
6.635230814491445
 31
0.0
  0
LINE
  5
384
330
1F
100
AcDbEntity
  8
Object
100
AcDbLine
 10
5.396
 20
9.037230814491445
 30
0.0
 11
5.368999999999999
 21
9.037230814491445
 31
0.0
  0
LINE
  5
385
330
1F
100
AcDbEntity
  8
Object
100
AcDbLine
 10
5.347000000000001
 20
6.572230814491445
 30
0.0
 11
5.367
 21
6.596230814491445
 31
0.0
  0
LINE
  5
386
330
1F
100
AcDbEntity
  8
Object
100
AcDbLine
 10
5.368999999999999
 20
9.037230814491445
 30
0.0
 11
5.327999999999999
 21
9.037230814491445
 31
0.0
  0
LINE
  5
387
330
1F
100
AcDbEntity
  8
Object
100
AcDbLine
 10
5.327999999999999
 20
9.037230814491445
 30
0.0
 11
5.272999999999999
 21
9.037230814491445
 31
0.0
  0
LINE
  5
388
330
1F
100
AcDbEntity
  8
Object
100
AcDbLine
 10
5.272999999999999
 20
9.037230814491445
 30
0.0
 11
5.204
 21
9.037230814491445
 31
0.0
  0
LINE
  5
389
330
1F
100
AcDbEntity
  8
Object
100
AcDbLine
 10
5.271
 20
6.485230814491445
 30
0.0
 11
5.211999999999999
 21
6.417230814491444
 31
0.0
  0
LINE
  5
38A
330
1F
100
AcDbEntity
  8
Object
100
AcDbLine
 10
5.211999999999999
 20
6.417230814491444
 30
0.0
 11
5.147999999999999
 21
6.342230814491445
 31
0.0
  0
LINE
  5
38B
330
1F
100
AcDbEntity
  8
Object
100
AcDbLine
 10
5.204
 20
9.037230814491445
 30
0.0
 11
5.123000000000001
 21
9.037230814491445
 31
0.0
  0
LINE
  5
38C
330
1F
100
AcDbEntity
  8
Object
100
AcDbLine
 10
5.123000000000001
 20
9.037230814491445
 30
0.0
 11
5.032
 21
9.037230814491445
 31
0.0
  0
LINE
  5
38D
330
1F
100
AcDbEntity
  8
Object
100
AcDbLine
 10
5.032
 20
9.037230814491445
 30
0.0
 11
4.929999999999999
 21
9.037230814491445
 31
0.0
  0
LINE
  5
38E
330
1F
100
AcDbEntity
  8
Object
100
AcDbLine
 10
4.937000000000001
 20
6.089230814491445
 30
0.0
 11
5.009999999999999
 21
6.178230814491445
 31
0.0
  0
LINE
  5
38F
330
1F
100
AcDbEntity
  8
Object
100
AcDbLine
 10
4.929999999999999
 20
9.037230814491445
 30
0.0
 11
4.82
 21
9.037230814491445
 31
0.0
  0
LINE
  5
390
330
1F
100
AcDbEntity
  8
Object
100
AcDbLine
 10
4.82
 20
9.037230814491445
 30
0.0
 11
4.702999999999999
 21
9.037230814491445
 31
0.0
  0
LINE
  5
391
330
1F
100
AcDbEntity
  8
Object
100
AcDbLine
 10
4.717
 20
5.803230814491445
 30
0.0
 11
4.788999999999999
 21
5.902230814491445
 31
0.0
  0
LINE
  5
392
330
1F
100
AcDbEntity
  8
Object
100
AcDbLine
 10
4.65
 20
5.698230814491445
 30
0.0
 11
4.621
 21
5.642230814491445
 31
0.0
  0
LINE
  5
393
330
1F
100
AcDbEntity
  8
Object
100
AcDbLine
 10
4.621
 20
5.642230814491445
 30
0.0
 11
4.597000000000001
 21
5.584230814491445
 31
0.0
  0
LINE
  5
394
330
1F
100
AcDbEntity
  8
Object
100
AcDbLine
 10
4.702999999999999
 20
9.037230814491445
 30
0.0
 11
4.580999999999999
 21
9.037230814491445
 31
0.0
  0
LINE
  5
395
330
1F
100
AcDbEntity
  8
Object
100
AcDbLine
 10
4.576
 20
5.458230814491445
 30
0.0
 11
4.556
 21
5.458230814491445
 31
0.0
  0
LINE
  5
396
330
1F
100
AcDbEntity
  8
Object
100
AcDbLine
 10
4.556
 20
5.458230814491445
 30
0.0
 11
4.536000000000001
 21
5.458230814491445
 31
0.0
  0
LINE
  5
397
330
1F
100
AcDbEntity
  8
Object
100
AcDbLine
 10
4.536000000000001
 20
5.458230814491445
 30
0.0
 11
4.516
 21
5.458230814491445
 31
0.0
  0
LINE
  5
398
330
1F
100
AcDbEntity
  8
Object
100
AcDbLine
 10
4.516
 20
5.458230814491445
 30
0.0
 11
4.48
 21
5.462230814491444
 31
0.0
  0
LINE
  5
399
330
1F
100
AcDbEntity
  8
Object
100
AcDbLine
 10
4.580999999999999
 20
9.037230814491445
 30
0.0
 11
4.455999999999999
 21
9.037230814491445
 31
0.0
  0
LINE
  5
39A
330
1F
100
AcDbEntity
  8
Object
100
AcDbLine
 10
4.48
 20
5.462230814491444
 30
0.0
 11
4.443999999999999
 21
5.472230814491445
 31
0.0
  0
LINE
  5
39B
330
1F
100
AcDbEntity
  8
Object
100
AcDbLine
 10
4.443999999999999
 20
5.472230814491445
 30
0.0
 11
4.411999999999999
 21
5.490230814491445
 31
0.0
  0
LINE
  5
39C
330
1F
100
AcDbEntity
  8
Object
100
AcDbLine
 10
4.411999999999999
 20
5.490230814491445
 30
0.0
 11
4.384
 21
5.513230814491445
 31
0.0
  0
LINE
  5
39D
330
1F
100
AcDbEntity
  8
Object
100
AcDbLine
 10
4.384
 20
5.513230814491445
 30
0.0
 11
4.359999999999999
 21
5.541230814491445
 31
0.0
  0
LINE
  5
39E
330
1F
100
AcDbEntity
  8
Object
100
AcDbLine
 10
4.359999999999999
 20
5.541230814491445
 30
0.0
 11
4.342999999999999
 21
5.574230814491444
 31
0.0
  0
LINE
  5
39F
330
1F
100
AcDbEntity
  8
Object
100
AcDbLine
 10
4.342999999999999
 20
5.574230814491444
 30
0.0
 11
4.332
 21
5.609230814491445
 31
0.0
  0
LINE
  5
3A0
330
1F
100
AcDbEntity
  8
Object
100
AcDbLine
 10
4.332
 20
5.609230814491445
 30
0.0
 11
4.327999999999999
 21
5.646230814491445
 31
0.0
  0
LINE
  5
3A1
330
1F
100
AcDbEntity
  8
Object
100
AcDbLine
 10
4.327999999999999
 20
5.646230814491445
 30
0.0
 11
4.327999999999999
 21
9.037230814491445
 31
0.0
  0
LINE
  5
3A2
330
1F
100
AcDbEntity
  8
Object
100
AcDbLine
 10
4.327999999999999
 20
9.037230814491445
 30
0.0
 11
4.455999999999999
 21
9.037230814491445
 31
0.0
  0
LINE
  5
3A3
330
1F
100
AcDbEntity
  8
Object
100
AcDbLine
 10
3.492
 20
8.740230814491445
 30
0.0
 11
3.455
 21
5.458230814491445
 31
0.0
  0
LINE
  5
3A4
330
1F
100
AcDbEntity
  8
Object
100
AcDbLine
 10
8.044
 20
5.646230814491445
 30
0.0
 11
8.044
 21
5.458230814491445
 31
0.0
  0
LINE
  5
3A5
330
1F
100
AcDbEntity
  8
Object
100
AcDbLine
 10
8.044
 20
5.458230814491445
 30
0.0
 11
7.964
 21
5.458230814491445
 31
0.0
  0
LINE
  5
3A6
330
1F
100
AcDbEntity
  8
Object
100
AcDbLine
 10
7.927999999999999
 20
5.472230814491445
 30
0.0
 11
7.961
 21
5.490230814491445
 31
0.0
  0
LINE
  5
3A7
330
1F
100
AcDbEntity
  8
Object
100
AcDbLine
 10
7.961
 20
5.490230814491445
 30
0.0
 11
7.977999999999999
 21
5.504230814491445
 31
0.0
  0
LINE
  5
3A8
330
1F
100
AcDbEntity
  8
Object
100
AcDbLine
 10
7.964
 20
5.458230814491445
 30
0.0
 11
7.884999999999999
 21
5.458230814491445
 31
0.0
  0
LINE
  5
3A9
330
1F
100
AcDbEntity
  8
Object
100
AcDbLine
 10
7.884999999999999
 20
5.458230814491445
 30
0.0
 11
7.857
 21
5.458230814491445
 31
0.0
  0
LINE
  5
3AA
330
1F
100
AcDbEntity
  8
Object
100
AcDbLine
 10
4.487
 20
5.458230814491445
 30
0.0
 11
4.516
 21
5.458230814491445
 31
0.0
  0
LINE
  5
3AB
330
1F
100
AcDbEntity
  8
Object
100
AcDbLine
 10
4.516
 20
5.458230814491445
 30
0.0
 11
4.478999999999999
 21
5.462230814491444
 31
0.0
  0
LINE
  5
3AC
330
1F
100
AcDbEntity
  8
Object
100
AcDbLine
 10
4.478999999999999
 20
5.462230814491444
 30
0.0
 11
4.443999999999999
 21
5.472230814491445
 31
0.0
  0
LINE
  5
3AD
330
1F
100
AcDbEntity
  8
Object
100
AcDbLine
 10
4.487
 20
5.458230814491445
 30
0.0
 11
4.408000000000001
 21
5.458230814491445
 31
0.0
  0
LINE
  5
3AE
330
1F
100
AcDbEntity
  8
Object
100
AcDbLine
 10
4.408000000000001
 20
5.458230814491445
 30
0.0
 11
4.327999999999999
 21
5.458230814491445
 31
0.0
  0
LINE
  5
3AF
330
1F
100
AcDbEntity
  8
Object
100
AcDbLine
 10
8.044
 20
9.037230814491445
 30
0.0
 11
8.044
 21
5.646230814491445
 31
0.0
  0
LINE
  5
3B0
330
1F
100
AcDbEntity
  8
Object
100
AcDbLine
 10
8.044
 20
5.646230814491445
 30
0.0
 11
8.041
 21
5.609230814491445
 31
0.0
  0
LINE
  5
3B1
330
1F
100
AcDbEntity
  8
Object
100
AcDbLine
 10
8.041
 20
5.609230814491445
 30
0.0
 11
8.029999999999999
 21
5.574230814491444
 31
0.0
  0
LINE
  5
3B2
330
1F
100
AcDbEntity
  8
Object
100
AcDbLine
 10
8.029999999999999
 20
5.574230814491444
 30
0.0
 11
8.012
 21
5.541230814491445
 31
0.0
  0
LINE
  5
3B3
330
1F
100
AcDbEntity
  8
Object
100
AcDbLine
 10
8.012
 20
5.541230814491445
 30
0.0
 11
7.988999999999999
 21
5.513230814491445
 31
0.0
  0
LINE
  5
3B4
330
1F
100
AcDbEntity
  8
Object
100
AcDbLine
 10
7.988999999999999
 20
5.513230814491445
 30
0.0
 11
7.959999999999999
 21
5.490230814491445
 31
0.0
  0
LINE
  5
3B5
330
1F
100
AcDbEntity
  8
Object
100
AcDbLine
 10
8.044
 20
9.037230814491445
 30
0.0
 11
7.916999999999999
 21
9.037230814491445
 31
0.0
  0
LINE
  5
3B6
330
1F
100
AcDbEntity
  8
Object
100
AcDbLine
 10
7.959999999999999
 20
5.490230814491445
 30
0.0
 11
7.927999999999999
 21
5.472230814491445
 31
0.0
  0
LINE
  5
3B7
330
1F
100
AcDbEntity
  8
Object
100
AcDbLine
 10
7.927999999999999
 20
5.472230814491445
 30
0.0
 11
7.892999999999999
 21
5.462230814491444
 31
0.0
  0
LINE
  5
3B8
330
1F
100
AcDbEntity
  8
Object
100
AcDbLine
 10
7.892999999999999
 20
5.462230814491444
 30
0.0
 11
7.857
 21
5.458230814491445
 31
0.0
  0
LINE
  5
3B9
330
1F
100
AcDbEntity
  8
Object
100
AcDbLine
 10
7.916999999999999
 20
9.037230814491445
 30
0.0
 11
7.791
 21
9.037230814491445
 31
0.0
  0
LINE
  5
3BA
330
1F
100
AcDbEntity
  8
Object
100
AcDbLine
 10
7.857
 20
5.458230814491445
 30
0.0
 11
7.836999999999999
 21
5.458230814491445
 31
0.0
  0
LINE
  5
3BB
330
1F
100
AcDbEntity
  8
Object
100
AcDbLine
 10
7.836999999999999
 20
5.458230814491445
 30
0.0
 11
7.815999999999999
 21
5.458230814491445
 31
0.0
  0
LINE
  5
3BC
330
1F
100
AcDbEntity
  8
Object
100
AcDbLine
 10
7.815999999999999
 20
5.458230814491445
 30
0.0
 11
7.796
 21
5.458230814491445
 31
0.0
  0
LINE
  5
3BD
330
1F
100
AcDbEntity
  8
Object
100
AcDbLine
 10
7.775999999999999
 20
5.584230814491445
 30
0.0
 11
7.751999999999999
 21
5.642230814491445
 31
0.0
  0
LINE
  5
3BE
330
1F
100
AcDbEntity
  8
Object
100
AcDbLine
 10
7.751999999999999
 20
5.642230814491445
 30
0.0
 11
7.722
 21
5.698230814491445
 31
0.0
  0
LINE
  5
3BF
330
1F
100
AcDbEntity
  8
Object
100
AcDbLine
 10
7.791
 20
9.037230814491445
 30
0.0
 11
7.669
 21
9.037230814491445
 31
0.0
  0
LINE
  5
3C0
330
1F
100
AcDbEntity
  8
Object
100
AcDbLine
 10
7.722
 20
5.698230814491445
 30
0.0
 11
7.655
 21
5.803230814491445
 31
0.0
  0
LINE
  5
3C1
330
1F
100
AcDbEntity
  8
Object
100
AcDbLine
 10
7.655
 20
5.803230814491445
 30
0.0
 11
7.584
 21
5.902230814491445
 31
0.0
  0
LINE
  5
3C2
330
1F
100
AcDbEntity
  8
Object
100
AcDbLine
 10
7.669
 20
9.037230814491445
 30
0.0
 11
7.552
 21
9.037230814491445
 31
0.0
  0
LINE
  5
3C3
330
1F
100
AcDbEntity
  8
Object
100
AcDbLine
 10
7.509999999999999
 20
5.997230814491445
 30
0.0
 11
7.584
 21
5.902230814491445
 31
0.0
  0
LINE
  5
3C4
330
1F
100
AcDbEntity
  8
Object
100
AcDbLine
 10
7.552
 20
9.037230814491445
 30
0.0
 11
7.442
 21
9.037230814491445
 31
0.0
  0
LINE
  5
3C5
330
1F
100
AcDbEntity
  8
Object
100
AcDbLine
 10
7.509999999999999
 20
5.997230814491445
 30
0.0
 11
7.435999999999999
 21
6.089230814491445
 31
0.0
  0
LINE
  5
3C6
330
1F
100
AcDbEntity
  8
Object
100
AcDbLine
 10
7.435999999999999
 20
6.089230814491445
 30
0.0
 11
7.363
 21
6.178230814491445
 31
0.0
  0
LINE
  5
3C7
330
1F
100
AcDbEntity
  8
Object
100
AcDbLine
 10
7.442
 20
9.037230814491445
 30
0.0
 11
7.341
 21
9.037230814491445
 31
0.0
  0
LINE
  5
3C8
330
1F
100
AcDbEntity
  8
Object
100
AcDbLine
 10
7.291999999999999
 20
6.262230814491445
 30
0.0
 11
7.363
 21
6.178230814491445
 31
0.0
  0
LINE
  5
3C9
330
1F
100
AcDbEntity
  8
Object
100
AcDbLine
 10
7.341
 20
9.037230814491445
 30
0.0
 11
7.249
 21
9.037230814491445
 31
0.0
  0
LINE
  5
3CA
330
1F
100
AcDbEntity
  8
Object
100
AcDbLine
 10
7.224
 20
6.342230814491445
 30
0.0
 11
7.291999999999999
 21
6.262230814491445
 31
0.0
  0
LINE
  5
3CB
330
1F
100
AcDbEntity
  8
Object
100
AcDbLine
 10
7.249
 20
9.037230814491445
 30
0.0
 11
7.168
 21
9.037230814491445
 31
0.0
  0
LINE
  5
3CC
330
1F
100
AcDbEntity
  8
Object
100
AcDbLine
 10
7.168
 20
9.037230814491445
 30
0.0
 11
7.1
 21
9.037230814491445
 31
0.0
  0
LINE
  5
3CD
330
1F
100
AcDbEntity
  8
Object
100
AcDbLine
 10
7.1
 20
9.037230814491445
 30
0.0
 11
7.044999999999999
 21
9.037230814491445
 31
0.0
  0
LINE
  5
3CE
330
1F
100
AcDbEntity
  8
Object
100
AcDbLine
 10
7.025999999999999
 20
6.572230814491445
 30
0.0
 11
7.049
 21
6.546230814491445
 31
0.0
  0
LINE
  5
3CF
330
1F
100
AcDbEntity
  8
Object
100
AcDbLine
 10
7.044999999999999
 20
9.037230814491445
 30
0.0
 11
7.003
 21
9.037230814491445
 31
0.0
  0
LINE
  5
3D0
330
1F
100
AcDbEntity
  8
Object
100
AcDbLine
 10
6.987
 20
6.617230814491445
 30
0.0
 11
7.004999999999999
 21
6.596230814491445
 31
0.0
  0
LINE
  5
3D1
330
1F
100
AcDbEntity
  8
Object
100
AcDbLine
 10
7.003
 20
9.037230814491445
 30
0.0
 11
6.977
 21
9.037230814491445
 31
0.0
  0
LINE
  5
3D2
330
1F
100
AcDbEntity
  8
Object
100
AcDbLine
 10
6.977
 20
9.037230814491445
 30
0.0
 11
6.964999999999999
 21
9.037230814491445
 31
0.0
  0
LINE
  5
3D3
330
1F
100
AcDbEntity
  8
Object
100
AcDbLine
 10
6.964999999999999
 20
9.037230814491445
 30
0.0
 11
6.943
 21
6.667230814491445
 31
0.0
  0
LINE
  5
3D4
330
1F
100
AcDbEntity
  8
Object
100
AcDbLine
 10
7.796
 20
5.458230814491445
 30
0.0
 11
7.791999999999999
 21
5.522230814491445
 31
0.0
  0
LINE
  5
3D5
330
1F
100
AcDbEntity
  8
Object
100
AcDbLine
 10
7.791999999999999
 20
5.522230814491445
 30
0.0
 11
7.775999999999999
 21
5.584230814491445
 31
0.0
  0
LINE
  5
3D6
330
1F
100
AcDbEntity
  8
Object
100
AcDbLine
 10
7.767
 20
5.458230814491445
 30
0.0
 11
7.796
 21
5.458230814491445
 31
0.0
  0
LINE
  5
3D7
330
1F
100
AcDbEntity
  8
Object
100
AcDbLine
 10
7.224
 20
6.342230814491445
 30
0.0
 11
7.16
 21
6.417230814491444
 31
0.0
  0
LINE
  5
3D8
330
1F
100
AcDbEntity
  8
Object
100
AcDbLine
 10
7.16
 20
6.417230814491444
 30
0.0
 11
7.100999999999999
 21
6.485230814491445
 31
0.0
  0
LINE
  5
3D9
330
1F
100
AcDbEntity
  8
Object
100
AcDbLine
 10
7.100999999999999
 20
6.485230814491445
 30
0.0
 11
7.049
 21
6.546230814491445
 31
0.0
  0
LINE
  5
3DA
330
1F
100
AcDbEntity
  8
Object
100
AcDbLine
 10
7.025999999999999
 20
6.572230814491445
 30
0.0
 11
7.004999999999999
 21
6.596230814491445
 31
0.0
  0
LINE
  5
3DB
330
1F
100
AcDbEntity
  8
Object
100
AcDbLine
 10
6.959
 20
6.649230814491445
 30
0.0
 11
6.972
 21
6.635230814491445
 31
0.0
  0
LINE
  5
3DC
330
1F
100
AcDbEntity
  8
Object
100
AcDbLine
 10
6.972
 20
6.635230814491445
 30
0.0
 11
6.987
 21
6.617230814491445
 31
0.0
  0
LINE
  5
3DD
330
1F
100
AcDbEntity
  8
Object
100
AcDbLine
 10
6.943
 20
6.667230814491445
 30
0.0
 11
6.945
 21
6.665230814491445
 31
0.0
  0
LINE
  5
3DE
330
1F
100
AcDbEntity
  8
Object
100
AcDbLine
 10
6.945
 20
6.665230814491445
 30
0.0
 11
6.951
 21
6.659230814491445
 31
0.0
  0
LINE
  5
3DF
330
1F
100
AcDbEntity
  8
Object
100
AcDbLine
 10
6.951
 20
6.659230814491445
 30
0.0
 11
6.959
 21
6.649230814491445
 31
0.0
  0
LINE
  5
3E0
330
1F
100
AcDbEntity
  8
Object
100
AcDbLine
 10
6.943
 20
6.667230814491445
 30
0.0
 11
6.935
 21
6.620230814491445
 31
0.0
  0
LINE
  5
3E1
330
1F
100
AcDbEntity
  8
Object
100
AcDbLine
 10
6.935
 20
6.620230814491445
 30
0.0
 11
6.906
 21
6.576230814491445
 31
0.0
  0
LINE
  5
3E2
330
1F
100
AcDbEntity
  8
Object
100
AcDbLine
 10
6.906
 20
6.576230814491445
 30
0.0
 11
6.812999999999999
 21
6.538230814491445
 31
0.0
  0
LINE
  5
3E3
330
1F
100
AcDbEntity
  8
Object
100
AcDbLine
 10
3.492
 20
8.740230814491445
 30
0.0
 11
3.599
 21
8.740230814491445
 31
0.0
  0
LINE
  5
3E4
330
1F
100
AcDbEntity
  8
Object
100
AcDbLine
 10
3.599
 20
8.740230814491445
 30
0.0
 11
3.56
 21
5.458230814491445
 31
0.0
  0
LINE
  5
3E5
102
{ACAD_REACTORS
330
7D2
102
}
330
1F
100
AcDbEntity
  8
Object
100
AcDbLine
 10
3.56
 20
5.458230814491445
 30
0.0
 11
3.455
 21
5.458230814491445
 31
0.0
  0
LINE
  5
3E6
330
1F
100
AcDbEntity
  8
Object
100
AcDbLine
 10
4.327999999999999
 20
8.740230814491445
 30
0.0
 11
4.207
 21
8.740230814491445
 31
0.0
  0
LINE
  5
3E7
330
1F
100
AcDbEntity
  8
Object
100
AcDbLine
 10
4.327999999999999
 20
5.646230814491445
 30
0.0
 11
4.327999999999999
 21
5.458230814491445
 31
0.0
  0
LINE
  5
3E8
330
1F
100
AcDbEntity
  8
Object
100
AcDbLine
 10
4.327999999999999
 20
5.458230814491445
 30
0.0
 11
4.205
 21
5.458230814491445
 31
0.0
  0
LINE
  5
3E9
330
1F
100
AcDbEntity
  8
Object
100
AcDbLine
 10
4.207
 20
8.740230814491445
 30
0.0
 11
4.086999999999999
 21
8.740230814491445
 31
0.0
  0
LINE
  5
3EA
330
1F
100
AcDbEntity
  8
Object
100
AcDbLine
 10
4.205
 20
5.458230814491445
 30
0.0
 11
4.083
 21
5.458230814491445
 31
0.0
  0
LINE
  5
3EB
330
1F
100
AcDbEntity
  8
Object
100
AcDbLine
 10
4.083
 20
5.458230814491445
 30
0.0
 11
3.964999999999999
 21
5.458230814491445
 31
0.0
  0
LINE
  5
3EC
330
1F
100
AcDbEntity
  8
Object
100
AcDbLine
 10
4.086999999999999
 20
8.740230814491445
 30
0.0
 11
3.971
 21
8.740230814491445
 31
0.0
  0
LINE
  5
3ED
330
1F
100
AcDbEntity
  8
Object
100
AcDbLine
 10
3.971
 20
8.740230814491445
 30
0.0
 11
3.859999999999999
 21
8.740230814491445
 31
0.0
  0
LINE
  5
3EE
330
1F
100
AcDbEntity
  8
Object
100
AcDbLine
 10
3.964999999999999
 20
5.458230814491445
 30
0.0
 11
3.852
 21
5.458230814491445
 31
0.0
  0
LINE
  5
3EF
330
1F
100
AcDbEntity
  8
Object
100
AcDbLine
 10
3.852
 20
5.458230814491445
 30
0.0
 11
3.745
 21
5.458230814491445
 31
0.0
  0
LINE
  5
3F0
330
1F
100
AcDbEntity
  8
Object
100
AcDbLine
 10
3.859999999999999
 20
8.740230814491445
 30
0.0
 11
3.756
 21
8.740230814491445
 31
0.0
  0
LINE
  5
3F1
330
1F
100
AcDbEntity
  8
Object
100
AcDbLine
 10
3.756
 20
8.740230814491445
 30
0.0
 11
3.733
 21
6.075230814491445
 31
0.0
  0
LINE
  5
3F2
330
1F
100
AcDbEntity
  8
Object
100
AcDbLine
 10
3.733
 20
6.075230814491445
 30
0.0
 11
3.724
 21
6.075230814491445
 31
0.0
  0
LINE
  5
3F3
330
1F
100
AcDbEntity
  8
Object
100
AcDbLine
 10
3.724
 20
6.075230814491445
 30
0.0
 11
3.714999999999999
 21
6.075230814491445
 31
0.0
  0
LINE
  5
3F4
330
1F
100
AcDbEntity
  8
Object
100
AcDbLine
 10
3.714999999999999
 20
6.075230814491445
 30
0.0
 11
3.705999999999999
 21
6.075230814491445
 31
0.0
  0
LINE
  5
3F5
330
1F
100
AcDbEntity
  8
Object
100
AcDbLine
 10
3.660999999999999
 20
8.740230814491445
 30
0.0
 11
3.684000000000001
 21
6.076230814491445
 31
0.0
  0
LINE
  5
3F6
330
1F
100
AcDbEntity
  8
Object
100
AcDbLine
 10
3.684000000000001
 20
6.076230814491445
 30
0.0
 11
3.705999999999999
 21
6.075230814491445
 31
0.0
  0
LINE
  5
3F7
330
1F
100
AcDbEntity
  8
Object
100
AcDbLine
 10
3.647999999999999
 20
5.458230814491445
 30
0.0
 11
3.745
 21
5.458230814491445
 31
0.0
  0
LINE
  5
3F8
330
1F
100
AcDbEntity
  8
Object
100
AcDbLine
 10
3.660999999999999
 20
8.740230814491445
 30
0.0
 11
3.638999999999999
 21
8.740230814491445
 31
0.0
  0
LINE
  5
3F9
330
1F
100
AcDbEntity
  8
Object
100
AcDbLine
 10
3.638999999999999
 20
8.740230814491445
 30
0.0
 11
3.618999999999999
 21
8.740230814491445
 31
0.0
  0
LINE
  5
3FA
330
1F
100
AcDbEntity
  8
Object
100
AcDbLine
 10
3.56
 20
5.458230814491445
 30
0.0
 11
3.647999999999999
 21
5.458230814491445
 31
0.0
  0
LINE
  5
3FB
330
1F
100
AcDbEntity
  8
Object
100
AcDbLine
 10
3.618999999999999
 20
8.740230814491445
 30
0.0
 11
3.599
 21
8.740230814491445
 31
0.0
  0
LINE
  5
3FC
330
1F
100
AcDbEntity
  8
Object
100
AcDbLine
 10
8.88
 20
8.740230814491445
 30
0.0
 11
8.916999999999999
 21
5.458230814491445
 31
0.0
  0
LINE
  5
3FD
102
{ACAD_REACTORS
330
7D2
102
}
330
1F
100
AcDbEntity
  8
Object
100
AcDbLine
 10
8.916999999999999
 20
5.458230814491445
 30
0.0
 11
8.813
 21
5.458230814491445
 31
0.0
  0
LINE
  5
3FE
330
1F
100
AcDbEntity
  8
Object
100
AcDbLine
 10
8.88
 20
8.740230814491445
 30
0.0
 11
8.774
 21
8.740230814491445
 31
0.0
  0
LINE
  5
3FF
330
1F
100
AcDbEntity
  8
Object
100
AcDbLine
 10
8.774
 20
8.740230814491445
 30
0.0
 11
8.753999999999999
 21
8.740230814491445
 31
0.0
  0
LINE
  5
400
330
1F
100
AcDbEntity
  8
Object
100
AcDbLine
 10
8.813
 20
5.458230814491445
 30
0.0
 11
8.774
 21
8.740230814491445
 31
0.0
  0
LINE
  5
401
330
1F
100
AcDbEntity
  8
Object
100
AcDbLine
 10
8.753999999999999
 20
8.740230814491445
 30
0.0
 11
8.733
 21
8.740230814491445
 31
0.0
  0
LINE
  5
402
330
1F
100
AcDbEntity
  8
Object
100
AcDbLine
 10
8.724999999999999
 20
5.458230814491445
 30
0.0
 11
8.813
 21
5.458230814491445
 31
0.0
  0
LINE
  5
403
330
1F
100
AcDbEntity
  8
Object
100
AcDbLine
 10
8.733
 20
8.740230814491445
 30
0.0
 11
8.711999999999999
 21
8.740230814491445
 31
0.0
  0
LINE
  5
404
330
1F
100
AcDbEntity
  8
Object
100
AcDbLine
 10
8.711999999999999
 20
8.740230814491445
 30
0.0
 11
8.688
 21
6.076230814491445
 31
0.0
  0
LINE
  5
405
330
1F
100
AcDbEntity
  8
Object
100
AcDbLine
 10
8.688
 20
6.076230814491445
 30
0.0
 11
8.666999999999999
 21
6.075230814491445
 31
0.0
  0
LINE
  5
406
330
1F
100
AcDbEntity
  8
Object
100
AcDbLine
 10
8.649
 20
6.075230814491445
 30
0.0
 11
8.657999999999999
 21
6.075230814491445
 31
0.0
  0
LINE
  5
407
330
1F
100
AcDbEntity
  8
Object
100
AcDbLine
 10
8.657999999999999
 20
6.075230814491445
 30
0.0
 11
8.666999999999999
 21
6.075230814491445
 31
0.0
  0
LINE
  5
408
330
1F
100
AcDbEntity
  8
Object
100
AcDbLine
 10
8.627
 20
5.458230814491445
 30
0.0
 11
8.724999999999999
 21
5.458230814491445
 31
0.0
  0
LINE
  5
409
330
1F
100
AcDbEntity
  8
Object
100
AcDbLine
 10
8.649
 20
6.075230814491445
 30
0.0
 11
8.638999999999999
 21
6.075230814491445
 31
0.0
  0
LINE
  5
40A
330
1F
100
AcDbEntity
  8
Object
100
AcDbLine
 10
8.638999999999999
 20
6.075230814491445
 30
0.0
 11
8.615999999999999
 21
8.740230814491445
 31
0.0
  0
LINE
  5
40B
330
1F
100
AcDbEntity
  8
Object
100
AcDbLine
 10
8.615999999999999
 20
8.740230814491445
 30
0.0
 11
8.512
 21
8.740230814491445
 31
0.0
  0
LINE
  5
40C
330
1F
100
AcDbEntity
  8
Object
100
AcDbLine
 10
8.627
 20
5.458230814491445
 30
0.0
 11
8.521
 21
5.458230814491445
 31
0.0
  0
LINE
  5
40D
330
1F
100
AcDbEntity
  8
Object
100
AcDbLine
 10
8.521
 20
5.458230814491445
 30
0.0
 11
8.407999999999999
 21
5.458230814491445
 31
0.0
  0
LINE
  5
40E
330
1F
100
AcDbEntity
  8
Object
100
AcDbLine
 10
8.512
 20
8.740230814491445
 30
0.0
 11
8.400999999999999
 21
8.740230814491445
 31
0.0
  0
LINE
  5
40F
330
1F
100
AcDbEntity
  8
Object
100
AcDbLine
 10
8.400999999999999
 20
8.740230814491445
 30
0.0
 11
8.285
 21
8.740230814491445
 31
0.0
  0
LINE
  5
410
330
1F
100
AcDbEntity
  8
Object
100
AcDbLine
 10
8.407999999999999
 20
5.458230814491445
 30
0.0
 11
8.29
 21
5.458230814491445
 31
0.0
  0
LINE
  5
411
330
1F
100
AcDbEntity
  8
Object
100
AcDbLine
 10
8.29
 20
5.458230814491445
 30
0.0
 11
8.168000000000001
 21
5.458230814491445
 31
0.0
  0
LINE
  5
412
330
1F
100
AcDbEntity
  8
Object
100
AcDbLine
 10
8.285
 20
8.740230814491445
 30
0.0
 11
8.166
 21
8.740230814491445
 31
0.0
  0
LINE
  5
413
330
1F
100
AcDbEntity
  8
Object
100
AcDbLine
 10
8.166
 20
8.740230814491445
 30
0.0
 11
8.044
 21
8.740230814491445
 31
0.0
  0
LINE
  5
414
330
1F
100
AcDbEntity
  8
Object
100
AcDbLine
 10
8.044
 20
5.458230814491445
 30
0.0
 11
8.168000000000001
 21
5.458230814491445
 31
0.0
  0
LINE
  5
415
330
1F
100
AcDbEntity
  8
Object
100
AcDbLine
 10
4.516
 20
5.458230814491445
 30
0.0
 11
4.48
 21
5.462230814491444
 31
0.0
  0
LINE
  5
416
330
1F
100
AcDbEntity
  8
Object
100
AcDbLine
 10
4.48
 20
5.462230814491444
 30
0.0
 11
4.478999999999999
 21
5.462230814491444
 31
0.0
  0
LINE
  5
417
330
1F
100
AcDbEntity
  8
Object
100
AcDbLine
 10
4.478999999999999
 20
5.462230814491444
 30
0.0
 11
4.516
 21
5.458230814491445
 31
0.0
  0
LINE
  5
418
330
1F
100
AcDbEntity
  8
Object
100
AcDbLine
 10
4.48
 20
5.462230814491444
 30
0.0
 11
4.478999999999999
 21
5.462230814491444
 31
0.0
  0
LINE
  5
419
330
1F
100
AcDbEntity
  8
Object
100
AcDbLine
 10
4.443999999999999
 20
5.472230814491445
 30
0.0
 11
4.478999999999999
 21
5.462230814491444
 31
0.0
  0
LINE
  5
41A
330
1F
100
AcDbEntity
  8
Object
100
AcDbLine
 10
4.48
 20
5.462230814491444
 30
0.0
 11
4.443999999999999
 21
5.472230814491445
 31
0.0
  0
LINE
  5
41B
330
1F
100
AcDbEntity
  8
Object
100
AcDbLine
 10
4.443999999999999
 20
5.472230814491445
 30
0.0
 11
4.478999999999999
 21
5.462230814491444
 31
0.0
  0
LINE
  5
41C
330
1F
100
AcDbEntity
  8
Object
100
AcDbLine
 10
4.443999999999999
 20
5.473230814491445
 30
0.0
 11
4.443999999999999
 21
5.472230814491445
 31
0.0
  0
LINE
  5
41D
330
1F
100
AcDbEntity
  8
Object
100
AcDbLine
 10
4.443999999999999
 20
5.472230814491445
 30
0.0
 11
4.478999999999999
 21
5.462230814491444
 31
0.0
  0
LINE
  5
41E
330
1F
100
AcDbEntity
  8
Object
100
AcDbLine
 10
4.411999999999999
 20
5.489230814491445
 30
0.0
 11
4.411999999999999
 21
5.490230814491445
 31
0.0
  0
LINE
  5
41F
330
1F
100
AcDbEntity
  8
Object
100
AcDbLine
 10
4.411999999999999
 20
5.490230814491445
 30
0.0
 11
4.443999999999999
 21
5.472230814491445
 31
0.0
  0
LINE
  5
420
330
1F
100
AcDbEntity
  8
Object
100
AcDbLine
 10
4.411999999999999
 20
5.489230814491445
 30
0.0
 11
4.411999999999999
 21
5.490230814491445
 31
0.0
  0
LINE
  5
421
330
1F
100
AcDbEntity
  8
Object
100
AcDbLine
 10
4.411999999999999
 20
5.490230814491445
 30
0.0
 11
4.384
 21
5.513230814491445
 31
0.0
  0
LINE
  5
422
330
1F
100
AcDbEntity
  8
Object
100
AcDbLine
 10
4.384
 20
5.513230814491445
 30
0.0
 11
4.359999999999999
 21
5.541230814491445
 31
0.0
  0
LINE
  5
423
330
1F
100
AcDbEntity
  8
Object
100
AcDbLine
 10
4.342999999999999
 20
5.573230814491445
 30
0.0
 11
4.342999999999999
 21
5.574230814491444
 31
0.0
  0
LINE
  5
424
330
1F
100
AcDbEntity
  8
Object
100
AcDbLine
 10
4.342999999999999
 20
5.574230814491444
 30
0.0
 11
4.359999999999999
 21
5.541230814491445
 31
0.0
  0
LINE
  5
425
330
1F
100
AcDbEntity
  8
Object
100
AcDbLine
 10
4.342999999999999
 20
5.574230814491444
 30
0.0
 11
4.342999999999999
 21
5.573230814491445
 31
0.0
  0
LINE
  5
426
330
1F
100
AcDbEntity
  8
Object
100
AcDbLine
 10
4.332
 20
5.609230814491445
 30
0.0
 11
4.342999999999999
 21
5.574230814491444
 31
0.0
  0
LINE
  5
427
330
1F
100
AcDbEntity
  8
Object
100
AcDbLine
 10
4.332
 20
5.610230814491445
 30
0.0
 11
4.332
 21
5.609230814491445
 31
0.0
  0
LINE
  5
428
330
1F
100
AcDbEntity
  8
Object
100
AcDbLine
 10
4.332
 20
5.609230814491445
 30
0.0
 11
4.327999999999999
 21
5.646230814491445
 31
0.0
  0
LINE
  5
429
330
1F
100
AcDbEntity
  8
Object
100
AcDbLine
 10
8.041
 20
5.610230814491445
 30
0.0
 11
8.041
 21
5.609230814491445
 31
0.0
  0
LINE
  5
42A
330
1F
100
AcDbEntity
  8
Object
100
AcDbLine
 10
8.041
 20
5.609230814491445
 30
0.0
 11
8.044
 21
5.646230814491445
 31
0.0
  0
LINE
  5
42B
330
1F
100
AcDbEntity
  8
Object
100
AcDbLine
 10
8.037
 20
5.609230814491445
 30
0.0
 11
8.045999999999999
 21
5.609230814491445
 31
0.0
  0
LINE
  5
42C
330
1F
100
AcDbEntity
  8
Object
100
AcDbLine
 10
8.029999999999999
 20
5.573230814491445
 30
0.0
 11
8.029999999999999
 21
5.574230814491444
 31
0.0
  0
LINE
  5
42D
330
1F
100
AcDbEntity
  8
Object
100
AcDbLine
 10
8.029999999999999
 20
5.574230814491444
 30
0.0
 11
8.041
 21
5.609230814491445
 31
0.0
  0
LINE
  5
42E
330
1F
100
AcDbEntity
  8
Object
100
AcDbLine
 10
8.029999999999999
 20
5.573230814491445
 30
0.0
 11
8.029999999999999
 21
5.574230814491444
 31
0.0
  0
LINE
  5
42F
330
1F
100
AcDbEntity
  8
Object
100
AcDbLine
 10
8.029999999999999
 20
5.574230814491444
 30
0.0
 11
8.012
 21
5.541230814491445
 31
0.0
  0
LINE
  5
430
330
1F
100
AcDbEntity
  8
Object
100
AcDbLine
 10
8.012
 20
5.541230814491445
 30
0.0
 11
7.988999999999999
 21
5.513230814491445
 31
0.0
  0
LINE
  5
431
330
1F
100
AcDbEntity
  8
Object
100
AcDbLine
 10
7.988999999999999
 20
5.513230814491445
 30
0.0
 11
7.961
 21
5.490230814491445
 31
0.0
  0
LINE
  5
432
330
1F
100
AcDbEntity
  8
Object
100
AcDbLine
 10
7.961
 20
5.490230814491445
 30
0.0
 11
7.988999999999999
 21
5.513230814491445
 31
0.0
  0
LINE
  5
433
330
1F
100
AcDbEntity
  8
Object
100
AcDbLine
 10
7.977999999999999
 20
5.504230814491445
 30
0.0
 11
7.961
 21
5.490230814491445
 31
0.0
  0
LINE
  5
434
330
1F
100
AcDbEntity
  8
Object
100
AcDbLine
 10
7.961
 20
5.490230814491445
 30
0.0
 11
7.959999999999999
 21
5.490230814491445
 31
0.0
  0
LINE
  5
435
330
1F
100
AcDbEntity
  8
Object
100
AcDbLine
 10
7.959999999999999
 20
5.490230814491445
 30
0.0
 11
7.988999999999999
 21
5.513230814491445
 31
0.0
  0
LINE
  5
436
330
1F
100
AcDbEntity
  8
Object
100
AcDbLine
 10
7.959999999999999
 20
5.490230814491445
 30
0.0
 11
7.961
 21
5.490230814491445
 31
0.0
  0
LINE
  5
437
330
1F
100
AcDbEntity
  8
Object
100
AcDbLine
 10
7.961
 20
5.490230814491445
 30
0.0
 11
7.927999999999999
 21
5.472230814491445
 31
0.0
  0
LINE
  5
438
330
1F
100
AcDbEntity
  8
Object
100
AcDbLine
 10
7.927999999999999
 20
5.472230814491445
 30
0.0
 11
7.927999999999999
 21
5.473230814491445
 31
0.0
  0
LINE
  5
439
330
1F
100
AcDbEntity
  8
Object
100
AcDbLine
 10
7.959999999999999
 20
5.490230814491445
 30
0.0
 11
7.927999999999999
 21
5.472230814491445
 31
0.0
  0
LINE
  5
43A
330
1F
100
AcDbEntity
  8
Object
100
AcDbLine
 10
7.892999999999999
 20
5.461230814491445
 30
0.0
 11
7.892999999999999
 21
5.462230814491444
 31
0.0
  0
LINE
  5
43B
330
1F
100
AcDbEntity
  8
Object
100
AcDbLine
 10
7.892999999999999
 20
5.462230814491444
 30
0.0
 11
7.927999999999999
 21
5.472230814491445
 31
0.0
  0
LINE
  5
43C
330
1F
100
AcDbEntity
  8
Object
100
AcDbLine
 10
7.892999999999999
 20
5.461230814491445
 30
0.0
 11
7.892999999999999
 21
5.462230814491444
 31
0.0
  0
LINE
  5
43D
330
1F
100
AcDbEntity
  8
Object
100
AcDbLine
 10
7.892999999999999
 20
5.462230814491444
 30
0.0
 11
7.857
 21
5.458230814491445
 31
0.0
  0
LINE
  5
43E
330
1F
100
AcDbEntity
  8
Object
100
AcDbLine
 10
4.327999999999999
 20
8.740230814491445
 30
0.0
 11
4.207
 21
8.740230814491445
 31
0.0
  0
LINE
  5
43F
330
1F
100
AcDbEntity
  8
Object
100
AcDbLine
 10
4.207
 20
8.740230814491445
 30
0.0
 11
4.086999999999999
 21
8.740230814491445
 31
0.0
  0
LINE
  5
440
330
1F
100
AcDbEntity
  8
Object
100
AcDbLine
 10
4.086999999999999
 20
8.740230814491445
 30
0.0
 11
3.971
 21
8.740230814491445
 31
0.0
  0
LINE
  5
441
330
1F
100
AcDbEntity
  8
Object
100
AcDbLine
 10
3.971
 20
8.740230814491445
 30
0.0
 11
3.859999999999999
 21
8.740230814491445
 31
0.0
  0
LINE
  5
442
330
1F
100
AcDbEntity
  8
Object
100
AcDbLine
 10
3.859999999999999
 20
8.740230814491445
 30
0.0
 11
3.756
 21
8.740230814491445
 31
0.0
  0
LINE
  5
443
330
1F
100
AcDbEntity
  8
Object
100
AcDbLine
 10
3.756
 20
8.740230814491445
 30
0.0
 11
3.753
 21
8.740230814491445
 31
0.0
  0
LINE
  5
444
330
1F
100
AcDbEntity
  8
Object
100
AcDbLine
 10
3.753
 20
8.740230814491445
 30
0.0
 11
3.752
 21
8.740230814491445
 31
0.0
  0
LINE
  5
445
330
1F
100
AcDbEntity
  8
Object
100
AcDbLine
 10
3.676999999999999
 20
8.739230814491445
 30
0.0
 11
3.676999999999999
 21
8.740230814491445
 31
0.0
  0
LINE
  5
446
330
1F
100
AcDbEntity
  8
Object
100
AcDbLine
 10
3.676999999999999
 20
8.740230814491445
 30
0.0
 11
3.752
 21
8.740230814491445
 31
0.0
  0
LINE
  5
447
330
1F
100
AcDbEntity
  8
Object
100
AcDbLine
 10
3.676999999999999
 20
8.740230814491445
 30
0.0
 11
3.676
 21
8.740230814491445
 31
0.0
  0
LINE
  5
448
330
1F
100
AcDbEntity
  8
Object
100
AcDbLine
 10
3.676
 20
8.740230814491445
 30
0.0
 11
3.673999999999999
 21
8.740230814491445
 31
0.0
  0
LINE
  5
449
330
1F
100
AcDbEntity
  8
Object
100
AcDbLine
 10
3.673999999999999
 20
8.740230814491445
 30
0.0
 11
3.670999999999999
 21
8.740230814491445
 31
0.0
  0
LINE
  5
44A
330
1F
100
AcDbEntity
  8
Object
100
AcDbLine
 10
3.670999999999999
 20
8.740230814491445
 30
0.0
 11
3.669
 21
8.740230814491445
 31
0.0
  0
LINE
  5
44B
330
1F
100
AcDbEntity
  8
Object
100
AcDbLine
 10
3.669
 20
8.740230814491445
 30
0.0
 11
3.666
 21
8.740230814491445
 31
0.0
  0
LINE
  5
44C
330
1F
100
AcDbEntity
  8
Object
100
AcDbLine
 10
3.666
 20
8.740230814491445
 30
0.0
 11
3.663
 21
8.740230814491445
 31
0.0
  0
LINE
  5
44D
330
1F
100
AcDbEntity
  8
Object
100
AcDbLine
 10
3.663
 20
8.740230814491445
 30
0.0
 11
3.660999999999999
 21
8.740230814491445
 31
0.0
  0
LINE
  5
44E
330
1F
100
AcDbEntity
  8
Object
100
AcDbLine
 10
3.660999999999999
 20
8.740230814491445
 30
0.0
 11
3.638999999999999
 21
8.740230814491445
 31
0.0
  0
LINE
  5
44F
330
1F
100
AcDbEntity
  8
Object
100
AcDbLine
 10
3.638999999999999
 20
8.740230814491445
 30
0.0
 11
3.618999999999999
 21
8.740230814491445
 31
0.0
  0
LINE
  5
450
330
1F
100
AcDbEntity
  8
Object
100
AcDbLine
 10
3.618999999999999
 20
8.740230814491445
 30
0.0
 11
3.599
 21
8.740230814491445
 31
0.0
  0
LINE
  5
451
330
1F
100
AcDbEntity
  8
Object
100
AcDbLine
 10
3.599
 20
8.740230814491445
 30
0.0
 11
3.492
 21
8.740230814491445
 31
0.0
  0
LINE
  5
452
330
1F
100
AcDbEntity
  8
Object
100
AcDbLine
 10
5.408000000000001
 20
9.037230814491445
 30
0.0
 11
5.396
 21
9.037230814491445
 31
0.0
  0
LINE
  5
453
330
1F
100
AcDbEntity
  8
Object
100
AcDbLine
 10
5.396
 20
9.037230814491445
 30
0.0
 11
5.368999999999999
 21
9.037230814491445
 31
0.0
  0
LINE
  5
454
330
1F
100
AcDbEntity
  8
Object
100
AcDbLine
 10
5.368999999999999
 20
9.037230814491445
 30
0.0
 11
5.327999999999999
 21
9.037230814491445
 31
0.0
  0
LINE
  5
455
330
1F
100
AcDbEntity
  8
Object
100
AcDbLine
 10
5.327999999999999
 20
9.037230814491445
 30
0.0
 11
5.272999999999999
 21
9.037230814491445
 31
0.0
  0
LINE
  5
456
330
1F
100
AcDbEntity
  8
Object
100
AcDbLine
 10
5.272999999999999
 20
9.037230814491445
 30
0.0
 11
5.204
 21
9.037230814491445
 31
0.0
  0
LINE
  5
457
330
1F
100
AcDbEntity
  8
Object
100
AcDbLine
 10
5.204
 20
9.037230814491445
 30
0.0
 11
5.123000000000001
 21
9.037230814491445
 31
0.0
  0
LINE
  5
458
330
1F
100
AcDbEntity
  8
Object
100
AcDbLine
 10
5.123000000000001
 20
9.037230814491445
 30
0.0
 11
5.032
 21
9.037230814491445
 31
0.0
  0
LINE
  5
459
330
1F
100
AcDbEntity
  8
Object
100
AcDbLine
 10
5.032
 20
9.037230814491445
 30
0.0
 11
4.929999999999999
 21
9.037230814491445
 31
0.0
  0
LINE
  5
45A
330
1F
100
AcDbEntity
  8
Object
100
AcDbLine
 10
4.929999999999999
 20
9.037230814491445
 30
0.0
 11
4.82
 21
9.037230814491445
 31
0.0
  0
LINE
  5
45B
330
1F
100
AcDbEntity
  8
Object
100
AcDbLine
 10
4.82
 20
9.037230814491445
 30
0.0
 11
4.702999999999999
 21
9.037230814491445
 31
0.0
  0
LINE
  5
45C
330
1F
100
AcDbEntity
  8
Object
100
AcDbLine
 10
4.702999999999999
 20
9.037230814491445
 30
0.0
 11
4.580999999999999
 21
9.037230814491445
 31
0.0
  0
LINE
  5
45D
330
1F
100
AcDbEntity
  8
Object
100
AcDbLine
 10
4.580999999999999
 20
9.037230814491445
 30
0.0
 11
4.455999999999999
 21
9.037230814491445
 31
0.0
  0
LINE
  5
45E
330
1F
100
AcDbEntity
  8
Object
100
AcDbLine
 10
4.455999999999999
 20
9.037230814491445
 30
0.0
 11
4.327999999999999
 21
9.037230814491445
 31
0.0
  0
LINE
  5
45F
330
1F
100
AcDbEntity
  8
Object
100
AcDbLine
 10
4.327999999999999
 20
9.037230814491445
 30
0.0
 11
4.327999999999999
 21
5.646230814491445
 31
0.0
  0
LINE
  5
460
330
1F
100
AcDbEntity
  8
Object
100
AcDbLine
 10
8.044
 20
9.037230814491445
 30
0.0
 11
7.916999999999999
 21
9.037230814491445
 31
0.0
  0
LINE
  5
461
330
1F
100
AcDbEntity
  8
Object
100
AcDbLine
 10
7.916999999999999
 20
9.037230814491445
 30
0.0
 11
7.791
 21
9.037230814491445
 31
0.0
  0
LINE
  5
462
330
1F
100
AcDbEntity
  8
Object
100
AcDbLine
 10
7.791
 20
9.037230814491445
 30
0.0
 11
7.669
 21
9.037230814491445
 31
0.0
  0
LINE
  5
463
330
1F
100
AcDbEntity
  8
Object
100
AcDbLine
 10
7.669
 20
9.037230814491445
 30
0.0
 11
7.552
 21
9.037230814491445
 31
0.0
  0
LINE
  5
464
330
1F
100
AcDbEntity
  8
Object
100
AcDbLine
 10
7.552
 20
9.037230814491445
 30
0.0
 11
7.442
 21
9.037230814491445
 31
0.0
  0
LINE
  5
465
330
1F
100
AcDbEntity
  8
Object
100
AcDbLine
 10
7.442
 20
9.037230814491445
 30
0.0
 11
7.341
 21
9.037230814491445
 31
0.0
  0
LINE
  5
466
330
1F
100
AcDbEntity
  8
Object
100
AcDbLine
 10
7.341
 20
9.037230814491445
 30
0.0
 11
7.249
 21
9.037230814491445
 31
0.0
  0
LINE
  5
467
330
1F
100
AcDbEntity
  8
Object
100
AcDbLine
 10
7.249
 20
9.037230814491445
 30
0.0
 11
7.168
 21
9.037230814491445
 31
0.0
  0
LINE
  5
468
330
1F
100
AcDbEntity
  8
Object
100
AcDbLine
 10
7.168
 20
9.037230814491445
 30
0.0
 11
7.1
 21
9.037230814491445
 31
0.0
  0
LINE
  5
469
330
1F
100
AcDbEntity
  8
Object
100
AcDbLine
 10
7.1
 20
9.037230814491445
 30
0.0
 11
7.044999999999999
 21
9.037230814491445
 31
0.0
  0
LINE
  5
46A
330
1F
100
AcDbEntity
  8
Object
100
AcDbLine
 10
7.044999999999999
 20
9.037230814491445
 30
0.0
 11
7.003
 21
9.037230814491445
 31
0.0
  0
LINE
  5
46B
330
1F
100
AcDbEntity
  8
Object
100
AcDbLine
 10
7.003
 20
9.037230814491445
 30
0.0
 11
6.977
 21
9.037230814491445
 31
0.0
  0
LINE
  5
46C
330
1F
100
AcDbEntity
  8
Object
100
AcDbLine
 10
6.977
 20
9.037230814491445
 30
0.0
 11
6.964999999999999
 21
9.037230814491445
 31
0.0
  0
LINE
  5
46D
330
1F
100
AcDbEntity
  8
Object
100
AcDbLine
 10
8.044
 20
5.646230814491445
 30
0.0
 11
8.044
 21
9.037230814491445
 31
0.0
  0
LINE
  5
46E
330
1F
100
AcDbEntity
  8
Object
100
AcDbLine
 10
8.88
 20
8.740230814491445
 30
0.0
 11
8.774
 21
8.740230814491445
 31
0.0
  0
LINE
  5
46F
330
1F
100
AcDbEntity
  8
Object
100
AcDbLine
 10
8.774
 20
8.740230814491445
 30
0.0
 11
8.753999999999999
 21
8.740230814491445
 31
0.0
  0
LINE
  5
470
330
1F
100
AcDbEntity
  8
Object
100
AcDbLine
 10
8.753999999999999
 20
8.740230814491445
 30
0.0
 11
8.733
 21
8.740230814491445
 31
0.0
  0
LINE
  5
471
330
1F
100
AcDbEntity
  8
Object
100
AcDbLine
 10
8.733
 20
8.740230814491445
 30
0.0
 11
8.711999999999999
 21
8.740230814491445
 31
0.0
  0
LINE
  5
472
330
1F
100
AcDbEntity
  8
Object
100
AcDbLine
 10
8.711999999999999
 20
8.740230814491445
 30
0.0
 11
8.708999999999999
 21
8.740230814491445
 31
0.0
  0
LINE
  5
473
330
1F
100
AcDbEntity
  8
Object
100
AcDbLine
 10
8.708999999999999
 20
8.740230814491445
 30
0.0
 11
8.707
 21
8.740230814491445
 31
0.0
  0
LINE
  5
474
330
1F
100
AcDbEntity
  8
Object
100
AcDbLine
 10
8.707
 20
8.740230814491445
 30
0.0
 11
8.704
 21
8.740230814491445
 31
0.0
  0
LINE
  5
475
330
1F
100
AcDbEntity
  8
Object
100
AcDbLine
 10
8.704
 20
8.740230814491445
 30
0.0
 11
8.701
 21
8.740230814491445
 31
0.0
  0
LINE
  5
476
330
1F
100
AcDbEntity
  8
Object
100
AcDbLine
 10
8.701
 20
8.740230814491445
 30
0.0
 11
8.698999999999999
 21
8.740230814491445
 31
0.0
  0
LINE
  5
477
330
1F
100
AcDbEntity
  8
Object
100
AcDbLine
 10
8.698999999999999
 20
8.740230814491445
 30
0.0
 11
8.697
 21
8.740230814491445
 31
0.0
  0
LINE
  5
478
330
1F
100
AcDbEntity
  8
Object
100
AcDbLine
 10
8.697
 20
8.740230814491445
 30
0.0
 11
8.695999999999999
 21
8.740230814491445
 31
0.0
  0
LINE
  5
479
330
1F
100
AcDbEntity
  8
Object
100
AcDbLine
 10
8.695999999999999
 20
8.740230814491445
 30
0.0
 11
8.695
 21
8.740230814491445
 31
0.0
  0
LINE
  5
47A
330
1F
100
AcDbEntity
  8
Object
100
AcDbLine
 10
8.695
 20
8.740230814491445
 30
0.0
 11
8.62
 21
8.740230814491445
 31
0.0
  0
LINE
  5
47B
330
1F
100
AcDbEntity
  8
Object
100
AcDbLine
 10
8.62
 20
8.740230814491445
 30
0.0
 11
8.618999999999999
 21
8.740230814491445
 31
0.0
  0
LINE
  5
47C
330
1F
100
AcDbEntity
  8
Object
100
AcDbLine
 10
8.618999999999999
 20
8.740230814491445
 30
0.0
 11
8.615999999999999
 21
8.740230814491445
 31
0.0
  0
LINE
  5
47D
330
1F
100
AcDbEntity
  8
Object
100
AcDbLine
 10
8.615999999999999
 20
8.740230814491445
 30
0.0
 11
8.512
 21
8.740230814491445
 31
0.0
  0
LINE
  5
47E
330
1F
100
AcDbEntity
  8
Object
100
AcDbLine
 10
8.512
 20
8.740230814491445
 30
0.0
 11
8.400999999999999
 21
8.740230814491445
 31
0.0
  0
LINE
  5
47F
330
1F
100
AcDbEntity
  8
Object
100
AcDbLine
 10
8.400999999999999
 20
8.740230814491445
 30
0.0
 11
8.285
 21
8.740230814491445
 31
0.0
  0
LINE
  5
480
330
1F
100
AcDbEntity
  8
Object
100
AcDbLine
 10
8.285
 20
8.740230814491445
 30
0.0
 11
8.166
 21
8.740230814491445
 31
0.0
  0
LINE
  5
481
330
1F
100
AcDbEntity
  8
Object
100
AcDbLine
 10
8.166
 20
8.740230814491445
 30
0.0
 11
8.044
 21
8.740230814491445
 31
0.0
  0
LINE
  5
482
330
1F
100
AcDbEntity
  8
Object
100
AcDbLine
 10
3.708999999999999
 20
6.084230814491445
 30
0.0
 11
3.711999999999999
 21
6.085230814491445
 31
0.0
  0
LINE
  5
483
330
1F
100
AcDbEntity
  8
Object
100
AcDbLine
 10
3.711999999999999
 20
6.085230814491445
 30
0.0
 11
3.698
 21
6.086230814491445
 31
0.0
  0
LINE
  5
484
330
1F
100
AcDbEntity
  8
Object
100
AcDbLine
 10
3.708999999999999
 20
6.084230814491445
 30
0.0
 11
3.707
 21
6.080230814491445
 31
0.0
  0
LINE
  5
485
330
1F
100
AcDbEntity
  8
Object
100
AcDbLine
 10
3.707
 20
6.080230814491445
 30
0.0
 11
3.705999999999999
 21
6.075230814491445
 31
0.0
  0
LINE
  5
486
330
1F
100
AcDbEntity
  8
Object
100
AcDbLine
 10
3.698
 20
6.086230814491445
 30
0.0
 11
3.699999999999999
 21
6.086230814491445
 31
0.0
  0
LINE
  5
487
330
1F
100
AcDbEntity
  8
Object
100
AcDbLine
 10
3.699999999999999
 20
6.086230814491445
 30
0.0
 11
3.699999999999999
 21
6.087230814491444
 31
0.0
  0
LINE
  5
488
330
1F
100
AcDbEntity
  8
Object
100
AcDbLine
 10
3.698
 20
6.086230814491445
 30
0.0
 11
3.695999999999999
 21
6.085230814491445
 31
0.0
  0
LINE
  5
489
330
1F
100
AcDbEntity
  8
Object
100
AcDbLine
 10
3.695999999999999
 20
6.085230814491445
 30
0.0
 11
3.693999999999999
 21
6.085230814491445
 31
0.0
  0
LINE
  5
48A
330
1F
100
AcDbEntity
  8
Object
100
AcDbLine
 10
3.693999999999999
 20
6.085230814491445
 30
0.0
 11
3.691
 21
6.082230814491445
 31
0.0
  0
LINE
  5
48B
330
1F
100
AcDbEntity
  8
Object
100
AcDbLine
 10
3.691
 20
6.082230814491445
 30
0.0
 11
3.687000000000001
 21
6.080230814491445
 31
0.0
  0
LINE
  5
48C
330
1F
100
AcDbEntity
  8
Object
100
AcDbLine
 10
3.687000000000001
 20
6.080230814491445
 30
0.0
 11
3.684000000000001
 21
6.076230814491445
 31
0.0
  0
LINE
  5
48D
330
1F
100
AcDbEntity
  8
Object
100
AcDbLine
 10
3.689
 20
7.342230814491445
 30
0.0
 11
3.676999999999999
 21
8.740230814491445
 31
0.0
  0
LINE
  5
48E
330
1F
100
AcDbEntity
  8
Object
100
AcDbLine
 10
3.676999999999999
 20
8.740230814491445
 30
0.0
 11
3.699999999999999
 21
6.087230814491444
 31
0.0
  0
LINE
  5
48F
330
1F
100
AcDbEntity
  8
Object
100
AcDbLine
 10
3.689
 20
7.342230814491445
 30
0.0
 11
3.676999999999999
 21
8.740230814491445
 31
0.0
  0
LINE
  5
490
330
1F
100
AcDbEntity
  8
Object
100
AcDbLine
 10
3.676999999999999
 20
8.740230814491445
 30
0.0
 11
3.676
 21
8.740230814491445
 31
0.0
  0
LINE
  5
491
330
1F
100
AcDbEntity
  8
Object
100
AcDbLine
 10
3.676
 20
8.740230814491445
 30
0.0
 11
3.673999999999999
 21
8.740230814491445
 31
0.0
  0
LINE
  5
492
330
1F
100
AcDbEntity
  8
Object
100
AcDbLine
 10
3.673999999999999
 20
8.740230814491445
 30
0.0
 11
3.670999999999999
 21
8.740230814491445
 31
0.0
  0
LINE
  5
493
330
1F
100
AcDbEntity
  8
Object
100
AcDbLine
 10
3.670999999999999
 20
8.740230814491445
 30
0.0
 11
3.669
 21
8.740230814491445
 31
0.0
  0
LINE
  5
494
330
1F
100
AcDbEntity
  8
Object
100
AcDbLine
 10
3.669
 20
8.740230814491445
 30
0.0
 11
3.666
 21
8.740230814491445
 31
0.0
  0
LINE
  5
495
330
1F
100
AcDbEntity
  8
Object
100
AcDbLine
 10
3.666
 20
8.740230814491445
 30
0.0
 11
3.663
 21
8.740230814491445
 31
0.0
  0
LINE
  5
496
330
1F
100
AcDbEntity
  8
Object
100
AcDbLine
 10
3.663
 20
8.740230814491445
 30
0.0
 11
3.660999999999999
 21
8.740230814491445
 31
0.0
  0
LINE
  5
497
330
1F
100
AcDbEntity
  8
Object
100
AcDbLine
 10
3.733
 20
6.075230814491445
 30
0.0
 11
3.73
 21
6.080230814491445
 31
0.0
  0
LINE
  5
498
330
1F
100
AcDbEntity
  8
Object
100
AcDbLine
 10
3.728999999999999
 20
6.085230814491445
 30
0.0
 11
3.728999999999999
 21
6.083230814491445
 31
0.0
  0
LINE
  5
499
330
1F
100
AcDbEntity
  8
Object
100
AcDbLine
 10
3.728999999999999
 20
6.083230814491445
 30
0.0
 11
3.73
 21
6.080230814491445
 31
0.0
  0
LINE
  5
49A
330
1F
100
AcDbEntity
  8
Object
100
AcDbLine
 10
3.752
 20
8.740230814491445
 30
0.0
 11
3.753
 21
8.740230814491445
 31
0.0
  0
LINE
  5
49B
330
1F
100
AcDbEntity
  8
Object
100
AcDbLine
 10
3.753
 20
8.740230814491445
 30
0.0
 11
3.756
 21
8.740230814491445
 31
0.0
  0
LINE
  5
49C
330
1F
100
AcDbEntity
  8
Object
100
AcDbLine
 10
3.728999999999999
 20
6.152230814491446
 30
0.0
 11
3.728999999999999
 21
6.083230814491445
 31
0.0
  0
LINE
  5
49D
330
1F
100
AcDbEntity
  8
Object
100
AcDbLine
 10
3.752
 20
8.740230814491445
 30
0.0
 11
3.73
 21
6.199230814491444
 31
0.0
  0
LINE
  5
49E
330
1F
100
AcDbEntity
  8
Object
100
AcDbLine
 10
8.638999999999999
 20
6.075230814491445
 30
0.0
 11
8.641999999999999
 21
6.080230814491445
 31
0.0
  0
LINE
  5
49F
330
1F
100
AcDbEntity
  8
Object
100
AcDbLine
 10
8.641999999999999
 20
6.080230814491445
 30
0.0
 11
8.644
 21
6.083230814491445
 31
0.0
  0
LINE
  5
4A0
330
1F
100
AcDbEntity
  8
Object
100
AcDbLine
 10
8.644
 20
6.083230814491445
 30
0.0
 11
8.643
 21
6.087230814491444
 31
0.0
  0
LINE
  5
4A1
330
1F
100
AcDbEntity
  8
Object
100
AcDbLine
 10
8.62
 20
8.740230814491445
 30
0.0
 11
8.618999999999999
 21
8.740230814491445
 31
0.0
  0
LINE
  5
4A2
330
1F
100
AcDbEntity
  8
Object
100
AcDbLine
 10
8.618999999999999
 20
8.740230814491445
 30
0.0
 11
8.615999999999999
 21
8.740230814491445
 31
0.0
  0
LINE
  5
4A3
330
1F
100
AcDbEntity
  8
Object
100
AcDbLine
 10
8.663999999999999
 20
6.084230814491445
 30
0.0
 11
8.660999999999999
 21
6.085230814491445
 31
0.0
  0
LINE
  5
4A4
330
1F
100
AcDbEntity
  8
Object
100
AcDbLine
 10
8.644
 20
6.085230814491445
 30
0.0
 11
8.644
 21
6.083230814491445
 31
0.0
  0
LINE
  5
4A5
330
1F
100
AcDbEntity
  8
Object
100
AcDbLine
 10
8.663999999999999
 20
6.084230814491445
 30
0.0
 11
8.666
 21
6.080230814491445
 31
0.0
  0
LINE
  5
4A6
330
1F
100
AcDbEntity
  8
Object
100
AcDbLine
 10
8.666
 20
6.080230814491445
 30
0.0
 11
8.666999999999999
 21
6.075230814491445
 31
0.0
  0
LINE
  5
4A7
330
1F
100
AcDbEntity
  8
Object
100
AcDbLine
 10
8.688
 20
6.076230814491445
 30
0.0
 11
8.685
 21
6.080230814491445
 31
0.0
  0
LINE
  5
4A8
330
1F
100
AcDbEntity
  8
Object
100
AcDbLine
 10
8.685
 20
6.080230814491445
 30
0.0
 11
8.682
 21
6.082230814491445
 31
0.0
  0
LINE
  5
4A9
330
1F
100
AcDbEntity
  8
Object
100
AcDbLine
 10
8.676
 20
6.085230814491445
 30
0.0
 11
8.678
 21
6.085230814491445
 31
0.0
  0
LINE
  5
4AA
330
1F
100
AcDbEntity
  8
Object
100
AcDbLine
 10
8.678
 20
6.085230814491445
 30
0.0
 11
8.682
 21
6.082230814491445
 31
0.0
  0
LINE
  5
4AB
330
1F
100
AcDbEntity
  8
Object
100
AcDbLine
 10
8.676
 20
6.085230814491445
 30
0.0
 11
8.675
 21
6.086230814491445
 31
0.0
  0
LINE
  5
4AC
330
1F
100
AcDbEntity
  8
Object
100
AcDbLine
 10
8.707
 20
8.740230814491445
 30
0.0
 11
8.708999999999999
 21
8.740230814491445
 31
0.0
  0
LINE
  5
4AD
330
1F
100
AcDbEntity
  8
Object
100
AcDbLine
 10
8.708999999999999
 20
8.740230814491445
 30
0.0
 11
8.711999999999999
 21
8.740230814491445
 31
0.0
  0
LINE
  5
4AE
330
1F
100
AcDbEntity
  8
Object
100
AcDbLine
 10
8.701
 20
8.740230814491445
 30
0.0
 11
8.704
 21
8.740230814491445
 31
0.0
  0
LINE
  5
4AF
330
1F
100
AcDbEntity
  8
Object
100
AcDbLine
 10
8.704
 20
8.740230814491445
 30
0.0
 11
8.707
 21
8.740230814491445
 31
0.0
  0
LINE
  5
4B0
330
1F
100
AcDbEntity
  8
Object
100
AcDbLine
 10
8.697
 20
8.740230814491445
 30
0.0
 11
8.698999999999999
 21
8.740230814491445
 31
0.0
  0
LINE
  5
4B1
330
1F
100
AcDbEntity
  8
Object
100
AcDbLine
 10
8.698999999999999
 20
8.740230814491445
 30
0.0
 11
8.701
 21
8.740230814491445
 31
0.0
  0
LINE
  5
4B2
330
1F
100
AcDbEntity
  8
Object
100
AcDbLine
 10
8.695
 20
8.740230814491445
 30
0.0
 11
8.695999999999999
 21
8.740230814491445
 31
0.0
  0
LINE
  5
4B3
330
1F
100
AcDbEntity
  8
Object
100
AcDbLine
 10
8.695999999999999
 20
8.740230814491445
 30
0.0
 11
8.697
 21
8.740230814491445
 31
0.0
  0
LINE
  5
4B4
330
1F
100
AcDbEntity
  8
Object
100
AcDbLine
 10
8.672
 20
6.134230814491445
 30
0.0
 11
8.672
 21
6.087230814491444
 31
0.0
  0
LINE
  5
4B5
330
1F
100
AcDbEntity
  8
Object
100
AcDbLine
 10
8.695
 20
8.740230814491445
 30
0.0
 11
8.673
 21
6.202230814491445
 31
0.0
  0
LINE
  5
4B6
330
1F
100
AcDbEntity
  8
Object
100
AcDbLine
 10
3.73
 20
6.161230814491445
 30
0.0
 11
3.73
 21
6.183230814491444
 31
0.0
  0
LINE
  5
4B7
330
1F
100
AcDbEntity
  8
Object
100
AcDbLine
 10
3.73
 20
6.183230814491444
 30
0.0
 11
3.73
 21
6.205230814491445
 31
0.0
  0
LINE
  5
4B8
330
1F
100
AcDbEntity
  8
Object
100
AcDbLine
 10
3.73
 20
6.205230814491445
 30
0.0
 11
3.752
 21
8.740230814491445
 31
0.0
  0
LINE
  5
4B9
330
1F
100
AcDbEntity
  8
Object
100
AcDbLine
 10
3.728999999999999
 20
6.152230814491446
 30
0.0
 11
3.728999999999999
 21
6.083230814491445
 31
0.0
  0
LINE
  5
4BA
330
1F
100
AcDbEntity
  8
Object
100
AcDbLine
 10
3.752
 20
8.740230814491445
 30
0.0
 11
3.73
 21
6.199230814491444
 31
0.0
  0
LINE
  5
4BB
330
1F
100
AcDbEntity
  8
Object
100
AcDbLine
 10
3.728999999999999
 20
6.083230814491445
 30
0.0
 11
3.728999999999999
 21
6.085230814491445
 31
0.0
  0
LINE
  5
4BC
330
1F
100
AcDbEntity
  8
Object
100
AcDbLine
 10
3.728999999999999
 20
6.087230814491444
 30
0.0
 11
3.728999999999999
 21
6.094230814491445
 31
0.0
  0
LINE
  5
4BD
330
1F
100
AcDbEntity
  8
Object
100
AcDbLine
 10
3.728999999999999
 20
6.094230814491445
 30
0.0
 11
3.728999999999999
 21
6.105230814491445
 31
0.0
  0
LINE
  5
4BE
330
1F
100
AcDbEntity
  8
Object
100
AcDbLine
 10
3.728999999999999
 20
6.105230814491445
 30
0.0
 11
3.728999999999999
 21
6.120230814491446
 31
0.0
  0
LINE
  5
4BF
330
1F
100
AcDbEntity
  8
Object
100
AcDbLine
 10
3.728999999999999
 20
6.120230814491446
 30
0.0
 11
3.728999999999999
 21
6.140230814491445
 31
0.0
  0
LINE
  5
4C0
330
1F
100
AcDbEntity
  8
Object
100
AcDbLine
 10
3.728999999999999
 20
6.140230814491445
 30
0.0
 11
3.73
 21
6.161230814491445
 31
0.0
  0
LINE
  5
4C1
330
1F
100
AcDbEntity
  8
Object
100
AcDbLine
 10
3.728999999999999
 20
6.085230814491445
 30
0.0
 11
3.728999999999999
 21
6.087230814491444
 31
0.0
  0
LINE
  5
4C2
330
1F
100
AcDbEntity
  8
Object
100
AcDbLine
 10
3.752
 20
8.740230814491445
 30
0.0
 11
3.73
 21
6.205230814491445
 31
0.0
  0
LINE
  5
4C3
330
1F
100
AcDbEntity
  8
Object
100
AcDbLine
 10
3.73
 20
6.205230814491445
 30
0.0
 11
3.698999999999999
 21
6.205230814491445
 31
0.0
  0
LINE
  5
4C4
330
1F
100
AcDbEntity
  8
Object
100
AcDbLine
 10
3.698999999999999
 20
6.205230814491445
 30
0.0
 11
3.676999999999999
 21
8.740230814491445
 31
0.0
  0
LINE
  5
4C5
330
1F
100
AcDbEntity
  8
Object
100
AcDbLine
 10
3.676999999999999
 20
8.740230814491445
 30
0.0
 11
3.752
 21
8.740230814491445
 31
0.0
  0
LINE
  5
4C6
330
1F
100
AcDbEntity
  8
Object
100
AcDbLine
 10
3.699999999999999
 20
6.165230814491446
 30
0.0
 11
3.699999999999999
 21
6.145230814491445
 31
0.0
  0
LINE
  5
4C7
330
1F
100
AcDbEntity
  8
Object
100
AcDbLine
 10
3.699999999999999
 20
6.145230814491445
 30
0.0
 11
3.699999999999999
 21
6.127230814491445
 31
0.0
  0
LINE
  5
4C8
330
1F
100
AcDbEntity
  8
Object
100
AcDbLine
 10
3.699999999999999
 20
6.127230814491445
 30
0.0
 11
3.699999999999999
 21
6.111230814491445
 31
0.0
  0
LINE
  5
4C9
330
1F
100
AcDbEntity
  8
Object
100
AcDbLine
 10
3.699999999999999
 20
6.111230814491445
 30
0.0
 11
3.699999999999999
 21
6.099230814491445
 31
0.0
  0
LINE
  5
4CA
330
1F
100
AcDbEntity
  8
Object
100
AcDbLine
 10
3.699999999999999
 20
6.099230814491445
 30
0.0
 11
3.699999999999999
 21
6.087230814491444
 31
0.0
  0
LINE
  5
4CB
330
1F
100
AcDbEntity
  8
Object
100
AcDbLine
 10
3.698999999999999
 20
6.205230814491445
 30
0.0
 11
3.699999999999999
 21
6.165230814491446
 31
0.0
  0
LINE
  5
4CC
330
1F
100
AcDbEntity
  8
Object
100
AcDbLine
 10
3.699999999999999
 20
6.087230814491444
 30
0.0
 11
3.676999999999999
 21
8.740230814491445
 31
0.0
  0
LINE
  5
4CD
330
1F
100
AcDbEntity
  8
Object
100
AcDbLine
 10
3.676999999999999
 20
8.740230814491445
 30
0.0
 11
3.698999999999999
 21
6.205230814491445
 31
0.0
  0
LINE
  5
4CE
330
1F
100
AcDbEntity
  8
Object
100
AcDbLine
 10
8.644
 20
6.087230814491444
 30
0.0
 11
8.644
 21
6.085230814491445
 31
0.0
  0
LINE
  5
4CF
330
1F
100
AcDbEntity
  8
Object
100
AcDbLine
 10
8.644
 20
6.085230814491445
 30
0.0
 11
8.644
 21
6.083230814491445
 31
0.0
  0
LINE
  5
4D0
330
1F
100
AcDbEntity
  8
Object
100
AcDbLine
 10
8.643
 20
6.183230814491444
 30
0.0
 11
8.643
 21
6.161230814491445
 31
0.0
  0
LINE
  5
4D1
330
1F
100
AcDbEntity
  8
Object
100
AcDbLine
 10
8.643
 20
6.105230814491445
 30
0.0
 11
8.643
 21
6.094230814491445
 31
0.0
  0
LINE
  5
4D2
330
1F
100
AcDbEntity
  8
Object
100
AcDbLine
 10
8.643
 20
6.140230814491445
 30
0.0
 11
8.643
 21
6.120230814491446
 31
0.0
  0
LINE
  5
4D3
330
1F
100
AcDbEntity
  8
Object
100
AcDbLine
 10
8.643
 20
6.120230814491446
 30
0.0
 11
8.643
 21
6.105230814491445
 31
0.0
  0
LINE
  5
4D4
330
1F
100
AcDbEntity
  8
Object
100
AcDbLine
 10
8.643
 20
6.161230814491445
 30
0.0
 11
8.643
 21
6.140230814491445
 31
0.0
  0
LINE
  5
4D5
330
1F
100
AcDbEntity
  8
Object
100
AcDbLine
 10
8.643
 20
6.094230814491445
 30
0.0
 11
8.644
 21
6.087230814491444
 31
0.0
  0
LINE
  5
4D6
330
1F
100
AcDbEntity
  8
Object
100
AcDbLine
 10
8.641999999999999
 20
6.205230814491445
 30
0.0
 11
8.643
 21
6.183230814491444
 31
0.0
  0
LINE
  5
4D7
330
1F
100
AcDbEntity
  8
Object
100
AcDbLine
 10
8.644
 20
6.083230814491445
 30
0.0
 11
8.643
 21
6.087230814491444
 31
0.0
  0
LINE
  5
4D8
330
1F
100
AcDbEntity
  8
Object
100
AcDbLine
 10
8.62
 20
8.740230814491445
 30
0.0
 11
8.641999999999999
 21
6.205230814491445
 31
0.0
  0
LINE
  5
4D9
330
1F
100
AcDbEntity
  8
Object
100
AcDbLine
 10
8.641999999999999
 20
6.205230814491445
 30
0.0
 11
8.673
 21
6.205230814491445
 31
0.0
  0
LINE
  5
4DA
330
1F
100
AcDbEntity
  8
Object
100
AcDbLine
 10
8.641999999999999
 20
6.205230814491445
 30
0.0
 11
8.62
 21
8.740230814491445
 31
0.0
  0
LINE
  5
4DB
330
1F
100
AcDbEntity
  8
Object
100
AcDbLine
 10
8.62
 20
8.740230814491445
 30
0.0
 11
8.695
 21
8.740230814491445
 31
0.0
  0
LINE
  5
4DC
330
1F
100
AcDbEntity
  8
Object
100
AcDbLine
 10
8.695
 20
8.740230814491445
 30
0.0
 11
8.673
 21
6.205230814491445
 31
0.0
  0
LINE
  5
4DD
330
1F
100
AcDbEntity
  8
Object
100
AcDbLine
 10
8.673
 20
6.145230814491445
 30
0.0
 11
8.673
 21
6.165230814491446
 31
0.0
  0
LINE
  5
4DE
330
1F
100
AcDbEntity
  8
Object
100
AcDbLine
 10
8.673
 20
6.165230814491446
 30
0.0
 11
8.673
 21
6.205230814491445
 31
0.0
  0
LINE
  5
4DF
330
1F
100
AcDbEntity
  8
Object
100
AcDbLine
 10
8.673
 20
6.205230814491445
 30
0.0
 11
8.695
 21
8.740230814491445
 31
0.0
  0
LINE
  5
4E0
330
1F
100
AcDbEntity
  8
Object
100
AcDbLine
 10
8.672
 20
6.134230814491445
 30
0.0
 11
8.672
 21
6.087230814491444
 31
0.0
  0
LINE
  5
4E1
330
1F
100
AcDbEntity
  8
Object
100
AcDbLine
 10
8.695
 20
8.740230814491445
 30
0.0
 11
8.673
 21
6.202230814491445
 31
0.0
  0
LINE
  5
4E2
330
1F
100
AcDbEntity
  8
Object
100
AcDbLine
 10
8.672
 20
6.087230814491444
 30
0.0
 11
8.672
 21
6.099230814491445
 31
0.0
  0
LINE
  5
4E3
330
1F
100
AcDbEntity
  8
Object
100
AcDbLine
 10
8.672
 20
6.099230814491445
 30
0.0
 11
8.672
 21
6.111230814491445
 31
0.0
  0
LINE
  5
4E4
330
1F
100
AcDbEntity
  8
Object
100
AcDbLine
 10
8.672
 20
6.111230814491445
 30
0.0
 11
8.672
 21
6.127230814491445
 31
0.0
  0
LINE
  5
4E5
330
1F
100
AcDbEntity
  8
Object
100
AcDbLine
 10
8.672
 20
6.127230814491445
 30
0.0
 11
8.673
 21
6.145230814491445
 31
0.0
  0
LINE
  5
4E6
330
1F
100
AcDbEntity
  8
Object
100
AcDbLine
 10
3.728999999999999
 20
6.085230814491445
 30
0.0
 11
3.728999999999999
 21
6.087230814491444
 31
0.0
  0
LINE
  5
4E7
330
1F
100
AcDbEntity
  8
Object
100
AcDbLine
 10
3.728999999999999
 20
6.094230814491445
 30
0.0
 11
3.728999999999999
 21
6.105230814491445
 31
0.0
  0
LINE
  5
4E8
330
1F
100
AcDbEntity
  8
Object
100
AcDbLine
 10
3.699999999999999
 20
6.111230814491445
 30
0.0
 11
3.699999999999999
 21
6.099230814491445
 31
0.0
  0
LINE
  5
4E9
330
1F
100
AcDbEntity
  8
Object
100
AcDbLine
 10
3.728999999999999
 20
6.120230814491446
 30
0.0
 11
3.728999999999999
 21
6.140230814491445
 31
0.0
  0
LINE
  5
4EA
330
1F
100
AcDbEntity
  8
Object
100
AcDbLine
 10
3.699999999999999
 20
6.145230814491445
 30
0.0
 11
3.699999999999999
 21
6.127230814491445
 31
0.0
  0
LINE
  5
4EB
330
1F
100
AcDbEntity
  8
Object
100
AcDbLine
 10
3.73
 20
6.161230814491445
 30
0.0
 11
3.73
 21
6.183230814491444
 31
0.0
  0
LINE
  5
4EC
330
1F
100
AcDbEntity
  8
Object
100
AcDbLine
 10
3.699999999999999
 20
6.165230814491446
 30
0.0
 11
3.699999999999999
 21
6.145230814491445
 31
0.0
  0
LINE
  5
4ED
330
1F
100
AcDbEntity
  8
Object
100
AcDbLine
 10
3.728999999999999
 20
6.140230814491445
 30
0.0
 11
3.73
 21
6.161230814491445
 31
0.0
  0
LINE
  5
4EE
330
1F
100
AcDbEntity
  8
Object
100
AcDbLine
 10
3.699999999999999
 20
6.127230814491445
 30
0.0
 11
3.699999999999999
 21
6.111230814491445
 31
0.0
  0
LINE
  5
4EF
330
1F
100
AcDbEntity
  8
Object
100
AcDbLine
 10
3.728999999999999
 20
6.105230814491445
 30
0.0
 11
3.728999999999999
 21
6.120230814491446
 31
0.0
  0
LINE
  5
4F0
330
1F
100
AcDbEntity
  8
Object
100
AcDbLine
 10
3.699999999999999
 20
6.099230814491445
 30
0.0
 11
3.699999999999999
 21
6.087230814491444
 31
0.0
  0
LINE
  5
4F1
330
1F
100
AcDbEntity
  8
Object
100
AcDbLine
 10
3.728999999999999
 20
6.087230814491444
 30
0.0
 11
3.728999999999999
 21
6.094230814491445
 31
0.0
  0
LINE
  5
4F2
330
1F
100
AcDbEntity
  8
Object
100
AcDbLine
 10
3.73
 20
6.183230814491444
 30
0.0
 11
3.73
 21
6.205230814491445
 31
0.0
  0
LINE
  5
4F3
330
1F
100
AcDbEntity
  8
Object
100
AcDbLine
 10
3.698999999999999
 20
6.205230814491445
 30
0.0
 11
3.699999999999999
 21
6.165230814491446
 31
0.0
  0
LINE
  5
4F4
330
1F
100
AcDbEntity
  8
Object
100
AcDbLine
 10
3.711999999999999
 20
6.085230814491445
 30
0.0
 11
3.728999999999999
 21
6.085230814491445
 31
0.0
  0
LINE
  5
4F5
330
1F
100
AcDbEntity
  8
Object
100
AcDbLine
 10
3.728999999999999
 20
6.085230814491445
 30
0.0
 11
3.711999999999999
 21
6.085230814491445
 31
0.0
  0
LINE
  5
4F6
330
1F
100
AcDbEntity
  8
Object
100
AcDbLine
 10
8.644
 20
6.085230814491445
 30
0.0
 11
8.660999999999999
 21
6.085230814491445
 31
0.0
  0
LINE
  5
4F7
330
1F
100
AcDbEntity
  8
Object
100
AcDbLine
 10
8.673
 20
6.086230814491445
 30
0.0
 11
8.672
 21
6.087230814491444
 31
0.0
  0
LINE
  5
4F8
330
1F
100
AcDbEntity
  8
Object
100
AcDbLine
 10
8.644
 20
6.087230814491444
 30
0.0
 11
8.644
 21
6.085230814491445
 31
0.0
  0
LINE
  5
4F9
330
1F
100
AcDbEntity
  8
Object
100
AcDbLine
 10
8.673
 20
6.086230814491445
 30
0.0
 11
8.675
 21
6.086230814491445
 31
0.0
  0
LINE
  5
4FA
330
1F
100
AcDbEntity
  8
Object
100
AcDbLine
 10
8.675
 20
6.086230814491445
 30
0.0
 11
8.660999999999999
 21
6.085230814491445
 31
0.0
  0
LINE
  5
4FB
330
1F
100
AcDbEntity
  8
Object
100
AcDbLine
 10
8.660999999999999
 20
6.085230814491445
 30
0.0
 11
8.644
 21
6.085230814491445
 31
0.0
  0
LINE
  5
4FC
330
1F
100
AcDbEntity
  8
Object
100
AcDbLine
 10
8.643
 20
6.094230814491445
 30
0.0
 11
8.644
 21
6.087230814491444
 31
0.0
  0
LINE
  5
4FD
330
1F
100
AcDbEntity
  8
Object
100
AcDbLine
 10
8.672
 20
6.099230814491445
 30
0.0
 11
8.672
 21
6.111230814491445
 31
0.0
  0
LINE
  5
4FE
330
1F
100
AcDbEntity
  8
Object
100
AcDbLine
 10
8.643
 20
6.120230814491446
 30
0.0
 11
8.643
 21
6.105230814491445
 31
0.0
  0
LINE
  5
4FF
330
1F
100
AcDbEntity
  8
Object
100
AcDbLine
 10
8.672
 20
6.127230814491445
 30
0.0
 11
8.673
 21
6.145230814491445
 31
0.0
  0
LINE
  5
500
330
1F
100
AcDbEntity
  8
Object
100
AcDbLine
 10
8.643
 20
6.161230814491445
 30
0.0
 11
8.643
 21
6.140230814491445
 31
0.0
  0
LINE
  5
501
330
1F
100
AcDbEntity
  8
Object
100
AcDbLine
 10
8.673
 20
6.165230814491446
 30
0.0
 11
8.673
 21
6.205230814491445
 31
0.0
  0
LINE
  5
502
330
1F
100
AcDbEntity
  8
Object
100
AcDbLine
 10
8.643
 20
6.183230814491444
 30
0.0
 11
8.643
 21
6.161230814491445
 31
0.0
  0
LINE
  5
503
330
1F
100
AcDbEntity
  8
Object
100
AcDbLine
 10
8.673
 20
6.145230814491445
 30
0.0
 11
8.673
 21
6.165230814491446
 31
0.0
  0
LINE
  5
504
330
1F
100
AcDbEntity
  8
Object
100
AcDbLine
 10
8.643
 20
6.140230814491445
 30
0.0
 11
8.643
 21
6.120230814491446
 31
0.0
  0
LINE
  5
505
330
1F
100
AcDbEntity
  8
Object
100
AcDbLine
 10
8.672
 20
6.111230814491445
 30
0.0
 11
8.672
 21
6.127230814491445
 31
0.0
  0
LINE
  5
506
330
1F
100
AcDbEntity
  8
Object
100
AcDbLine
 10
8.643
 20
6.105230814491445
 30
0.0
 11
8.643
 21
6.094230814491445
 31
0.0
  0
LINE
  5
507
330
1F
100
AcDbEntity
  8
Object
100
AcDbLine
 10
8.672
 20
6.087230814491444
 30
0.0
 11
8.672
 21
6.099230814491445
 31
0.0
  0
LINE
  5
508
330
1F
100
AcDbEntity
  8
Object
100
AcDbLine
 10
8.641999999999999
 20
6.205230814491445
 30
0.0
 11
8.643
 21
6.183230814491444
 31
0.0
  0
LINE
  5
509
330
1F
100
AcDbEntity
  8
Object
100
AcDbLine
 10
5.802
 20
5.353230814491444
 30
0.0
 11
5.772
 21
5.359230814491445
 31
0.0
  0
LINE
  5
50A
330
1F
100
AcDbEntity
  8
Object
100
AcDbLine
 10
5.772
 20
5.359230814491445
 30
0.0
 11
5.746
 21
5.377230814491445
 31
0.0
  0
LINE
  5
50B
330
1F
100
AcDbEntity
  8
Object
100
AcDbLine
 10
5.746
 20
5.377230814491445
 30
0.0
 11
5.728999999999999
 21
5.402230814491445
 31
0.0
  0
LINE
  5
50C
330
1F
100
AcDbEntity
  8
Object
100
AcDbLine
 10
5.802999999999999
 20
5.458230814491445
 30
0.0
 11
5.804
 21
5.353230814491444
 31
0.0
  0
LINE
  5
50D
330
1F
100
AcDbEntity
  8
Object
100
AcDbLine
 10
5.804
 20
5.353230814491444
 30
0.0
 11
5.802
 21
5.353230814491444
 31
0.0
  0
LINE
  5
50E
330
1F
100
AcDbEntity
  8
Object
100
AcDbLine
 10
5.728999999999999
 20
5.402230814491445
 30
0.0
 11
5.722000000000001
 21
5.433230814491444
 31
0.0
  0
LINE
  5
50F
330
1F
100
AcDbEntity
  8
Object
100
AcDbLine
 10
5.722000000000001
 20
5.433230814491444
 30
0.0
 11
5.721
 21
5.458230814491445
 31
0.0
  0
LINE
  5
510
330
1F
100
AcDbEntity
  8
Object
100
AcDbLine
 10
5.83
 20
5.353230814491444
 30
0.0
 11
5.847999999999999
 21
5.353230814491444
 31
0.0
  0
LINE
  5
511
330
1F
100
AcDbEntity
  8
Object
100
AcDbLine
 10
5.847999999999999
 20
5.353230814491444
 30
0.0
 11
5.847999999999999
 21
5.458230814491445
 31
0.0
  0
LINE
  5
512
330
1F
100
AcDbEntity
  8
Object
100
AcDbLine
 10
5.83
 20
5.353230814491444
 30
0.0
 11
5.815
 21
5.353230814491444
 31
0.0
  0
LINE
  5
513
330
1F
100
AcDbEntity
  8
Object
100
AcDbLine
 10
5.815
 20
5.353230814491444
 30
0.0
 11
5.804999999999999
 21
5.353230814491444
 31
0.0
  0
LINE
  5
514
330
1F
100
AcDbEntity
  8
Object
100
AcDbLine
 10
5.804999999999999
 20
5.353230814491444
 30
0.0
 11
5.804
 21
5.353230814491444
 31
0.0
  0
LINE
  5
515
330
1F
100
AcDbEntity
  8
Object
100
AcDbLine
 10
5.894
 20
5.458230814491445
 30
0.0
 11
5.894
 21
5.424230814491445
 31
0.0
  0
LINE
  5
516
330
1F
100
AcDbEntity
  8
Object
100
AcDbLine
 10
5.894
 20
5.424230814491445
 30
0.0
 11
5.892999999999999
 21
5.353230814491444
 31
0.0
  0
LINE
  5
517
330
1F
100
AcDbEntity
  8
Object
100
AcDbLine
 10
5.892999999999999
 20
5.353230814491444
 30
0.0
 11
5.891
 21
5.353230814491444
 31
0.0
  0
LINE
  5
518
330
1F
100
AcDbEntity
  8
Object
100
AcDbLine
 10
5.891
 20
5.353230814491444
 30
0.0
 11
5.882
 21
5.353230814491444
 31
0.0
  0
LINE
  5
519
330
1F
100
AcDbEntity
  8
Object
100
AcDbLine
 10
5.882
 20
5.353230814491444
 30
0.0
 11
5.866999999999999
 21
5.353230814491444
 31
0.0
  0
LINE
  5
51A
330
1F
100
AcDbEntity
  8
Object
100
AcDbLine
 10
5.866999999999999
 20
5.353230814491444
 30
0.0
 11
5.847999999999999
 21
5.353230814491444
 31
0.0
  0
LINE
  5
51B
330
1F
100
AcDbEntity
  8
Object
100
AcDbLine
 10
5.892999999999999
 20
5.353230814491444
 30
0.0
 11
5.894
 21
5.424230814491445
 31
0.0
  0
LINE
  5
51C
330
1F
100
AcDbEntity
  8
Object
100
AcDbLine
 10
5.721
 20
5.458230814491445
 30
0.0
 11
5.722000000000001
 21
5.433230814491444
 31
0.0
  0
LINE
  5
51D
330
1F
100
AcDbEntity
  8
Object
100
AcDbLine
 10
6.65
 20
5.458230814491445
 30
0.0
 11
6.65
 21
5.433230814491444
 31
0.0
  0
LINE
  5
51E
330
1F
100
AcDbEntity
  8
Object
100
AcDbLine
 10
6.65
 20
5.433230814491444
 30
0.0
 11
6.644
 21
5.402230814491445
 31
0.0
  0
LINE
  5
51F
330
1F
100
AcDbEntity
  8
Object
100
AcDbLine
 10
6.644
 20
5.402230814491445
 30
0.0
 11
6.626999999999999
 21
5.377230814491445
 31
0.0
  0
LINE
  5
520
330
1F
100
AcDbEntity
  8
Object
100
AcDbLine
 10
6.626999999999999
 20
5.377230814491445
 30
0.0
 11
6.600999999999999
 21
5.359230814491445
 31
0.0
  0
LINE
  5
521
330
1F
100
AcDbEntity
  8
Object
100
AcDbLine
 10
6.600999999999999
 20
5.359230814491445
 30
0.0
 11
6.57
 21
5.353230814491444
 31
0.0
  0
LINE
  5
522
330
1F
100
AcDbEntity
  8
Object
100
AcDbLine
 10
6.57
 20
5.353230814491444
 30
0.0
 11
6.568999999999999
 21
5.353230814491444
 31
0.0
  0
LINE
  5
523
330
1F
100
AcDbEntity
  8
Object
100
AcDbLine
 10
6.568999999999999
 20
5.353230814491444
 30
0.0
 11
6.568999999999999
 21
5.458230814491445
 31
0.0
  0
LINE
  5
524
330
1F
100
AcDbEntity
  8
Object
100
AcDbLine
 10
6.568999999999999
 20
5.353230814491444
 30
0.0
 11
6.567
 21
5.353230814491444
 31
0.0
  0
LINE
  5
525
330
1F
100
AcDbEntity
  8
Object
100
AcDbLine
 10
6.567
 20
5.353230814491444
 30
0.0
 11
6.557999999999999
 21
5.353230814491444
 31
0.0
  0
LINE
  5
526
330
1F
100
AcDbEntity
  8
Object
100
AcDbLine
 10
6.557999999999999
 20
5.353230814491444
 30
0.0
 11
6.543
 21
5.353230814491444
 31
0.0
  0
LINE
  5
527
330
1F
100
AcDbEntity
  8
Object
100
AcDbLine
 10
6.543
 20
5.353230814491444
 30
0.0
 11
6.524
 21
5.353230814491444
 31
0.0
  0
LINE
  5
528
330
1F
100
AcDbEntity
  8
Object
100
AcDbLine
 10
6.524
 20
5.353230814491444
 30
0.0
 11
6.524
 21
5.458230814491445
 31
0.0
  0
LINE
  5
529
330
1F
100
AcDbEntity
  8
Object
100
AcDbLine
 10
6.524
 20
5.353230814491444
 30
0.0
 11
6.506
 21
5.353230814491444
 31
0.0
  0
LINE
  5
52A
330
1F
100
AcDbEntity
  8
Object
100
AcDbLine
 10
6.506
 20
5.353230814491444
 30
0.0
 11
6.491
 21
5.353230814491444
 31
0.0
  0
LINE
  5
52B
330
1F
100
AcDbEntity
  8
Object
100
AcDbLine
 10
6.491
 20
5.353230814491444
 30
0.0
 11
6.480999999999999
 21
5.353230814491444
 31
0.0
  0
LINE
  5
52C
330
1F
100
AcDbEntity
  8
Object
100
AcDbLine
 10
6.480999999999999
 20
5.353230814491444
 30
0.0
 11
6.479
 21
5.353230814491444
 31
0.0
  0
LINE
  5
52D
330
1F
100
AcDbEntity
  8
Object
100
AcDbLine
 10
6.479
 20
5.353230814491444
 30
0.0
 11
6.479
 21
5.424230814491445
 31
0.0
  0
LINE
  5
52E
330
1F
100
AcDbEntity
  8
Object
100
AcDbLine
 10
6.479
 20
5.424230814491445
 30
0.0
 11
6.477999999999999
 21
5.458230814491445
 31
0.0
  0
LINE
  5
52F
330
1F
100
AcDbEntity
  8
Object
100
AcDbLine
 10
6.477999999999999
 20
5.458230814491445
 30
0.0
 11
6.479
 21
5.353230814491444
 31
0.0
  0
LINE
  5
530
330
1F
100
AcDbEntity
  8
Object
100
AcDbLine
 10
5.722000000000001
 20
5.433230814491444
 30
0.0
 11
5.727999999999999
 21
5.402230814491445
 31
0.0
  0
LINE
  5
531
330
1F
100
AcDbEntity
  8
Object
100
AcDbLine
 10
5.802
 20
5.354230814491446
 30
0.0
 11
5.802
 21
5.353230814491444
 31
0.0
  0
LINE
  5
532
330
1F
100
AcDbEntity
  8
Object
100
AcDbLine
 10
5.802
 20
5.353230814491444
 30
0.0
 11
5.785
 21
5.355230814491445
 31
0.0
  0
LINE
  5
533
330
1F
100
AcDbEntity
  8
Object
100
AcDbLine
 10
5.785
 20
5.355230814491445
 30
0.0
 11
5.802
 21
5.353230814491444
 31
0.0
  0
LINE
  5
534
330
1F
100
AcDbEntity
  8
Object
100
AcDbLine
 10
5.772
 20
5.359230814491445
 30
0.0
 11
5.785
 21
5.355230814491445
 31
0.0
  0
LINE
  5
535
330
1F
100
AcDbEntity
  8
Object
100
AcDbLine
 10
5.785
 20
5.355230814491445
 30
0.0
 11
5.770999999999999
 21
5.359230814491445
 31
0.0
  0
LINE
  5
536
330
1F
100
AcDbEntity
  8
Object
100
AcDbLine
 10
5.770999999999999
 20
5.359230814491445
 30
0.0
 11
5.753
 21
5.370230814491446
 31
0.0
  0
LINE
  5
537
330
1F
100
AcDbEntity
  8
Object
100
AcDbLine
 10
5.753
 20
5.370230814491446
 30
0.0
 11
5.772
 21
5.359230814491445
 31
0.0
  0
LINE
  5
538
330
1F
100
AcDbEntity
  8
Object
100
AcDbLine
 10
5.753
 20
5.370230814491446
 30
0.0
 11
5.746
 21
5.377230814491445
 31
0.0
  0
LINE
  5
539
330
1F
100
AcDbEntity
  8
Object
100
AcDbLine
 10
5.746
 20
5.377230814491445
 30
0.0
 11
5.73
 21
5.398230814491444
 31
0.0
  0
LINE
  5
53A
330
1F
100
AcDbEntity
  8
Object
100
AcDbLine
 10
5.73
 20
5.398230814491444
 30
0.0
 11
5.727999999999999
 21
5.402230814491445
 31
0.0
  0
LINE
  5
53B
330
1F
100
AcDbEntity
  8
Object
100
AcDbLine
 10
5.728999999999999
 20
5.402230814491445
 30
0.0
 11
5.73
 21
5.398230814491444
 31
0.0
  0
LINE
  5
53C
330
1F
100
AcDbEntity
  8
Object
100
AcDbLine
 10
5.892999999999999
 20
5.354230814491446
 30
0.0
 11
5.892999999999999
 21
5.353230814491444
 31
0.0
  0
LINE
  5
53D
330
1F
100
AcDbEntity
  8
Object
100
AcDbLine
 10
5.892999999999999
 20
5.353230814491444
 30
0.0
 11
5.891
 21
5.353230814491444
 31
0.0
  0
LINE
  5
53E
330
1F
100
AcDbEntity
  8
Object
100
AcDbLine
 10
5.891
 20
5.353230814491444
 30
0.0
 11
5.882
 21
5.353230814491444
 31
0.0
  0
LINE
  5
53F
330
1F
100
AcDbEntity
  8
Object
100
AcDbLine
 10
5.882
 20
5.353230814491444
 30
0.0
 11
5.866999999999999
 21
5.353230814491444
 31
0.0
  0
LINE
  5
540
330
1F
100
AcDbEntity
  8
Object
100
AcDbLine
 10
5.866999999999999
 20
5.353230814491444
 30
0.0
 11
5.847999999999999
 21
5.353230814491444
 31
0.0
  0
LINE
  5
541
330
1F
100
AcDbEntity
  8
Object
100
AcDbLine
 10
5.847999999999999
 20
5.353230814491444
 30
0.0
 11
5.83
 21
5.353230814491444
 31
0.0
  0
LINE
  5
542
330
1F
100
AcDbEntity
  8
Object
100
AcDbLine
 10
5.83
 20
5.353230814491444
 30
0.0
 11
5.815
 21
5.353230814491444
 31
0.0
  0
LINE
  5
543
330
1F
100
AcDbEntity
  8
Object
100
AcDbLine
 10
5.815
 20
5.353230814491444
 30
0.0
 11
5.804999999999999
 21
5.353230814491444
 31
0.0
  0
LINE
  5
544
330
1F
100
AcDbEntity
  8
Object
100
AcDbLine
 10
5.804999999999999
 20
5.353230814491444
 30
0.0
 11
5.804
 21
5.353230814491444
 31
0.0
  0
LINE
  5
545
330
1F
100
AcDbEntity
  8
Object
100
AcDbLine
 10
5.802
 20
5.354230814491446
 30
0.0
 11
5.802
 21
5.353230814491444
 31
0.0
  0
LINE
  5
546
330
1F
100
AcDbEntity
  8
Object
100
AcDbLine
 10
5.802
 20
5.353230814491444
 30
0.0
 11
5.804
 21
5.353230814491444
 31
0.0
  0
LINE
  5
547
330
1F
100
AcDbEntity
  8
Object
100
AcDbLine
 10
5.892999999999999
 20
5.353230814491444
 30
0.0
 11
5.894
 21
5.424230814491445
 31
0.0
  0
LINE
  5
548
330
1F
100
AcDbEntity
  8
Object
100
AcDbLine
 10
6.570999999999999
 20
5.353230814491444
 30
0.0
 11
6.57
 21
5.353230814491444
 31
0.0
  0
LINE
  5
549
330
1F
100
AcDbEntity
  8
Object
100
AcDbLine
 10
6.57
 20
5.353230814491444
 30
0.0
 11
6.568999999999999
 21
5.353230814491444
 31
0.0
  0
LINE
  5
54A
330
1F
100
AcDbEntity
  8
Object
100
AcDbLine
 10
6.568999999999999
 20
5.353230814491444
 30
0.0
 11
6.567
 21
5.353230814491444
 31
0.0
  0
LINE
  5
54B
330
1F
100
AcDbEntity
  8
Object
100
AcDbLine
 10
6.567
 20
5.353230814491444
 30
0.0
 11
6.557999999999999
 21
5.353230814491444
 31
0.0
  0
LINE
  5
54C
330
1F
100
AcDbEntity
  8
Object
100
AcDbLine
 10
6.557999999999999
 20
5.353230814491444
 30
0.0
 11
6.543
 21
5.353230814491444
 31
0.0
  0
LINE
  5
54D
330
1F
100
AcDbEntity
  8
Object
100
AcDbLine
 10
6.543
 20
5.353230814491444
 30
0.0
 11
6.524
 21
5.353230814491444
 31
0.0
  0
LINE
  5
54E
330
1F
100
AcDbEntity
  8
Object
100
AcDbLine
 10
6.524
 20
5.353230814491444
 30
0.0
 11
6.506
 21
5.353230814491444
 31
0.0
  0
LINE
  5
54F
330
1F
100
AcDbEntity
  8
Object
100
AcDbLine
 10
6.506
 20
5.353230814491444
 30
0.0
 11
6.491
 21
5.353230814491444
 31
0.0
  0
LINE
  5
550
330
1F
100
AcDbEntity
  8
Object
100
AcDbLine
 10
6.491
 20
5.353230814491444
 30
0.0
 11
6.480999999999999
 21
5.353230814491444
 31
0.0
  0
LINE
  5
551
330
1F
100
AcDbEntity
  8
Object
100
AcDbLine
 10
6.479
 20
5.354230814491446
 30
0.0
 11
6.479
 21
5.353230814491444
 31
0.0
  0
LINE
  5
552
330
1F
100
AcDbEntity
  8
Object
100
AcDbLine
 10
6.479
 20
5.353230814491444
 30
0.0
 11
6.479
 21
5.354230814491446
 31
0.0
  0
LINE
  5
553
330
1F
100
AcDbEntity
  8
Object
100
AcDbLine
 10
6.479
 20
5.353230814491444
 30
0.0
 11
6.480999999999999
 21
5.353230814491444
 31
0.0
  0
LINE
  5
554
330
1F
100
AcDbEntity
  8
Object
100
AcDbLine
 10
6.65
 20
5.433230814491444
 30
0.0
 11
6.650999999999999
 21
5.433230814491444
 31
0.0
  0
LINE
  5
555
330
1F
100
AcDbEntity
  8
Object
100
AcDbLine
 10
6.650999999999999
 20
5.433230814491444
 30
0.0
 11
6.648
 21
5.415230814491446
 31
0.0
  0
LINE
  5
556
330
1F
100
AcDbEntity
  8
Object
100
AcDbLine
 10
6.648
 20
5.415230814491446
 30
0.0
 11
6.644
 21
5.402230814491445
 31
0.0
  0
LINE
  5
557
330
1F
100
AcDbEntity
  8
Object
100
AcDbLine
 10
6.644
 20
5.402230814491445
 30
0.0
 11
6.633
 21
5.383230814491446
 31
0.0
  0
LINE
  5
558
330
1F
100
AcDbEntity
  8
Object
100
AcDbLine
 10
6.633
 20
5.383230814491446
 30
0.0
 11
6.626999999999999
 21
5.377230814491445
 31
0.0
  0
LINE
  5
559
330
1F
100
AcDbEntity
  8
Object
100
AcDbLine
 10
6.626999999999999
 20
5.377230814491445
 30
0.0
 11
6.605
 21
5.361230814491445
 31
0.0
  0
LINE
  5
55A
330
1F
100
AcDbEntity
  8
Object
100
AcDbLine
 10
6.57
 20
5.353230814491444
 30
0.0
 11
6.570999999999999
 21
5.353230814491444
 31
0.0
  0
LINE
  5
55B
330
1F
100
AcDbEntity
  8
Object
100
AcDbLine
 10
6.605
 20
5.361230814491445
 30
0.0
 11
6.600999999999999
 21
5.359230814491445
 31
0.0
  0
LINE
  5
55C
330
1F
100
AcDbEntity
  8
Object
100
AcDbLine
 10
6.600999999999999
 20
5.359230814491445
 30
0.0
 11
6.570999999999999
 21
5.353230814491444
 31
0.0
  0
LINE
  5
55D
330
1F
100
AcDbEntity
  8
Object
100
AcDbLine
 10
6.650999999999999
 20
5.433230814491444
 30
0.0
 11
6.650999999999999
 21
5.458230814491445
 31
0.0
  0
LINE
  5
55E
330
1F
100
AcDbEntity
  8
Object
100
AcDbLine
 10
6.479
 20
5.353230814491444
 30
0.0
 11
6.479
 21
5.424230814491445
 31
0.0
  0
LINE
  5
55F
330
1F
100
AcDbEntity
  8
Object
100
AcDbLine
 10
5.557
 20
14.25623081449144
 30
0.0
 11
5.559000000000001
 21
14.19423081449144
 31
0.0
  0
LINE
  5
560
330
1F
100
AcDbEntity
  8
Object
100
AcDbLine
 10
5.559000000000001
 20
14.19423081449144
 30
0.0
 11
5.557
 21
14.13223081449144
 31
0.0
  0
LINE
  5
561
330
1F
100
AcDbEntity
  8
Object
100
AcDbLine
 10
5.557
 20
14.13223081449144
 30
0.0
 11
5.551
 21
14.07023081449144
 31
0.0
  0
LINE
  5
562
330
1F
100
AcDbEntity
  8
Object
100
AcDbLine
 10
5.551
 20
14.07023081449144
 30
0.0
 11
5.541999999999999
 21
14.00923081449144
 31
0.0
  0
LINE
  5
563
330
1F
100
AcDbEntity
  8
Object
100
AcDbLine
 10
5.528
 20
14.43923081449144
 30
0.0
 11
5.541999999999999
 21
14.37923081449145
 31
0.0
  0
LINE
  5
564
330
1F
100
AcDbEntity
  8
Object
100
AcDbLine
 10
5.541999999999999
 20
14.37923081449145
 30
0.0
 11
5.551
 21
14.31823081449145
 31
0.0
  0
LINE
  5
565
330
1F
100
AcDbEntity
  8
Object
100
AcDbLine
 10
5.551
 20
14.31823081449145
 30
0.0
 11
5.557
 21
14.25623081449144
 31
0.0
  0
LINE
  5
566
330
1F
100
AcDbEntity
  8
Object
100
AcDbLine
 10
5.541999999999999
 20
14.00923081449144
 30
0.0
 11
5.528
 21
13.94923081449144
 31
0.0
  0
LINE
  5
567
330
1F
100
AcDbEntity
  8
Object
100
AcDbLine
 10
5.528
 20
13.94923081449144
 30
0.0
 11
5.512
 21
13.89123081449144
 31
0.0
  0
LINE
  5
568
330
1F
100
AcDbEntity
  8
Object
100
AcDbLine
 10
5.492
 20
14.55323081449144
 30
0.0
 11
5.512
 21
14.49723081449144
 31
0.0
  0
LINE
  5
569
330
1F
100
AcDbEntity
  8
Object
100
AcDbLine
 10
5.512
 20
14.49723081449144
 30
0.0
 11
5.528
 21
14.43923081449144
 31
0.0
  0
LINE
  5
56A
330
1F
100
AcDbEntity
  8
Object
100
AcDbLine
 10
5.512
 20
13.89123081449144
 30
0.0
 11
5.492
 21
13.83523081449144
 31
0.0
  0
LINE
  5
56B
330
1F
100
AcDbEntity
  8
Object
100
AcDbLine
 10
5.492
 20
13.83523081449144
 30
0.0
 11
5.469000000000001
 21
13.78023081449144
 31
0.0
  0
LINE
  5
56C
330
1F
100
AcDbEntity
  8
Object
100
AcDbLine
 10
5.443999999999999
 20
14.66023081449144
 30
0.0
 11
5.469000000000001
 21
14.60823081449144
 31
0.0
  0
LINE
  5
56D
330
1F
100
AcDbEntity
  8
Object
100
AcDbLine
 10
5.469000000000001
 20
14.60823081449144
 30
0.0
 11
5.492
 21
14.55323081449144
 31
0.0
  0
LINE
  5
56E
330
1F
100
AcDbEntity
  8
Object
100
AcDbLine
 10
5.469000000000001
 20
13.78023081449144
 30
0.0
 11
5.443999999999999
 21
13.72823081449144
 31
0.0
  0
LINE
  5
56F
330
1F
100
AcDbEntity
  8
Object
100
AcDbLine
 10
5.443999999999999
 20
13.72823081449144
 30
0.0
 11
5.387
 21
13.63123081449144
 31
0.0
  0
LINE
  5
570
330
1F
100
AcDbEntity
  8
Object
100
AcDbLine
 10
5.385999999999999
 20
14.50223081449144
 30
0.0
 11
5.400999999999999
 21
14.44323081449145
 31
0.0
  0
LINE
  5
571
330
1F
100
AcDbEntity
  8
Object
100
AcDbLine
 10
5.443999999999999
 20
14.66023081449144
 30
0.0
 11
5.387
 21
14.75723081449144
 31
0.0
  0
LINE
  5
572
330
1F
100
AcDbEntity
  8
Object
100
AcDbLine
 10
5.385999999999999
 20
13.88623081449144
 30
0.0
 11
5.367
 21
13.82923081449144
 31
0.0
  0
LINE
  5
573
330
1F
100
AcDbEntity
  8
Object
100
AcDbLine
 10
5.323999999999999
 20
14.66723081449144
 30
0.0
 11
5.347000000000001
 21
14.61423081449144
 31
0.0
  0
LINE
  5
574
330
1F
100
AcDbEntity
  8
Object
100
AcDbLine
 10
5.347000000000001
 20
13.77423081449144
 30
0.0
 11
5.323
 21
13.72123081449144
 31
0.0
  0
LINE
  5
575
330
1F
100
AcDbEntity
  8
Object
100
AcDbLine
 10
5.321999999999999
 20
13.54323081449144
 30
0.0
 11
5.387
 21
13.63123081449144
 31
0.0
  0
LINE
  5
576
330
1F
100
AcDbEntity
  8
Object
100
AcDbLine
 10
5.387
 20
14.75723081449144
 30
0.0
 11
5.321999999999999
 21
14.84523081449144
 31
0.0
  0
LINE
  5
577
330
1F
100
AcDbEntity
  8
Object
100
AcDbLine
 10
5.323
 20
13.72123081449144
 30
0.0
 11
5.271
 21
13.62323081449144
 31
0.0
  0
LINE
  5
578
330
1F
100
AcDbEntity
  8
Object
100
AcDbLine
 10
5.251999999999998
 20
13.46423081449144
 30
0.0
 11
5.321999999999999
 21
13.54323081449144
 31
0.0
  0
LINE
  5
579
330
1F
100
AcDbEntity
  8
Object
100
AcDbLine
 10
5.321999999999999
 20
14.84523081449144
 30
0.0
 11
5.251999999999998
 21
14.92323081449144
 31
0.0
  0
LINE
  5
57A
330
1F
100
AcDbEntity
  8
Object
100
AcDbLine
 10
5.176999999999999
 20
13.39423081449144
 30
0.0
 11
5.251999999999998
 21
13.46423081449144
 31
0.0
  0
LINE
  5
57B
330
1F
100
AcDbEntity
  8
Object
100
AcDbLine
 10
5.251999999999998
 20
14.92323081449144
 30
0.0
 11
5.178
 21
14.99323081449144
 31
0.0
  0
LINE
  5
57C
330
1F
100
AcDbEntity
  8
Object
100
AcDbLine
 10
5.147999999999999
 20
14.93223081449144
 30
0.0
 11
5.211999999999999
 21
14.85423081449144
 31
0.0
  0
LINE
  5
57D
330
1F
100
AcDbEntity
  8
Object
100
AcDbLine
 10
5.100000000000001
 20
13.33323081449144
 30
0.0
 11
5.176999999999999
 21
13.39423081449144
 31
0.0
  0
LINE
  5
57E
330
1F
100
AcDbEntity
  8
Object
100
AcDbLine
 10
5.178
 20
14.99323081449144
 30
0.0
 11
5.099
 21
15.05523081449144
 31
0.0
  0
LINE
  5
57F
330
1F
100
AcDbEntity
  8
Object
100
AcDbLine
 10
5.08
 20
15.00223081449144
 30
0.0
 11
5.147999999999999
 21
14.93223081449144
 31
0.0
  0
LINE
  5
580
330
1F
100
AcDbEntity
  8
Object
100
AcDbLine
 10
5.147999999999999
 20
13.45523081449144
 30
0.0
 11
5.08
 21
13.38523081449144
 31
0.0
  0
LINE
  5
581
330
1F
100
AcDbEntity
  8
Object
100
AcDbLine
 10
5.099
 20
15.05523081449144
 30
0.0
 11
5.018
 21
15.10923081449144
 31
0.0
  0
LINE
  5
582
330
1F
100
AcDbEntity
  8
Object
100
AcDbLine
 10
5.019999999999999
 20
13.28023081449144
 30
0.0
 11
5.100000000000001
 21
13.33323081449144
 31
0.0
  0
LINE
  5
583
330
1F
100
AcDbEntity
  8
Object
100
AcDbLine
 10
5.08
 20
13.38523081449144
 30
0.0
 11
5.009999999999999
 21
13.32423081449144
 31
0.0
  0
LINE
  5
584
330
1F
100
AcDbEntity
  8
Object
100
AcDbLine
 10
5.009
 20
15.06423081449144
 30
0.0
 11
5.08
 21
15.00223081449144
 31
0.0
  0
LINE
  5
585
330
1F
100
AcDbEntity
  8
Object
100
AcDbLine
 10
5.018
 20
15.10923081449144
 30
0.0
 11
4.937000000000001
 21
15.15523081449144
 31
0.0
  0
LINE
  5
586
330
1F
100
AcDbEntity
  8
Object
100
AcDbLine
 10
4.937000000000001
 20
13.23323081449144
 30
0.0
 11
5.019999999999999
 21
13.28023081449144
 31
0.0
  0
LINE
  5
587
330
1F
100
AcDbEntity
  8
Object
100
AcDbLine
 10
4.862
 20
15.16323081449144
 30
0.0
 11
4.935999999999999
 21
15.11823081449144
 31
0.0
  0
LINE
  5
588
330
1F
100
AcDbEntity
  8
Object
100
AcDbLine
 10
4.937000000000001
 20
13.27023081449145
 30
0.0
 11
4.862
 21
13.22523081449144
 31
0.0
  0
LINE
  5
589
330
1F
100
AcDbEntity
  8
Object
100
AcDbLine
 10
4.937000000000001
 20
15.15523081449144
 30
0.0
 11
4.855
 21
15.19323081449145
 31
0.0
  0
LINE
  5
58A
330
1F
100
AcDbEntity
  8
Object
100
AcDbLine
 10
4.855
 20
13.19423081449144
 30
0.0
 11
4.937000000000001
 21
13.23323081449144
 31
0.0
  0
LINE
  5
58B
330
1F
100
AcDbEntity
  8
Object
100
AcDbLine
 10
4.788999999999999
 20
15.20123081449144
 30
0.0
 11
4.862
 21
15.16323081449144
 31
0.0
  0
LINE
  5
58C
330
1F
100
AcDbEntity
  8
Object
100
AcDbLine
 10
4.862
 20
13.22523081449144
 30
0.0
 11
4.788999999999999
 21
13.18723081449144
 31
0.0
  0
LINE
  5
58D
330
1F
100
AcDbEntity
  8
Object
100
AcDbLine
 10
4.855
 20
15.19323081449145
 30
0.0
 11
4.774
 21
15.22523081449145
 31
0.0
  0
LINE
  5
58E
330
1F
100
AcDbEntity
  8
Object
100
AcDbLine
 10
4.774
 20
13.16323081449144
 30
0.0
 11
4.855
 21
13.19423081449144
 31
0.0
  0
LINE
  5
58F
330
1F
100
AcDbEntity
  8
Object
100
AcDbLine
 10
4.717
 20
15.23223081449144
 30
0.0
 11
4.788999999999999
 21
15.20123081449144
 31
0.0
  0
LINE
  5
590
330
1F
100
AcDbEntity
  8
Object
100
AcDbLine
 10
4.774
 20
15.22523081449145
 30
0.0
 11
4.696999999999999
 21
15.25023081449144
 31
0.0
  0
LINE
  5
591
330
1F
100
AcDbEntity
  8
Object
100
AcDbLine
 10
4.774
 20
13.16323081449144
 30
0.0
 11
4.695999999999999
 21
13.13823081449144
 31
0.0
  0
LINE
  5
592
330
1F
100
AcDbEntity
  8
Object
100
AcDbLine
 10
4.695999999999999
 20
13.13823081449144
 30
0.0
 11
4.661000000000001
 21
13.12823081449144
 31
0.0
  0
LINE
  5
593
330
1F
100
AcDbEntity
  8
Object
100
AcDbLine
 10
4.696999999999999
 20
15.25023081449144
 30
0.0
 11
4.661999999999999
 21
15.25923081449144
 31
0.0
  0
LINE
  5
594
330
1F
100
AcDbEntity
  8
Object
100
AcDbLine
 10
4.65
 20
15.25523081449144
 30
0.0
 11
4.717
 21
15.23223081449144
 31
0.0
  0
LINE
  5
595
330
1F
100
AcDbEntity
  8
Object
100
AcDbLine
 10
4.717
 20
13.15623081449144
 30
0.0
 11
4.65
 21
13.13323081449145
 31
0.0
  0
LINE
  5
596
330
1F
100
AcDbEntity
  8
Object
100
AcDbLine
 10
4.661999999999999
 20
15.25923081449144
 30
0.0
 11
4.631999999999999
 21
15.26723081449144
 31
0.0
  0
LINE
  5
597
330
1F
100
AcDbEntity
  8
Object
100
AcDbLine
 10
4.631999999999999
 20
13.12123081449144
 30
0.0
 11
4.661000000000001
 21
13.12823081449144
 31
0.0
  0
LINE
  5
598
330
1F
100
AcDbEntity
  8
Object
100
AcDbLine
 10
4.621
 20
15.26423081449144
 30
0.0
 11
4.65
 21
15.25523081449144
 31
0.0
  0
LINE
  5
599
330
1F
100
AcDbEntity
  8
Object
100
AcDbLine
 10
4.631999999999999
 20
15.26723081449144
 30
0.0
 11
4.611
 21
15.27223081449144
 31
0.0
  0
LINE
  5
59A
330
1F
100
AcDbEntity
  8
Object
100
AcDbLine
 10
4.611
 20
13.11623081449144
 30
0.0
 11
4.631999999999999
 21
13.12123081449144
 31
0.0
  0
LINE
  5
59B
330
1F
100
AcDbEntity
  8
Object
100
AcDbLine
 10
4.605
 20
15.27423081449144
 30
0.0
 11
4.605999999999999
 21
15.27323081449144
 31
0.0
  0
LINE
  5
59C
330
1F
100
AcDbEntity
  8
Object
100
AcDbLine
 10
4.605999999999999
 20
15.27323081449144
 30
0.0
 11
4.611
 21
15.27223081449144
 31
0.0
  0
LINE
  5
59D
330
1F
100
AcDbEntity
  8
Object
100
AcDbLine
 10
4.611
 20
13.11623081449144
 30
0.0
 11
4.605999999999999
 21
13.11423081449144
 31
0.0
  0
LINE
  5
59E
330
1F
100
AcDbEntity
  8
Object
100
AcDbLine
 10
4.605999999999999
 20
13.11423081449144
 30
0.0
 11
4.605
 21
13.11423081449144
 31
0.0
  0
LINE
  5
59F
330
1F
100
AcDbEntity
  8
Object
100
AcDbLine
 10
4.597000000000001
 20
13.11723081449144
 30
0.0
 11
4.580999999999999
 21
13.11223081449144
 31
0.0
  0
LINE
  5
5A0
330
1F
100
AcDbEntity
  8
Object
100
AcDbLine
 10
4.580999999999999
 20
13.11223081449144
 30
0.0
 11
4.576
 21
13.11123081449144
 31
0.0
  0
LINE
  5
5A1
330
1F
100
AcDbEntity
  8
Object
100
AcDbLine
 10
8.916999999999999
 20
14.88123081449144
 30
0.0
 11
8.833999999999999
 21
14.97523081449144
 31
0.0
  0
LINE
  5
5A2
330
1F
100
AcDbEntity
  8
Object
100
AcDbLine
 10
8.833999999999999
 20
14.97523081449144
 30
0.0
 11
8.740999999999999
 21
15.05923081449144
 31
0.0
  0
LINE
  5
5A3
330
1F
100
AcDbEntity
  8
Object
100
AcDbLine
 10
8.740999999999999
 20
15.05923081449144
 30
0.0
 11
8.638999999999999
 21
15.13223081449144
 31
0.0
  0
LINE
  5
5A4
330
1F
100
AcDbEntity
  8
Object
100
AcDbLine
 10
8.638999999999999
 20
15.13223081449144
 30
0.0
 11
8.529999999999999
 21
15.19323081449145
 31
0.0
  0
LINE
  5
5A5
330
1F
100
AcDbEntity
  8
Object
100
AcDbLine
 10
8.529999999999999
 20
15.19323081449145
 30
0.0
 11
8.413999999999999
 21
15.24223081449144
 31
0.0
  0
LINE
  5
5A6
330
1F
100
AcDbEntity
  8
Object
100
AcDbLine
 10
8.413999999999999
 20
15.24223081449144
 30
0.0
 11
8.294
 21
15.27723081449144
 31
0.0
  0
LINE
  5
5A7
330
1F
100
AcDbEntity
  8
Object
100
AcDbLine
 10
8.294
 20
15.27723081449144
 30
0.0
 11
8.169999999999999
 21
15.29823081449144
 31
0.0
  0
LINE
  5
5A8
330
1F
100
AcDbEntity
  8
Object
100
AcDbLine
 10
8.169999999999999
 20
15.29823081449144
 30
0.0
 11
8.044999999999999
 21
15.30523081449144
 31
0.0
  0
LINE
  5
5A9
330
1F
100
AcDbEntity
  8
Object
100
AcDbLine
 10
8.044999999999999
 20
15.30523081449144
 30
0.0
 11
7.919999999999999
 21
15.29823081449144
 31
0.0
  0
LINE
  5
5AA
330
1F
100
AcDbEntity
  8
Object
100
AcDbLine
 10
7.919999999999999
 20
15.29823081449144
 30
0.0
 11
7.796
 21
15.27723081449144
 31
0.0
  0
LINE
  5
5AB
330
1F
100
AcDbEntity
  8
Object
100
AcDbLine
 10
7.796
 20
15.27723081449144
 30
0.0
 11
7.767
 21
15.27423081449144
 31
0.0
  0
LINE
  5
5AC
330
1F
100
AcDbEntity
  8
Object
100
AcDbLine
 10
7.767
 20
15.27423081449144
 30
0.0
 11
4.605
 21
15.27423081449144
 31
0.0
  0
LINE
  5
5AD
330
1F
100
AcDbEntity
  8
Object
100
AcDbLine
 10
4.605
 20
15.27423081449144
 30
0.0
 11
4.576
 21
15.27723081449144
 31
0.0
  0
LINE
  5
5AE
330
1F
100
AcDbEntity
  8
Object
100
AcDbLine
 10
4.576
 20
15.27723081449144
 30
0.0
 11
4.451999999999999
 21
15.29823081449144
 31
0.0
  0
LINE
  5
5AF
330
1F
100
AcDbEntity
  8
Object
100
AcDbLine
 10
4.451999999999999
 20
15.29823081449144
 30
0.0
 11
4.326999999999999
 21
15.30523081449144
 31
0.0
  0
LINE
  5
5B0
330
1F
100
AcDbEntity
  8
Object
100
AcDbLine
 10
4.326999999999999
 20
15.30523081449144
 30
0.0
 11
4.201999999999999
 21
15.29823081449144
 31
0.0
  0
LINE
  5
5B1
330
1F
100
AcDbEntity
  8
Object
100
AcDbLine
 10
4.201999999999999
 20
15.29823081449144
 30
0.0
 11
4.079
 21
15.27723081449144
 31
0.0
  0
LINE
  5
5B2
330
1F
100
AcDbEntity
  8
Object
100
AcDbLine
 10
4.079
 20
15.27723081449144
 30
0.0
 11
3.958
 21
15.24223081449144
 31
0.0
  0
LINE
  5
5B3
330
1F
100
AcDbEntity
  8
Object
100
AcDbLine
 10
3.958
 20
15.24223081449144
 30
0.0
 11
3.842999999999999
 21
15.19323081449145
 31
0.0
  0
LINE
  5
5B4
330
1F
100
AcDbEntity
  8
Object
100
AcDbLine
 10
3.842999999999999
 20
15.19323081449145
 30
0.0
 11
3.733
 21
15.13223081449144
 31
0.0
  0
LINE
  5
5B5
330
1F
100
AcDbEntity
  8
Object
100
AcDbLine
 10
3.733
 20
15.13223081449144
 30
0.0
 11
3.631
 21
15.05923081449144
 31
0.0
  0
LINE
  5
5B6
330
1F
100
AcDbEntity
  8
Object
100
AcDbLine
 10
3.631
 20
15.05923081449144
 30
0.0
 11
3.538
 21
14.97523081449144
 31
0.0
  0
LINE
  5
5B7
330
1F
100
AcDbEntity
  8
Object
100
AcDbLine
 10
3.538
 20
14.97523081449144
 30
0.0
 11
3.455
 21
14.88123081449144
 31
0.0
  0
LINE
  5
5B8
330
1F
100
AcDbEntity
  8
Object
100
AcDbLine
 10
7.796
 20
13.11123081449144
 30
0.0
 11
7.767
 21
13.11423081449144
 31
0.0
  0
LINE
  5
5B9
330
1F
100
AcDbEntity
  8
Object
100
AcDbLine
 10
7.767
 20
13.11423081449144
 30
0.0
 11
4.605
 21
13.11423081449144
 31
0.0
  0
LINE
  5
5BA
330
1F
100
AcDbEntity
  8
Object
100
AcDbLine
 10
4.605
 20
13.11423081449144
 30
0.0
 11
4.576
 21
13.11123081449144
 31
0.0
  0
LINE
  5
5BB
330
1F
100
AcDbEntity
  8
Object
100
AcDbLine
 10
4.576
 20
13.11123081449144
 30
0.0
 11
4.556
 21
13.10623081449144
 31
0.0
  0
LINE
  5
5BC
330
1F
100
AcDbEntity
  8
Object
100
AcDbLine
 10
4.556
 20
13.10623081449144
 30
0.0
 11
4.536000000000001
 21
13.10223081449144
 31
0.0
  0
LINE
  5
5BD
330
1F
100
AcDbEntity
  8
Object
100
AcDbLine
 10
4.536000000000001
 20
13.10223081449144
 30
0.0
 11
4.516
 21
13.09923081449144
 31
0.0
  0
LINE
  5
5BE
330
1F
100
AcDbEntity
  8
Object
100
AcDbLine
 10
6.812999999999999
 20
14.19423081449144
 30
0.0
 11
6.815
 21
14.13223081449144
 31
0.0
  0
LINE
  5
5BF
330
1F
100
AcDbEntity
  8
Object
100
AcDbLine
 10
6.815
 20
14.13223081449144
 30
0.0
 11
6.820999999999999
 21
14.07023081449144
 31
0.0
  0
LINE
  5
5C1
330
1F
100
AcDbEntity
  8
Object
100
AcDbLine
 10
6.820999999999999
 20
14.07023081449144
 30
0.0
 11
6.831
 21
14.00923081449144
 31
0.0
  0
LINE
  5
5C2
330
1F
100
AcDbEntity
  8
Object
100
AcDbLine
 10
6.831
 20
14.00923081449144
 30
0.0
 11
6.844
 21
13.94923081449144
 31
0.0
  0
LINE
  5
5C3
330
1F
100
AcDbEntity
  8
Object
100
AcDbLine
 10
6.844
 20
13.94923081449144
 30
0.0
 11
6.860999999999999
 21
13.89123081449144
 31
0.0
  0
LINE
  5
5C4
330
1F
100
AcDbEntity
  8
Object
100
AcDbLine
 10
6.860999999999999
 20
13.89123081449144
 30
0.0
 11
6.879999999999999
 21
13.83523081449144
 31
0.0
  0
LINE
  5
5C5
330
1F
100
AcDbEntity
  8
Object
100
AcDbLine
 10
6.879999999999999
 20
13.83523081449144
 30
0.0
 11
6.903
 21
13.78023081449144
 31
0.0
  0
LINE
  5
5C6
330
1F
100
AcDbEntity
  8
Object
100
AcDbLine
 10
6.903
 20
13.78023081449144
 30
0.0
 11
6.927999999999999
 21
13.72823081449144
 31
0.0
  0
LINE
  5
5C7
330
1F
100
AcDbEntity
  8
Object
100
AcDbLine
 10
6.927999999999999
 20
13.72823081449144
 30
0.0
 11
6.985
 21
13.63123081449144
 31
0.0
  0
LINE
  5
5C8
330
1F
100
AcDbEntity
  8
Object
100
AcDbLine
 10
6.985
 20
13.63123081449144
 30
0.0
 11
7.049999999999999
 21
13.54323081449144
 31
0.0
  0
LINE
  5
5C9
330
1F
100
AcDbEntity
  8
Object
100
AcDbLine
 10
7.049999999999999
 20
13.54323081449144
 30
0.0
 11
7.121
 21
13.46423081449144
 31
0.0
  0
LINE
  5
5CA
330
1F
100
AcDbEntity
  8
Object
100
AcDbLine
 10
7.121
 20
13.46423081449144
 30
0.0
 11
7.195
 21
13.39423081449144
 31
0.0
  0
LINE
  5
5CB
330
1F
100
AcDbEntity
  8
Object
100
AcDbLine
 10
7.195
 20
13.39423081449144
 30
0.0
 11
7.273
 21
13.33323081449144
 31
0.0
  0
LINE
  5
5CC
330
1F
100
AcDbEntity
  8
Object
100
AcDbLine
 10
7.273
 20
13.33323081449144
 30
0.0
 11
7.352999999999999
 21
13.28023081449144
 31
0.0
  0
LINE
  5
5CD
330
1F
100
AcDbEntity
  8
Object
100
AcDbLine
 10
7.352999999999999
 20
13.28023081449144
 30
0.0
 11
7.435
 21
13.23323081449144
 31
0.0
  0
LINE
  5
5CE
330
1F
100
AcDbEntity
  8
Object
100
AcDbLine
 10
7.435
 20
13.23323081449144
 30
0.0
 11
7.517999999999999
 21
13.19423081449144
 31
0.0
  0
LINE
  5
5CF
330
1F
100
AcDbEntity
  8
Object
100
AcDbLine
 10
7.517999999999999
 20
13.19423081449144
 30
0.0
 11
7.599
 21
13.16323081449144
 31
0.0
  0
LINE
  5
5D0
330
1F
100
AcDbEntity
  8
Object
100
AcDbLine
 10
7.599
 20
13.16323081449144
 30
0.0
 11
7.676
 21
13.13823081449144
 31
0.0
  0
LINE
  5
5D1
330
1F
100
AcDbEntity
  8
Object
100
AcDbLine
 10
7.676
 20
13.13823081449144
 30
0.0
 11
7.711
 21
13.12823081449144
 31
0.0
  0
LINE
  5
5D2
330
1F
100
AcDbEntity
  8
Object
100
AcDbLine
 10
7.711
 20
13.12823081449144
 30
0.0
 11
7.741
 21
13.12123081449144
 31
0.0
  0
LINE
  5
5D3
330
1F
100
AcDbEntity
  8
Object
100
AcDbLine
 10
7.741
 20
13.12123081449144
 30
0.0
 11
7.762
 21
13.11623081449144
 31
0.0
  0
LINE
  5
5D4
330
1F
100
AcDbEntity
  8
Object
100
AcDbLine
 10
7.762
 20
13.11623081449144
 30
0.0
 11
7.767
 21
13.11423081449144
 31
0.0
  0
LINE
  5
5D5
330
1F
100
AcDbEntity
  8
Object
100
AcDbLine
 10
5.429
 20
14.19423081449144
 30
0.0
 11
5.426999999999999
 21
14.13123081449144
 31
0.0
  0
LINE
  5
5D6
330
1F
100
AcDbEntity
  8
Object
100
AcDbLine
 10
5.426999999999999
 20
14.13123081449144
 30
0.0
 11
5.422
 21
14.06823081449144
 31
0.0
  0
LINE
  5
5D7
330
1F
100
AcDbEntity
  8
Object
100
AcDbLine
 10
5.422
 20
14.32023081449144
 30
0.0
 11
5.426999999999999
 21
14.25723081449144
 31
0.0
  0
LINE
  5
5D8
330
1F
100
AcDbEntity
  8
Object
100
AcDbLine
 10
5.426999999999999
 20
14.25723081449144
 30
0.0
 11
5.429
 21
14.19423081449144
 31
0.0
  0
LINE
  5
5D9
330
1F
100
AcDbEntity
  8
Object
100
AcDbLine
 10
5.422
 20
14.06823081449144
 30
0.0
 11
5.413
 21
14.00623081449144
 31
0.0
  0
LINE
  5
5DA
330
1F
100
AcDbEntity
  8
Object
100
AcDbLine
 10
5.413
 20
14.00623081449144
 30
0.0
 11
5.400999999999999
 21
13.94523081449144
 31
0.0
  0
LINE
  5
5DB
330
1F
100
AcDbEntity
  8
Object
100
AcDbLine
 10
5.400999999999999
 20
14.44323081449145
 30
0.0
 11
5.413
 21
14.38223081449144
 31
0.0
  0
LINE
  5
5DC
330
1F
100
AcDbEntity
  8
Object
100
AcDbLine
 10
5.413
 20
14.38223081449144
 30
0.0
 11
5.422
 21
14.32023081449144
 31
0.0
  0
LINE
  5
5DD
330
1F
100
AcDbEntity
  8
Object
100
AcDbLine
 10
5.385999999999999
 20
13.88623081449144
 30
0.0
 11
5.400999999999999
 21
13.94523081449144
 31
0.0
  0
LINE
  5
5DE
330
1F
100
AcDbEntity
  8
Object
100
AcDbLine
 10
5.385999999999999
 20
14.50223081449144
 30
0.0
 11
5.367
 21
14.55923081449144
 31
0.0
  0
LINE
  5
5DF
330
1F
100
AcDbEntity
  8
Object
100
AcDbLine
 10
5.347000000000001
 20
13.77423081449144
 30
0.0
 11
5.367
 21
13.82923081449144
 31
0.0
  0
LINE
  5
5E0
330
1F
100
AcDbEntity
  8
Object
100
AcDbLine
 10
5.367
 20
14.55923081449144
 30
0.0
 11
5.347000000000001
 21
14.61423081449144
 31
0.0
  0
LINE
  5
5E1
330
1F
100
AcDbEntity
  8
Object
100
AcDbLine
 10
5.323999999999999
 20
14.66723081449144
 30
0.0
 11
5.271
 21
14.76523081449144
 31
0.0
  0
LINE
  5
5E2
330
1F
100
AcDbEntity
  8
Object
100
AcDbLine
 10
5.211999999999999
 20
13.53423081449144
 30
0.0
 11
5.271
 21
13.62323081449144
 31
0.0
  0
LINE
  5
5E3
330
1F
100
AcDbEntity
  8
Object
100
AcDbLine
 10
5.271
 20
14.76523081449144
 30
0.0
 11
5.211999999999999
 21
14.85423081449144
 31
0.0
  0
LINE
  5
5E4
330
1F
100
AcDbEntity
  8
Object
100
AcDbLine
 10
5.147999999999999
 20
13.45523081449144
 30
0.0
 11
5.211999999999999
 21
13.53423081449144
 31
0.0
  0
LINE
  5
5E5
330
1F
100
AcDbEntity
  8
Object
100
AcDbLine
 10
4.937000000000001
 20
13.27023081449145
 30
0.0
 11
5.009999999999999
 21
13.32423081449144
 31
0.0
  0
LINE
  5
5E6
330
1F
100
AcDbEntity
  8
Object
100
AcDbLine
 10
5.009
 20
15.06423081449144
 30
0.0
 11
4.935999999999999
 21
15.11823081449144
 31
0.0
  0
LINE
  5
5E7
330
1F
100
AcDbEntity
  8
Object
100
AcDbLine
 10
4.717
 20
13.15623081449144
 30
0.0
 11
4.788999999999999
 21
13.18723081449144
 31
0.0
  0
LINE
  5
5E8
330
1F
100
AcDbEntity
  8
Object
100
AcDbLine
 10
4.675
 20
15.21923081449144
 30
0.0
 11
4.795999999999999
 21
15.17023081449144
 31
0.0
  0
LINE
  5
5E9
330
1F
100
AcDbEntity
  8
Object
100
AcDbLine
 10
4.65
 20
13.13323081449145
 30
0.0
 11
4.621
 21
13.12423081449144
 31
0.0
  0
LINE
  5
5EA
330
1F
100
AcDbEntity
  8
Object
100
AcDbLine
 10
4.621
 20
13.12423081449144
 30
0.0
 11
4.597000000000001
 21
13.11723081449144
 31
0.0
  0
LINE
  5
5EB
330
1F
100
AcDbEntity
  8
Object
100
AcDbLine
 10
4.548999999999999
 20
15.25423081449145
 30
0.0
 11
4.675
 21
15.21923081449144
 31
0.0
  0
LINE
  5
5EC
330
1F
100
AcDbEntity
  8
Object
100
AcDbLine
 10
4.576
 20
15.27723081449144
 30
0.0
 11
4.58
 21
15.27523081449144
 31
0.0
  0
LINE
  5
5ED
330
1F
100
AcDbEntity
  8
Object
100
AcDbLine
 10
4.58
 20
15.27523081449144
 30
0.0
 11
4.596
 21
15.27123081449144
 31
0.0
  0
LINE
  5
5EE
330
1F
100
AcDbEntity
  8
Object
100
AcDbLine
 10
4.596
 20
15.27123081449144
 30
0.0
 11
4.621
 21
15.26423081449144
 31
0.0
  0
LINE
  5
5EF
330
1F
100
AcDbEntity
  8
Object
100
AcDbLine
 10
4.516
 20
13.09923081449144
 30
0.0
 11
4.48
 21
13.09323081449144
 31
0.0
  0
LINE
  5
5F0
330
1F
100
AcDbEntity
  8
Object
100
AcDbLine
 10
4.48
 20
13.09323081449144
 30
0.0
 11
4.443999999999999
 21
13.08923081449144
 31
0.0
  0
LINE
  5
5F1
330
1F
100
AcDbEntity
  8
Object
100
AcDbLine
 10
4.419999999999999
 20
15.27323081449144
 30
0.0
 11
4.548999999999999
 21
15.25423081449145
 31
0.0
  0
LINE
  5
5F2
330
1F
100
AcDbEntity
  8
Object
100
AcDbLine
 10
4.443999999999999
 20
13.08923081449144
 30
0.0
 11
4.411999999999999
 21
13.08623081449144
 31
0.0
  0
LINE
  5
5F3
330
1F
100
AcDbEntity
  8
Object
100
AcDbLine
 10
4.411999999999999
 20
13.08623081449144
 30
0.0
 11
4.384
 21
13.08423081449144
 31
0.0
  0
LINE
  5
5F4
330
1F
100
AcDbEntity
  8
Object
100
AcDbLine
 10
4.384
 20
13.08423081449144
 30
0.0
 11
4.359999999999999
 21
13.08423081449144
 31
0.0
  0
LINE
  5
5F5
330
1F
100
AcDbEntity
  8
Object
100
AcDbLine
 10
4.359999999999999
 20
13.08423081449144
 30
0.0
 11
4.342999999999999
 21
13.08423081449144
 31
0.0
  0
LINE
  5
5F6
330
1F
100
AcDbEntity
  8
Object
100
AcDbLine
 10
4.342999999999999
 20
13.08423081449144
 30
0.0
 11
4.332
 21
13.08423081449144
 31
0.0
  0
LINE
  5
5F7
330
1F
100
AcDbEntity
  8
Object
100
AcDbLine
 10
4.332
 20
13.08423081449144
 30
0.0
 11
4.327999999999999
 21
13.08423081449144
 31
0.0
  0
LINE
  5
5F8
330
1F
100
AcDbEntity
  8
Object
100
AcDbLine
 10
4.327999999999999
 20
13.08423081449144
 30
0.0
 11
4.327999999999999
 21
13.11423081449144
 31
0.0
  0
LINE
  5
5F9
330
1F
100
AcDbEntity
  8
Object
100
AcDbLine
 10
4.327999999999999
 20
13.11423081449144
 30
0.0
 11
4.455999999999999
 21
13.12123081449144
 31
0.0
  0
LINE
  5
5FA
330
1F
100
AcDbEntity
  8
Object
100
AcDbLine
 10
4.419999999999999
 20
15.27323081449144
 30
0.0
 11
4.288999999999999
 21
15.27623081449144
 31
0.0
  0
LINE
  5
5FB
330
1F
100
AcDbEntity
  8
Object
100
AcDbLine
 10
4.288999999999999
 20
15.27623081449144
 30
0.0
 11
4.158999999999998
 21
15.26323081449144
 31
0.0
  0
LINE
  5
5FC
330
1F
100
AcDbEntity
  8
Object
100
AcDbLine
 10
4.158999999999998
 20
15.26323081449144
 30
0.0
 11
4.030999999999998
 21
15.23523081449144
 31
0.0
  0
LINE
  5
5FD
330
1F
100
AcDbEntity
  8
Object
100
AcDbLine
 10
4.030999999999998
 20
15.23523081449144
 30
0.0
 11
3.907999999999999
 21
15.19123081449144
 31
0.0
  0
LINE
  5
5FE
330
1F
100
AcDbEntity
  8
Object
100
AcDbLine
 10
3.907999999999999
 20
15.19123081449144
 30
0.0
 11
3.789999999999999
 21
15.13323081449144
 31
0.0
  0
LINE
  5
5FF
330
1F
100
AcDbEntity
  8
Object
100
AcDbLine
 10
3.789999999999999
 20
15.13323081449144
 30
0.0
 11
3.681
 21
15.06123081449144
 31
0.0
  0
LINE
  5
600
330
1F
100
AcDbEntity
  8
Object
100
AcDbLine
 10
3.681
 20
15.06123081449144
 30
0.0
 11
3.580999999999999
 21
14.97723081449144
 31
0.0
  0
LINE
  5
601
330
1F
100
AcDbEntity
  8
Object
100
AcDbLine
 10
3.580999999999999
 20
14.97723081449144
 30
0.0
 11
3.492
 21
14.88123081449144
 31
0.0
  0
LINE
  5
602
330
1F
100
AcDbEntity
  8
Object
100
AcDbLine
 10
3.492
 20
14.88123081449144
 30
0.0
 11
3.455
 21
14.88123081449144
 31
0.0
  0
LINE
  5
603
330
1F
100
AcDbEntity
  8
Object
100
AcDbLine
 10
6.812999999999999
 20
14.19423081449144
 30
0.0
 11
6.815
 21
14.25623081449144
 31
0.0
  0
LINE
  5
604
330
1F
100
AcDbEntity
  8
Object
100
AcDbLine
 10
6.815
 20
14.25623081449144
 30
0.0
 11
6.820999999999999
 21
14.31823081449145
 31
0.0
  0
LINE
  5
605
330
1F
100
AcDbEntity
  8
Object
100
AcDbLine
 10
6.820999999999999
 20
14.31823081449145
 30
0.0
 11
6.831
 21
14.37923081449145
 31
0.0
  0
LINE
  5
606
330
1F
100
AcDbEntity
  8
Object
100
AcDbLine
 10
6.831
 20
14.37923081449145
 30
0.0
 11
6.844
 21
14.43923081449144
 31
0.0
  0
LINE
  5
607
330
1F
100
AcDbEntity
  8
Object
100
AcDbLine
 10
6.844
 20
14.43923081449144
 30
0.0
 11
6.860999999999999
 21
14.49723081449144
 31
0.0
  0
LINE
  5
608
330
1F
100
AcDbEntity
  8
Object
100
AcDbLine
 10
6.860999999999999
 20
14.49723081449144
 30
0.0
 11
6.881
 21
14.55323081449144
 31
0.0
  0
LINE
  5
609
330
1F
100
AcDbEntity
  8
Object
100
AcDbLine
 10
6.881
 20
14.55323081449144
 30
0.0
 11
6.903
 21
14.60823081449144
 31
0.0
  0
LINE
  5
60A
330
1F
100
AcDbEntity
  8
Object
100
AcDbLine
 10
6.903
 20
14.60823081449144
 30
0.0
 11
6.927999999999999
 21
14.66023081449144
 31
0.0
  0
LINE
  5
60B
330
1F
100
AcDbEntity
  8
Object
100
AcDbLine
 10
6.927999999999999
 20
14.66023081449144
 30
0.0
 11
6.985
 21
14.75723081449144
 31
0.0
  0
LINE
  5
60C
330
1F
100
AcDbEntity
  8
Object
100
AcDbLine
 10
6.985
 20
14.75723081449144
 30
0.0
 11
7.049999999999999
 21
14.84523081449144
 31
0.0
  0
LINE
  5
60D
330
1F
100
AcDbEntity
  8
Object
100
AcDbLine
 10
7.049999999999999
 20
14.84523081449144
 30
0.0
 11
7.12
 21
14.92323081449144
 31
0.0
  0
LINE
  5
60E
330
1F
100
AcDbEntity
  8
Object
100
AcDbLine
 10
7.12
 20
14.92323081449144
 30
0.0
 11
7.195
 21
14.99323081449144
 31
0.0
  0
LINE
  5
60F
330
1F
100
AcDbEntity
  8
Object
100
AcDbLine
 10
7.195
 20
14.99323081449144
 30
0.0
 11
7.273
 21
15.05523081449144
 31
0.0
  0
LINE
  5
610
330
1F
100
AcDbEntity
  8
Object
100
AcDbLine
 10
7.273
 20
15.05523081449144
 30
0.0
 11
7.354
 21
15.10923081449144
 31
0.0
  0
LINE
  5
611
330
1F
100
AcDbEntity
  8
Object
100
AcDbLine
 10
7.354
 20
15.10923081449144
 30
0.0
 11
7.435999999999999
 21
15.15523081449144
 31
0.0
  0
LINE
  5
612
330
1F
100
AcDbEntity
  8
Object
100
AcDbLine
 10
7.435999999999999
 20
15.15523081449144
 30
0.0
 11
7.517999999999999
 21
15.19323081449145
 31
0.0
  0
LINE
  5
613
330
1F
100
AcDbEntity
  8
Object
100
AcDbLine
 10
7.517999999999999
 20
15.19323081449145
 30
0.0
 11
7.599
 21
15.22523081449145
 31
0.0
  0
LINE
  5
614
330
1F
100
AcDbEntity
  8
Object
100
AcDbLine
 10
7.599
 20
15.22523081449145
 30
0.0
 11
7.676
 21
15.25023081449144
 31
0.0
  0
LINE
  5
615
330
1F
100
AcDbEntity
  8
Object
100
AcDbLine
 10
7.741
 20
15.26723081449144
 30
0.0
 11
7.711
 21
15.25923081449144
 31
0.0
  0
LINE
  5
616
330
1F
100
AcDbEntity
  8
Object
100
AcDbLine
 10
7.711
 20
15.25923081449144
 30
0.0
 11
7.676
 21
15.25023081449144
 31
0.0
  0
LINE
  5
617
330
1F
100
AcDbEntity
  8
Object
100
AcDbLine
 10
7.767
 20
15.27323081449144
 30
0.0
 11
7.761
 21
15.27223081449144
 31
0.0
  0
LINE
  5
618
330
1F
100
AcDbEntity
  8
Object
100
AcDbLine
 10
7.761
 20
15.27223081449144
 30
0.0
 11
7.741
 21
15.26723081449144
 31
0.0
  0
LINE
  5
619
330
1F
100
AcDbEntity
  8
Object
100
AcDbLine
 10
7.767
 20
15.27323081449144
 30
0.0
 11
7.767
 21
15.27423081449144
 31
0.0
  0
LINE
  5
61A
330
1F
100
AcDbEntity
  8
Object
100
AcDbLine
 10
8.044
 20
15.19623081449144
 30
0.0
 11
7.926
 21
15.18923081449144
 31
0.0
  0
LINE
  5
61B
330
1F
100
AcDbEntity
  8
Object
100
AcDbLine
 10
7.926
 20
15.18923081449144
 30
0.0
 11
7.81
 21
15.16923081449144
 31
0.0
  0
LINE
  5
61C
330
1F
100
AcDbEntity
  8
Object
100
AcDbLine
 10
7.81
 20
15.16923081449144
 30
0.0
 11
7.697
 21
15.13423081449144
 31
0.0
  0
LINE
  5
61D
330
1F
100
AcDbEntity
  8
Object
100
AcDbLine
 10
5.323
 20
14.30123081449144
 30
0.0
 11
5.327999999999999
 21
14.18123081449144
 31
0.0
  0
LINE
  5
61E
330
1F
100
AcDbEntity
  8
Object
100
AcDbLine
 10
5.327999999999999
 20
14.18123081449144
 30
0.0
 11
5.32
 21
14.06223081449144
 31
0.0
  0
LINE
  5
61F
330
1F
100
AcDbEntity
  8
Object
100
AcDbLine
 10
5.303
 20
14.41923081449144
 30
0.0
 11
5.323
 21
14.30123081449144
 31
0.0
  0
LINE
  5
620
330
1F
100
AcDbEntity
  8
Object
100
AcDbLine
 10
5.32
 20
14.06223081449144
 30
0.0
 11
5.297
 21
13.94423081449144
 31
0.0
  0
LINE
  5
621
330
1F
100
AcDbEntity
  8
Object
100
AcDbLine
 10
5.269
 20
14.53423081449144
 30
0.0
 11
5.303
 21
14.41923081449144
 31
0.0
  0
LINE
  5
622
330
1F
100
AcDbEntity
  8
Object
100
AcDbLine
 10
5.297
 20
13.94423081449144
 30
0.0
 11
5.259999999999999
 21
13.83023081449144
 31
0.0
  0
LINE
  5
623
330
1F
100
AcDbEntity
  8
Object
100
AcDbLine
 10
5.269
 20
14.53423081449144
 30
0.0
 11
5.239
 21
14.61423081449144
 31
0.0
  0
LINE
  5
624
330
1F
100
AcDbEntity
  8
Object
100
AcDbLine
 10
5.239
 20
14.61423081449144
 30
0.0
 11
5.227
 21
14.63823081449144
 31
0.0
  0
LINE
  5
625
330
1F
100
AcDbEntity
  8
Object
100
AcDbLine
 10
5.227
 20
14.63823081449144
 30
0.0
 11
5.214999999999999
 21
14.66223081449144
 31
0.0
  0
LINE
  5
626
330
1F
100
AcDbEntity
  8
Object
100
AcDbLine
 10
5.259999999999999
 20
13.83023081449144
 30
0.0
 11
5.21
 21
13.72223081449144
 31
0.0
  0
LINE
  5
627
330
1F
100
AcDbEntity
  8
Object
100
AcDbLine
 10
5.201999999999999
 20
14.68623081449144
 30
0.0
 11
5.214999999999999
 21
14.66223081449144
 31
0.0
  0
LINE
  5
628
330
1F
100
AcDbEntity
  8
Object
100
AcDbLine
 10
5.21
 20
13.72223081449144
 30
0.0
 11
5.147
 21
13.62023081449144
 31
0.0
  0
LINE
  5
629
330
1F
100
AcDbEntity
  8
Object
100
AcDbLine
 10
5.147
 20
13.62023081449144
 30
0.0
 11
5.071999999999999
 21
13.52623081449144
 31
0.0
  0
LINE
  5
62A
330
1F
100
AcDbEntity
  8
Object
100
AcDbLine
 10
5.065000000000001
 20
14.87423081449144
 30
0.0
 11
5.14
 21
14.78223081449144
 31
0.0
  0
LINE
  5
62B
330
1F
100
AcDbEntity
  8
Object
100
AcDbLine
 10
5.071999999999999
 20
13.52623081449144
 30
0.0
 11
4.987
 21
13.44223081449144
 31
0.0
  0
LINE
  5
62C
330
1F
100
AcDbEntity
  8
Object
100
AcDbLine
 10
4.98
 20
14.95623081449144
 30
0.0
 11
5.065000000000001
 21
14.87423081449144
 31
0.0
  0
LINE
  5
62D
330
1F
100
AcDbEntity
  8
Object
100
AcDbLine
 10
4.987
 20
13.44223081449144
 30
0.0
 11
4.891999999999999
 21
13.36823081449144
 31
0.0
  0
LINE
  5
62E
330
1F
100
AcDbEntity
  8
Object
100
AcDbLine
 10
4.885999999999999
 20
15.02723081449144
 30
0.0
 11
4.98
 21
14.95623081449144
 31
0.0
  0
LINE
  5
62F
330
1F
100
AcDbEntity
  8
Object
100
AcDbLine
 10
4.891999999999999
 20
13.36823081449144
 30
0.0
 11
4.789999999999999
 21
13.30723081449144
 31
0.0
  0
LINE
  5
630
330
1F
100
AcDbEntity
  8
Object
100
AcDbLine
 10
4.783999999999998
 20
15.08723081449144
 30
0.0
 11
4.885999999999999
 21
15.02723081449144
 31
0.0
  0
LINE
  5
631
330
1F
100
AcDbEntity
  8
Object
100
AcDbLine
 10
4.789999999999999
 20
13.30723081449144
 30
0.0
 11
4.679999999999999
 21
13.25823081449144
 31
0.0
  0
LINE
  5
632
330
1F
100
AcDbEntity
  8
Object
100
AcDbLine
 10
4.676
 20
15.13423081449144
 30
0.0
 11
4.783999999999998
 21
15.08723081449144
 31
0.0
  0
LINE
  5
633
330
1F
100
AcDbEntity
  8
Object
100
AcDbLine
 10
4.679999999999999
 20
13.25823081449144
 30
0.0
 11
4.565999999999998
 21
13.22223081449144
 31
0.0
  0
LINE
  5
634
330
1F
100
AcDbEntity
  8
Object
100
AcDbLine
 10
4.562999999999998
 20
15.16923081449144
 30
0.0
 11
4.676
 21
15.13423081449144
 31
0.0
  0
LINE
  5
635
330
1F
100
AcDbEntity
  8
Object
100
AcDbLine
 10
4.565999999999998
 20
13.22223081449144
 30
0.0
 11
4.448
 21
13.20123081449144
 31
0.0
  0
LINE
  5
636
330
1F
100
AcDbEntity
  8
Object
100
AcDbLine
 10
4.562999999999998
 20
15.16923081449144
 30
0.0
 11
4.445999999999999
 21
15.18923081449144
 31
0.0
  0
LINE
  5
637
330
1F
100
AcDbEntity
  8
Object
100
AcDbLine
 10
4.445999999999999
 20
15.18923081449144
 30
0.0
 11
4.327999999999999
 21
15.19623081449144
 31
0.0
  0
LINE
  5
638
330
1F
100
AcDbEntity
  8
Object
100
AcDbLine
 10
4.448
 20
13.20123081449144
 30
0.0
 11
4.327999999999999
 21
13.19423081449144
 31
0.0
  0
LINE
  5
639
330
1F
100
AcDbEntity
  8
Object
100
AcDbLine
 10
8.88
 20
14.88123081449144
 30
0.0
 11
8.916999999999999
 21
14.88123081449144
 31
0.0
  0
LINE
  5
63A
330
1F
100
AcDbEntity
  8
Object
100
AcDbLine
 10
8.791
 20
14.97723081449144
 30
0.0
 11
8.692
 21
15.06123081449144
 31
0.0
  0
LINE
  5
63B
330
1F
100
AcDbEntity
  8
Object
100
AcDbLine
 10
8.692
 20
15.06123081449144
 30
0.0
 11
8.582
 21
15.13323081449144
 31
0.0
  0
LINE
  5
63C
330
1F
100
AcDbEntity
  8
Object
100
AcDbLine
 10
8.582
 20
15.13323081449144
 30
0.0
 11
8.464999999999999
 21
15.19123081449144
 31
0.0
  0
LINE
  5
63D
330
1F
100
AcDbEntity
  8
Object
100
AcDbLine
 10
8.464999999999999
 20
15.19123081449144
 30
0.0
 11
8.342
 21
15.23523081449144
 31
0.0
  0
LINE
  5
63E
330
1F
100
AcDbEntity
  8
Object
100
AcDbLine
 10
8.342
 20
15.23523081449144
 30
0.0
 11
8.214
 21
15.26323081449144
 31
0.0
  0
LINE
  5
63F
330
1F
100
AcDbEntity
  8
Object
100
AcDbLine
 10
8.214
 20
15.26323081449144
 30
0.0
 11
8.083999999999999
 21
15.27623081449144
 31
0.0
  0
LINE
  5
640
330
1F
100
AcDbEntity
  8
Object
100
AcDbLine
 10
8.044
 20
13.11423081449144
 30
0.0
 11
8.044
 21
13.08423081449144
 31
0.0
  0
LINE
  5
641
330
1F
100
AcDbEntity
  8
Object
100
AcDbLine
 10
8.044
 20
13.08423081449144
 30
0.0
 11
8.041
 21
13.08423081449144
 31
0.0
  0
LINE
  5
642
330
1F
100
AcDbEntity
  8
Object
100
AcDbLine
 10
8.041
 20
13.08423081449144
 30
0.0
 11
8.029999999999999
 21
13.08423081449144
 31
0.0
  0
LINE
  5
643
330
1F
100
AcDbEntity
  8
Object
100
AcDbLine
 10
8.029999999999999
 20
13.08423081449144
 30
0.0
 11
8.012
 21
13.08423081449144
 31
0.0
  0
LINE
  5
644
330
1F
100
AcDbEntity
  8
Object
100
AcDbLine
 10
8.012
 20
13.08423081449144
 30
0.0
 11
7.988999999999999
 21
13.08423081449144
 31
0.0
  0
LINE
  5
645
330
1F
100
AcDbEntity
  8
Object
100
AcDbLine
 10
7.953
 20
15.27323081449144
 30
0.0
 11
8.083999999999999
 21
15.27623081449144
 31
0.0
  0
LINE
  5
646
330
1F
100
AcDbEntity
  8
Object
100
AcDbLine
 10
7.959999999999999
 20
13.08623081449144
 30
0.0
 11
7.988999999999999
 21
13.08423081449144
 31
0.0
  0
LINE
  5
647
330
1F
100
AcDbEntity
  8
Object
100
AcDbLine
 10
8.044
 20
13.11423081449144
 30
0.0
 11
7.916999999999999
 21
13.12123081449144
 31
0.0
  0
LINE
  5
648
330
1F
100
AcDbEntity
  8
Object
100
AcDbLine
 10
7.959999999999999
 20
13.08623081449144
 30
0.0
 11
7.927999999999999
 21
13.08923081449144
 31
0.0
  0
LINE
  5
649
330
1F
100
AcDbEntity
  8
Object
100
AcDbLine
 10
7.927999999999999
 20
13.08923081449144
 30
0.0
 11
7.892999999999999
 21
13.09323081449144
 31
0.0
  0
LINE
  5
64A
330
1F
100
AcDbEntity
  8
Object
100
AcDbLine
 10
7.892999999999999
 20
13.09323081449144
 30
0.0
 11
7.857
 21
13.09923081449144
 31
0.0
  0
LINE
  5
64B
330
1F
100
AcDbEntity
  8
Object
100
AcDbLine
 10
7.823
 20
15.25423081449145
 30
0.0
 11
7.953
 21
15.27323081449144
 31
0.0
  0
LINE
  5
64C
330
1F
100
AcDbEntity
  8
Object
100
AcDbLine
 10
7.916999999999999
 20
13.12123081449144
 30
0.0
 11
7.791
 21
13.14423081449144
 31
0.0
  0
LINE
  5
64D
330
1F
100
AcDbEntity
  8
Object
100
AcDbLine
 10
7.857
 20
13.09923081449144
 30
0.0
 11
7.836999999999999
 21
13.10223081449144
 31
0.0
  0
LINE
  5
64E
330
1F
100
AcDbEntity
  8
Object
100
AcDbLine
 10
7.836999999999999
 20
13.10223081449144
 30
0.0
 11
7.815999999999999
 21
13.10623081449144
 31
0.0
  0
LINE
  5
64F
330
1F
100
AcDbEntity
  8
Object
100
AcDbLine
 10
7.815999999999999
 20
13.10623081449144
 30
0.0
 11
7.796
 21
13.11123081449144
 31
0.0
  0
LINE
  5
650
330
1F
100
AcDbEntity
  8
Object
100
AcDbLine
 10
7.775999999999999
 20
15.27123081449144
 30
0.0
 11
7.751999999999999
 21
15.26423081449144
 31
0.0
  0
LINE
  5
651
330
1F
100
AcDbEntity
  8
Object
100
AcDbLine
 10
7.775999999999999
 20
13.11723081449144
 30
0.0
 11
7.751999999999999
 21
13.12423081449144
 31
0.0
  0
LINE
  5
652
330
1F
100
AcDbEntity
  8
Object
100
AcDbLine
 10
7.751999999999999
 20
13.12423081449144
 30
0.0
 11
7.722
 21
13.13323081449145
 31
0.0
  0
LINE
  5
653
330
1F
100
AcDbEntity
  8
Object
100
AcDbLine
 10
7.751999999999999
 20
15.26423081449144
 30
0.0
 11
7.722999999999999
 21
15.25523081449144
 31
0.0
  0
LINE
  5
654
330
1F
100
AcDbEntity
  8
Object
100
AcDbLine
 10
7.697
 20
15.21923081449144
 30
0.0
 11
7.823
 21
15.25423081449145
 31
0.0
  0
LINE
  5
655
330
1F
100
AcDbEntity
  8
Object
100
AcDbLine
 10
7.791
 20
13.14423081449144
 30
0.0
 11
7.669
 21
13.18123081449144
 31
0.0
  0
LINE
  5
656
330
1F
100
AcDbEntity
  8
Object
100
AcDbLine
 10
7.722999999999999
 20
15.25523081449144
 30
0.0
 11
7.656
 21
15.23223081449144
 31
0.0
  0
LINE
  5
657
330
1F
100
AcDbEntity
  8
Object
100
AcDbLine
 10
7.722
 20
13.13323081449145
 30
0.0
 11
7.655
 21
13.15623081449144
 31
0.0
  0
LINE
  5
658
330
1F
100
AcDbEntity
  8
Object
100
AcDbLine
 10
7.655
 20
13.15623081449144
 30
0.0
 11
7.584
 21
13.18723081449144
 31
0.0
  0
LINE
  5
659
330
1F
100
AcDbEntity
  8
Object
100
AcDbLine
 10
7.656
 20
15.23223081449144
 30
0.0
 11
7.584
 21
15.20123081449144
 31
0.0
  0
LINE
  5
65A
330
1F
100
AcDbEntity
  8
Object
100
AcDbLine
 10
7.576
 20
15.17023081449144
 30
0.0
 11
7.697
 21
15.21923081449144
 31
0.0
  0
LINE
  5
65B
330
1F
100
AcDbEntity
  8
Object
100
AcDbLine
 10
7.669
 20
13.18123081449144
 30
0.0
 11
7.552
 21
13.23223081449145
 31
0.0
  0
LINE
  5
65C
330
1F
100
AcDbEntity
  8
Object
100
AcDbLine
 10
7.584
 20
15.20123081449144
 30
0.0
 11
7.509999999999999
 21
15.16323081449144
 31
0.0
  0
LINE
  5
65D
330
1F
100
AcDbEntity
  8
Object
100
AcDbLine
 10
7.509999999999999
 20
13.22523081449144
 30
0.0
 11
7.584
 21
13.18723081449144
 31
0.0
  0
LINE
  5
65E
330
1F
100
AcDbEntity
  8
Object
100
AcDbLine
 10
7.461999999999999
 20
15.10623081449144
 30
0.0
 11
7.576
 21
15.17023081449144
 31
0.0
  0
LINE
  5
65F
330
1F
100
AcDbEntity
  8
Object
100
AcDbLine
 10
7.552
 20
13.23223081449145
 30
0.0
 11
7.442
 21
13.29723081449144
 31
0.0
  0
LINE
  5
660
330
1F
100
AcDbEntity
  8
Object
100
AcDbLine
 10
7.509999999999999
 20
13.22523081449144
 30
0.0
 11
7.435999999999999
 21
13.27023081449145
 31
0.0
  0
LINE
  5
661
330
1F
100
AcDbEntity
  8
Object
100
AcDbLine
 10
7.435999999999999
 20
13.27023081449145
 30
0.0
 11
7.363
 21
13.32423081449144
 31
0.0
  0
LINE
  5
662
330
1F
100
AcDbEntity
  8
Object
100
AcDbLine
 10
7.355999999999999
 20
15.03023081449144
 30
0.0
 11
7.461999999999999
 21
15.10623081449144
 31
0.0
  0
LINE
  5
663
330
1F
100
AcDbEntity
  8
Object
100
AcDbLine
 10
7.442
 20
13.29723081449144
 30
0.0
 11
7.341
 21
13.37423081449144
 31
0.0
  0
LINE
  5
664
330
1F
100
AcDbEntity
  8
Object
100
AcDbLine
 10
7.363999999999999
 20
15.06423081449144
 30
0.0
 11
7.291999999999999
 21
15.00223081449144
 31
0.0
  0
LINE
  5
665
330
1F
100
AcDbEntity
  8
Object
100
AcDbLine
 10
7.291999999999999
 20
13.38523081449144
 30
0.0
 11
7.363
 21
13.32423081449144
 31
0.0
  0
LINE
  5
666
330
1F
100
AcDbEntity
  8
Object
100
AcDbLine
 10
7.259999999999999
 20
14.94023081449144
 30
0.0
 11
7.355999999999999
 21
15.03023081449144
 31
0.0
  0
LINE
  5
667
330
1F
100
AcDbEntity
  8
Object
100
AcDbLine
 10
7.341
 20
13.37423081449144
 30
0.0
 11
7.249
 21
13.46323081449144
 31
0.0
  0
LINE
  5
668
330
1F
100
AcDbEntity
  8
Object
100
AcDbLine
 10
7.291999999999999
 20
15.00223081449144
 30
0.0
 11
7.224
 21
14.93223081449144
 31
0.0
  0
LINE
  5
669
330
1F
100
AcDbEntity
  8
Object
100
AcDbLine
 10
7.224
 20
13.45523081449144
 30
0.0
 11
7.291999999999999
 21
13.38523081449144
 31
0.0
  0
LINE
  5
66A
330
1F
100
AcDbEntity
  8
Object
100
AcDbLine
 10
7.176
 20
14.84023081449144
 30
0.0
 11
7.259999999999999
 21
14.94023081449144
 31
0.0
  0
LINE
  5
66B
330
1F
100
AcDbEntity
  8
Object
100
AcDbLine
 10
7.224
 20
14.93223081449144
 30
0.0
 11
7.16
 21
14.85423081449144
 31
0.0
  0
LINE
  5
66C
330
1F
100
AcDbEntity
  8
Object
100
AcDbLine
 10
7.249
 20
13.46323081449144
 30
0.0
 11
7.168
 21
13.56223081449144
 31
0.0
  0
LINE
  5
66D
330
1F
100
AcDbEntity
  8
Object
100
AcDbLine
 10
7.104
 20
14.73123081449144
 30
0.0
 11
7.176
 21
14.84023081449144
 31
0.0
  0
LINE
  5
66E
330
1F
100
AcDbEntity
  8
Object
100
AcDbLine
 10
7.16
 20
14.85423081449144
 30
0.0
 11
7.100999999999999
 21
14.76523081449144
 31
0.0
  0
LINE
  5
66F
330
1F
100
AcDbEntity
  8
Object
100
AcDbLine
 10
7.168
 20
13.56223081449144
 30
0.0
 11
7.1
 21
13.67023081449144
 31
0.0
  0
LINE
  5
670
330
1F
100
AcDbEntity
  8
Object
100
AcDbLine
 10
7.100999999999999
 20
14.76523081449144
 30
0.0
 11
7.049
 21
14.66723081449144
 31
0.0
  0
LINE
  5
671
330
1F
100
AcDbEntity
  8
Object
100
AcDbLine
 10
7.046
 20
14.61423081449144
 30
0.0
 11
7.104
 21
14.73123081449144
 31
0.0
  0
LINE
  5
672
330
1F
100
AcDbEntity
  8
Object
100
AcDbLine
 10
7.1
 20
13.67023081449144
 30
0.0
 11
7.044999999999999
 21
13.78523081449144
 31
0.0
  0
LINE
  5
673
330
1F
100
AcDbEntity
  8
Object
100
AcDbLine
 10
7.025999999999999
 20
13.77423081449144
 30
0.0
 11
7.049
 21
13.72123081449144
 31
0.0
  0
LINE
  5
674
330
1F
100
AcDbEntity
  8
Object
100
AcDbLine
 10
7.025999999999999
 20
14.61423081449144
 30
0.0
 11
7.004999999999999
 21
14.55923081449144
 31
0.0
  0
LINE
  5
675
330
1F
100
AcDbEntity
  8
Object
100
AcDbLine
 10
7.019
 20
14.53423081449144
 30
0.0
 11
7.046
 21
14.61423081449144
 31
0.0
  0
LINE
  5
676
330
1F
100
AcDbEntity
  8
Object
100
AcDbLine
 10
7.044999999999999
 20
13.78523081449144
 30
0.0
 11
7.003
 21
13.90523081449144
 31
0.0
  0
LINE
  5
677
330
1F
100
AcDbEntity
  8
Object
100
AcDbLine
 10
6.987
 20
13.88623081449144
 30
0.0
 11
7.004999999999999
 21
13.82923081449144
 31
0.0
  0
LINE
  5
678
330
1F
100
AcDbEntity
  8
Object
100
AcDbLine
 10
6.985999999999999
 20
14.41123081449144
 30
0.0
 11
7.019
 21
14.53423081449144
 31
0.0
  0
LINE
  5
679
330
1F
100
AcDbEntity
  8
Object
100
AcDbLine
 10
6.987
 20
14.50223081449144
 30
0.0
 11
6.972
 21
14.44323081449145
 31
0.0
  0
LINE
  5
67A
330
1F
100
AcDbEntity
  8
Object
100
AcDbLine
 10
7.003
 20
13.90523081449144
 30
0.0
 11
6.977
 21
14.03023081449144
 31
0.0
  0
LINE
  5
67B
330
1F
100
AcDbEntity
  8
Object
100
AcDbLine
 10
6.967999999999999
 20
14.28523081449144
 30
0.0
 11
6.985999999999999
 21
14.41123081449144
 31
0.0
  0
LINE
  5
67C
330
1F
100
AcDbEntity
  8
Object
100
AcDbLine
 10
6.977
 20
14.03023081449144
 30
0.0
 11
6.964999999999999
 21
14.15723081449144
 31
0.0
  0
LINE
  5
67D
330
1F
100
AcDbEntity
  8
Object
100
AcDbLine
 10
6.964999999999999
 20
14.15723081449144
 30
0.0
 11
6.967999999999999
 21
14.28523081449144
 31
0.0
  0
LINE
  5
67E
330
1F
100
AcDbEntity
  8
Object
100
AcDbLine
 10
7.791999999999999
 20
15.27523081449144
 30
0.0
 11
7.796
 21
15.27723081449144
 31
0.0
  0
LINE
  5
67F
330
1F
100
AcDbEntity
  8
Object
100
AcDbLine
 10
7.796
 20
13.11123081449144
 30
0.0
 11
7.791999999999999
 21
13.11223081449144
 31
0.0
  0
LINE
  5
680
330
1F
100
AcDbEntity
  8
Object
100
AcDbLine
 10
7.775999999999999
 20
15.27123081449144
 30
0.0
 11
7.791999999999999
 21
15.27523081449144
 31
0.0
  0
LINE
  5
681
330
1F
100
AcDbEntity
  8
Object
100
AcDbLine
 10
7.791999999999999
 20
13.11223081449144
 30
0.0
 11
7.775999999999999
 21
13.11723081449144
 31
0.0
  0
LINE
  5
682
330
1F
100
AcDbEntity
  8
Object
100
AcDbLine
 10
7.509999999999999
 20
15.16323081449144
 30
0.0
 11
7.437
 21
15.11823081449144
 31
0.0
  0
LINE
  5
683
330
1F
100
AcDbEntity
  8
Object
100
AcDbLine
 10
7.437
 20
15.11823081449144
 30
0.0
 11
7.363999999999999
 21
15.06423081449144
 31
0.0
  0
LINE
  5
684
330
1F
100
AcDbEntity
  8
Object
100
AcDbLine
 10
7.224
 20
13.45523081449144
 30
0.0
 11
7.16
 21
13.53423081449144
 31
0.0
  0
LINE
  5
685
330
1F
100
AcDbEntity
  8
Object
100
AcDbLine
 10
7.16
 20
13.53423081449144
 30
0.0
 11
7.100999999999999
 21
13.62323081449144
 31
0.0
  0
LINE
  5
686
330
1F
100
AcDbEntity
  8
Object
100
AcDbLine
 10
7.100999999999999
 20
13.62323081449144
 30
0.0
 11
7.049
 21
13.72123081449144
 31
0.0
  0
LINE
  5
687
330
1F
100
AcDbEntity
  8
Object
100
AcDbLine
 10
7.025999999999999
 20
14.61423081449144
 30
0.0
 11
7.049
 21
14.66723081449144
 31
0.0
  0
LINE
  5
688
330
1F
100
AcDbEntity
  8
Object
100
AcDbLine
 10
7.025999999999999
 20
13.77423081449144
 30
0.0
 11
7.004999999999999
 21
13.82923081449144
 31
0.0
  0
LINE
  5
689
330
1F
100
AcDbEntity
  8
Object
100
AcDbLine
 10
6.987
 20
14.50223081449144
 30
0.0
 11
7.004999999999999
 21
14.55923081449144
 31
0.0
  0
LINE
  5
68A
330
1F
100
AcDbEntity
  8
Object
100
AcDbLine
 10
6.959
 20
14.00623081449144
 30
0.0
 11
6.972
 21
13.94523081449144
 31
0.0
  0
LINE
  5
68B
330
1F
100
AcDbEntity
  8
Object
100
AcDbLine
 10
6.972
 20
13.94523081449144
 30
0.0
 11
6.987
 21
13.88623081449144
 31
0.0
  0
LINE
  5
68C
330
1F
100
AcDbEntity
  8
Object
100
AcDbLine
 10
6.972
 20
14.44323081449145
 30
0.0
 11
6.959999999999999
 21
14.38223081449144
 31
0.0
  0
LINE
  5
68D
330
1F
100
AcDbEntity
  8
Object
100
AcDbLine
 10
6.959999999999999
 20
14.38223081449144
 30
0.0
 11
6.951
 21
14.32023081449144
 31
0.0
  0
LINE
  5
68E
330
1F
100
AcDbEntity
  8
Object
100
AcDbLine
 10
6.943
 20
14.19423081449144
 30
0.0
 11
6.945
 21
14.13123081449144
 31
0.0
  0
LINE
  5
68F
330
1F
100
AcDbEntity
  8
Object
100
AcDbLine
 10
6.945
 20
14.13123081449144
 30
0.0
 11
6.951
 21
14.06823081449144
 31
0.0
  0
LINE
  5
690
330
1F
100
AcDbEntity
  8
Object
100
AcDbLine
 10
6.951
 20
14.06823081449144
 30
0.0
 11
6.959
 21
14.00623081449144
 31
0.0
  0
LINE
  5
691
330
1F
100
AcDbEntity
  8
Object
100
AcDbLine
 10
6.951
 20
14.32023081449144
 30
0.0
 11
6.945
 21
14.25723081449144
 31
0.0
  0
LINE
  5
692
330
1F
100
AcDbEntity
  8
Object
100
AcDbLine
 10
6.945
 20
14.25723081449144
 30
0.0
 11
6.943
 21
14.19423081449144
 31
0.0
  0
LINE
  5
693
330
1F
100
AcDbEntity
  8
Object
100
AcDbLine
 10
3.599
 20
14.88123081449144
 30
0.0
 11
3.492
 21
14.88123081449144
 31
0.0
  0
LINE
  5
694
330
1F
100
AcDbEntity
  8
Object
100
AcDbLine
 10
3.492
 20
14.88123081449144
 30
0.0
 11
3.455
 21
14.88123081449144
 31
0.0
  0
LINE
  5
695
330
1F
100
AcDbEntity
  8
Object
100
AcDbLine
 10
4.327999999999999
 20
15.19623081449144
 30
0.0
 11
4.207
 21
15.18923081449144
 31
0.0
  0
LINE
  5
696
330
1F
100
AcDbEntity
  8
Object
100
AcDbLine
 10
4.207
 20
15.18923081449144
 30
0.0
 11
4.086999999999999
 21
15.16723081449144
 31
0.0
  0
LINE
  5
697
330
1F
100
AcDbEntity
  8
Object
100
AcDbLine
 10
4.086999999999999
 20
15.16723081449144
 30
0.0
 11
3.971
 21
15.13123081449144
 31
0.0
  0
LINE
  5
698
330
1F
100
AcDbEntity
  8
Object
100
AcDbLine
 10
3.971
 20
15.13123081449144
 30
0.0
 11
3.859999999999999
 21
15.08023081449144
 31
0.0
  0
LINE
  5
699
330
1F
100
AcDbEntity
  8
Object
100
AcDbLine
 10
3.859999999999999
 20
15.08023081449144
 30
0.0
 11
3.756
 21
15.01723081449144
 31
0.0
  0
LINE
  5
69A
330
1F
100
AcDbEntity
  8
Object
100
AcDbLine
 10
3.599
 20
14.88123081449144
 30
0.0
 11
3.618999999999999
 21
14.90223081449144
 31
0.0
  0
LINE
  5
69B
330
1F
100
AcDbEntity
  8
Object
100
AcDbLine
 10
8.916999999999999
 20
14.88123081449144
 30
0.0
 11
8.88
 21
14.88123081449144
 31
0.0
  0
LINE
  5
69C
330
1F
100
AcDbEntity
  8
Object
100
AcDbLine
 10
8.88
 20
14.88123081449144
 30
0.0
 11
8.774
 21
14.88123081449144
 31
0.0
  0
LINE
  5
69D
330
1F
100
AcDbEntity
  8
Object
100
AcDbLine
 10
8.774
 20
14.88123081449144
 30
0.0
 11
8.753999999999999
 21
14.90223081449144
 31
0.0
  0
LINE
  5
69E
330
1F
100
AcDbEntity
  8
Object
100
AcDbLine
 10
8.753999999999999
 20
14.90223081449144
 30
0.0
 11
8.733
 21
14.92223081449144
 31
0.0
  0
LINE
  5
69F
330
1F
100
AcDbEntity
  8
Object
100
AcDbLine
 10
8.733
 20
14.92223081449144
 30
0.0
 11
8.711999999999999
 21
14.94223081449144
 31
0.0
  0
LINE
  5
6A0
330
1F
100
AcDbEntity
  8
Object
100
AcDbLine
 10
8.615999999999999
 20
15.01723081449144
 30
0.0
 11
8.512
 21
15.08023081449144
 31
0.0
  0
LINE
  5
6A1
330
1F
100
AcDbEntity
  8
Object
100
AcDbLine
 10
8.512
 20
15.08023081449144
 30
0.0
 11
8.400999999999999
 21
15.13123081449144
 31
0.0
  0
LINE
  5
6A2
330
1F
100
AcDbEntity
  8
Object
100
AcDbLine
 10
8.400999999999999
 20
15.13123081449144
 30
0.0
 11
8.285
 21
15.16723081449144
 31
0.0
  0
LINE
  5
6A3
330
1F
100
AcDbEntity
  8
Object
100
AcDbLine
 10
8.285
 20
15.16723081449144
 30
0.0
 11
8.166
 21
15.18923081449144
 31
0.0
  0
LINE
  5
6A4
330
1F
100
AcDbEntity
  8
Object
100
AcDbLine
 10
8.166
 20
15.18923081449144
 30
0.0
 11
8.044
 21
15.19623081449144
 31
0.0
  0
LINE
  5
6A5
330
1F
100
AcDbEntity
  8
Object
100
AcDbLine
 10
5.268
 20
14.73123081449144
 30
0.0
 11
5.326
 21
14.61423081449144
 31
0.0
  0
LINE
  5
6A6
330
1F
100
AcDbEntity
  8
Object
100
AcDbLine
 10
5.326
 20
14.61423081449144
 30
0.0
 11
5.239
 21
14.61423081449144
 31
0.0
  0
LINE
  5
6A7
330
1F
100
AcDbEntity
  8
Object
100
AcDbLine
 10
5.201999999999999
 20
14.68623081449144
 30
0.0
 11
5.199999999999999
 21
14.68823081449144
 31
0.0
  0
LINE
  5
6A8
330
1F
100
AcDbEntity
  8
Object
100
AcDbLine
 10
5.199999999999999
 20
14.68823081449144
 30
0.0
 11
5.198
 21
14.69023081449144
 31
0.0
  0
LINE
  5
6A9
330
1F
100
AcDbEntity
  8
Object
100
AcDbLine
 10
5.198
 20
14.69023081449144
 30
0.0
 11
5.195999999999999
 21
14.69123081449144
 31
0.0
  0
LINE
  5
6AA
330
1F
100
AcDbEntity
  8
Object
100
AcDbLine
 10
5.195999999999999
 20
14.69123081449144
 30
0.0
 11
5.193000000000001
 21
14.69123081449144
 31
0.0
  0
LINE
  5
6AB
330
1F
100
AcDbEntity
  8
Object
100
AcDbLine
 10
5.141999999999999
 20
14.77423081449144
 30
0.0
 11
5.141999999999999
 21
14.77723081449144
 31
0.0
  0
LINE
  5
6AC
330
1F
100
AcDbEntity
  8
Object
100
AcDbLine
 10
5.141999999999999
 20
14.77723081449144
 30
0.0
 11
5.141999999999999
 21
14.78023081449144
 31
0.0
  0
LINE
  5
6AD
330
1F
100
AcDbEntity
  8
Object
100
AcDbLine
 10
5.268
 20
14.73123081449144
 30
0.0
 11
5.196999999999999
 21
14.84023081449144
 31
0.0
  0
LINE
  5
6AE
330
1F
100
AcDbEntity
  8
Object
100
AcDbLine
 10
5.141999999999999
 20
14.77423081449144
 30
0.0
 11
5.141
 21
14.77223081449144
 31
0.0
  0
LINE
  5
6AF
330
1F
100
AcDbEntity
  8
Object
100
AcDbLine
 10
5.14
 20
14.78223081449144
 30
0.0
 11
5.141999999999999
 21
14.78023081449144
 31
0.0
  0
LINE
  5
6B0
330
1F
100
AcDbEntity
  8
Object
100
AcDbLine
 10
5.161000000000001
 20
14.69123081449144
 30
0.0
 11
5.193000000000001
 21
14.69123081449144
 31
0.0
  0
LINE
  5
6B1
330
1F
100
AcDbEntity
  8
Object
100
AcDbLine
 10
5.141
 20
14.77223081449144
 30
0.0
 11
5.138999999999999
 21
14.76923081449144
 31
0.0
  0
LINE
  5
6B2
330
1F
100
AcDbEntity
  8
Object
100
AcDbLine
 10
5.138999999999999
 20
14.76923081449144
 30
0.0
 11
5.137
 21
14.76823081449144
 31
0.0
  0
LINE
  5
6B3
330
1F
100
AcDbEntity
  8
Object
100
AcDbLine
 10
5.137
 20
14.76823081449144
 30
0.0
 11
5.134999999999999
 21
14.76723081449144
 31
0.0
  0
LINE
  5
6B4
330
1F
100
AcDbEntity
  8
Object
100
AcDbLine
 10
5.134999999999999
 20
14.76723081449144
 30
0.0
 11
5.131999999999999
 21
14.76623081449144
 31
0.0
  0
LINE
  5
6B5
330
1F
100
AcDbEntity
  8
Object
100
AcDbLine
 10
5.196999999999999
 20
14.84023081449144
 30
0.0
 11
5.112
 21
14.94023081449144
 31
0.0
  0
LINE
  5
6B6
330
1F
100
AcDbEntity
  8
Object
100
AcDbLine
 10
5.161000000000001
 20
14.69123081449144
 30
0.0
 11
5.157
 21
14.66623081449144
 31
0.0
  0
LINE
  5
6B7
330
1F
100
AcDbEntity
  8
Object
100
AcDbLine
 10
5.157
 20
14.66623081449144
 30
0.0
 11
5.144
 21
14.64423081449144
 31
0.0
  0
LINE
  5
6B8
330
1F
100
AcDbEntity
  8
Object
100
AcDbLine
 10
5.144
 20
14.64423081449144
 30
0.0
 11
5.121999999999999
 21
14.63023081449144
 31
0.0
  0
LINE
  5
6B9
330
1F
100
AcDbEntity
  8
Object
100
AcDbLine
 10
5.121999999999999
 20
14.63023081449144
 30
0.0
 11
5.097000000000001
 21
14.62523081449144
 31
0.0
  0
LINE
  5
6BA
330
1F
100
AcDbEntity
  8
Object
100
AcDbLine
 10
5.097000000000001
 20
14.62523081449144
 30
0.0
 11
5.071999999999999
 21
14.63023081449144
 31
0.0
  0
LINE
  5
6BB
330
1F
100
AcDbEntity
  8
Object
100
AcDbLine
 10
5.071999999999999
 20
14.63023081449144
 30
0.0
 11
5.051
 21
14.64423081449144
 31
0.0
  0
LINE
  5
6BC
330
1F
100
AcDbEntity
  8
Object
100
AcDbLine
 10
5.051
 20
14.64423081449144
 30
0.0
 11
5.036999999999999
 21
14.66623081449144
 31
0.0
  0
LINE
  5
6BD
330
1F
100
AcDbEntity
  8
Object
100
AcDbLine
 10
5.036999999999999
 20
14.66623081449144
 30
0.0
 11
5.033000000000001
 21
14.69123081449144
 31
0.0
  0
LINE
  5
6BE
330
1F
100
AcDbEntity
  8
Object
100
AcDbLine
 10
5.112
 20
14.94023081449144
 30
0.0
 11
5.016
 21
15.03023081449144
 31
0.0
  0
LINE
  5
6BF
330
1F
100
AcDbEntity
  8
Object
100
AcDbLine
 10
5.033000000000001
 20
14.69123081449144
 30
0.0
 11
4.896
 21
14.69123081449144
 31
0.0
  0
LINE
  5
6C0
330
1F
100
AcDbEntity
  8
Object
100
AcDbLine
 10
4.896
 20
14.69123081449144
 30
0.0
 11
4.896
 21
14.76623081449144
 31
0.0
  0
LINE
  5
6C1
330
1F
100
AcDbEntity
  8
Object
100
AcDbLine
 10
4.896
 20
14.76623081449144
 30
0.0
 11
5.131999999999999
 21
14.76623081449144
 31
0.0
  0
LINE
  5
6C2
330
1F
100
AcDbEntity
  8
Object
100
AcDbLine
 10
5.016
 20
15.03023081449144
 30
0.0
 11
4.911000000000001
 21
15.10623081449144
 31
0.0
  0
LINE
  5
6C3
330
1F
100
AcDbEntity
  8
Object
100
AcDbLine
 10
4.911000000000001
 20
15.10623081449144
 30
0.0
 11
4.795999999999999
 21
15.17023081449144
 31
0.0
  0
LINE
  5
6C4
330
1F
100
AcDbEntity
  8
Object
100
AcDbLine
 10
3.756
 20
15.01723081449144
 30
0.0
 11
3.753
 21
15.01423081449144
 31
0.0
  0
LINE
  5
6C5
330
1F
100
AcDbEntity
  8
Object
100
AcDbLine
 10
3.753
 20
15.01423081449144
 30
0.0
 11
3.752
 21
15.00923081449144
 31
0.0
  0
LINE
  5
6C6
330
1F
100
AcDbEntity
  8
Object
100
AcDbLine
 10
3.676999999999999
 20
14.93723081449144
 30
0.0
 11
3.676999999999999
 21
14.93423081449144
 31
0.0
  0
LINE
  5
6C7
330
1F
100
AcDbEntity
  8
Object
100
AcDbLine
 10
3.752
 20
15.00923081449144
 30
0.0
 11
3.752
 21
14.88123081449144
 31
0.0
  0
LINE
  5
6C8
330
1F
100
AcDbEntity
  8
Object
100
AcDbLine
 10
3.752
 20
14.88123081449144
 30
0.0
 11
3.676999999999999
 21
14.88123081449144
 31
0.0
  0
LINE
  5
6C9
330
1F
100
AcDbEntity
  8
Object
100
AcDbLine
 10
3.676999999999999
 20
14.88123081449144
 30
0.0
 11
3.676999999999999
 21
14.93423081449144
 31
0.0
  0
LINE
  5
6CA
330
1F
100
AcDbEntity
  8
Object
100
AcDbLine
 10
3.676999999999999
 20
14.93723081449144
 30
0.0
 11
3.676
 21
14.94023081449144
 31
0.0
  0
LINE
  5
6CB
330
1F
100
AcDbEntity
  8
Object
100
AcDbLine
 10
3.676
 20
14.94023081449144
 30
0.0
 11
3.673999999999999
 21
14.94223081449144
 31
0.0
  0
LINE
  5
6CC
330
1F
100
AcDbEntity
  8
Object
100
AcDbLine
 10
3.673999999999999
 20
14.94223081449144
 30
0.0
 11
3.670999999999999
 21
14.94323081449145
 31
0.0
  0
LINE
  5
6CD
330
1F
100
AcDbEntity
  8
Object
100
AcDbLine
 10
3.670999999999999
 20
14.94323081449145
 30
0.0
 11
3.669
 21
14.94423081449144
 31
0.0
  0
LINE
  5
6CE
330
1F
100
AcDbEntity
  8
Object
100
AcDbLine
 10
3.669
 20
14.94423081449144
 30
0.0
 11
3.666
 21
14.94423081449144
 31
0.0
  0
LINE
  5
6CF
330
1F
100
AcDbEntity
  8
Object
100
AcDbLine
 10
3.666
 20
14.94423081449144
 30
0.0
 11
3.663
 21
14.94323081449145
 31
0.0
  0
LINE
  5
6D0
330
1F
100
AcDbEntity
  8
Object
100
AcDbLine
 10
3.663
 20
14.94323081449145
 30
0.0
 11
3.660999999999999
 21
14.94223081449144
 31
0.0
  0
LINE
  5
6D1
330
1F
100
AcDbEntity
  8
Object
100
AcDbLine
 10
3.660999999999999
 20
14.94223081449144
 30
0.0
 11
3.638999999999999
 21
14.92223081449144
 31
0.0
  0
LINE
  5
6D2
330
1F
100
AcDbEntity
  8
Object
100
AcDbLine
 10
3.638999999999999
 20
14.92223081449144
 30
0.0
 11
3.618999999999999
 21
14.90223081449144
 31
0.0
  0
LINE
  5
6D3
330
1F
100
AcDbEntity
  8
Object
100
AcDbLine
 10
3.492
 20
14.88123081449144
 30
0.0
 11
3.599
 21
14.88123081449144
 31
0.0
  0
LINE
  5
6D4
330
1F
100
AcDbEntity
  8
Object
100
AcDbLine
 10
5.326
 20
14.61423081449144
 30
0.0
 11
5.352999999999999
 21
14.53423081449144
 31
0.0
  0
LINE
  5
6D5
330
1F
100
AcDbEntity
  8
Object
100
AcDbLine
 10
5.352999999999999
 20
14.53423081449144
 30
0.0
 11
5.269
 21
14.53423081449144
 31
0.0
  0
LINE
  5
6D6
330
1F
100
AcDbEntity
  8
Object
100
AcDbLine
 10
5.408000000000001
 20
14.15723081449144
 30
0.0
 11
5.405000000000001
 21
14.28523081449144
 31
0.0
  0
LINE
  5
6D7
330
1F
100
AcDbEntity
  8
Object
100
AcDbLine
 10
5.405000000000001
 20
14.28523081449144
 30
0.0
 11
5.385999999999999
 21
14.41123081449144
 31
0.0
  0
LINE
  5
6D8
330
1F
100
AcDbEntity
  8
Object
100
AcDbLine
 10
5.396
 20
14.03023081449144
 30
0.0
 11
5.408000000000001
 21
14.15723081449144
 31
0.0
  0
LINE
  5
6D9
330
1F
100
AcDbEntity
  8
Object
100
AcDbLine
 10
5.385999999999999
 20
14.41123081449144
 30
0.0
 11
5.352999999999999
 21
14.53423081449144
 31
0.0
  0
LINE
  5
6DA
330
1F
100
AcDbEntity
  8
Object
100
AcDbLine
 10
5.396
 20
14.03023081449144
 30
0.0
 11
5.368999999999999
 21
13.90523081449144
 31
0.0
  0
LINE
  5
6DB
330
1F
100
AcDbEntity
  8
Object
100
AcDbLine
 10
5.368999999999999
 20
13.90523081449144
 30
0.0
 11
5.327999999999999
 21
13.78523081449144
 31
0.0
  0
LINE
  5
6DC
330
1F
100
AcDbEntity
  8
Object
100
AcDbLine
 10
5.327999999999999
 20
13.78523081449144
 30
0.0
 11
5.272999999999999
 21
13.67023081449144
 31
0.0
  0
LINE
  5
6DD
330
1F
100
AcDbEntity
  8
Object
100
AcDbLine
 10
5.272999999999999
 20
13.67023081449144
 30
0.0
 11
5.204
 21
13.56223081449144
 31
0.0
  0
LINE
  5
6DE
330
1F
100
AcDbEntity
  8
Object
100
AcDbLine
 10
5.204
 20
13.56223081449144
 30
0.0
 11
5.123000000000001
 21
13.46323081449144
 31
0.0
  0
LINE
  5
6DF
330
1F
100
AcDbEntity
  8
Object
100
AcDbLine
 10
5.123000000000001
 20
13.46323081449144
 30
0.0
 11
5.032
 21
13.37423081449144
 31
0.0
  0
LINE
  5
6E0
330
1F
100
AcDbEntity
  8
Object
100
AcDbLine
 10
5.032
 20
13.37423081449144
 30
0.0
 11
4.929999999999999
 21
13.29723081449144
 31
0.0
  0
LINE
  5
6E1
330
1F
100
AcDbEntity
  8
Object
100
AcDbLine
 10
4.929999999999999
 20
13.29723081449144
 30
0.0
 11
4.82
 21
13.23223081449145
 31
0.0
  0
LINE
  5
6E2
330
1F
100
AcDbEntity
  8
Object
100
AcDbLine
 10
4.82
 20
13.23223081449145
 30
0.0
 11
4.702999999999999
 21
13.18123081449144
 31
0.0
  0
LINE
  5
6E3
330
1F
100
AcDbEntity
  8
Object
100
AcDbLine
 10
4.702999999999999
 20
13.18123081449144
 30
0.0
 11
4.580999999999999
 21
13.14423081449144
 31
0.0
  0
LINE
  5
6E4
330
1F
100
AcDbEntity
  8
Object
100
AcDbLine
 10
4.580999999999999
 20
13.14423081449144
 30
0.0
 11
4.455999999999999
 21
13.12123081449144
 31
0.0
  0
LINE
  5
6E5
330
1F
100
AcDbEntity
  8
Object
100
AcDbLine
 10
4.327999999999999
 20
13.19423081449144
 30
0.0
 11
4.327999999999999
 21
13.11423081449144
 31
0.0
  0
LINE
  5
6E6
330
1F
100
AcDbEntity
  8
Object
100
AcDbLine
 10
4.327999999999999
 20
13.11423081449144
 30
0.0
 11
4.327999999999999
 21
13.19423081449144
 31
0.0
  0
LINE
  5
6E7
330
1F
100
AcDbEntity
  8
Object
100
AcDbLine
 10
4.327999999999999
 20
13.11423081449144
 30
0.0
 11
4.327999999999999
 21
13.08423081449144
 31
0.0
  0
LINE
  5
6E8
330
1F
100
AcDbEntity
  8
Object
100
AcDbLine
 10
7.924999999999999
 20
13.20123081449144
 30
0.0
 11
8.044
 21
13.19423081449144
 31
0.0
  0
LINE
  5
6E9
330
1F
100
AcDbEntity
  8
Object
100
AcDbLine
 10
8.044
 20
13.19423081449144
 30
0.0
 11
8.044
 21
13.11423081449144
 31
0.0
  0
LINE
  5
6EA
330
1F
100
AcDbEntity
  8
Object
100
AcDbLine
 10
7.924999999999999
 20
13.20123081449144
 30
0.0
 11
7.807
 21
13.22223081449144
 31
0.0
  0
LINE
  5
6EB
330
1F
100
AcDbEntity
  8
Object
100
AcDbLine
 10
7.807
 20
13.22223081449144
 30
0.0
 11
7.692
 21
13.25823081449144
 31
0.0
  0
LINE
  5
6EC
330
1F
100
AcDbEntity
  8
Object
100
AcDbLine
 10
7.692
 20
13.25823081449144
 30
0.0
 11
7.583
 21
13.30723081449144
 31
0.0
  0
LINE
  5
6ED
330
1F
100
AcDbEntity
  8
Object
100
AcDbLine
 10
7.583
 20
13.30723081449144
 30
0.0
 11
7.48
 21
13.36823081449144
 31
0.0
  0
LINE
  5
6EE
330
1F
100
AcDbEntity
  8
Object
100
AcDbLine
 10
7.48
 20
13.36823081449144
 30
0.0
 11
7.384999999999999
 21
13.44223081449144
 31
0.0
  0
LINE
  5
6EF
330
1F
100
AcDbEntity
  8
Object
100
AcDbLine
 10
7.384999999999999
 20
13.44223081449144
 30
0.0
 11
7.299999999999999
 21
13.52623081449144
 31
0.0
  0
LINE
  5
6F0
330
1F
100
AcDbEntity
  8
Object
100
AcDbLine
 10
7.299999999999999
 20
13.52623081449144
 30
0.0
 11
7.225
 21
13.62023081449144
 31
0.0
  0
LINE
  5
6F1
330
1F
100
AcDbEntity
  8
Object
100
AcDbLine
 10
7.225
 20
13.62023081449144
 30
0.0
 11
7.163
 21
13.72223081449144
 31
0.0
  0
LINE
  5
6F2
330
1F
100
AcDbEntity
  8
Object
100
AcDbLine
 10
7.163
 20
13.72223081449144
 30
0.0
 11
7.113
 21
13.83023081449144
 31
0.0
  0
LINE
  5
6F3
330
1F
100
AcDbEntity
  8
Object
100
AcDbLine
 10
7.019
 20
14.53423081449144
 30
0.0
 11
7.104
 21
14.53423081449144
 31
0.0
  0
LINE
  5
6F4
330
1F
100
AcDbEntity
  8
Object
100
AcDbLine
 10
7.104
 20
14.53423081449144
 30
0.0
 11
7.07
 21
14.41923081449144
 31
0.0
  0
LINE
  5
6F5
330
1F
100
AcDbEntity
  8
Object
100
AcDbLine
 10
7.113
 20
13.83023081449144
 30
0.0
 11
7.076
 21
13.94423081449144
 31
0.0
  0
LINE
  5
6F6
330
1F
100
AcDbEntity
  8
Object
100
AcDbLine
 10
7.049999999999999
 20
14.30123081449144
 30
0.0
 11
7.07
 21
14.41923081449144
 31
0.0
  0
LINE
  5
6F7
330
1F
100
AcDbEntity
  8
Object
100
AcDbLine
 10
7.076
 20
13.94423081449144
 30
0.0
 11
7.052999999999999
 21
14.06223081449144
 31
0.0
  0
LINE
  5
6F8
330
1F
100
AcDbEntity
  8
Object
100
AcDbLine
 10
7.049999999999999
 20
14.30123081449144
 30
0.0
 11
7.044
 21
14.18123081449144
 31
0.0
  0
LINE
  5
6F9
330
1F
100
AcDbEntity
  8
Object
100
AcDbLine
 10
7.044
 20
14.18123081449144
 30
0.0
 11
7.052999999999999
 21
14.06223081449144
 31
0.0
  0
LINE
  5
6FA
330
1F
100
AcDbEntity
  8
Object
100
AcDbLine
 10
8.044
 20
13.19423081449144
 30
0.0
 11
8.044
 21
13.11423081449144
 31
0.0
  0
LINE
  5
6FB
330
1F
100
AcDbEntity
  8
Object
100
AcDbLine
 10
8.044
 20
13.11423081449144
 30
0.0
 11
8.044
 21
13.08423081449144
 31
0.0
  0
LINE
  5
6FC
330
1F
100
AcDbEntity
  8
Object
100
AcDbLine
 10
7.046
 20
14.61423081449144
 30
0.0
 11
7.134
 21
14.61423081449144
 31
0.0
  0
LINE
  5
6FD
330
1F
100
AcDbEntity
  8
Object
100
AcDbLine
 10
7.134
 20
14.61423081449144
 30
0.0
 11
7.104
 21
14.53423081449144
 31
0.0
  0
LINE
  5
6FE
330
1F
100
AcDbEntity
  8
Object
100
AcDbLine
 10
8.791
 20
14.97723081449144
 30
0.0
 11
8.88
 21
14.88123081449144
 31
0.0
  0
LINE
  5
6FF
330
1F
100
AcDbEntity
  8
Object
100
AcDbLine
 10
8.88
 20
14.88123081449144
 30
0.0
 11
8.774
 21
14.88123081449144
 31
0.0
  0
LINE
  5
700
330
1F
100
AcDbEntity
  8
Object
100
AcDbLine
 10
8.707
 20
14.94423081449144
 30
0.0
 11
8.708999999999999
 21
14.94323081449145
 31
0.0
  0
LINE
  5
701
330
1F
100
AcDbEntity
  8
Object
100
AcDbLine
 10
8.701
 20
14.94323081449145
 30
0.0
 11
8.698999999999999
 21
14.94223081449144
 31
0.0
  0
LINE
  5
702
330
1F
100
AcDbEntity
  8
Object
100
AcDbLine
 10
8.698999999999999
 20
14.94223081449144
 30
0.0
 11
8.697
 21
14.94023081449144
 31
0.0
  0
LINE
  5
703
330
1F
100
AcDbEntity
  8
Object
100
AcDbLine
 10
8.697
 20
14.94023081449144
 30
0.0
 11
8.695999999999999
 21
14.93723081449144
 31
0.0
  0
LINE
  5
704
330
1F
100
AcDbEntity
  8
Object
100
AcDbLine
 10
8.695999999999999
 20
14.93723081449144
 30
0.0
 11
8.695
 21
14.93423081449144
 31
0.0
  0
LINE
  5
705
330
1F
100
AcDbEntity
  8
Object
100
AcDbLine
 10
8.695
 20
14.93423081449144
 30
0.0
 11
8.695
 21
14.88123081449144
 31
0.0
  0
LINE
  5
706
330
1F
100
AcDbEntity
  8
Object
100
AcDbLine
 10
8.695
 20
14.88123081449144
 30
0.0
 11
8.62
 21
14.88123081449144
 31
0.0
  0
LINE
  5
707
330
1F
100
AcDbEntity
  8
Object
100
AcDbLine
 10
8.62
 20
14.88123081449144
 30
0.0
 11
8.62
 21
15.00923081449144
 31
0.0
  0
LINE
  5
708
330
1F
100
AcDbEntity
  8
Object
100
AcDbLine
 10
8.62
 20
15.00923081449144
 30
0.0
 11
8.618999999999999
 21
15.01423081449144
 31
0.0
  0
LINE
  5
709
330
1F
100
AcDbEntity
  8
Object
100
AcDbLine
 10
8.618999999999999
 20
15.01423081449144
 30
0.0
 11
8.615999999999999
 21
15.01723081449144
 31
0.0
  0
LINE
  5
70A
330
1F
100
AcDbEntity
  8
Object
100
AcDbLine
 10
7.697
 20
15.13423081449144
 30
0.0
 11
7.588
 21
15.08723081449144
 31
0.0
  0
LINE
  5
70B
330
1F
100
AcDbEntity
  8
Object
100
AcDbLine
 10
7.588
 20
15.08723081449144
 30
0.0
 11
7.485999999999999
 21
15.02723081449144
 31
0.0
  0
LINE
  5
70C
330
1F
100
AcDbEntity
  8
Object
100
AcDbLine
 10
7.485999999999999
 20
15.02723081449144
 30
0.0
 11
7.392
 21
14.95623081449144
 31
0.0
  0
LINE
  5
70D
330
1F
100
AcDbEntity
  8
Object
100
AcDbLine
 10
7.477
 20
14.76623081449144
 30
0.0
 11
7.477
 21
14.69123081449144
 31
0.0
  0
LINE
  5
70E
330
1F
100
AcDbEntity
  8
Object
100
AcDbLine
 10
7.477
 20
14.69123081449144
 30
0.0
 11
7.339
 21
14.69123081449144
 31
0.0
  0
LINE
  5
70F
330
1F
100
AcDbEntity
  8
Object
100
AcDbLine
 10
7.307
 20
14.87423081449144
 30
0.0
 11
7.392
 21
14.95623081449144
 31
0.0
  0
LINE
  5
710
330
1F
100
AcDbEntity
  8
Object
100
AcDbLine
 10
7.477
 20
14.76623081449144
 30
0.0
 11
7.24
 21
14.76623081449144
 31
0.0
  0
LINE
  5
711
330
1F
100
AcDbEntity
  8
Object
100
AcDbLine
 10
7.233
 20
14.76923081449144
 30
0.0
 11
7.235
 21
14.76823081449144
 31
0.0
  0
LINE
  5
712
330
1F
100
AcDbEntity
  8
Object
100
AcDbLine
 10
7.235
 20
14.76823081449144
 30
0.0
 11
7.238
 21
14.76723081449144
 31
0.0
  0
LINE
  5
713
330
1F
100
AcDbEntity
  8
Object
100
AcDbLine
 10
7.238
 20
14.76723081449144
 30
0.0
 11
7.24
 21
14.76623081449144
 31
0.0
  0
LINE
  5
714
330
1F
100
AcDbEntity
  8
Object
100
AcDbLine
 10
7.339
 20
14.69123081449144
 30
0.0
 11
7.334999999999999
 21
14.66623081449144
 31
0.0
  0
LINE
  5
715
330
1F
100
AcDbEntity
  8
Object
100
AcDbLine
 10
7.334999999999999
 20
14.66623081449144
 30
0.0
 11
7.322
 21
14.64423081449144
 31
0.0
  0
LINE
  5
716
330
1F
100
AcDbEntity
  8
Object
100
AcDbLine
 10
7.322
 20
14.64423081449144
 30
0.0
 11
7.299999999999999
 21
14.63023081449144
 31
0.0
  0
LINE
  5
717
330
1F
100
AcDbEntity
  8
Object
100
AcDbLine
 10
7.299999999999999
 20
14.63023081449144
 30
0.0
 11
7.275
 21
14.62523081449144
 31
0.0
  0
LINE
  5
718
330
1F
100
AcDbEntity
  8
Object
100
AcDbLine
 10
7.275
 20
14.62523081449144
 30
0.0
 11
7.25
 21
14.63023081449144
 31
0.0
  0
LINE
  5
719
330
1F
100
AcDbEntity
  8
Object
100
AcDbLine
 10
7.25
 20
14.63023081449144
 30
0.0
 11
7.229
 21
14.64423081449144
 31
0.0
  0
LINE
  5
71A
330
1F
100
AcDbEntity
  8
Object
100
AcDbLine
 10
7.229
 20
14.64423081449144
 30
0.0
 11
7.214999999999999
 21
14.66623081449144
 31
0.0
  0
LINE
  5
71B
330
1F
100
AcDbEntity
  8
Object
100
AcDbLine
 10
7.214999999999999
 20
14.66623081449144
 30
0.0
 11
7.211
 21
14.69123081449144
 31
0.0
  0
LINE
  5
71C
330
1F
100
AcDbEntity
  8
Object
100
AcDbLine
 10
7.230999999999999
 20
14.77423081449144
 30
0.0
 11
7.230999999999999
 21
14.77223081449144
 31
0.0
  0
LINE
  5
71D
330
1F
100
AcDbEntity
  8
Object
100
AcDbLine
 10
7.230999999999999
 20
14.77223081449144
 30
0.0
 11
7.233
 21
14.76923081449144
 31
0.0
  0
LINE
  5
71E
330
1F
100
AcDbEntity
  8
Object
100
AcDbLine
 10
7.307
 20
14.87423081449144
 30
0.0
 11
7.232
 21
14.78223081449144
 31
0.0
  0
LINE
  5
71F
330
1F
100
AcDbEntity
  8
Object
100
AcDbLine
 10
7.232
 20
14.78223081449144
 30
0.0
 11
7.230999999999999
 21
14.78023081449144
 31
0.0
  0
LINE
  5
720
330
1F
100
AcDbEntity
  8
Object
100
AcDbLine
 10
7.230999999999999
 20
14.78023081449144
 30
0.0
 11
7.23
 21
14.77723081449144
 31
0.0
  0
LINE
  5
721
330
1F
100
AcDbEntity
  8
Object
100
AcDbLine
 10
7.23
 20
14.77723081449144
 30
0.0
 11
7.230999999999999
 21
14.77423081449144
 31
0.0
  0
LINE
  5
722
330
1F
100
AcDbEntity
  8
Object
100
AcDbLine
 10
7.177
 20
14.69123081449144
 30
0.0
 11
7.174999999999999
 21
14.69023081449144
 31
0.0
  0
LINE
  5
723
330
1F
100
AcDbEntity
  8
Object
100
AcDbLine
 10
7.174999999999999
 20
14.69023081449144
 30
0.0
 11
7.171999999999999
 21
14.68823081449144
 31
0.0
  0
LINE
  5
724
330
1F
100
AcDbEntity
  8
Object
100
AcDbLine
 10
7.171999999999999
 20
14.68823081449144
 30
0.0
 11
7.171
 21
14.68623081449144
 31
0.0
  0
LINE
  5
725
330
1F
100
AcDbEntity
  8
Object
100
AcDbLine
 10
7.171
 20
14.68623081449144
 30
0.0
 11
7.158
 21
14.66223081449144
 31
0.0
  0
LINE
  5
726
330
1F
100
AcDbEntity
  8
Object
100
AcDbLine
 10
7.158
 20
14.66223081449144
 30
0.0
 11
7.145
 21
14.63823081449144
 31
0.0
  0
LINE
  5
727
330
1F
100
AcDbEntity
  8
Object
100
AcDbLine
 10
7.145
 20
14.63823081449144
 30
0.0
 11
7.134
 21
14.61423081449144
 31
0.0
  0
LINE
  5
728
330
1F
100
AcDbEntity
  8
Object
100
AcDbLine
 10
7.177
 20
14.69123081449144
 30
0.0
 11
7.179999999999999
 21
14.69123081449144
 31
0.0
  0
LINE
  5
729
330
1F
100
AcDbEntity
  8
Object
100
AcDbLine
 10
8.708999999999999
 20
14.94323081449145
 30
0.0
 11
8.711999999999999
 21
14.94223081449144
 31
0.0
  0
LINE
  5
72A
330
1F
100
AcDbEntity
  8
Object
100
AcDbLine
 10
8.701
 20
14.94323081449145
 30
0.0
 11
8.704
 21
14.94423081449144
 31
0.0
  0
LINE
  5
72B
330
1F
100
AcDbEntity
  8
Object
100
AcDbLine
 10
8.704
 20
14.94423081449144
 30
0.0
 11
8.707
 21
14.94423081449144
 31
0.0
  0
LINE
  5
72C
330
1F
100
AcDbEntity
  8
Object
100
AcDbLine
 10
4.896
 20
14.76623081449144
 30
0.0
 11
4.896
 21
14.69123081449144
 31
0.0
  0
LINE
  5
72D
330
1F
100
AcDbEntity
  8
Object
100
AcDbLine
 10
3.676999999999999
 20
14.88123081449144
 30
0.0
 11
3.752
 21
14.88123081449144
 31
0.0
  0
LINE
  5
72E
330
1F
100
AcDbEntity
  8
Object
100
AcDbLine
 10
7.179999999999999
 20
14.69123081449144
 30
0.0
 11
7.211
 21
14.69123081449144
 31
0.0
  0
LINE
  5
72F
330
1F
100
AcDbEntity
  8
Object
100
AcDbLine
 10
8.62
 20
14.88123081449144
 30
0.0
 11
8.695
 21
14.88123081449144
 31
0.0
  0
LINE
  5
730
330
1F
100
AcDbEntity
  8
Object
100
AcDbLine
 10
7.477
 20
14.69123081449144
 30
0.0
 11
7.477
 21
14.76623081449144
 31
0.0
  0
DIMENSION
  5
735
330
1F
100
AcDbEntity
  8
Dimension
100
AcDbDimension
  2
*D1
 10
10.31727656018575
 20
15.30523081449144
 30
0.0
 11
10.31727656018575
 21
14.19323081449144
 31
0.0
 70
    32
  1
2.22 [56.4mm]
 71
     5
 42
2.224
  3
Standard
100
AcDbAlignedDimension
 13
8.041
 23
13.08123081449144
 33
0.0
 14
8.044999999999999
 24
15.30523081449144
 34
0.0
 50
90.0
100
AcDbRotatedDimension
  0
DIMENSION
  5
7B9
102
{ACAD_XDICTIONARY
360
7C7
102
}
102
{ACAD_REACTORS
330
7D2
102
}
330
1F
100
AcDbEntity
  8
Dimension
100
AcDbDimension
  2
*D2
 10
8.916999999999999
 20
10.15949634179668
 30
0.0
 11
6.185999999999999
 21
10.15949634179668
 31
0.0
 70
    32
 71
     5
 42
5.461999999999999
  3
Standard
100
AcDbAlignedDimension
 13
3.455
 23
5.458230814491445
 33
0.0
 14
8.916999999999999
 24
5.458230814491445
 34
0.0
100
AcDbRotatedDimension
  0
DIMENSION
  5
7D4
102
{ACAD_XDICTIONARY
360
7E2
102
}
102
{ACAD_REACTORS
330
7ED
102
}
330
1F
100
AcDbEntity
  8
Dimension
100
AcDbDimension
  2
*D3
 10
14.23340765656696
 20
9.037230814491445
 30
0.0
 11
14.23340765656696
 21
7.195230814491448
 31
0.0
 70
    32
 71
     5
 42
3.684000000000001
  3
Standard
100
AcDbAlignedDimension
 13
17.348
 23
5.353230814491444
 33
0.0
 14
15.855
 24
9.037230814491445
 34
0.0
 50
90.0
100
AcDbRotatedDimension
  0
TEXT
  5
8D1
330
1F
100
AcDbEntity
  8
Text
100
AcDbText
 10
5.785962066566263
 20
12.41162495286775
 30
0.0
 40
0.125
  1
TOP VIEW
100
AcDbText
  0
TEXT
  5
8D2
330
1F
100
AcDbEntity
  8
Text
100
AcDbText
 10
5.677897964963776
 20
4.679293805716396
 30
0.0
 40
0.125
  1
FRONT VIEW
100
AcDbText
  0
TEXT
  5
8D3
330
1F
100
AcDbEntity
  8
Text
100
AcDbText
 10
16.28631035011734
 20
4.676896993553088
 30
0.0
 40
0.125
  1
RIGHT SIDE VIEW
100
AcDbText
  0
TEXT
  5
8D8
330
1F
100
AcDbEntity
  8
Title Block
100
AcDbText
 10
17.77669501265554
 20
2.672489851525508
 30
0.0
 40
0.05
  1
FILENAME:
100
AcDbText
  0
TEXT
  5
8D9
330
1F
100
AcDbEntity
  8
Title Block
100
AcDbText
 10
17.76928502872825
 20
2.076224967549325
 30
0.0
 40
0.35
  1
PANDUIT
100
AcDbText
  0
TEXT
  5
8DA
330
1F
100
AcDbEntity
  8
Title Block
100
AcDbText
 10
19.72182039882138
 20
2.061410940562986
 30
0.0
 40
0.125
  1
CORP. TINLEY PARK, IL
100
AcDbText
  0
TEXT
  5
8DB
330
1F
100
AcDbEntity
  8
Title Block
100
AcDbText
 10
17.78039997670861
 20
1.91697409709392
 30
0.0
 40
0.05
  1
TITLE:
100
AcDbText
  0
MTEXT
  5
8DC
330
1F
100
AcDbEntity
  8
Title Block
100
AcDbMText
 10
19.0
 20
1.372215793536348
 30
0.0
 40
0.075
 41
2.5
 71
     5
 72
     5
  1
UNLESS OTHERWISE SPECIFIED,\PDIMENSIONAL TOLERANCES ARE:       
 73
     1
 44
1.0
1001
ACAD
1000
MTEXTBEGIN
1070
    73
1070
     1
1070
    44
1040
1.0
1070
    74
1070
     0
1000
MTEXTEND
  0
MTEXT
  5
8DD
330
1F
100
AcDbEntity
  8
Title Block
100
AcDbMText
 10
18.39237986661001
 20
1.131487708483632
 30
0.0
 40
0.075
 41
2.5
 71
     5
 72
     5
  1
(.X)\P(.XX)
 73
     1
 44
1.0
1001
ACAD
1000
MTEXTBEGIN
1070
    73
1070
     1
1070
    44
1040
1.0
1070
    74
1070
     0
1000
MTEXTEND
  0
MTEXT
  5
8DE
330
1F
100
AcDbEntity
  8
Title Block
100
AcDbMText
 10
19.40014005312411
 20
1.131487708483632
 30
0.0
 40
0.075
 41
2.5
 71
     5
 72
     5
  1
(.XXX)\PANGLES:
 73
     1
 44
1.0
1001
ACAD
1000
MTEXTBEGIN
1070
    73
1070
     1
1070
    44
1040
1.0
1070
    74
1070
     0
1000
MTEXTEND
  0
MTEXT
  5
8DF
330
1F
100
AcDbEntity
  8
Title Block
100
AcDbMText
 10
21.0
 20
1.25
 30
0.0
 40
0.06
 41
1.5
 71
     5
 72
     5
  1
UNLESS OTHERWISE SPECIFIED,\PALL DIMENSIONS ARE GIVEN IN INCHES, THIRD ANGLE PROJECTION
 73
     1
 44
1.0
1001
ACAD
1000
MTEXTBEGIN
1070
    73
1070
     1
1070
    44
1040
1.0
1070
    74
1070
     0
1000
MTEXTEND
  0
TEXT
  5
8E0
330
1F
100
AcDbEntity
  8
Title Block
100
AcDbText
 10
17.76076445430618
 20
0.9281373372752312
 30
0.0
 40
0.05
  1
DRAWN BY:
100
AcDbText
  0
TEXT
  5
8E1
330
1F
100
AcDbEntity
  8
Title Block
100
AcDbText
 10
17.76446947418043
 20
0.6811431865635028
 30
0.0
 40
0.05
  1
DATE:
100
AcDbText
  0
TEXT
  5
8E2
330
1F
100
AcDbEntity
  8
Title Block
100
AcDbText
 10
17.76817443823349
 20
0.4304455338317968
 30
0.0
 40
0.05
  1
CHECKED BY:
100
AcDbText
  0
TEXT
  5
8E3
330
1F
100
AcDbEntity
  8
Title Block
100
AcDbText
 10
18.52028959313306
 20
0.9281373372752312
 30
0.0
 40
0.05
  1
MATERIAL:
100
AcDbText
  0
TEXT
  5
8E4
330
1F
100
AcDbEntity
  8
Title Block
100
AcDbText
 10
20.26534493878154
 20
0.9281373372752312
 30
0.0
 40
0.05
  1
SCALE:
100
AcDbText
  0
TEXT
  5
8E5
330
1F
100
AcDbEntity
  8
Title Block
100
AcDbText
 10
20.26534493878154
 20
0.6725952630490007
 30
0.0
 40
0.05
  1
DRAWING NUMBER:
100
AcDbText
  0
TEXT
  5
8E6
330
1F
100
AcDbEntity
  8
Title Block
100
AcDbText
 10
21.34942622928997
 20
0.6762987650689816
 30
0.0
 40
0.05
  1
DRAWING
100
AcDbText
  0
TEXT
  5
8E7
330
1F
100
AcDbEntity
  8
Title Block
100
AcDbText
 10
21.42723125590085
 20
0.2811642688682026
 30
0.0
 40
0.05
  1
SIZE
100
AcDbText
  0
TEXT
  5
8E8
330
1F
100
AcDbEntity
  8
Title Block
100
AcDbText
 10
21.39373130657865
 20
0.3826699445861052
 30
0.0
 40
0.25
  1
C
100
AcDbText
  0
MTEXT
  5
8E9
330
1F
100
AcDbEntity
  8
Title Block
100
AcDbMText
 10
11.37499999999999
 20
0.375
 30
0.0
 40
0.05
 41
0.25
 71
     5
 72
     5
  1
REV
 73
     1
 44
1.0
1001
ACAD
1000
MTEXTBEGIN
1070
    73
1070
     1
1070
    44
1040
1.0
1070
    74
1070
     0
1000
MTEXTEND
  0
MTEXT
  5
8EA
330
1F
100
AcDbEntity
  8
Title Block
100
AcDbMText
 10
11.74999999999999
 20
0.375
 30
0.0
 40
0.05
 41
0.5
 71
     5
 72
     5
  1
DATE
 73
     1
 44
1.0
1001
ACAD
1000
MTEXTBEGIN
1070
    73
1070
     1
1070
    44
1040
1.0
1070
    74
1070
     0
1000
MTEXTEND
  0
MTEXT
  5
8EB
330
1F
100
AcDbEntity
  8
Title Block
100
AcDbMText
 10
12.18999999999999
 20
0.375
 30
0.0
 40
0.05
 41
0.38
 71
     5
 72
     5
  1
BY
 73
     1
 44
1.0
1001
ACAD
1000
MTEXTBEGIN
1070
    73
1070
     1
1070
    44
1040
1.0
1070
    74
1070
     0
1000
MTEXTEND
  0
MTEXT
  5
8EC
330
1F
100
AcDbEntity
  8
Title Block
100
AcDbMText
 10
12.56499999999999
 20
0.375
 30
0.0
 40
0.05
 41
0.38
 71
     5
 72
     5
  1
CHK
 73
     1
 44
1.0
1001
ACAD
1000
MTEXTBEGIN
1070
    73
1070
     1
1070
    44
1040
1.0
1070
    74
1070
     0
1000
MTEXTEND
  0
MTEXT
  5
8ED
330
1F
100
AcDbEntity
  8
Title Block
100
AcDbMText
 10
14.12499999999999
 20
0.375
 30
0.0
 40
0.05
 41
2.75
 71
     5
 72
     5
  1
DESCRIPTION
 73
     1
 44
1.0
1001
ACAD
1000
MTEXTBEGIN
1070
    73
1070
     1
1070
    44
1040
1.0
1070
    74
1070
     0
1000
MTEXTEND
  0
MTEXT
  5
8EE
330
1F
100
AcDbEntity
  8
Title Block
100
AcDbMText
 10
16.065
 20
0.375
 30
0.0
 40
0.05
 41
1.129999999999999
 71
     5
 72
     5
  1
ECN   -   R
 73
     1
 44
1.0
1001
ACAD
1000
MTEXTBEGIN
1070
    73
1070
     1
1070
    44
1040
1.0
1070
    74
1070
     0
1000
MTEXTEND
  0
MTEXT
  5
8EF
330
1F
100
AcDbEntity
  8
Title Block
100
AcDbMText
 10
16.81499999999999
 20
0.375
 30
0.0
 40
0.05
 41
0.38
 71
     5
 72
     5
  1
CUST
 73
     1
 44
1.0
1001
ACAD
1000
MTEXTBEGIN
1070
    73
1070
     1
1070
    44
1040
1.0
1070
    74
1070
     0
1000
MTEXTEND
  0
MTEXT
  5
8F0
330
1F
100
AcDbEntity
  8
Title Block
100
AcDbMText
 10
17.19
 20
0.375
 30
0.0
 40
0.05
 41
0.38
 71
     5
 72
     5
  1
SUP
 73
     1
 44
1.0
1001
ACAD
1000
MTEXTBEGIN
1070
    73
1070
     1
1070
    44
1040
1.0
1070
    74
1070
     0
1000
MTEXTEND
  0
LINE
  5
8F1
330
1F
100
AcDbEntity
  8
Title Block
100
AcDbLine
 10
21.75
 20
2.749999999999999
 30
0.0
 11
11.25
 21
2.75
 31
0.0
  0
LINE
  5
8F2
330
1F
100
AcDbEntity
  8
Title Block
100
AcDbLine
 10
17.74999999999999
 20
2.75
 30
0.0
 11
17.74999999999999
 21
0.25
 31
0.0
  0
LINE
  5
8F3
330
1F
100
AcDbEntity
  8
Title Block
100
AcDbLine
 10
21.75
 20
2.499999999999999
 30
0.0
 11
11.25
 21
2.5
 31
0.0
  0
LINE
  5
8F4
330
1F
100
AcDbEntity
  8
Title Block
100
AcDbLine
 10
17.74999999999999
 20
2.25
 30
0.0
 11
11.25
 21
2.25
 31
0.0
  0
LINE
  5
8F5
330
1F
100
AcDbEntity
  8
Title Block
100
AcDbLine
 10
21.75
 20
1.999999999999999
 30
0.0
 11
11.25
 21
2.0
 31
0.0
  0
LINE
  5
8F6
330
1F
100
AcDbEntity
  8
Title Block
100
AcDbLine
 10
17.74999999999999
 20
1.75
 30
0.0
 11
11.25
 21
1.75
 31
0.0
  0
LINE
  5
8F7
330
1F
100
AcDbEntity
  8
Title Block
100
AcDbLine
 10
21.75
 20
1.499999999999999
 30
0.0
 11
11.25
 21
1.5
 31
0.0
  0
LINE
  5
8F8
330
1F
100
AcDbEntity
  8
Title Block
100
AcDbLine
 10
17.74999999999999
 20
1.25
 30
0.0
 11
11.25
 21
1.25
 31
0.0
  0
LINE
  5
8F9
330
1F
100
AcDbEntity
  8
Title Block
100
AcDbLine
 10
21.75
 20
0.9999999999999996
 30
0.0
 11
11.25
 21
1.0
 31
0.0
  0
LINE
  5
8FA
330
1F
100
AcDbEntity
  8
Title Block
100
AcDbLine
 10
18.49999999999999
 20
0.75
 30
0.0
 11
11.25
 21
0.7500000000000009
 31
0.0
  0
LINE
  5
8FB
330
1F
100
AcDbEntity
  8
Title Block
100
AcDbLine
 10
18.49999999999999
 20
0.5
 30
0.0
 11
11.25
 21
0.5000000000000009
 31
0.0
  0
LINE
  5
8FC
330
1F
100
AcDbEntity
  8
Title Block
100
AcDbLine
 10
11.25
 20
0.25
 30
0.0
 11
11.25
 21
2.75
 31
0.0
  0
LINE
  5
8FD
330
1F
100
AcDbEntity
  8
Title Block
100
AcDbLine
 10
11.49999999999999
 20
0.25
 30
0.0
 11
11.49999999999999
 21
2.750000000000001
 31
0.0
  0
LINE
  5
8FE
330
1F
100
AcDbEntity
  8
Title Block
100
AcDbLine
 10
11.99999999999999
 20
0.25
 30
0.0
 11
11.99999999999999
 21
2.750000000000001
 31
0.0
  0
LINE
  5
8FF
330
1F
100
AcDbEntity
  8
Title Block
100
AcDbLine
 10
12.375
 20
0.25
 30
0.0
 11
12.375
 21
2.750000000000001
 31
0.0
  0
LINE
  5
900
330
1F
100
AcDbEntity
  8
Title Block
100
AcDbLine
 10
12.74999999999999
 20
0.25
 30
0.0
 11
12.74999999999999
 21
2.750000000000001
 31
0.0
  0
LINE
  5
901
330
1F
100
AcDbEntity
  8
Title Block
100
AcDbLine
 10
17.375
 20
2.75
 30
0.0
 11
17.375
 21
0.25
 31
0.0
  0
LINE
  5
902
330
1F
100
AcDbEntity
  8
Title Block
100
AcDbLine
 10
17.0
 20
2.75
 30
0.0
 11
17.0
 21
0.25
 31
0.0
  0
LINE
  5
903
330
1F
100
AcDbEntity
  8
Title Block
100
AcDbLine
 10
16.62499999999999
 20
2.75
 30
0.0
 11
16.62499999999999
 21
0.25
 31
0.0
  0
LINE
  5
904
330
1F
100
AcDbEntity
  8
Title Block
100
AcDbLine
 10
16.25
 20
2.75
 30
0.0
 11
16.25
 21
0.5000000000000002
 31
0.0
  0
LINE
  5
905
330
1F
100
AcDbEntity
  8
Title Block
100
AcDbLine
 10
15.5
 20
2.75
 30
0.0
 11
15.5
 21
0.25
 31
0.0
  0
LINE
  5
906
330
1F
100
AcDbEntity
  8
Title Block
100
AcDbLine
 10
20.25
 20
0.75
 30
0.0
 11
20.25
 21
1.499999999999999
 31
0.0
  0
LINE
  5
907
330
1F
100
AcDbEntity
  8
Title Block
100
AcDbLine
 10
20.25
 20
0.75
 30
0.0
 11
20.25
 21
0.25
 31
0.0
  0
LINE
  5
908
330
1F
100
AcDbEntity
  8
Title Block
100
AcDbLine
 10
20.25
 20
0.75
 30
0.0
 11
21.75
 21
0.75
 31
0.0
  0
LINE
  5
909
330
1F
100
AcDbEntity
  8
Title Block
100
AcDbLine
 10
18.49999999999999
 20
0.5
 30
0.0
 11
18.49999999999999
 21
0.25
 31
0.0
  0
LINE
  5
90A
330
1F
100
AcDbEntity
  8
Title Block
100
AcDbLine
 10
18.49999999999999
 20
0.5
 30
0.0
 11
18.49999999999999
 21
1.0
 31
0.0
  0
LINE
  5
90B
330
1F
100
AcDbEntity
  8
Title Block
100
AcDbLine
 10
21.25
 20
0.75
 30
0.0
 11
21.25
 21
0.25
 31
0.0
  0
LWPOLYLINE
  5
90C
330
1F
100
AcDbEntity
  8
Title Block
100
AcDbPolyline
 90
        4
 70
     1
 43
0.01
 10
21.75
 20
16.75
 10
21.75
 20
0.25
 10
0.25
 20
0.25
 10
0.250000000000001
 20
16.75
  0
POINT
  5
90D
330
1F
100
AcDbEntity
  8
Title Block
100
AcDbPoint
 10
22.0
 20
0.0
 30
0.0
  0
POINT
  5
90E
330
1F
100
AcDbEntity
  8
Title Block
100
AcDbPoint
 10
22.0
 20
17.0
 30
0.0
  0
POINT
  5
90F
330
1F
100
AcDbEntity
  8
Title Block
100
AcDbPoint
 10
0.000000000000001
 20
17.0
 30
0.0
  0
POINT
  5
910
330
1F
100
AcDbEntity
  8
Title Block
100
AcDbPoint
 10
0.0
 20
0.0
 30
0.0
  0
MTEXT
  5
911
330
1F
100
AcDbEntity
  8
Text
100
AcDbMText
 10
11.37324893148254
 20
0.6275685908585027
 30
0.0
 40
0.09
 41
0.25
 71
     5
 72
     5
  1
R
 73
     1
 44
1.0
1001
ACAD
1000
MTEXTBEGIN
1070
    73
1070
     1
1070
    44
1040
1.0
1070
    74
1070
     0
1000
MTEXTEND
  0
MTEXT
  5
912
330
1F
100
AcDbEntity
  8
Text
100
AcDbMText
 10
11.74824893148254
 20
0.6275685908585027
 30
0.0
 40
0.07
 41
0.5
 71
     5
 72
     5
  1
10-18-05
 73
     1
 44
1.0
1001
ACAD
1000
MTEXTBEGIN
1070
    73
1070
     1
1070
    44
1040
1.0
1070
    74
1070
     0
1000
MTEXTEND
  0
MTEXT
  5
913
330
1F
100
AcDbEntity
  8
Text
100
AcDbMText
 10
12.18574893148254
 20
0.6275685908585027
 30
0.0
 40
0.09
 41
0.375
 71
     5
 72
     5
  1
MSO
 73
     1
 44
1.0
1001
ACAD
1000
MTEXTBEGIN
1070
    73
1070
     1
1070
    44
1040
1.0
1070
    74
1070
     0
1000
MTEXTEND
  0
MTEXT
  5
914
330
1F
100
AcDbEntity
  8
Text
100
AcDbMText
 10
12.56074893148254
 20
0.6275685908585027
 30
0.0
 40
0.07
 41
0.375
 71
     5
 72
     5
  1
DJWA
 73
     1
 44
1.0
1001
ACAD
1000
MTEXTBEGIN
1070
    73
1070
     1
1070
    44
1040
1.0
1070
    74
1070
     0
1000
MTEXTEND
  0
MTEXT
  5
915
330
1F
100
AcDbEntity
  8
Text
100
AcDbMText
 10
14.12324893148254
 20
0.6275685908585023
 30
0.0
 40
0.09
 41
2.75
 71
     5
 72
     5
  1
DRAWING RELEASED
 73
     1
 44
1.0
1001
ACAD
1000
MTEXTBEGIN
1070
    73
1070
     1
1070
    44
1040
1.0
1070
    74
1070
     0
1000
MTEXTEND
  0
MTEXT
  5
918
330
1F
100
AcDbEntity
  8
Text
100
AcDbMText
 10
18.47324893148254
 20
0.8525685908585018
 30
0.0
 40
0.09
 41
0.75
 71
     6
 72
     5
  1
MSO
 73
     1
 44
1.0
1001
ACAD
1000
MTEXTBEGIN
1070
    73
1070
     1
1070
    44
1040
1.0
1070
    74
1070
     0
1000
MTEXTEND
  0
MTEXT
  5
919
330
1F
100
AcDbEntity
  8
Text
100
AcDbMText
 10
18.47324893148254
 20
0.6025685908585017
 30
0.0
 40
0.09
 41
0.75
 71
     6
 72
     5
  1
10-18-05
 73
     1
 44
1.0
1001
ACAD
1000
MTEXTBEGIN
1070
    73
1070
     1
1070
    44
1040
1.0
1070
    74
1070
     0
1000
MTEXTEND
  0
MTEXT
  5
91A
330
1F
100
AcDbEntity
  8
Text
100
AcDbMText
 10
18.47324893148254
 20
0.3525685908585019
 30
0.0
 40
0.09
 41
0.75
 71
     6
 72
     5
  1
DJWA
 73
     1
 44
1.0
1001
ACAD
1000
MTEXTBEGIN
1070
    73
1070
     1
1070
    44
1040
1.0
1070
    74
1070
     0
1000
MTEXTEND
  0
MTEXT
  5
91B
330
1F
100
AcDbEntity
  8
Text
100
AcDbMText
 10
19.74824893148254
 20
2.627568590858501
 30
0.0
 40
0.09
 41
4.0
 71
     5
 72
     5
  1
TRC4HDBL.dwg
 73
     1
 44
1.0
1001
ACAD
1000
MTEXTBEGIN
1070
    73
1070
     1
1070
    44
1040
1.0
1070
    74
1070
     0
1000
MTEXTEND
  0
MTEXT
  5
91C
330
1F
100
AcDbEntity
  8
Text
100
AcDbMText
 10
19.74824893148254
 20
1.752568590858501
 30
0.0
 40
0.09
 41
4.0
 71
     5
 72
     5
  1
PANDUCT TYPES H AND HS 4x4 WIRING DUCT BEND\PRADIUS CONTROL TRUMPET (TRC4HDBL)\PMARKETING DRAWING
 73
     1
 44
1.0
1001
ACAD
1000
MTEXTBEGIN
1070
    73
1070
     1
1070
    44
1040
1.0
1070
    74
1070
     0
1000
MTEXTEND
  0
MTEXT
  5
91D
330
1F
100
AcDbEntity
  8
Text
100
AcDbMText
 10
20.99824893148254
 20
0.8775685908585016
 30
0.0
 40
0.12
 41
1.5
 71
     5
 72
     5
  1
FULL
 73
     1
 44
1.0
1001
ACAD
1000
MTEXTBEGIN
1070
    73
1070
     1
1070
    44
1040
1.0
1070
    74
1070
     0
1000
MTEXTEND
  0
MTEXT
  5
91E
330
1F
100
AcDbEntity
  8
Text
100
AcDbMText
 10
20.74824893148254
 20
0.5025685908585018
 30
0.0
 40
0.12
 41
1.0
 71
     5
 72
     5
  1
36897-1081
 73
     1
 44
1.0
1001
ACAD
1000
MTEXTBEGIN
1070
    73
1070
     1
1070
    44
1040
1.0
1070
    74
1070
     0
1000
MTEXTEND
  0
LINE
  5
940
330
1F
100
AcDbEntity
  8
Text
100
AcDbLine
 10
11.03797527666371
 20
14.06334210935568
 30
0.0
 11
11.18797527666371
 21
14.32314973049102
 31
0.0
  0
LINE
  5
941
330
1F
100
AcDbEntity
  8
Text
100
AcDbLine
 10
11.18797527666371
 20
14.32314973049102
 30
0.0
 11
11.33797527666371
 21
14.06334210935568
 31
0.0
  0
LINE
  5
942
330
1F
100
AcDbEntity
  8
Text
100
AcDbLine
 10
11.33797527666371
 20
14.06334210935568
 30
0.0
 11
11.03797527666371
 21
14.06334210935568
 31
0.0
  0
TEXT
  5
943
330
1F
100
AcDbEntity
  8
Text
100
AcDbText
 10
11.14988833048358
 20
14.12795514110442
 30
0.0
 40
0.09
  1
A
100
AcDbText
  0
MTEXT
  5
944
330
1F
100
AcDbEntity
  8
Text
100
AcDbMText
 10
11.37324893148254
 20
0.8775685908585026
 30
0.0
 40
0.09
 41
0.25
 71
     5
 72
     5
  1
1
 73
     1
 44
1.0
1001
ACAD
1000
MTEXTBEGIN
1070
    73
1070
     1
1070
    44
1040
1.0
1070
    74
1070
     0
1000
MTEXTEND
  0
MTEXT
  5
945
330
1F
100
AcDbEntity
  8
Text
100
AcDbMText
 10
11.74824893148254
 20
0.8775685908585026
 30
0.0
 40
0.07
 41
0.5
 71
     5
 72
     5
  1
6-6-07
 73
     1
 44
1.0
1001
ACAD
1000
MTEXTBEGIN
1070
    73
1070
     1
1070
    44
1040
1.0
1070
    74
1070
     0
1000
MTEXTEND
  0
MTEXT
  5
946
330
1F
100
AcDbEntity
  8
Text
100
AcDbMText
 10
12.18574893148254
 20
0.8775685908585026
 30
0.0
 40
0.09
 41
0.375
 71
     5
 72
     5
  1
DTP
 73
     1
 44
1.0
1001
ACAD
1000
MTEXTBEGIN
1070
    73
1070
     1
1070
    44
1040
1.0
1070
    74
1070
     0
1000
MTEXTEND
  0
MTEXT
  5
947
330
1F
100
AcDbEntity
  8
Text
100
AcDbMText
 10
12.56074893148254
 20
0.8775685908585026
 30
0.0
 40
0.07
 41
0.375
 71
     5
 72
     5
  1
DJWA
 73
     1
 44
1.0
1001
ACAD
1000
MTEXTBEGIN
1070
    73
1070
     1
1070
    44
1040
1.0
1070
    74
1070
     0
1000
MTEXTEND
  0
MTEXT
  5
948
330
1F
100
AcDbEntity
  8
Text
100
AcDbMText
 10
12.77324893148254
 20
0.8775685908585021
 30
0.0
 40
0.07
 41
2.75
 71
     4
 72
     5
  1
A. REVISED DIMENSION
 73
     1
 44
1.0
1001
ACAD
1000
MTEXTBEGIN
1070
    73
1070
     1
1070
    44
1040
1.0
1070
    74
1070
     0
1000
MTEXTEND
  0
ENDSEC
  0
SECTION
  2
OBJECTS
  0
DICTIONARY
  5
C
330
0
100
AcDbDictionary
281
     1
  3
ACAD_COLOR
350
73
  3
ACAD_GROUP
350
D
  3
ACAD_LAYOUT
350
1A
  3
ACAD_MATERIAL
350
72
  3
ACAD_MLINESTYLE
350
17
  3
ACAD_PLOTSETTINGS
350
19
  3
ACAD_PLOTSTYLENAME
350
E
  3
ACAD_TABLESTYLE
350
86
  3
ACDBHEADERROUNDTRIPXREC
350
95C
  3
AcDbVariableDictionary
350
66
  0
DICTIONARY
  5
920
330
1F
100
AcDbDictionary
280
     1
281
     1
  3
ACAD_SORTENTS
360
921
  0
DICTIONARY
  5
7C7
330
7B9
100
AcDbDictionary
280
     1
281
     1
  3
ACAD_DIMASSOC
360
7D2
  0
DICTIONARY
  5
7E2
330
7D4
100
AcDbDictionary
280
     1
281
     1
  3
ACAD_DIMASSOC
360
7ED
  0
DICTIONARY
  5
73
102
{ACAD_REACTORS
330
C
102
}
330
C
100
AcDbDictionary
281
     1
  0
DICTIONARY
  5
D
102
{ACAD_REACTORS
330
C
102
}
330
C
100
AcDbDictionary
281
     1
  0
DICTIONARY
  5
1A
102
{ACAD_REACTORS
330
C
102
}
330
C
100
AcDbDictionary
281
     1
  3
Layout1
350
59
  3
Layout2
350
5E
  3
Model
350
22
  0
DICTIONARY
  5
72
102
{ACAD_REACTORS
330
C
102
}
330
C
100
AcDbDictionary
281
     1
  0
DICTIONARY
  5
17
102
{ACAD_REACTORS
330
C
102
}
330
C
100
AcDbDictionary
281
     1
  3
Standard
350
18
  0
DICTIONARY
  5
19
102
{ACAD_REACTORS
330
C
102
}
330
C
100
AcDbDictionary
281
     1
  0
ACDBDICTIONARYWDFLT
  5
E
102
{ACAD_REACTORS
330
C
102
}
330
C
100
AcDbDictionary
281
     1
  3
Normal
350
F
100
AcDbDictionaryWithDefault
340
F
  0
DICTIONARY
  5
86
102
{ACAD_REACTORS
330
C
102
}
330
C
100
AcDbDictionary
281
     1
  3
Standard
350
87
  0
DICTIONARY
  5
95C
102
{ACAD_REACTORS
330
C
102
}
330
C
100
AcDbDictionary
281
     1
  0
DICTIONARY
  5
66
102
{ACAD_REACTORS
330
C
102
}
330
C
100
AcDbDictionary
281
     1
  3
CTABLESTYLE
350
733
  3
DIMASSOC
350
67
  3
HIDETEXT
350
6B
  3
PROJECTNAME
350
95A
  0
SORTENTSTABLE
  5
921
102
{ACAD_REACTORS
330
920
102
}
330
920
100
AcDbSortentsTable
330
1F
331
266
  5
266
331
228
  5
228
331
1D3
  5
1D3
331
1B4
  5
1B4
331
1F2
  5
1F2
331
211
  5
211
331
247
  5
247
331
285
  5
285
331
29C
  5
29C
331
2BB
  5
2BB
331
2DA
  5
2DA
331
2F9
  5
2F9
331
310
  5
310
331
53E
  5
53E
331
4E9
  5
4E9
331
4AB
  5
4AB
331
3A4
  5
3A4
331
3C3
  5
3C3
331
3E2
  5
3E2
331
418
  5
418
331
437
  5
437
331
456
  5
456
331
475
  5
475
331
48C
  5
48C
331
4CA
  5
4CA
331
500
  5
500
331
51F
  5
51F
331
55D
  5
55D
331
19D
  5
19D
331
911
  5
911
331
72E
  5
72E
331
70F
  5
70F
331
8D3
  5
8D3
331
8F2
  5
8F2
331
286
  5
286
331
248
  5
248
331
212
  5
212
331
1B5
  5
1B5
331
1D4
  5
1D4
331
1F3
  5
1F3
331
229
  5
229
331
267
  5
267
331
29D
  5
29D
331
2BC
  5
2BC
331
2DB
  5
2DB
331
2FA
  5
2FA
331
311
  5
311
331
330
  5
330
331
55E
  5
55E
331
501
  5
501
331
4CB
  5
4CB
331
3A5
  5
3A5
331
3C4
  5
3C4
331
3E3
  5
3E3
331
419
  5
419
331
438
  5
438
331
457
  5
457
331
476
  5
476
331
48D
  5
48D
331
4AC
  5
4AC
331
4EA
  5
4EA
331
520
  5
520
331
53F
  5
53F
331
19E
  5
19E
331
912
  5
912
331
72F
  5
72F
331
8F3
  5
8F3
331
268
  5
268
331
22A
  5
22A
331
1D5
  5
1D5
331
1B6
  5
1B6
331
1F4
  5
1F4
331
213
  5
213
331
249
  5
249
331
287
  5
287
331
29E
  5
29E
331
2BD
  5
2BD
331
2DC
  5
2DC
331
2FB
  5
2FB
331
312
  5
312
331
331
  5
331
331
350
  5
350
331
540
  5
540
331
4EB
  5
4EB
331
4AD
  5
4AD
331
3A6
  5
3A6
331
3C5
  5
3C5
331
3E4
  5
3E4
331
41A
  5
41A
331
439
  5
439
331
458
  5
458
331
477
  5
477
331
48E
  5
48E
331
4CC
  5
4CC
331
502
  5
502
331
521
  5
521
331
55F
  5
55F
331
19F
  5
19F
331
913
  5
913
331
8F4
  5
8F4
331
288
  5
288
331
24A
  5
24A
331
1F5
  5
1F5
331
1B7
  5
1B7
331
1D6
  5
1D6
331
214
  5
214
331
22B
  5
22B
331
269
  5
269
331
29F
  5
29F
331
2BE
  5
2BE
331
2DD
  5
2DD
331
2FC
  5
2FC
331
313
  5
313
331
332
  5
332
331
351
  5
351
331
370
  5
370
331
560
  5
560
331
503
  5
503
331
4CD
  5
4CD
331
3A7
  5
3A7
331
3C6
  5
3C6
331
3E5
  5
3E5
331
41B
  5
41B
331
43A
  5
43A
331
459
  5
459
331
48F
  5
48F
331
4AE
  5
4AE
331
4EC
  5
4EC
331
522
  5
522
331
541
  5
541
331
1A0
  5
1A0
331
914
  5
914
331
8F5
  5
8F5
331
26A
  5
26A
331
22C
  5
22C
331
1D7
  5
1D7
331
1B8
  5
1B8
331
1F6
  5
1F6
331
215
  5
215
331
24B
  5
24B
331
289
  5
289
331
2A0
  5
2A0
331
2BF
  5
2BF
331
2DE
  5
2DE
331
2FD
  5
2FD
331
314
  5
314
331
333
  5
333
331
352
  5
352
331
371
  5
371
331
561
  5
561
331
523
  5
523
331
4ED
  5
4ED
331
4AF
  5
4AF
331
3C7
  5
3C7
331
3E6
  5
3E6
331
41C
  5
41C
331
43B
  5
43B
331
45A
  5
45A
331
490
  5
490
331
4CE
  5
4CE
331
504
  5
504
331
542
  5
542
331
1A1
  5
1A1
331
915
  5
915
331
8F6
  5
8F6
331
28A
  5
28A
331
24C
  5
24C
331
1F7
  5
1F7
331
1B9
  5
1B9
331
1D8
  5
1D8
331
216
  5
216
331
22D
  5
22D
331
26B
  5
26B
331
2A1
  5
2A1
331
2C0
  5
2C0
331
2DF
  5
2DF
331
2FE
  5
2FE
331
315
  5
315
331
334
  5
334
331
353
  5
353
331
372
  5
372
331
562
  5
562
331
505
  5
505
331
4CF
  5
4CF
331
3E7
  5
3E7
331
41D
  5
41D
331
43C
  5
43C
331
45B
  5
45B
331
491
  5
491
331
4B0
  5
4B0
331
4EE
  5
4EE
331
524
  5
524
331
543
  5
543
331
1A2
  5
1A2
331
8D8
  5
8D8
331
8F7
  5
8F7
331
26C
  5
26C
331
217
  5
217
331
1D9
  5
1D9
331
1BA
  5
1BA
331
1F8
  5
1F8
331
22E
  5
22E
331
24D
  5
24D
331
28B
  5
28B
331
2A2
  5
2A2
331
2C1
  5
2C1
331
2E0
  5
2E0
331
2FF
  5
2FF
331
316
  5
316
331
335
  5
335
331
354
  5
354
331
373
  5
373
331
563
  5
563
331
525
  5
525
331
4EF
  5
4EF
331
41E
  5
41E
331
43D
  5
43D
331
45C
  5
45C
331
492
  5
492
331
4B1
  5
4B1
331
4D0
  5
4D0
331
506
  5
506
331
544
  5
544
331
1A3
  5
1A3
331
8F8
  5
8F8
331
8D9
  5
8D9
331
28C
  5
28C
331
24E
  5
24E
331
1F9
  5
1F9
331
1BB
  5
1BB
331
1DA
  5
1DA
331
218
  5
218
331
22F
  5
22F
331
26D
  5
26D
331
2A3
  5
2A3
331
2C2
  5
2C2
331
2E1
  5
2E1
331
300
  5
300
331
317
  5
317
331
336
  5
336
331
355
  5
355
331
374
  5
374
331
545
  5
545
331
507
  5
507
331
4D1
  5
4D1
331
41F
  5
41F
331
43E
  5
43E
331
45D
  5
45D
331
493
  5
493
331
4B2
  5
4B2
331
526
  5
526
331
564
  5
564
331
1A4
  5
1A4
331
8F9
  5
8F9
331
8DA
  5
8DA
331
918
  5
918
331
26E
  5
26E
331
219
  5
219
331
1DB
  5
1DB
331
1BC
  5
1BC
331
1FA
  5
1FA
331
230
  5
230
331
24F
  5
24F
331
28D
  5
28D
331
2A4
  5
2A4
331
2C3
  5
2C3
331
2E2
  5
2E2
331
301
  5
301
331
318
  5
318
331
337
  5
337
331
356
  5
356
331
375
  5
375
331
1A5
  5
1A5
331
565
  5
565
331
527
  5
527
331
508
  5
508
331
494
  5
494
331
45E
  5
45E
331
43F
  5
43F
331
4B3
  5
4B3
331
4D2
  5
4D2
331
546
  5
546
331
8FA
  5
8FA
331
8DB
  5
8DB
331
7D4
  5
7D4
331
919
  5
919
331
28E
  5
28E
331
231
  5
231
331
1FB
  5
1FB
331
1BD
  5
1BD
331
1DC
  5
1DC
331
21A
  5
21A
331
250
  5
250
331
26F
  5
26F
331
2A5
  5
2A5
331
2C4
  5
2C4
331
2E3
  5
2E3
331
302
  5
302
331
319
  5
319
331
338
  5
338
331
357
  5
357
331
376
  5
376
331
1A6
  5
1A6
331
547
  5
547
331
509
  5
509
331
4B4
  5
4B4
331
495
  5
495
331
45F
  5
45F
331
4D3
  5
4D3
331
528
  5
528
331
566
  5
566
331
8FB
  5
8FB
331
8DC
  5
8DC
331
91A
  5
91A
331
270
  5
270
331
21B
  5
21B
331
1DD
  5
1DD
331
1BE
  5
1BE
331
1FC
  5
1FC
331
232
  5
232
331
251
  5
251
331
28F
  5
28F
331
2A6
  5
2A6
331
2C5
  5
2C5
331
2E4
  5
2E4
331
303
  5
303
331
31A
  5
31A
331
339
  5
339
331
358
  5
358
331
377
  5
377
331
1A7
  5
1A7
331
567
  5
567
331
529
  5
529
331
50A
  5
50A
331
496
  5
496
331
4B5
  5
4B5
331
4D4
  5
4D4
331
548
  5
548
331
8FC
  5
8FC
331
8DD
  5
8DD
331
91B
  5
91B
331
290
  5
290
331
233
  5
233
331
1FD
  5
1FD
331
1BF
  5
1BF
331
1DE
  5
1DE
331
21C
  5
21C
331
252
  5
252
331
271
  5
271
331
2A7
  5
2A7
331
2C6
  5
2C6
331
2E5
  5
2E5
331
304
  5
304
331
31B
  5
31B
331
33A
  5
33A
331
359
  5
359
331
378
  5
378
331
549
  5
549
331
50B
  5
50B
331
4B6
  5
4B6
331
497
  5
497
331
4D5
  5
4D5
331
52A
  5
52A
331
8FD
  5
8FD
331
8DE
  5
8DE
331
91C
  5
91C
331
253
  5
253
331
21D
  5
21D
331
1DF
  5
1DF
331
1C0
  5
1C0
331
1FE
  5
1FE
331
234
  5
234
331
272
  5
272
331
291
  5
291
331
2A8
  5
2A8
331
2C7
  5
2C7
331
2E6
  5
2E6
331
305
  5
305
331
31C
  5
31C
331
33B
  5
33B
331
35A
  5
35A
331
379
  5
379
331
52B
  5
52B
331
4D6
  5
4D6
331
4B7
  5
4B7
331
50C
  5
50C
331
54A
  5
54A
331
8FE
  5
8FE
331
8DF
  5
8DF
331
91D
  5
91D
331
292
  5
292
331
235
  5
235
331
1FF
  5
1FF
331
1C1
  5
1C1
331
1E0
  5
1E0
331
21E
  5
21E
331
254
  5
254
331
273
  5
273
331
2A9
  5
2A9
331
2C8
  5
2C8
331
2E7
  5
2E7
331
306
  5
306
331
31D
  5
31D
331
33C
  5
33C
331
35B
  5
35B
331
37A
  5
37A
331
54B
  5
54B
331
50D
  5
50D
331
4D7
  5
4D7
331
52C
  5
52C
331
8FF
  5
8FF
331
8E0
  5
8E0
331
91E
  5
91E
331
255
  5
255
331
21F
  5
21F
331
1C2
  5
1C2
331
1E1
  5
1E1
331
200
  5
200
331
236
  5
236
331
274
  5
274
331
293
  5
293
331
2AA
  5
2AA
331
2C9
  5
2C9
331
2E8
  5
2E8
331
307
  5
307
331
31E
  5
31E
331
33D
  5
33D
331
35C
  5
35C
331
37B
  5
37B
331
52D
  5
52D
331
50E
  5
50E
331
54C
  5
54C
331
900
  5
900
331
8E1
  5
8E1
331
275
  5
275
331
237
  5
237
331
201
  5
201
331
1C3
  5
1C3
331
1E2
  5
1E2
331
256
  5
256
331
294
  5
294
331
2AB
  5
2AB
331
2CA
  5
2CA
331
2E9
  5
2E9
331
308
  5
308
331
31F
  5
31F
331
33E
  5
33E
331
35D
  5
35D
331
37C
  5
37C
331
54D
  5
54D
331
50F
  5
50F
331
52E
  5
52E
331
901
  5
901
331
8E2
  5
8E2
331
35E
  5
35E
331
309
  5
309
331
2CB
  5
2CB
331
257
  5
257
331
238
  5
238
331
1C4
  5
1C4
331
1E3
  5
1E3
331
202
  5
202
331
276
  5
276
331
295
  5
295
331
2AC
  5
2AC
331
2EA
  5
2EA
331
320
  5
320
331
33F
  5
33F
331
37D
  5
37D
331
52F
  5
52F
331
54E
  5
54E
331
902
  5
902
331
8E3
  5
8E3
331
37E
  5
37E
331
321
  5
321
331
2EB
  5
2EB
331
277
  5
277
331
239
  5
239
331
1E4
  5
1E4
331
1C5
  5
1C5
331
203
  5
203
331
258
  5
258
331
296
  5
296
331
2AD
  5
2AD
331
2CC
  5
2CC
331
30A
  5
30A
331
340
  5
340
331
35F
  5
35F
331
54F
  5
54F
331
8E4
  5
8E4
331
903
  5
903
331
341
  5
341
331
30B
  5
30B
331
2CD
  5
2CD
331
259
  5
259
331
23A
  5
23A
331
1C6
  5
1C6
331
1E5
  5
1E5
331
204
  5
204
331
278
  5
278
331
297
  5
297
331
2AE
  5
2AE
331
2EC
  5
2EC
331
322
  5
322
331
360
  5
360
331
37F
  5
37F
331
904
  5
904
331
8E5
  5
8E5
331
380
  5
380
331
323
  5
323
331
2ED
  5
2ED
331
279
  5
279
331
23B
  5
23B
331
1E6
  5
1E6
331
1C7
  5
1C7
331
205
  5
205
331
25A
  5
25A
331
2AF
  5
2AF
331
2CE
  5
2CE
331
30C
  5
30C
331
342
  5
342
331
361
  5
361
331
905
  5
905
331
8E6
  5
8E6
331
381
  5
381
331
343
  5
343
331
30D
  5
30D
331
2B0
  5
2B0
331
25B
  5
25B
331
206
  5
206
331
1E7
  5
1E7
331
23C
  5
23C
331
27A
  5
27A
331
2CF
  5
2CF
331
2EE
  5
2EE
331
324
  5
324
331
362
  5
362
331
568
  5
568
331
906
  5
906
331
8E7
  5
8E7
331
363
  5
363
331
30E
  5
30E
331
2EF
  5
2EF
331
27B
  5
27B
331
23D
  5
23D
331
207
  5
207
331
25C
  5
25C
331
2B1
  5
2B1
331
2D0
  5
2D0
331
325
  5
325
331
344
  5
344
331
382
  5
382
331
569
  5
569
331
588
  5
588
331
907
  5
907
331
383
  5
383
331
345
  5
345
331
30F
  5
30F
331
2B2
  5
2B2
331
25D
  5
25D
331
23E
  5
23E
331
27C
  5
27C
331
2D1
  5
2D1
331
2F0
  5
2F0
331
326
  5
326
331
364
  5
364
331
589
  5
589
331
56A
  5
56A
331
5A8
  5
5A8
331
365
  5
365
331
327
  5
327
331
2D2
  5
2D2
331
27D
  5
27D
331
23F
  5
23F
331
25E
  5
25E
331
2B3
  5
2B3
331
2F1
  5
2F1
331
346
  5
346
331
384
  5
384
331
5A9
  5
5A9
331
56B
  5
56B
331
58A
  5
58A
331
5C8
  5
5C8
331
385
  5
385
331
347
  5
347
331
328
  5
328
331
2B4
  5
2B4
331
25F
  5
25F
331
27E
  5
27E
331
2D3
  5
2D3
331
2F2
  5
2F2
331
366
  5
366
331
5E0
  5
5E0
331
5C9
  5
5C9
331
58B
  5
58B
331
56C
  5
56C
331
5AA
  5
5AA
331
367
  5
367
331
329
  5
329
331
2D4
  5
2D4
331
27F
  5
27F
331
2B5
  5
2B5
331
2F3
  5
2F3
331
348
  5
348
331
386
  5
386
331
5E1
  5
5E1
331
5AB
  5
5AB
331
56D
  5
56D
331
58C
  5
58C
331
5CA
  5
5CA
331
600
  5
600
331
387
  5
387
331
349
  5
349
331
2F4
  5
2F4
331
2B6
  5
2B6
331
2D5
  5
2D5
331
32A
  5
32A
331
368
  5
368
331
601
  5
601
331
5E2
  5
5E2
331
5CB
  5
5CB
331
58D
  5
58D
331
56E
  5
56E
331
5AC
  5
5AC
331
620
  5
620
331
369
  5
369
331
32B
  5
32B
331
2D6
  5
2D6
331
2B7
  5
2B7
331
2F5
  5
2F5
331
34A
  5
34A
331
640
  5
640
331
5E3
  5
5E3
331
5AD
  5
5AD
331
56F
  5
56F
331
58E
  5
58E
331
5CC
  5
5CC
331
602
  5
602
331
621
  5
621
331
34B
  5
34B
331
2F6
  5
2F6
331
2D7
  5
2D7
331
32C
  5
32C
331
36A
  5
36A
331
658
  5
658
331
603
  5
603
331
5E4
  5
5E4
331
5CD
  5
5CD
331
570
  5
570
331
58F
  5
58F
331
5AE
  5
5AE
331
622
  5
622
331
641
  5
641
331
36B
  5
36B
331
32D
  5
32D
331
2F7
  5
2F7
331
34C
  5
34C
331
659
  5
659
331
623
  5
623
331
5E5
  5
5E5
331
5AF
  5
5AF
331
571
  5
571
331
590
  5
590
331
5CE
  5
5CE
331
604
  5
604
331
642
  5
642
331
678
  5
678
331
34D
  5
34D
331
32E
  5
32E
331
36C
  5
36C
331
679
  5
679
331
65A
  5
65A
331
605
  5
605
331
5CF
  5
5CF
331
572
  5
572
331
591
  5
591
331
5B0
  5
5B0
331
5E6
  5
5E6
331
624
  5
624
331
643
  5
643
331
698
  5
698
331
36D
  5
36D
331
32F
  5
32F
331
34E
  5
34E
331
699
  5
699
331
65B
  5
65B
331
625
  5
625
331
5E7
  5
5E7
331
5B1
  5
5B1
331
592
  5
592
331
573
  5
573
331
5D0
  5
5D0
331
606
  5
606
331
644
  5
644
331
67A
  5
67A
331
6B8
  5
6B8
331
34F
  5
34F
331
36E
  5
36E
331
6B9
  5
6B9
331
67B
  5
67B
331
645
  5
645
331
607
  5
607
331
5D1
  5
5D1
331
574
  5
574
331
593
  5
593
331
5B2
  5
5B2
331
5E8
  5
5E8
331
626
  5
626
331
65C
  5
65C
331
69A
  5
69A
331
6D0
  5
6D0
331
36F
  5
36F
331
6D1
  5
6D1
331
69B
  5
69B
331
65D
  5
65D
331
627
  5
627
331
5E9
  5
5E9
331
594
  5
594
331
575
  5
575
331
5B3
  5
5B3
331
5D2
  5
5D2
331
608
  5
608
331
646
  5
646
331
67C
  5
67C
331
6BA
  5
6BA
331
6F0
  5
6F0
331
6F1
  5
6F1
331
6BB
  5
6BB
331
65E
  5
65E
331
647
  5
647
331
609
  5
609
331
5D3
  5
5D3
331
5B4
  5
5B4
331
576
  5
576
331
595
  5
595
331
5EA
  5
5EA
331
628
  5
628
331
67D
  5
67D
331
69C
  5
69C
331
6D2
  5
6D2
331
710
  5
710
331
711
  5
711
331
6D3
  5
6D3
331
69D
  5
69D
331
65F
  5
65F
331
629
  5
629
331
5EB
  5
5EB
331
596
  5
596
331
577
  5
577
331
5B5
  5
5B5
331
5D4
  5
5D4
331
60A
  5
60A
331
648
  5
648
331
67E
  5
67E
331
6BC
  5
6BC
331
6F2
  5
6F2
331
730
  5
730
331
388
  5
388
331
6F3
  5
6F3
331
6BD
  5
6BD
331
660
  5
660
331
649
  5
649
331
60B
  5
60B
331
5B6
  5
5B6
331
578
  5
578
331
597
  5
597
331
5D5
  5
5D5
331
5EC
  5
5EC
331
62A
  5
62A
331
67F
  5
67F
331
69E
  5
69E
331
6D4
  5
6D4
331
712
  5
712
331
389
  5
389
331
3A8
  5
3A8
331
713
  5
713
331
6D5
  5
6D5
331
680
  5
680
331
661
  5
661
331
62B
  5
62B
331
5ED
  5
5ED
331
5D6
  5
5D6
331
598
  5
598
331
579
  5
579
331
5B7
  5
5B7
331
60C
  5
60C
331
64A
  5
64A
331
69F
  5
69F
331
6BE
  5
6BE
331
6F4
  5
6F4
331
3A9
  5
3A9
331
38A
  5
38A
331
3C8
  5
3C8
331
6F5
  5
6F5
331
6BF
  5
6BF
331
662
  5
662
331
64B
  5
64B
331
60D
  5
60D
331
5B8
  5
5B8
331
57A
  5
57A
331
599
  5
599
331
5D7
  5
5D7
331
5EE
  5
5EE
331
62C
  5
62C
331
681
  5
681
331
6A0
  5
6A0
331
6D6
  5
6D6
331
714
  5
714
331
3C9
  5
3C9
331
38B
  5
38B
331
3AA
  5
3AA
331
3E8
  5
3E8
331
715
  5
715
331
6D7
  5
6D7
331
682
  5
682
331
663
  5
663
331
62D
  5
62D
331
5EF
  5
5EF
331
5D8
  5
5D8
331
59A
  5
59A
331
57B
  5
57B
331
5B9
  5
5B9
331
60E
  5
60E
331
64C
  5
64C
331
6A1
  5
6A1
331
6C0
  5
6C0
331
6F6
  5
6F6
331
3E9
  5
3E9
331
3AB
  5
3AB
331
38C
  5
38C
331
3CA
  5
3CA
331
400
  5
400
331
735
  5
735
331
6F7
  5
6F7
331
6A2
  5
6A2
331
664
  5
664
331
64D
  5
64D
331
5F0
  5
5F0
331
5BA
  5
5BA
331
57C
  5
57C
331
59B
  5
59B
331
5D9
  5
5D9
331
60F
  5
60F
331
62E
  5
62E
331
683
  5
683
331
6C1
  5
6C1
331
6D8
  5
6D8
331
716
  5
716
331
401
  5
401
331
3CB
  5
3CB
331
38D
  5
38D
331
3AC
  5
3AC
331
3EA
  5
3EA
331
420
  5
420
331
717
  5
717
331
6D9
  5
6D9
331
684
  5
684
331
665
  5
665
331
62F
  5
62F
331
5DA
  5
5DA
331
59C
  5
59C
331
57D
  5
57D
331
5BB
  5
5BB
331
5F1
  5
5F1
331
610
  5
610
331
64E
  5
64E
331
6A3
  5
6A3
331
6C2
  5
6C2
331
6F8
  5
6F8
331
421
  5
421
331
3EB
  5
3EB
331
38E
  5
38E
331
3AD
  5
3AD
331
3CC
  5
3CC
331
402
  5
402
331
440
  5
440
331
6F9
  5
6F9
331
6A4
  5
6A4
331
666
  5
666
331
64F
  5
64F
331
5F2
  5
5F2
331
5BC
  5
5BC
331
57E
  5
57E
331
59D
  5
59D
331
5DB
  5
5DB
331
611
  5
611
331
630
  5
630
331
685
  5
685
331
6C3
  5
6C3
331
6DA
  5
6DA
331
718
  5
718
331
441
  5
441
331
403
  5
403
331
3CD
  5
3CD
331
38F
  5
38F
331
3AE
  5
3AE
331
3EC
  5
3EC
331
422
  5
422
331
460
  5
460
331
719
  5
719
331
6C4
  5
6C4
331
686
  5
686
331
612
  5
612
331
5DC
  5
5DC
331
59E
  5
59E
331
57F
  5
57F
331
5BD
  5
5BD
331
5F3
  5
5F3
331
631
  5
631
331
650
  5
650
331
667
  5
667
331
6A5
  5
6A5
331
6DB
  5
6DB
331
6FA
  5
6FA
331
478
  5
478
331
423
  5
423
331
3ED
  5
3ED
331
390
  5
390
331
3AF
  5
3AF
331
3CE
  5
3CE
331
404
  5
404
331
442
  5
442
331
461
  5
461
331
6FB
  5
6FB
331
6A6
  5
6A6
331
651
  5
651
331
5F4
  5
5F4
331
5BE
  5
5BE
331
580
  5
580
331
59F
  5
59F
331
5DD
  5
5DD
331
613
  5
613
331
632
  5
632
331
668
  5
668
331
687
  5
687
331
6C5
  5
6C5
331
6DC
  5
6DC
331
71A
  5
71A
331
498
  5
498
331
443
  5
443
331
405
  5
405
331
3B0
  5
3B0
331
391
  5
391
331
3CF
  5
3CF
331
3EE
  5
3EE
331
424
  5
424
331
462
  5
462
331
479
  5
479
331
71B
  5
71B
331
6C6
  5
6C6
331
688
  5
688
331
614
  5
614
331
5DE
  5
5DE
331
581
  5
581
331
5A0
  5
5A0
331
5BF
  5
5BF
331
5F5
  5
5F5
331
633
  5
633
331
652
  5
652
331
669
  5
669
331
6A7
  5
6A7
331
6DD
  5
6DD
331
6FC
  5
6FC
331
4B8
  5
4B8
331
463
  5
463
331
425
  5
425
331
3EF
  5
3EF
331
392
  5
392
331
3B1
  5
3B1
331
3D0
  5
3D0
331
406
  5
406
331
444
  5
444
331
47A
  5
47A
331
499
  5
499
331
6DE
  5
6DE
331
6A8
  5
6A8
331
634
  5
634
331
5DF
  5
5DF
331
582
  5
582
331
5A1
  5
5A1
331
5F6
  5
5F6
331
615
  5
615
331
653
  5
653
331
66A
  5
66A
331
689
  5
689
331
6C7
  5
6C7
331
6FD
  5
6FD
331
71C
  5
71C
331
4D8
  5
4D8
331
49A
  5
49A
331
445
  5
445
331
407
  5
407
331
3B2
  5
3B2
331
393
  5
393
331
3D1
  5
3D1
331
3F0
  5
3F0
331
426
  5
426
331
464
  5
464
331
47B
  5
47B
331
4B9
  5
4B9
331
71D
  5
71D
331
6C8
  5
6C8
331
68A
  5
68A
331
616
  5
616
331
5F7
  5
5F7
331
583
  5
583
331
5A2
  5
5A2
331
5C1
  5
5C1
331
635
  5
635
331
654
  5
654
331
66B
  5
66B
331
6A9
  5
6A9
331
6DF
  5
6DF
331
6FE
  5
6FE
331
4F0
  5
4F0
331
4BA
  5
4BA
331
465
  5
465
331
427
  5
427
331
3D2
  5
3D2
331
394
  5
394
331
3B3
  5
3B3
331
3F1
  5
3F1
331
408
  5
408
331
446
  5
446
331
47C
  5
47C
331
49B
  5
49B
331
4D9
  5
4D9
331
6E0
  5
6E0
331
6AA
  5
6AA
331
636
  5
636
331
5F8
  5
5F8
331
5C2
  5
5C2
331
5A3
  5
5A3
331
584
  5
584
331
617
  5
617
331
655
  5
655
331
66C
  5
66C
331
68B
  5
68B
331
6C9
  5
6C9
331
6FF
  5
6FF
331
71E
  5
71E
331
4DA
  5
4DA
331
49C
  5
49C
331
447
  5
447
331
409
  5
409
331
3B4
  5
3B4
331
395
  5
395
331
3D3
  5
3D3
331
3F2
  5
3F2
331
428
  5
428
331
466
  5
466
331
47D
  5
47D
331
4BB
  5
4BB
331
4F1
  5
4F1
331
510
  5
510
331
700
  5
700
331
6CA
  5
6CA
331
68C
  5
68C
331
618
  5
618
331
5F9
  5
5F9
331
585
  5
585
331
5A4
  5
5A4
331
5C3
  5
5C3
331
637
  5
637
331
656
  5
656
331
66D
  5
66D
331
6AB
  5
6AB
331
6E1
  5
6E1
331
71F
  5
71F
331
4F2
  5
4F2
331
4BC
  5
4BC
331
467
  5
467
331
429
  5
429
331
3D4
  5
3D4
331
396
  5
396
331
3B5
  5
3B5
331
3F3
  5
3F3
331
40A
  5
40A
331
448
  5
448
331
47E
  5
47E
331
49D
  5
49D
331
4DB
  5
4DB
331
511
  5
511
331
530
  5
530
331
6E2
  5
6E2
331
6AC
  5
6AC
331
638
  5
638
331
5FA
  5
5FA
331
5A5
  5
5A5
331
586
  5
586
331
5C4
  5
5C4
331
619
  5
619
331
657
  5
657
331
66E
  5
66E
331
68D
  5
68D
331
6CB
  5
6CB
331
701
  5
701
331
720
  5
720
331
512
  5
512
331
4DC
  5
4DC
331
49E
  5
49E
331
449
  5
449
331
3F4
  5
3F4
331
3B6
  5
3B6
331
397
  5
397
331
3D5
  5
3D5
331
40B
  5
40B
331
42A
  5
42A
331
468
  5
468
331
47F
  5
47F
331
4BD
  5
4BD
331
4F3
  5
4F3
331
531
  5
531
331
550
  5
550
331
702
  5
702
331
6CC
  5
6CC
331
66F
  5
66F
331
61A
  5
61A
331
5C5
  5
5C5
331
587
  5
587
331
5A6
  5
5A6
331
5FB
  5
5FB
331
639
  5
639
331
68E
  5
68E
331
6AD
  5
6AD
331
6E3
  5
6E3
331
721
  5
721
331
1A8
  5
1A8
331
551
  5
551
331
4F4
  5
4F4
331
4BE
  5
4BE
331
469
  5
469
331
42B
  5
42B
331
3D6
  5
3D6
331
398
  5
398
331
3B7
  5
3B7
331
3F5
  5
3F5
331
40C
  5
40C
331
44A
  5
44A
331
480
  5
480
331
49F
  5
49F
331
4DD
  5
4DD
331
513
  5
513
331
532
  5
532
331
722
  5
722
331
6CD
  5
6CD
331
6AE
  5
6AE
331
63A
  5
63A
331
5FC
  5
5FC
331
5A7
  5
5A7
331
5C6
  5
5C6
331
61B
  5
61B
331
670
  5
670
331
68F
  5
68F
331
6E4
  5
6E4
331
703
  5
703
331
7B9
  5
7B9
331
1C8
  5
1C8
331
1A9
  5
1A9
331
514
  5
514
331
4DE
  5
4DE
331
481
  5
481
331
44B
  5
44B
331
3F6
  5
3F6
331
3B8
  5
3B8
331
399
  5
399
331
3D7
  5
3D7
331
40D
  5
40D
331
42C
  5
42C
331
46A
  5
46A
331
4A0
  5
4A0
331
4BF
  5
4BF
331
4F5
  5
4F5
331
533
  5
533
331
552
  5
552
331
704
  5
704
331
6CE
  5
6CE
331
671
  5
671
331
61C
  5
61C
331
5C7
  5
5C7
331
5FD
  5
5FD
331
63B
  5
63B
331
690
  5
690
331
6AF
  5
6AF
331
6E5
  5
6E5
331
723
  5
723
331
1E8
  5
1E8
331
1AA
  5
1AA
331
1C9
  5
1C9
331
534
  5
534
331
4F6
  5
4F6
331
4C0
  5
4C0
331
46B
  5
46B
331
40E
  5
40E
331
3D8
  5
3D8
331
39A
  5
39A
331
3B9
  5
3B9
331
3F7
  5
3F7
331
42D
  5
42D
331
44C
  5
44C
331
482
  5
482
331
4A1
  5
4A1
331
4DF
  5
4DF
331
515
  5
515
331
553
  5
553
331
724
  5
724
331
6CF
  5
6CF
331
691
  5
691
331
63C
  5
63C
331
5FE
  5
5FE
331
61D
  5
61D
331
672
  5
672
331
6B0
  5
6B0
331
6E6
  5
6E6
331
705
  5
705
331
8E8
  5
8E8
331
208
  5
208
331
1CA
  5
1CA
331
1AB
  5
1AB
331
1E9
  5
1E9
331
516
  5
516
331
4E0
  5
4E0
331
483
  5
483
331
44D
  5
44D
331
3F8
  5
3F8
331
3BA
  5
3BA
331
39B
  5
39B
331
3D9
  5
3D9
331
40F
  5
40F
331
42E
  5
42E
331
46C
  5
46C
331
4A2
  5
4A2
331
4C1
  5
4C1
331
4F7
  5
4F7
331
535
  5
535
331
554
  5
554
331
908
  5
908
331
706
  5
706
331
6E7
  5
6E7
331
673
  5
673
331
61E
  5
61E
331
5FF
  5
5FF
331
63D
  5
63D
331
692
  5
692
331
6B1
  5
6B1
331
725
  5
725
331
8E9
  5
8E9
331
220
  5
220
331
1EA
  5
1EA
331
1AC
  5
1AC
331
1CB
  5
1CB
331
209
  5
209
331
536
  5
536
331
4F8
  5
4F8
331
4A3
  5
4A3
331
39C
  5
39C
331
3BB
  5
3BB
331
3DA
  5
3DA
331
3F9
  5
3F9
331
410
  5
410
331
42F
  5
42F
331
44E
  5
44E
331
46D
  5
46D
331
484
  5
484
331
4C2
  5
4C2
331
4E1
  5
4E1
331
517
  5
517
331
555
  5
555
331
909
  5
909
331
726
  5
726
331
6E8
  5
6E8
331
693
  5
693
331
63E
  5
63E
331
61F
  5
61F
331
674
  5
674
331
6B2
  5
6B2
331
707
  5
707
331
8EA
  5
8EA
331
20A
  5
20A
331
1CC
  5
1CC
331
1AD
  5
1AD
331
1EB
  5
1EB
331
221
  5
221
331
240
  5
240
331
556
  5
556
331
518
  5
518
331
4E2
  5
4E2
331
39D
  5
39D
331
3BC
  5
3BC
331
3DB
  5
3DB
331
3FA
  5
3FA
331
411
  5
411
331
430
  5
430
331
44F
  5
44F
331
46E
  5
46E
331
485
  5
485
331
4A4
  5
4A4
331
4C3
  5
4C3
331
4F9
  5
4F9
331
537
  5
537
331
90A
  5
90A
331
708
  5
708
331
6B3
  5
6B3
331
675
  5
675
331
63F
  5
63F
331
694
  5
694
331
6E9
  5
6E9
331
727
  5
727
331
8EB
  5
8EB
331
222
  5
222
331
1EC
  5
1EC
331
1AE
  5
1AE
331
1CD
  5
1CD
331
20B
  5
20B
331
241
  5
241
331
260
  5
260
331
538
  5
538
331
4FA
  5
4FA
331
4A5
  5
4A5
331
39E
  5
39E
331
3BD
  5
3BD
331
3DC
  5
3DC
331
3FB
  5
3FB
331
412
  5
412
331
431
  5
431
331
450
  5
450
331
46F
  5
46F
331
486
  5
486
331
4C4
  5
4C4
331
4E3
  5
4E3
331
519
  5
519
331
557
  5
557
331
90B
  5
90B
331
728
  5
728
331
6EA
  5
6EA
331
695
  5
695
331
676
  5
676
331
6B4
  5
6B4
331
709
  5
709
331
8EC
  5
8EC
331
242
  5
242
331
20C
  5
20C
331
1CE
  5
1CE
331
1AF
  5
1AF
331
1ED
  5
1ED
331
223
  5
223
331
261
  5
261
331
280
  5
280
331
558
  5
558
331
51A
  5
51A
331
4C5
  5
4C5
331
39F
  5
39F
331
3BE
  5
3BE
331
3DD
  5
3DD
331
3FC
  5
3FC
331
413
  5
413
331
432
  5
432
331
451
  5
451
331
470
  5
470
331
487
  5
487
331
4A6
  5
4A6
331
4E4
  5
4E4
331
4FB
  5
4FB
331
539
  5
539
331
90C
  5
90C
331
70A
  5
70A
331
6B5
  5
6B5
331
677
  5
677
331
696
  5
696
331
6EB
  5
6EB
331
729
  5
729
331
8ED
  5
8ED
331
281
  5
281
331
224
  5
224
331
1EE
  5
1EE
331
1B0
  5
1B0
331
1CF
  5
1CF
331
20D
  5
20D
331
243
  5
243
331
262
  5
262
331
298
  5
298
331
53A
  5
53A
331
4FC
  5
4FC
331
4A7
  5
4A7
331
3A0
  5
3A0
331
3BF
  5
3BF
331
3DE
  5
3DE
331
3FD
  5
3FD
331
414
  5
414
331
433
  5
433
331
452
  5
452
331
471
  5
471
331
488
  5
488
331
4C6
  5
4C6
331
4E5
  5
4E5
331
51B
  5
51B
331
559
  5
559
331
199
  5
199
331
90D
  5
90D
331
72A
  5
72A
331
6EC
  5
6EC
331
697
  5
697
331
6B6
  5
6B6
331
70B
  5
70B
331
8EE
  5
8EE
331
244
  5
244
331
20E
  5
20E
331
1B1
  5
1B1
331
1D0
  5
1D0
331
1EF
  5
1EF
331
225
  5
225
331
263
  5
263
331
282
  5
282
331
299
  5
299
331
2B8
  5
2B8
331
55A
  5
55A
331
51C
  5
51C
331
4C7
  5
4C7
331
3A1
  5
3A1
331
3C0
  5
3C0
331
3DF
  5
3DF
331
3FE
  5
3FE
331
415
  5
415
331
434
  5
434
331
453
  5
453
331
472
  5
472
331
489
  5
489
331
4A8
  5
4A8
331
4E6
  5
4E6
331
4FD
  5
4FD
331
53B
  5
53B
331
19A
  5
19A
331
90E
  5
90E
331
70C
  5
70C
331
6B7
  5
6B7
331
6ED
  5
6ED
331
72B
  5
72B
331
8EF
  5
8EF
331
264
  5
264
331
226
  5
226
331
1F0
  5
1F0
331
1B2
  5
1B2
331
1D1
  5
1D1
331
20F
  5
20F
331
245
  5
245
331
283
  5
283
331
29A
  5
29A
331
2B9
  5
2B9
331
2D8
  5
2D8
331
53C
  5
53C
331
4E7
  5
4E7
331
4A9
  5
4A9
331
3A2
  5
3A2
331
3C1
  5
3C1
331
3E0
  5
3E0
331
3FF
  5
3FF
331
416
  5
416
331
435
  5
435
331
454
  5
454
331
473
  5
473
331
48A
  5
48A
331
4C8
  5
4C8
331
4FE
  5
4FE
331
51D
  5
51D
331
55B
  5
55B
331
19B
  5
19B
331
90F
  5
90F
331
8F0
  5
8F0
331
72C
  5
72C
331
6EE
  5
6EE
331
70D
  5
70D
331
8D1
  5
8D1
331
246
  5
246
331
210
  5
210
331
1B3
  5
1B3
331
1D2
  5
1D2
331
1F1
  5
1F1
331
227
  5
227
331
265
  5
265
331
284
  5
284
331
29B
  5
29B
331
2BA
  5
2BA
331
2D9
  5
2D9
331
2F8
  5
2F8
331
55C
  5
55C
331
51E
  5
51E
331
4C9
  5
4C9
331
3A3
  5
3A3
331
3C2
  5
3C2
331
3E1
  5
3E1
331
417
  5
417
331
436
  5
436
331
455
  5
455
331
474
  5
474
331
48B
  5
48B
331
4AA
  5
4AA
331
4E8
  5
4E8
331
4FF
  5
4FF
331
53D
  5
53D
331
19C
  5
19C
331
910
  5
910
331
8F1
  5
8F1
331
6EF
  5
6EF
331
70E
  5
70E
331
72D
  5
72D
331
8D2
  5
8D2
  0
DIMASSOC
  5
7D2
102
{ACAD_REACTORS
330
7C7
102
}
330
7C7
100
AcDbDimAssoc
330
7B9
 90
        3
 70
     0
 71
     0
  1
AcDbOsnapPointRef
 72
     1
331
3E5
 73
     2
 91
        0
 40
1.0
 10
0.0
 20
0.0
 30
2.000000000000000E+50
 75
     0
  1
AcDbOsnapPointRef
 72
    13
331
3FD
 73
     2
 91
        0
 40
0.0
 10
0.0
 20
0.0
 30
2.000000000000000E+50
 75
     0
  0
DIMASSOC
  5
7ED
102
{ACAD_REACTORS
330
7E2
102
}
330
7E2
100
AcDbDimAssoc
330
7D4
 90
        3
 70
     0
 71
     0
  1
AcDbOsnapPointRef
 72
     1
331
30D
 73
     2
 91
        0
 40
1.0
 10
0.0
 20
0.0
 30
2.000000000000000E+50
 75
     0
  1
AcDbOsnapPointRef
 72
    13
331
260
 73
     2
 91
        0
 40
0.0
 10
0.0
 20
0.0
 30
2.000000000000000E+50
 75
     0
  0
LAYOUT
  5
59
102
{ACAD_XDICTIONARY
360
95F
102
}
102
{ACAD_REACTORS
330
1A
102
}
330
1A
100
AcDbPlotSettings
  1

  2
None
  4

  6

 40
0.0
 41
0.0
 42
0.0
 43
0.0
 44
0.0
 45
0.0
 46
0.0
 47
0.0
 48
0.0
 49
0.0
140
0.0
141
0.0
142
1.0
143
1.0
 70
   688
 72
     0
 73
     0
 74
     5
  7

 75
    16
147
1.0
148
0.0
149
0.0
100
AcDbLayout
  1
Layout1
 70
     1
 71
     1
 10
0.0
 20
0.0
 11
12.0
 21
9.0
 12
0.0
 22
0.0
 32
0.0
 14
0.0
 24
0.0
 34
0.0
 15
0.0
 25
0.0
 35
0.0
146
0.0
 13
0.0
 23
0.0
 33
0.0
 16
1.0
 26
0.0
 36
0.0
 17
0.0
 27
1.0
 37
0.0
 76
     0
330
58
  0
LAYOUT
  5
5E
102
{ACAD_XDICTIONARY
360
961
102
}
102
{ACAD_REACTORS
330
1A
102
}
330
1A
100
AcDbPlotSettings
  1

  2
None
  4

  6

 40
0.0
 41
0.0
 42
0.0
 43
0.0
 44
0.0
 45
0.0
 46
0.0
 47
0.0
 48
0.0
 49
0.0
140
0.0
141
0.0
142
1.0
143
1.0
 70
   688
 72
     0
 73
     0
 74
     5
  7

 75
    16
147
1.0
148
0.0
149
0.0
100
AcDbLayout
  1
Layout2
 70
     1
 71
     2
 10
0.0
 20
0.0
 11
12.0
 21
9.0
 12
0.0
 22
0.0
 32
0.0
 14
0.0
 24
0.0
 34
0.0
 15
0.0
 25
0.0
 35
0.0
146
0.0
 13
0.0
 23
0.0
 33
0.0
 16
1.0
 26
0.0
 36
0.0
 17
0.0
 27
1.0
 37
0.0
 76
     0
330
5D
  0
LAYOUT
  5
22
102
{ACAD_XDICTIONARY
360
95D
102
}
102
{ACAD_REACTORS
330
1A
102
}
330
1A
100
AcDbPlotSettings
  1

  2
none_device
  4
ANSI_A_(8.50_x_11.00_Inches)
  6

 40
6.349999904632568
 41
19.04999923706055
 42
6.350006103515625
 43
19.04998779296875
 44
215.8999938964844
 45
279.3999938964844
 46
0.0
 47
0.0
 48
0.0
 49
0.0
140
0.0
141
0.0
142
1.0
143
2.584895464708373
 70
 11952
 72
     0
 73
     1
 74
     0
  7

 75
     0
147
0.3868628397755418
148
0.0
149
0.0
100
AcDbLayout
  1
Model
 70
     1
 71
     0
 10
0.0
 20
0.0
 11
12.0
 21
9.0
 12
0.0
 22
0.0
 32
0.0
 14
0.0
 24
0.0
 34
0.0
 15
0.0
 25
0.0
 35
0.0
146
0.0
 13
0.0
 23
0.0
 33
0.0
 16
1.0
 26
0.0
 36
0.0
 17
0.0
 27
1.0
 37
0.0
 76
     0
330
1F
  0
MLINESTYLE
  5
18
102
{ACAD_REACTORS
330
17
102
}
330
17
100
AcDbMlineStyle
  2
STANDARD
 70
     0
  3

 62
   256
 51
90.0
 52
90.0
 71
     2
 49
0.5
 62
   256
  6
BYLAYER
 49
-0.5
 62
   256
  6
BYLAYER
  0
ACDBPLACEHOLDER
  5
F
102
{ACAD_REACTORS
330
E
102
}
330
E
  0
TABLESTYLE
  5
87
102
{ACAD_REACTORS
330
86
102
}
330
86
100
AcDbTableStyle
  3
Standard
 70
     0
 71
     0
 40
0.06
 41
0.06
280
     0
281
     0
  7
Standard
140
0.18
170
     2
 62
     0
 63
     7
283
     0
274
    -2
284
     1
 64
     0
275
    -2
285
     1
 65
     0
276
    -2
286
     1
 66
     0
277
    -2
287
     1
 67
     0
278
    -2
288
     1
 68
     0
279
    -2
289
     1
 69
     0
  7
Standard
140
0.25
170
     5
 62
     0
 63
     7
283
     0
274
    -2
284
     1
 64
     0
275
    -2
285
     1
 65
     0
276
    -2
286
     1
 66
     0
277
    -2
287
     1
 67
     0
278
    -2
288
     1
 68
     0
279
    -2
289
     1
 69
     0
  7
Standard
140
0.18
170
     5
 62
     0
 63
     7
283
     0
274
    -2
284
     1
 64
     0
275
    -2
285
     1
 65
     0
276
    -2
286
     1
 66
     0
277
    -2
287
     1
 67
     0
278
    -2
288
     1
 68
     0
279
    -2
289
     1
 69
     0
  0
DICTIONARYVAR
  5
733
102
{ACAD_REACTORS
330
66
102
}
330
66
100
DictionaryVariables
280
     0
  1
STANDARD
  0
DICTIONARYVAR
  5
67
102
{ACAD_REACTORS
330
66
102
}
330
66
100
DictionaryVariables
280
     0
  1
2
  0
DICTIONARYVAR
  5
6B
102
{ACAD_REACTORS
330
66
102
}
330
66
100
DictionaryVariables
280
     0
  1
1
  0
DICTIONARYVAR
  5
95A
102
{ACAD_REACTORS
330
66
102
}
330
66
100
DictionaryVariables
280
     0
  1

  0
DICTIONARY
  5
95F
330
59
100
AcDbDictionary
280
     1
281
     1
  3
ACAD_XREC_ROUNDTRIP
360
960
  0
DICTIONARY
  5
961
330
5E
100
AcDbDictionary
280
     1
281
     1
  3
ACAD_XREC_ROUNDTRIP
360
962
  0
DICTIONARY
  5
95D
330
22
100
AcDbDictionary
280
     1
281
     1
  3
ACAD_XREC_ROUNDTRIP
360
95E
  0
XRECORD
  5
960
102
{ACAD_REACTORS
330
95F
102
}
330
95F
100
AcDbXrecord
280
     1
102
SHADEPLOT
 70
     0
102
SHADEPLOTRESLEVEL
 70
     2
102
SHADEPLOTCUSTOMDPI
 70
   300
  0
XRECORD
  5
962
102
{ACAD_REACTORS
330
961
102
}
330
961
100
AcDbXrecord
280
     1
102
SHADEPLOT
 70
     0
102
SHADEPLOTRESLEVEL
 70
     2
102
SHADEPLOTCUSTOMDPI
 70
   300
  0
XRECORD
  5
95E
102
{ACAD_REACTORS
330
95D
102
}
330
95D
100
AcDbXrecord
280
     1
102
SHADEPLOT
 70
     0
102
SHADEPLOTRESLEVEL
 70
     2
102
SHADEPLOTCUSTOMDPI
 70
   300
  0
ENDSEC
  0
EOF
