  0
SECTION
  2
HEADER
  9
$ACADVER
  1
AC1015
  9
$ACADMAINTVER
 70
    20
  9
$DWGCODEPAGE
  3
ANSI_1252
  9
$INSBASE
 10
0.0
 20
0.0
 30
0.0
  9
$EXTMIN
 10
-0.075
 20
-0.075
 30
0.0
  9
$EXTMAX
 10
11.075
 20
8.575000000000001
 30
0.0
  9
$LIMMIN
 10
0.0
 20
0.0
  9
$LIMMAX
 10
12.0
 20
9.0
  9
$ORTHOMODE
 70
     0
  9
$REGENMODE
 70
     1
  9
$FILLMODE
 70
     1
  9
$QTEXTMODE
 70
     0
  9
$MIRRTEXT
 70
     0
  9
$LTSCALE
 40
1.0
  9
$ATTMODE
 70
     1
  9
$TEXTSIZE
 40
0.125
  9
$TRACEWID
 40
0.05
  9
$TEXTSTYLE
  7
Standard
  9
$CLAYER
  8
0
  9
$CELTYPE
  6
ByLayer
  9
$CECOLOR
 62
   256
  9
$CELTSCALE
 40
1.0
  9
$DISPSILH
 70
     0
  9
$DIMSCALE
 40
1.0
  9
$DIMASZ
 40
0.1875
  9
$DIMEXO
 40
0.0625
  9
$DIMDLI
 40
0.38
  9
$DIMRND
 40
0.0
  9
$DIMDLE
 40
0.0
  9
$DIMEXE
 40
0.125
  9
$DIMTP
 40
0.0
  9
$DIMTM
 40
0.0
  9
$DIMTXT
 40
0.09
  9
$DIMCEN
 40
0.09
  9
$DIMTSZ
 40
0.0
  9
$DIMTOL
 70
     0
  9
$DIMLIM
 70
     0
  9
$DIMTIH
 70
     1
  9
$DIMTOH
 70
     1
  9
$DIMSE1
 70
     0
  9
$DIMSE2
 70
     0
  9
$DIMTAD
 70
     0
  9
$DIMZIN
 70
     0
  9
$DIMBLK
  1

  9
$DIMASO
 70
     1
  9
$DIMSHO
 70
     1
  9
$DIMPOST
  1

  9
$DIMAPOST
  1
mm
  9
$DIMALT
 70
     1
  9
$DIMALTD
 70
     1
  9
$DIMALTF
 40
25.4
  9
$DIMLFAC
 40
1.0
  9
$DIMTOFL
 70
     0
  9
$DIMTVP
 40
0.0
  9
$DIMTIX
 70
     0
  9
$DIMSOXD
 70
     0
  9
$DIMSAH
 70
     0
  9
$DIMBLK1
  1

  9
$DIMBLK2
  1

  9
$DIMSTYLE
  2
Standard
  9
$DIMCLRD
 70
     0
  9
$DIMCLRE
 70
     0
  9
$DIMCLRT
 70
     0
  9
$DIMTFAC
 40
1.0
  9
$DIMGAP
 40
0.09
  9
$DIMJUST
 70
     0
  9
$DIMSD1
 70
     0
  9
$DIMSD2
 70
     0
  9
$DIMTOLJ
 70
     1
  9
$DIMTZIN
 70
     0
  9
$DIMALTZ
 70
     0
  9
$DIMALTTZ
 70
     0
  9
$DIMUPT
 70
     0
  9
$DIMDEC
 70
     2
  9
$DIMTDEC
 70
     2
  9
$DIMALTU
 70
     2
  9
$DIMALTTD
 70
     1
  9
$DIMTXSTY
  7
Standard
  9
$DIMAUNIT
 70
     0
  9
$DIMADEC
 70
     0
  9
$DIMALTRND
 40
0.0
  9
$DIMAZIN
 70
     0
  9
$DIMDSEP
 70
    46
  9
$DIMATFIT
 70
     3
  9
$DIMFRAC
 70
     0
  9
$DIMLDRBLK
  1

  9
$DIMLUNIT
 70
     2
  9
$DIMLWD
 70
    -2
  9
$DIMLWE
 70
    -2
  9
$DIMTMOVE
 70
     0
  9
$LUNITS
 70
     2
  9
$LUPREC
 70
     4
  9
$SKETCHINC
 40
0.1
  9
$FILLETRAD
 40
0.0
  9
$AUNITS
 70
     0
  9
$AUPREC
 70
     0
  9
$MENU
  1
.
  9
$ELEVATION
 40
0.0
  9
$PELEVATION
 40
0.0
  9
$THICKNESS
 40
0.0
  9
$LIMCHECK
 70
     0
  9
$CHAMFERA
 40
0.0
  9
$CHAMFERB
 40
0.0
  9
$CHAMFERC
 40
0.0
  9
$CHAMFERD
 40
0.0
  9
$SKPOLY
 70
     0
  9
$TDCREATE
 40
2453733.715422650
  9
$TDUCREATE
 40
2453733.923755984
  9
$TDUPDATE
 40
2454294.642790706
  9
$TDUUPDATE
 40
2454294.851124039
  9
$TDINDWG
 40
0.0207647106
  9
$TDUSRTIMER
 40
0.0207647106
  9
$USRTIMER
 70
     1
  9
$ANGBASE
 50
0.0
  9
$ANGDIR
 70
     0
  9
$PDMODE
 70
     2
  9
$PDSIZE
 40
0.075
  9
$PLINEWID
 40
0.0
  9
$SPLFRAME
 70
     0
  9
$SPLINETYPE
 70
     6
  9
$SPLINESEGS
 70
     8
  9
$HANDSEED
  5
642
  9
$SURFTAB1
 70
     6
  9
$SURFTAB2
 70
     6
  9
$SURFTYPE
 70
     6
  9
$SURFU
 70
     6
  9
$SURFV
 70
     6
  9
$UCSBASE
  2

  9
$UCSNAME
  2

  9
$UCSORG
 10
0.0
 20
0.0
 30
0.0
  9
$UCSXDIR
 10
1.0
 20
0.0
 30
0.0
  9
$UCSYDIR
 10
0.0
 20
1.0
 30
0.0
  9
$UCSORTHOREF
  2

  9
$UCSORTHOVIEW
 70
     0
  9
$UCSORGTOP
 10
0.0
 20
0.0
 30
0.0
  9
$UCSORGBOTTOM
 10
0.0
 20
0.0
 30
0.0
  9
$UCSORGLEFT
 10
0.0
 20
0.0
 30
0.0
  9
$UCSORGRIGHT
 10
0.0
 20
0.0
 30
0.0
  9
$UCSORGFRONT
 10
0.0
 20
0.0
 30
0.0
  9
$UCSORGBACK
 10
0.0
 20
0.0
 30
0.0
  9
$PUCSBASE
  2

  9
$PUCSNAME
  2

  9
$PUCSORG
 10
0.0
 20
0.0
 30
0.0
  9
$PUCSXDIR
 10
1.0
 20
0.0
 30
0.0
  9
$PUCSYDIR
 10
0.0
 20
1.0
 30
0.0
  9
$PUCSORTHOREF
  2

  9
$PUCSORTHOVIEW
 70
     0
  9
$PUCSORGTOP
 10
0.0
 20
0.0
 30
0.0
  9
$PUCSORGBOTTOM
 10
0.0
 20
0.0
 30
0.0
  9
$PUCSORGLEFT
 10
0.0
 20
0.0
 30
0.0
  9
$PUCSORGRIGHT
 10
0.0
 20
0.0
 30
0.0
  9
$PUCSORGFRONT
 10
0.0
 20
0.0
 30
0.0
  9
$PUCSORGBACK
 10
0.0
 20
0.0
 30
0.0
  9
$USERI1
 70
     0
  9
$USERI2
 70
     0
  9
$USERI3
 70
     0
  9
$USERI4
 70
     0
  9
$USERI5
 70
     0
  9
$USERR1
 40
0.0
  9
$USERR2
 40
0.0
  9
$USERR3
 40
0.0
  9
$USERR4
 40
0.0
  9
$USERR5
 40
0.0
  9
$WORLDVIEW
 70
     1
  9
$SHADEDGE
 70
     3
  9
$SHADEDIF
 70
    70
  9
$TILEMODE
 70
     1
  9
$MAXACTVP
 70
    64
  9
$PINSBASE
 10
0.0
 20
0.0
 30
0.0
  9
$PLIMCHECK
 70
     0
  9
$PEXTMIN
 10
0.0
 20
0.0
 30
0.0
  9
$PEXTMAX
 10
0.0
 20
0.0
 30
0.0
  9
$PLIMMIN
 10
0.0
 20
0.0
  9
$PLIMMAX
 10
12.0
 20
9.0
  9
$UNITMODE
 70
     0
  9
$VISRETAIN
 70
     1
  9
$PLINEGEN
 70
     0
  9
$PSLTSCALE
 70
     1
  9
$TREEDEPTH
 70
  3020
  9
$CMLSTYLE
  2
Standard
  9
$CMLJUST
 70
     0
  9
$CMLSCALE
 40
1.0
  9
$PROXYGRAPHICS
 70
     1
  9
$MEASUREMENT
 70
     0
  9
$CELWEIGHT
370
    -1
  9
$ENDCAPS
280
     0
  9
$JOINSTYLE
280
     0
  9
$LWDISPLAY
290
     0
  9
$INSUNITS
 70
     1
  9
$HYPERLINKBASE
  1

  9
$STYLESHEET
  1

  9
$XEDIT
290
     1
  9
$CEPSNTYPE
380
     0
  9
$PSTYLEMODE
290
     1
  9
$FINGERPRINTGUID
  2
{FBFA8B9E-087E-4800-8CE8-E21650D1F72A}
  9
$VERSIONGUID
  2
{A3EB2D3D-B21B-4127-B343-707030E1CEDC}
  9
$EXTNAMES
290
     1
  9
$PSVPSCALE
 40
0.0
  9
$OLESTARTUP
290
     0
  0
ENDSEC
  0
SECTION
  2
CLASSES
  0
CLASS
  1
ACDBDICTIONARYWDFLT
  2
AcDbDictionaryWithDefault
  3
ObjectDBX Classes
 90
        0
280
     0
281
     0
  0
CLASS
  1
ACDBPLACEHOLDER
  2
AcDbPlaceHolder
  3
ObjectDBX Classes
 90
        0
280
     0
281
     0
  0
CLASS
  1
LAYOUT
  2
AcDbLayout
  3
ObjectDBX Classes
 90
        0
280
     0
281
     0
  0
CLASS
  1
DICTIONARYVAR
  2
AcDbDictionaryVar
  3
ObjectDBX Classes
 90
        0
280
     0
281
     0
  0
CLASS
  1
TABLESTYLE
  2
AcDbTableStyle
  3
ObjectDBX Classes
 90
     2047
280
     0
281
     0
  0
CLASS
  1
DIMASSOC
  2
AcDbDimAssoc
  3
"AcDbDimAssoc|Product Desc:     AcDim ARX App For Dimension|Company:          Autodesk, Inc.|WEB Address:      www.autodesk.com"
 90
        0
280
     0
281
     0
  0
CLASS
  1
SORTENTSTABLE
  2
AcDbSortentsTable
  3
ObjectDBX Classes
 90
        0
280
     0
281
     0
  0
ENDSEC
  0
SECTION
  2
TABLES
  0
TABLE
  2
VPORT
  5
8
330
0
100
AcDbSymbolTable
 70
     2
  0
VPORT
  5
638
330
8
100
AcDbSymbolTableRecord
100
AcDbViewportTableRecord
  2
*Active
 70
     0
 10
0.0
 20
0.0
 11
1.0
 21
1.0
 12
5.750633342619193
 22
4.549858410319226
 13
0.0
 23
0.0
 14
0.5
 24
0.5
 15
0.5
 25
0.5
 16
0.0
 26
0.0
 36
1.0
 17
0.0
 27
0.0
 37
0.0
 40
9.168672978919378
 41
1.499364675984752
 42
50.0
 43
0.0
 44
0.0
 50
0.0
 51
0.0
 71
     0
 72
  1000
 73
     1
 74
     3
 75
     0
 76
     0
 77
     0
 78
     0
281
     0
 65
     1
110
0.0
120
0.0
130
0.0
111
1.0
121
0.0
131
0.0
112
0.0
122
1.0
132
0.0
 79
     0
146
0.0
  0
ENDTAB
  0
TABLE
  2
LTYPE
  5
5
330
0
100
AcDbSymbolTable
 70
     1
  0
LTYPE
  5
14
330
5
100
AcDbSymbolTableRecord
100
AcDbLinetypeTableRecord
  2
ByBlock
 70
     0
  3

 72
    65
 73
     0
 40
0.0
  0
LTYPE
  5
15
330
5
100
AcDbSymbolTableRecord
100
AcDbLinetypeTableRecord
  2
ByLayer
 70
     0
  3

 72
    65
 73
     0
 40
0.0
  0
LTYPE
  5
16
330
5
100
AcDbSymbolTableRecord
100
AcDbLinetypeTableRecord
  2
Continuous
 70
     0
  3
Solid line
 72
    65
 73
     0
 40
0.0
  0
ENDTAB
  0
TABLE
  2
LAYER
  5
2
330
0
100
AcDbSymbolTable
 70
     6
  0
LAYER
  5
10
330
2
100
AcDbSymbolTableRecord
100
AcDbLayerTableRecord
  2
0
 70
     0
 62
     7
  6
Continuous
370
    -3
390
F
  0
LAYER
  5
8B
330
2
100
AcDbSymbolTableRecord
100
AcDbLayerTableRecord
  2
Title Block
 70
     0
 62
     3
  6
Continuous
370
    -3
390
F
  0
LAYER
  5
8C
330
2
100
AcDbSymbolTableRecord
100
AcDbLayerTableRecord
  2
Dimension
 70
     0
 62
     6
  6
Continuous
370
    -3
390
F
  0
LAYER
  5
8D
330
2
100
AcDbSymbolTableRecord
100
AcDbLayerTableRecord
  2
Text
 70
     0
 62
     1
  6
Continuous
370
    -3
390
F
  0
LAYER
  5
8E
330
2
100
AcDbSymbolTableRecord
100
AcDbLayerTableRecord
  2
Object
 70
     0
 62
     5
  6
Continuous
370
    -3
390
F
  0
LAYER
  5
492
330
2
100
AcDbSymbolTableRecord
100
AcDbLayerTableRecord
  2
Defpoints
 70
     0
 62
     7
  6
Continuous
290
     0
370
    -3
390
F
  0
ENDTAB
  0
TABLE
  2
STYLE
  5
3
330
0
100
AcDbSymbolTable
 70
     1
  0
STYLE
  5
11
330
3
100
AcDbSymbolTableRecord
100
AcDbTextStyleTableRecord
  2
Standard
 70
     0
 40
0.0
 41
1.0
 50
0.0
 71
     0
 42
0.125
  3
technic_.ttf
  4

1001
ACAD
1000
Technic
1071
      514
  0
ENDTAB
  0
TABLE
  2
VIEW
  5
6
330
0
100
AcDbSymbolTable
 70
     0
  0
ENDTAB
  0
TABLE
  2
UCS
  5
7
330
0
100
AcDbSymbolTable
 70
     0
  0
ENDTAB
  0
TABLE
  2
APPID
  5
9
330
0
100
AcDbSymbolTable
 70
     4
  0
APPID
  5
12
330
9
100
AcDbSymbolTableRecord
100
AcDbRegAppTableRecord
  2
ACAD
 70
     0
  0
APPID
  5
90
330
9
100
AcDbSymbolTableRecord
100
AcDbRegAppTableRecord
  2
DCO15
 70
     0
  0
APPID
  5
91
330
9
100
AcDbSymbolTableRecord
100
AcDbRegAppTableRecord
  2
AcAecLayerStandard
 70
     0
  0
APPID
  5
DD
330
9
100
AcDbSymbolTableRecord
100
AcDbRegAppTableRecord
  2
ACAD_DSTYLE_DIMTEXT_FILL
 70
     0
  0
ENDTAB
  0
TABLE
  2
DIMSTYLE
  5
A
330
0
100
AcDbSymbolTable
 70
     1
100
AcDbDimStyleTable
 71
     1
340
27
  0
DIMSTYLE
105
27
102
{ACAD_REACTORS
330
491
330
4AC
330
4C6
102
}
330
A
100
AcDbSymbolTableRecord
100
AcDbDimStyleTableRecord
  2
Standard
 70
     0
  4
mm
 41
0.1875
 44
0.125
140
0.09
170
     1
171
     1
271
     2
272
     2
274
     1
340
11
  0
ENDTAB
  0
TABLE
  2
BLOCK_RECORD
  5
1
330
0
100
AcDbSymbolTable
 70
     4
  0
BLOCK_RECORD
  5
1F
102
{ACAD_XDICTIONARY
360
529
102
}
330
1
100
AcDbSymbolTableRecord
100
AcDbBlockTableRecord
  2
*Model_Space
340
22
  0
BLOCK_RECORD
  5
58
330
1
100
AcDbSymbolTableRecord
100
AcDbBlockTableRecord
  2
*Paper_Space
340
59
  0
BLOCK_RECORD
  5
5D
330
1
100
AcDbSymbolTableRecord
100
AcDbBlockTableRecord
  2
*Paper_Space0
340
5E
  0
BLOCK_RECORD
  5
493
330
1
100
AcDbSymbolTableRecord
100
AcDbBlockTableRecord
  2
*D1
340
0
  0
BLOCK_RECORD
  5
4AD
330
1
100
AcDbSymbolTableRecord
100
AcDbBlockTableRecord
  2
*D2
340
0
  0
BLOCK_RECORD
  5
4C7
330
1
100
AcDbSymbolTableRecord
100
AcDbBlockTableRecord
  2
*D3
340
0
  0
ENDTAB
  0
ENDSEC
  0
SECTION
  2
BLOCKS
  0
BLOCK
  5
20
330
1F
100
AcDbEntity
  8
0
100
AcDbBlockBegin
  2
*Model_Space
 70
     0
 10
0.0
 20
0.0
 30
0.0
  3
*Model_Space
  1

  0
ENDBLK
  5
21
330
1F
100
AcDbEntity
  8
0
100
AcDbBlockEnd
  0
BLOCK
  5
5A
330
58
100
AcDbEntity
 67
     1
  8
0
100
AcDbBlockBegin
  2
*Paper_Space
 70
     0
 10
0.0
 20
0.0
 30
0.0
  3
*Paper_Space
  1

  0
ENDBLK
  5
5B
330
58
100
AcDbEntity
 67
     1
  8
0
100
AcDbBlockEnd
  0
BLOCK
  5
5F
330
5D
100
AcDbEntity
  8
0
100
AcDbBlockBegin
  2
*Paper_Space0
 70
     0
 10
0.0
 20
0.0
 30
0.0
  3
*Paper_Space0
  1

  0
ENDBLK
  5
60
330
5D
100
AcDbEntity
  8
0
100
AcDbBlockEnd
  0
BLOCK
  5
49E
330
493
100
AcDbEntity
  8
0
100
AcDbBlockBegin
  2
*D1
 70
     1
 10
0.0
 20
0.0
 30
0.0
  3
*D1
  1

  0
LINE
  5
611
330
493
100
AcDbEntity
  8
Dimension
 62
     0
370
    -2
100
AcDbLine
 10
5.205870919781727
 20
6.128384793542725
 30
0.0
 11
6.418717176549154
 21
6.128384793542724
 31
0.0
  0
LINE
  5
612
330
493
100
AcDbEntity
  8
Dimension
 62
     0
370
    -2
100
AcDbLine
 10
5.205870919781727
 20
7.617384793542725
 30
0.0
 11
6.418717176549154
 21
7.617384793542724
 31
0.0
  0
LINE
  5
613
330
493
100
AcDbEntity
  8
Dimension
 62
     0
370
    -2
100
AcDbLine
 10
6.293717176549154
 20
6.315884793542724
 30
0.0
 11
6.293717176549154
 21
6.71985847775325
 31
0.0
  0
LINE
  5
614
330
493
100
AcDbEntity
  8
Dimension
 62
     0
370
    -2
100
AcDbLine
 10
6.293717176549154
 20
7.429884793542724
 30
0.0
 11
6.293717176549154
 21
7.025911109332197
 31
0.0
  0
SOLID
  5
615
330
493
100
AcDbEntity
  8
Dimension
 62
     0
100
AcDbTrace
 10
6.262467176549154
 20
6.315884793542724
 30
0.0
 11
6.324967176549154
 21
6.315884793542724
 31
0.0
 12
6.293717176549154
 22
6.128384793542724
 32
0.0
 13
6.293717176549154
 23
6.128384793542724
 33
0.0
  0
SOLID
  5
616
330
493
100
AcDbEntity
  8
Dimension
 62
     0
100
AcDbTrace
 10
6.262467176549154
 20
7.429884793542724
 30
0.0
 11
6.324967176549154
 21
7.429884793542724
 31
0.0
 12
6.293717176549154
 22
7.617384793542724
 32
0.0
 13
6.293717176549154
 23
7.617384793542724
 33
0.0
  0
MTEXT
  5
617
330
493
100
AcDbEntity
  8
Dimension
 62
     0
100
AcDbMText
 10
6.293717176549153
 20
6.872884793542725
 30
0.0
 40
0.09
 41
0.0
 71
     5
 72
     1
  1
\A1;1.49 [37.8mm]
 73
     1
 44
1.0
1001
ACAD
1000
MTEXTBEGIN
1070
    73
1070
     1
1070
    44
1040
1.0
1070
    74
1070
     0
1000
MTEXTEND
  0
POINT
  5
618
330
493
100
AcDbEntity
  8
Defpoints
 62
     0
100
AcDbPoint
 10
5.143370919781727
 20
6.128384793542725
 30
0.0
  0
POINT
  5
619
330
493
100
AcDbEntity
  8
Defpoints
 62
     0
100
AcDbPoint
 10
5.143370919781727
 20
7.617384793542725
 30
0.0
  0
POINT
  5
61A
330
493
100
AcDbEntity
  8
Defpoints
 62
     0
100
AcDbPoint
 10
6.293717176549154
 20
7.617384793542724
 30
0.0
  0
ENDBLK
  5
49F
330
493
100
AcDbEntity
  8
0
100
AcDbBlockEnd
  0
BLOCK
  5
4B8
330
4AD
100
AcDbEntity
  8
0
100
AcDbBlockBegin
  2
*D2
 70
     1
 10
0.0
 20
0.0
 30
0.0
  3
*D2
  1

  0
LINE
  5
5F8
330
4AD
100
AcDbEntity
  8
Dimension
 62
     0
370
    -2
100
AcDbLine
 10
1.033370919781727
 20
4.694118116770132
 30
0.0
 11
1.033370919781727
 21
5.305077107354371
 31
0.0
  0
LINE
  5
5F9
330
4AD
100
AcDbEntity
  8
Dimension
 62
     0
370
    -2
100
AcDbLine
 10
5.143370919781728
 20
4.694118116770132
 30
0.0
 11
5.143370919781728
 21
5.305077107354371
 31
0.0
  0
LINE
  5
5FA
330
4AD
100
AcDbEntity
  8
Dimension
 62
     0
370
    -2
100
AcDbLine
 10
1.220870919781727
 20
5.180077107354371
 30
0.0
 11
2.596463025044885
 21
5.180077107354371
 31
0.0
  0
LINE
  5
5FB
330
4AD
100
AcDbEntity
  8
Dimension
 62
     0
370
    -2
100
AcDbLine
 10
4.955870919781728
 20
5.180077107354371
 30
0.0
 11
3.58027881451857
 21
5.180077107354371
 31
0.0
  0
SOLID
  5
5FC
330
4AD
100
AcDbEntity
  8
Dimension
 62
     0
100
AcDbTrace
 10
1.220870919781727
 20
5.211327107354371
 30
0.0
 11
1.220870919781727
 21
5.148827107354371
 31
0.0
 12
1.033370919781727
 22
5.180077107354371
 32
0.0
 13
1.033370919781727
 23
5.180077107354371
 33
0.0
  0
SOLID
  5
5FD
330
4AD
100
AcDbEntity
  8
Dimension
 62
     0
100
AcDbTrace
 10
4.955870919781728
 20
5.211327107354371
 30
0.0
 11
4.955870919781728
 21
5.148827107354371
 31
0.0
 12
5.143370919781728
 22
5.180077107354371
 32
0.0
 13
5.143370919781728
 23
5.180077107354371
 33
0.0
  0
MTEXT
  5
5FE
330
4AD
100
AcDbEntity
  8
Dimension
 62
     0
100
AcDbMText
 10
3.088370919781727
 20
5.180077107354371
 30
0.0
 40
0.09
 41
0.0
 71
     5
 72
     1
  1
\A1;4.11 [104.4mm]
 73
     1
 44
1.0
1001
ACAD
1000
MTEXTBEGIN
1070
    73
1070
     1
1070
    44
1040
1.0
1070
    74
1070
     0
1000
MTEXTEND
  0
POINT
  5
5FF
330
4AD
100
AcDbEntity
  8
Defpoints
 62
     0
100
AcDbPoint
 10
1.033370919781727
 20
4.631618116770132
 30
0.0
  0
POINT
  5
600
330
4AD
100
AcDbEntity
  8
Defpoints
 62
     0
100
AcDbPoint
 10
5.143370919781728
 20
4.631618116770132
 30
0.0
  0
POINT
  5
601
330
4AD
100
AcDbEntity
  8
Defpoints
 62
     0
100
AcDbPoint
 10
5.143370919781728
 20
5.180077107354371
 30
0.0
  0
ENDBLK
  5
4B9
330
4AD
100
AcDbEntity
  8
0
100
AcDbBlockEnd
  0
BLOCK
  5
4D2
330
4C7
100
AcDbEntity
  8
0
100
AcDbBlockBegin
  2
*D3
 70
     1
 10
0.0
 20
0.0
 30
0.0
  3
*D3
  1

  0
LINE
  5
61B
330
4C7
100
AcDbEntity
  8
Dimension
 62
     0
370
    -2
100
AcDbLine
 10
7.530870919781726
 20
3.566618116770132
 30
0.0
 11
6.495799245058751
 21
3.566618116770132
 31
0.0
  0
LINE
  5
61C
330
4C7
100
AcDbEntity
  8
Dimension
 62
     0
370
    -2
100
AcDbLine
 10
7.724870919781727
 20
4.631618116770132
 30
0.0
 11
6.495799245058751
 21
4.631618116770132
 31
0.0
  0
LINE
  5
61D
330
4C7
100
AcDbEntity
  8
Dimension
 62
     0
370
    -2
100
AcDbLine
 10
6.620799245058751
 20
3.754118116770132
 30
0.0
 11
6.620799245058751
 21
3.946091800980658
 31
0.0
  0
LINE
  5
61E
330
4C7
100
AcDbEntity
  8
Dimension
 62
     0
370
    -2
100
AcDbLine
 10
6.620799245058751
 20
4.444118116770132
 30
0.0
 11
6.620799245058751
 21
4.252144432559605
 31
0.0
  0
SOLID
  5
61F
330
4C7
100
AcDbEntity
  8
Dimension
 62
     0
100
AcDbTrace
 10
6.589549245058751
 20
3.754118116770132
 30
0.0
 11
6.652049245058751
 21
3.754118116770132
 31
0.0
 12
6.620799245058751
 22
3.566618116770132
 32
0.0
 13
6.620799245058751
 23
3.566618116770132
 33
0.0
  0
SOLID
  5
620
330
4C7
100
AcDbEntity
  8
Dimension
 62
     0
100
AcDbTrace
 10
6.589549245058751
 20
4.444118116770132
 30
0.0
 11
6.652049245058751
 21
4.444118116770132
 31
0.0
 12
6.620799245058751
 22
4.631618116770132
 32
0.0
 13
6.620799245058751
 23
4.631618116770132
 33
0.0
  0
MTEXT
  5
621
330
4C7
100
AcDbEntity
  8
Dimension
 62
     0
100
AcDbMText
 10
6.62079924505875
 20
4.099118116770133
 30
0.0
 40
0.09
 41
0.0
 71
     5
 72
     1
  1
\A1;1.06 [27.0mm]
 73
     1
 44
1.0
1001
ACAD
1000
MTEXTBEGIN
1070
    73
1070
     1
1070
    44
1040
1.0
1070
    74
1070
     0
1000
MTEXTEND
  0
POINT
  5
622
330
4C7
100
AcDbEntity
  8
Defpoints
 62
     0
100
AcDbPoint
 10
7.593370919781726
 20
3.566618116770132
 30
0.0
  0
POINT
  5
623
330
4C7
100
AcDbEntity
  8
Defpoints
 62
     0
100
AcDbPoint
 10
7.787370919781727
 20
4.631618116770132
 30
0.0
  0
POINT
  5
624
330
4C7
100
AcDbEntity
  8
Defpoints
 62
     0
100
AcDbPoint
 10
6.620799245058751
 20
4.631618116770132
 30
0.0
  0
ENDBLK
  5
4D3
330
4C7
100
AcDbEntity
  8
0
100
AcDbBlockEnd
  0
ENDSEC
  0
SECTION
  2
ENTITIES
  0
LINE
  5
1B6
330
1F
100
AcDbEntity
  8
Object
100
AcDbLine
 10
8.887370919781726
 20
4.631618116770132
 30
0.0
 11
7.787370919781727
 21
4.631618116770132
 31
0.0
  0
LINE
  5
1B7
330
1F
100
AcDbEntity
  8
Object
100
AcDbLine
 10
9.082370919781727
 20
4.436618116770132
 30
0.0
 11
9.075370919781727
 21
4.487618116770132
 31
0.0
  0
LINE
  5
1B8
330
1F
100
AcDbEntity
  8
Object
100
AcDbLine
 10
9.075370919781727
 20
4.487618116770132
 30
0.0
 11
9.056370919781727
 21
4.533618116770131
 31
0.0
  0
LINE
  5
1B9
330
1F
100
AcDbEntity
  8
Object
100
AcDbLine
 10
9.056370919781727
 20
4.533618116770131
 30
0.0
 11
9.025370919781726
 21
4.574618116770132
 31
0.0
  0
LINE
  5
1BA
330
1F
100
AcDbEntity
  8
Object
100
AcDbLine
 10
9.025370919781726
 20
4.574618116770132
 30
0.0
 11
8.985370919781727
 21
4.605618116770131
 31
0.0
  0
LINE
  5
1BB
330
1F
100
AcDbEntity
  8
Object
100
AcDbLine
 10
8.985370919781727
 20
4.605618116770131
 30
0.0
 11
8.938370919781727
 21
4.624618116770132
 31
0.0
  0
LINE
  5
1BC
330
1F
100
AcDbEntity
  8
Object
100
AcDbLine
 10
8.938370919781727
 20
4.624618116770132
 30
0.0
 11
8.887370919781726
 21
4.631618116770132
 31
0.0
  0
LINE
  5
1BD
330
1F
100
AcDbEntity
  8
Object
100
AcDbLine
 10
8.887370919781726
 20
4.631618116770132
 30
0.0
 11
7.787370919781727
 21
4.631618116770132
 31
0.0
  0
LINE
  5
1BE
330
1F
100
AcDbEntity
  8
Object
100
AcDbLine
 10
8.887370919781726
 20
4.631618116770132
 30
0.0
 11
8.887370919781726
 21
4.496618116770132
 31
0.0
  0
LINE
  5
1BF
330
1F
100
AcDbEntity
  8
Object
100
AcDbLine
 10
8.887370919781726
 20
4.496618116770132
 30
0.0
 11
7.787370919781727
 21
4.496618116770132
 31
0.0
  0
LINE
  5
1C0
330
1F
100
AcDbEntity
  8
Object
100
AcDbLine
 10
7.787370919781727
 20
4.631618116770132
 30
0.0
 11
7.737370919781726
 21
4.624618116770132
 31
0.0
  0
LINE
  5
1C1
330
1F
100
AcDbEntity
  8
Object
100
AcDbLine
 10
7.737370919781726
 20
4.624618116770132
 30
0.0
 11
7.690370919781727
 21
4.605618116770131
 31
0.0
  0
LINE
  5
1C2
330
1F
100
AcDbEntity
  8
Object
100
AcDbLine
 10
7.690370919781727
 20
4.605618116770131
 30
0.0
 11
7.650370919781726
 21
4.574618116770132
 31
0.0
  0
LINE
  5
1C3
330
1F
100
AcDbEntity
  8
Object
100
AcDbLine
 10
7.650370919781726
 20
4.574618116770132
 30
0.0
 11
7.619370919781726
 21
4.533618116770131
 31
0.0
  0
LINE
  5
1C4
330
1F
100
AcDbEntity
  8
Object
100
AcDbLine
 10
7.619370919781726
 20
4.533618116770131
 30
0.0
 11
7.600370919781727
 21
4.487618116770132
 31
0.0
  0
LINE
  5
1C5
330
1F
100
AcDbEntity
  8
Object
100
AcDbLine
 10
7.600370919781727
 20
4.487618116770132
 30
0.0
 11
7.593370919781726
 21
4.436618116770132
 31
0.0
  0
LINE
  5
1C6
330
1F
100
AcDbEntity
  8
Object
100
AcDbLine
 10
9.075370919781727
 20
4.487618116770132
 30
0.0
 11
9.082370919781727
 21
4.436618116770132
 31
0.0
  0
LINE
  5
1C7
330
1F
100
AcDbEntity
  8
Object
100
AcDbLine
 10
9.082370919781727
 20
4.436618116770132
 30
0.0
 11
8.947370919781727
 21
4.436618116770132
 31
0.0
  0
LINE
  5
1C8
330
1F
100
AcDbEntity
  8
Object
100
AcDbLine
 10
8.947370919781727
 20
4.436618116770132
 30
0.0
 11
8.943370919781726
 21
4.459618116770132
 31
0.0
  0
LINE
  5
1C9
330
1F
100
AcDbEntity
  8
Object
100
AcDbLine
 10
9.075370919781727
 20
4.487618116770132
 30
0.0
 11
9.056370919781727
 21
4.533618116770131
 31
0.0
  0
LINE
  5
1CA
330
1F
100
AcDbEntity
  8
Object
100
AcDbLine
 10
8.985370919781727
 20
4.605618116770131
 30
0.0
 11
9.025370919781726
 21
4.574618116770132
 31
0.0
  0
LINE
  5
1CB
330
1F
100
AcDbEntity
  8
Object
100
AcDbLine
 10
9.025370919781726
 20
4.574618116770132
 30
0.0
 11
9.056370919781727
 21
4.533618116770131
 31
0.0
  0
LINE
  5
1CC
330
1F
100
AcDbEntity
  8
Object
100
AcDbLine
 10
8.943370919781726
 20
4.459618116770132
 30
0.0
 11
8.930370919781726
 21
4.479618116770131
 31
0.0
  0
LINE
  5
1CD
330
1F
100
AcDbEntity
  8
Object
100
AcDbLine
 10
8.930370919781726
 20
4.479618116770131
 30
0.0
 11
8.910370919781726
 21
4.492618116770131
 31
0.0
  0
LINE
  5
1CE
330
1F
100
AcDbEntity
  8
Object
100
AcDbLine
 10
8.985370919781727
 20
4.605618116770131
 30
0.0
 11
8.938370919781727
 21
4.624618116770132
 31
0.0
  0
LINE
  5
1CF
330
1F
100
AcDbEntity
  8
Object
100
AcDbLine
 10
8.887370919781726
 20
4.496618116770132
 30
0.0
 11
8.910370919781726
 21
4.492618116770131
 31
0.0
  0
LINE
  5
1D0
330
1F
100
AcDbEntity
  8
Object
100
AcDbLine
 10
8.938370919781727
 20
4.624618116770132
 30
0.0
 11
8.887370919781726
 21
4.631618116770132
 31
0.0
  0
LINE
  5
1D1
330
1F
100
AcDbEntity
  8
Object
100
AcDbLine
 10
9.082370919781727
 20
3.566618116770132
 30
0.0
 11
9.082370919781727
 21
3.891618116770132
 31
0.0
  0
LINE
  5
1D2
330
1F
100
AcDbEntity
  8
Object
100
AcDbLine
 10
9.082370919781727
 20
3.891618116770132
 30
0.0
 11
9.082370919781727
 21
4.116618116770132
 31
0.0
  0
LINE
  5
1D3
330
1F
100
AcDbEntity
  8
Object
100
AcDbLine
 10
9.082370919781727
 20
4.140618116770132
 30
0.0
 11
9.082370919781727
 21
4.122618116770132
 31
0.0
  0
LINE
  5
1D4
330
1F
100
AcDbEntity
  8
Object
100
AcDbLine
 10
9.082370919781727
 20
4.122618116770132
 30
0.0
 11
9.082370919781727
 21
4.116618116770132
 31
0.0
  0
LINE
  5
1D5
330
1F
100
AcDbEntity
  8
Object
100
AcDbLine
 10
9.082370919781727
 20
4.140618116770132
 30
0.0
 11
9.082370919781727
 21
4.168618116770131
 31
0.0
  0
LINE
  5
1D6
330
1F
100
AcDbEntity
  8
Object
100
AcDbLine
 10
9.082370919781727
 20
4.168618116770131
 30
0.0
 11
9.082370919781727
 21
4.203618116770131
 31
0.0
  0
LINE
  5
1D7
330
1F
100
AcDbEntity
  8
Object
100
AcDbLine
 10
9.082370919781727
 20
4.203618116770131
 30
0.0
 11
9.082370919781727
 21
4.241618116770132
 31
0.0
  0
LINE
  5
1D8
330
1F
100
AcDbEntity
  8
Object
100
AcDbLine
 10
9.082370919781727
 20
4.241618116770132
 30
0.0
 11
9.082370919781727
 21
4.436618116770132
 31
0.0
  0
LINE
  5
1D9
330
1F
100
AcDbEntity
  8
Object
100
AcDbLine
 10
8.887370919781726
 20
4.496618116770132
 30
0.0
 11
7.787370919781727
 21
4.496618116770132
 31
0.0
  0
LINE
  5
1DA
330
1F
100
AcDbEntity
  8
Object
100
AcDbLine
 10
7.787370919781727
 20
4.496618116770132
 30
0.0
 11
7.764370919781725
 21
4.492618116770131
 31
0.0
  0
LINE
  5
1DB
330
1F
100
AcDbEntity
  8
Object
100
AcDbLine
 10
7.737370919781726
 20
4.624618116770132
 30
0.0
 11
7.787370919781727
 21
4.631618116770132
 31
0.0
  0
LINE
  5
1DC
102
{ACAD_REACTORS
330
4DF
102
}
330
1F
100
AcDbEntity
  8
Object
100
AcDbLine
 10
7.787370919781727
 20
4.631618116770132
 30
0.0
 11
7.787370919781727
 21
4.496618116770132
 31
0.0
  0
LINE
  5
1DD
330
1F
100
AcDbEntity
  8
Object
100
AcDbLine
 10
7.737370919781726
 20
4.624618116770132
 30
0.0
 11
7.690370919781727
 21
4.605618116770131
 31
0.0
  0
LINE
  5
1DE
330
1F
100
AcDbEntity
  8
Object
100
AcDbLine
 10
7.745370919781727
 20
4.479618116770131
 30
0.0
 11
7.764370919781725
 21
4.492618116770131
 31
0.0
  0
LINE
  5
1DF
330
1F
100
AcDbEntity
  8
Object
100
AcDbLine
 10
7.690370919781727
 20
4.605618116770131
 30
0.0
 11
7.650370919781726
 21
4.574618116770132
 31
0.0
  0
LINE
  5
1E0
330
1F
100
AcDbEntity
  8
Object
100
AcDbLine
 10
7.732370919781725
 20
4.459618116770132
 30
0.0
 11
7.745370919781727
 21
4.479618116770131
 31
0.0
  0
LINE
  5
1E1
330
1F
100
AcDbEntity
  8
Object
100
AcDbLine
 10
7.650370919781726
 20
4.574618116770132
 30
0.0
 11
7.619370919781726
 21
4.533618116770131
 31
0.0
  0
LINE
  5
1E2
330
1F
100
AcDbEntity
  8
Object
100
AcDbLine
 10
7.619370919781726
 20
4.533618116770131
 30
0.0
 11
7.600370919781727
 21
4.487618116770132
 31
0.0
  0
LINE
  5
1E3
330
1F
100
AcDbEntity
  8
Object
100
AcDbLine
 10
7.732370919781725
 20
4.459618116770132
 30
0.0
 11
7.727370919781726
 21
4.436618116770132
 31
0.0
  0
LINE
  5
1E4
330
1F
100
AcDbEntity
  8
Object
100
AcDbLine
 10
7.727370919781726
 20
4.436618116770132
 30
0.0
 11
7.593370919781726
 21
4.436618116770132
 31
0.0
  0
LINE
  5
1E5
330
1F
100
AcDbEntity
  8
Object
100
AcDbLine
 10
7.593370919781726
 20
4.436618116770132
 30
0.0
 11
7.600370919781727
 21
4.487618116770132
 31
0.0
  0
LINE
  5
1E6
330
1F
100
AcDbEntity
  8
Object
100
AcDbLine
 10
7.593370919781726
 20
4.168618116770131
 30
0.0
 11
7.593370919781726
 21
4.140618116770132
 31
0.0
  0
LINE
  5
1E7
330
1F
100
AcDbEntity
  8
Object
100
AcDbLine
 10
7.593370919781726
 20
4.241618116770132
 30
0.0
 11
7.593370919781726
 21
4.203618116770131
 31
0.0
  0
LINE
  5
1E8
330
1F
100
AcDbEntity
  8
Object
100
AcDbLine
 10
7.593370919781726
 20
4.203618116770131
 30
0.0
 11
7.593370919781726
 21
4.168618116770131
 31
0.0
  0
LINE
  5
1E9
330
1F
100
AcDbEntity
  8
Object
100
AcDbLine
 10
7.593370919781726
 20
4.140618116770132
 30
0.0
 11
7.593370919781726
 21
4.122618116770132
 31
0.0
  0
LINE
  5
1EA
330
1F
100
AcDbEntity
  8
Object
100
AcDbLine
 10
7.593370919781726
 20
4.122618116770132
 30
0.0
 11
7.593370919781726
 21
4.116618116770132
 31
0.0
  0
LINE
  5
1EB
330
1F
100
AcDbEntity
  8
Object
100
AcDbLine
 10
7.593370919781726
 20
4.436618116770132
 30
0.0
 11
7.593370919781726
 21
4.241618116770132
 31
0.0
  0
LINE
  5
1EC
330
1F
100
AcDbEntity
  8
Object
100
AcDbLine
 10
7.593370919781726
 20
4.116618116770132
 30
0.0
 11
7.593370919781726
 21
3.891618116770132
 31
0.0
  0
LINE
  5
1ED
330
1F
100
AcDbEntity
  8
Object
100
AcDbLine
 10
7.593370919781726
 20
3.891618116770132
 30
0.0
 11
7.593370919781726
 21
3.566618116770132
 31
0.0
  0
LINE
  5
1EE
330
1F
100
AcDbEntity
  8
Object
100
AcDbLine
 10
8.947370919781727
 20
4.436618116770132
 30
0.0
 11
8.947370919781727
 21
4.241618116770132
 31
0.0
  0
LINE
  5
1EF
330
1F
100
AcDbEntity
  8
Object
100
AcDbLine
 10
9.082370919781727
 20
4.241618116770132
 30
0.0
 11
9.082370919781727
 21
4.436618116770132
 31
0.0
  0
LINE
  5
1F0
330
1F
100
AcDbEntity
  8
Object
100
AcDbLine
 10
8.947370919781727
 20
4.436618116770132
 30
0.0
 11
8.943370919781726
 21
4.459618116770132
 31
0.0
  0
LINE
  5
1F1
330
1F
100
AcDbEntity
  8
Object
100
AcDbLine
 10
8.943370919781726
 20
4.459618116770132
 30
0.0
 11
8.930370919781726
 21
4.479618116770131
 31
0.0
  0
LINE
  5
1F2
330
1F
100
AcDbEntity
  8
Object
100
AcDbLine
 10
8.930370919781726
 20
4.479618116770131
 30
0.0
 11
8.910370919781726
 21
4.492618116770131
 31
0.0
  0
LINE
  5
1F3
330
1F
100
AcDbEntity
  8
Object
100
AcDbLine
 10
8.910370919781726
 20
4.492618116770131
 30
0.0
 11
8.887370919781726
 21
4.496618116770132
 31
0.0
  0
LINE
  5
1F4
330
1F
100
AcDbEntity
  8
Object
100
AcDbLine
 10
8.947370919781727
 20
4.116618116770132
 30
0.0
 11
8.947370919781727
 21
3.891618116770132
 31
0.0
  0
LINE
  5
1F5
330
1F
100
AcDbEntity
  8
Object
100
AcDbLine
 10
9.082370919781727
 20
4.116618116770132
 30
0.0
 11
9.082370919781727
 21
3.891618116770132
 31
0.0
  0
LINE
  5
1F6
330
1F
100
AcDbEntity
  8
Object
100
AcDbLine
 10
9.082370919781727
 20
3.891618116770132
 30
0.0
 11
8.947370919781727
 21
3.891618116770132
 31
0.0
  0
LINE
  5
1F7
330
1F
100
AcDbEntity
  8
Object
100
AcDbLine
 10
8.947370919781727
 20
4.116618116770132
 30
0.0
 11
9.082370919781727
 21
4.116618116770132
 31
0.0
  0
LINE
  5
1F8
330
1F
100
AcDbEntity
  8
Object
100
AcDbLine
 10
8.947370919781727
 20
3.566618116770132
 30
0.0
 11
9.082370919781727
 21
3.566618116770132
 31
0.0
  0
LINE
  5
1F9
330
1F
100
AcDbEntity
  8
Object
100
AcDbLine
 10
9.082370919781727
 20
4.122618116770132
 30
0.0
 11
9.082370919781727
 21
4.140618116770132
 31
0.0
  0
LINE
  5
1FA
330
1F
100
AcDbEntity
  8
Object
100
AcDbLine
 10
8.947370919781727
 20
4.140618116770132
 30
0.0
 11
8.947370919781727
 21
4.122618116770132
 31
0.0
  0
LINE
  5
1FB
330
1F
100
AcDbEntity
  8
Object
100
AcDbLine
 10
9.082370919781727
 20
4.168618116770131
 30
0.0
 11
9.082370919781727
 21
4.203618116770131
 31
0.0
  0
LINE
  5
1FC
330
1F
100
AcDbEntity
  8
Object
100
AcDbLine
 10
8.947370919781727
 20
4.168618116770131
 30
0.0
 11
8.947370919781727
 21
4.203618116770131
 31
0.0
  0
LINE
  5
1FD
330
1F
100
AcDbEntity
  8
Object
100
AcDbLine
 10
8.947370919781727
 20
4.203618116770131
 30
0.0
 11
8.947370919781727
 21
4.241618116770132
 31
0.0
  0
LINE
  5
1FE
330
1F
100
AcDbEntity
  8
Object
100
AcDbLine
 10
8.947370919781727
 20
4.241618116770132
 30
0.0
 11
9.082370919781727
 21
4.241618116770132
 31
0.0
  0
LINE
  5
1FF
330
1F
100
AcDbEntity
  8
Object
100
AcDbLine
 10
9.082370919781727
 20
4.241618116770132
 30
0.0
 11
9.082370919781727
 21
4.203618116770131
 31
0.0
  0
LINE
  5
200
330
1F
100
AcDbEntity
  8
Object
100
AcDbLine
 10
8.947370919781727
 20
4.168618116770131
 30
0.0
 11
8.947370919781727
 21
4.140618116770132
 31
0.0
  0
LINE
  5
201
330
1F
100
AcDbEntity
  8
Object
100
AcDbLine
 10
9.082370919781727
 20
4.140618116770132
 30
0.0
 11
9.082370919781727
 21
4.168618116770131
 31
0.0
  0
LINE
  5
202
330
1F
100
AcDbEntity
  8
Object
100
AcDbLine
 10
9.082370919781727
 20
4.122618116770132
 30
0.0
 11
9.082370919781727
 21
4.116618116770132
 31
0.0
  0
LINE
  5
203
330
1F
100
AcDbEntity
  8
Object
100
AcDbLine
 10
9.082370919781727
 20
4.116618116770132
 30
0.0
 11
8.947370919781727
 21
4.116618116770132
 31
0.0
  0
LINE
  5
204
330
1F
100
AcDbEntity
  8
Object
100
AcDbLine
 10
8.947370919781727
 20
4.116618116770132
 30
0.0
 11
8.947370919781727
 21
4.122618116770132
 31
0.0
  0
LINE
  5
205
330
1F
100
AcDbEntity
  8
Object
100
AcDbLine
 10
8.947370919781727
 20
3.891618116770132
 30
0.0
 11
8.947370919781727
 21
3.566618116770132
 31
0.0
  0
LINE
  5
206
330
1F
100
AcDbEntity
  8
Object
100
AcDbLine
 10
9.082370919781727
 20
3.891618116770132
 30
0.0
 11
9.082370919781727
 21
3.566618116770132
 31
0.0
  0
LINE
  5
207
330
1F
100
AcDbEntity
  8
Object
100
AcDbLine
 10
9.082370919781727
 20
3.566618116770132
 30
0.0
 11
8.947370919781727
 21
3.566618116770132
 31
0.0
  0
LINE
  5
208
330
1F
100
AcDbEntity
  8
Object
100
AcDbLine
 10
7.787370919781727
 20
4.496618116770132
 30
0.0
 11
7.764370919781725
 21
4.492618116770131
 31
0.0
  0
LINE
  5
209
330
1F
100
AcDbEntity
  8
Object
100
AcDbLine
 10
7.764370919781725
 20
4.492618116770131
 30
0.0
 11
7.745370919781727
 21
4.479618116770131
 31
0.0
  0
LINE
  5
20A
330
1F
100
AcDbEntity
  8
Object
100
AcDbLine
 10
7.745370919781727
 20
4.479618116770131
 30
0.0
 11
7.732370919781725
 21
4.459618116770132
 31
0.0
  0
LINE
  5
20B
330
1F
100
AcDbEntity
  8
Object
100
AcDbLine
 10
7.732370919781725
 20
4.459618116770132
 30
0.0
 11
7.727370919781726
 21
4.436618116770132
 31
0.0
  0
LINE
  5
20C
330
1F
100
AcDbEntity
  8
Object
100
AcDbLine
 10
7.727370919781726
 20
4.436618116770132
 30
0.0
 11
7.727370919781726
 21
4.241618116770132
 31
0.0
  0
LINE
  5
20D
330
1F
100
AcDbEntity
  8
Object
100
AcDbLine
 10
7.593370919781726
 20
4.436618116770132
 30
0.0
 11
7.593370919781726
 21
4.241618116770132
 31
0.0
  0
LINE
  5
20E
330
1F
100
AcDbEntity
  8
Object
100
AcDbLine
 10
7.593370919781726
 20
4.241618116770132
 30
0.0
 11
7.593370919781726
 21
4.203618116770131
 31
0.0
  0
LINE
  5
20F
330
1F
100
AcDbEntity
  8
Object
100
AcDbLine
 10
7.727370919781726
 20
4.168618116770131
 30
0.0
 11
7.727370919781726
 21
4.203618116770131
 31
0.0
  0
LINE
  5
210
330
1F
100
AcDbEntity
  8
Object
100
AcDbLine
 10
7.593370919781726
 20
4.168618116770131
 30
0.0
 11
7.593370919781726
 21
4.140618116770132
 31
0.0
  0
LINE
  5
211
330
1F
100
AcDbEntity
  8
Object
100
AcDbLine
 10
7.727370919781726
 20
4.140618116770132
 30
0.0
 11
7.727370919781726
 21
4.122618116770132
 31
0.0
  0
LINE
  5
212
330
1F
100
AcDbEntity
  8
Object
100
AcDbLine
 10
7.727370919781726
 20
4.122618116770132
 30
0.0
 11
7.727370919781726
 21
4.116618116770132
 31
0.0
  0
LINE
  5
213
330
1F
100
AcDbEntity
  8
Object
100
AcDbLine
 10
7.727370919781726
 20
4.116618116770132
 30
0.0
 11
7.593370919781726
 21
4.116618116770132
 31
0.0
  0
LINE
  5
214
330
1F
100
AcDbEntity
  8
Object
100
AcDbLine
 10
7.593370919781726
 20
4.116618116770132
 30
0.0
 11
7.593370919781726
 21
4.122618116770132
 31
0.0
  0
LINE
  5
215
330
1F
100
AcDbEntity
  8
Object
100
AcDbLine
 10
7.593370919781726
 20
4.122618116770132
 30
0.0
 11
7.593370919781726
 21
4.140618116770132
 31
0.0
  0
LINE
  5
216
330
1F
100
AcDbEntity
  8
Object
100
AcDbLine
 10
7.727370919781726
 20
4.140618116770132
 30
0.0
 11
7.727370919781726
 21
4.168618116770131
 31
0.0
  0
LINE
  5
217
330
1F
100
AcDbEntity
  8
Object
100
AcDbLine
 10
7.593370919781726
 20
4.203618116770131
 30
0.0
 11
7.593370919781726
 21
4.168618116770131
 31
0.0
  0
LINE
  5
218
330
1F
100
AcDbEntity
  8
Object
100
AcDbLine
 10
7.593370919781726
 20
4.241618116770132
 30
0.0
 11
7.727370919781726
 21
4.241618116770132
 31
0.0
  0
LINE
  5
219
330
1F
100
AcDbEntity
  8
Object
100
AcDbLine
 10
7.727370919781726
 20
4.241618116770132
 30
0.0
 11
7.727370919781726
 21
4.203618116770131
 31
0.0
  0
LINE
  5
21A
330
1F
100
AcDbEntity
  8
Object
100
AcDbLine
 10
7.593370919781726
 20
3.566618116770132
 30
0.0
 11
7.727370919781726
 21
3.566618116770132
 31
0.0
  0
LINE
  5
21B
330
1F
100
AcDbEntity
  8
Object
100
AcDbLine
 10
7.593370919781726
 20
4.116618116770132
 30
0.0
 11
7.727370919781726
 21
4.116618116770132
 31
0.0
  0
LINE
  5
21C
330
1F
100
AcDbEntity
  8
Object
100
AcDbLine
 10
7.727370919781726
 20
4.116618116770132
 30
0.0
 11
7.727370919781726
 21
3.891618116770132
 31
0.0
  0
LINE
  5
21D
330
1F
100
AcDbEntity
  8
Object
100
AcDbLine
 10
7.727370919781726
 20
3.891618116770132
 30
0.0
 11
7.593370919781726
 21
3.891618116770132
 31
0.0
  0
LINE
  5
21E
330
1F
100
AcDbEntity
  8
Object
100
AcDbLine
 10
7.593370919781726
 20
3.891618116770132
 30
0.0
 11
7.593370919781726
 21
4.116618116770132
 31
0.0
  0
LINE
  5
21F
330
1F
100
AcDbEntity
  8
Object
100
AcDbLine
 10
7.727370919781726
 20
3.891618116770132
 30
0.0
 11
7.727370919781726
 21
3.566618116770132
 31
0.0
  0
LINE
  5
220
330
1F
100
AcDbEntity
  8
Object
100
AcDbLine
 10
7.727370919781726
 20
3.566618116770132
 30
0.0
 11
7.593370919781726
 21
3.566618116770132
 31
0.0
  0
LINE
  5
221
102
{ACAD_REACTORS
330
4DF
102
}
330
1F
100
AcDbEntity
  8
Object
100
AcDbLine
 10
7.593370919781726
 20
3.566618116770132
 30
0.0
 11
7.593370919781726
 21
3.891618116770132
 31
0.0
  0
LINE
  5
222
330
1F
100
AcDbEntity
  8
Object
100
AcDbLine
 10
8.947370919781727
 20
4.168618116770131
 30
0.0
 11
8.947370919781727
 21
4.140618116770132
 31
0.0
  0
LINE
  5
223
330
1F
100
AcDbEntity
  8
Object
100
AcDbLine
 10
8.947370919781727
 20
4.241618116770132
 30
0.0
 11
8.947370919781727
 21
4.203618116770131
 31
0.0
  0
LINE
  5
224
330
1F
100
AcDbEntity
  8
Object
100
AcDbLine
 10
8.947370919781727
 20
4.203618116770131
 30
0.0
 11
8.947370919781727
 21
4.168618116770131
 31
0.0
  0
LINE
  5
225
330
1F
100
AcDbEntity
  8
Object
100
AcDbLine
 10
8.947370919781727
 20
4.140618116770132
 30
0.0
 11
8.947370919781727
 21
4.122618116770132
 31
0.0
  0
LINE
  5
226
330
1F
100
AcDbEntity
  8
Object
100
AcDbLine
 10
8.947370919781727
 20
4.122618116770132
 30
0.0
 11
8.947370919781727
 21
4.116618116770132
 31
0.0
  0
LINE
  5
227
330
1F
100
AcDbEntity
  8
Object
100
AcDbLine
 10
8.947370919781727
 20
4.436618116770132
 30
0.0
 11
8.947370919781727
 21
4.241618116770132
 31
0.0
  0
LINE
  5
228
330
1F
100
AcDbEntity
  8
Object
100
AcDbLine
 10
8.947370919781727
 20
4.116618116770132
 30
0.0
 11
8.947370919781727
 21
3.891618116770132
 31
0.0
  0
LINE
  5
229
330
1F
100
AcDbEntity
  8
Object
100
AcDbLine
 10
8.947370919781727
 20
3.891618116770132
 30
0.0
 11
8.947370919781727
 21
3.566618116770132
 31
0.0
  0
LINE
  5
22A
330
1F
100
AcDbEntity
  8
Object
100
AcDbLine
 10
7.727370919781726
 20
4.140618116770132
 30
0.0
 11
7.727370919781726
 21
4.122618116770132
 31
0.0
  0
LINE
  5
22B
330
1F
100
AcDbEntity
  8
Object
100
AcDbLine
 10
7.727370919781726
 20
4.122618116770132
 30
0.0
 11
7.727370919781726
 21
4.116618116770132
 31
0.0
  0
LINE
  5
22C
330
1F
100
AcDbEntity
  8
Object
100
AcDbLine
 10
7.727370919781726
 20
4.140618116770132
 30
0.0
 11
7.727370919781726
 21
4.168618116770131
 31
0.0
  0
LINE
  5
22D
330
1F
100
AcDbEntity
  8
Object
100
AcDbLine
 10
7.727370919781726
 20
4.168618116770131
 30
0.0
 11
7.727370919781726
 21
4.203618116770131
 31
0.0
  0
LINE
  5
22E
330
1F
100
AcDbEntity
  8
Object
100
AcDbLine
 10
7.727370919781726
 20
4.203618116770131
 30
0.0
 11
7.727370919781726
 21
4.241618116770132
 31
0.0
  0
LINE
  5
22F
330
1F
100
AcDbEntity
  8
Object
100
AcDbLine
 10
7.727370919781726
 20
4.241618116770132
 30
0.0
 11
7.727370919781726
 21
4.436618116770132
 31
0.0
  0
LINE
  5
230
330
1F
100
AcDbEntity
  8
Object
100
AcDbLine
 10
7.727370919781726
 20
3.566618116770132
 30
0.0
 11
7.727370919781726
 21
3.891618116770132
 31
0.0
  0
LINE
  5
231
330
1F
100
AcDbEntity
  8
Object
100
AcDbLine
 10
7.727370919781726
 20
3.891618116770132
 30
0.0
 11
7.727370919781726
 21
4.116618116770132
 31
0.0
  0
LINE
  5
232
330
1F
100
AcDbEntity
  8
Object
100
AcDbLine
 10
5.143370919781727
 20
4.631618116770132
 30
0.0
 11
1.033370919781727
 21
4.631618116770132
 31
0.0
  0
LINE
  5
233
330
1F
100
AcDbEntity
  8
Object
100
AcDbLine
 10
1.033370919781727
 20
4.624618116770132
 30
0.0
 11
1.033370919781727
 21
4.605618116770131
 31
0.0
  0
LINE
  5
234
330
1F
100
AcDbEntity
  8
Object
100
AcDbLine
 10
5.143370919781727
 20
4.605618116770131
 30
0.0
 11
5.143370919781727
 21
4.624618116770132
 31
0.0
  0
LINE
  5
235
330
1F
100
AcDbEntity
  8
Object
100
AcDbLine
 10
1.033370919781727
 20
4.624618116770132
 30
0.0
 11
1.033370919781727
 21
4.631618116770132
 31
0.0
  0
LINE
  5
236
330
1F
100
AcDbEntity
  8
Object
100
AcDbLine
 10
1.033370919781727
 20
4.631618116770132
 30
0.0
 11
5.143370919781727
 21
4.631618116770132
 31
0.0
  0
LINE
  5
237
330
1F
100
AcDbEntity
  8
Object
100
AcDbLine
 10
5.143370919781727
 20
4.631618116770132
 30
0.0
 11
5.143370919781727
 21
4.624618116770132
 31
0.0
  0
LINE
  5
238
330
1F
100
AcDbEntity
  8
Object
100
AcDbLine
 10
1.033370919781727
 20
4.533618116770131
 30
0.0
 11
1.033370919781727
 21
4.487618116770132
 31
0.0
  0
LINE
  5
239
330
1F
100
AcDbEntity
  8
Object
100
AcDbLine
 10
5.143370919781727
 20
4.574618116770132
 30
0.0
 11
5.143370919781727
 21
4.605618116770131
 31
0.0
  0
LINE
  5
23A
330
1F
100
AcDbEntity
  8
Object
100
AcDbLine
 10
5.143370919781727
 20
4.533618116770131
 30
0.0
 11
5.143370919781727
 21
4.487618116770132
 31
0.0
  0
LINE
  5
23B
330
1F
100
AcDbEntity
  8
Object
100
AcDbLine
 10
5.143370919781727
 20
4.487618116770132
 30
0.0
 11
5.143370919781727
 21
4.436618116770132
 31
0.0
  0
LINE
  5
23C
330
1F
100
AcDbEntity
  8
Object
100
AcDbLine
 10
1.033370919781727
 20
4.487618116770132
 30
0.0
 11
1.033370919781727
 21
4.436618116770132
 31
0.0
  0
LINE
  5
23D
330
1F
100
AcDbEntity
  8
Object
100
AcDbLine
 10
1.033370919781727
 20
4.574618116770132
 30
0.0
 11
1.033370919781727
 21
4.533618116770131
 31
0.0
  0
LINE
  5
23E
330
1F
100
AcDbEntity
  8
Object
100
AcDbLine
 10
5.143370919781727
 20
4.533618116770131
 30
0.0
 11
5.143370919781727
 21
4.574618116770132
 31
0.0
  0
LINE
  5
23F
330
1F
100
AcDbEntity
  8
Object
100
AcDbLine
 10
1.033370919781727
 20
4.605618116770131
 30
0.0
 11
1.033370919781727
 21
4.574618116770132
 31
0.0
  0
LINE
  5
240
330
1F
100
AcDbEntity
  8
Object
100
AcDbLine
 10
5.143370919781727
 20
4.605618116770131
 30
0.0
 11
5.143370919781727
 21
4.624618116770132
 31
0.0
  0
LINE
  5
241
330
1F
100
AcDbEntity
  8
Object
100
AcDbLine
 10
5.143370919781727
 20
4.533618116770131
 30
0.0
 11
5.143370919781727
 21
4.487618116770132
 31
0.0
  0
LINE
  5
242
330
1F
100
AcDbEntity
  8
Object
100
AcDbLine
 10
5.143370919781727
 20
4.487618116770132
 30
0.0
 11
5.143370919781727
 21
4.436618116770132
 31
0.0
  0
LINE
  5
243
330
1F
100
AcDbEntity
  8
Object
100
AcDbLine
 10
5.143370919781727
 20
4.533618116770131
 30
0.0
 11
5.143370919781727
 21
4.574618116770132
 31
0.0
  0
LINE
  5
244
330
1F
100
AcDbEntity
  8
Object
100
AcDbLine
 10
5.143370919781727
 20
4.574618116770132
 30
0.0
 11
5.143370919781727
 21
4.605618116770131
 31
0.0
  0
LINE
  5
245
102
{ACAD_REACTORS
330
4C5
102
}
330
1F
100
AcDbEntity
  8
Object
100
AcDbLine
 10
5.143370919781727
 20
4.624618116770132
 30
0.0
 11
5.143370919781727
 21
4.631618116770132
 31
0.0
  0
LINE
  5
246
330
1F
100
AcDbEntity
  8
Object
100
AcDbLine
 10
5.143370919781727
 20
4.241618116770132
 30
0.0
 11
5.137370919781726
 21
4.203618116770131
 31
0.0
  0
LINE
  5
247
330
1F
100
AcDbEntity
  8
Object
100
AcDbLine
 10
5.137370919781726
 20
4.203618116770131
 30
0.0
 11
5.120370919781726
 21
4.168618116770131
 31
0.0
  0
LINE
  5
248
330
1F
100
AcDbEntity
  8
Object
100
AcDbLine
 10
5.120370919781726
 20
4.168618116770131
 30
0.0
 11
5.092370919781727
 21
4.140618116770132
 31
0.0
  0
LINE
  5
249
330
1F
100
AcDbEntity
  8
Object
100
AcDbLine
 10
5.092370919781727
 20
4.140618116770132
 30
0.0
 11
5.057370919781726
 21
4.122618116770132
 31
0.0
  0
LINE
  5
24A
330
1F
100
AcDbEntity
  8
Object
100
AcDbLine
 10
5.057370919781726
 20
4.122618116770132
 30
0.0
 11
5.018370919781727
 21
4.116618116770132
 31
0.0
  0
LINE
  5
24B
330
1F
100
AcDbEntity
  8
Object
100
AcDbLine
 10
5.143370919781727
 20
4.241618116770132
 30
0.0
 11
5.143370919781727
 21
4.436618116770132
 31
0.0
  0
LINE
  5
24C
330
1F
100
AcDbEntity
  8
Object
100
AcDbLine
 10
5.018370919781727
 20
4.116618116770132
 30
0.0
 11
4.573370919781726
 21
4.116618116770132
 31
0.0
  0
LINE
  5
24D
330
1F
100
AcDbEntity
  8
Object
100
AcDbLine
 10
4.573370919781726
 20
4.116618116770132
 30
0.0
 11
4.573370919781726
 21
3.891618116770132
 31
0.0
  0
LINE
  5
24E
330
1F
100
AcDbEntity
  8
Object
100
AcDbLine
 10
4.573370919781726
 20
3.891618116770132
 30
0.0
 11
4.386370919781726
 21
3.566618116770132
 31
0.0
  0
LINE
  5
24F
330
1F
100
AcDbEntity
  8
Object
100
AcDbLine
 10
4.386370919781726
 20
3.566618116770132
 30
0.0
 11
1.791370919781726
 21
3.566618116770132
 31
0.0
  0
LINE
  5
250
330
1F
100
AcDbEntity
  8
Object
100
AcDbLine
 10
1.791370919781726
 20
3.566618116770132
 30
0.0
 11
1.603370919781728
 21
3.891618116770132
 31
0.0
  0
LINE
  5
251
330
1F
100
AcDbEntity
  8
Object
100
AcDbLine
 10
1.603370919781728
 20
3.891618116770132
 30
0.0
 11
1.603370919781728
 21
4.116618116770132
 31
0.0
  0
LINE
  5
252
330
1F
100
AcDbEntity
  8
Object
100
AcDbLine
 10
1.158370919781727
 20
4.116618116770132
 30
0.0
 11
1.119370919781726
 21
4.122618116770132
 31
0.0
  0
LINE
  5
253
330
1F
100
AcDbEntity
  8
Object
100
AcDbLine
 10
1.119370919781726
 20
4.122618116770132
 30
0.0
 11
1.085370919781727
 21
4.140618116770132
 31
0.0
  0
LINE
  5
254
330
1F
100
AcDbEntity
  8
Object
100
AcDbLine
 10
1.085370919781727
 20
4.140618116770132
 30
0.0
 11
1.057370919781726
 21
4.168618116770131
 31
0.0
  0
LINE
  5
255
330
1F
100
AcDbEntity
  8
Object
100
AcDbLine
 10
1.057370919781726
 20
4.168618116770131
 30
0.0
 11
1.039370919781728
 21
4.203618116770131
 31
0.0
  0
LINE
  5
256
330
1F
100
AcDbEntity
  8
Object
100
AcDbLine
 10
1.158370919781727
 20
4.116618116770132
 30
0.0
 11
1.603370919781728
 21
4.116618116770132
 31
0.0
  0
LINE
  5
257
330
1F
100
AcDbEntity
  8
Object
100
AcDbLine
 10
1.039370919781728
 20
4.203618116770131
 30
0.0
 11
1.033370919781727
 21
4.241618116770132
 31
0.0
  0
LINE
  5
258
330
1F
100
AcDbEntity
  8
Object
100
AcDbLine
 10
1.033370919781727
 20
4.241618116770132
 30
0.0
 11
1.033370919781727
 21
4.436618116770132
 31
0.0
  0
LINE
  5
259
330
1F
100
AcDbEntity
  8
Object
100
AcDbLine
 10
1.033370919781727
 20
4.436618116770132
 30
0.0
 11
5.143370919781727
 21
4.436618116770132
 31
0.0
  0
LINE
  5
25A
330
1F
100
AcDbEntity
  8
Object
100
AcDbLine
 10
1.033370919781727
 20
4.605618116770131
 30
0.0
 11
1.033370919781727
 21
4.574618116770132
 31
0.0
  0
LINE
  5
25B
330
1F
100
AcDbEntity
  8
Object
100
AcDbLine
 10
1.033370919781727
 20
4.574618116770132
 30
0.0
 11
1.033370919781727
 21
4.533618116770131
 31
0.0
  0
LINE
  5
25C
330
1F
100
AcDbEntity
  8
Object
100
AcDbLine
 10
1.033370919781727
 20
4.436618116770132
 30
0.0
 11
1.033370919781727
 21
4.487618116770132
 31
0.0
  0
LINE
  5
25D
330
1F
100
AcDbEntity
  8
Object
100
AcDbLine
 10
1.033370919781727
 20
4.487618116770132
 30
0.0
 11
1.033370919781727
 21
4.533618116770131
 31
0.0
  0
LINE
  5
25E
330
1F
100
AcDbEntity
  8
Object
100
AcDbLine
 10
1.033370919781727
 20
4.605618116770131
 30
0.0
 11
1.033370919781727
 21
4.624618116770132
 31
0.0
  0
LINE
  5
25F
102
{ACAD_REACTORS
330
4C5
102
}
330
1F
100
AcDbEntity
  8
Object
100
AcDbLine
 10
1.033370919781727
 20
4.624618116770132
 30
0.0
 11
1.033370919781727
 21
4.631618116770132
 31
0.0
  0
LINE
  5
260
330
1F
100
AcDbEntity
  8
Object
100
AcDbLine
 10
5.143370919781727
 20
4.436618116770132
 30
0.0
 11
5.143370919781727
 21
4.241618116770132
 31
0.0
  0
LINE
  5
261
330
1F
100
AcDbEntity
  8
Object
100
AcDbLine
 10
5.143370919781727
 20
4.241618116770132
 30
0.0
 11
5.137370919781726
 21
4.203618116770131
 31
0.0
  0
LINE
  5
262
330
1F
100
AcDbEntity
  8
Object
100
AcDbLine
 10
5.137370919781726
 20
4.203618116770131
 30
0.0
 11
5.120370919781726
 21
4.168618116770131
 31
0.0
  0
LINE
  5
263
330
1F
100
AcDbEntity
  8
Object
100
AcDbLine
 10
5.120370919781726
 20
4.168618116770131
 30
0.0
 11
5.092370919781727
 21
4.140618116770132
 31
0.0
  0
LINE
  5
264
330
1F
100
AcDbEntity
  8
Object
100
AcDbLine
 10
5.092370919781727
 20
4.140618116770132
 30
0.0
 11
5.057370919781726
 21
4.122618116770132
 31
0.0
  0
LINE
  5
265
330
1F
100
AcDbEntity
  8
Object
100
AcDbLine
 10
5.057370919781726
 20
4.122618116770132
 30
0.0
 11
5.018370919781727
 21
4.116618116770132
 31
0.0
  0
LINE
  5
266
330
1F
100
AcDbEntity
  8
Object
100
AcDbLine
 10
1.791370919781726
 20
3.566618116770132
 30
0.0
 11
4.386370919781726
 21
3.566618116770132
 31
0.0
  0
LINE
  5
267
330
1F
100
AcDbEntity
  8
Object
100
AcDbLine
 10
5.018370919781727
 20
4.116618116770132
 30
0.0
 11
4.573370919781726
 21
4.116618116770132
 31
0.0
  0
LINE
  5
268
330
1F
100
AcDbEntity
  8
Object
100
AcDbLine
 10
4.573370919781726
 20
4.116618116770132
 30
0.0
 11
4.573370919781726
 21
3.891618116770132
 31
0.0
  0
LINE
  5
269
330
1F
100
AcDbEntity
  8
Object
100
AcDbLine
 10
1.603370919781728
 20
4.116618116770132
 30
0.0
 11
1.603370919781728
 21
3.891618116770132
 31
0.0
  0
LINE
  5
26A
330
1F
100
AcDbEntity
  8
Object
100
AcDbLine
 10
4.386370919781726
 20
3.566618116770132
 30
0.0
 11
4.573370919781726
 21
3.891618116770132
 31
0.0
  0
LINE
  5
26B
330
1F
100
AcDbEntity
  8
Object
100
AcDbLine
 10
1.603370919781728
 20
3.891618116770132
 30
0.0
 11
1.791370919781726
 21
3.566618116770132
 31
0.0
  0
LINE
  5
26C
330
1F
100
AcDbEntity
  8
Object
100
AcDbLine
 10
1.158370919781727
 20
4.116618116770132
 30
0.0
 11
1.119370919781726
 21
4.122618116770132
 31
0.0
  0
LINE
  5
26D
330
1F
100
AcDbEntity
  8
Object
100
AcDbLine
 10
1.119370919781726
 20
4.122618116770132
 30
0.0
 11
1.085370919781727
 21
4.140618116770132
 31
0.0
  0
LINE
  5
26E
330
1F
100
AcDbEntity
  8
Object
100
AcDbLine
 10
1.085370919781727
 20
4.140618116770132
 30
0.0
 11
1.057370919781726
 21
4.168618116770131
 31
0.0
  0
LINE
  5
26F
330
1F
100
AcDbEntity
  8
Object
100
AcDbLine
 10
1.057370919781726
 20
4.168618116770131
 30
0.0
 11
1.039370919781728
 21
4.203618116770131
 31
0.0
  0
LINE
  5
270
330
1F
100
AcDbEntity
  8
Object
100
AcDbLine
 10
1.039370919781728
 20
4.203618116770131
 30
0.0
 11
1.033370919781727
 21
4.241618116770132
 31
0.0
  0
LINE
  5
271
330
1F
100
AcDbEntity
  8
Object
100
AcDbLine
 10
1.033370919781727
 20
4.241618116770132
 30
0.0
 11
1.033370919781727
 21
4.436618116770132
 31
0.0
  0
LINE
  5
272
330
1F
100
AcDbEntity
  8
Object
100
AcDbLine
 10
1.158370919781727
 20
4.116618116770132
 30
0.0
 11
1.603370919781728
 21
4.116618116770132
 31
0.0
  0
LINE
  5
273
330
1F
100
AcDbEntity
  8
Object
100
AcDbLine
 10
3.996370919781726
 20
7.132384793542725
 30
0.0
 11
3.994370919781727
 21
7.137384793542725
 31
0.0
  0
LINE
  5
274
330
1F
100
AcDbEntity
  8
Object
100
AcDbLine
 10
3.994370919781727
 20
7.137384793542725
 30
0.0
 11
3.991370919781727
 21
7.140384793542725
 31
0.0
  0
LINE
  5
275
330
1F
100
AcDbEntity
  8
Object
100
AcDbLine
 10
3.991370919781727
 20
7.140384793542725
 30
0.0
 11
3.987370919781726
 21
7.141384793542725
 31
0.0
  0
LINE
  5
276
330
1F
100
AcDbEntity
  8
Object
100
AcDbLine
 10
3.987370919781726
 20
7.141384793542725
 30
0.0
 11
3.969370919781726
 21
7.141384793542725
 31
0.0
  0
LINE
  5
277
330
1F
100
AcDbEntity
  8
Object
100
AcDbLine
 10
3.991370919781727
 20
7.140384793542725
 30
0.0
 11
3.994370919781727
 21
7.137384793542725
 31
0.0
  0
LINE
  5
278
330
1F
100
AcDbEntity
  8
Object
100
AcDbLine
 10
3.994370919781727
 20
7.137384793542725
 30
0.0
 11
3.996370919781726
 21
7.132384793542725
 31
0.0
  0
LINE
  5
279
330
1F
100
AcDbEntity
  8
Object
100
AcDbLine
 10
3.996370919781726
 20
7.086384793542725
 30
0.0
 11
3.994370919781727
 21
7.082384793542725
 31
0.0
  0
LINE
  5
27A
330
1F
100
AcDbEntity
  8
Object
100
AcDbLine
 10
3.994370919781727
 20
7.082384793542725
 30
0.0
 11
3.991370919781727
 21
7.079384793542724
 31
0.0
  0
LINE
  5
27B
330
1F
100
AcDbEntity
  8
Object
100
AcDbLine
 10
3.991370919781727
 20
7.079384793542724
 30
0.0
 11
3.987370919781726
 21
7.078384793542725
 31
0.0
  0
LINE
  5
27C
330
1F
100
AcDbEntity
  8
Object
100
AcDbLine
 10
3.991370919781727
 20
7.140384793542725
 30
0.0
 11
3.987370919781726
 21
7.141384793542725
 31
0.0
  0
LINE
  5
27D
330
1F
100
AcDbEntity
  8
Object
100
AcDbLine
 10
3.969370919781726
 20
7.078384793542725
 30
0.0
 11
3.987370919781726
 21
7.078384793542725
 31
0.0
  0
LINE
  5
27E
330
1F
100
AcDbEntity
  8
Object
100
AcDbLine
 10
3.987370919781726
 20
7.141384793542725
 30
0.0
 11
3.969370919781726
 21
7.141384793542725
 31
0.0
  0
LINE
  5
27F
330
1F
100
AcDbEntity
  8
Object
100
AcDbLine
 10
3.996370919781726
 20
7.086384793542725
 30
0.0
 11
3.996370919781726
 21
7.132384793542725
 31
0.0
  0
LINE
  5
280
330
1F
100
AcDbEntity
  8
Object
100
AcDbLine
 10
3.969370919781726
 20
7.141384793542725
 30
0.0
 11
3.969370919781726
 21
7.078384793542725
 31
0.0
  0
LINE
  5
281
330
1F
100
AcDbEntity
  8
Object
100
AcDbLine
 10
3.996370919781726
 20
7.086384793542725
 30
0.0
 11
3.996370919781726
 21
7.132384793542725
 31
0.0
  0
LINE
  5
282
330
1F
100
AcDbEntity
  8
Object
100
AcDbLine
 10
3.969370919781726
 20
7.141384793542725
 30
0.0
 11
3.969370919781726
 21
7.078384793542725
 31
0.0
  0
LINE
  5
283
330
1F
100
AcDbEntity
  8
Object
100
AcDbLine
 10
3.888370919781726
 20
7.173384793542725
 30
0.0
 11
4.013370919781727
 21
7.173384793542725
 31
0.0
  0
LINE
  5
284
330
1F
100
AcDbEntity
  8
Object
100
AcDbLine
 10
4.254370919781726
 20
7.130384793542725
 30
0.0
 11
4.254370919781726
 21
6.993384793542725
 31
0.0
  0
LINE
  5
285
330
1F
100
AcDbEntity
  8
Object
100
AcDbLine
 10
4.072370919781726
 20
7.042384793542725
 30
0.0
 11
4.107370919781726
 21
7.042384793542725
 31
0.0
  0
LINE
  5
286
330
1F
100
AcDbEntity
  8
Object
100
AcDbLine
 10
4.126370919781726
 20
6.993384793542725
 30
0.0
 11
4.116370919781727
 21
7.013384793542725
 31
0.0
  0
LINE
  5
287
330
1F
100
AcDbEntity
  8
Object
100
AcDbLine
 10
4.013370919781727
 20
7.049384793542725
 30
0.0
 11
3.969370919781726
 21
7.049384793542725
 31
0.0
  0
LINE
  5
288
330
1F
100
AcDbEntity
  8
Object
100
AcDbLine
 10
4.072370919781726
 20
7.130384793542725
 30
0.0
 11
4.059370919781726
 21
7.152384793542725
 31
0.0
  0
LINE
  5
289
330
1F
100
AcDbEntity
  8
Object
100
AcDbLine
 10
4.059370919781726
 20
7.152384793542725
 30
0.0
 11
4.038370919781726
 21
7.167384793542725
 31
0.0
  0
LINE
  5
28A
330
1F
100
AcDbEntity
  8
Object
100
AcDbLine
 10
4.038370919781726
 20
7.167384793542725
 30
0.0
 11
4.013370919781727
 21
7.173384793542725
 31
0.0
  0
LINE
  5
28B
330
1F
100
AcDbEntity
  8
Object
100
AcDbLine
 10
4.015370919781727
 20
6.993384793542725
 30
0.0
 11
4.040370919781726
 21
7.055384793542724
 31
0.0
  0
LINE
  5
28C
330
1F
100
AcDbEntity
  8
Object
100
AcDbLine
 10
3.996370919781726
 20
7.086384793542725
 30
0.0
 11
3.994370919781727
 21
7.082384793542725
 31
0.0
  0
LINE
  5
28D
330
1F
100
AcDbEntity
  8
Object
100
AcDbLine
 10
3.994370919781727
 20
7.082384793542725
 30
0.0
 11
3.991370919781727
 21
7.079384793542724
 31
0.0
  0
LINE
  5
28E
330
1F
100
AcDbEntity
  8
Object
100
AcDbLine
 10
3.991370919781727
 20
7.079384793542724
 30
0.0
 11
3.987370919781726
 21
7.078384793542725
 31
0.0
  0
LINE
  5
28F
330
1F
100
AcDbEntity
  8
Object
100
AcDbLine
 10
4.107370919781726
 20
7.042384793542725
 30
0.0
 11
4.090370919781727
 21
7.081384793542725
 31
0.0
  0
LINE
  5
290
330
1F
100
AcDbEntity
  8
Object
100
AcDbLine
 10
4.219370919781726
 20
7.074384793542725
 30
0.0
 11
4.219370919781726
 21
7.130384793542725
 31
0.0
  0
LINE
  5
291
330
1F
100
AcDbEntity
  8
Object
100
AcDbLine
 10
3.969370919781726
 20
7.049384793542725
 30
0.0
 11
3.969370919781726
 21
6.993384793542725
 31
0.0
  0
LINE
  5
292
330
1F
100
AcDbEntity
  8
Object
100
AcDbLine
 10
4.090370919781727
 20
7.081384793542725
 30
0.0
 11
4.072370919781726
 21
7.042384793542725
 31
0.0
  0
LINE
  5
293
330
1F
100
AcDbEntity
  8
Object
100
AcDbLine
 10
4.040370919781726
 20
7.055384793542724
 30
0.0
 11
4.032370919781726
 21
7.052384793542725
 31
0.0
  0
LINE
  5
294
330
1F
100
AcDbEntity
  8
Object
100
AcDbLine
 10
4.032370919781726
 20
7.052384793542725
 30
0.0
 11
4.023370919781727
 21
7.050384793542725
 31
0.0
  0
LINE
  5
295
330
1F
100
AcDbEntity
  8
Object
100
AcDbLine
 10
4.023370919781727
 20
7.050384793542725
 30
0.0
 11
4.013370919781727
 21
7.049384793542725
 31
0.0
  0
LINE
  5
296
330
1F
100
AcDbEntity
  8
Object
100
AcDbLine
 10
4.149370919781726
 20
7.130384793542725
 30
0.0
 11
4.195370919781726
 21
7.130384793542725
 31
0.0
  0
LINE
  5
297
330
1F
100
AcDbEntity
  8
Object
100
AcDbLine
 10
4.187370919781726
 20
7.051384793542725
 30
0.0
 11
4.187370919781726
 21
6.993384793542725
 31
0.0
  0
LINE
  5
298
330
1F
100
AcDbEntity
  8
Object
100
AcDbLine
 10
3.969370919781726
 20
7.078384793542725
 30
0.0
 11
3.987370919781726
 21
7.078384793542725
 31
0.0
  0
LINE
  5
299
330
1F
100
AcDbEntity
  8
Object
100
AcDbLine
 10
4.108370919781727
 20
7.130384793542725
 30
0.0
 11
4.149370919781726
 21
7.041384793542725
 31
0.0
  0
LINE
  5
29A
330
1F
100
AcDbEntity
  8
Object
100
AcDbLine
 10
4.055370919781727
 20
6.993384793542725
 30
0.0
 11
4.015370919781727
 21
6.993384793542725
 31
0.0
  0
LINE
  5
29B
330
1F
100
AcDbEntity
  8
Object
100
AcDbLine
 10
3.888370919781726
 20
6.993384793542725
 30
0.0
 11
3.888370919781726
 21
7.173384793542725
 31
0.0
  0
LINE
  5
29C
330
1F
100
AcDbEntity
  8
Object
100
AcDbLine
 10
4.195370919781726
 20
7.130384793542725
 30
0.0
 11
4.219370919781726
 21
7.074384793542725
 31
0.0
  0
LINE
  5
29D
330
1F
100
AcDbEntity
  8
Object
100
AcDbLine
 10
4.149370919781726
 20
7.041384793542725
 30
0.0
 11
4.149370919781726
 21
7.130384793542725
 31
0.0
  0
LINE
  5
29E
330
1F
100
AcDbEntity
  8
Object
100
AcDbLine
 10
4.254370919781726
 20
6.993384793542725
 30
0.0
 11
4.213370919781726
 21
6.993384793542725
 31
0.0
  0
LINE
  5
29F
330
1F
100
AcDbEntity
  8
Object
100
AcDbLine
 10
4.213370919781726
 20
6.993384793542725
 30
0.0
 11
4.187370919781726
 21
7.051384793542725
 31
0.0
  0
LINE
  5
2A0
330
1F
100
AcDbEntity
  8
Object
100
AcDbLine
 10
4.116370919781727
 20
7.013384793542725
 30
0.0
 11
4.064370919781726
 21
7.013384793542725
 31
0.0
  0
LINE
  5
2A1
330
1F
100
AcDbEntity
  8
Object
100
AcDbLine
 10
4.072370919781726
 20
7.130384793542725
 30
0.0
 11
4.108370919781727
 21
7.130384793542725
 31
0.0
  0
LINE
  5
2A2
330
1F
100
AcDbEntity
  8
Object
100
AcDbLine
 10
4.187370919781726
 20
6.993384793542725
 30
0.0
 11
4.126370919781726
 21
6.993384793542725
 31
0.0
  0
LINE
  5
2A3
330
1F
100
AcDbEntity
  8
Object
100
AcDbLine
 10
4.219370919781726
 20
7.130384793542725
 30
0.0
 11
4.254370919781726
 21
7.130384793542725
 31
0.0
  0
LINE
  5
2A4
330
1F
100
AcDbEntity
  8
Object
100
AcDbLine
 10
4.064370919781726
 20
7.013384793542725
 30
0.0
 11
4.055370919781727
 21
6.993384793542725
 31
0.0
  0
LINE
  5
2A5
330
1F
100
AcDbEntity
  8
Object
100
AcDbLine
 10
3.969370919781726
 20
6.993384793542725
 30
0.0
 11
3.888370919781726
 21
6.993384793542725
 31
0.0
  0
LINE
  5
2A6
330
1F
100
AcDbEntity
  8
Object
100
AcDbLine
 10
5.143370919781727
 20
6.323384793542725
 30
0.0
 11
5.143370919781727
 21
7.423384793542725
 31
0.0
  0
LINE
  5
2A7
330
1F
100
AcDbEntity
  8
Object
100
AcDbLine
 10
4.770370919781727
 20
6.735384793542725
 30
0.0
 11
4.770370919781727
 21
6.693384793542725
 31
0.0
  0
LINE
  5
2A8
330
1F
100
AcDbEntity
  8
Object
100
AcDbLine
 10
4.770370919781727
 20
6.636384793542725
 30
0.0
 11
4.770370919781727
 21
6.677384793542725
 31
0.0
  0
LINE
  5
2A9
330
1F
100
AcDbEntity
  8
Object
100
AcDbLine
 10
4.770370919781727
 20
6.677384793542725
 30
0.0
 11
4.755370919781727
 21
6.685384793542725
 31
0.0
  0
LINE
  5
2AA
330
1F
100
AcDbEntity
  8
Object
100
AcDbLine
 10
4.755370919781727
 20
6.685384793542725
 30
0.0
 11
4.770370919781727
 21
6.693384793542725
 31
0.0
  0
LINE
  5
2AB
330
1F
100
AcDbEntity
  8
Object
100
AcDbLine
 10
4.770370919781727
 20
6.636384793542725
 30
0.0
 11
4.744370919781727
 21
6.623384793542725
 31
0.0
  0
LINE
  5
2AC
330
1F
100
AcDbEntity
  8
Object
100
AcDbLine
 10
4.744370919781727
 20
6.623384793542725
 30
0.0
 11
4.691370919781727
 21
6.623384793542725
 31
0.0
  0
LINE
  5
2AD
330
1F
100
AcDbEntity
  8
Object
100
AcDbLine
 10
4.689370919781726
 20
7.130384793542725
 30
0.0
 11
4.689370919781726
 21
7.102384793542725
 31
0.0
  0
LINE
  5
2AE
330
1F
100
AcDbEntity
  8
Object
100
AcDbLine
 10
4.665370919781726
 20
6.693384793542725
 30
0.0
 11
4.681370919781726
 21
6.685384793542725
 31
0.0
  0
LINE
  5
2AF
330
1F
100
AcDbEntity
  8
Object
100
AcDbLine
 10
4.681370919781726
 20
6.685384793542725
 30
0.0
 11
4.665370919781726
 21
6.677384793542725
 31
0.0
  0
LINE
  5
2B0
330
1F
100
AcDbEntity
  8
Object
100
AcDbLine
 10
4.658370919781726
 20
6.993384793542725
 30
0.0
 11
4.658370919781726
 21
7.102384793542725
 31
0.0
  0
LINE
  5
2B1
330
1F
100
AcDbEntity
  8
Object
100
AcDbLine
 10
4.658370919781726
 20
7.102384793542725
 30
0.0
 11
4.689370919781726
 21
7.102384793542725
 31
0.0
  0
LINE
  5
2B2
330
1F
100
AcDbEntity
  8
Object
100
AcDbLine
 10
4.770370919781727
 20
6.735384793542725
 30
0.0
 11
4.744370919781727
 21
6.748384793542725
 31
0.0
  0
LINE
  5
2B3
330
1F
100
AcDbEntity
  8
Object
100
AcDbLine
 10
4.744370919781727
 20
6.748384793542725
 30
0.0
 11
4.691370919781727
 21
6.748384793542725
 31
0.0
  0
LINE
  5
2B4
330
1F
100
AcDbEntity
  8
Object
100
AcDbLine
 10
4.658370919781726
 20
6.993384793542725
 30
0.0
 11
4.615370919781726
 21
6.993384793542725
 31
0.0
  0
LINE
  5
2B5
330
1F
100
AcDbEntity
  8
Object
100
AcDbLine
 10
4.665370919781726
 20
6.735384793542725
 30
0.0
 11
4.691370919781727
 21
6.748384793542725
 31
0.0
  0
LINE
  5
2B6
330
1F
100
AcDbEntity
  8
Object
100
AcDbLine
 10
4.603370919781727
 20
6.748384793542725
 30
0.0
 11
4.603370919781727
 21
6.736384793542725
 31
0.0
  0
LINE
  5
2B7
330
1F
100
AcDbEntity
  8
Object
100
AcDbLine
 10
4.665370919781726
 20
6.636384793542725
 30
0.0
 11
4.665370919781726
 21
6.677384793542725
 31
0.0
  0
LINE
  5
2B8
330
1F
100
AcDbEntity
  8
Object
100
AcDbLine
 10
4.603370919781727
 20
6.689384793542725
 30
0.0
 11
4.603370919781727
 21
6.636384793542725
 31
0.0
  0
LINE
  5
2B9
330
1F
100
AcDbEntity
  8
Object
100
AcDbLine
 10
4.665370919781726
 20
6.693384793542725
 30
0.0
 11
4.665370919781726
 21
6.735384793542725
 31
0.0
  0
LINE
  5
2BA
330
1F
100
AcDbEntity
  8
Object
100
AcDbLine
 10
4.587370919781727
 20
7.130384793542725
 30
0.0
 11
4.689370919781726
 21
7.130384793542725
 31
0.0
  0
LINE
  5
2BB
330
1F
100
AcDbEntity
  8
Object
100
AcDbLine
 10
4.587370919781727
 20
7.102384793542725
 30
0.0
 11
4.615370919781726
 21
7.102384793542725
 31
0.0
  0
LINE
  5
2BC
330
1F
100
AcDbEntity
  8
Object
100
AcDbLine
 10
4.615370919781726
 20
7.102384793542725
 30
0.0
 11
4.615370919781726
 21
6.993384793542725
 31
0.0
  0
LINE
  5
2BD
330
1F
100
AcDbEntity
  8
Object
100
AcDbLine
 10
4.576370919781727
 20
6.702384793542725
 30
0.0
 11
4.603370919781727
 21
6.689384793542725
 31
0.0
  0
LINE
  5
2BE
330
1F
100
AcDbEntity
  8
Object
100
AcDbLine
 10
4.603370919781727
 20
6.636384793542725
 30
0.0
 11
4.576370919781727
 21
6.623384793542725
 31
0.0
  0
LINE
  5
2BF
330
1F
100
AcDbEntity
  8
Object
100
AcDbLine
 10
4.691370919781727
 20
6.623384793542725
 30
0.0
 11
4.665370919781726
 21
6.636384793542725
 31
0.0
  0
LINE
  5
2C0
330
1F
100
AcDbEntity
  8
Object
100
AcDbLine
 10
4.587370919781727
 20
7.102384793542725
 30
0.0
 11
4.587370919781727
 21
7.130384793542725
 31
0.0
  0
LINE
  5
2C1
330
1F
100
AcDbEntity
  8
Object
100
AcDbLine
 10
4.563370919781727
 20
7.130384793542725
 30
0.0
 11
4.563370919781727
 21
6.993384793542725
 31
0.0
  0
LINE
  5
2C2
330
1F
100
AcDbEntity
  8
Object
100
AcDbLine
 10
4.562370919781726
 20
6.690384793542725
 30
0.0
 11
4.587370919781727
 21
6.677384793542725
 31
0.0
  0
LINE
  5
2C3
330
1F
100
AcDbEntity
  8
Object
100
AcDbLine
 10
4.587370919781727
 20
6.677384793542725
 30
0.0
 11
4.587370919781727
 21
6.647384793542725
 31
0.0
  0
LINE
  5
2C4
330
1F
100
AcDbEntity
  8
Object
100
AcDbLine
 10
4.587370919781727
 20
6.647384793542725
 30
0.0
 11
4.562370919781726
 21
6.634384793542725
 31
0.0
  0
LINE
  5
2C5
330
1F
100
AcDbEntity
  8
Object
100
AcDbLine
 10
4.562370919781726
 20
6.634384793542725
 30
0.0
 11
4.539370919781727
 21
6.634384793542725
 31
0.0
  0
LINE
  5
2C6
330
1F
100
AcDbEntity
  8
Object
100
AcDbLine
 10
4.562370919781726
 20
6.690384793542725
 30
0.0
 11
4.539370919781727
 21
6.690384793542725
 31
0.0
  0
LINE
  5
2C7
330
1F
100
AcDbEntity
  8
Object
100
AcDbLine
 10
4.526370919781727
 20
7.130384793542725
 30
0.0
 11
4.563370919781727
 21
7.130384793542725
 31
0.0
  0
LINE
  5
2C8
330
1F
100
AcDbEntity
  8
Object
100
AcDbLine
 10
4.576370919781727
 20
6.623384793542725
 30
0.0
 11
4.524370919781726
 21
6.623384793542725
 31
0.0
  0
LINE
  5
2C9
330
1F
100
AcDbEntity
  8
Object
100
AcDbLine
 10
4.576370919781727
 20
6.702384793542725
 30
0.0
 11
4.524370919781726
 21
6.702384793542725
 31
0.0
  0
LINE
  5
2CA
330
1F
100
AcDbEntity
  8
Object
100
AcDbLine
 10
4.524370919781726
 20
6.702384793542725
 30
0.0
 11
4.513370919781727
 21
6.697384793542725
 31
0.0
  0
LINE
  5
2CB
330
1F
100
AcDbEntity
  8
Object
100
AcDbLine
 10
4.513370919781727
 20
6.697384793542725
 30
0.0
 11
4.513370919781727
 21
6.736384793542725
 31
0.0
  0
LINE
  5
2CC
330
1F
100
AcDbEntity
  8
Object
100
AcDbLine
 10
4.513370919781727
 20
6.736384793542725
 30
0.0
 11
4.603370919781727
 21
6.736384793542725
 31
0.0
  0
LINE
  5
2CD
330
1F
100
AcDbEntity
  8
Object
100
AcDbLine
 10
4.539370919781727
 20
6.690384793542725
 30
0.0
 11
4.513370919781727
 21
6.677384793542725
 31
0.0
  0
LINE
  5
2CE
330
1F
100
AcDbEntity
  8
Object
100
AcDbLine
 10
4.539370919781727
 20
6.634384793542725
 30
0.0
 11
4.513370919781727
 21
6.647384793542725
 31
0.0
  0
LINE
  5
2CF
330
1F
100
AcDbEntity
  8
Object
100
AcDbLine
 10
4.513370919781727
 20
6.647384793542725
 30
0.0
 11
4.513370919781727
 21
6.658384793542725
 31
0.0
  0
LINE
  5
2D0
330
1F
100
AcDbEntity
  8
Object
100
AcDbLine
 10
4.502370919781727
 20
7.130384793542725
 30
0.0
 11
4.502370919781727
 21
7.017384793542725
 31
0.0
  0
LINE
  5
2D1
330
1F
100
AcDbEntity
  8
Object
100
AcDbLine
 10
4.526370919781727
 20
6.993384793542725
 30
0.0
 11
4.526370919781727
 21
7.130384793542725
 31
0.0
  0
LINE
  5
2D2
330
1F
100
AcDbEntity
  8
Object
100
AcDbLine
 10
4.502370919781727
 20
7.017384793542725
 30
0.0
 11
4.499370919781727
 21
7.005384793542725
 31
0.0
  0
LINE
  5
2D3
330
1F
100
AcDbEntity
  8
Object
100
AcDbLine
 10
4.498370919781726
 20
6.748384793542725
 30
0.0
 11
4.603370919781727
 21
6.748384793542725
 31
0.0
  0
LINE
  5
2D4
330
1F
100
AcDbEntity
  8
Object
100
AcDbLine
 10
4.563370919781727
 20
6.993384793542725
 30
0.0
 11
4.526370919781727
 21
6.993384793542725
 31
0.0
  0
LINE
  5
2D5
330
1F
100
AcDbEntity
  8
Object
100
AcDbLine
 10
4.513370919781727
 20
6.677384793542725
 30
0.0
 11
4.498370919781726
 21
6.677384793542725
 31
0.0
  0
LINE
  5
2D6
330
1F
100
AcDbEntity
  8
Object
100
AcDbLine
 10
4.498370919781726
 20
6.658384793542725
 30
0.0
 11
4.513370919781727
 21
6.658384793542725
 31
0.0
  0
LINE
  5
2D7
330
1F
100
AcDbEntity
  8
Object
100
AcDbLine
 10
4.499370919781727
 20
7.005384793542725
 30
0.0
 11
4.490370919781726
 21
6.996384793542725
 31
0.0
  0
LINE
  5
2D8
330
1F
100
AcDbEntity
  8
Object
100
AcDbLine
 10
4.490370919781726
 20
6.996384793542725
 30
0.0
 11
4.478370919781727
 21
6.993384793542725
 31
0.0
  0
LINE
  5
2D9
330
1F
100
AcDbEntity
  8
Object
100
AcDbLine
 10
4.474370919781726
 20
7.130384793542725
 30
0.0
 11
4.502370919781727
 21
7.130384793542725
 31
0.0
  0
LINE
  5
2DA
330
1F
100
AcDbEntity
  8
Object
100
AcDbLine
 10
4.473370919781727
 20
7.028384793542725
 30
0.0
 11
4.470370919781727
 21
7.025384793542725
 31
0.0
  0
LINE
  5
2DB
330
1F
100
AcDbEntity
  8
Object
100
AcDbLine
 10
4.470370919781727
 20
7.025384793542725
 30
0.0
 11
4.467370919781727
 21
7.024384793542725
 31
0.0
  0
LINE
  5
2DC
330
1F
100
AcDbEntity
  8
Object
100
AcDbLine
 10
4.473370919781727
 20
7.028384793542725
 30
0.0
 11
4.474370919781726
 21
7.031384793542724
 31
0.0
  0
LINE
  5
2DD
330
1F
100
AcDbEntity
  8
Object
100
AcDbLine
 10
4.467370919781727
 20
7.024384793542725
 30
0.0
 11
4.457370919781727
 21
7.024384793542725
 31
0.0
  0
LINE
  5
2DE
330
1F
100
AcDbEntity
  8
Object
100
AcDbLine
 10
4.457370919781727
 20
7.024384793542725
 30
0.0
 11
4.453370919781726
 21
7.025384793542725
 31
0.0
  0
LINE
  5
2DF
330
1F
100
AcDbEntity
  8
Object
100
AcDbLine
 10
4.453370919781726
 20
7.025384793542725
 30
0.0
 11
4.451370919781727
 21
7.028384793542725
 31
0.0
  0
LINE
  5
2E0
330
1F
100
AcDbEntity
  8
Object
100
AcDbLine
 10
4.451370919781727
 20
7.028384793542725
 30
0.0
 11
4.450370919781726
 21
7.031384793542724
 31
0.0
  0
LINE
  5
2E1
330
1F
100
AcDbEntity
  8
Object
100
AcDbLine
 10
4.474370919781726
 20
7.031384793542724
 30
0.0
 11
4.474370919781726
 21
7.130384793542725
 31
0.0
  0
LINE
  5
2E2
330
1F
100
AcDbEntity
  8
Object
100
AcDbLine
 10
4.450370919781726
 20
7.130384793542725
 30
0.0
 11
4.450370919781726
 21
7.031384793542724
 31
0.0
  0
LINE
  5
2E3
330
1F
100
AcDbEntity
  8
Object
100
AcDbLine
 10
4.498370919781726
 20
6.677384793542725
 30
0.0
 11
4.498370919781726
 21
6.748384793542725
 31
0.0
  0
LINE
  5
2E4
330
1F
100
AcDbEntity
  8
Object
100
AcDbLine
 10
4.498370919781726
 20
6.636384793542725
 30
0.0
 11
4.498370919781726
 21
6.658384793542725
 31
0.0
  0
LINE
  5
2E5
330
1F
100
AcDbEntity
  8
Object
100
AcDbLine
 10
4.431370919781726
 20
6.684384793542725
 30
0.0
 11
4.431370919781726
 21
6.636384793542725
 31
0.0
  0
LINE
  5
2E6
330
1F
100
AcDbEntity
  8
Object
100
AcDbLine
 10
4.420370919781727
 20
6.736384793542725
 30
0.0
 11
4.420370919781727
 21
6.696384793542724
 31
0.0
  0
LINE
  5
2E7
330
1F
100
AcDbEntity
  8
Object
100
AcDbLine
 10
4.431370919781726
 20
6.684384793542725
 30
0.0
 11
4.417370919781727
 21
6.692384793542725
 31
0.0
  0
LINE
  5
2E8
330
1F
100
AcDbEntity
  8
Object
100
AcDbLine
 10
4.417370919781727
 20
6.692384793542725
 30
0.0
 11
4.420370919781727
 21
6.696384793542724
 31
0.0
  0
LINE
  5
2E9
330
1F
100
AcDbEntity
  8
Object
100
AcDbLine
 10
4.410370919781726
 20
6.748384793542725
 30
0.0
 11
4.420370919781727
 21
6.736384793542725
 31
0.0
  0
LINE
  5
2EA
330
1F
100
AcDbEntity
  8
Object
100
AcDbLine
 10
4.478370919781727
 20
6.993384793542725
 30
0.0
 11
4.429370919781726
 21
6.993384793542725
 31
0.0
  0
LINE
  5
2EB
330
1F
100
AcDbEntity
  8
Object
100
AcDbLine
 10
4.431370919781726
 20
6.636384793542725
 30
0.0
 11
4.410370919781726
 21
6.623384793542725
 31
0.0
  0
LINE
  5
2EC
330
1F
100
AcDbEntity
  8
Object
100
AcDbLine
 10
4.524370919781726
 20
6.623384793542725
 30
0.0
 11
4.498370919781726
 21
6.636384793542725
 31
0.0
  0
LINE
  5
2ED
330
1F
100
AcDbEntity
  8
Object
100
AcDbLine
 10
4.404370919781727
 20
7.130384793542725
 30
0.0
 11
4.450370919781726
 21
7.130384793542725
 31
0.0
  0
LINE
  5
2EE
330
1F
100
AcDbEntity
  8
Object
100
AcDbLine
 10
4.380370919781727
 20
7.106384793542725
 30
0.0
 11
4.380370919781727
 21
7.017384793542725
 31
0.0
  0
LINE
  5
2EF
330
1F
100
AcDbEntity
  8
Object
100
AcDbLine
 10
4.404370919781727
 20
7.130384793542725
 30
0.0
 11
4.404370919781727
 21
7.017384793542725
 31
0.0
  0
LINE
  5
2F0
330
1F
100
AcDbEntity
  8
Object
100
AcDbLine
 10
4.404370919781727
 20
7.017384793542725
 30
0.0
 11
4.407370919781726
 21
7.005384793542725
 31
0.0
  0
LINE
  5
2F1
330
1F
100
AcDbEntity
  8
Object
100
AcDbLine
 10
4.377370919781727
 20
7.118384793542725
 30
0.0
 11
4.380370919781727
 21
7.106384793542725
 31
0.0
  0
LINE
  5
2F2
330
1F
100
AcDbEntity
  8
Object
100
AcDbLine
 10
4.380370919781727
 20
7.017384793542725
 30
0.0
 11
4.377370919781727
 21
7.005384793542725
 31
0.0
  0
LINE
  5
2F3
330
1F
100
AcDbEntity
  8
Object
100
AcDbLine
 10
4.368370919781726
 20
7.127384793542725
 30
0.0
 11
4.377370919781727
 21
7.118384793542725
 31
0.0
  0
LINE
  5
2F4
330
1F
100
AcDbEntity
  8
Object
100
AcDbLine
 10
4.416370919781726
 20
6.996384793542725
 30
0.0
 11
4.407370919781726
 21
7.005384793542725
 31
0.0
  0
LINE
  5
2F5
330
1F
100
AcDbEntity
  8
Object
100
AcDbLine
 10
4.377370919781727
 20
7.005384793542725
 30
0.0
 11
4.368370919781726
 21
6.996384793542725
 31
0.0
  0
LINE
  5
2F6
330
1F
100
AcDbEntity
  8
Object
100
AcDbLine
 10
4.356370919781727
 20
7.130384793542725
 30
0.0
 11
4.368370919781726
 21
7.127384793542725
 31
0.0
  0
LINE
  5
2F7
330
1F
100
AcDbEntity
  8
Object
100
AcDbLine
 10
4.429370919781726
 20
6.993384793542725
 30
0.0
 11
4.416370919781726
 21
6.996384793542725
 31
0.0
  0
LINE
  5
2F8
330
1F
100
AcDbEntity
  8
Object
100
AcDbLine
 10
4.368370919781726
 20
6.996384793542725
 30
0.0
 11
4.356370919781727
 21
6.993384793542725
 31
0.0
  0
LINE
  5
2F9
330
1F
100
AcDbEntity
  8
Object
100
AcDbLine
 10
4.325370919781726
 20
6.748384793542725
 30
0.0
 11
4.410370919781726
 21
6.748384793542725
 31
0.0
  0
LINE
  5
2FA
330
1F
100
AcDbEntity
  8
Object
100
AcDbLine
 10
4.410370919781726
 20
6.623384793542725
 30
0.0
 11
4.325370919781726
 21
6.623384793542725
 31
0.0
  0
LINE
  5
2FB
330
1F
100
AcDbEntity
  8
Object
100
AcDbLine
 10
4.325370919781726
 20
6.623384793542725
 30
0.0
 11
4.325370919781726
 21
6.748384793542725
 31
0.0
  0
LINE
  5
2FC
330
1F
100
AcDbEntity
  8
Object
100
AcDbLine
 10
4.356370919781727
 20
6.993384793542725
 30
0.0
 11
4.278370919781727
 21
6.993384793542725
 31
0.0
  0
LINE
  5
2FD
330
1F
100
AcDbEntity
  8
Object
100
AcDbLine
 10
4.286370919781727
 20
6.623384793542725
 30
0.0
 11
4.269370919781726
 21
6.623384793542725
 31
0.0
  0
LINE
  5
2FE
330
1F
100
AcDbEntity
  8
Object
100
AcDbLine
 10
4.254370919781726
 20
7.130384793542725
 30
0.0
 11
4.254370919781726
 21
6.993384793542725
 31
0.0
  0
LINE
  5
2FF
330
1F
100
AcDbEntity
  8
Object
100
AcDbLine
 10
4.278370919781727
 20
6.993384793542725
 30
0.0
 11
4.278370919781727
 21
7.130384793542725
 31
0.0
  0
LINE
  5
300
330
1F
100
AcDbEntity
  8
Object
100
AcDbLine
 10
4.241370919781727
 20
6.748384793542725
 30
0.0
 11
4.286370919781727
 21
6.623384793542725
 31
0.0
  0
LINE
  5
301
330
1F
100
AcDbEntity
  8
Object
100
AcDbLine
 10
4.254370919781726
 20
6.993384793542725
 30
0.0
 11
4.213370919781726
 21
6.993384793542725
 31
0.0
  0
LINE
  5
302
330
1F
100
AcDbEntity
  8
Object
100
AcDbLine
 10
4.224370919781726
 20
6.748384793542725
 30
0.0
 11
4.241370919781727
 21
6.748384793542725
 31
0.0
  0
LINE
  5
303
330
1F
100
AcDbEntity
  8
Object
100
AcDbLine
 10
4.269370919781726
 20
6.623384793542725
 30
0.0
 11
4.260370919781727
 21
6.645384793542725
 31
0.0
  0
LINE
  5
304
330
1F
100
AcDbEntity
  8
Object
100
AcDbLine
 10
4.195370919781726
 20
6.623384793542725
 30
0.0
 11
4.204370919781727
 21
6.645384793542725
 31
0.0
  0
LINE
  5
305
330
1F
100
AcDbEntity
  8
Object
100
AcDbLine
 10
4.204370919781727
 20
6.645384793542725
 30
0.0
 11
4.260370919781727
 21
6.645384793542725
 31
0.0
  0
LINE
  5
306
330
1F
100
AcDbEntity
  8
Object
100
AcDbLine
 10
4.219370919781726
 20
7.130384793542725
 30
0.0
 11
4.219370919781726
 21
7.074384793542725
 31
0.0
  0
LINE
  5
307
330
1F
100
AcDbEntity
  8
Object
100
AcDbLine
 10
4.219370919781726
 20
7.074384793542725
 30
0.0
 11
4.195370919781726
 21
7.130384793542725
 31
0.0
  0
LINE
  5
308
330
1F
100
AcDbEntity
  8
Object
100
AcDbLine
 10
4.187370919781726
 20
6.993384793542725
 30
0.0
 11
4.187370919781726
 21
7.051384793542725
 31
0.0
  0
LINE
  5
309
330
1F
100
AcDbEntity
  8
Object
100
AcDbLine
 10
4.187370919781726
 20
7.051384793542725
 30
0.0
 11
4.213370919781726
 21
6.993384793542725
 31
0.0
  0
LINE
  5
30A
330
1F
100
AcDbEntity
  8
Object
100
AcDbLine
 10
4.195370919781726
 20
6.623384793542725
 30
0.0
 11
4.178370919781727
 21
6.623384793542725
 31
0.0
  0
LINE
  5
30B
330
1F
100
AcDbEntity
  8
Object
100
AcDbLine
 10
4.187370919781726
 20
6.993384793542725
 30
0.0
 11
4.126370919781726
 21
6.993384793542725
 31
0.0
  0
LINE
  5
30C
330
1F
100
AcDbEntity
  8
Object
100
AcDbLine
 10
4.114370919781727
 20
6.748384793542725
 30
0.0
 11
4.114370919781727
 21
6.736384793542725
 31
0.0
  0
LINE
  5
30D
330
1F
100
AcDbEntity
  8
Object
100
AcDbLine
 10
4.114370919781727
 20
6.634384793542725
 30
0.0
 11
4.114370919781727
 21
6.623384793542725
 31
0.0
  0
LINE
  5
30E
330
1F
100
AcDbEntity
  8
Object
100
AcDbLine
 10
4.178370919781727
 20
6.623384793542725
 30
0.0
 11
4.224370919781726
 21
6.748384793542725
 31
0.0
  0
LINE
  5
30F
330
1F
100
AcDbEntity
  8
Object
100
AcDbLine
 10
4.114370919781727
 20
6.634384793542725
 30
0.0
 11
4.112370919781726
 21
6.634384793542725
 31
0.0
  0
LINE
  5
310
330
1F
100
AcDbEntity
  8
Object
100
AcDbLine
 10
4.112370919781726
 20
6.634384793542725
 30
0.0
 11
4.112370919781726
 21
6.736384793542725
 31
0.0
  0
LINE
  5
311
330
1F
100
AcDbEntity
  8
Object
100
AcDbLine
 10
4.112370919781726
 20
6.736384793542725
 30
0.0
 11
4.114370919781727
 21
6.736384793542725
 31
0.0
  0
LINE
  5
312
330
1F
100
AcDbEntity
  8
Object
100
AcDbLine
 10
4.149370919781726
 20
7.130384793542725
 30
0.0
 11
4.149370919781726
 21
7.041384793542725
 31
0.0
  0
LINE
  5
313
330
1F
100
AcDbEntity
  8
Object
100
AcDbLine
 10
4.149370919781726
 20
7.041384793542725
 30
0.0
 11
4.108370919781727
 21
7.130384793542725
 31
0.0
  0
LINE
  5
314
330
1F
100
AcDbEntity
  8
Object
100
AcDbLine
 10
4.103370919781727
 20
6.748384793542725
 30
0.0
 11
4.114370919781727
 21
6.748384793542725
 31
0.0
  0
LINE
  5
315
330
1F
100
AcDbEntity
  8
Object
100
AcDbLine
 10
4.103370919781727
 20
6.736384793542725
 30
0.0
 11
4.105370919781726
 21
6.736384793542725
 31
0.0
  0
LINE
  5
316
330
1F
100
AcDbEntity
  8
Object
100
AcDbLine
 10
4.105370919781726
 20
6.736384793542725
 30
0.0
 11
4.105370919781726
 21
6.634384793542725
 31
0.0
  0
LINE
  5
317
330
1F
100
AcDbEntity
  8
Object
100
AcDbLine
 10
4.105370919781726
 20
6.634384793542725
 30
0.0
 11
4.103370919781727
 21
6.634384793542725
 31
0.0
  0
LINE
  5
318
330
1F
100
AcDbEntity
  8
Object
100
AcDbLine
 10
4.114370919781727
 20
6.623384793542725
 30
0.0
 11
4.103370919781727
 21
6.623384793542725
 31
0.0
  0
LINE
  5
319
330
1F
100
AcDbEntity
  8
Object
100
AcDbLine
 10
4.108370919781727
 20
7.130384793542725
 30
0.0
 11
4.072370919781726
 21
7.130384793542725
 31
0.0
  0
LINE
  5
31A
330
1F
100
AcDbEntity
  8
Object
100
AcDbLine
 10
4.072370919781726
 20
7.130384793542725
 30
0.0
 11
4.059370919781726
 21
7.152384793542725
 31
0.0
  0
LINE
  5
31B
330
1F
100
AcDbEntity
  8
Object
100
AcDbLine
 10
4.126370919781726
 20
6.993384793542725
 30
0.0
 11
4.116370919781727
 21
7.013384793542725
 31
0.0
  0
LINE
  5
31C
330
1F
100
AcDbEntity
  8
Object
100
AcDbLine
 10
4.055370919781727
 20
6.993384793542725
 30
0.0
 11
4.064370919781726
 21
7.013384793542725
 31
0.0
  0
LINE
  5
31D
330
1F
100
AcDbEntity
  8
Object
100
AcDbLine
 10
4.064370919781726
 20
7.013384793542725
 30
0.0
 11
4.116370919781727
 21
7.013384793542725
 31
0.0
  0
LINE
  5
31E
330
1F
100
AcDbEntity
  8
Object
100
AcDbLine
 10
4.219370919781726
 20
7.130384793542725
 30
0.0
 11
4.254370919781726
 21
7.130384793542725
 31
0.0
  0
LINE
  5
31F
330
1F
100
AcDbEntity
  8
Object
100
AcDbLine
 10
4.149370919781726
 20
7.130384793542725
 30
0.0
 11
4.195370919781726
 21
7.130384793542725
 31
0.0
  0
LINE
  5
320
330
1F
100
AcDbEntity
  8
Object
100
AcDbLine
 10
4.038370919781726
 20
7.167384793542725
 30
0.0
 11
4.059370919781726
 21
7.152384793542725
 31
0.0
  0
LINE
  5
321
330
1F
100
AcDbEntity
  8
Object
100
AcDbLine
 10
4.278370919781727
 20
7.130384793542725
 30
0.0
 11
4.356370919781727
 21
7.130384793542725
 31
0.0
  0
LINE
  5
322
330
1F
100
AcDbEntity
  8
Object
100
AcDbLine
 10
4.032370919781726
 20
6.748384793542725
 30
0.0
 11
4.032370919781726
 21
6.736384793542725
 31
0.0
  0
LINE
  5
323
330
1F
100
AcDbEntity
  8
Object
100
AcDbLine
 10
4.103370919781727
 20
6.736384793542725
 30
0.0
 11
4.103370919781727
 21
6.748384793542725
 31
0.0
  0
LINE
  5
324
330
1F
100
AcDbEntity
  8
Object
100
AcDbLine
 10
4.103370919781727
 20
6.623384793542725
 30
0.0
 11
4.103370919781727
 21
6.634384793542725
 31
0.0
  0
LINE
  5
325
330
1F
100
AcDbEntity
  8
Object
100
AcDbLine
 10
4.032370919781726
 20
6.634384793542725
 30
0.0
 11
4.032370919781726
 21
6.623384793542725
 31
0.0
  0
LINE
  5
326
330
1F
100
AcDbEntity
  8
Object
100
AcDbLine
 10
4.023370919781727
 20
7.050384793542725
 30
0.0
 11
4.032370919781726
 21
7.052384793542725
 31
0.0
  0
LINE
  5
327
330
1F
100
AcDbEntity
  8
Object
100
AcDbLine
 10
4.032370919781726
 20
7.052384793542725
 30
0.0
 11
4.040370919781726
 21
7.055384793542724
 31
0.0
  0
LINE
  5
328
330
1F
100
AcDbEntity
  8
Object
100
AcDbLine
 10
4.040370919781726
 20
7.055384793542724
 30
0.0
 11
4.015370919781727
 21
6.993384793542725
 31
0.0
  0
LINE
  5
329
330
1F
100
AcDbEntity
  8
Object
100
AcDbLine
 10
4.015370919781727
 20
6.993384793542725
 30
0.0
 11
4.055370919781727
 21
6.993384793542725
 31
0.0
  0
LINE
  5
32A
330
1F
100
AcDbEntity
  8
Object
100
AcDbLine
 10
4.013370919781727
 20
7.173384793542725
 30
0.0
 11
4.038370919781726
 21
7.167384793542725
 31
0.0
  0
LINE
  5
32B
330
1F
100
AcDbEntity
  8
Object
100
AcDbLine
 10
4.023370919781727
 20
7.050384793542725
 30
0.0
 11
4.013370919781727
 21
7.049384793542725
 31
0.0
  0
LINE
  5
32C
330
1F
100
AcDbEntity
  8
Object
100
AcDbLine
 10
4.010370919781727
 20
6.690384793542725
 30
0.0
 11
4.010370919781727
 21
6.680384793542724
 31
0.0
  0
LINE
  5
32D
330
1F
100
AcDbEntity
  8
Object
100
AcDbLine
 10
3.969370919781726
 20
6.993384793542725
 30
0.0
 11
3.969370919781726
 21
7.049384793542725
 31
0.0
  0
LINE
  5
32E
330
1F
100
AcDbEntity
  8
Object
100
AcDbLine
 10
3.969370919781726
 20
7.049384793542725
 30
0.0
 11
4.013370919781727
 21
7.049384793542725
 31
0.0
  0
LINE
  5
32F
330
1F
100
AcDbEntity
  8
Object
100
AcDbLine
 10
4.032370919781726
 20
6.736384793542725
 30
0.0
 11
3.955370919781726
 21
6.736384793542725
 31
0.0
  0
LINE
  5
330
330
1F
100
AcDbEntity
  8
Object
100
AcDbLine
 10
4.032370919781726
 20
6.634384793542725
 30
0.0
 11
3.955370919781726
 21
6.634384793542725
 31
0.0
  0
LINE
  5
331
330
1F
100
AcDbEntity
  8
Object
100
AcDbLine
 10
3.955370919781726
 20
6.634384793542725
 30
0.0
 11
3.955370919781726
 21
6.680384793542724
 31
0.0
  0
LINE
  5
332
330
1F
100
AcDbEntity
  8
Object
100
AcDbLine
 10
3.955370919781726
 20
6.680384793542724
 30
0.0
 11
4.010370919781727
 21
6.680384793542724
 31
0.0
  0
LINE
  5
333
330
1F
100
AcDbEntity
  8
Object
100
AcDbLine
 10
4.010370919781727
 20
6.690384793542725
 30
0.0
 11
3.955370919781726
 21
6.690384793542725
 31
0.0
  0
LINE
  5
334
330
1F
100
AcDbEntity
  8
Object
100
AcDbLine
 10
3.955370919781726
 20
6.690384793542725
 30
0.0
 11
3.955370919781726
 21
6.736384793542725
 31
0.0
  0
LINE
  5
335
330
1F
100
AcDbEntity
  8
Object
100
AcDbLine
 10
3.940370919781726
 20
6.748384793542725
 30
0.0
 11
4.032370919781726
 21
6.748384793542725
 31
0.0
  0
LINE
  5
336
330
1F
100
AcDbEntity
  8
Object
100
AcDbLine
 10
4.032370919781726
 20
6.623384793542725
 30
0.0
 11
3.940370919781726
 21
6.623384793542725
 31
0.0
  0
LINE
  5
337
330
1F
100
AcDbEntity
  8
Object
100
AcDbLine
 10
3.900370919781726
 20
6.748384793542725
 30
0.0
 11
3.900370919781726
 21
6.736384793542725
 31
0.0
  0
LINE
  5
338
330
1F
100
AcDbEntity
  8
Object
100
AcDbLine
 10
3.940370919781726
 20
6.623384793542725
 30
0.0
 11
3.940370919781726
 21
6.748384793542725
 31
0.0
  0
LINE
  5
339
330
1F
100
AcDbEntity
  8
Object
100
AcDbLine
 10
3.888370919781726
 20
7.173384793542725
 30
0.0
 11
4.013370919781727
 21
7.173384793542725
 31
0.0
  0
LINE
  5
33A
330
1F
100
AcDbEntity
  8
Object
100
AcDbLine
 10
3.969370919781726
 20
6.993384793542725
 30
0.0
 11
3.888370919781726
 21
6.993384793542725
 31
0.0
  0
LINE
  5
33B
330
1F
100
AcDbEntity
  8
Object
100
AcDbLine
 10
3.878370919781726
 20
6.690384793542725
 30
0.0
 11
3.878370919781726
 21
6.680384793542724
 31
0.0
  0
LINE
  5
33C
330
1F
100
AcDbEntity
  8
Object
100
AcDbLine
 10
3.823370919781726
 20
6.623384793542725
 30
0.0
 11
3.823370919781726
 21
6.680384793542724
 31
0.0
  0
LINE
  5
33D
330
1F
100
AcDbEntity
  8
Object
100
AcDbLine
 10
3.823370919781726
 20
6.680384793542724
 30
0.0
 11
3.878370919781726
 21
6.680384793542724
 31
0.0
  0
LINE
  5
33E
330
1F
100
AcDbEntity
  8
Object
100
AcDbLine
 10
3.878370919781726
 20
6.690384793542725
 30
0.0
 11
3.823370919781726
 21
6.690384793542725
 31
0.0
  0
LINE
  5
33F
330
1F
100
AcDbEntity
  8
Object
100
AcDbLine
 10
3.823370919781726
 20
6.690384793542725
 30
0.0
 11
3.823370919781726
 21
6.736384793542725
 31
0.0
  0
LINE
  5
340
330
1F
100
AcDbEntity
  8
Object
100
AcDbLine
 10
3.823370919781726
 20
6.736384793542725
 30
0.0
 11
3.900370919781726
 21
6.736384793542725
 31
0.0
  0
LINE
  5
341
330
1F
100
AcDbEntity
  8
Object
100
AcDbLine
 10
3.808370919781726
 20
6.748384793542725
 30
0.0
 11
3.900370919781726
 21
6.748384793542725
 31
0.0
  0
LINE
  5
342
330
1F
100
AcDbEntity
  8
Object
100
AcDbLine
 10
3.430370919781727
 20
6.909384793542725
 30
0.0
 11
3.430370919781727
 21
6.837384793542724
 31
0.0
  0
LINE
  5
343
330
1F
100
AcDbEntity
  8
Object
100
AcDbLine
 10
3.430370919781727
 20
6.837384793542724
 30
0.0
 11
3.415370919781727
 21
6.766384793542725
 31
0.0
  0
LINE
  5
344
330
1F
100
AcDbEntity
  8
Object
100
AcDbLine
 10
3.888370919781726
 20
6.993384793542725
 30
0.0
 11
3.888370919781726
 21
7.173384793542725
 31
0.0
  0
LINE
  5
345
330
1F
100
AcDbEntity
  8
Object
100
AcDbLine
 10
3.415370919781727
 20
6.979384793542725
 30
0.0
 11
3.430370919781727
 21
6.909384793542725
 31
0.0
  0
LINE
  5
346
330
1F
100
AcDbEntity
  8
Object
100
AcDbLine
 10
3.808370919781726
 20
6.623384793542725
 30
0.0
 11
3.808370919781726
 21
6.748384793542725
 31
0.0
  0
LINE
  5
347
330
1F
100
AcDbEntity
  8
Object
100
AcDbLine
 10
3.386370919781727
 20
7.045384793542725
 30
0.0
 11
3.415370919781727
 21
6.979384793542725
 31
0.0
  0
LINE
  5
348
330
1F
100
AcDbEntity
  8
Object
100
AcDbLine
 10
3.415370919781727
 20
6.766384793542725
 30
0.0
 11
3.386370919781727
 21
6.701384793542725
 31
0.0
  0
LINE
  5
349
330
1F
100
AcDbEntity
  8
Object
100
AcDbLine
 10
3.344370919781726
 20
7.103384793542725
 30
0.0
 11
3.386370919781727
 21
7.045384793542725
 31
0.0
  0
LINE
  5
34A
330
1F
100
AcDbEntity
  8
Object
100
AcDbLine
 10
3.386370919781727
 20
6.701384793542725
 30
0.0
 11
3.344370919781726
 21
6.643384793542725
 31
0.0
  0
LINE
  5
34B
330
1F
100
AcDbEntity
  8
Object
100
AcDbLine
 10
3.290370919781727
 20
7.151384793542725
 30
0.0
 11
3.344370919781726
 21
7.103384793542725
 31
0.0
  0
LINE
  5
34C
330
1F
100
AcDbEntity
  8
Object
100
AcDbLine
 10
3.344370919781726
 20
6.643384793542725
 30
0.0
 11
3.290370919781727
 21
6.594384793542725
 31
0.0
  0
LINE
  5
34D
330
1F
100
AcDbEntity
  8
Object
100
AcDbLine
 10
3.228370919781726
 20
7.187384793542725
 30
0.0
 11
3.290370919781727
 21
7.151384793542725
 31
0.0
  0
LINE
  5
34E
330
1F
100
AcDbEntity
  8
Object
100
AcDbLine
 10
3.290370919781727
 20
6.594384793542725
 30
0.0
 11
3.228370919781726
 21
6.559384793542725
 31
0.0
  0
LINE
  5
34F
330
1F
100
AcDbEntity
  8
Object
100
AcDbLine
 10
3.160370919781726
 20
7.209384793542725
 30
0.0
 11
3.228370919781726
 21
7.187384793542725
 31
0.0
  0
LINE
  5
350
330
1F
100
AcDbEntity
  8
Object
100
AcDbLine
 10
3.228370919781726
 20
6.559384793542725
 30
0.0
 11
3.160370919781726
 21
6.536384793542725
 31
0.0
  0
LINE
  5
351
330
1F
100
AcDbEntity
  8
Object
100
AcDbLine
 10
3.823370919781726
 20
6.623384793542725
 30
0.0
 11
3.808370919781726
 21
6.623384793542725
 31
0.0
  0
LINE
  5
352
330
1F
100
AcDbEntity
  8
Object
100
AcDbLine
 10
3.088370919781727
 20
7.216384793542725
 30
0.0
 11
3.160370919781726
 21
7.209384793542725
 31
0.0
  0
LINE
  5
353
330
1F
100
AcDbEntity
  8
Object
100
AcDbLine
 10
3.160370919781726
 20
6.536384793542725
 30
0.0
 11
3.088370919781727
 21
6.529384793542725
 31
0.0
  0
LINE
  5
354
330
1F
100
AcDbEntity
  8
Object
100
AcDbLine
 10
3.017370919781726
 20
7.209384793542725
 30
0.0
 11
3.088370919781727
 21
7.216384793542725
 31
0.0
  0
LINE
  5
355
330
1F
100
AcDbEntity
  8
Object
100
AcDbLine
 10
5.143370919781727
 20
7.423384793542725
 30
0.0
 11
1.033370919781727
 21
7.423384793542725
 31
0.0
  0
LINE
  5
356
330
1F
100
AcDbEntity
  8
Object
100
AcDbLine
 10
3.017370919781726
 20
7.209384793542725
 30
0.0
 11
2.948370919781726
 21
7.187384793542725
 31
0.0
  0
LINE
  5
357
330
1F
100
AcDbEntity
  8
Object
100
AcDbLine
 10
2.948370919781726
 20
7.187384793542725
 30
0.0
 11
2.886370919781727
 21
7.151384793542725
 31
0.0
  0
LINE
  5
358
330
1F
100
AcDbEntity
  8
Object
100
AcDbLine
 10
2.886370919781727
 20
7.151384793542725
 30
0.0
 11
2.833370919781726
 21
7.103384793542725
 31
0.0
  0
LINE
  5
359
330
1F
100
AcDbEntity
  8
Object
100
AcDbLine
 10
2.833370919781726
 20
7.103384793542725
 30
0.0
 11
2.791370919781726
 21
7.045384793542725
 31
0.0
  0
LINE
  5
35A
330
1F
100
AcDbEntity
  8
Object
100
AcDbLine
 10
2.791370919781726
 20
7.045384793542725
 30
0.0
 11
2.761370919781727
 21
6.979384793542725
 31
0.0
  0
LINE
  5
35B
330
1F
100
AcDbEntity
  8
Object
100
AcDbLine
 10
2.761370919781727
 20
6.979384793542725
 30
0.0
 11
2.746370919781726
 21
6.909384793542725
 31
0.0
  0
LINE
  5
35C
330
1F
100
AcDbEntity
  8
Object
100
AcDbLine
 10
2.746370919781726
 20
6.909384793542725
 30
0.0
 11
2.746370919781726
 21
6.837384793542724
 31
0.0
  0
LINE
  5
35D
330
1F
100
AcDbEntity
  8
Object
100
AcDbLine
 10
1.033370919781727
 20
7.423384793542725
 30
0.0
 11
1.033370919781727
 21
6.323384793542725
 31
0.0
  0
LINE
  5
35E
330
1F
100
AcDbEntity
  8
Object
100
AcDbLine
 10
2.746370919781726
 20
6.837384793542724
 30
0.0
 11
2.761370919781727
 21
6.766384793542725
 31
0.0
  0
LINE
  5
35F
330
1F
100
AcDbEntity
  8
Object
100
AcDbLine
 10
2.761370919781727
 20
6.766384793542725
 30
0.0
 11
2.791370919781726
 21
6.701384793542725
 31
0.0
  0
LINE
  5
360
330
1F
100
AcDbEntity
  8
Object
100
AcDbLine
 10
2.791370919781726
 20
6.701384793542725
 30
0.0
 11
2.833370919781726
 21
6.643384793542725
 31
0.0
  0
LINE
  5
361
330
1F
100
AcDbEntity
  8
Object
100
AcDbLine
 10
2.833370919781726
 20
6.643384793542725
 30
0.0
 11
2.886370919781727
 21
6.594384793542725
 31
0.0
  0
LINE
  5
362
330
1F
100
AcDbEntity
  8
Object
100
AcDbLine
 10
2.886370919781727
 20
6.594384793542725
 30
0.0
 11
2.948370919781726
 21
6.559384793542725
 31
0.0
  0
LINE
  5
363
330
1F
100
AcDbEntity
  8
Object
100
AcDbLine
 10
2.948370919781726
 20
6.559384793542725
 30
0.0
 11
3.017370919781726
 21
6.536384793542725
 31
0.0
  0
LINE
  5
364
330
1F
100
AcDbEntity
  8
Object
100
AcDbLine
 10
3.017370919781726
 20
6.536384793542725
 30
0.0
 11
3.088370919781727
 21
6.529384793542725
 31
0.0
  0
LINE
  5
365
330
1F
100
AcDbEntity
  8
Object
100
AcDbLine
 10
1.033370919781727
 20
6.323384793542725
 30
0.0
 11
5.143370919781727
 21
6.323384793542725
 31
0.0
  0
LINE
  5
366
330
1F
100
AcDbEntity
  8
Object
100
AcDbLine
 10
4.072370919781726
 20
7.042384793542725
 30
0.0
 11
4.090370919781727
 21
7.081384793542725
 31
0.0
  0
LINE
  5
367
330
1F
100
AcDbEntity
  8
Object
100
AcDbLine
 10
4.090370919781727
 20
7.081384793542725
 30
0.0
 11
4.107370919781726
 21
7.042384793542725
 31
0.0
  0
LINE
  5
368
330
1F
100
AcDbEntity
  8
Object
100
AcDbLine
 10
4.107370919781726
 20
7.042384793542725
 30
0.0
 11
4.072370919781726
 21
7.042384793542725
 31
0.0
  0
LINE
  5
369
330
1F
100
AcDbEntity
  8
Object
100
AcDbLine
 10
3.955370919781726
 20
6.736384793542725
 30
0.0
 11
3.955370919781726
 21
6.690384793542725
 31
0.0
  0
LINE
  5
36A
330
1F
100
AcDbEntity
  8
Object
100
AcDbLine
 10
4.524370919781726
 20
6.702384793542725
 30
0.0
 11
4.576370919781727
 21
6.702384793542725
 31
0.0
  0
LINE
  5
36B
330
1F
100
AcDbEntity
  8
Object
100
AcDbLine
 10
4.562370919781726
 20
6.634384793542725
 30
0.0
 11
4.587370919781727
 21
6.647384793542725
 31
0.0
  0
LINE
  5
36C
330
1F
100
AcDbEntity
  8
Object
100
AcDbLine
 10
5.143370919781727
 20
7.473384793542725
 30
0.0
 11
5.143370919781727
 21
7.520384793542725
 31
0.0
  0
LINE
  5
36D
330
1F
100
AcDbEntity
  8
Object
100
AcDbLine
 10
1.033370919781727
 20
7.560384793542725
 30
0.0
 11
1.033370919781727
 21
7.520384793542725
 31
0.0
  0
LINE
  5
36E
330
1F
100
AcDbEntity
  8
Object
100
AcDbLine
 10
5.143370919781727
 20
7.560384793542725
 30
0.0
 11
5.143370919781727
 21
7.591384793542725
 31
0.0
  0
LINE
  5
36F
330
1F
100
AcDbEntity
  8
Object
100
AcDbLine
 10
1.033370919781727
 20
7.591384793542725
 30
0.0
 11
1.033370919781727
 21
7.611384793542725
 31
0.0
  0
LINE
  5
370
330
1F
100
AcDbEntity
  8
Object
100
AcDbLine
 10
1.033370919781727
 20
7.611384793542725
 30
0.0
 11
1.033370919781727
 21
7.617384793542725
 31
0.0
  0
LINE
  5
371
330
1F
100
AcDbEntity
  8
Object
100
AcDbLine
 10
1.033370919781727
 20
7.617384793542725
 30
0.0
 11
5.143370919781727
 21
7.617384793542725
 31
0.0
  0
LINE
  5
372
330
1F
100
AcDbEntity
  8
Object
100
AcDbLine
 10
5.143370919781727
 20
7.617384793542725
 30
0.0
 11
5.143370919781727
 21
7.611384793542725
 31
0.0
  0
LINE
  5
373
330
1F
100
AcDbEntity
  8
Object
100
AcDbLine
 10
5.143370919781727
 20
7.611384793542725
 30
0.0
 11
5.143370919781727
 21
7.591384793542725
 31
0.0
  0
LINE
  5
374
330
1F
100
AcDbEntity
  8
Object
100
AcDbLine
 10
1.033370919781727
 20
7.591384793542725
 30
0.0
 11
1.033370919781727
 21
7.560384793542725
 31
0.0
  0
LINE
  5
375
330
1F
100
AcDbEntity
  8
Object
100
AcDbLine
 10
5.143370919781727
 20
7.520384793542725
 30
0.0
 11
5.143370919781727
 21
7.560384793542725
 31
0.0
  0
LINE
  5
376
330
1F
100
AcDbEntity
  8
Object
100
AcDbLine
 10
1.033370919781727
 20
7.520384793542725
 30
0.0
 11
1.033370919781727
 21
7.473384793542725
 31
0.0
  0
LINE
  5
377
330
1F
100
AcDbEntity
  8
Object
100
AcDbLine
 10
5.143370919781727
 20
7.423384793542725
 30
0.0
 11
5.143370919781727
 21
7.473384793542725
 31
0.0
  0
LINE
  5
378
330
1F
100
AcDbEntity
  8
Object
100
AcDbLine
 10
1.033370919781727
 20
7.473384793542725
 30
0.0
 11
1.033370919781727
 21
7.423384793542725
 31
0.0
  0
LINE
  5
379
330
1F
100
AcDbEntity
  8
Object
100
AcDbLine
 10
4.691370919781727
 20
6.748384793542725
 30
0.0
 11
4.744370919781727
 21
6.748384793542725
 31
0.0
  0
LINE
  5
37A
330
1F
100
AcDbEntity
  8
Object
100
AcDbLine
 10
4.105370919781726
 20
6.736384793542725
 30
0.0
 11
4.103370919781727
 21
6.736384793542725
 31
0.0
  0
LINE
  5
37B
330
1F
100
AcDbEntity
  8
Object
100
AcDbLine
 10
4.380370919781727
 20
7.106384793542725
 30
0.0
 11
4.380370919781727
 21
7.017384793542725
 31
0.0
  0
LINE
  5
37C
330
1F
100
AcDbEntity
  8
Object
100
AcDbLine
 10
4.563370919781727
 20
6.993384793542725
 30
0.0
 11
4.526370919781727
 21
6.993384793542725
 31
0.0
  0
LINE
  5
37D
330
1F
100
AcDbEntity
  8
Object
100
AcDbLine
 10
4.526370919781727
 20
7.130384793542725
 30
0.0
 11
4.563370919781727
 21
7.130384793542725
 31
0.0
  0
LINE
  5
37E
330
1F
100
AcDbEntity
  8
Object
100
AcDbLine
 10
4.587370919781727
 20
6.677384793542725
 30
0.0
 11
4.562370919781726
 21
6.690384793542725
 31
0.0
  0
LINE
  5
37F
330
1F
100
AcDbEntity
  8
Object
100
AcDbLine
 10
4.498370919781726
 20
6.636384793542725
 30
0.0
 11
4.498370919781726
 21
6.658384793542725
 31
0.0
  0
LINE
  5
380
330
1F
100
AcDbEntity
  8
Object
100
AcDbLine
 10
3.017370919781726
 20
7.209384793542725
 30
0.0
 11
3.088370919781727
 21
7.216384793542725
 31
0.0
  0
LINE
  5
381
330
1F
100
AcDbEntity
  8
Object
100
AcDbLine
 10
3.088370919781727
 20
6.529384793542725
 30
0.0
 11
3.017370919781726
 21
6.536384793542725
 31
0.0
  0
LINE
  5
382
330
1F
100
AcDbEntity
  8
Object
100
AcDbLine
 10
3.017370919781726
 20
6.536384793542725
 30
0.0
 11
2.948370919781726
 21
6.559384793542725
 31
0.0
  0
LINE
  5
383
330
1F
100
AcDbEntity
  8
Object
100
AcDbLine
 10
3.017370919781726
 20
7.209384793542725
 30
0.0
 11
2.948370919781726
 21
7.187384793542725
 31
0.0
  0
LINE
  5
384
330
1F
100
AcDbEntity
  8
Object
100
AcDbLine
 10
2.948370919781726
 20
7.187384793542725
 30
0.0
 11
2.886370919781727
 21
7.151384793542725
 31
0.0
  0
LINE
  5
385
330
1F
100
AcDbEntity
  8
Object
100
AcDbLine
 10
2.948370919781726
 20
6.559384793542725
 30
0.0
 11
2.886370919781727
 21
6.594384793542725
 31
0.0
  0
LINE
  5
386
330
1F
100
AcDbEntity
  8
Object
100
AcDbLine
 10
2.886370919781727
 20
6.594384793542725
 30
0.0
 11
2.833370919781726
 21
6.643384793542725
 31
0.0
  0
LINE
  5
387
330
1F
100
AcDbEntity
  8
Object
100
AcDbLine
 10
2.886370919781727
 20
7.151384793542725
 30
0.0
 11
2.833370919781726
 21
7.103384793542725
 31
0.0
  0
LINE
  5
388
330
1F
100
AcDbEntity
  8
Object
100
AcDbLine
 10
2.833370919781726
 20
7.103384793542725
 30
0.0
 11
2.791370919781726
 21
7.045384793542725
 31
0.0
  0
LINE
  5
389
330
1F
100
AcDbEntity
  8
Object
100
AcDbLine
 10
2.833370919781726
 20
6.643384793542725
 30
0.0
 11
2.791370919781726
 21
6.701384793542725
 31
0.0
  0
LINE
  5
38A
330
1F
100
AcDbEntity
  8
Object
100
AcDbLine
 10
2.791370919781726
 20
6.701384793542725
 30
0.0
 11
2.761370919781727
 21
6.766384793542725
 31
0.0
  0
LINE
  5
38B
330
1F
100
AcDbEntity
  8
Object
100
AcDbLine
 10
2.791370919781726
 20
7.045384793542725
 30
0.0
 11
2.761370919781727
 21
6.979384793542725
 31
0.0
  0
LINE
  5
38C
330
1F
100
AcDbEntity
  8
Object
100
AcDbLine
 10
2.761370919781727
 20
6.979384793542725
 30
0.0
 11
2.746370919781726
 21
6.909384793542725
 31
0.0
  0
LINE
  5
38D
330
1F
100
AcDbEntity
  8
Object
100
AcDbLine
 10
2.761370919781727
 20
6.766384793542725
 30
0.0
 11
2.746370919781726
 21
6.837384793542724
 31
0.0
  0
LINE
  5
38E
330
1F
100
AcDbEntity
  8
Object
100
AcDbLine
 10
2.746370919781726
 20
6.837384793542724
 30
0.0
 11
2.746370919781726
 21
6.909384793542725
 31
0.0
  0
LINE
  5
38F
330
1F
100
AcDbEntity
  8
Object
100
AcDbLine
 10
4.691370919781727
 20
6.748384793542725
 30
0.0
 11
4.665370919781726
 21
6.735384793542725
 31
0.0
  0
LINE
  5
390
330
1F
100
AcDbEntity
  8
Object
100
AcDbLine
 10
4.665370919781726
 20
6.735384793542725
 30
0.0
 11
4.665370919781726
 21
6.693384793542725
 31
0.0
  0
LINE
  5
391
330
1F
100
AcDbEntity
  8
Object
100
AcDbLine
 10
4.431370919781726
 20
6.684384793542725
 30
0.0
 11
4.431370919781726
 21
6.636384793542725
 31
0.0
  0
LINE
  5
392
330
1F
100
AcDbEntity
  8
Object
100
AcDbLine
 10
4.105370919781726
 20
6.634384793542725
 30
0.0
 11
4.105370919781726
 21
6.736384793542725
 31
0.0
  0
LINE
  5
393
330
1F
100
AcDbEntity
  8
Object
100
AcDbLine
 10
3.823370919781726
 20
6.690384793542725
 30
0.0
 11
3.878370919781726
 21
6.690384793542725
 31
0.0
  0
LINE
  5
394
330
1F
100
AcDbEntity
  8
Object
100
AcDbLine
 10
3.808370919781726
 20
6.748384793542725
 30
0.0
 11
3.900370919781726
 21
6.748384793542725
 31
0.0
  0
LINE
  5
395
330
1F
100
AcDbEntity
  8
Object
100
AcDbLine
 10
4.587370919781727
 20
7.102384793542725
 30
0.0
 11
4.587370919781727
 21
7.130384793542725
 31
0.0
  0
LINE
  5
396
330
1F
100
AcDbEntity
  8
Object
100
AcDbLine
 10
3.940370919781726
 20
6.748384793542725
 30
0.0
 11
4.032370919781726
 21
6.748384793542725
 31
0.0
  0
LINE
  5
397
330
1F
100
AcDbEntity
  8
Object
100
AcDbLine
 10
4.770370919781727
 20
6.677384793542725
 30
0.0
 11
4.770370919781727
 21
6.636384793542725
 31
0.0
  0
LINE
  5
398
330
1F
100
AcDbEntity
  8
Object
100
AcDbLine
 10
4.744370919781727
 20
6.748384793542725
 30
0.0
 11
4.770370919781727
 21
6.735384793542725
 31
0.0
  0
LINE
  5
399
330
1F
100
AcDbEntity
  8
Object
100
AcDbLine
 10
4.103370919781727
 20
6.748384793542725
 30
0.0
 11
4.114370919781727
 21
6.748384793542725
 31
0.0
  0
LINE
  5
39A
330
1F
100
AcDbEntity
  8
Object
100
AcDbLine
 10
3.955370919781726
 20
6.690384793542725
 30
0.0
 11
4.010370919781727
 21
6.690384793542725
 31
0.0
  0
LINE
  5
39B
330
1F
100
AcDbEntity
  8
Object
100
AcDbLine
 10
4.032370919781726
 20
6.748384793542725
 30
0.0
 11
4.032370919781726
 21
6.736384793542725
 31
0.0
  0
LINE
  5
39C
330
1F
100
AcDbEntity
  8
Object
100
AcDbLine
 10
4.576370919781727
 20
6.702384793542725
 30
0.0
 11
4.603370919781727
 21
6.689384793542725
 31
0.0
  0
LINE
  5
39D
330
1F
100
AcDbEntity
  8
Object
100
AcDbLine
 10
4.513370919781727
 20
6.736384793542725
 30
0.0
 11
4.513370919781727
 21
6.697384793542725
 31
0.0
  0
LINE
  5
39E
330
1F
100
AcDbEntity
  8
Object
100
AcDbLine
 10
4.498370919781726
 20
6.748384793542725
 30
0.0
 11
4.603370919781727
 21
6.748384793542725
 31
0.0
  0
LINE
  5
39F
330
1F
100
AcDbEntity
  8
Object
100
AcDbLine
 10
5.143370919781727
 20
6.323384793542725
 30
0.0
 11
5.143370919781727
 21
7.423384793542725
 31
0.0
  0
LINE
  5
3A0
330
1F
100
AcDbEntity
  8
Object
100
AcDbLine
 10
1.033370919781727
 20
6.154384793542725
 30
0.0
 11
1.033370919781727
 21
6.135384793542725
 31
0.0
  0
LINE
  5
3A1
330
1F
100
AcDbEntity
  8
Object
100
AcDbLine
 10
1.033370919781727
 20
6.272384793542725
 30
0.0
 11
1.033370919781727
 21
6.225384793542725
 31
0.0
  0
LINE
  5
3A2
330
1F
100
AcDbEntity
  8
Object
100
AcDbLine
 10
5.143370919781727
 20
6.185384793542725
 30
0.0
 11
5.143370919781727
 21
6.225384793542725
 31
0.0
  0
LINE
  5
3A3
330
1F
100
AcDbEntity
  8
Object
100
AcDbLine
 10
5.143370919781727
 20
6.154384793542725
 30
0.0
 11
5.143370919781727
 21
6.135384793542725
 31
0.0
  0
LINE
  5
3A4
330
1F
100
AcDbEntity
  8
Object
100
AcDbLine
 10
5.143370919781727
 20
6.135384793542725
 30
0.0
 11
5.143370919781727
 21
6.128384793542725
 31
0.0
  0
LINE
  5
3A5
330
1F
100
AcDbEntity
  8
Object
100
AcDbLine
 10
5.143370919781727
 20
6.128384793542725
 30
0.0
 11
1.033370919781727
 21
6.128384793542725
 31
0.0
  0
LINE
  5
3A6
330
1F
100
AcDbEntity
  8
Object
100
AcDbLine
 10
1.033370919781727
 20
6.128384793542725
 30
0.0
 11
1.033370919781727
 21
6.135384793542725
 31
0.0
  0
LINE
  5
3A7
330
1F
100
AcDbEntity
  8
Object
100
AcDbLine
 10
1.033370919781727
 20
6.185384793542725
 30
0.0
 11
1.033370919781727
 21
6.154384793542725
 31
0.0
  0
LINE
  5
3A8
330
1F
100
AcDbEntity
  8
Object
100
AcDbLine
 10
5.143370919781727
 20
6.154384793542725
 30
0.0
 11
5.143370919781727
 21
6.185384793542725
 31
0.0
  0
LINE
  5
3A9
330
1F
100
AcDbEntity
  8
Object
100
AcDbLine
 10
1.033370919781727
 20
6.225384793542725
 30
0.0
 11
1.033370919781727
 21
6.185384793542725
 31
0.0
  0
LINE
  5
3AA
330
1F
100
AcDbEntity
  8
Object
100
AcDbLine
 10
5.143370919781727
 20
6.225384793542725
 30
0.0
 11
5.143370919781727
 21
6.272384793542725
 31
0.0
  0
LINE
  5
3AB
330
1F
100
AcDbEntity
  8
Object
100
AcDbLine
 10
1.033370919781727
 20
6.323384793542725
 30
0.0
 11
1.033370919781727
 21
6.272384793542725
 31
0.0
  0
LINE
  5
3AC
330
1F
100
AcDbEntity
  8
Object
100
AcDbLine
 10
5.143370919781727
 20
6.272384793542725
 30
0.0
 11
5.143370919781727
 21
6.323384793542725
 31
0.0
  0
LINE
  5
3AD
330
1F
100
AcDbEntity
  8
Object
100
AcDbLine
 10
3.430370919781727
 20
6.909384793542725
 30
0.0
 11
3.430370919781727
 21
6.837384793542724
 31
0.0
  0
LINE
  5
3AE
330
1F
100
AcDbEntity
  8
Object
100
AcDbLine
 10
3.430370919781727
 20
6.837384793542724
 30
0.0
 11
3.415370919781727
 21
6.766384793542725
 31
0.0
  0
LINE
  5
3AF
330
1F
100
AcDbEntity
  8
Object
100
AcDbLine
 10
3.430370919781727
 20
6.909384793542725
 30
0.0
 11
3.415370919781727
 21
6.979384793542725
 31
0.0
  0
LINE
  5
3B0
330
1F
100
AcDbEntity
  8
Object
100
AcDbLine
 10
3.415370919781727
 20
6.979384793542725
 30
0.0
 11
3.386370919781727
 21
7.045384793542725
 31
0.0
  0
LINE
  5
3B1
330
1F
100
AcDbEntity
  8
Object
100
AcDbLine
 10
3.415370919781727
 20
6.766384793542725
 30
0.0
 11
3.386370919781727
 21
6.701384793542725
 31
0.0
  0
LINE
  5
3B2
330
1F
100
AcDbEntity
  8
Object
100
AcDbLine
 10
3.344370919781726
 20
7.103384793542725
 30
0.0
 11
3.386370919781727
 21
7.045384793542725
 31
0.0
  0
LINE
  5
3B3
330
1F
100
AcDbEntity
  8
Object
100
AcDbLine
 10
3.386370919781727
 20
6.701384793542725
 30
0.0
 11
3.344370919781726
 21
6.643384793542725
 31
0.0
  0
LINE
  5
3B4
330
1F
100
AcDbEntity
  8
Object
100
AcDbLine
 10
3.344370919781726
 20
6.643384793542725
 30
0.0
 11
3.290370919781727
 21
6.594384793542725
 31
0.0
  0
LINE
  5
3B5
330
1F
100
AcDbEntity
  8
Object
100
AcDbLine
 10
3.344370919781726
 20
7.103384793542725
 30
0.0
 11
3.290370919781727
 21
7.151384793542725
 31
0.0
  0
LINE
  5
3B6
330
1F
100
AcDbEntity
  8
Object
100
AcDbLine
 10
3.290370919781727
 20
7.151384793542725
 30
0.0
 11
3.228370919781726
 21
7.187384793542725
 31
0.0
  0
LINE
  5
3B7
330
1F
100
AcDbEntity
  8
Object
100
AcDbLine
 10
3.290370919781727
 20
6.594384793542725
 30
0.0
 11
3.228370919781726
 21
6.559384793542725
 31
0.0
  0
LINE
  5
3B8
330
1F
100
AcDbEntity
  8
Object
100
AcDbLine
 10
3.228370919781726
 20
6.559384793542725
 30
0.0
 11
3.160370919781726
 21
6.536384793542725
 31
0.0
  0
LINE
  5
3B9
102
{ACAD_REACTORS
330
628
102
}
330
1F
100
AcDbEntity
  8
Object
100
AcDbLine
 10
3.228370919781726
 20
7.187384793542725
 30
0.0
 11
3.160370919781726
 21
7.209384793542725
 31
0.0
  0
LINE
  5
3BA
330
1F
100
AcDbEntity
  8
Object
100
AcDbLine
 10
3.160370919781726
 20
7.209384793542725
 30
0.0
 11
3.088370919781727
 21
7.216384793542725
 31
0.0
  0
LINE
  5
3BB
330
1F
100
AcDbEntity
  8
Object
100
AcDbLine
 10
3.160370919781726
 20
6.536384793542725
 30
0.0
 11
3.088370919781727
 21
6.529384793542725
 31
0.0
  0
LINE
  5
3BC
330
1F
100
AcDbEntity
  8
Object
100
AcDbLine
 10
4.755370919781727
 20
6.685384793542725
 30
0.0
 11
4.770370919781727
 21
6.677384793542725
 31
0.0
  0
LINE
  5
3BD
330
1F
100
AcDbEntity
  8
Object
100
AcDbLine
 10
4.744370919781727
 20
6.623384793542725
 30
0.0
 11
4.691370919781727
 21
6.623384793542725
 31
0.0
  0
LINE
  5
3BE
330
1F
100
AcDbEntity
  8
Object
100
AcDbLine
 10
3.955370919781726
 20
6.680384793542724
 30
0.0
 11
3.955370919781726
 21
6.634384793542725
 31
0.0
  0
LINE
  5
3BF
330
1F
100
AcDbEntity
  8
Object
100
AcDbLine
 10
4.513370919781727
 20
6.677384793542725
 30
0.0
 11
4.498370919781726
 21
6.677384793542725
 31
0.0
  0
LINE
  5
3C0
330
1F
100
AcDbEntity
  8
Object
100
AcDbLine
 10
4.603370919781727
 20
6.636384793542725
 30
0.0
 11
4.576370919781727
 21
6.623384793542725
 31
0.0
  0
LINE
  5
3C1
330
1F
100
AcDbEntity
  8
Object
100
AcDbLine
 10
4.112370919781726
 20
6.736384793542725
 30
0.0
 11
4.112370919781726
 21
6.634384793542725
 31
0.0
  0
LINE
  5
3C2
330
1F
100
AcDbEntity
  8
Object
100
AcDbLine
 10
4.478370919781727
 20
6.993384793542725
 30
0.0
 11
4.429370919781726
 21
6.993384793542725
 31
0.0
  0
LINE
  5
3C3
330
1F
100
AcDbEntity
  8
Object
100
AcDbLine
 10
4.195370919781726
 20
6.623384793542725
 30
0.0
 11
4.178370919781727
 21
6.623384793542725
 31
0.0
  0
LINE
  5
3C4
330
1F
100
AcDbEntity
  8
Object
100
AcDbLine
 10
4.587370919781727
 20
6.647384793542725
 30
0.0
 11
4.587370919781727
 21
6.677384793542725
 31
0.0
  0
LINE
  5
3C5
330
1F
100
AcDbEntity
  8
Object
100
AcDbLine
 10
4.513370919781727
 20
6.647384793542725
 30
0.0
 11
4.539370919781727
 21
6.634384793542725
 31
0.0
  0
LINE
  5
3C6
330
1F
100
AcDbEntity
  8
Object
100
AcDbLine
 10
4.770370919781727
 20
6.735384793542725
 30
0.0
 11
4.770370919781727
 21
6.693384793542725
 31
0.0
  0
LINE
  5
3C7
330
1F
100
AcDbEntity
  8
Object
100
AcDbLine
 10
4.420370919781727
 20
6.696384793542724
 30
0.0
 11
4.417370919781727
 21
6.692384793542725
 31
0.0
  0
LINE
  5
3C8
330
1F
100
AcDbEntity
  8
Object
100
AcDbLine
 10
4.103370919781727
 20
6.623384793542725
 30
0.0
 11
4.103370919781727
 21
6.634384793542725
 31
0.0
  0
LINE
  5
3C9
330
1F
100
AcDbEntity
  8
Object
100
AcDbLine
 10
4.615370919781726
 20
7.102384793542725
 30
0.0
 11
4.587370919781727
 21
7.102384793542725
 31
0.0
  0
LINE
  5
3CA
330
1F
100
AcDbEntity
  8
Object
100
AcDbLine
 10
4.032370919781726
 20
6.623384793542725
 30
0.0
 11
3.940370919781726
 21
6.623384793542725
 31
0.0
  0
LINE
  5
3CB
330
1F
100
AcDbEntity
  8
Object
100
AcDbLine
 10
4.260370919781727
 20
6.645384793542725
 30
0.0
 11
4.269370919781726
 21
6.623384793542725
 31
0.0
  0
LINE
  5
3CC
330
1F
100
AcDbEntity
  8
Object
100
AcDbLine
 10
4.269370919781726
 20
6.623384793542725
 30
0.0
 11
4.286370919781727
 21
6.623384793542725
 31
0.0
  0
LINE
  5
3CD
330
1F
100
AcDbEntity
  8
Object
100
AcDbLine
 10
4.513370919781727
 20
6.697384793542725
 30
0.0
 11
4.524370919781726
 21
6.702384793542725
 31
0.0
  0
LINE
  5
3CE
330
1F
100
AcDbEntity
  8
Object
100
AcDbLine
 10
4.603370919781727
 20
6.748384793542725
 30
0.0
 11
4.603370919781727
 21
6.736384793542725
 31
0.0
  0
LINE
  5
3CF
330
1F
100
AcDbEntity
  8
Object
100
AcDbLine
 10
4.603370919781727
 20
6.689384793542725
 30
0.0
 11
4.603370919781727
 21
6.636384793542725
 31
0.0
  0
LINE
  5
3D0
330
1F
100
AcDbEntity
  8
Object
100
AcDbLine
 10
4.665370919781726
 20
6.636384793542725
 30
0.0
 11
4.665370919781726
 21
6.677384793542725
 31
0.0
  0
LINE
  5
3D1
330
1F
100
AcDbEntity
  8
Object
100
AcDbLine
 10
4.356370919781727
 20
6.993384793542725
 30
0.0
 11
4.278370919781727
 21
6.993384793542725
 31
0.0
  0
LINE
  5
3D2
330
1F
100
AcDbEntity
  8
Object
100
AcDbLine
 10
4.689370919781726
 20
7.130384793542725
 30
0.0
 11
4.689370919781726
 21
7.102384793542725
 31
0.0
  0
LINE
  5
3D3
330
1F
100
AcDbEntity
  8
Object
100
AcDbLine
 10
4.204370919781727
 20
6.645384793542725
 30
0.0
 11
4.195370919781726
 21
6.623384793542725
 31
0.0
  0
LINE
  5
3D4
330
1F
100
AcDbEntity
  8
Object
100
AcDbLine
 10
4.539370919781727
 20
6.634384793542725
 30
0.0
 11
4.562370919781726
 21
6.634384793542725
 31
0.0
  0
LINE
  5
3D5
330
1F
100
AcDbEntity
  8
Object
100
AcDbLine
 10
4.770370919781727
 20
6.693384793542725
 30
0.0
 11
4.755370919781727
 21
6.685384793542725
 31
0.0
  0
LINE
  5
3D6
330
1F
100
AcDbEntity
  8
Object
100
AcDbLine
 10
4.417370919781727
 20
6.692384793542725
 30
0.0
 11
4.431370919781726
 21
6.684384793542725
 31
0.0
  0
LINE
  5
3D7
330
1F
100
AcDbEntity
  8
Object
100
AcDbLine
 10
4.112370919781726
 20
6.634384793542725
 30
0.0
 11
4.114370919781727
 21
6.634384793542725
 31
0.0
  0
LINE
  5
3D8
330
1F
100
AcDbEntity
  8
Object
100
AcDbLine
 10
3.900370919781726
 20
6.736384793542725
 30
0.0
 11
3.823370919781726
 21
6.736384793542725
 31
0.0
  0
LINE
  5
3D9
330
1F
100
AcDbEntity
  8
Object
100
AcDbLine
 10
4.278370919781727
 20
6.993384793542725
 30
0.0
 11
4.278370919781727
 21
7.130384793542725
 31
0.0
  0
LINE
  5
3DA
330
1F
100
AcDbEntity
  8
Object
100
AcDbLine
 10
3.955370919781726
 20
6.634384793542725
 30
0.0
 11
4.032370919781726
 21
6.634384793542725
 31
0.0
  0
LINE
  5
3DB
330
1F
100
AcDbEntity
  8
Object
100
AcDbLine
 10
4.010370919781727
 20
6.690384793542725
 30
0.0
 11
4.010370919781727
 21
6.680384793542724
 31
0.0
  0
LINE
  5
3DC
330
1F
100
AcDbEntity
  8
Object
100
AcDbLine
 10
4.498370919781726
 20
6.677384793542725
 30
0.0
 11
4.498370919781726
 21
6.748384793542725
 31
0.0
  0
LINE
  5
3DD
330
1F
100
AcDbEntity
  8
Object
100
AcDbLine
 10
1.033370919781727
 20
7.423384793542725
 30
0.0
 11
1.033370919781727
 21
6.323384793542725
 31
0.0
  0
LINE
  5
3DE
330
1F
100
AcDbEntity
  8
Object
100
AcDbLine
 10
4.665370919781726
 20
6.677384793542725
 30
0.0
 11
4.681370919781726
 21
6.685384793542725
 31
0.0
  0
LINE
  5
3DF
330
1F
100
AcDbEntity
  8
Object
100
AcDbLine
 10
4.410370919781726
 20
6.748384793542725
 30
0.0
 11
4.420370919781727
 21
6.736384793542725
 31
0.0
  0
LINE
  5
3E0
330
1F
100
AcDbEntity
  8
Object
100
AcDbLine
 10
4.325370919781726
 20
6.623384793542725
 30
0.0
 11
4.325370919781726
 21
6.748384793542725
 31
0.0
  0
LINE
  5
3E1
330
1F
100
AcDbEntity
  8
Object
100
AcDbLine
 10
4.114370919781727
 20
6.748384793542725
 30
0.0
 11
4.114370919781727
 21
6.736384793542725
 31
0.0
  0
LINE
  5
3E2
330
1F
100
AcDbEntity
  8
Object
100
AcDbLine
 10
4.502370919781727
 20
7.130384793542725
 30
0.0
 11
4.502370919781727
 21
7.017384793542725
 31
0.0
  0
LINE
  5
3E3
330
1F
100
AcDbEntity
  8
Object
100
AcDbLine
 10
4.457370919781727
 20
7.024384793542725
 30
0.0
 11
4.453370919781726
 21
7.025384793542725
 31
0.0
  0
LINE
  5
3E4
330
1F
100
AcDbEntity
  8
Object
100
AcDbLine
 10
4.453370919781726
 20
7.025384793542725
 30
0.0
 11
4.451370919781727
 21
7.028384793542725
 31
0.0
  0
LINE
  5
3E5
330
1F
100
AcDbEntity
  8
Object
100
AcDbLine
 10
4.451370919781727
 20
7.028384793542725
 30
0.0
 11
4.450370919781726
 21
7.031384793542724
 31
0.0
  0
LINE
  5
3E6
330
1F
100
AcDbEntity
  8
Object
100
AcDbLine
 10
4.658370919781726
 20
7.102384793542725
 30
0.0
 11
4.658370919781726
 21
6.993384793542725
 31
0.0
  0
LINE
  5
3E7
330
1F
100
AcDbEntity
  8
Object
100
AcDbLine
 10
3.823370919781726
 20
6.680384793542724
 30
0.0
 11
3.823370919781726
 21
6.623384793542725
 31
0.0
  0
LINE
  5
3E8
330
1F
100
AcDbEntity
  8
Object
100
AcDbLine
 10
4.526370919781727
 20
6.993384793542725
 30
0.0
 11
4.526370919781727
 21
7.130384793542725
 31
0.0
  0
LINE
  5
3E9
330
1F
100
AcDbEntity
  8
Object
100
AcDbLine
 10
4.010370919781727
 20
6.680384793542724
 30
0.0
 11
3.955370919781726
 21
6.680384793542724
 31
0.0
  0
LINE
  5
3EA
330
1F
100
AcDbEntity
  8
Object
100
AcDbLine
 10
3.940370919781726
 20
6.623384793542725
 30
0.0
 11
3.940370919781726
 21
6.748384793542725
 31
0.0
  0
LINE
  5
3EB
330
1F
100
AcDbEntity
  8
Object
100
AcDbLine
 10
4.603370919781727
 20
6.736384793542725
 30
0.0
 11
4.513370919781727
 21
6.736384793542725
 31
0.0
  0
LINE
  5
3EC
330
1F
100
AcDbEntity
  8
Object
100
AcDbLine
 10
4.539370919781727
 20
6.690384793542725
 30
0.0
 11
4.513370919781727
 21
6.677384793542725
 31
0.0
  0
LINE
  5
3ED
330
1F
100
AcDbEntity
  8
Object
100
AcDbLine
 10
4.498370919781726
 20
6.658384793542725
 30
0.0
 11
4.513370919781727
 21
6.658384793542725
 31
0.0
  0
LINE
  5
3EE
330
1F
100
AcDbEntity
  8
Object
100
AcDbLine
 10
4.498370919781726
 20
6.636384793542725
 30
0.0
 11
4.524370919781726
 21
6.623384793542725
 31
0.0
  0
LINE
  5
3EF
330
1F
100
AcDbEntity
  8
Object
100
AcDbLine
 10
4.524370919781726
 20
6.623384793542725
 30
0.0
 11
4.576370919781727
 21
6.623384793542725
 31
0.0
  0
LINE
  5
3F0
330
1F
100
AcDbEntity
  8
Object
100
AcDbLine
 10
4.114370919781727
 20
6.736384793542725
 30
0.0
 11
4.112370919781726
 21
6.736384793542725
 31
0.0
  0
LINE
  5
3F1
330
1F
100
AcDbEntity
  8
Object
100
AcDbLine
 10
4.474370919781726
 20
7.031384793542724
 30
0.0
 11
4.473370919781727
 21
7.028384793542725
 31
0.0
  0
LINE
  5
3F2
330
1F
100
AcDbEntity
  8
Object
100
AcDbLine
 10
4.473370919781727
 20
7.028384793542725
 30
0.0
 11
4.470370919781727
 21
7.025384793542725
 31
0.0
  0
LINE
  5
3F3
330
1F
100
AcDbEntity
  8
Object
100
AcDbLine
 10
4.470370919781727
 20
7.025384793542725
 30
0.0
 11
4.467370919781727
 21
7.024384793542725
 31
0.0
  0
LINE
  5
3F4
330
1F
100
AcDbEntity
  8
Object
100
AcDbLine
 10
4.404370919781727
 20
7.017384793542725
 30
0.0
 11
4.404370919781727
 21
7.130384793542725
 31
0.0
  0
LINE
  5
3F5
330
1F
100
AcDbEntity
  8
Object
100
AcDbLine
 10
4.615370919781726
 20
7.102384793542725
 30
0.0
 11
4.615370919781726
 21
6.993384793542725
 31
0.0
  0
LINE
  5
3F6
330
1F
100
AcDbEntity
  8
Object
100
AcDbLine
 10
4.615370919781726
 20
6.993384793542725
 30
0.0
 11
4.658370919781726
 21
6.993384793542725
 31
0.0
  0
LINE
  5
3F7
330
1F
100
AcDbEntity
  8
Object
100
AcDbLine
 10
4.587370919781727
 20
7.130384793542725
 30
0.0
 11
4.689370919781726
 21
7.130384793542725
 31
0.0
  0
LINE
  5
3F8
330
1F
100
AcDbEntity
  8
Object
100
AcDbLine
 10
4.241370919781727
 20
6.748384793542725
 30
0.0
 11
4.286370919781727
 21
6.623384793542725
 31
0.0
  0
LINE
  5
3F9
330
1F
100
AcDbEntity
  8
Object
100
AcDbLine
 10
4.420370919781727
 20
6.736384793542725
 30
0.0
 11
4.420370919781727
 21
6.696384793542724
 31
0.0
  0
LINE
  5
3FA
330
1F
100
AcDbEntity
  8
Object
100
AcDbLine
 10
4.103370919781727
 20
6.736384793542725
 30
0.0
 11
4.103370919781727
 21
6.748384793542725
 31
0.0
  0
LINE
  5
3FB
330
1F
100
AcDbEntity
  8
Object
100
AcDbLine
 10
4.474370919781726
 20
7.130384793542725
 30
0.0
 11
4.502370919781727
 21
7.130384793542725
 31
0.0
  0
LINE
  5
3FC
330
1F
100
AcDbEntity
  8
Object
100
AcDbLine
 10
4.380370919781727
 20
7.017384793542725
 30
0.0
 11
4.377370919781727
 21
7.005384793542725
 31
0.0
  0
LINE
  5
3FD
330
1F
100
AcDbEntity
  8
Object
100
AcDbLine
 10
4.377370919781727
 20
7.005384793542725
 30
0.0
 11
4.368370919781726
 21
6.996384793542725
 31
0.0
  0
LINE
  5
3FE
330
1F
100
AcDbEntity
  8
Object
100
AcDbLine
 10
4.368370919781726
 20
6.996384793542725
 30
0.0
 11
4.356370919781727
 21
6.993384793542725
 31
0.0
  0
LINE
  5
3FF
330
1F
100
AcDbEntity
  8
Object
100
AcDbLine
 10
4.032370919781726
 20
6.634384793542725
 30
0.0
 11
4.032370919781726
 21
6.623384793542725
 31
0.0
  0
LINE
  5
400
330
1F
100
AcDbEntity
  8
Object
100
AcDbLine
 10
4.562370919781726
 20
6.690384793542725
 30
0.0
 11
4.539370919781727
 21
6.690384793542725
 31
0.0
  0
LINE
  5
401
330
1F
100
AcDbEntity
  8
Object
100
AcDbLine
 10
4.770370919781727
 20
6.636384793542725
 30
0.0
 11
4.744370919781727
 21
6.623384793542725
 31
0.0
  0
LINE
  5
402
330
1F
100
AcDbEntity
  8
Object
100
AcDbLine
 10
4.431370919781726
 20
6.636384793542725
 30
0.0
 11
4.410370919781726
 21
6.623384793542725
 31
0.0
  0
LINE
  5
403
330
1F
100
AcDbEntity
  8
Object
100
AcDbLine
 10
3.823370919781726
 20
6.623384793542725
 30
0.0
 11
3.808370919781726
 21
6.623384793542725
 31
0.0
  0
LINE
  5
404
330
1F
100
AcDbEntity
  8
Object
100
AcDbLine
 10
3.878370919781726
 20
6.690384793542725
 30
0.0
 11
3.878370919781726
 21
6.680384793542724
 31
0.0
  0
LINE
  5
405
330
1F
100
AcDbEntity
  8
Object
100
AcDbLine
 10
4.450370919781726
 20
7.130384793542725
 30
0.0
 11
4.450370919781726
 21
7.031384793542724
 31
0.0
  0
LINE
  5
406
330
1F
100
AcDbEntity
  8
Object
100
AcDbLine
 10
4.689370919781726
 20
7.102384793542725
 30
0.0
 11
4.658370919781726
 21
7.102384793542725
 31
0.0
  0
LINE
  5
407
330
1F
100
AcDbEntity
  8
Object
100
AcDbLine
 10
4.032370919781726
 20
6.736384793542725
 30
0.0
 11
3.955370919781726
 21
6.736384793542725
 31
0.0
  0
LINE
  5
408
330
1F
100
AcDbEntity
  8
Object
100
AcDbLine
 10
4.513370919781727
 20
6.658384793542725
 30
0.0
 11
4.513370919781727
 21
6.647384793542725
 31
0.0
  0
LINE
  5
409
330
1F
100
AcDbEntity
  8
Object
100
AcDbLine
 10
4.691370919781727
 20
6.623384793542725
 30
0.0
 11
4.665370919781726
 21
6.636384793542725
 31
0.0
  0
LINE
  5
40A
330
1F
100
AcDbEntity
  8
Object
100
AcDbLine
 10
4.325370919781726
 20
6.748384793542725
 30
0.0
 11
4.410370919781726
 21
6.748384793542725
 31
0.0
  0
LINE
  5
40B
330
1F
100
AcDbEntity
  8
Object
100
AcDbLine
 10
3.900370919781726
 20
6.748384793542725
 30
0.0
 11
3.900370919781726
 21
6.736384793542725
 31
0.0
  0
LINE
  5
40C
330
1F
100
AcDbEntity
  8
Object
100
AcDbLine
 10
4.457370919781727
 20
7.024384793542725
 30
0.0
 11
4.467370919781727
 21
7.024384793542725
 31
0.0
  0
LINE
  5
40D
330
1F
100
AcDbEntity
  8
Object
100
AcDbLine
 10
4.563370919781727
 20
7.130384793542725
 30
0.0
 11
4.563370919781727
 21
6.993384793542725
 31
0.0
  0
LINE
  5
40E
330
1F
100
AcDbEntity
  8
Object
100
AcDbLine
 10
4.178370919781727
 20
6.623384793542725
 30
0.0
 11
4.224370919781726
 21
6.748384793542725
 31
0.0
  0
LINE
  5
40F
330
1F
100
AcDbEntity
  8
Object
100
AcDbLine
 10
4.410370919781726
 20
6.623384793542725
 30
0.0
 11
4.325370919781726
 21
6.623384793542725
 31
0.0
  0
LINE
  5
410
330
1F
100
AcDbEntity
  8
Object
100
AcDbLine
 10
4.429370919781726
 20
6.993384793542725
 30
0.0
 11
4.416370919781726
 21
6.996384793542725
 31
0.0
  0
LINE
  5
411
330
1F
100
AcDbEntity
  8
Object
100
AcDbLine
 10
4.416370919781726
 20
6.996384793542725
 30
0.0
 11
4.407370919781726
 21
7.005384793542725
 31
0.0
  0
LINE
  5
412
330
1F
100
AcDbEntity
  8
Object
100
AcDbLine
 10
4.407370919781726
 20
7.005384793542725
 30
0.0
 11
4.404370919781727
 21
7.017384793542725
 31
0.0
  0
LINE
  5
413
330
1F
100
AcDbEntity
  8
Object
100
AcDbLine
 10
4.380370919781727
 20
7.106384793542725
 30
0.0
 11
4.377370919781727
 21
7.118384793542725
 31
0.0
  0
LINE
  5
414
330
1F
100
AcDbEntity
  8
Object
100
AcDbLine
 10
4.377370919781727
 20
7.118384793542725
 30
0.0
 11
4.368370919781726
 21
7.127384793542725
 31
0.0
  0
LINE
  5
415
330
1F
100
AcDbEntity
  8
Object
100
AcDbLine
 10
4.368370919781726
 20
7.127384793542725
 30
0.0
 11
4.356370919781727
 21
7.130384793542725
 31
0.0
  0
LINE
  5
416
330
1F
100
AcDbEntity
  8
Object
100
AcDbLine
 10
3.808370919781726
 20
6.623384793542725
 30
0.0
 11
3.808370919781726
 21
6.748384793542725
 31
0.0
  0
LINE
  5
417
330
1F
100
AcDbEntity
  8
Object
100
AcDbLine
 10
4.502370919781727
 20
7.017384793542725
 30
0.0
 11
4.499370919781727
 21
7.005384793542725
 31
0.0
  0
LINE
  5
418
330
1F
100
AcDbEntity
  8
Object
100
AcDbLine
 10
4.499370919781727
 20
7.005384793542725
 30
0.0
 11
4.490370919781726
 21
6.996384793542725
 31
0.0
  0
LINE
  5
419
330
1F
100
AcDbEntity
  8
Object
100
AcDbLine
 10
4.490370919781726
 20
6.996384793542725
 30
0.0
 11
4.478370919781727
 21
6.993384793542725
 31
0.0
  0
LINE
  5
41A
330
1F
100
AcDbEntity
  8
Object
100
AcDbLine
 10
4.474370919781726
 20
7.031384793542724
 30
0.0
 11
4.474370919781726
 21
7.130384793542725
 31
0.0
  0
LINE
  5
41B
330
1F
100
AcDbEntity
  8
Object
100
AcDbLine
 10
4.404370919781727
 20
7.130384793542725
 30
0.0
 11
4.450370919781726
 21
7.130384793542725
 31
0.0
  0
LINE
  5
41C
330
1F
100
AcDbEntity
  8
Object
100
AcDbLine
 10
4.224370919781726
 20
6.748384793542725
 30
0.0
 11
4.241370919781727
 21
6.748384793542725
 31
0.0
  0
LINE
  5
41D
330
1F
100
AcDbEntity
  8
Object
100
AcDbLine
 10
4.260370919781727
 20
6.645384793542725
 30
0.0
 11
4.204370919781727
 21
6.645384793542725
 31
0.0
  0
LINE
  5
41E
330
1F
100
AcDbEntity
  8
Object
100
AcDbLine
 10
4.681370919781726
 20
6.685384793542725
 30
0.0
 11
4.665370919781726
 21
6.693384793542725
 31
0.0
  0
LINE
  5
41F
330
1F
100
AcDbEntity
  8
Object
100
AcDbLine
 10
4.103370919781727
 20
6.634384793542725
 30
0.0
 11
4.105370919781726
 21
6.634384793542725
 31
0.0
  0
LINE
  5
420
330
1F
100
AcDbEntity
  8
Object
100
AcDbLine
 10
4.103370919781727
 20
6.623384793542725
 30
0.0
 11
4.114370919781727
 21
6.623384793542725
 31
0.0
  0
LINE
  5
421
330
1F
100
AcDbEntity
  8
Object
100
AcDbLine
 10
4.114370919781727
 20
6.623384793542725
 30
0.0
 11
4.114370919781727
 21
6.634384793542725
 31
0.0
  0
LINE
  5
422
330
1F
100
AcDbEntity
  8
Object
100
AcDbLine
 10
3.878370919781726
 20
6.680384793542724
 30
0.0
 11
3.823370919781726
 21
6.680384793542724
 31
0.0
  0
LINE
  5
423
330
1F
100
AcDbEntity
  8
Object
100
AcDbLine
 10
3.823370919781726
 20
6.736384793542725
 30
0.0
 11
3.823370919781726
 21
6.690384793542725
 31
0.0
  0
LINE
  5
424
330
1F
100
AcDbEntity
  8
Object
100
AcDbLine
 10
4.278370919781727
 20
7.130384793542725
 30
0.0
 11
4.356370919781727
 21
7.130384793542725
 31
0.0
  0
LINE
  5
425
330
1F
100
AcDbEntity
  8
Object
100
AcDbLine
 10
5.143370919781727
 20
7.520384793542725
 30
0.0
 11
5.143370919781727
 21
7.560384793542725
 31
0.0
  0
LINE
  5
426
330
1F
100
AcDbEntity
  8
Object
100
AcDbLine
 10
5.143370919781727
 20
7.560384793542725
 30
0.0
 11
5.143370919781727
 21
7.591384793542725
 31
0.0
  0
LINE
  5
427
330
1F
100
AcDbEntity
  8
Object
100
AcDbLine
 10
5.143370919781727
 20
7.617384793542725
 30
0.0
 11
5.143370919781727
 21
7.611384793542725
 31
0.0
  0
LINE
  5
428
330
1F
100
AcDbEntity
  8
Object
100
AcDbLine
 10
5.143370919781727
 20
7.611384793542725
 30
0.0
 11
5.143370919781727
 21
7.591384793542725
 31
0.0
  0
LINE
  5
429
330
1F
100
AcDbEntity
  8
Object
100
AcDbLine
 10
5.143370919781727
 20
7.520384793542725
 30
0.0
 11
5.143370919781727
 21
7.473384793542725
 31
0.0
  0
LINE
  5
42A
330
1F
100
AcDbEntity
  8
Object
100
AcDbLine
 10
5.143370919781727
 20
7.473384793542725
 30
0.0
 11
5.143370919781727
 21
7.423384793542725
 31
0.0
  0
LINE
  5
42B
102
{ACAD_REACTORS
330
4AB
102
}
330
1F
100
AcDbEntity
  8
Object
100
AcDbLine
 10
5.143370919781727
 20
7.617384793542725
 30
0.0
 11
1.033370919781727
 21
7.617384793542725
 31
0.0
  0
LINE
  5
42C
330
1F
100
AcDbEntity
  8
Object
100
AcDbLine
 10
1.033370919781727
 20
7.520384793542725
 30
0.0
 11
1.033370919781727
 21
7.473384793542725
 31
0.0
  0
LINE
  5
42D
330
1F
100
AcDbEntity
  8
Object
100
AcDbLine
 10
1.033370919781727
 20
7.591384793542725
 30
0.0
 11
1.033370919781727
 21
7.611384793542725
 31
0.0
  0
LINE
  5
42E
330
1F
100
AcDbEntity
  8
Object
100
AcDbLine
 10
1.033370919781727
 20
7.611384793542725
 30
0.0
 11
1.033370919781727
 21
7.617384793542725
 31
0.0
  0
LINE
  5
42F
330
1F
100
AcDbEntity
  8
Object
100
AcDbLine
 10
1.033370919781727
 20
7.591384793542725
 30
0.0
 11
1.033370919781727
 21
7.560384793542725
 31
0.0
  0
LINE
  5
430
330
1F
100
AcDbEntity
  8
Object
100
AcDbLine
 10
1.033370919781727
 20
7.560384793542725
 30
0.0
 11
1.033370919781727
 21
7.520384793542725
 31
0.0
  0
LINE
  5
431
330
1F
100
AcDbEntity
  8
Object
100
AcDbLine
 10
1.033370919781727
 20
7.473384793542725
 30
0.0
 11
1.033370919781727
 21
7.423384793542725
 31
0.0
  0
LINE
  5
432
330
1F
100
AcDbEntity
  8
Object
100
AcDbLine
 10
5.143370919781727
 20
6.225384793542725
 30
0.0
 11
5.143370919781727
 21
6.272384793542725
 31
0.0
  0
LINE
  5
433
330
1F
100
AcDbEntity
  8
Object
100
AcDbLine
 10
5.143370919781727
 20
6.154384793542725
 30
0.0
 11
5.143370919781727
 21
6.135384793542725
 31
0.0
  0
LINE
  5
434
330
1F
100
AcDbEntity
  8
Object
100
AcDbLine
 10
5.143370919781727
 20
6.135384793542725
 30
0.0
 11
5.143370919781727
 21
6.128384793542725
 31
0.0
  0
LINE
  5
435
330
1F
100
AcDbEntity
  8
Object
100
AcDbLine
 10
5.143370919781727
 20
6.154384793542725
 30
0.0
 11
5.143370919781727
 21
6.185384793542725
 31
0.0
  0
LINE
  5
436
330
1F
100
AcDbEntity
  8
Object
100
AcDbLine
 10
5.143370919781727
 20
6.185384793542725
 30
0.0
 11
5.143370919781727
 21
6.225384793542725
 31
0.0
  0
LINE
  5
437
330
1F
100
AcDbEntity
  8
Object
100
AcDbLine
 10
5.143370919781727
 20
6.272384793542725
 30
0.0
 11
5.143370919781727
 21
6.323384793542725
 31
0.0
  0
LINE
  5
438
102
{ACAD_REACTORS
330
4AB
102
}
330
1F
100
AcDbEntity
  8
Object
100
AcDbLine
 10
1.033370919781727
 20
6.128384793542725
 30
0.0
 11
5.143370919781727
 21
6.128384793542725
 31
0.0
  0
LINE
  5
439
330
1F
100
AcDbEntity
  8
Object
100
AcDbLine
 10
1.033370919781727
 20
6.225384793542725
 30
0.0
 11
1.033370919781727
 21
6.185384793542725
 31
0.0
  0
LINE
  5
43A
330
1F
100
AcDbEntity
  8
Object
100
AcDbLine
 10
1.033370919781727
 20
6.185384793542725
 30
0.0
 11
1.033370919781727
 21
6.154384793542725
 31
0.0
  0
LINE
  5
43B
330
1F
100
AcDbEntity
  8
Object
100
AcDbLine
 10
1.033370919781727
 20
6.128384793542725
 30
0.0
 11
1.033370919781727
 21
6.135384793542725
 31
0.0
  0
LINE
  5
43C
330
1F
100
AcDbEntity
  8
Object
100
AcDbLine
 10
1.033370919781727
 20
6.135384793542725
 30
0.0
 11
1.033370919781727
 21
6.154384793542725
 31
0.0
  0
LINE
  5
43D
330
1F
100
AcDbEntity
  8
Object
100
AcDbLine
 10
1.033370919781727
 20
6.225384793542725
 30
0.0
 11
1.033370919781727
 21
6.272384793542725
 31
0.0
  0
LINE
  5
43E
330
1F
100
AcDbEntity
  8
Object
100
AcDbLine
 10
1.033370919781727
 20
6.272384793542725
 30
0.0
 11
1.033370919781727
 21
6.323384793542725
 31
0.0
  0
LINE
  5
43F
330
1F
100
AcDbEntity
  8
Object
100
AcDbLine
 10
4.730370919781726
 20
6.634384793542725
 30
0.0
 11
4.755370919781727
 21
6.647384793542725
 31
0.0
  0
LINE
  5
440
330
1F
100
AcDbEntity
  8
Object
100
AcDbLine
 10
4.681370919781726
 20
6.667384793542725
 30
0.0
 11
4.681370919781726
 21
6.647384793542725
 31
0.0
  0
LINE
  5
441
330
1F
100
AcDbEntity
  8
Object
100
AcDbLine
 10
4.707370919781727
 20
6.690384793542725
 30
0.0
 11
4.730370919781726
 21
6.690384793542725
 31
0.0
  0
LINE
  5
442
330
1F
100
AcDbEntity
  8
Object
100
AcDbLine
 10
4.707370919781727
 20
6.736384793542725
 30
0.0
 11
4.681370919781726
 21
6.723384793542725
 31
0.0
  0
LINE
  5
443
330
1F
100
AcDbEntity
  8
Object
100
AcDbLine
 10
4.707370919781727
 20
6.634384793542725
 30
0.0
 11
4.730370919781726
 21
6.634384793542725
 31
0.0
  0
LINE
  5
444
330
1F
100
AcDbEntity
  8
Object
100
AcDbLine
 10
4.755370919781727
 20
6.703384793542725
 30
0.0
 11
4.755370919781727
 21
6.723384793542725
 31
0.0
  0
LINE
  5
445
330
1F
100
AcDbEntity
  8
Object
100
AcDbLine
 10
4.707370919781727
 20
6.680384793542724
 30
0.0
 11
4.681370919781726
 21
6.667384793542725
 31
0.0
  0
LINE
  5
446
330
1F
100
AcDbEntity
  8
Object
100
AcDbLine
 10
4.755370919781727
 20
6.647384793542725
 30
0.0
 11
4.755370919781727
 21
6.667384793542725
 31
0.0
  0
LINE
  5
447
330
1F
100
AcDbEntity
  8
Object
100
AcDbLine
 10
4.730370919781726
 20
6.736384793542725
 30
0.0
 11
4.707370919781727
 21
6.736384793542725
 31
0.0
  0
LINE
  5
448
330
1F
100
AcDbEntity
  8
Object
100
AcDbLine
 10
4.681370919781726
 20
6.647384793542725
 30
0.0
 11
4.707370919781727
 21
6.634384793542725
 31
0.0
  0
LINE
  5
449
330
1F
100
AcDbEntity
  8
Object
100
AcDbLine
 10
4.730370919781726
 20
6.690384793542725
 30
0.0
 11
4.755370919781727
 21
6.703384793542725
 31
0.0
  0
LINE
  5
44A
330
1F
100
AcDbEntity
  8
Object
100
AcDbLine
 10
4.681370919781726
 20
6.723384793542725
 30
0.0
 11
4.681370919781726
 21
6.703384793542725
 31
0.0
  0
LINE
  5
44B
330
1F
100
AcDbEntity
  8
Object
100
AcDbLine
 10
4.755370919781727
 20
6.723384793542725
 30
0.0
 11
4.730370919781726
 21
6.736384793542725
 31
0.0
  0
LINE
  5
44C
330
1F
100
AcDbEntity
  8
Object
100
AcDbLine
 10
4.755370919781727
 20
6.667384793542725
 30
0.0
 11
4.730370919781726
 21
6.680384793542724
 31
0.0
  0
LINE
  5
44D
330
1F
100
AcDbEntity
  8
Object
100
AcDbLine
 10
4.681370919781726
 20
6.703384793542725
 30
0.0
 11
4.707370919781727
 21
6.690384793542725
 31
0.0
  0
LINE
  5
44E
330
1F
100
AcDbEntity
  8
Object
100
AcDbLine
 10
4.730370919781726
 20
6.680384793542724
 30
0.0
 11
4.707370919781727
 21
6.680384793542724
 31
0.0
  0
LINE
  5
44F
330
1F
100
AcDbEntity
  8
Object
100
AcDbLine
 10
4.340370919781727
 20
7.031384793542724
 30
0.0
 11
4.340370919781727
 21
7.095384793542724
 31
0.0
  0
LINE
  5
450
330
1F
100
AcDbEntity
  8
Object
100
AcDbLine
 10
4.319370919781727
 20
7.102384793542725
 30
0.0
 11
4.319370919781727
 21
7.024384793542725
 31
0.0
  0
LINE
  5
451
330
1F
100
AcDbEntity
  8
Object
100
AcDbLine
 10
4.340370919781727
 20
7.031384793542724
 30
0.0
 11
4.339370919781726
 21
7.028384793542725
 31
0.0
  0
LINE
  5
452
330
1F
100
AcDbEntity
  8
Object
100
AcDbLine
 10
4.339370919781726
 20
7.028384793542725
 30
0.0
 11
4.336370919781726
 21
7.025384793542725
 31
0.0
  0
LINE
  5
453
330
1F
100
AcDbEntity
  8
Object
100
AcDbLine
 10
4.336370919781726
 20
7.025384793542725
 30
0.0
 11
4.333370919781726
 21
7.024384793542725
 31
0.0
  0
LINE
  5
454
330
1F
100
AcDbEntity
  8
Object
100
AcDbLine
 10
4.333370919781726
 20
7.102384793542725
 30
0.0
 11
4.319370919781727
 21
7.102384793542725
 31
0.0
  0
LINE
  5
455
330
1F
100
AcDbEntity
  8
Object
100
AcDbLine
 10
4.319370919781727
 20
7.024384793542725
 30
0.0
 11
4.333370919781726
 21
7.024384793542725
 31
0.0
  0
LINE
  5
456
330
1F
100
AcDbEntity
  8
Object
100
AcDbLine
 10
4.340370919781727
 20
7.095384793542724
 30
0.0
 11
4.339370919781726
 21
7.098384793542725
 31
0.0
  0
LINE
  5
457
330
1F
100
AcDbEntity
  8
Object
100
AcDbLine
 10
4.339370919781726
 20
7.098384793542725
 30
0.0
 11
4.336370919781726
 21
7.101384793542725
 31
0.0
  0
LINE
  5
458
330
1F
100
AcDbEntity
  8
Object
100
AcDbLine
 10
4.336370919781726
 20
7.101384793542725
 30
0.0
 11
4.333370919781726
 21
7.102384793542725
 31
0.0
  0
LINE
  5
459
330
1F
100
AcDbEntity
  8
Object
100
AcDbLine
 10
4.415370919781726
 20
6.673384793542725
 30
0.0
 11
4.397370919781726
 21
6.685384793542725
 31
0.0
  0
LINE
  5
45A
330
1F
100
AcDbEntity
  8
Object
100
AcDbLine
 10
4.398370919781727
 20
6.736384793542725
 30
0.0
 11
4.341370919781726
 21
6.736384793542725
 31
0.0
  0
LINE
  5
45B
330
1F
100
AcDbEntity
  8
Object
100
AcDbLine
 10
4.341370919781726
 20
6.736384793542725
 30
0.0
 11
4.341370919781726
 21
6.696384793542724
 31
0.0
  0
LINE
  5
45C
330
1F
100
AcDbEntity
  8
Object
100
AcDbLine
 10
4.397370919781726
 20
6.685384793542725
 30
0.0
 11
4.341370919781726
 21
6.685384793542725
 31
0.0
  0
LINE
  5
45D
330
1F
100
AcDbEntity
  8
Object
100
AcDbLine
 10
4.397370919781726
 20
6.634384793542725
 30
0.0
 11
4.415370919781726
 21
6.645384793542725
 31
0.0
  0
LINE
  5
45E
330
1F
100
AcDbEntity
  8
Object
100
AcDbLine
 10
4.404370919781727
 20
6.703384793542725
 30
0.0
 11
4.404370919781727
 21
6.729384793542725
 31
0.0
  0
LINE
  5
45F
330
1F
100
AcDbEntity
  8
Object
100
AcDbLine
 10
4.341370919781726
 20
6.634384793542725
 30
0.0
 11
4.397370919781726
 21
6.634384793542725
 31
0.0
  0
LINE
  5
460
330
1F
100
AcDbEntity
  8
Object
100
AcDbLine
 10
4.398370919781727
 20
6.696384793542724
 30
0.0
 11
4.404370919781727
 21
6.703384793542725
 31
0.0
  0
LINE
  5
461
330
1F
100
AcDbEntity
  8
Object
100
AcDbLine
 10
4.341370919781726
 20
6.685384793542725
 30
0.0
 11
4.341370919781726
 21
6.634384793542725
 31
0.0
  0
LINE
  5
462
330
1F
100
AcDbEntity
  8
Object
100
AcDbLine
 10
4.341370919781726
 20
6.696384793542724
 30
0.0
 11
4.398370919781727
 21
6.696384793542724
 31
0.0
  0
LINE
  5
463
330
1F
100
AcDbEntity
  8
Object
100
AcDbLine
 10
4.415370919781726
 20
6.645384793542725
 30
0.0
 11
4.415370919781726
 21
6.673384793542725
 31
0.0
  0
LINE
  5
464
330
1F
100
AcDbEntity
  8
Object
100
AcDbLine
 10
4.404370919781727
 20
6.729384793542725
 30
0.0
 11
4.398370919781727
 21
6.736384793542725
 31
0.0
  0
LINE
  5
465
330
1F
100
AcDbEntity
  8
Object
100
AcDbLine
 10
4.233370919781727
 20
6.724384793542725
 30
0.0
 11
4.207370919781727
 21
6.656384793542724
 31
0.0
  0
LINE
  5
466
330
1F
100
AcDbEntity
  8
Object
100
AcDbLine
 10
4.207370919781727
 20
6.656384793542724
 30
0.0
 11
4.257370919781727
 21
6.656384793542724
 31
0.0
  0
LINE
  5
467
330
1F
100
AcDbEntity
  8
Object
100
AcDbLine
 10
4.257370919781727
 20
6.656384793542724
 30
0.0
 11
4.233370919781727
 21
6.724384793542725
 31
0.0
  0
LINE
  5
468
330
1F
100
AcDbEntity
  8
Object
100
AcDbLine
 10
4.730370919781726
 20
6.680384793542724
 30
0.0
 11
4.755370919781727
 21
6.667384793542725
 31
0.0
  0
LINE
  5
469
330
1F
100
AcDbEntity
  8
Object
100
AcDbLine
 10
4.755370919781727
 20
6.667384793542725
 30
0.0
 11
4.755370919781727
 21
6.647384793542725
 31
0.0
  0
LINE
  5
46A
330
1F
100
AcDbEntity
  8
Object
100
AcDbLine
 10
4.755370919781727
 20
6.647384793542725
 30
0.0
 11
4.730370919781726
 21
6.634384793542725
 31
0.0
  0
LINE
  5
46B
330
1F
100
AcDbEntity
  8
Object
100
AcDbLine
 10
4.730370919781726
 20
6.680384793542724
 30
0.0
 11
4.707370919781727
 21
6.680384793542724
 31
0.0
  0
LINE
  5
46C
330
1F
100
AcDbEntity
  8
Object
100
AcDbLine
 10
4.730370919781726
 20
6.634384793542725
 30
0.0
 11
4.707370919781727
 21
6.634384793542725
 31
0.0
  0
LINE
  5
46D
330
1F
100
AcDbEntity
  8
Object
100
AcDbLine
 10
4.707370919781727
 20
6.634384793542725
 30
0.0
 11
4.681370919781726
 21
6.647384793542725
 31
0.0
  0
LINE
  5
46E
330
1F
100
AcDbEntity
  8
Object
100
AcDbLine
 10
4.681370919781726
 20
6.647384793542725
 30
0.0
 11
4.681370919781726
 21
6.667384793542725
 31
0.0
  0
LINE
  5
46F
330
1F
100
AcDbEntity
  8
Object
100
AcDbLine
 10
4.681370919781726
 20
6.667384793542725
 30
0.0
 11
4.707370919781727
 21
6.680384793542724
 31
0.0
  0
LINE
  5
470
330
1F
100
AcDbEntity
  8
Object
100
AcDbLine
 10
4.730370919781726
 20
6.736384793542725
 30
0.0
 11
4.755370919781727
 21
6.723384793542725
 31
0.0
  0
LINE
  5
471
330
1F
100
AcDbEntity
  8
Object
100
AcDbLine
 10
4.755370919781727
 20
6.723384793542725
 30
0.0
 11
4.755370919781727
 21
6.703384793542725
 31
0.0
  0
LINE
  5
472
330
1F
100
AcDbEntity
  8
Object
100
AcDbLine
 10
4.755370919781727
 20
6.703384793542725
 30
0.0
 11
4.730370919781726
 21
6.690384793542725
 31
0.0
  0
LINE
  5
473
330
1F
100
AcDbEntity
  8
Object
100
AcDbLine
 10
4.730370919781726
 20
6.690384793542725
 30
0.0
 11
4.707370919781727
 21
6.690384793542725
 31
0.0
  0
LINE
  5
474
330
1F
100
AcDbEntity
  8
Object
100
AcDbLine
 10
4.730370919781726
 20
6.736384793542725
 30
0.0
 11
4.707370919781727
 21
6.736384793542725
 31
0.0
  0
LINE
  5
475
330
1F
100
AcDbEntity
  8
Object
100
AcDbLine
 10
4.707370919781727
 20
6.736384793542725
 30
0.0
 11
4.681370919781726
 21
6.723384793542725
 31
0.0
  0
LINE
  5
476
330
1F
100
AcDbEntity
  8
Object
100
AcDbLine
 10
4.707370919781727
 20
6.690384793542725
 30
0.0
 11
4.681370919781726
 21
6.703384793542725
 31
0.0
  0
LINE
  5
477
330
1F
100
AcDbEntity
  8
Object
100
AcDbLine
 10
4.681370919781726
 20
6.703384793542725
 30
0.0
 11
4.681370919781726
 21
6.723384793542725
 31
0.0
  0
LINE
  5
478
330
1F
100
AcDbEntity
  8
Object
100
AcDbLine
 10
4.340370919781727
 20
7.031384793542724
 30
0.0
 11
4.339370919781726
 21
7.028384793542725
 31
0.0
  0
LINE
  5
479
330
1F
100
AcDbEntity
  8
Object
100
AcDbLine
 10
4.339370919781726
 20
7.028384793542725
 30
0.0
 11
4.336370919781726
 21
7.025384793542725
 31
0.0
  0
LINE
  5
47A
330
1F
100
AcDbEntity
  8
Object
100
AcDbLine
 10
4.336370919781726
 20
7.025384793542725
 30
0.0
 11
4.333370919781726
 21
7.024384793542725
 31
0.0
  0
LINE
  5
47B
330
1F
100
AcDbEntity
  8
Object
100
AcDbLine
 10
4.339370919781726
 20
7.098384793542725
 30
0.0
 11
4.336370919781726
 21
7.101384793542725
 31
0.0
  0
LINE
  5
47C
330
1F
100
AcDbEntity
  8
Object
100
AcDbLine
 10
4.336370919781726
 20
7.101384793542725
 30
0.0
 11
4.333370919781726
 21
7.102384793542725
 31
0.0
  0
LINE
  5
47D
330
1F
100
AcDbEntity
  8
Object
100
AcDbLine
 10
4.340370919781727
 20
7.095384793542724
 30
0.0
 11
4.339370919781726
 21
7.098384793542725
 31
0.0
  0
LINE
  5
47E
330
1F
100
AcDbEntity
  8
Object
100
AcDbLine
 10
4.319370919781727
 20
7.102384793542725
 30
0.0
 11
4.319370919781727
 21
7.024384793542725
 31
0.0
  0
LINE
  5
47F
330
1F
100
AcDbEntity
  8
Object
100
AcDbLine
 10
4.340370919781727
 20
7.031384793542724
 30
0.0
 11
4.340370919781727
 21
7.095384793542724
 31
0.0
  0
LINE
  5
480
330
1F
100
AcDbEntity
  8
Object
100
AcDbLine
 10
4.319370919781727
 20
7.024384793542725
 30
0.0
 11
4.333370919781726
 21
7.024384793542725
 31
0.0
  0
LINE
  5
481
330
1F
100
AcDbEntity
  8
Object
100
AcDbLine
 10
4.333370919781726
 20
7.102384793542725
 30
0.0
 11
4.319370919781727
 21
7.102384793542725
 31
0.0
  0
LINE
  5
482
330
1F
100
AcDbEntity
  8
Object
100
AcDbLine
 10
4.397370919781726
 20
6.685384793542725
 30
0.0
 11
4.415370919781726
 21
6.673384793542725
 31
0.0
  0
LINE
  5
483
330
1F
100
AcDbEntity
  8
Object
100
AcDbLine
 10
4.415370919781726
 20
6.673384793542725
 30
0.0
 11
4.415370919781726
 21
6.645384793542725
 31
0.0
  0
LINE
  5
484
330
1F
100
AcDbEntity
  8
Object
100
AcDbLine
 10
4.415370919781726
 20
6.645384793542725
 30
0.0
 11
4.397370919781726
 21
6.634384793542725
 31
0.0
  0
LINE
  5
485
330
1F
100
AcDbEntity
  8
Object
100
AcDbLine
 10
4.397370919781726
 20
6.634384793542725
 30
0.0
 11
4.341370919781726
 21
6.634384793542725
 31
0.0
  0
LINE
  5
486
330
1F
100
AcDbEntity
  8
Object
100
AcDbLine
 10
4.341370919781726
 20
6.634384793542725
 30
0.0
 11
4.341370919781726
 21
6.685384793542725
 31
0.0
  0
LINE
  5
487
330
1F
100
AcDbEntity
  8
Object
100
AcDbLine
 10
4.341370919781726
 20
6.685384793542725
 30
0.0
 11
4.397370919781726
 21
6.685384793542725
 31
0.0
  0
LINE
  5
488
330
1F
100
AcDbEntity
  8
Object
100
AcDbLine
 10
4.398370919781727
 20
6.736384793542725
 30
0.0
 11
4.404370919781727
 21
6.729384793542725
 31
0.0
  0
LINE
  5
489
330
1F
100
AcDbEntity
  8
Object
100
AcDbLine
 10
4.404370919781727
 20
6.729384793542725
 30
0.0
 11
4.404370919781727
 21
6.703384793542725
 31
0.0
  0
LINE
  5
48A
330
1F
100
AcDbEntity
  8
Object
100
AcDbLine
 10
4.404370919781727
 20
6.703384793542725
 30
0.0
 11
4.398370919781727
 21
6.696384793542724
 31
0.0
  0
LINE
  5
48B
330
1F
100
AcDbEntity
  8
Object
100
AcDbLine
 10
4.398370919781727
 20
6.696384793542724
 30
0.0
 11
4.341370919781726
 21
6.696384793542724
 31
0.0
  0
LINE
  5
48C
330
1F
100
AcDbEntity
  8
Object
100
AcDbLine
 10
4.341370919781726
 20
6.696384793542724
 30
0.0
 11
4.341370919781726
 21
6.736384793542725
 31
0.0
  0
LINE
  5
48D
330
1F
100
AcDbEntity
  8
Object
100
AcDbLine
 10
4.341370919781726
 20
6.736384793542725
 30
0.0
 11
4.398370919781727
 21
6.736384793542725
 31
0.0
  0
LINE
  5
48E
330
1F
100
AcDbEntity
  8
Object
100
AcDbLine
 10
4.257370919781727
 20
6.656384793542724
 30
0.0
 11
4.207370919781727
 21
6.656384793542724
 31
0.0
  0
LINE
  5
48F
330
1F
100
AcDbEntity
  8
Object
100
AcDbLine
 10
4.207370919781727
 20
6.656384793542724
 30
0.0
 11
4.233370919781727
 21
6.724384793542725
 31
0.0
  0
LINE
  5
490
330
1F
100
AcDbEntity
  8
Object
100
AcDbLine
 10
4.233370919781727
 20
6.724384793542725
 30
0.0
 11
4.257370919781727
 21
6.656384793542724
 31
0.0
  0
DIMENSION
  5
491
102
{ACAD_XDICTIONARY
360
4A0
102
}
102
{ACAD_REACTORS
330
4AB
102
}
330
1F
100
AcDbEntity
  8
Dimension
100
AcDbDimension
  2
*D1
 10
6.293717176549154
 20
7.617384793542724
 30
0.0
 11
6.293717176549153
 21
6.872884793542725
 31
0.0
 70
    32
 71
     5
 42
1.488999999999999
  3
Standard
100
AcDbAlignedDimension
 13
5.143370919781727
 23
6.128384793542725
 33
0.0
 14
5.143370919781727
 24
7.617384793542725
 34
0.0
 50
90.0
100
AcDbRotatedDimension
  0
DIMENSION
  5
4AC
102
{ACAD_XDICTIONARY
360
4BA
102
}
102
{ACAD_REACTORS
330
4C5
102
}
330
1F
100
AcDbEntity
  8
Dimension
100
AcDbDimension
  2
*D2
 10
5.143370919781728
 20
5.180077107354371
 30
0.0
 11
3.088370919781727
 21
5.180077107354371
 31
0.0
 70
    32
 71
     5
 42
4.11
  3
Standard
100
AcDbAlignedDimension
 13
1.033370919781727
 23
4.631618116770132
 33
0.0
 14
5.143370919781728
 24
4.631618116770132
 34
0.0
100
AcDbRotatedDimension
  0
DIMENSION
  5
4C6
102
{ACAD_XDICTIONARY
360
4D4
102
}
102
{ACAD_REACTORS
330
4DF
102
}
330
1F
100
AcDbEntity
  8
Dimension
100
AcDbDimension
  2
*D3
 10
6.620799245058751
 20
4.631618116770132
 30
0.0
 11
6.62079924505875
 21
4.099118116770133
 31
0.0
 70
    32
  1
1.06 [27.0mm]
 71
     5
 42
1.065
  3
Standard
100
AcDbAlignedDimension
 13
7.593370919781726
 23
3.566618116770132
 33
0.0
 14
7.787370919781727
 24
4.631618116770132
 34
0.0
 50
90.0
100
AcDbRotatedDimension
  0
TEXT
  5
4E1
330
1F
100
AcDbEntity
  8
Text
100
AcDbText
 10
2.05063913878936
 20
5.734693455728073
 30
0.0
 40
0.125
  1
TOP VIEW - BRACKET CLIP
100
AcDbText
  0
TEXT
  5
4E2
330
1F
100
AcDbEntity
  8
Text
100
AcDbText
 10
1.83852799978888
 20
3.18676627854681
 30
0.0
 40
0.125
  1
FRONT VIEW - BRACKET CLIP
100
AcDbText
  0
TEXT
  5
4E3
330
1F
100
AcDbEntity
  8
Text
100
AcDbText
 10
6.936498544080532
 20
3.188846806001342
 30
0.0
 40
0.125
  1
RIGHT SIDE VIEW - BRACKET CLIP
100
AcDbText
  0
TEXT
  5
4E4
330
1F
100
AcDbEntity
  8
Title Block
100
AcDbText
 10
6.776695012655547
 20
2.672489851525508
 30
0.0
 40
0.05
  1
FILENAME:
100
AcDbText
  0
TEXT
  5
4E5
330
1F
100
AcDbEntity
  8
Title Block
100
AcDbText
 10
6.769285028728251
 20
2.076224967549325
 30
0.0
 40
0.35
  1
PANDUIT
100
AcDbText
  0
TEXT
  5
4E6
330
1F
100
AcDbEntity
  8
Title Block
100
AcDbText
 10
8.721820398821382
 20
2.061410940562986
 30
0.0
 40
0.125
  1
CORP. TINLEY PARK, IL
100
AcDbText
  0
TEXT
  5
4E7
330
1F
100
AcDbEntity
  8
Title Block
100
AcDbText
 10
6.780399976708615
 20
1.91697409709392
 30
0.0
 40
0.05
  1
TITLE:
100
AcDbText
  0
MTEXT
  5
4E8
330
1F
100
AcDbEntity
  8
Title Block
100
AcDbMText
 10
8.0
 20
1.372215793536348
 30
0.0
 40
0.075
 41
2.5
 71
     5
 72
     5
  1
UNLESS OTHERWISE SPECIFIED,\PDIMENSIONAL TOLERANCES ARE:       
 73
     1
 44
1.0
1001
ACAD
1000
MTEXTBEGIN
1070
    73
1070
     1
1070
    44
1040
1.0
1070
    74
1070
     0
1000
MTEXTEND
  0
MTEXT
  5
4E9
330
1F
100
AcDbEntity
  8
Title Block
100
AcDbMText
 10
7.392379866610014
 20
1.131487708483632
 30
0.0
 40
0.075
 41
2.5
 71
     5
 72
     5
  1
(.X)\P(.XX)
 73
     1
 44
1.0
1001
ACAD
1000
MTEXTBEGIN
1070
    73
1070
     1
1070
    44
1040
1.0
1070
    74
1070
     0
1000
MTEXTEND
  0
MTEXT
  5
4EA
330
1F
100
AcDbEntity
  8
Title Block
100
AcDbMText
 10
8.400140053124118
 20
1.131487708483632
 30
0.0
 40
0.075
 41
2.5
 71
     5
 72
     5
  1
(.XXX)\PANGLES:
 73
     1
 44
1.0
1001
ACAD
1000
MTEXTBEGIN
1070
    73
1070
     1
1070
    44
1040
1.0
1070
    74
1070
     0
1000
MTEXTEND
  0
MTEXT
  5
4EB
330
1F
100
AcDbEntity
  8
Title Block
100
AcDbMText
 10
10.0
 20
1.25
 30
0.0
 40
0.06
 41
1.5
 71
     5
 72
     5
  1
UNLESS OTHERWISE SPECIFIED,\PALL DIMENSIONS ARE GIVEN IN INCHES, THIRD ANGLE PROJECTION
 73
     1
 44
1.0
1001
ACAD
1000
MTEXTBEGIN
1070
    73
1070
     1
1070
    44
1040
1.0
1070
    74
1070
     0
1000
MTEXTEND
  0
TEXT
  5
4EC
330
1F
100
AcDbEntity
  8
Title Block
100
AcDbText
 10
6.760764454306187
 20
0.9281373372752312
 30
0.0
 40
0.05
  1
DRAWN BY:
100
AcDbText
  0
TEXT
  5
4ED
330
1F
100
AcDbEntity
  8
Title Block
100
AcDbText
 10
6.764469474180437
 20
0.6811431865635028
 30
0.0
 40
0.05
  1
DATE:
100
AcDbText
  0
TEXT
  5
4EE
330
1F
100
AcDbEntity
  8
Title Block
100
AcDbText
 10
6.768174438233497
 20
0.4304455338317968
 30
0.0
 40
0.05
  1
CHECKED BY:
100
AcDbText
  0
TEXT
  5
4EF
330
1F
100
AcDbEntity
  8
Title Block
100
AcDbText
 10
7.520289593133067
 20
0.9281373372752312
 30
0.0
 40
0.05
  1
MATERIAL:
100
AcDbText
  0
TEXT
  5
4F0
330
1F
100
AcDbEntity
  8
Title Block
100
AcDbText
 10
9.265344938781542
 20
0.9281373372752312
 30
0.0
 40
0.05
  1
SCALE:
100
AcDbText
  0
TEXT
  5
4F1
330
1F
100
AcDbEntity
  8
Title Block
100
AcDbText
 10
9.265344938781542
 20
0.6725952630490007
 30
0.0
 40
0.05
  1
DRAWING NUMBER:
100
AcDbText
  0
TEXT
  5
4F2
330
1F
100
AcDbEntity
  8
Title Block
100
AcDbText
 10
10.34942622928998
 20
0.6762987650689816
 30
0.0
 40
0.05
  1
DRAWING
100
AcDbText
  0
TEXT
  5
4F3
330
1F
100
AcDbEntity
  8
Title Block
100
AcDbText
 10
10.42723125590085
 20
0.2811642688682026
 30
0.0
 40
0.05
  1
SIZE
100
AcDbText
  0
TEXT
  5
4F4
330
1F
100
AcDbEntity
  8
Title Block
100
AcDbText
 10
10.38647626056889
 20
0.3911285990572359
 30
0.0
 40
0.25
  1
A
100
AcDbText
  0
MTEXT
  5
4F5
330
1F
100
AcDbEntity
  8
Title Block
100
AcDbMText
 10
0.375
 20
0.375
 30
0.0
 40
0.05
 41
0.25
 71
     5
 72
     5
  1
REV
 73
     1
 44
1.0
1001
ACAD
1000
MTEXTBEGIN
1070
    73
1070
     1
1070
    44
1040
1.0
1070
    74
1070
     0
1000
MTEXTEND
  0
MTEXT
  5
4F6
330
1F
100
AcDbEntity
  8
Title Block
100
AcDbMText
 10
0.75
 20
0.375
 30
0.0
 40
0.05
 41
0.5
 71
     5
 72
     5
  1
DATE
 73
     1
 44
1.0
1001
ACAD
1000
MTEXTBEGIN
1070
    73
1070
     1
1070
    44
1040
1.0
1070
    74
1070
     0
1000
MTEXTEND
  0
MTEXT
  5
4F7
330
1F
100
AcDbEntity
  8
Title Block
100
AcDbMText
 10
1.189999999999999
 20
0.375
 30
0.0
 40
0.05
 41
0.38
 71
     5
 72
     5
  1
BY
 73
     1
 44
1.0
1001
ACAD
1000
MTEXTBEGIN
1070
    73
1070
     1
1070
    44
1040
1.0
1070
    74
1070
     0
1000
MTEXTEND
  0
MTEXT
  5
4F8
330
1F
100
AcDbEntity
  8
Title Block
100
AcDbMText
 10
1.564999999999999
 20
0.375
 30
0.0
 40
0.05
 41
0.38
 71
     5
 72
     5
  1
CHK
 73
     1
 44
1.0
1001
ACAD
1000
MTEXTBEGIN
1070
    73
1070
     1
1070
    44
1040
1.0
1070
    74
1070
     0
1000
MTEXTEND
  0
MTEXT
  5
4F9
330
1F
100
AcDbEntity
  8
Title Block
100
AcDbMText
 10
3.125
 20
0.375
 30
0.0
 40
0.05
 41
2.75
 71
     5
 72
     5
  1
DESCRIPTION
 73
     1
 44
1.0
1001
ACAD
1000
MTEXTBEGIN
1070
    73
1070
     1
1070
    44
1040
1.0
1070
    74
1070
     0
1000
MTEXTEND
  0
MTEXT
  5
4FA
330
1F
100
AcDbEntity
  8
Title Block
100
AcDbMText
 10
5.064999999999999
 20
0.375
 30
0.0
 40
0.05
 41
1.129999999999999
 71
     5
 72
     5
  1
ECN   -   R
 73
     1
 44
1.0
1001
ACAD
1000
MTEXTBEGIN
1070
    73
1070
     1
1070
    44
1040
1.0
1070
    74
1070
     0
1000
MTEXTEND
  0
MTEXT
  5
4FB
330
1F
100
AcDbEntity
  8
Title Block
100
AcDbMText
 10
5.815
 20
0.375
 30
0.0
 40
0.05
 41
0.38
 71
     5
 72
     5
  1
CUST
 73
     1
 44
1.0
1001
ACAD
1000
MTEXTBEGIN
1070
    73
1070
     1
1070
    44
1040
1.0
1070
    74
1070
     0
1000
MTEXTEND
  0
MTEXT
  5
4FC
330
1F
100
AcDbEntity
  8
Title Block
100
AcDbMText
 10
6.19
 20
0.375
 30
0.0
 40
0.05
 41
0.38
 71
     5
 72
     5
  1
SUP
 73
     1
 44
1.0
1001
ACAD
1000
MTEXTBEGIN
1070
    73
1070
     1
1070
    44
1040
1.0
1070
    74
1070
     0
1000
MTEXTEND
  0
LWPOLYLINE
  5
4FD
330
1F
100
AcDbEntity
  8
Title Block
100
AcDbPolyline
 90
        4
 70
     1
 43
0.01
 10
0.25
 20
8.250000000000001
 10
0.25
 20
0.25
 10
10.75
 20
0.25
 10
10.75
 20
8.25
  0
LINE
  5
4FE
330
1F
100
AcDbEntity
  8
Title Block
100
AcDbLine
 10
10.75
 20
2.749999999999999
 30
0.0
 11
0.25
 21
2.75
 31
0.0
  0
LINE
  5
4FF
330
1F
100
AcDbEntity
  8
Title Block
100
AcDbLine
 10
6.75
 20
2.75
 30
0.0
 11
6.75
 21
0.25
 31
0.0
  0
LINE
  5
500
330
1F
100
AcDbEntity
  8
Title Block
100
AcDbLine
 10
10.75
 20
2.499999999999999
 30
0.0
 11
0.25
 21
2.5
 31
0.0
  0
LINE
  5
501
330
1F
100
AcDbEntity
  8
Title Block
100
AcDbLine
 10
6.75
 20
2.25
 30
0.0
 11
0.25
 21
2.25
 31
0.0
  0
LINE
  5
502
330
1F
100
AcDbEntity
  8
Title Block
100
AcDbLine
 10
10.75
 20
1.999999999999999
 30
0.0
 11
0.25
 21
2.0
 31
0.0
  0
LINE
  5
503
330
1F
100
AcDbEntity
  8
Title Block
100
AcDbLine
 10
6.75
 20
1.75
 30
0.0
 11
0.25
 21
1.75
 31
0.0
  0
LINE
  5
504
330
1F
100
AcDbEntity
  8
Title Block
100
AcDbLine
 10
10.75
 20
1.499999999999999
 30
0.0
 11
0.25
 21
1.5
 31
0.0
  0
LINE
  5
505
330
1F
100
AcDbEntity
  8
Title Block
100
AcDbLine
 10
6.75
 20
1.25
 30
0.0
 11
0.25
 21
1.25
 31
0.0
  0
LINE
  5
506
330
1F
100
AcDbEntity
  8
Title Block
100
AcDbLine
 10
10.75
 20
0.9999999999999996
 30
0.0
 11
0.25
 21
1.0
 31
0.0
  0
LINE
  5
507
330
1F
100
AcDbEntity
  8
Title Block
100
AcDbLine
 10
7.5
 20
0.75
 30
0.0
 11
0.25
 21
0.7500000000000009
 31
0.0
  0
LINE
  5
508
330
1F
100
AcDbEntity
  8
Title Block
100
AcDbLine
 10
7.5
 20
0.5
 30
0.0
 11
0.25
 21
0.5000000000000009
 31
0.0
  0
LINE
  5
509
330
1F
100
AcDbEntity
  8
Title Block
100
AcDbLine
 10
0.25
 20
0.25
 30
0.0
 11
0.25
 21
2.75
 31
0.0
  0
LINE
  5
50A
330
1F
100
AcDbEntity
  8
Title Block
100
AcDbLine
 10
0.5
 20
0.25
 30
0.0
 11
0.5
 21
2.750000000000001
 31
0.0
  0
LINE
  5
50B
330
1F
100
AcDbEntity
  8
Title Block
100
AcDbLine
 10
1.0
 20
0.25
 30
0.0
 11
1.0
 21
2.750000000000001
 31
0.0
  0
LINE
  5
50C
330
1F
100
AcDbEntity
  8
Title Block
100
AcDbLine
 10
1.375
 20
0.25
 30
0.0
 11
1.375
 21
2.750000000000001
 31
0.0
  0
LINE
  5
50D
330
1F
100
AcDbEntity
  8
Title Block
100
AcDbLine
 10
1.75
 20
0.25
 30
0.0
 11
1.75
 21
2.750000000000001
 31
0.0
  0
LINE
  5
50E
330
1F
100
AcDbEntity
  8
Title Block
100
AcDbLine
 10
6.375
 20
2.75
 30
0.0
 11
6.375
 21
0.25
 31
0.0
  0
LINE
  5
50F
330
1F
100
AcDbEntity
  8
Title Block
100
AcDbLine
 10
6.0
 20
2.75
 30
0.0
 11
6.0
 21
0.25
 31
0.0
  0
LINE
  5
510
330
1F
100
AcDbEntity
  8
Title Block
100
AcDbLine
 10
5.625
 20
2.75
 30
0.0
 11
5.625
 21
0.25
 31
0.0
  0
LINE
  5
511
330
1F
100
AcDbEntity
  8
Title Block
100
AcDbLine
 10
5.25
 20
2.75
 30
0.0
 11
5.25
 21
0.5000000000000002
 31
0.0
  0
LINE
  5
512
330
1F
100
AcDbEntity
  8
Title Block
100
AcDbLine
 10
4.5
 20
2.75
 30
0.0
 11
4.5
 21
0.25
 31
0.0
  0
LINE
  5
513
330
1F
100
AcDbEntity
  8
Title Block
100
AcDbLine
 10
9.25
 20
0.75
 30
0.0
 11
9.25
 21
1.499999999999999
 31
0.0
  0
LINE
  5
514
330
1F
100
AcDbEntity
  8
Title Block
100
AcDbLine
 10
9.25
 20
0.75
 30
0.0
 11
9.25
 21
0.25
 31
0.0
  0
LINE
  5
515
330
1F
100
AcDbEntity
  8
Title Block
100
AcDbLine
 10
9.25
 20
0.75
 30
0.0
 11
10.75
 21
0.75
 31
0.0
  0
LINE
  5
516
330
1F
100
AcDbEntity
  8
Title Block
100
AcDbLine
 10
7.5
 20
0.5
 30
0.0
 11
7.5
 21
0.25
 31
0.0
  0
LINE
  5
517
330
1F
100
AcDbEntity
  8
Title Block
100
AcDbLine
 10
7.5
 20
0.5
 30
0.0
 11
7.5
 21
1.0
 31
0.0
  0
LINE
  5
518
330
1F
100
AcDbEntity
  8
Title Block
100
AcDbLine
 10
10.25
 20
0.75
 30
0.0
 11
10.25
 21
0.25
 31
0.0
  0
POINT
  5
519
330
1F
100
AcDbEntity
  8
Title Block
100
AcDbPoint
 10
11.0
 20
8.5
 30
0.0
  0
POINT
  5
51A
330
1F
100
AcDbEntity
  8
Title Block
100
AcDbPoint
 10
11.0
 20
0.0
 30
0.0
  0
POINT
  5
51B
330
1F
100
AcDbEntity
  8
Title Block
100
AcDbPoint
 10
0.0
 20
0.0
 30
0.0
  0
POINT
  5
51C
330
1F
100
AcDbEntity
  8
Title Block
100
AcDbPoint
 10
0.0
 20
8.500000000000001
 30
0.0
  0
MTEXT
  5
51D
330
1F
100
AcDbEntity
  8
Text
100
AcDbMText
 10
0.375
 20
0.6250000000000009
 30
0.0
 40
0.09
 41
0.25
 71
     5
 72
     5
  1
R
 73
     1
 44
1.0
1001
ACAD
1000
MTEXTBEGIN
1070
    73
1070
     1
1070
    44
1040
1.0
1070
    74
1070
     0
1000
MTEXTEND
  0
MTEXT
  5
51E
330
1F
100
AcDbEntity
  8
Text
100
AcDbMText
 10
0.75
 20
0.6250000000000009
 30
0.0
 40
0.07
 41
0.5
 71
     5
 72
     5
  1
12-28-05
 73
     1
 44
1.0
1001
ACAD
1000
MTEXTBEGIN
1070
    73
1070
     1
1070
    44
1040
1.0
1070
    74
1070
     0
1000
MTEXTEND
  0
MTEXT
  5
51F
330
1F
100
AcDbEntity
  8
Text
100
AcDbMText
 10
1.1875
 20
0.6250000000000009
 30
0.0
 40
0.09
 41
0.375
 71
     5
 72
     5
  1
MSO
 73
     1
 44
1.0
1001
ACAD
1000
MTEXTBEGIN
1070
    73
1070
     1
1070
    44
1040
1.0
1070
    74
1070
     0
1000
MTEXTEND
  0
MTEXT
  5
520
330
1F
100
AcDbEntity
  8
Text
100
AcDbMText
 10
1.5625
 20
0.6250000000000009
 30
0.0
 40
0.07
 41
0.375
 71
     5
 72
     5
  1
DJWA
 73
     1
 44
1.0
1001
ACAD
1000
MTEXTBEGIN
1070
    73
1070
     1
1070
    44
1040
1.0
1070
    74
1070
     0
1000
MTEXTEND
  0
MTEXT
  5
521
330
1F
100
AcDbEntity
  8
Text
100
AcDbMText
 10
3.125
 20
0.6250000000000005
 30
0.0
 40
0.09
 41
2.75
 71
     5
 72
     5
  1
DRAWING RELEASED
 73
     1
 44
1.0
1001
ACAD
1000
MTEXTBEGIN
1070
    73
1070
     1
1070
    44
1040
1.0
1070
    74
1070
     0
1000
MTEXTEND
  0
MTEXT
  5
522
330
1F
100
AcDbEntity
  8
Text
100
AcDbMText
 10
7.474999999999999
 20
0.85
 30
0.0
 40
0.09
 41
0.75
 71
     6
 72
     5
  1
MSO
 73
     1
 44
1.0
1001
ACAD
1000
MTEXTBEGIN
1070
    73
1070
     1
1070
    44
1040
1.0
1070
    74
1070
     0
1000
MTEXTEND
  0
MTEXT
  5
523
330
1F
100
AcDbEntity
  8
Text
100
AcDbMText
 10
7.474999999999999
 20
0.5999999999999999
 30
0.0
 40
0.09
 41
0.75
 71
     6
 72
     5
  1
12-28-05
 73
     1
 44
1.0
1001
ACAD
1000
MTEXTBEGIN
1070
    73
1070
     1
1070
    44
1040
1.0
1070
    74
1070
     0
1000
MTEXTEND
  0
MTEXT
  5
524
330
1F
100
AcDbEntity
  8
Text
100
AcDbMText
 10
7.474999999999999
 20
0.3500000000000001
 30
0.0
 40
0.09
 41
0.75
 71
     6
 72
     5
  1
DJWA
 73
     1
 44
1.0
1001
ACAD
1000
MTEXTBEGIN
1070
    73
1070
     1
1070
    44
1040
1.0
1070
    74
1070
     0
1000
MTEXTEND
  0
MTEXT
  5
525
330
1F
100
AcDbEntity
  8
Text
100
AcDbMText
 10
8.75
 20
2.625
 30
0.0
 40
0.09
 41
4.0
 71
     5
 72
     5
  1
FEIAB58.dwg
 73
     1
 44
1.0
1001
ACAD
1000
MTEXTBEGIN
1070
    73
1070
     1
1070
    44
1040
1.0
1070
    74
1070
     0
1000
MTEXTEND
  0
MTEXT
  5
526
330
1F
100
AcDbEntity
  8
Text
100
AcDbMText
 10
8.75
 20
1.75
 30
0.0
 40
0.09
 41
4.0
 71
     5
 72
     5
  1
FIBER ROUTING EIA/TIA THREADED ROD MOUNTING\PBRACKET - {\H0.7x;\S5#8;}" THREADED ROD (FEIAB58)\PMARKETING DRAWING
 73
     1
 44
1.0
1001
ACAD
1000
MTEXTBEGIN
1070
    73
1070
     1
1070
    44
1040
1.0
1070
    74
1070
     1
1000
MTEXTEND
  0
MTEXT
  5
527
330
1F
100
AcDbEntity
  8
Text
100
AcDbMText
 10
10.0
 20
0.8749999999999998
 30
0.0
 40
0.12
 41
1.5
 71
     5
 72
     5
  1
FULL
 73
     1
 44
1.0
1001
ACAD
1000
MTEXTBEGIN
1070
    73
1070
     1
1070
    44
1040
1.0
1070
    74
1070
     0
1000
MTEXTEND
  0
MTEXT
  5
528
330
1F
100
AcDbEntity
  8
Text
100
AcDbMText
 10
9.75
 20
0.5
 30
0.0
 40
0.12
 41
1.0
 71
     5
 72
     5
  1
36897-1100
 73
     1
 44
1.0
1001
ACAD
1000
MTEXTBEGIN
1070
    73
1070
     1
1070
    44
1040
1.0
1070
    74
1070
     0
1000
MTEXTEND
  0
MTEXT
  5
534
102
{ACAD_XDICTIONARY
360
640
102
}
330
1F
100
AcDbEntity
  8
Text
100
AcDbMText
 10
7.011523917294081
 20
8.072759765504947
 30
0.0
 40
0.09
 41
4.178027144776841
 71
     1
 72
     5
  3
\A1;{\LNOTES:\P\P}1.  THE FIBER ROUTING EIA/TIA THREADED ROD MOUNTING\P   BRACKET - {\H0.75x;\S5#8;}" THREADED ROD INCLUDES:\P\P   TWO (2) BRACKET CLIPS,\P   TWO (2) {\H0.75x;\S5#8;}" HELICAL SPRING LOCKWASHERS,\P   TWO (2) {\H0.75x;\S5#8;}-11 HEAVY 
  1
HEX NUTS.
 73
     1
 44
1.0
1001
ACAD
1000
MTEXTBEGIN
1070
    73
1070
     1
1070
    44
1040
1.0
1070
    74
1070
     1
1000
MTEXTEND
  0
LEADER
  5
625
102
{ACAD_XDICTIONARY
360
627
102
}
102
{ACAD_REACTORS
330
628
102
}
330
1F
100
AcDbEntity
  8
Dimension
100
AcDbLeader
  3
Standard
 73
     0
 40
0.1260526315789474
 41
1.050921052631578
 76
     3
 10
3.228370919781726
 20
7.187384793542725
 30
0.0
 10
3.955531298446036
 20
7.907482826840801
 30
0.0
 10
4.129546299200672
 20
7.907482826840801
 30
0.0
340
626
213
0.0
223
-0.045
233
0.0
1001
ACAD
1000
DSTYLE
1002
{
1070
   147
1040
0.09
1070
    77
1070
     0
1002
}
  0
MTEXT
  5
626
102
{ACAD_REACTORS
330
625
102
}
330
1F
100
AcDbEntity
  8
Dimension
100
AcDbMText
 10
4.219546299200672
 20
7.952482826840801
 30
0.0
 40
0.09
 41
0.0
 71
     1
 72
     1
  1
\A1;0.69 [17.5mm] DIA
 73
     1
 44
1.0
1001
ACAD
1000
MTEXTBEGIN
1070
    73
1070
     1
1070
    44
1040
1.0
1070
    74
1070
     0
1000
MTEXTEND
  0
ENDSEC
  0
SECTION
  2
OBJECTS
  0
DICTIONARY
  5
C
330
0
100
AcDbDictionary
281
     1
  3
ACAD_COLOR
350
73
  3
ACAD_GROUP
350
D
  3
ACAD_LAYOUT
350
1A
  3
ACAD_MATERIAL
350
72
  3
ACAD_MLINESTYLE
350
17
  3
ACAD_PLOTSETTINGS
350
19
  3
ACAD_PLOTSTYLENAME
350
E
  3
ACAD_TABLESTYLE
350
86
  3
ACDBHEADERROUNDTRIPXREC
350
639
  3
AcDbVariableDictionary
350
66
  0
DICTIONARY
  5
529
330
1F
100
AcDbDictionary
280
     1
281
     1
  3
ACAD_SORTENTS
360
52A
  0
DICTIONARY
  5
4A0
330
491
100
AcDbDictionary
280
     1
281
     1
  3
ACAD_DIMASSOC
360
4AB
  0
DICTIONARY
  5
4BA
330
4AC
100
AcDbDictionary
280
     1
281
     1
  3
ACAD_DIMASSOC
360
4C5
  0
DICTIONARY
  5
4D4
330
4C6
100
AcDbDictionary
280
     1
281
     1
  3
ACAD_DIMASSOC
360
4DF
  0
DICTIONARY
  5
640
330
534
100
AcDbDictionary
280
     1
281
     1
  3
ACAD_MTEXT_RT
360
641
  0
DICTIONARY
  5
627
330
625
100
AcDbDictionary
280
     1
281
     1
  3
ACAD_DIMASSOC
360
628
  0
DICTIONARY
  5
73
102
{ACAD_REACTORS
330
C
102
}
330
C
100
AcDbDictionary
281
     1
  0
DICTIONARY
  5
D
102
{ACAD_REACTORS
330
C
102
}
330
C
100
AcDbDictionary
281
     1
  0
DICTIONARY
  5
1A
102
{ACAD_REACTORS
330
C
102
}
330
C
100
AcDbDictionary
281
     1
  3
Layout1
350
59
  3
Layout2
350
5E
  3
Model
350
22
  0
DICTIONARY
  5
72
102
{ACAD_REACTORS
330
C
102
}
330
C
100
AcDbDictionary
281
     1
  0
DICTIONARY
  5
17
102
{ACAD_REACTORS
330
C
102
}
330
C
100
AcDbDictionary
281
     1
  3
Standard
350
18
  0
DICTIONARY
  5
19
102
{ACAD_REACTORS
330
C
102
}
330
C
100
AcDbDictionary
281
     1
  0
ACDBDICTIONARYWDFLT
  5
E
102
{ACAD_REACTORS
330
C
102
}
330
C
100
AcDbDictionary
281
     1
  3
Normal
350
F
100
AcDbDictionaryWithDefault
340
F
  0
DICTIONARY
  5
86
102
{ACAD_REACTORS
330
C
102
}
330
C
100
AcDbDictionary
281
     1
  3
Standard
350
87
  0
DICTIONARY
  5
639
102
{ACAD_REACTORS
330
C
102
}
330
C
100
AcDbDictionary
281
     1
  0
DICTIONARY
  5
66
102
{ACAD_REACTORS
330
C
102
}
330
C
100
AcDbDictionary
281
     1
  3
CTABLESTYLE
350
52C
  3
DIMASSOC
350
67
  3
HIDETEXT
350
6B
  3
PROJECTNAME
350
637
  0
SORTENTSTABLE
  5
52A
102
{ACAD_REACTORS
330
529
102
}
330
529
100
AcDbSortentsTable
330
1F
331
45C
  5
45C
331
4E2
  5
4E2
331
519
  5
519
331
3E6
  5
3E6
331
41D
  5
41D
331
3A7
  5
3A7
331
4EA
  5
4EA
331
464
  5
464
331
521
  5
521
331
3EE
  5
3EE
331
3AF
  5
3AF
331
425
  5
425
331
4F2
  5
4F2
331
46C
  5
46C
331
3F6
  5
3F6
331
3B7
  5
3B7
331
42D
  5
42D
331
368
  5
368
331
2F2
  5
2F2
331
27C
  5
27C
331
2B3
  5
2B3
331
206
  5
206
331
474
  5
474
331
4FA
  5
4FA
331
3FE
  5
3FE
331
435
  5
435
331
3BF
  5
3BF
331
1C7
  5
1C7
331
23D
  5
23D
331
329
  5
329
331
370
  5
370
331
2FA
  5
2FA
331
284
  5
284
331
2BB
  5
2BB
331
20E
  5
20E
331
1CF
  5
1CF
331
245
  5
245
331
331
  5
331
331
378
  5
378
331
302
  5
302
331
339
  5
339
331
28C
  5
28C
331
216
  5
216
331
1D7
  5
1D7
331
24D
  5
24D
331
2C3
  5
2C3
331
380
  5
380
331
30A
  5
30A
331
294
  5
294
331
21E
  5
21E
331
255
  5
255
331
1DF
  5
1DF
331
2CB
  5
2CB
331
341
  5
341
331
502
  5
502
331
47C
  5
47C
331
406
  5
406
331
43D
  5
43D
331
3C7
  5
3C7
331
50A
  5
50A
331
484
  5
484
331
40E
  5
40E
331
3CF
  5
3CF
331
445
  5
445
331
512
  5
512
331
48C
  5
48C
331
416
  5
416
331
44D
  5
44D
331
3D7
  5
3D7
331
388
  5
388
331
312
  5
312
331
29C
  5
29C
331
2D3
  5
2D3
331
226
  5
226
331
455
  5
455
331
3DF
  5
3DF
331
1E7
  5
1E7
331
25D
  5
25D
331
349
  5
349
331
390
  5
390
331
31A
  5
31A
331
351
  5
351
331
2A4
  5
2A4
331
2DB
  5
2DB
331
22E
  5
22E
331
1B8
  5
1B8
331
1EF
  5
1EF
331
265
  5
265
331
398
  5
398
331
322
  5
322
331
359
  5
359
331
2AC
  5
2AC
331
236
  5
236
331
26D
  5
26D
331
1F7
  5
1F7
331
2E3
  5
2E3
331
361
  5
361
331
2EB
  5
2EB
331
275
  5
275
331
1FF
  5
1FF
331
3A0
  5
3A0
331
45D
  5
45D
331
4E3
  5
4E3
331
3E7
  5
3E7
331
3A8
  5
3A8
331
41E
  5
41E
331
51A
  5
51A
331
4EB
  5
4EB
331
465
  5
465
331
3EF
  5
3EF
331
426
  5
426
331
3B0
  5
3B0
331
522
  5
522
331
46D
  5
46D
331
4F3
  5
4F3
331
3F7
  5
3F7
331
42E
  5
42E
331
3B8
  5
3B8
331
1C0
  5
1C0
331
369
  5
369
331
2F3
  5
2F3
331
32A
  5
32A
331
27D
  5
27D
331
207
  5
207
331
23E
  5
23E
331
4FB
  5
4FB
331
475
  5
475
331
4AC
  5
4AC
331
3FF
  5
3FF
331
436
  5
436
331
1C8
  5
1C8
331
2B4
  5
2B4
331
371
  5
371
331
2FB
  5
2FB
331
285
  5
285
331
20F
  5
20F
331
246
  5
246
331
1D0
  5
1D0
331
2BC
  5
2BC
331
332
  5
332
331
379
  5
379
331
303
  5
303
331
28D
  5
28D
331
2C4
  5
2C4
331
217
  5
217
331
1D8
  5
1D8
331
24E
  5
24E
331
33A
  5
33A
331
381
  5
381
331
30B
  5
30B
331
295
  5
295
331
2CC
  5
2CC
331
21F
  5
21F
331
256
  5
256
331
342
  5
342
331
3C0
  5
3C0
331
503
  5
503
331
47D
  5
47D
331
407
  5
407
331
43E
  5
43E
331
3C8
  5
3C8
331
485
  5
485
331
50B
  5
50B
331
40F
  5
40F
331
446
  5
446
331
3D0
  5
3D0
331
513
  5
513
331
48D
  5
48D
331
3D8
  5
3D8
331
417
  5
417
331
44E
  5
44E
331
1E0
  5
1E0
331
389
  5
389
331
313
  5
313
331
34A
  5
34A
331
29D
  5
29D
331
227
  5
227
331
25E
  5
25E
331
456
  5
456
331
1E8
  5
1E8
331
2D4
  5
2D4
331
391
  5
391
331
31B
  5
31B
331
2A5
  5
2A5
331
22F
  5
22F
331
266
  5
266
331
1B9
  5
1B9
331
1F0
  5
1F0
331
2DC
  5
2DC
331
352
  5
352
331
399
  5
399
331
323
  5
323
331
2AD
  5
2AD
331
2E4
  5
2E4
331
1F8
  5
1F8
331
237
  5
237
331
26E
  5
26E
331
35A
  5
35A
331
362
  5
362
331
2EC
  5
2EC
331
276
  5
276
331
3E0
  5
3E0
331
3A1
  5
3A1
331
45E
  5
45E
331
4E4
  5
4E4
331
51B
  5
51B
331
3E8
  5
3E8
331
3A9
  5
3A9
331
41F
  5
41F
331
4EC
  5
4EC
331
466
  5
466
331
523
  5
523
331
3F0
  5
3F0
331
3B1
  5
3B1
331
427
  5
427
331
200
  5
200
331
4F4
  5
4F4
331
46E
  5
46E
331
42F
  5
42F
331
1C1
  5
1C1
331
3B9
  5
3B9
331
3F8
  5
3F8
331
36A
  5
36A
331
2F4
  5
2F4
331
27E
  5
27E
331
2B5
  5
2B5
331
208
  5
208
331
1C9
  5
1C9
331
23F
  5
23F
331
32B
  5
32B
331
4FC
  5
4FC
331
437
  5
437
331
476
  5
476
331
372
  5
372
331
2FC
  5
2FC
331
333
  5
333
331
286
  5
286
331
2BD
  5
2BD
331
210
  5
210
331
1D1
  5
1D1
331
247
  5
247
331
37A
  5
37A
331
304
  5
304
331
33B
  5
33B
331
28E
  5
28E
331
218
  5
218
331
24F
  5
24F
331
1D9
  5
1D9
331
2C5
  5
2C5
331
30C
  5
30C
331
296
  5
296
331
257
  5
257
331
2CD
  5
2CD
331
343
  5
343
331
382
  5
382
331
400
  5
400
331
3C1
  5
3C1
331
504
  5
504
331
47E
  5
47E
331
408
  5
408
331
43F
  5
43F
331
3C9
  5
3C9
331
50C
  5
50C
331
486
  5
486
331
410
  5
410
331
3D1
  5
3D1
331
447
  5
447
331
220
  5
220
331
1E1
  5
1E1
331
514
  5
514
331
48E
  5
48E
331
3D9
  5
3D9
331
44F
  5
44F
331
314
  5
314
331
29E
  5
29E
331
2D5
  5
2D5
331
228
  5
228
331
1E9
  5
1E9
331
25F
  5
25F
331
34B
  5
34B
331
457
  5
457
331
38A
  5
38A
331
31C
  5
31C
331
353
  5
353
331
2A6
  5
2A6
331
2DD
  5
2DD
331
230
  5
230
331
1BA
  5
1BA
331
1F1
  5
1F1
331
267
  5
267
331
392
  5
392
331
324
  5
324
331
35B
  5
35B
331
2AE
  5
2AE
331
1F9
  5
1F9
331
26F
  5
26F
331
2E5
  5
2E5
331
39A
  5
39A
331
2ED
  5
2ED
331
277
  5
277
331
363
  5
363
331
3E1
  5
3E1
331
3A2
  5
3A2
331
418
  5
418
331
45F
  5
45F
331
4E5
  5
4E5
331
3E9
  5
3E9
331
3AA
  5
3AA
331
420
  5
420
331
51C
  5
51C
331
4ED
  5
4ED
331
467
  5
467
331
3F1
  5
3F1
331
428
  5
428
331
3B2
  5
3B2
331
524
  5
524
331
201
  5
201
331
1C2
  5
1C2
331
238
  5
238
331
4F5
  5
4F5
331
46F
  5
46F
331
3F9
  5
3F9
331
3BA
  5
3BA
331
430
  5
430
331
2F5
  5
2F5
331
32C
  5
32C
331
27F
  5
27F
331
209
  5
209
331
240
  5
240
331
1CA
  5
1CA
331
2B6
  5
2B6
331
4FD
  5
4FD
331
477
  5
477
331
36B
  5
36B
331
2FD
  5
2FD
331
287
  5
287
331
2BE
  5
2BE
331
211
  5
211
331
248
  5
248
331
1D2
  5
1D2
331
334
  5
334
331
373
  5
373
331
305
  5
305
331
28F
  5
28F
331
2C6
  5
2C6
331
219
  5
219
331
1DA
  5
1DA
331
250
  5
250
331
33C
  5
33C
331
37B
  5
37B
331
30D
  5
30D
331
344
  5
344
331
297
  5
297
331
2CE
  5
2CE
331
383
  5
383
331
401
  5
401
331
3C2
  5
3C2
331
438
  5
438
331
505
  5
505
331
47F
  5
47F
331
409
  5
409
331
440
  5
440
331
3CA
  5
3CA
331
50D
  5
50D
331
487
  5
487
331
411
  5
411
331
448
  5
448
331
3D2
  5
3D2
331
4C6
  5
4C6
331
221
  5
221
331
258
  5
258
331
1E2
  5
1E2
331
515
  5
515
331
450
  5
450
331
3DA
  5
3DA
331
48F
  5
48F
331
315
  5
315
331
34C
  5
34C
331
29F
  5
29F
331
229
  5
229
331
260
  5
260
331
1EA
  5
1EA
331
2D6
  5
2D6
331
38B
  5
38B
331
31D
  5
31D
331
2A7
  5
2A7
331
2DE
  5
2DE
331
231
  5
231
331
268
  5
268
331
1BB
  5
1BB
331
1F2
  5
1F2
331
354
  5
354
331
393
  5
393
331
325
  5
325
331
1FA
  5
1FA
331
270
  5
270
331
2AF
  5
2AF
331
2E6
  5
2E6
331
35C
  5
35C
331
39B
  5
39B
331
2EE
  5
2EE
331
364
  5
364
331
458
  5
458
331
3E2
  5
3E2
331
419
  5
419
331
3A3
  5
3A3
331
460
  5
460
331
4E6
  5
4E6
331
51D
  5
51D
331
3EA
  5
3EA
331
3AB
  5
3AB
331
421
  5
421
331
4EE
  5
4EE
331
468
  5
468
331
525
  5
525
331
3F2
  5
3F2
331
3B3
  5
3B3
331
429
  5
429
331
278
  5
278
331
202
  5
202
331
239
  5
239
331
1C3
  5
1C3
331
470
  5
470
331
4F6
  5
4F6
331
3FA
  5
3FA
331
3BB
  5
3BB
331
431
  5
431
331
2F6
  5
2F6
331
280
  5
280
331
2B7
  5
2B7
331
20A
  5
20A
331
1CB
  5
1CB
331
241
  5
241
331
32D
  5
32D
331
4FE
  5
4FE
331
36C
  5
36C
331
2FE
  5
2FE
331
335
  5
335
331
288
  5
288
331
2BF
  5
2BF
331
212
  5
212
331
1D3
  5
1D3
331
249
  5
249
331
374
  5
374
331
306
  5
306
331
33D
  5
33D
331
290
  5
290
331
21A
  5
21A
331
251
  5
251
331
1DB
  5
1DB
331
2C7
  5
2C7
331
37C
  5
37C
331
30E
  5
30E
331
2CF
  5
2CF
331
345
  5
345
331
384
  5
384
331
478
  5
478
331
402
  5
402
331
439
  5
439
331
3C3
  5
3C3
331
506
  5
506
331
480
  5
480
331
40A
  5
40A
331
3CB
  5
3CB
331
441
  5
441
331
50E
  5
50E
331
488
  5
488
331
412
  5
412
331
3D3
  5
3D3
331
449
  5
449
331
298
  5
298
331
222
  5
222
331
259
  5
259
331
1E3
  5
1E3
331
451
  5
451
331
3DB
  5
3DB
331
516
  5
516
331
316
  5
316
331
34D
  5
34D
331
2A0
  5
2A0
331
2D7
  5
2D7
331
22A
  5
22A
331
1EB
  5
1EB
331
261
  5
261
331
38C
  5
38C
331
31E
  5
31E
331
355
  5
355
331
2A8
  5
2A8
331
2DF
  5
2DF
331
232
  5
232
331
269
  5
269
331
1BC
  5
1BC
331
1F3
  5
1F3
331
394
  5
394
331
326
  5
326
331
35D
  5
35D
331
271
  5
271
331
1FB
  5
1FB
331
2E7
  5
2E7
331
39C
  5
39C
331
2EF
  5
2EF
331
365
  5
365
331
459
  5
459
331
490
  5
490
331
3E3
  5
3E3
331
3A4
  5
3A4
331
41A
  5
41A
331
461
  5
461
331
4E7
  5
4E7
331
3EB
  5
3EB
331
422
  5
422
331
3AC
  5
3AC
331
51E
  5
51E
331
4EF
  5
4EF
331
469
  5
469
331
3F3
  5
3F3
331
42A
  5
42A
331
3B4
  5
3B4
331
526
  5
526
331
279
  5
279
331
203
  5
203
331
1C4
  5
1C4
331
23A
  5
23A
331
2B0
  5
2B0
331
471
  5
471
331
4F7
  5
4F7
331
3FB
  5
3FB
331
3BC
  5
3BC
331
432
  5
432
331
2F7
  5
2F7
331
32E
  5
32E
331
281
  5
281
331
20B
  5
20B
331
242
  5
242
331
1CC
  5
1CC
331
2B8
  5
2B8
331
4FF
  5
4FF
331
36D
  5
36D
331
2FF
  5
2FF
331
289
  5
289
331
2C0
  5
2C0
331
213
  5
213
331
24A
  5
24A
331
1D4
  5
1D4
331
336
  5
336
331
375
  5
375
331
307
  5
307
331
291
  5
291
331
2C8
  5
2C8
331
21B
  5
21B
331
1DC
  5
1DC
331
252
  5
252
331
33E
  5
33E
331
37D
  5
37D
331
30F
  5
30F
331
346
  5
346
331
385
  5
385
331
479
  5
479
331
403
  5
403
331
3C4
  5
3C4
331
43A
  5
43A
331
481
  5
481
331
507
  5
507
331
40B
  5
40B
331
442
  5
442
331
3CC
  5
3CC
331
50F
  5
50F
331
489
  5
489
331
413
  5
413
331
44A
  5
44A
331
3D4
  5
3D4
331
299
  5
299
331
2D0
  5
2D0
331
223
  5
223
331
25A
  5
25A
331
1E4
  5
1E4
331
3DC
  5
3DC
331
452
  5
452
331
517
  5
517
331
317
  5
317
331
34E
  5
34E
331
2A1
  5
2A1
331
22B
  5
22B
331
262
  5
262
331
1EC
  5
1EC
331
2D8
  5
2D8
331
38D
  5
38D
331
31F
  5
31F
331
2A9
  5
2A9
331
2E0
  5
2E0
331
233
  5
233
331
26A
  5
26A
331
1BD
  5
1BD
331
1F4
  5
1F4
331
356
  5
356
331
395
  5
395
331
2E8
  5
2E8
331
272
  5
272
331
1FC
  5
1FC
331
327
  5
327
331
35E
  5
35E
331
39D
  5
39D
331
366
  5
366
331
45A
  5
45A
331
491
  5
491
331
3E4
  5
3E4
331
41B
  5
41B
331
3A5
  5
3A5
331
4E8
  5
4E8
331
462
  5
462
331
51F
  5
51F
331
3EC
  5
3EC
331
3AD
  5
3AD
331
423
  5
423
331
4F0
  5
4F0
331
46A
  5
46A
331
527
  5
527
331
3F4
  5
3F4
331
3B5
  5
3B5
331
42B
  5
42B
331
2F0
  5
2F0
331
27A
  5
27A
331
2B1
  5
2B1
331
204
  5
204
331
1C5
  5
1C5
331
23B
  5
23B
331
472
  5
472
331
4F8
  5
4F8
331
3FC
  5
3FC
331
433
  5
433
331
3BD
  5
3BD
331
2F8
  5
2F8
331
282
  5
282
331
2B9
  5
2B9
331
20C
  5
20C
331
1CD
  5
1CD
331
243
  5
243
331
32F
  5
32F
331
36E
  5
36E
331
300
  5
300
331
337
  5
337
331
28A
  5
28A
331
214
  5
214
331
1D5
  5
1D5
331
24B
  5
24B
331
2C1
  5
2C1
331
376
  5
376
331
33F
  5
33F
331
37E
  5
37E
331
2C9
  5
2C9
331
308
  5
308
331
253
  5
253
331
1DD
  5
1DD
331
21C
  5
21C
331
292
  5
292
331
347
  5
347
331
386
  5
386
331
500
  5
500
331
47A
  5
47A
331
404
  5
404
331
43B
  5
43B
331
3C5
  5
3C5
331
508
  5
508
331
482
  5
482
331
40C
  5
40C
331
3CD
  5
3CD
331
443
  5
443
331
510
  5
510
331
48A
  5
48A
331
414
  5
414
331
3D5
  5
3D5
331
44B
  5
44B
331
310
  5
310
331
29A
  5
29A
331
2D1
  5
2D1
331
224
  5
224
331
25B
  5
25B
331
453
  5
453
331
3DD
  5
3DD
331
1E5
  5
1E5
331
38E
  5
38E
331
318
  5
318
331
34F
  5
34F
331
2A2
  5
2A2
331
2D9
  5
2D9
331
22C
  5
22C
331
1B6
  5
1B6
331
1ED
  5
1ED
331
263
  5
263
331
396
  5
396
331
320
  5
320
331
357
  5
357
331
2AA
  5
2AA
331
2E1
  5
2E1
331
234
  5
234
331
26B
  5
26B
331
1BE
  5
1BE
331
1F5
  5
1F5
331
39E
  5
39E
331
2E9
  5
2E9
331
273
  5
273
331
1FD
  5
1FD
331
35F
  5
35F
331
367
  5
367
331
45B
  5
45B
331
4E1
  5
4E1
331
3E5
  5
3E5
331
3A6
  5
3A6
331
41C
  5
41C
331
518
  5
518
331
4E9
  5
4E9
331
463
  5
463
331
3ED
  5
3ED
331
424
  5
424
331
3AE
  5
3AE
331
520
  5
520
331
4F1
  5
4F1
331
46B
  5
46B
331
528
  5
528
331
3F5
  5
3F5
331
42C
  5
42C
331
3B6
  5
3B6
331
2F1
  5
2F1
331
328
  5
328
331
27B
  5
27B
331
205
  5
205
331
4F9
  5
4F9
331
473
  5
473
331
3FD
  5
3FD
331
3BE
  5
3BE
331
434
  5
434
331
1C6
  5
1C6
331
23C
  5
23C
331
2B2
  5
2B2
331
36F
  5
36F
331
2F9
  5
2F9
331
283
  5
283
331
20D
  5
20D
331
244
  5
244
331
1CE
  5
1CE
331
2BA
  5
2BA
331
330
  5
330
331
377
  5
377
331
301
  5
301
331
28B
  5
28B
331
2C2
  5
2C2
331
215
  5
215
331
1D6
  5
1D6
331
24C
  5
24C
331
338
  5
338
331
37F
  5
37F
331
309
  5
309
331
293
  5
293
331
2CA
  5
2CA
331
21D
  5
21D
331
1DE
  5
1DE
331
254
  5
254
331
340
  5
340
331
387
  5
387
331
501
  5
501
331
47B
  5
47B
331
405
  5
405
331
43C
  5
43C
331
3C6
  5
3C6
331
483
  5
483
331
509
  5
509
331
40D
  5
40D
331
444
  5
444
331
3CE
  5
3CE
331
511
  5
511
331
48B
  5
48B
331
415
  5
415
331
44C
  5
44C
331
3D6
  5
3D6
331
311
  5
311
331
348
  5
348
331
29B
  5
29B
331
225
  5
225
331
25C
  5
25C
331
3DE
  5
3DE
331
454
  5
454
331
1E6
  5
1E6
331
2D2
  5
2D2
331
38F
  5
38F
331
319
  5
319
331
350
  5
350
331
2A3
  5
2A3
331
22D
  5
22D
331
264
  5
264
331
1B7
  5
1B7
331
1EE
  5
1EE
331
2DA
  5
2DA
331
397
  5
397
331
321
  5
321
331
2AB
  5
2AB
331
2E2
  5
2E2
331
235
  5
235
331
26C
  5
26C
331
1BF
  5
1BF
331
1F6
  5
1F6
331
358
  5
358
331
360
  5
360
331
39F
  5
39F
331
2EA
  5
2EA
331
274
  5
274
331
1FE
  5
1FE
  0
DIMASSOC
  5
4AB
102
{ACAD_REACTORS
330
4A0
102
}
330
4A0
100
AcDbDimAssoc
330
491
 90
        3
 70
     0
 71
     0
  1
AcDbOsnapPointRef
 72
     1
331
438
 73
     2
 91
        0
 40
1.0
 10
0.0
 20
0.0
 30
2.000000000000000E+50
 75
     0
  1
AcDbOsnapPointRef
 72
    13
331
42B
 73
     2
 91
        0
 40
0.0
 10
0.0
 20
0.0
 30
2.000000000000000E+50
 75
     0
  0
DIMASSOC
  5
4C5
102
{ACAD_REACTORS
330
4BA
102
}
330
4BA
100
AcDbDimAssoc
330
4AC
 90
        3
 70
     0
 71
     0
  1
AcDbOsnapPointRef
 72
     1
331
25F
 73
     2
 91
        0
 40
1.0
 10
0.0
 20
0.0
 30
2.000000000000000E+50
 75
     0
  1
AcDbOsnapPointRef
 72
     1
331
245
 73
     2
 91
        0
 40
1.0
 10
0.0
 20
0.0
 30
2.000000000000000E+50
 75
     0
  0
DIMASSOC
  5
4DF
102
{ACAD_REACTORS
330
4D4
102
}
330
4D4
100
AcDbDimAssoc
330
4C6
 90
        3
 70
     0
 71
     0
  1
AcDbOsnapPointRef
 72
    13
331
221
 73
     2
 91
        0
 40
0.0
 10
0.0
 20
0.0
 30
2.000000000000000E+50
 75
     0
  1
AcDbOsnapPointRef
 72
    13
331
1DC
 73
     2
 91
        0
 40
0.0
 10
0.0
 20
0.0
 30
2.000000000000000E+50
 75
     0
  0
XRECORD
  5
641
102
{ACAD_REACTORS
330
640
102
}
330
640
100
AcDbXrecord
280
     1
 40
2222633.0
  1
\A1;{\LNOTES:\P\P\pi-0.18,l0.18;}1.  THE FIBER ROUTING EIA/TIA THREADED ROD MOUNTING BRACKET - {\H0.75x;\S5#8;}" THREADED ROD INCLUDES:\P\pi0,l0;\P\pi0.18;TWO (2) BRACKET CLIPS,\PTWO (2) {\H0.75x;\S5#8;}" HELICAL SPRING LOCKWASHERS,\PTWO (2) {\H0.75x
  1
;\S5#8;}-11 HEAVY HEX NUTS.
  0
DIMASSOC
  5
628
102
{ACAD_REACTORS
330
627
102
}
330
627
100
AcDbDimAssoc
330
625
 90
        1
 70
     0
 71
     0
  1
AcDbOsnapPointRef
 72
    13
331
3B9
 73
     2
 91
        0
 40
0.0
 10
0.0
 20
0.0
 30
2.000000000000000E+50
 75
     0
  0
LAYOUT
  5
59
102
{ACAD_XDICTIONARY
360
63C
102
}
102
{ACAD_REACTORS
330
1A
102
}
330
1A
100
AcDbPlotSettings
  1

  2
None
  4

  6

 40
0.0
 41
0.0
 42
0.0
 43
0.0
 44
0.0
 45
0.0
 46
0.0
 47
0.0
 48
0.0
 49
0.0
140
0.0
141
0.0
142
1.0
143
1.0
 70
   688
 72
     0
 73
     0
 74
     5
  7

 75
    16
147
1.0
148
0.0
149
0.0
100
AcDbLayout
  1
Layout1
 70
     1
 71
     1
 10
0.0
 20
0.0
 11
12.0
 21
9.0
 12
0.0
 22
0.0
 32
0.0
 14
0.0
 24
0.0
 34
0.0
 15
0.0
 25
0.0
 35
0.0
146
0.0
 13
0.0
 23
0.0
 33
0.0
 16
1.0
 26
0.0
 36
0.0
 17
0.0
 27
1.0
 37
0.0
 76
     0
330
58
  0
LAYOUT
  5
5E
102
{ACAD_XDICTIONARY
360
63E
102
}
102
{ACAD_REACTORS
330
1A
102
}
330
1A
100
AcDbPlotSettings
  1

  2
None
  4

  6

 40
0.0
 41
0.0
 42
0.0
 43
0.0
 44
0.0
 45
0.0
 46
0.0
 47
0.0
 48
0.0
 49
0.0
140
0.0
141
0.0
142
1.0
143
1.0
 70
   688
 72
     0
 73
     0
 74
     5
  7

 75
    16
147
1.0
148
0.0
149
0.0
100
AcDbLayout
  1
Layout2
 70
     1
 71
     2
 10
0.0
 20
0.0
 11
12.0
 21
9.0
 12
0.0
 22
0.0
 32
0.0
 14
0.0
 24
0.0
 34
0.0
 15
0.0
 25
0.0
 35
0.0
146
0.0
 13
0.0
 23
0.0
 33
0.0
 16
1.0
 26
0.0
 36
0.0
 17
0.0
 27
1.0
 37
0.0
 76
     0
330
5D
  0
LAYOUT
  5
22
102
{ACAD_XDICTIONARY
360
63A
102
}
102
{ACAD_REACTORS
330
1A
102
}
330
1A
100
AcDbPlotSettings
  1

  2
none_device
  4
ANSI_A_(8.50_x_11.00_Inches)
  6

 40
6.349999904632568
 41
19.04999923706055
 42
6.350006103515625
 43
19.04998779296875
 44
215.8999938964844
 45
279.3999938964844
 46
0.0
 47
0.0
 48
0.0
 49
0.0
140
0.0
141
0.0
142
1.0
143
2.584895464708373
 70
 11952
 72
     0
 73
     1
 74
     0
  7

 75
     0
147
0.3868628397755418
148
0.0
149
0.0
100
AcDbLayout
  1
Model
 70
     1
 71
     0
 10
0.0
 20
0.0
 11
12.0
 21
9.0
 12
0.0
 22
0.0
 32
0.0
 14
0.0
 24
0.0
 34
0.0
 15
0.0
 25
0.0
 35
0.0
146
0.0
 13
0.0
 23
0.0
 33
0.0
 16
1.0
 26
0.0
 36
0.0
 17
0.0
 27
1.0
 37
0.0
 76
     0
330
1F
  0
MLINESTYLE
  5
18
102
{ACAD_REACTORS
330
17
102
}
330
17
100
AcDbMlineStyle
  2
STANDARD
 70
     0
  3

 62
   256
 51
90.0
 52
90.0
 71
     2
 49
0.5
 62
   256
  6
BYLAYER
 49
-0.5
 62
   256
  6
BYLAYER
  0
ACDBPLACEHOLDER
  5
F
102
{ACAD_REACTORS
330
E
102
}
330
E
  0
TABLESTYLE
  5
87
102
{ACAD_REACTORS
330
86
102
}
330
86
100
AcDbTableStyle
  3
Standard
 70
     0
 71
     0
 40
0.06
 41
0.06
280
     0
281
     0
  7
Standard
140
0.18
170
     2
 62
     0
 63
     7
283
     0
274
    -2
284
     1
 64
     0
275
    -2
285
     1
 65
     0
276
    -2
286
     1
 66
     0
277
    -2
287
     1
 67
     0
278
    -2
288
     1
 68
     0
279
    -2
289
     1
 69
     0
  7
Standard
140
0.25
170
     5
 62
     0
 63
     7
283
     0
274
    -2
284
     1
 64
     0
275
    -2
285
     1
 65
     0
276
    -2
286
     1
 66
     0
277
    -2
287
     1
 67
     0
278
    -2
288
     1
 68
     0
279
    -2
289
     1
 69
     0
  7
Standard
140
0.18
170
     5
 62
     0
 63
     7
283
     0
274
    -2
284
     1
 64
     0
275
    -2
285
     1
 65
     0
276
    -2
286
     1
 66
     0
277
    -2
287
     1
 67
     0
278
    -2
288
     1
 68
     0
279
    -2
289
     1
 69
     0
  0
DICTIONARYVAR
  5
52C
102
{ACAD_REACTORS
330
66
102
}
330
66
100
DictionaryVariables
280
     0
  1
STANDARD
  0
DICTIONARYVAR
  5
67
102
{ACAD_REACTORS
330
66
102
}
330
66
100
DictionaryVariables
280
     0
  1
2
  0
DICTIONARYVAR
  5
6B
102
{ACAD_REACTORS
330
66
102
}
330
66
100
DictionaryVariables
280
     0
  1
1
  0
DICTIONARYVAR
  5
637
102
{ACAD_REACTORS
330
66
102
}
330
66
100
DictionaryVariables
280
     0
  1

  0
DICTIONARY
  5
63C
330
59
100
AcDbDictionary
280
     1
281
     1
  3
ACAD_XREC_ROUNDTRIP
360
63D
  0
DICTIONARY
  5
63E
330
5E
100
AcDbDictionary
280
     1
281
     1
  3
ACAD_XREC_ROUNDTRIP
360
63F
  0
DICTIONARY
  5
63A
330
22
100
AcDbDictionary
280
     1
281
     1
  3
ACAD_XREC_ROUNDTRIP
360
63B
  0
XRECORD
  5
63D
102
{ACAD_REACTORS
330
63C
102
}
330
63C
100
AcDbXrecord
280
     1
102
SHADEPLOT
 70
     0
102
SHADEPLOTRESLEVEL
 70
     2
102
SHADEPLOTCUSTOMDPI
 70
   300
  0
XRECORD
  5
63F
102
{ACAD_REACTORS
330
63E
102
}
330
63E
100
AcDbXrecord
280
     1
102
SHADEPLOT
 70
     0
102
SHADEPLOTRESLEVEL
 70
     2
102
SHADEPLOTCUSTOMDPI
 70
   300
  0
XRECORD
  5
63B
102
{ACAD_REACTORS
330
63A
102
}
330
63A
100
AcDbXrecord
280
     1
102
SHADEPLOT
 70
     0
102
SHADEPLOTRESLEVEL
 70
     2
102
SHADEPLOTCUSTOMDPI
 70
   300
  0
ENDSEC
  0
EOF
