  0
SECTION
  2
HEADER
  9
$ACADVER
  1
AC1015
  9
$ACADMAINTVER
 70
    20
  9
$DWGCODEPAGE
  3
ANSI_1252
  9
$INSBASE
 10
0.0
 20
0.0
 30
0.0
  9
$EXTMIN
 10
-0.075
 20
-0.075
 30
0.0
  9
$EXTMAX
 10
44.075
 20
34.07500000000001
 30
0.0
  9
$LIMMIN
 10
0.0
 20
0.0
  9
$LIMMAX
 10
12.0
 20
9.0
  9
$ORTHOMODE
 70
     0
  9
$REGENMODE
 70
     1
  9
$FILLMODE
 70
     1
  9
$QTEXTMODE
 70
     0
  9
$MIRRTEXT
 70
     1
  9
$LTSCALE
 40
1.0
  9
$ATTMODE
 70
     1
  9
$TEXTSIZE
 40
0.125
  9
$TRACEWID
 40
0.05
  9
$TEXTSTYLE
  7
STANDARD
  9
$CLAYER
  8
0
  9
$CELTYPE
  6
BYLAYER
  9
$CECOLOR
 62
   256
  9
$CELTSCALE
 40
1.0
  9
$DISPSILH
 70
     0
  9
$DIMSCALE
 40
1.0
  9
$DIMASZ
 40
0.125
  9
$DIMEXO
 40
0.0625
  9
$DIMDLI
 40
0.38
  9
$DIMRND
 40
0.0
  9
$DIMDLE
 40
0.0
  9
$DIMEXE
 40
0.125
  9
$DIMTP
 40
0.0
  9
$DIMTM
 40
0.0
  9
$DIMTXT
 40
0.09
  9
$DIMCEN
 40
0.09
  9
$DIMTSZ
 40
0.0
  9
$DIMTOL
 70
     0
  9
$DIMLIM
 70
     0
  9
$DIMTIH
 70
     1
  9
$DIMTOH
 70
     1
  9
$DIMSE1
 70
     0
  9
$DIMSE2
 70
     0
  9
$DIMTAD
 70
     0
  9
$DIMZIN
 70
     0
  9
$DIMBLK
  1

  9
$DIMASO
 70
     1
  9
$DIMSHO
 70
     1
  9
$DIMPOST
  1

  9
$DIMAPOST
  1
mm
  9
$DIMALT
 70
     1
  9
$DIMALTD
 70
     1
  9
$DIMALTF
 40
25.4
  9
$DIMLFAC
 40
1.0
  9
$DIMTOFL
 70
     0
  9
$DIMTVP
 40
0.0
  9
$DIMTIX
 70
     0
  9
$DIMSOXD
 70
     0
  9
$DIMSAH
 70
     0
  9
$DIMBLK1
  1

  9
$DIMBLK2
  1

  9
$DIMSTYLE
  2
STANDARD
  9
$DIMCLRD
 70
     0
  9
$DIMCLRE
 70
     0
  9
$DIMCLRT
 70
     0
  9
$DIMTFAC
 40
1.0
  9
$DIMGAP
 40
0.09
  9
$DIMJUST
 70
     0
  9
$DIMSD1
 70
     0
  9
$DIMSD2
 70
     0
  9
$DIMTOLJ
 70
     1
  9
$DIMTZIN
 70
     0
  9
$DIMALTZ
 70
     0
  9
$DIMALTTZ
 70
     0
  9
$DIMUPT
 70
     0
  9
$DIMDEC
 70
     2
  9
$DIMTDEC
 70
     2
  9
$DIMALTU
 70
     2
  9
$DIMALTTD
 70
     1
  9
$DIMTXSTY
  7
STANDARD
  9
$DIMAUNIT
 70
     0
  9
$DIMADEC
 70
     0
  9
$DIMALTRND
 40
0.0
  9
$DIMAZIN
 70
     0
  9
$DIMDSEP
 70
    46
  9
$DIMATFIT
 70
     3
  9
$DIMFRAC
 70
     0
  9
$DIMLDRBLK
  1

  9
$DIMLUNIT
 70
     2
  9
$DIMLWD
 70
    -2
  9
$DIMLWE
 70
    -2
  9
$DIMTMOVE
 70
     0
  9
$LUNITS
 70
     2
  9
$LUPREC
 70
     2
  9
$SKETCHINC
 40
0.1
  9
$FILLETRAD
 40
0.5
  9
$AUNITS
 70
     0
  9
$AUPREC
 70
     0
  9
$MENU
  1
.
  9
$ELEVATION
 40
0.0
  9
$PELEVATION
 40
0.0
  9
$THICKNESS
 40
0.0
  9
$LIMCHECK
 70
     0
  9
$CHAMFERA
 40
0.5
  9
$CHAMFERB
 40
0.5
  9
$CHAMFERC
 40
1.0
  9
$CHAMFERD
 40
0.0
  9
$SKPOLY
 70
     0
  9
$TDCREATE
 40
2451681.555436007
  9
$TDUCREATE
 40
2451681.763769340
  9
$TDUPDATE
 40
2454294.624162327
  9
$TDUUPDATE
 40
2454294.832495660
  9
$TDINDWG
 40
0.2237498148
  9
$TDUSRTIMER
 40
0.2237498148
  9
$USRTIMER
 70
     1
  9
$ANGBASE
 50
0.0
  9
$ANGDIR
 70
     0
  9
$PDMODE
 70
     2
  9
$PDSIZE
 40
0.075
  9
$PLINEWID
 40
0.0
  9
$SPLFRAME
 70
     0
  9
$SPLINETYPE
 70
     6
  9
$SPLINESEGS
 70
     8
  9
$HANDSEED
  5
9F1
  9
$SURFTAB1
 70
     6
  9
$SURFTAB2
 70
     6
  9
$SURFTYPE
 70
     6
  9
$SURFU
 70
     6
  9
$SURFV
 70
     6
  9
$UCSBASE
  2

  9
$UCSNAME
  2

  9
$UCSORG
 10
0.0
 20
0.0
 30
0.0
  9
$UCSXDIR
 10
1.0
 20
0.0
 30
0.0
  9
$UCSYDIR
 10
0.0
 20
1.0
 30
0.0
  9
$UCSORTHOREF
  2

  9
$UCSORTHOVIEW
 70
     1
  9
$UCSORGTOP
 10
0.0
 20
0.0
 30
0.0
  9
$UCSORGBOTTOM
 10
0.0
 20
0.0
 30
0.0
  9
$UCSORGLEFT
 10
0.0
 20
0.0
 30
0.0
  9
$UCSORGRIGHT
 10
0.0
 20
0.0
 30
0.0
  9
$UCSORGFRONT
 10
0.0
 20
0.0
 30
0.0
  9
$UCSORGBACK
 10
0.0
 20
0.0
 30
0.0
  9
$PUCSBASE
  2

  9
$PUCSNAME
  2

  9
$PUCSORG
 10
0.0
 20
0.0
 30
0.0
  9
$PUCSXDIR
 10
1.0
 20
0.0
 30
0.0
  9
$PUCSYDIR
 10
0.0
 20
1.0
 30
0.0
  9
$PUCSORTHOREF
  2

  9
$PUCSORTHOVIEW
 70
     0
  9
$PUCSORGTOP
 10
0.0
 20
0.0
 30
0.0
  9
$PUCSORGBOTTOM
 10
0.0
 20
0.0
 30
0.0
  9
$PUCSORGLEFT
 10
0.0
 20
0.0
 30
0.0
  9
$PUCSORGRIGHT
 10
0.0
 20
0.0
 30
0.0
  9
$PUCSORGFRONT
 10
0.0
 20
0.0
 30
0.0
  9
$PUCSORGBACK
 10
0.0
 20
0.0
 30
0.0
  9
$USERI1
 70
     0
  9
$USERI2
 70
     0
  9
$USERI3
 70
     0
  9
$USERI4
 70
     0
  9
$USERI5
 70
     0
  9
$USERR1
 40
0.0
  9
$USERR2
 40
0.0
  9
$USERR3
 40
0.0
  9
$USERR4
 40
0.0
  9
$USERR5
 40
0.0
  9
$WORLDVIEW
 70
     1
  9
$SHADEDGE
 70
     3
  9
$SHADEDIF
 70
    70
  9
$TILEMODE
 70
     1
  9
$MAXACTVP
 70
    48
  9
$PINSBASE
 10
0.0
 20
0.0
 30
0.0
  9
$PLIMCHECK
 70
     0
  9
$PEXTMIN
 10
1.000000000000000E+20
 20
1.000000000000000E+20
 30
1.000000000000000E+20
  9
$PEXTMAX
 10
-1.000000000000000E+20
 20
-1.000000000000000E+20
 30
-1.000000000000000E+20
  9
$PLIMMIN
 10
0.0
 20
0.0
  9
$PLIMMAX
 10
12.0
 20
9.0
  9
$UNITMODE
 70
     0
  9
$VISRETAIN
 70
     1
  9
$PLINEGEN
 70
     0
  9
$PSLTSCALE
 70
     1
  9
$TREEDEPTH
 70
  3020
  9
$CMLSTYLE
  2
STANDARD
  9
$CMLJUST
 70
     0
  9
$CMLSCALE
 40
1.0
  9
$PROXYGRAPHICS
 70
     1
  9
$MEASUREMENT
 70
     0
  9
$CELWEIGHT
370
    -1
  9
$ENDCAPS
280
     0
  9
$JOINSTYLE
280
     0
  9
$LWDISPLAY
290
     0
  9
$INSUNITS
 70
     0
  9
$HYPERLINKBASE
  1

  9
$STYLESHEET
  1

  9
$XEDIT
290
     1
  9
$CEPSNTYPE
380
     0
  9
$PSTYLEMODE
290
     1
  9
$FINGERPRINTGUID
  2
{B827B275-2F9A-40FA-A85C-600BE45E2DDE}
  9
$VERSIONGUID
  2
{DF0B512B-6127-4A8D-A5CE-7023E961A5CD}
  9
$EXTNAMES
290
     1
  9
$PSVPSCALE
 40
0.0
  9
$OLESTARTUP
290
     0
  0
ENDSEC
  0
SECTION
  2
CLASSES
  0
CLASS
  1
ACDBDICTIONARYWDFLT
  2
AcDbDictionaryWithDefault
  3
ObjectDBX Classes
 90
        0
280
     0
281
     0
  0
CLASS
  1
TABLESTYLE
  2
AcDbTableStyle
  3
ObjectDBX Classes
 90
     2047
280
     0
281
     0
  0
CLASS
  1
DICTIONARYVAR
  2
AcDbDictionaryVar
  3
ObjectDBX Classes
 90
        0
280
     0
281
     0
  0
CLASS
  1
ACDBPLACEHOLDER
  2
AcDbPlaceHolder
  3
ObjectDBX Classes
 90
        0
280
     0
281
     0
  0
CLASS
  1
LAYOUT
  2
AcDbLayout
  3
ObjectDBX Classes
 90
        0
280
     0
281
     0
  0
ENDSEC
  0
SECTION
  2
TABLES
  0
TABLE
  2
VPORT
  5
8
330
0
100
AcDbSymbolTable
 70
     2
  0
VPORT
  5
9EB
330
8
100
AcDbSymbolTableRecord
100
AcDbViewportTableRecord
  2
*Active
 70
     0
 10
0.0
 20
0.0
 11
1.0
 21
1.0
 12
22.00000041120087
 22
18.20253941531462
 13
0.0
 23
0.0
 14
0.5
 24
0.5
 15
0.5
 25
0.5
 16
0.0
 26
0.0
 36
1.0
 17
0.0
 27
0.0
 37
0.0
 40
36.77713482654877
 41
1.499364675984752
 42
50.0
 43
0.0
 44
0.0
 50
0.0
 51
0.0
 71
     0
 72
   100
 73
     1
 74
     1
 75
     0
 76
     0
 77
     0
 78
     0
281
     0
 65
     1
110
0.0
120
0.0
130
0.0
111
1.0
121
0.0
131
0.0
112
0.0
122
1.0
132
0.0
 79
     1
146
0.0
  0
ENDTAB
  0
TABLE
  2
LTYPE
  5
5
330
0
100
AcDbSymbolTable
 70
     1
  0
LTYPE
  5
12
330
5
100
AcDbSymbolTableRecord
100
AcDbLinetypeTableRecord
  2
BYBLOCK
 70
     0
  3

 72
    65
 73
     0
 40
0.0
  0
LTYPE
  5
13
330
5
100
AcDbSymbolTableRecord
100
AcDbLinetypeTableRecord
  2
BYLAYER
 70
     0
  3

 72
    65
 73
     0
 40
0.0
  0
LTYPE
  5
14
330
5
100
AcDbSymbolTableRecord
100
AcDbLinetypeTableRecord
  2
CONTINUOUS
 70
     0
  3
Solid line
 72
    65
 73
     0
 40
0.0
  0
ENDTAB
  0
TABLE
  2
LAYER
  5
2
102
{ACAD_XDICTIONARY
360
180
102
}
330
0
100
AcDbSymbolTable
 70
     6
  0
LAYER
  5
E
330
2
100
AcDbSymbolTableRecord
100
AcDbLayerTableRecord
  2
0
 70
     0
 62
     7
  6
CONTINUOUS
370
    -3
390
12F
  0
LAYER
  5
20
330
2
100
AcDbSymbolTableRecord
100
AcDbLayerTableRecord
  2
Title Block
 70
     0
 62
     3
  6
CONTINUOUS
370
    -3
390
12F
  0
LAYER
  5
21
330
2
100
AcDbSymbolTableRecord
100
AcDbLayerTableRecord
  2
Dimension
 70
     0
 62
     6
  6
CONTINUOUS
370
    -3
390
12F
  0
LAYER
  5
22
330
2
100
AcDbSymbolTableRecord
100
AcDbLayerTableRecord
  2
Text
 70
     0
 62
     1
  6
CONTINUOUS
370
    -3
390
12F
  0
LAYER
  5
23
330
2
100
AcDbSymbolTableRecord
100
AcDbLayerTableRecord
  2
Object
 70
     0
 62
     5
  6
CONTINUOUS
370
    -3
390
12F
  0
LAYER
  5
1A7
330
2
100
AcDbSymbolTableRecord
100
AcDbLayerTableRecord
  2
Defpoints
 70
     0
 62
     7
  6
CONTINUOUS
290
     0
370
    -3
390
12F
  0
ENDTAB
  0
TABLE
  2
STYLE
  5
3
330
0
100
AcDbSymbolTable
 70
     1
  0
STYLE
  5
F
330
3
100
AcDbSymbolTableRecord
100
AcDbTextStyleTableRecord
  2
STANDARD
 70
     0
 40
0.0
 41
1.0
 50
0.0
 71
     0
 42
0.125
  3
technic_.ttf
  4

1001
ACAD
1000
Technic
1071
      514
  0
ENDTAB
  0
TABLE
  2
VIEW
  5
6
330
0
100
AcDbSymbolTable
 70
     0
  0
ENDTAB
  0
TABLE
  2
UCS
  5
7
330
0
100
AcDbSymbolTable
 70
     0
  0
ENDTAB
  0
TABLE
  2
APPID
  5
9
330
0
100
AcDbSymbolTable
 70
     4
  0
APPID
  5
10
330
9
100
AcDbSymbolTableRecord
100
AcDbRegAppTableRecord
  2
ACAD
 70
     0
  0
APPID
  5
175
330
9
100
AcDbSymbolTableRecord
100
AcDbRegAppTableRecord
  2
DCO15
 70
     0
  0
APPID
  5
17F
330
9
100
AcDbSymbolTableRecord
100
AcDbRegAppTableRecord
  2
AcAecLayerStandard
 70
     0
  0
APPID
  5
1D7
330
9
100
AcDbSymbolTableRecord
100
AcDbRegAppTableRecord
  2
ACAD_DSTYLE_DIMTEXT_FILL
 70
     0
  0
ENDTAB
  0
TABLE
  2
DIMSTYLE
  5
A
330
0
100
AcDbSymbolTable
 70
     1
100
AcDbDimStyleTable
 71
     1
340
1D
  0
DIMSTYLE
105
1D
102
{ACAD_REACTORS
330
9A2
330
9B0
330
9BE
102
}
330
A
100
AcDbSymbolTableRecord
100
AcDbDimStyleTableRecord
  2
STANDARD
 70
     0
  4
mm
 41
0.125
 44
0.125
140
0.09
170
     1
171
     1
271
     2
272
     2
274
     1
340
F
  0
ENDTAB
  0
TABLE
  2
BLOCK_RECORD
  5
1
330
0
100
AcDbSymbolTable
 70
     3
  0
BLOCK_RECORD
  5
18
330
1
100
AcDbSymbolTableRecord
100
AcDbBlockTableRecord
  2
*MODEL_SPACE
340
136
  0
BLOCK_RECORD
  5
15
330
1
100
AcDbSymbolTableRecord
100
AcDbBlockTableRecord
  2
*PAPER_SPACE
340
137
  0
BLOCK_RECORD
  5
9A3
330
1
100
AcDbSymbolTableRecord
100
AcDbBlockTableRecord
  2
*D0
340
0
  0
BLOCK_RECORD
  5
9B1
330
1
100
AcDbSymbolTableRecord
100
AcDbBlockTableRecord
  2
*D1
340
0
  0
BLOCK_RECORD
  5
9BF
330
1
100
AcDbSymbolTableRecord
100
AcDbBlockTableRecord
  2
*D2
340
0
  0
ENDTAB
  0
ENDSEC
  0
SECTION
  2
BLOCKS
  0
BLOCK
  5
19
330
18
100
AcDbEntity
  8
0
100
AcDbBlockBegin
  2
*MODEL_SPACE
 70
     0
 10
0.0
 20
0.0
 30
0.0
  3
*MODEL_SPACE
  1

  0
ENDBLK
  5
1A
330
18
100
AcDbEntity
  8
0
100
AcDbBlockEnd
  0
BLOCK
  5
16
330
15
100
AcDbEntity
 67
     1
  8
0
100
AcDbBlockBegin
  2
*PAPER_SPACE
 70
     0
 10
0.0
 20
0.0
 30
0.0
  3
*PAPER_SPACE
  1

  0
ENDBLK
  5
17
330
15
100
AcDbEntity
 67
     1
  8
0
100
AcDbBlockEnd
  0
BLOCK
  5
9AE
330
9A3
100
AcDbEntity
  8
0
100
AcDbBlockBegin
  2
*D0
 70
     1
 10
0.0
 20
0.0
 30
0.0
  3
*D0
  1

  0
LINE
  5
9CC
330
9A3
100
AcDbEntity
  8
Dimension
 62
     0
370
    -2
100
AcDbLine
 10
5.435714285714285
 20
13.1025
 30
0.0
 11
5.435714285714285
 21
14.9355427931246
 31
0.0
  0
LINE
  5
9CD
330
9A3
100
AcDbEntity
  8
Dimension
 62
     0
370
    -2
100
AcDbLine
 10
23.20142857142857
 20
13.1025
 30
0.0
 11
23.20142857142857
 21
14.9355427931246
 31
0.0
  0
LINE
  5
9CE
330
9A3
100
AcDbEntity
  8
Dimension
 62
     0
370
    -2
100
AcDbLine
 10
5.560714285714285
 20
14.81054279312459
 30
0.0
 11
13.78067669172932
 21
14.81054279312459
 31
0.0
  0
LINE
  5
9CF
330
9A3
100
AcDbEntity
  8
Dimension
 62
     0
370
    -2
100
AcDbLine
 10
23.07642857142857
 20
14.81054279312459
 30
0.0
 11
14.85646616541353
 21
14.81054279312459
 31
0.0
  0
SOLID
  5
9D0
330
9A3
100
AcDbEntity
  8
Dimension
 62
     0
100
AcDbTrace
 10
5.560714285714285
 20
14.83137612645793
 30
0.0
 11
5.560714285714285
 21
14.78970945979126
 31
0.0
 12
5.435714285714285
 22
14.81054279312459
 32
0.0
 13
5.435714285714285
 23
14.81054279312459
 33
0.0
  0
SOLID
  5
9D1
330
9A3
100
AcDbEntity
  8
Dimension
 62
     0
100
AcDbTrace
 10
23.07642857142857
 20
14.83137612645793
 30
0.0
 11
23.07642857142857
 21
14.78970945979126
 31
0.0
 12
23.20142857142857
 22
14.81054279312459
 32
0.0
 13
23.20142857142857
 23
14.81054279312459
 33
0.0
  0
MTEXT
  5
9D2
330
9A3
100
AcDbEntity
  8
Dimension
 62
     0
100
AcDbMText
 10
14.31857142857143
 20
14.81054279312459
 30
0.0
 40
0.09
 41
0.0
 71
     5
 72
     1
  1
\A1;17.76 [451.2mm]
 73
     1
 44
1.0
1001
ACAD
1000
MTEXTBEGIN
1070
    73
1070
     1
1070
    44
1040
1.0
1070
    74
1070
     0
1000
MTEXTEND
  0
POINT
  5
9D3
330
9A3
100
AcDbEntity
  8
Defpoints
 62
     0
100
AcDbPoint
 10
5.435714285714285
 20
13.04
 30
0.0
  0
POINT
  5
9D4
330
9A3
100
AcDbEntity
  8
Defpoints
 62
     0
100
AcDbPoint
 10
23.20142857142857
 20
13.04
 30
0.0
  0
POINT
  5
9D5
330
9A3
100
AcDbEntity
  8
Defpoints
 62
     0
100
AcDbPoint
 10
23.20142857142857
 20
14.81054279312459
 30
0.0
  0
ENDBLK
  5
9AF
330
9A3
100
AcDbEntity
  8
0
100
AcDbBlockEnd
  0
BLOCK
  5
9BC
330
9B1
100
AcDbEntity
  8
0
100
AcDbBlockBegin
  2
*D1
 70
     1
 10
0.0
 20
0.0
 30
0.0
  3
*D1
  1

  0
LINE
  5
9B2
330
9B1
100
AcDbEntity
  8
Dimension
 62
     0
370
    -2
100
AcDbLine
 10
34.00464285714285
 20
13.04
 30
0.0
 11
32.07641043939809
 21
13.04
 31
0.0
  0
LINE
  5
9B3
330
9B1
100
AcDbEntity
  8
Dimension
 62
     0
370
    -2
100
AcDbLine
 10
34.00464285714285
 20
7.08
 30
0.0
 11
32.07641043939809
 21
7.08
 31
0.0
  0
LINE
  5
9B4
330
9B1
100
AcDbEntity
  8
Dimension
 62
     0
370
    -2
100
AcDbLine
 10
32.20141043939809
 20
12.915
 30
0.0
 11
32.20141043939809
 21
10.21302631578947
 31
0.0
  0
LINE
  5
9B5
330
9B1
100
AcDbEntity
  8
Dimension
 62
     0
370
    -2
100
AcDbLine
 10
32.20141043939809
 20
7.205
 30
0.0
 11
32.20141043939809
 21
9.906973684210527
 31
0.0
  0
SOLID
  5
9B6
330
9B1
100
AcDbEntity
  8
Dimension
 62
     0
100
AcDbTrace
 10
32.18057710606475
 20
12.915
 30
0.0
 11
32.22224377273143
 21
12.915
 31
0.0
 12
32.20141043939809
 22
13.04
 32
0.0
 13
32.20141043939809
 23
13.04
 33
0.0
  0
SOLID
  5
9B7
330
9B1
100
AcDbEntity
  8
Dimension
 62
     0
100
AcDbTrace
 10
32.18057710606475
 20
7.205
 30
0.0
 11
32.22224377273143
 21
7.205
 31
0.0
 12
32.20141043939809
 22
7.08
 32
0.0
 13
32.20141043939809
 23
7.08
 33
0.0
  0
MTEXT
  5
9B8
330
9B1
100
AcDbEntity
  8
Dimension
 62
     0
100
AcDbMText
 10
32.20141043939809
 20
10.06
 30
0.0
 40
0.09
 41
0.0
 71
     5
 72
     1
  1
\A1;5.96 [151.4mm]
 73
     1
 44
1.0
1001
ACAD
1000
MTEXTBEGIN
1070
    73
1070
     1
1070
    44
1040
1.0
1070
    74
1070
     0
1000
MTEXTEND
  0
POINT
  5
9B9
330
9B1
100
AcDbEntity
  8
Defpoints
 62
     0
100
AcDbPoint
 10
34.06714285714286
 20
13.04
 30
0.0
  0
POINT
  5
9BA
330
9B1
100
AcDbEntity
  8
Defpoints
 62
     0
100
AcDbPoint
 10
34.06714285714286
 20
7.08
 30
0.0
  0
POINT
  5
9BB
330
9B1
100
AcDbEntity
  8
Defpoints
 62
     0
100
AcDbPoint
 10
32.20141043939809
 20
7.08
 30
0.0
  0
ENDBLK
  5
9BD
330
9B1
100
AcDbEntity
  8
0
100
AcDbBlockEnd
  0
BLOCK
  5
9CA
330
9BF
100
AcDbEntity
  8
0
100
AcDbBlockBegin
  2
*D2
 70
     1
 10
0.0
 20
0.0
 30
0.0
  3
*D2
  1

  0
LINE
  5
9C0
330
9BF
100
AcDbEntity
  8
Dimension
 62
     0
370
    -2
100
AcDbLine
 10
21.0925
 20
27.55857142857143
 30
0.0
 11
25.41258698289606
 21
27.55857142857143
 31
0.0
  0
LINE
  5
9C1
330
9BF
100
AcDbEntity
  8
Dimension
 62
     0
370
    -2
100
AcDbLine
 10
23.26392857142857
 20
23.55857142857143
 30
0.0
 11
25.41258698289606
 21
23.55857142857143
 31
0.0
  0
LINE
  5
9C2
330
9BF
100
AcDbEntity
  8
Dimension
 62
     0
370
    -2
100
AcDbLine
 10
25.28758698289606
 20
27.43357142857143
 30
0.0
 11
25.28758698289606
 21
25.7115977443609
 31
0.0
  0
LINE
  5
9C3
330
9BF
100
AcDbEntity
  8
Dimension
 62
     0
370
    -2
100
AcDbLine
 10
25.28758698289605
 20
23.68357142857143
 30
0.0
 11
25.28758698289606
 21
25.40554511278195
 31
0.0
  0
SOLID
  5
9C4
330
9BF
100
AcDbEntity
  8
Dimension
 62
     0
100
AcDbTrace
 10
25.26675364956273
 20
27.43357142857143
 30
0.0
 11
25.30842031622939
 21
27.43357142857143
 31
0.0
 12
25.28758698289606
 22
27.55857142857143
 32
0.0
 13
25.28758698289606
 23
27.55857142857143
 33
0.0
  0
SOLID
  5
9C5
330
9BF
100
AcDbEntity
  8
Dimension
 62
     0
100
AcDbTrace
 10
25.26675364956272
 20
23.68357142857143
 30
0.0
 11
25.30842031622939
 21
23.68357142857143
 31
0.0
 12
25.28758698289605
 22
23.55857142857143
 32
0.0
 13
25.28758698289605
 23
23.55857142857143
 33
0.0
  0
MTEXT
  5
9C6
330
9BF
100
AcDbEntity
  8
Dimension
 62
     0
100
AcDbMText
 10
25.28758698289605
 20
25.55857142857143
 30
0.0
 40
0.09
 41
0.0
 71
     5
 72
     1
  1
\A1;4.00 [101.6mm]
 73
     1
 44
1.0
1001
ACAD
1000
MTEXTBEGIN
1070
    73
1070
     1
1070
    44
1040
1.0
1070
    74
1070
     0
1000
MTEXTEND
  0
POINT
  5
9C7
330
9BF
100
AcDbEntity
  8
Defpoints
 62
     0
100
AcDbPoint
 10
21.03
 20
27.55857142857143
 30
0.0
  0
POINT
  5
9C8
330
9BF
100
AcDbEntity
  8
Defpoints
 62
     0
100
AcDbPoint
 10
23.20142857142857
 20
23.55857142857143
 30
0.0
  0
POINT
  5
9C9
330
9BF
100
AcDbEntity
  8
Defpoints
 62
     0
100
AcDbPoint
 10
25.28758698289605
 20
23.55857142857143
 30
0.0
  0
ENDBLK
  5
9CB
330
9BF
100
AcDbEntity
  8
0
100
AcDbBlockEnd
  0
ENDSEC
  0
SECTION
  2
ENTITIES
  0
TEXT
  5
51
330
18
100
AcDbEntity
  8
Title Block
100
AcDbText
 10
39.77669501265554
 20
2.672489851525508
 30
0.0
 40
0.05
  1
FILENAME:
100
AcDbText
  0
TEXT
  5
52
330
18
100
AcDbEntity
  8
Title Block
100
AcDbText
 10
39.76928502872825
 20
2.076224967549325
 30
0.0
 40
0.35
  1
PANDUIT
100
AcDbText
  0
TEXT
  5
53
330
18
100
AcDbEntity
  8
Title Block
100
AcDbText
 10
41.72182039882137
 20
2.061410940562986
 30
0.0
 40
0.125
  1
CORP. TINLEY PARK, IL
100
AcDbText
  0
TEXT
  5
54
330
18
100
AcDbEntity
  8
Title Block
100
AcDbText
 10
39.78039997670861
 20
1.91697409709392
 30
0.0
 40
0.05
  1
TITLE:
100
AcDbText
  0
MTEXT
  5
57
330
18
100
AcDbEntity
  8
Title Block
100
AcDbMText
 10
41.0
 20
1.372215793536348
 30
0.0
 40
0.075
 41
2.5
 71
     5
 72
     5
  1
UNLESS OTHERWISE SPECIFIED,\PDIMENSIONAL TOLERANCES ARE:       
 73
     1
 44
1.0
1001
ACAD
1000
MTEXTBEGIN
1070
    73
1070
     1
1070
    44
1040
1.0
1070
    74
1070
     0
1000
MTEXTEND
  0
MTEXT
  5
58
330
18
100
AcDbEntity
  8
Title Block
100
AcDbMText
 10
40.39237986661001
 20
1.131487708483632
 30
0.0
 40
0.075
 41
2.5
 71
     5
 72
     5
  1
(.X)\P(.XX)
 73
     1
 44
1.0
1001
ACAD
1000
MTEXTBEGIN
1070
    73
1070
     1
1070
    44
1040
1.0
1070
    74
1070
     0
1000
MTEXTEND
  0
MTEXT
  5
59
330
18
100
AcDbEntity
  8
Title Block
100
AcDbMText
 10
41.40014005312411
 20
1.131487708483632
 30
0.0
 40
0.075
 41
2.5
 71
     5
 72
     5
  1
(.XXX)\PANGLES:
 73
     1
 44
1.0
1001
ACAD
1000
MTEXTBEGIN
1070
    73
1070
     1
1070
    44
1040
1.0
1070
    74
1070
     0
1000
MTEXTEND
  0
MTEXT
  5
5A
330
18
100
AcDbEntity
  8
Title Block
100
AcDbMText
 10
43.0
 20
1.25
 30
0.0
 40
0.06
 41
1.5
 71
     5
 72
     5
  1
UNLESS OTHERWISE SPECIFIED,\PALL DIMENSIONS ARE GIVEN IN INCHES, THIRD ANGLE PROJECTION
 73
     1
 44
1.0
1001
ACAD
1000
MTEXTBEGIN
1070
    73
1070
     1
1070
    44
1040
1.0
1070
    74
1070
     0
1000
MTEXTEND
  0
TEXT
  5
5E
330
18
100
AcDbEntity
  8
Title Block
100
AcDbText
 10
39.76076445430619
 20
0.9281373372752312
 30
0.0
 40
0.05
  1
DRAWN BY:
100
AcDbText
  0
TEXT
  5
5F
330
18
100
AcDbEntity
  8
Title Block
100
AcDbText
 10
39.76446947418043
 20
0.681143186563503
 30
0.0
 40
0.05
  1
DATE:
100
AcDbText
  0
TEXT
  5
60
330
18
100
AcDbEntity
  8
Title Block
100
AcDbText
 10
39.76817443823349
 20
0.4304455338317972
 30
0.0
 40
0.05
  1
CHECKED BY:
100
AcDbText
  0
TEXT
  5
62
330
18
100
AcDbEntity
  8
Title Block
100
AcDbText
 10
40.52028959313306
 20
0.9281373372752312
 30
0.0
 40
0.05
  1
MATERIAL:
100
AcDbText
  0
TEXT
  5
63
330
18
100
AcDbEntity
  8
Title Block
100
AcDbText
 10
42.26534493878154
 20
0.9281373372752312
 30
0.0
 40
0.05
  1
SCALE:
100
AcDbText
  0
TEXT
  5
64
330
18
100
AcDbEntity
  8
Title Block
100
AcDbText
 10
42.26534493878154
 20
0.6725952630490007
 30
0.0
 40
0.05
  1
DRAWING NUMBER:
100
AcDbText
  0
TEXT
  5
65
330
18
100
AcDbEntity
  8
Title Block
100
AcDbText
 10
43.34942622928998
 20
0.6762987650689816
 30
0.0
 40
0.05
  1
DRAWING
100
AcDbText
  0
TEXT
  5
66
330
18
100
AcDbEntity
  8
Title Block
100
AcDbText
 10
43.42723125590085
 20
0.2811642688682028
 30
0.0
 40
0.05
  1
SIZE
100
AcDbText
  0
TEXT
  5
67
330
18
100
AcDbEntity
  8
Title Block
100
AcDbText
 10
43.4049339528984
 20
0.3826699445861052
 30
0.0
 40
0.25
  1
E
100
AcDbText
  0
MTEXT
  5
68
330
18
100
AcDbEntity
  8
Title Block
100
AcDbMText
 10
33.375
 20
0.375
 30
0.0
 40
0.05
 41
0.25
 71
     5
 72
     5
  1
REV
 73
     1
 44
1.0
1001
ACAD
1000
MTEXTBEGIN
1070
    73
1070
     1
1070
    44
1040
1.0
1070
    74
1070
     0
1000
MTEXTEND
  0
MTEXT
  5
69
330
18
100
AcDbEntity
  8
Title Block
100
AcDbMText
 10
33.75
 20
0.375
 30
0.0
 40
0.05
 41
0.5
 71
     5
 72
     5
  1
DATE
 73
     1
 44
1.0
1001
ACAD
1000
MTEXTBEGIN
1070
    73
1070
     1
1070
    44
1040
1.0
1070
    74
1070
     0
1000
MTEXTEND
  0
MTEXT
  5
6A
330
18
100
AcDbEntity
  8
Title Block
100
AcDbMText
 10
34.19
 20
0.375
 30
0.0
 40
0.05
 41
0.38
 71
     5
 72
     5
  1
BY
 73
     1
 44
1.0
1001
ACAD
1000
MTEXTBEGIN
1070
    73
1070
     1
1070
    44
1040
1.0
1070
    74
1070
     0
1000
MTEXTEND
  0
MTEXT
  5
6B
330
18
100
AcDbEntity
  8
Title Block
100
AcDbMText
 10
34.565
 20
0.375
 30
0.0
 40
0.05
 41
0.38
 71
     5
 72
     5
  1
CHK
 73
     1
 44
1.0
1001
ACAD
1000
MTEXTBEGIN
1070
    73
1070
     1
1070
    44
1040
1.0
1070
    74
1070
     0
1000
MTEXTEND
  0
MTEXT
  5
6C
330
18
100
AcDbEntity
  8
Title Block
100
AcDbMText
 10
36.125
 20
0.375
 30
0.0
 40
0.05
 41
2.75
 71
     5
 72
     5
  1
DESCRIPTION
 73
     1
 44
1.0
1001
ACAD
1000
MTEXTBEGIN
1070
    73
1070
     1
1070
    44
1040
1.0
1070
    74
1070
     0
1000
MTEXTEND
  0
MTEXT
  5
6D
330
18
100
AcDbEntity
  8
Title Block
100
AcDbMText
 10
38.065
 20
0.375
 30
0.0
 40
0.05
 41
1.129999999999999
 71
     5
 72
     5
  1
ECN   -   R
 73
     1
 44
1.0
1001
ACAD
1000
MTEXTBEGIN
1070
    73
1070
     1
1070
    44
1040
1.0
1070
    74
1070
     0
1000
MTEXTEND
  0
MTEXT
  5
6E
330
18
100
AcDbEntity
  8
Title Block
100
AcDbMText
 10
38.815
 20
0.375
 30
0.0
 40
0.05
 41
0.38
 71
     5
 72
     5
  1
CUST
 73
     1
 44
1.0
1001
ACAD
1000
MTEXTBEGIN
1070
    73
1070
     1
1070
    44
1040
1.0
1070
    74
1070
     0
1000
MTEXTEND
  0
MTEXT
  5
6F
330
18
100
AcDbEntity
  8
Title Block
100
AcDbMText
 10
39.19
 20
0.375
 30
0.0
 40
0.05
 41
0.38
 71
     5
 72
     5
  1
SUP
 73
     1
 44
1.0
1001
ACAD
1000
MTEXTBEGIN
1070
    73
1070
     1
1070
    44
1040
1.0
1070
    74
1070
     0
1000
MTEXTEND
  0
LINE
  5
A5
330
18
100
AcDbEntity
  8
Title Block
100
AcDbLine
 10
43.75
 20
2.75
 30
0.0
 11
33.25
 21
2.75
 31
0.0
  0
LINE
  5
A6
330
18
100
AcDbEntity
  8
Title Block
100
AcDbLine
 10
39.75
 20
2.75
 30
0.0
 11
39.75
 21
0.25
 31
0.0
  0
LINE
  5
A7
330
18
100
AcDbEntity
  8
Title Block
100
AcDbLine
 10
43.75
 20
2.5
 30
0.0
 11
33.25
 21
2.5
 31
0.0
  0
LINE
  5
A8
330
18
100
AcDbEntity
  8
Title Block
100
AcDbLine
 10
39.75
 20
2.25
 30
0.0
 11
33.25
 21
2.25
 31
0.0
  0
LINE
  5
A9
330
18
100
AcDbEntity
  8
Title Block
100
AcDbLine
 10
43.75
 20
2.0
 30
0.0
 11
33.25
 21
2.0
 31
0.0
  0
LINE
  5
AA
330
18
100
AcDbEntity
  8
Title Block
100
AcDbLine
 10
39.75
 20
1.75
 30
0.0
 11
33.25
 21
1.75
 31
0.0
  0
LINE
  5
AB
330
18
100
AcDbEntity
  8
Title Block
100
AcDbLine
 10
43.75
 20
1.5
 30
0.0
 11
33.25
 21
1.5
 31
0.0
  0
LINE
  5
AC
330
18
100
AcDbEntity
  8
Title Block
100
AcDbLine
 10
39.75
 20
1.25
 30
0.0
 11
33.25
 21
1.25
 31
0.0
  0
LINE
  5
AD
330
18
100
AcDbEntity
  8
Title Block
100
AcDbLine
 10
43.75
 20
1.0
 30
0.0
 11
33.25
 21
1.0
 31
0.0
  0
LINE
  5
AE
330
18
100
AcDbEntity
  8
Title Block
100
AcDbLine
 10
40.49999999999999
 20
0.75
 30
0.0
 11
33.25
 21
0.7500000000000009
 31
0.0
  0
LINE
  5
AF
330
18
100
AcDbEntity
  8
Title Block
100
AcDbLine
 10
40.49999999999999
 20
0.5
 30
0.0
 11
33.25
 21
0.5000000000000009
 31
0.0
  0
LINE
  5
B6
330
18
100
AcDbEntity
  8
Title Block
100
AcDbLine
 10
33.25
 20
0.25
 30
0.0
 11
33.25
 21
2.75
 31
0.0
  0
LINE
  5
BC
330
18
100
AcDbEntity
  8
Title Block
100
AcDbLine
 10
33.5
 20
0.25
 30
0.0
 11
33.5
 21
2.750000000000001
 31
0.0
  0
LINE
  5
BD
330
18
100
AcDbEntity
  8
Title Block
100
AcDbLine
 10
34.0
 20
0.25
 30
0.0
 11
34.0
 21
2.750000000000001
 31
0.0
  0
LINE
  5
C0
330
18
100
AcDbEntity
  8
Title Block
100
AcDbLine
 10
34.375
 20
0.25
 30
0.0
 11
34.375
 21
2.750000000000001
 31
0.0
  0
LINE
  5
C1
330
18
100
AcDbEntity
  8
Title Block
100
AcDbLine
 10
34.75
 20
0.25
 30
0.0
 11
34.75
 21
2.750000000000001
 31
0.0
  0
LINE
  5
C2
330
18
100
AcDbEntity
  8
Title Block
100
AcDbLine
 10
39.375
 20
2.75
 30
0.0
 11
39.375
 21
0.25
 31
0.0
  0
LINE
  5
C3
330
18
100
AcDbEntity
  8
Title Block
100
AcDbLine
 10
39.0
 20
2.75
 30
0.0
 11
39.0
 21
0.25
 31
0.0
  0
LINE
  5
C4
330
18
100
AcDbEntity
  8
Title Block
100
AcDbLine
 10
38.625
 20
2.75
 30
0.0
 11
38.625
 21
0.25
 31
0.0
  0
LINE
  5
C5
330
18
100
AcDbEntity
  8
Title Block
100
AcDbLine
 10
38.25
 20
2.75
 30
0.0
 11
38.25
 21
0.5
 31
0.0
  0
LINE
  5
C6
330
18
100
AcDbEntity
  8
Title Block
100
AcDbLine
 10
37.5
 20
2.75
 30
0.0
 11
37.5
 21
0.25
 31
0.0
  0
LINE
  5
C7
330
18
100
AcDbEntity
  8
Title Block
100
AcDbLine
 10
42.25
 20
0.75
 30
0.0
 11
42.25
 21
1.5
 31
0.0
  0
LINE
  5
C8
330
18
100
AcDbEntity
  8
Title Block
100
AcDbLine
 10
42.25
 20
0.75
 30
0.0
 11
42.25
 21
0.25
 31
0.0
  0
LINE
  5
C9
330
18
100
AcDbEntity
  8
Title Block
100
AcDbLine
 10
42.25
 20
0.75
 30
0.0
 11
43.75
 21
0.75
 31
0.0
  0
LINE
  5
CA
330
18
100
AcDbEntity
  8
Title Block
100
AcDbLine
 10
40.49999999999999
 20
0.5
 30
0.0
 11
40.49999999999999
 21
0.25
 31
0.0
  0
LINE
  5
CB
330
18
100
AcDbEntity
  8
Title Block
100
AcDbLine
 10
40.49999999999999
 20
0.5
 30
0.0
 11
40.49999999999999
 21
1.0
 31
0.0
  0
LINE
  5
CD
330
18
100
AcDbEntity
  8
Title Block
100
AcDbLine
 10
43.25
 20
0.75
 30
0.0
 11
43.25
 21
0.25
 31
0.0
  0
LWPOLYLINE
  5
12A
330
18
100
AcDbEntity
  8
Title Block
100
AcDbPolyline
 90
        4
 70
     1
 43
0.01
 10
0.25
 20
0.25
 10
0.25
 20
33.75
 10
43.75
 20
33.75
 10
43.75
 20
0.25
  0
MTEXT
  5
14F
330
18
100
AcDbEntity
  8
Text
100
AcDbMText
 10
33.37371447412868
 20
0.626742149669739
 30
0.0
 40
0.09
 41
0.25
 71
     5
 72
     5
  1
R
 73
     1
 44
1.0
1001
ACAD
1000
MTEXTBEGIN
1070
    73
1070
     1
1070
    44
1040
1.0
1070
    74
1070
     0
1000
MTEXTEND
  0
MTEXT
  5
150
330
18
100
AcDbEntity
  8
Text
100
AcDbMText
 10
33.74871447412868
 20
0.626742149669739
 30
0.0
 40
0.07
 41
0.5
 71
     5
 72
     5
  1
6-8-07
 73
     1
 44
1.0
1001
ACAD
1000
MTEXTBEGIN
1070
    73
1070
     1
1070
    44
1040
1.0
1070
    74
1070
     0
1000
MTEXTEND
  0
MTEXT
  5
151
330
18
100
AcDbEntity
  8
Text
100
AcDbMText
 10
34.18621447412867
 20
0.626742149669739
 30
0.0
 40
0.09
 41
0.375
 71
     5
 72
     5
  1
DTP
 73
     1
 44
1.0
1001
ACAD
1000
MTEXTBEGIN
1070
    73
1070
     1
1070
    44
1040
1.0
1070
    74
1070
     0
1000
MTEXTEND
  0
MTEXT
  5
153
330
18
100
AcDbEntity
  8
Text
100
AcDbMText
 10
36.12371447412868
 20
0.6267421496697386
 30
0.0
 40
0.09
 41
2.75
 71
     5
 72
     5
  1
DRAWING RELEASED
 73
     1
 44
1.0
1001
ACAD
1000
MTEXTBEGIN
1070
    73
1070
     1
1070
    44
1040
1.0
1070
    74
1070
     0
1000
MTEXTEND
  0
MTEXT
  5
156
330
18
100
AcDbEntity
  8
Text
100
AcDbMText
 10
40.47371447412866
 20
0.851742149669738
 30
0.0
 40
0.09
 41
0.75
 71
     6
 72
     5
  1
DTP
 73
     1
 44
1.0
1001
ACAD
1000
MTEXTBEGIN
1070
    73
1070
     1
1070
    44
1040
1.0
1070
    74
1070
     0
1000
MTEXTEND
  0
MTEXT
  5
157
330
18
100
AcDbEntity
  8
Text
100
AcDbMText
 10
40.47371447412866
 20
0.6017421496697379
 30
0.0
 40
0.09
 41
0.75
 71
     6
 72
     5
  1
6-8-07
 73
     1
 44
1.0
1001
ACAD
1000
MTEXTBEGIN
1070
    73
1070
     1
1070
    44
1040
1.0
1070
    74
1070
     0
1000
MTEXTEND
  0
MTEXT
  5
158
330
18
100
AcDbEntity
  8
Text
100
AcDbMText
 10
40.47371447412866
 20
0.3517421496697382
 30
0.0
 40
0.09
 41
0.75
 71
     6
 72
     5
  1
DJWA
 73
     1
 44
1.0
1001
ACAD
1000
MTEXTBEGIN
1070
    73
1070
     1
1070
    44
1040
1.0
1070
    74
1070
     0
1000
MTEXTEND
  0
MTEXT
  5
159
330
18
100
AcDbEntity
  8
Text
100
AcDbMText
 10
41.74871447412868
 20
2.626742149669738
 30
0.0
 40
0.09
 41
4.0
 71
     5
 72
     5
  1
FRTR12X4.dwg
 73
     1
 44
1.0
1001
ACAD
1000
MTEXTBEGIN
1070
    73
1070
     1
1070
    44
1040
1.0
1070
    74
1070
     0
1000
MTEXTEND
  0
MTEXT
  5
15A
330
18
100
AcDbEntity
  8
Text
100
AcDbMText
 10
41.74871447412868
 20
1.751742149669738
 30
0.0
 40
0.09
 41
4.0
 71
     5
 72
     5
  1
FIBERRUNNER 12x4 3-SIDED BEND RADIUS\PCONTROL TRUMPET (FRTR12X4)\PMARKETING DRAWING
 73
     1
 44
1.0
1001
ACAD
1000
MTEXTBEGIN
1070
    73
1070
     1
1070
    44
1040
1.0
1070
    74
1070
     0
1000
MTEXTEND
  0
MTEXT
  5
15B
330
18
100
AcDbEntity
  8
Text
100
AcDbMText
 10
42.99871447412868
 20
0.876742149669738
 30
0.0
 40
0.12
 41
1.5
 71
     5
 72
     5
  1
FULL
 73
     1
 44
1.0
1001
ACAD
1000
MTEXTBEGIN
1070
    73
1070
     1
1070
    44
1040
1.0
1070
    74
1070
     0
1000
MTEXTEND
  0
MTEXT
  5
15C
330
18
100
AcDbEntity
  8
Text
100
AcDbMText
 10
42.74871447412867
 20
0.5017421496697381
 30
0.0
 40
0.12
 41
1.0
 71
     5
 72
     5
  1
36897-1146
 73
     1
 44
1.0
1001
ACAD
1000
MTEXTBEGIN
1070
    73
1070
     1
1070
    44
1040
1.0
1070
    74
1070
     0
1000
MTEXTEND
  0
POINT
  5
16E
330
18
100
AcDbEntity
  8
Title Block
100
AcDbPoint
 10
0.0
 20
0.0
 30
0.0
  0
POINT
  5
16F
330
18
100
AcDbEntity
  8
Title Block
100
AcDbPoint
 10
44.0
 20
0.0
 30
0.0
  0
POINT
  5
170
330
18
100
AcDbEntity
  8
Title Block
100
AcDbPoint
 10
44.0
 20
34.0
 30
0.0
  0
POINT
  5
171
330
18
100
AcDbEntity
  8
Title Block
100
AcDbPoint
 10
0.0
 20
34.0
 30
0.0
  0
TEXT
  5
2BA
330
18
100
AcDbEntity
  8
Text
100
AcDbText
 10
13.96131639259717
 20
22.42051605071096
 30
0.0
 40
0.125
  1
TOP VIEW
100
AcDbText
  0
TEXT
  5
2BB
330
18
100
AcDbEntity
  8
Text
100
AcDbText
 10
13.88647547331276
 20
5.830796521370629
 30
0.0
 40
0.125
  1
FRONT VIEW
100
AcDbText
  0
TEXT
  5
2BC
330
18
100
AcDbEntity
  8
Text
100
AcDbText
 10
35.32030729345443
 20
5.875031006044437
 30
0.0
 40
0.125
  1
RIGHT SIDE VIEW
100
AcDbText
  0
MTEXT
  5
2CC
330
18
100
AcDbEntity
  8
Text
100
AcDbMText
 10
34.56040028142271
 20
0.626249074032665
 30
0.0
 40
0.07
 41
0.375
 71
     5
 72
     5
  1
DJWA
 73
     1
 44
1.0
1001
ACAD
1000
MTEXTBEGIN
1070
    73
1070
     1
1070
    44
1040
1.0
1070
    74
1070
     0
1000
MTEXTEND
  0
LINE
  5
2DE
330
18
100
AcDbEntity
  8
Object
100
AcDbLine
 10
34.19285714285714
 20
7.11
 30
0.0
 11
34.19285714285714
 21
7.112857142857142
 31
0.0
  0
LINE
  5
2DF
330
18
100
AcDbEntity
  8
Object
100
AcDbLine
 10
34.19285714285714
 20
7.124285714285714
 30
0.0
 11
34.19285714285714
 21
7.142857142857143
 31
0.0
  0
LINE
  5
2E0
330
18
100
AcDbEntity
  8
Object
100
AcDbLine
 10
34.19285714285714
 20
7.169999999999999
 30
0.0
 11
34.19285714285714
 21
7.204285714285714
 31
0.0
  0
LINE
  5
2E1
330
18
100
AcDbEntity
  8
Object
100
AcDbLine
 10
34.19285714285714
 20
7.204285714285714
 30
0.0
 11
34.19285714285714
 21
7.244285714285714
 31
0.0
  0
LINE
  5
2E2
330
18
100
AcDbEntity
  8
Object
100
AcDbLine
 10
34.19285714285714
 20
7.292857142857142
 30
0.0
 11
34.19285714285714
 21
7.348571428571428
 31
0.0
  0
LINE
  5
2E3
330
18
100
AcDbEntity
  8
Object
100
AcDbLine
 10
34.19285714285714
 20
7.411428571428571
 30
0.0
 11
34.19285714285714
 21
7.48
 31
0.0
  0
LINE
  5
2E4
330
18
100
AcDbEntity
  8
Object
100
AcDbLine
 10
34.19285714285714
 20
7.555714285714286
 30
0.0
 11
34.19285714285714
 21
7.637142857142857
 31
0.0
  0
LINE
  5
2E5
330
18
100
AcDbEntity
  8
Object
100
AcDbLine
 10
34.19285714285714
 20
7.724285714285714
 30
0.0
 11
34.19285714285714
 21
7.817142857142856
 31
0.0
  0
LINE
  5
2E6
330
18
100
AcDbEntity
  8
Object
100
AcDbLine
 10
34.19285714285714
 20
7.817142857142856
 30
0.0
 11
34.19285714285714
 21
7.915714285714285
 31
0.0
  0
LINE
  5
2E7
330
18
100
AcDbEntity
  8
Object
100
AcDbLine
 10
34.19285714285714
 20
8.019999999999999
 30
0.0
 11
34.19285714285714
 21
8.128571428571428
 31
0.0
  0
LINE
  5
2E8
330
18
100
AcDbEntity
  8
Object
100
AcDbLine
 10
34.19285714285714
 20
8.241428571428571
 30
0.0
 11
34.19285714285714
 21
8.358571428571428
 31
0.0
  0
LINE
  5
2E9
330
18
100
AcDbEntity
  8
Object
100
AcDbLine
 10
34.19285714285714
 20
8.48
 30
0.0
 11
34.19285714285714
 21
8.604285714285714
 31
0.0
  0
LINE
  5
2EA
330
18
100
AcDbEntity
  8
Object
100
AcDbLine
 10
34.19285714285714
 20
8.731428571428571
 30
0.0
 11
34.19285714285714
 21
8.861428571428572
 31
0.0
  0
LINE
  5
2EB
330
18
100
AcDbEntity
  8
Object
100
AcDbLine
 10
34.19285714285714
 20
8.992857142857141
 30
0.0
 11
34.19285714285714
 21
9.127142857142857
 31
0.0
  0
LINE
  5
2EC
330
18
100
AcDbEntity
  8
Object
100
AcDbLine
 10
34.19285714285714
 20
9.26142857142857
 30
0.0
 11
34.19285714285714
 21
9.397142857142856
 31
0.0
  0
LINE
  5
2ED
330
18
100
AcDbEntity
  8
Object
100
AcDbLine
 10
34.19285714285714
 20
9.397142857142856
 30
0.0
 11
34.19285714285714
 21
13.03714285714286
 31
0.0
  0
LINE
  5
2EE
330
18
100
AcDbEntity
  8
Object
100
AcDbLine
 10
34.19285714285714
 20
9.127142857142857
 30
0.0
 11
34.19285714285714
 21
9.26142857142857
 31
0.0
  0
LINE
  5
2EF
330
18
100
AcDbEntity
  8
Object
100
AcDbLine
 10
34.19285714285714
 20
8.861428571428572
 30
0.0
 11
34.19285714285714
 21
8.992857142857141
 31
0.0
  0
LINE
  5
2F0
330
18
100
AcDbEntity
  8
Object
100
AcDbLine
 10
34.19285714285714
 20
8.604285714285714
 30
0.0
 11
34.19285714285714
 21
8.731428571428571
 31
0.0
  0
LINE
  5
2F1
330
18
100
AcDbEntity
  8
Object
100
AcDbLine
 10
34.19285714285714
 20
8.358571428571428
 30
0.0
 11
34.19285714285714
 21
8.48
 31
0.0
  0
LINE
  5
2F2
330
18
100
AcDbEntity
  8
Object
100
AcDbLine
 10
34.19285714285714
 20
8.128571428571428
 30
0.0
 11
34.19285714285714
 21
8.241428571428571
 31
0.0
  0
LINE
  5
2F3
330
18
100
AcDbEntity
  8
Object
100
AcDbLine
 10
34.19285714285714
 20
7.915714285714285
 30
0.0
 11
34.19285714285714
 21
8.019999999999999
 31
0.0
  0
LINE
  5
2F4
330
18
100
AcDbEntity
  8
Object
100
AcDbLine
 10
34.19285714285714
 20
7.637142857142857
 30
0.0
 11
34.19285714285714
 21
7.724285714285714
 31
0.0
  0
LINE
  5
2F5
330
18
100
AcDbEntity
  8
Object
100
AcDbLine
 10
34.19285714285714
 20
7.48
 30
0.0
 11
34.19285714285714
 21
7.555714285714286
 31
0.0
  0
LINE
  5
2F6
330
18
100
AcDbEntity
  8
Object
100
AcDbLine
 10
34.19285714285714
 20
7.348571428571428
 30
0.0
 11
34.19285714285714
 21
7.411428571428571
 31
0.0
  0
LINE
  5
2F7
330
18
100
AcDbEntity
  8
Object
100
AcDbLine
 10
34.19285714285714
 20
7.244285714285714
 30
0.0
 11
34.19285714285714
 21
7.292857142857142
 31
0.0
  0
LINE
  5
2F8
330
18
100
AcDbEntity
  8
Object
100
AcDbLine
 10
34.19285714285714
 20
7.142857142857143
 30
0.0
 11
34.19285714285714
 21
7.169999999999999
 31
0.0
  0
LINE
  5
2F9
330
18
100
AcDbEntity
  8
Object
100
AcDbLine
 10
34.19285714285714
 20
7.112857142857142
 30
0.0
 11
34.19285714285714
 21
7.124285714285714
 31
0.0
  0
LINE
  5
2FA
330
18
100
AcDbEntity
  8
Object
100
AcDbLine
 10
36.06714285714286
 20
9.204285714285713
 30
0.0
 11
35.95000000000001
 21
9.199999999999999
 31
0.0
  0
LINE
  5
2FB
330
18
100
AcDbEntity
  8
Object
100
AcDbLine
 10
35.95000000000001
 20
9.199999999999999
 30
0.0
 11
35.90857142857143
 21
9.195714285714284
 31
0.0
  0
LINE
  5
2FC
330
18
100
AcDbEntity
  8
Object
100
AcDbLine
 10
35.44285714285714
 20
9.095714285714285
 30
0.0
 11
35.47714285714286
 21
9.108571428571428
 31
0.0
  0
LINE
  5
2FD
330
18
100
AcDbEntity
  8
Object
100
AcDbLine
 10
35.36571428571428
 20
9.067142857142856
 30
0.0
 11
35.35142857142857
 21
9.061428571428571
 31
0.0
  0
LINE
  5
2FE
330
18
100
AcDbEntity
  8
Object
100
AcDbLine
 10
35.33
 20
9.051428571428571
 30
0.0
 11
35.36
 21
9.064285714285714
 31
0.0
  0
LINE
  5
2FF
330
18
100
AcDbEntity
  8
Object
100
AcDbLine
 10
35.21
 20
8.995714285714285
 30
0.0
 11
35.25857142857143
 21
9.019999999999999
 31
0.0
  0
LINE
  5
300
330
18
100
AcDbEntity
  8
Object
100
AcDbLine
 10
35.11
 20
8.939999999999999
 30
0.0
 11
35.15142857142858
 21
8.964285714285713
 31
0.0
  0
LINE
  5
301
330
18
100
AcDbEntity
  8
Object
100
AcDbLine
 10
35.03857142857143
 20
8.895714285714285
 30
0.0
 11
35.01428571428571
 21
8.878571428571428
 31
0.0
  0
LINE
  5
302
330
18
100
AcDbEntity
  8
Object
100
AcDbLine
 10
34.99428571428572
 20
8.864285714285713
 30
0.0
 11
35.04285714285714
 21
8.898571428571427
 31
0.0
  0
LINE
  5
303
330
18
100
AcDbEntity
  8
Object
100
AcDbLine
 10
34.88571428571429
 20
8.784285714285713
 30
0.0
 11
34.95857142857143
 21
8.839999999999999
 31
0.0
  0
LINE
  5
304
330
18
100
AcDbEntity
  8
Object
100
AcDbLine
 10
34.79571428571428
 20
8.705714285714286
 30
0.0
 11
34.86714285714286
 21
8.768571428571428
 31
0.0
  0
LINE
  5
305
330
18
100
AcDbEntity
  8
Object
100
AcDbLine
 10
34.71
 20
8.621428571428571
 30
0.0
 11
34.77428571428572
 21
8.685714285714285
 31
0.0
  0
LINE
  5
306
330
18
100
AcDbEntity
  8
Object
100
AcDbLine
 10
34.69285714285714
 20
8.602857142857143
 30
0.0
 11
34.70285714285714
 21
8.612857142857142
 31
0.0
  0
LINE
  5
307
330
18
100
AcDbEntity
  8
Object
100
AcDbLine
 10
34.63857142857143
 20
8.542857142857142
 30
0.0
 11
34.69714285714286
 21
8.608571428571428
 31
0.0
  0
LINE
  5
308
330
18
100
AcDbEntity
  8
Object
100
AcDbLine
 10
34.56571428571429
 20
8.449999999999999
 30
0.0
 11
34.60142857142857
 21
8.497142857142856
 31
0.0
  0
LINE
  5
309
330
18
100
AcDbEntity
  8
Object
100
AcDbLine
 10
34.49857142857143
 20
8.354285714285714
 30
0.0
 11
34.54714285714286
 21
8.425714285714285
 31
0.0
  0
LINE
  5
30A
330
18
100
AcDbEntity
  8
Object
100
AcDbLine
 10
34.54714285714286
 20
8.424285714285714
 30
0.0
 11
34.49285714285714
 21
8.347142857142857
 31
0.0
  0
LINE
  5
30B
330
18
100
AcDbEntity
  8
Object
100
AcDbLine
 10
34.46857142857143
 20
8.307142857142856
 30
0.0
 11
34.49857142857143
 21
8.354285714285714
 31
0.0
  0
LINE
  5
30C
330
18
100
AcDbEntity
  8
Object
100
AcDbLine
 10
34.44571428571429
 20
8.269999999999999
 30
0.0
 11
34.47285714285714
 21
8.315714285714285
 31
0.0
  0
LINE
  5
30D
330
18
100
AcDbEntity
  8
Object
100
AcDbLine
 10
34.43285714285714
 20
8.247142857142856
 30
0.0
 11
34.42
 21
8.222857142857142
 31
0.0
  0
LINE
  5
30E
330
18
100
AcDbEntity
  8
Object
100
AcDbLine
 10
34.42
 20
8.222857142857142
 30
0.0
 11
34.40714285714286
 21
8.199999999999999
 31
0.0
  0
LINE
  5
30F
330
18
100
AcDbEntity
  8
Object
100
AcDbLine
 10
34.41428571428571
 20
8.214285714285713
 30
0.0
 11
34.37142857142858
 21
8.127142857142857
 31
0.0
  0
LINE
  5
310
330
18
100
AcDbEntity
  8
Object
100
AcDbLine
 10
34.37142857142858
 20
8.127142857142857
 30
0.0
 11
34.33142857142858
 21
8.035714285714286
 31
0.0
  0
LINE
  5
311
330
18
100
AcDbEntity
  8
Object
100
AcDbLine
 10
34.33428571428571
 20
8.044285714285713
 30
0.0
 11
34.32571428571428
 21
8.024285714285714
 31
0.0
  0
LINE
  5
312
330
18
100
AcDbEntity
  8
Object
100
AcDbLine
 10
34.31857142857143
 20
8.004285714285714
 30
0.0
 11
34.31714285714285
 21
8.0
 31
0.0
  0
LINE
  5
313
330
18
100
AcDbEntity
  8
Object
100
AcDbLine
 10
34.29142857142857
 20
7.929999999999999
 30
0.0
 11
34.31714285714285
 21
8.00142857142857
 31
0.0
  0
LINE
  5
314
330
18
100
AcDbEntity
  8
Object
100
AcDbLine
 10
34.25714285714286
 20
7.815714285714285
 30
0.0
 11
34.27857142857143
 21
7.889999999999999
 31
0.0
  0
LINE
  5
315
330
18
100
AcDbEntity
  8
Object
100
AcDbLine
 10
34.23142857142857
 20
7.705714285714285
 30
0.0
 11
34.24142857142857
 21
7.75
 31
0.0
  0
LINE
  5
316
330
18
100
AcDbEntity
  8
Object
100
AcDbLine
 10
34.21142857142857
 20
7.594285714285714
 30
0.0
 11
34.21428571428572
 21
7.614285714285713
 31
0.0
  0
LINE
  5
317
330
18
100
AcDbEntity
  8
Object
100
AcDbLine
 10
34.19714285714286
 20
7.471428571428571
 30
0.0
 11
34.2
 21
7.502857142857142
 31
0.0
  0
LINE
  5
318
330
18
100
AcDbEntity
  8
Object
100
AcDbLine
 10
34.19285714285714
 20
7.33
 30
0.0
 11
34.19428571428571
 21
7.391428571428571
 31
0.0
  0
LINE
  5
319
330
18
100
AcDbEntity
  8
Object
100
AcDbLine
 10
38.06714285714285
 20
12.97
 30
0.0
 11
36.06714285714286
 21
13.00428571428571
 31
0.0
  0
LINE
  5
31A
330
18
100
AcDbEntity
  8
Object
100
AcDbLine
 10
36.06714285714286
 20
13.00428571428571
 30
0.0
 11
36.0
 21
13.00571428571428
 31
0.0
  0
LINE
  5
31B
330
18
100
AcDbEntity
  8
Object
100
AcDbLine
 10
36.0
 20
13.00571428571428
 30
0.0
 11
35.93285714285715
 21
13.00714285714286
 31
0.0
  0
LINE
  5
31C
330
18
100
AcDbEntity
  8
Object
100
AcDbLine
 10
35.93285714285715
 20
13.00714285714286
 30
0.0
 11
35.86571428571428
 21
13.00857142857143
 31
0.0
  0
LINE
  5
31D
330
18
100
AcDbEntity
  8
Object
100
AcDbLine
 10
35.86571428571428
 20
13.00857142857143
 30
0.0
 11
35.79857142857143
 21
13.01
 31
0.0
  0
LINE
  5
31E
330
18
100
AcDbEntity
  8
Object
100
AcDbLine
 10
35.07428571428572
 20
13.02142857142857
 30
0.0
 11
35.06
 21
13.02285714285714
 31
0.0
  0
LINE
  5
31F
330
18
100
AcDbEntity
  8
Object
100
AcDbLine
 10
35.06
 20
13.02285714285714
 30
0.0
 11
34.97285714285715
 21
13.02428571428571
 31
0.0
  0
LINE
  5
320
330
18
100
AcDbEntity
  8
Object
100
AcDbLine
 10
34.97285714285715
 20
13.02428571428571
 30
0.0
 11
34.88857142857143
 21
13.02571428571428
 31
0.0
  0
LINE
  5
321
330
18
100
AcDbEntity
  8
Object
100
AcDbLine
 10
34.88857142857143
 20
13.02571428571428
 30
0.0
 11
34.80714285714286
 21
13.02714285714286
 31
0.0
  0
LINE
  5
322
330
18
100
AcDbEntity
  8
Object
100
AcDbLine
 10
34.80714285714286
 20
13.02714285714286
 30
0.0
 11
34.72857142857143
 21
13.02857142857143
 31
0.0
  0
LINE
  5
323
330
18
100
AcDbEntity
  8
Object
100
AcDbLine
 10
34.72857142857143
 20
13.02857142857143
 30
0.0
 11
34.65285714285715
 21
13.03
 31
0.0
  0
LINE
  5
324
330
18
100
AcDbEntity
  8
Object
100
AcDbLine
 10
34.65285714285715
 20
13.03
 30
0.0
 11
34.62857142857143
 21
13.03
 31
0.0
  0
LINE
  5
325
330
18
100
AcDbEntity
  8
Object
100
AcDbLine
 10
34.42714285714286
 20
13.03285714285714
 30
0.0
 11
34.39428571428571
 21
13.03428571428571
 31
0.0
  0
LINE
  5
326
330
18
100
AcDbEntity
  8
Object
100
AcDbLine
 10
34.39428571428571
 20
13.03428571428571
 30
0.0
 11
34.37714285714286
 21
13.03428571428571
 31
0.0
  0
LINE
  5
327
330
18
100
AcDbEntity
  8
Object
100
AcDbLine
 10
35.79857142857143
 20
13.01
 30
0.0
 11
34.21142857142857
 21
13.03714285714286
 31
0.0
  0
LINE
  5
328
330
18
100
AcDbEntity
  8
Object
100
AcDbLine
 10
34.21142857142857
 20
13.03714285714286
 30
0.0
 11
34.20428571428572
 21
13.03714285714286
 31
0.0
  0
LINE
  5
329
330
18
100
AcDbEntity
  8
Object
100
AcDbLine
 10
34.20428571428572
 20
13.03714285714286
 30
0.0
 11
34.19714285714286
 21
13.03714285714286
 31
0.0
  0
LINE
  5
32A
330
18
100
AcDbEntity
  8
Object
100
AcDbLine
 10
34.19714285714286
 20
13.03714285714286
 30
0.0
 11
34.19428571428571
 21
13.03714285714286
 31
0.0
  0
LINE
  5
32B
330
18
100
AcDbEntity
  8
Object
100
AcDbLine
 10
34.19428571428571
 20
13.03714285714286
 30
0.0
 11
34.19285714285714
 21
13.03714285714286
 31
0.0
  0
LINE
  5
32C
330
18
100
AcDbEntity
  8
Object
100
AcDbLine
 10
34.19285714285714
 20
13.03714285714286
 30
0.0
 11
34.19
 21
13.03714285714286
 31
0.0
  0
LINE
  5
32D
330
18
100
AcDbEntity
  8
Object
100
AcDbLine
 10
34.19
 20
13.03714285714286
 30
0.0
 11
34.18428571428572
 21
13.03714285714286
 31
0.0
  0
LINE
  5
32E
330
18
100
AcDbEntity
  8
Object
100
AcDbLine
 10
34.18428571428572
 20
13.03714285714286
 30
0.0
 11
34.17428571428572
 21
13.03714285714286
 31
0.0
  0
LINE
  5
32F
330
18
100
AcDbEntity
  8
Object
100
AcDbLine
 10
34.17428571428572
 20
13.03714285714286
 30
0.0
 11
34.16285714285714
 21
13.03714285714286
 31
0.0
  0
LINE
  5
330
330
18
100
AcDbEntity
  8
Object
100
AcDbLine
 10
34.17428571428572
 20
13.03714285714286
 30
0.0
 11
34.14428571428572
 21
13.03857142857143
 31
0.0
  0
LINE
  5
331
330
18
100
AcDbEntity
  8
Object
100
AcDbLine
 10
34.14428571428572
 20
13.03857142857143
 30
0.0
 11
34.12
 21
13.03857142857143
 31
0.0
  0
LINE
  5
332
330
18
100
AcDbEntity
  8
Object
100
AcDbLine
 10
34.12
 20
13.03857142857143
 30
0.0
 11
34.11428571428571
 21
13.03857142857143
 31
0.0
  0
LINE
  5
333
330
18
100
AcDbEntity
  8
Object
100
AcDbLine
 10
34.07714285714286
 20
13.03857142857143
 30
0.0
 11
34.07571428571428
 21
13.04
 31
0.0
  0
LINE
  5
334
330
18
100
AcDbEntity
  8
Object
100
AcDbLine
 10
34.07571428571428
 20
13.04
 30
0.0
 11
34.07
 21
13.04
 31
0.0
  0
LINE
  5
335
330
18
100
AcDbEntity
  8
Object
100
AcDbLine
 10
34.16285714285714
 20
13.03714285714286
 30
0.0
 11
34.06714285714286
 21
13.04
 31
0.0
  0
LINE
  5
336
330
18
100
AcDbEntity
  8
Object
100
AcDbLine
 10
34.06714285714286
 20
13.04
 30
0.0
 11
34.07
 21
13.04
 31
0.0
  0
LINE
  5
337
330
18
100
AcDbEntity
  8
Object
100
AcDbLine
 10
34.19285714285714
 20
9.397142857142856
 30
0.0
 11
34.19
 21
9.397142857142856
 31
0.0
  0
LINE
  5
338
330
18
100
AcDbEntity
  8
Object
100
AcDbLine
 10
34.19285714285714
 20
9.127142857142857
 30
0.0
 11
34.19285714285714
 21
9.26142857142857
 31
0.0
  0
LINE
  5
339
330
18
100
AcDbEntity
  8
Object
100
AcDbLine
 10
34.19285714285714
 20
9.26142857142857
 30
0.0
 11
34.19285714285714
 21
9.397142857142856
 31
0.0
  0
LINE
  5
33A
330
18
100
AcDbEntity
  8
Object
100
AcDbLine
 10
34.19285714285714
 20
8.48
 30
0.0
 11
34.19285714285714
 21
8.604285714285714
 31
0.0
  0
LINE
  5
33B
330
18
100
AcDbEntity
  8
Object
100
AcDbLine
 10
34.19285714285714
 20
8.731428571428571
 30
0.0
 11
34.19285714285714
 21
8.861428571428572
 31
0.0
  0
LINE
  5
33C
330
18
100
AcDbEntity
  8
Object
100
AcDbLine
 10
34.19285714285714
 20
9.127142857142857
 30
0.0
 11
34.19285714285714
 21
8.992857142857141
 31
0.0
  0
LINE
  5
33D
330
18
100
AcDbEntity
  8
Object
100
AcDbLine
 10
34.19285714285714
 20
8.992857142857141
 30
0.0
 11
34.19285714285714
 21
8.861428571428572
 31
0.0
  0
LINE
  5
33E
330
18
100
AcDbEntity
  8
Object
100
AcDbLine
 10
34.19285714285714
 20
8.604285714285714
 30
0.0
 11
34.19285714285714
 21
8.731428571428571
 31
0.0
  0
LINE
  5
33F
330
18
100
AcDbEntity
  8
Object
100
AcDbLine
 10
34.19285714285714
 20
7.817142857142856
 30
0.0
 11
34.19285714285714
 21
7.915714285714285
 31
0.0
  0
LINE
  5
340
330
18
100
AcDbEntity
  8
Object
100
AcDbLine
 10
34.19285714285714
 20
8.019999999999999
 30
0.0
 11
34.19285714285714
 21
8.128571428571428
 31
0.0
  0
LINE
  5
341
330
18
100
AcDbEntity
  8
Object
100
AcDbLine
 10
34.19285714285714
 20
8.241428571428571
 30
0.0
 11
34.19285714285714
 21
8.358571428571428
 31
0.0
  0
LINE
  5
342
330
18
100
AcDbEntity
  8
Object
100
AcDbLine
 10
34.19285714285714
 20
8.358571428571428
 30
0.0
 11
34.19285714285714
 21
8.48
 31
0.0
  0
LINE
  5
343
330
18
100
AcDbEntity
  8
Object
100
AcDbLine
 10
34.19285714285714
 20
8.128571428571428
 30
0.0
 11
34.19285714285714
 21
8.241428571428571
 31
0.0
  0
LINE
  5
344
330
18
100
AcDbEntity
  8
Object
100
AcDbLine
 10
34.19285714285714
 20
7.915714285714285
 30
0.0
 11
34.19285714285714
 21
8.019999999999999
 31
0.0
  0
LINE
  5
345
330
18
100
AcDbEntity
  8
Object
100
AcDbLine
 10
34.19285714285714
 20
7.204285714285714
 30
0.0
 11
34.19285714285714
 21
7.244285714285714
 31
0.0
  0
LINE
  5
346
330
18
100
AcDbEntity
  8
Object
100
AcDbLine
 10
34.19285714285714
 20
7.292857142857142
 30
0.0
 11
34.19285714285714
 21
7.348571428571428
 31
0.0
  0
LINE
  5
347
330
18
100
AcDbEntity
  8
Object
100
AcDbLine
 10
34.19285714285714
 20
7.411428571428571
 30
0.0
 11
34.19285714285714
 21
7.48
 31
0.0
  0
LINE
  5
348
330
18
100
AcDbEntity
  8
Object
100
AcDbLine
 10
34.19285714285714
 20
7.555714285714286
 30
0.0
 11
34.19285714285714
 21
7.637142857142857
 31
0.0
  0
LINE
  5
349
330
18
100
AcDbEntity
  8
Object
100
AcDbLine
 10
34.19285714285714
 20
7.817142857142856
 30
0.0
 11
34.19285714285714
 21
7.724285714285714
 31
0.0
  0
LINE
  5
34A
330
18
100
AcDbEntity
  8
Object
100
AcDbLine
 10
34.19285714285714
 20
7.724285714285714
 30
0.0
 11
34.19285714285714
 21
7.637142857142857
 31
0.0
  0
LINE
  5
34B
330
18
100
AcDbEntity
  8
Object
100
AcDbLine
 10
34.19285714285714
 20
7.48
 30
0.0
 11
34.19285714285714
 21
7.555714285714286
 31
0.0
  0
LINE
  5
34C
330
18
100
AcDbEntity
  8
Object
100
AcDbLine
 10
34.19285714285714
 20
7.348571428571428
 30
0.0
 11
34.19285714285714
 21
7.411428571428571
 31
0.0
  0
LINE
  5
34D
330
18
100
AcDbEntity
  8
Object
100
AcDbLine
 10
34.19285714285714
 20
7.244285714285714
 30
0.0
 11
34.19285714285714
 21
7.292857142857142
 31
0.0
  0
LINE
  5
34E
330
18
100
AcDbEntity
  8
Object
100
AcDbLine
 10
34.19285714285714
 20
7.169999999999999
 30
0.0
 11
34.19285714285714
 21
7.204285714285714
 31
0.0
  0
LINE
  5
34F
330
18
100
AcDbEntity
  8
Object
100
AcDbLine
 10
34.19285714285714
 20
7.112857142857142
 30
0.0
 11
34.19285714285714
 21
7.124285714285714
 31
0.0
  0
LINE
  5
350
330
18
100
AcDbEntity
  8
Object
100
AcDbLine
 10
34.19285714285714
 20
7.169999999999999
 30
0.0
 11
34.19285714285714
 21
7.142857142857143
 31
0.0
  0
LINE
  5
351
330
18
100
AcDbEntity
  8
Object
100
AcDbLine
 10
34.19285714285714
 20
7.142857142857143
 30
0.0
 11
34.19285714285714
 21
7.124285714285714
 31
0.0
  0
LINE
  5
352
330
18
100
AcDbEntity
  8
Object
100
AcDbLine
 10
34.19285714285714
 20
7.112857142857142
 30
0.0
 11
34.19285714285714
 21
7.11
 31
0.0
  0
LINE
  5
353
330
18
100
AcDbEntity
  8
Object
100
AcDbLine
 10
34.19285714285714
 20
7.11
 30
0.0
 11
34.19
 21
7.098571428571428
 31
0.0
  0
LINE
  5
354
330
18
100
AcDbEntity
  8
Object
100
AcDbLine
 10
34.19
 20
9.397142857142856
 30
0.0
 11
34.18428571428572
 21
9.395714285714285
 31
0.0
  0
LINE
  5
355
330
18
100
AcDbEntity
  8
Object
100
AcDbLine
 10
34.18428571428572
 20
7.088571428571428
 30
0.0
 11
34.19
 21
7.098571428571428
 31
0.0
  0
LINE
  5
356
330
18
100
AcDbEntity
  8
Object
100
AcDbLine
 10
34.18428571428572
 20
9.395714285714285
 30
0.0
 11
34.17428571428572
 21
9.395714285714285
 31
0.0
  0
LINE
  5
357
330
18
100
AcDbEntity
  8
Object
100
AcDbLine
 10
34.17428571428572
 20
7.081428571428571
 30
0.0
 11
34.18428571428572
 21
7.088571428571428
 31
0.0
  0
LINE
  5
358
330
18
100
AcDbEntity
  8
Object
100
AcDbLine
 10
34.17428571428572
 20
9.395714285714285
 30
0.0
 11
34.16285714285714
 21
9.395714285714285
 31
0.0
  0
LINE
  5
359
330
18
100
AcDbEntity
  8
Object
100
AcDbLine
 10
34.16285714285714
 20
7.08
 30
0.0
 11
34.17428571428572
 21
7.081428571428571
 31
0.0
  0
LINE
  5
35A
330
18
100
AcDbEntity
  8
Object
100
AcDbLine
 10
36.0
 20
13.00571428571428
 30
0.0
 11
36.06714285714286
 21
13.00428571428571
 31
0.0
  0
LINE
  5
35B
330
18
100
AcDbEntity
  8
Object
100
AcDbLine
 10
36.06714285714286
 20
13.00428571428571
 30
0.0
 11
36.06714285714286
 21
9.66
 31
0.0
  0
LINE
  5
35C
330
18
100
AcDbEntity
  8
Object
100
AcDbLine
 10
36.0
 20
13.00571428571428
 30
0.0
 11
35.93285714285715
 21
13.00714285714286
 31
0.0
  0
LINE
  5
35D
330
18
100
AcDbEntity
  8
Object
100
AcDbLine
 10
35.93285714285715
 20
13.00714285714286
 30
0.0
 11
35.86571428571428
 21
13.00857142857143
 31
0.0
  0
LINE
  5
35E
330
18
100
AcDbEntity
  8
Object
100
AcDbLine
 10
35.83285714285715
 20
9.658571428571429
 30
0.0
 11
35.95000000000001
 21
9.66
 31
0.0
  0
LINE
  5
35F
330
18
100
AcDbEntity
  8
Object
100
AcDbLine
 10
35.86571428571428
 20
13.00857142857143
 30
0.0
 11
35.79857142857143
 21
13.01
 31
0.0
  0
LINE
  5
360
330
18
100
AcDbEntity
  8
Object
100
AcDbLine
 10
35.79857142857143
 20
12.96714285714285
 30
0.0
 11
35.72857142857143
 21
12.96571428571428
 31
0.0
  0
LINE
  5
361
330
18
100
AcDbEntity
  8
Object
100
AcDbLine
 10
35.71571428571429
 20
9.657142857142856
 30
0.0
 11
35.83285714285715
 21
9.658571428571429
 31
0.0
  0
LINE
  5
362
330
18
100
AcDbEntity
  8
Object
100
AcDbLine
 10
35.72857142857143
 20
12.96571428571428
 30
0.0
 11
35.65857142857143
 21
12.96428571428571
 31
0.0
  0
LINE
  5
363
330
18
100
AcDbEntity
  8
Object
100
AcDbLine
 10
35.60142857142857
 20
9.655714285714285
 30
0.0
 11
35.71571428571429
 21
9.657142857142856
 31
0.0
  0
LINE
  5
364
330
18
100
AcDbEntity
  8
Object
100
AcDbLine
 10
35.65857142857143
 20
12.96428571428571
 30
0.0
 11
35.63142857142857
 21
12.96428571428571
 31
0.0
  0
LINE
  5
365
330
18
100
AcDbEntity
  8
Object
100
AcDbLine
 10
35.60142857142857
 20
9.655714285714285
 30
0.0
 11
35.48857142857143
 21
9.654285714285714
 31
0.0
  0
LINE
  5
366
330
18
100
AcDbEntity
  8
Object
100
AcDbLine
 10
35.48857142857143
 20
9.654285714285714
 30
0.0
 11
35.37714285714286
 21
9.651428571428571
 31
0.0
  0
LINE
  5
367
330
18
100
AcDbEntity
  8
Object
100
AcDbLine
 10
35.36714285714286
 20
12.95857142857143
 30
0.0
 11
35.31000000000001
 21
12.95857142857143
 31
0.0
  0
LINE
  5
368
330
18
100
AcDbEntity
  8
Object
100
AcDbLine
 10
35.27000000000001
 20
9.647142857142856
 30
0.0
 11
35.37714285714286
 21
9.651428571428571
 31
0.0
  0
LINE
  5
369
330
18
100
AcDbEntity
  8
Object
100
AcDbLine
 10
35.31000000000001
 20
12.95857142857143
 30
0.0
 11
35.24142857142857
 21
12.95714285714286
 31
0.0
  0
LINE
  5
36A
330
18
100
AcDbEntity
  8
Object
100
AcDbLine
 10
35.24142857142857
 20
12.95714285714286
 30
0.0
 11
35.17428571428572
 21
12.95571428571429
 31
0.0
  0
LINE
  5
36B
330
18
100
AcDbEntity
  8
Object
100
AcDbLine
 10
35.16428571428571
 20
9.644285714285715
 30
0.0
 11
35.27000000000001
 21
9.647142857142856
 31
0.0
  0
LINE
  5
36C
330
18
100
AcDbEntity
  8
Object
100
AcDbLine
 10
35.17428571428572
 20
12.95571428571429
 30
0.0
 11
35.13
 21
12.95571428571429
 31
0.0
  0
LINE
  5
36D
330
18
100
AcDbEntity
  8
Object
100
AcDbLine
 10
35.06285714285714
 20
9.64
 30
0.0
 11
35.16428571428571
 21
9.644285714285715
 31
0.0
  0
LINE
  5
36E
330
18
100
AcDbEntity
  8
Object
100
AcDbLine
 10
35.02857142857144
 20
12.95285714285714
 30
0.0
 11
34.97857142857143
 21
12.95285714285714
 31
0.0
  0
LINE
  5
36F
330
18
100
AcDbEntity
  8
Object
100
AcDbLine
 10
34.96571428571428
 20
9.635714285714286
 30
0.0
 11
35.06285714285714
 21
9.64
 31
0.0
  0
LINE
  5
370
330
18
100
AcDbEntity
  8
Object
100
AcDbLine
 10
34.97857142857143
 20
12.95285714285714
 30
0.0
 11
34.91714285714286
 21
12.95142857142857
 31
0.0
  0
LINE
  5
371
330
18
100
AcDbEntity
  8
Object
100
AcDbLine
 10
34.87285714285714
 20
9.63
 30
0.0
 11
34.96571428571428
 21
9.635714285714286
 31
0.0
  0
LINE
  5
372
330
18
100
AcDbEntity
  8
Object
100
AcDbLine
 10
34.91714285714286
 20
12.95142857142857
 30
0.0
 11
34.87857142857143
 21
12.95142857142857
 31
0.0
  0
LINE
  5
373
330
18
100
AcDbEntity
  8
Object
100
AcDbLine
 10
34.80285714285714
 20
12.95
 30
0.0
 11
34.79857142857143
 21
12.95
 31
0.0
  0
LINE
  5
374
330
18
100
AcDbEntity
  8
Object
100
AcDbLine
 10
34.78428571428572
 20
9.624285714285713
 30
0.0
 11
34.87285714285714
 21
9.63
 31
0.0
  0
LINE
  5
375
330
18
100
AcDbEntity
  8
Object
100
AcDbLine
 10
34.79857142857143
 20
12.95
 30
0.0
 11
34.74142857142857
 21
12.94857142857143
 31
0.0
  0
LINE
  5
376
330
18
100
AcDbEntity
  8
Object
100
AcDbLine
 10
34.70142857142857
 20
9.618571428571428
 30
0.0
 11
34.78428571428572
 21
9.624285714285713
 31
0.0
  0
LINE
  5
377
330
18
100
AcDbEntity
  8
Object
100
AcDbLine
 10
34.74142857142857
 20
12.94857142857143
 30
0.0
 11
34.71142857142857
 21
12.94857142857143
 31
0.0
  0
LINE
  5
378
330
18
100
AcDbEntity
  8
Object
100
AcDbLine
 10
34.65
 20
12.94714285714286
 30
0.0
 11
34.63714285714285
 21
12.94714285714286
 31
0.0
  0
LINE
  5
379
330
18
100
AcDbEntity
  8
Object
100
AcDbLine
 10
34.62285714285715
 20
9.612857142857142
 30
0.0
 11
34.70142857142857
 21
9.618571428571428
 31
0.0
  0
LINE
  5
37A
330
18
100
AcDbEntity
  8
Object
100
AcDbLine
 10
34.63714285714285
 20
12.94714285714286
 30
0.0
 11
34.58714285714286
 21
12.94571428571428
 31
0.0
  0
LINE
  5
37B
330
18
100
AcDbEntity
  8
Object
100
AcDbLine
 10
34.55142857142857
 20
9.605714285714284
 30
0.0
 11
34.62285714285715
 21
9.612857142857142
 31
0.0
  0
LINE
  5
37C
330
18
100
AcDbEntity
  8
Object
100
AcDbLine
 10
34.58714285714286
 20
12.94571428571428
 30
0.0
 11
34.54428571428572
 21
12.94571428571428
 31
0.0
  0
LINE
  5
37D
330
18
100
AcDbEntity
  8
Object
100
AcDbLine
 10
34.53571428571429
 20
12.94428571428571
 30
0.0
 11
34.49714285714286
 21
12.94428571428571
 31
0.0
  0
LINE
  5
37E
330
18
100
AcDbEntity
  8
Object
100
AcDbLine
 10
34.48428571428571
 20
9.599999999999999
 30
0.0
 11
34.55142857142857
 21
9.605714285714284
 31
0.0
  0
LINE
  5
37F
330
18
100
AcDbEntity
  8
Object
100
AcDbLine
 10
34.49714285714286
 20
12.94428571428571
 30
0.0
 11
34.46142857142857
 21
12.94428571428571
 31
0.0
  0
LINE
  5
380
330
18
100
AcDbEntity
  8
Object
100
AcDbLine
 10
34.42428571428572
 20
9.592857142857143
 30
0.0
 11
34.48428571428571
 21
9.599999999999999
 31
0.0
  0
LINE
  5
381
330
18
100
AcDbEntity
  8
Object
100
AcDbLine
 10
34.45285714285714
 20
12.94285714285714
 30
0.0
 11
34.42
 21
12.94285714285714
 31
0.0
  0
LINE
  5
382
330
18
100
AcDbEntity
  8
Object
100
AcDbLine
 10
34.42
 20
12.94285714285714
 30
0.0
 11
34.38428571428572
 21
12.94285714285714
 31
0.0
  0
LINE
  5
383
330
18
100
AcDbEntity
  8
Object
100
AcDbLine
 10
34.37142857142858
 20
9.585714285714285
 30
0.0
 11
34.42428571428572
 21
9.592857142857143
 31
0.0
  0
LINE
  5
384
330
18
100
AcDbEntity
  8
Object
100
AcDbLine
 10
34.38428571428572
 20
12.94285714285714
 30
0.0
 11
34.35285714285714
 21
12.94142857142857
 31
0.0
  0
LINE
  5
385
330
18
100
AcDbEntity
  8
Object
100
AcDbLine
 10
34.35285714285714
 20
12.94142857142857
 30
0.0
 11
34.32428571428572
 21
12.94142857142857
 31
0.0
  0
LINE
  5
386
330
18
100
AcDbEntity
  8
Object
100
AcDbLine
 10
34.32428571428572
 20
9.577142857142856
 30
0.0
 11
34.37142857142858
 21
9.585714285714285
 31
0.0
  0
LINE
  5
387
330
18
100
AcDbEntity
  8
Object
100
AcDbLine
 10
34.32428571428572
 20
12.94142857142857
 30
0.0
 11
34.29714285714286
 21
12.94142857142857
 31
0.0
  0
LINE
  5
388
330
18
100
AcDbEntity
  8
Object
100
AcDbLine
 10
34.28428571428572
 20
9.57
 30
0.0
 11
34.32428571428572
 21
9.577142857142856
 31
0.0
  0
LINE
  5
389
330
18
100
AcDbEntity
  8
Object
100
AcDbLine
 10
34.29714285714286
 20
12.94142857142857
 30
0.0
 11
34.27428571428572
 21
12.94
 31
0.0
  0
LINE
  5
38A
330
18
100
AcDbEntity
  8
Object
100
AcDbLine
 10
34.27428571428572
 20
12.94
 30
0.0
 11
34.25428571428572
 21
12.94
 31
0.0
  0
LINE
  5
38B
330
18
100
AcDbEntity
  8
Object
100
AcDbLine
 10
34.25142857142857
 20
9.561428571428571
 30
0.0
 11
34.28428571428572
 21
9.57
 31
0.0
  0
LINE
  5
38C
330
18
100
AcDbEntity
  8
Object
100
AcDbLine
 10
34.25428571428572
 20
12.94
 30
0.0
 11
34.23714285714286
 21
12.94
 31
0.0
  0
LINE
  5
38D
330
18
100
AcDbEntity
  8
Object
100
AcDbLine
 10
34.22571428571429
 20
9.554285714285715
 30
0.0
 11
34.25142857142857
 21
9.561428571428571
 31
0.0
  0
LINE
  5
38E
330
18
100
AcDbEntity
  8
Object
100
AcDbLine
 10
34.23714285714286
 20
12.94
 30
0.0
 11
34.22285714285715
 21
12.94
 31
0.0
  0
LINE
  5
38F
330
18
100
AcDbEntity
  8
Object
100
AcDbLine
 10
34.22285714285715
 20
12.94
 30
0.0
 11
34.21142857142857
 21
12.94
 31
0.0
  0
LINE
  5
390
330
18
100
AcDbEntity
  8
Object
100
AcDbLine
 10
34.20714285714286
 20
9.545714285714286
 30
0.0
 11
34.22571428571429
 21
9.554285714285715
 31
0.0
  0
LINE
  5
391
330
18
100
AcDbEntity
  8
Object
100
AcDbLine
 10
34.20428571428572
 20
13.03714285714286
 30
0.0
 11
34.21142857142857
 21
13.03714285714286
 31
0.0
  0
LINE
  5
392
330
18
100
AcDbEntity
  8
Object
100
AcDbLine
 10
34.21142857142857
 20
13.03714285714286
 30
0.0
 11
34.21142857142857
 21
12.94
 31
0.0
  0
LINE
  5
393
330
18
100
AcDbEntity
  8
Object
100
AcDbLine
 10
34.19571428571429
 20
9.537142857142857
 30
0.0
 11
34.20714285714286
 21
9.545714285714286
 31
0.0
  0
LINE
  5
394
330
18
100
AcDbEntity
  8
Object
100
AcDbLine
 10
34.20428571428572
 20
13.03714285714286
 30
0.0
 11
34.19714285714286
 21
13.03714285714286
 31
0.0
  0
LINE
  5
395
330
18
100
AcDbEntity
  8
Object
100
AcDbLine
 10
34.19714285714286
 20
13.03714285714286
 30
0.0
 11
34.19428571428571
 21
13.03714285714286
 31
0.0
  0
LINE
  5
396
330
18
100
AcDbEntity
  8
Object
100
AcDbLine
 10
34.19285714285714
 20
9.529999999999999
 30
0.0
 11
34.19571428571429
 21
9.537142857142857
 31
0.0
  0
LINE
  5
397
330
18
100
AcDbEntity
  8
Object
100
AcDbLine
 10
34.19428571428571
 20
13.03714285714286
 30
0.0
 11
34.19285714285714
 21
13.03714285714286
 31
0.0
  0
LINE
  5
398
330
18
100
AcDbEntity
  8
Object
100
AcDbLine
 10
34.19714285714286
 20
7.172857142857142
 30
0.0
 11
34.19714285714286
 21
7.194285714285713
 31
0.0
  0
LINE
  5
399
330
18
100
AcDbEntity
  8
Object
100
AcDbLine
 10
34.19285714285714
 20
7.219999999999999
 30
0.0
 11
34.19714285714286
 21
7.219999999999999
 31
0.0
  0
LINE
  5
39A
330
18
100
AcDbEntity
  8
Object
100
AcDbLine
 10
34.19714285714286
 20
7.219999999999999
 30
0.0
 11
34.19714285714286
 21
7.194285714285713
 31
0.0
  0
LINE
  5
39B
330
18
100
AcDbEntity
  8
Object
100
AcDbLine
 10
34.19714285714286
 20
7.154285714285713
 30
0.0
 11
34.19714285714286
 21
7.172857142857142
 31
0.0
  0
LINE
  5
39C
330
18
100
AcDbEntity
  8
Object
100
AcDbLine
 10
34.19714285714286
 20
7.142857142857143
 30
0.0
 11
34.19714285714286
 21
7.139999999999999
 31
0.0
  0
LINE
  5
39D
330
18
100
AcDbEntity
  8
Object
100
AcDbLine
 10
34.19714285714286
 20
7.139999999999999
 30
0.0
 11
34.19285714285714
 21
7.139999999999999
 31
0.0
  0
LINE
  5
39E
330
18
100
AcDbEntity
  8
Object
100
AcDbLine
 10
34.19714285714286
 20
7.142857142857143
 30
0.0
 11
34.19714285714286
 21
7.154285714285713
 31
0.0
  0
LINE
  5
39F
330
18
100
AcDbEntity
  8
Object
100
AcDbLine
 10
34.19
 20
13.03714285714286
 30
0.0
 11
34.19285714285714
 21
13.03714285714286
 31
0.0
  0
LINE
  5
3A0
330
18
100
AcDbEntity
  8
Object
100
AcDbLine
 10
34.19285714285714
 20
13.03714285714286
 30
0.0
 11
34.19285714285714
 21
9.397142857142856
 31
0.0
  0
LINE
  5
3A1
330
18
100
AcDbEntity
  8
Object
100
AcDbLine
 10
34.19
 20
13.03714285714286
 30
0.0
 11
34.18428571428572
 21
13.03714285714286
 31
0.0
  0
LINE
  5
3A2
330
18
100
AcDbEntity
  8
Object
100
AcDbLine
 10
34.18428571428572
 20
13.03714285714286
 30
0.0
 11
34.17428571428572
 21
13.03714285714286
 31
0.0
  0
LINE
  5
3A3
330
18
100
AcDbEntity
  8
Object
100
AcDbLine
 10
34.17428571428572
 20
13.03714285714286
 30
0.0
 11
34.16285714285714
 21
13.03714285714286
 31
0.0
  0
LINE
  5
3A4
330
18
100
AcDbEntity
  8
Object
100
AcDbLine
 10
36.06714285714286
 20
9.204285714285713
 30
0.0
 11
36.06714285714286
 21
9.208571428571428
 31
0.0
  0
LINE
  5
3A5
330
18
100
AcDbEntity
  8
Object
100
AcDbLine
 10
36.06714285714286
 20
9.66
 30
0.0
 11
36.06714285714286
 21
9.599999999999999
 31
0.0
  0
LINE
  5
3A6
330
18
100
AcDbEntity
  8
Object
100
AcDbLine
 10
36.06714285714286
 20
9.599999999999999
 30
0.0
 11
36.06714285714286
 21
9.539999999999999
 31
0.0
  0
LINE
  5
3A7
330
18
100
AcDbEntity
  8
Object
100
AcDbLine
 10
36.06714285714286
 20
9.539999999999999
 30
0.0
 11
36.06714285714286
 21
9.482857142857142
 31
0.0
  0
LINE
  5
3A8
330
18
100
AcDbEntity
  8
Object
100
AcDbLine
 10
36.06714285714286
 20
9.482857142857142
 30
0.0
 11
36.06714285714286
 21
9.429999999999999
 31
0.0
  0
LINE
  5
3A9
330
18
100
AcDbEntity
  8
Object
100
AcDbLine
 10
36.06714285714286
 20
9.429999999999999
 30
0.0
 11
36.06714285714286
 21
9.38
 31
0.0
  0
LINE
  5
3AA
330
18
100
AcDbEntity
  8
Object
100
AcDbLine
 10
36.06714285714286
 20
9.38
 30
0.0
 11
36.06714285714286
 21
9.335714285714285
 31
0.0
  0
LINE
  5
3AB
330
18
100
AcDbEntity
  8
Object
100
AcDbLine
 10
36.06714285714286
 20
9.335714285714285
 30
0.0
 11
36.06714285714286
 21
9.297142857142857
 31
0.0
  0
LINE
  5
3AC
330
18
100
AcDbEntity
  8
Object
100
AcDbLine
 10
36.06714285714286
 20
9.297142857142857
 30
0.0
 11
36.06714285714286
 21
9.264285714285714
 31
0.0
  0
LINE
  5
3AD
330
18
100
AcDbEntity
  8
Object
100
AcDbLine
 10
36.06714285714286
 20
9.264285714285714
 30
0.0
 11
36.06714285714286
 21
9.238571428571429
 31
0.0
  0
LINE
  5
3AE
330
18
100
AcDbEntity
  8
Object
100
AcDbLine
 10
36.06714285714286
 20
9.238571428571429
 30
0.0
 11
36.06714285714286
 21
9.22
 31
0.0
  0
LINE
  5
3AF
330
18
100
AcDbEntity
  8
Object
100
AcDbLine
 10
36.06714285714286
 20
9.22
 30
0.0
 11
36.06714285714286
 21
9.208571428571428
 31
0.0
  0
LINE
  5
3B0
330
18
100
AcDbEntity
  8
Object
100
AcDbLine
 10
35.95000000000001
 20
9.199999999999999
 30
0.0
 11
36.06714285714286
 21
9.204285714285713
 31
0.0
  0
LINE
  5
3B1
330
18
100
AcDbEntity
  8
Object
100
AcDbLine
 10
36.06714285714286
 20
9.66
 30
0.0
 11
35.95000000000001
 21
9.66
 31
0.0
  0
LINE
  5
3B2
330
18
100
AcDbEntity
  8
Object
100
AcDbLine
 10
35.90857142857143
 20
9.195714285714284
 30
0.0
 11
35.95000000000001
 21
9.199999999999999
 31
0.0
  0
LINE
  5
3B3
330
18
100
AcDbEntity
  8
Object
100
AcDbLine
 10
35.94571428571429
 20
9.199999999999999
 30
0.0
 11
35.82571428571429
 21
9.188571428571428
 31
0.0
  0
LINE
  5
3B4
330
18
100
AcDbEntity
  8
Object
100
AcDbLine
 10
35.82571428571429
 20
9.188571428571428
 30
0.0
 11
35.70571428571429
 21
9.168571428571429
 31
0.0
  0
LINE
  5
3B5
330
18
100
AcDbEntity
  8
Object
100
AcDbLine
 10
35.70571428571429
 20
9.168571428571429
 30
0.0
 11
35.58714285714286
 21
9.141428571428571
 31
0.0
  0
LINE
  5
3B6
330
18
100
AcDbEntity
  8
Object
100
AcDbLine
 10
35.58714285714286
 20
9.141428571428571
 30
0.0
 11
35.47142857142857
 21
9.107142857142857
 31
0.0
  0
LINE
  5
3B7
330
18
100
AcDbEntity
  8
Object
100
AcDbLine
 10
35.47142857142857
 20
9.107142857142857
 30
0.0
 11
35.35714285714286
 21
9.065714285714285
 31
0.0
  0
LINE
  5
3B8
330
18
100
AcDbEntity
  8
Object
100
AcDbLine
 10
35.47142857142857
 20
9.107142857142857
 30
0.0
 11
35.35714285714286
 21
9.064285714285714
 31
0.0
  0
LINE
  5
3B9
330
18
100
AcDbEntity
  8
Object
100
AcDbLine
 10
35.35714285714286
 20
9.064285714285714
 30
0.0
 11
35.24571428571429
 21
9.014285714285714
 31
0.0
  0
LINE
  5
3BA
330
18
100
AcDbEntity
  8
Object
100
AcDbLine
 10
35.24571428571429
 20
9.014285714285714
 30
0.0
 11
35.13857142857143
 21
8.958571428571428
 31
0.0
  0
LINE
  5
3BB
330
18
100
AcDbEntity
  8
Object
100
AcDbLine
 10
35.13857142857143
 20
8.958571428571428
 30
0.0
 11
35.24571428571429
 21
9.014285714285714
 31
0.0
  0
LINE
  5
3BC
330
18
100
AcDbEntity
  8
Object
100
AcDbLine
 10
35.03571428571429
 20
8.895714285714285
 30
0.0
 11
35.13857142857143
 21
8.958571428571428
 31
0.0
  0
LINE
  5
3BD
330
18
100
AcDbEntity
  8
Object
100
AcDbLine
 10
35.13857142857143
 20
8.958571428571428
 30
0.0
 11
35.03571428571429
 21
8.894285714285715
 31
0.0
  0
LINE
  5
3BE
330
18
100
AcDbEntity
  8
Object
100
AcDbLine
 10
35.03571428571429
 20
8.894285714285715
 30
0.0
 11
34.93571428571428
 21
8.824285714285714
 31
0.0
  0
LINE
  5
3BF
330
18
100
AcDbEntity
  8
Object
100
AcDbLine
 10
34.93571428571428
 20
8.824285714285714
 30
0.0
 11
34.84142857142857
 21
8.748571428571429
 31
0.0
  0
LINE
  5
3C0
330
18
100
AcDbEntity
  8
Object
100
AcDbLine
 10
34.84142857142857
 20
8.748571428571429
 30
0.0
 11
34.75285714285714
 21
8.665714285714285
 31
0.0
  0
LINE
  5
3C1
330
18
100
AcDbEntity
  8
Object
100
AcDbLine
 10
34.75285714285714
 20
8.665714285714285
 30
0.0
 11
34.66857142857143
 21
8.578571428571429
 31
0.0
  0
LINE
  5
3C2
330
18
100
AcDbEntity
  8
Object
100
AcDbLine
 10
34.66857142857143
 20
8.578571428571429
 30
0.0
 11
34.59142857142857
 21
8.484285714285714
 31
0.0
  0
LINE
  5
3C3
330
18
100
AcDbEntity
  8
Object
100
AcDbLine
 10
34.59142857142857
 20
8.484285714285714
 30
0.0
 11
34.51857142857143
 21
8.387142857142857
 31
0.0
  0
LINE
  5
3C4
330
18
100
AcDbEntity
  8
Object
100
AcDbLine
 10
34.51857142857143
 20
8.387142857142857
 30
0.0
 11
34.45428571428572
 21
8.285714285714286
 31
0.0
  0
LINE
  5
3C5
330
18
100
AcDbEntity
  8
Object
100
AcDbLine
 10
34.39571428571428
 20
8.179999999999999
 30
0.0
 11
34.45428571428572
 21
8.284285714285713
 31
0.0
  0
LINE
  5
3C6
330
18
100
AcDbEntity
  8
Object
100
AcDbLine
 10
34.3
 20
7.957142857142857
 30
0.0
 11
34.34428571428571
 21
8.068571428571429
 31
0.0
  0
LINE
  5
3C7
330
18
100
AcDbEntity
  8
Object
100
AcDbLine
 10
34.26285714285715
 20
7.841428571428571
 30
0.0
 11
34.3
 21
7.954285714285714
 31
0.0
  0
LINE
  5
3C8
330
18
100
AcDbEntity
  8
Object
100
AcDbLine
 10
34.26285714285715
 20
7.838571428571428
 30
0.0
 11
34.23428571428571
 21
7.721428571428571
 31
0.0
  0
LINE
  5
3C9
330
18
100
AcDbEntity
  8
Object
100
AcDbLine
 10
34.23428571428571
 20
7.721428571428571
 30
0.0
 11
34.21285714285715
 21
7.601428571428571
 31
0.0
  0
LINE
  5
3CA
330
18
100
AcDbEntity
  8
Object
100
AcDbLine
 10
34.21285714285715
 20
7.601428571428571
 30
0.0
 11
34.19857142857143
 21
7.481428571428571
 31
0.0
  0
LINE
  5
3CB
330
18
100
AcDbEntity
  8
Object
100
AcDbLine
 10
34.19714285714286
 20
7.471428571428571
 30
0.0
 11
34.2
 21
7.502857142857142
 31
0.0
  0
LINE
  5
3CC
330
18
100
AcDbEntity
  8
Object
100
AcDbLine
 10
34.19285714285714
 20
7.36
 30
0.0
 11
34.19857142857143
 21
7.481428571428571
 31
0.0
  0
LINE
  5
3CD
330
18
100
AcDbEntity
  8
Object
100
AcDbLine
 10
34.19285714285714
 20
7.33
 30
0.0
 11
34.19428571428571
 21
7.391428571428571
 31
0.0
  0
LINE
  5
3CE
330
18
100
AcDbEntity
  8
Object
100
AcDbLine
 10
34.33
 20
8.032857142857142
 30
0.0
 11
34.33285714285715
 21
8.038571428571428
 31
0.0
  0
LINE
  5
3CF
330
18
100
AcDbEntity
  8
Object
100
AcDbLine
 10
34.19285714285714
 20
7.11
 30
0.0
 11
34.19
 21
7.098571428571428
 31
0.0
  0
LINE
  5
3D0
330
18
100
AcDbEntity
  8
Object
100
AcDbLine
 10
34.19
 20
7.098571428571428
 30
0.0
 11
34.18428571428572
 21
7.088571428571428
 31
0.0
  0
LINE
  5
3D1
330
18
100
AcDbEntity
  8
Object
100
AcDbLine
 10
34.18428571428572
 20
7.088571428571428
 30
0.0
 11
34.17428571428572
 21
7.081428571428571
 31
0.0
  0
LINE
  5
3D2
330
18
100
AcDbEntity
  8
Object
100
AcDbLine
 10
34.17428571428572
 20
7.081428571428571
 30
0.0
 11
34.16285714285714
 21
7.08
 31
0.0
  0
LINE
  5
3D3
330
18
100
AcDbEntity
  8
Object
100
AcDbLine
 10
34.19285714285714
 20
7.33
 30
0.0
 11
34.19714285714286
 21
7.33
 31
0.0
  0
LINE
  5
3D4
330
18
100
AcDbEntity
  8
Object
100
AcDbLine
 10
34.19714285714286
 20
7.33
 30
0.0
 11
34.19714285714286
 21
7.299999999999999
 31
0.0
  0
LINE
  5
3D5
330
18
100
AcDbEntity
  8
Object
100
AcDbLine
 10
34.19714285714286
 20
7.299999999999999
 30
0.0
 11
34.19285714285714
 21
7.299999999999999
 31
0.0
  0
LINE
  5
3D6
330
18
100
AcDbEntity
  8
Object
100
AcDbLine
 10
34.19714285714286
 20
7.295714285714285
 30
0.0
 11
34.19714285714286
 21
7.299999999999999
 31
0.0
  0
LINE
  5
3D7
330
18
100
AcDbEntity
  8
Object
100
AcDbLine
 10
34.19714285714286
 20
7.265714285714286
 30
0.0
 11
34.19714285714286
 21
7.284285714285714
 31
0.0
  0
LINE
  5
3D8
330
18
100
AcDbEntity
  8
Object
100
AcDbLine
 10
34.19714285714286
 20
7.219999999999999
 30
0.0
 11
34.19714285714286
 21
7.244285714285714
 31
0.0
  0
LINE
  5
3D9
330
18
100
AcDbEntity
  8
Object
100
AcDbLine
 10
34.19714285714286
 20
7.244285714285714
 30
0.0
 11
34.19714285714286
 21
7.265714285714286
 31
0.0
  0
LINE
  5
3DA
330
18
100
AcDbEntity
  8
Object
100
AcDbLine
 10
34.19714285714286
 20
7.284285714285714
 30
0.0
 11
34.19714285714286
 21
7.295714285714285
 31
0.0
  0
LINE
  5
3DB
330
18
100
AcDbEntity
  8
Object
100
AcDbLine
 10
34.18428571428572
 20
7.088571428571428
 30
0.0
 11
34.18285714285715
 21
7.087142857142857
 31
0.0
  0
LINE
  5
3DC
330
18
100
AcDbEntity
  8
Object
100
AcDbLine
 10
34.18285714285715
 20
7.087142857142857
 30
0.0
 11
34.17428571428572
 21
7.081428571428571
 31
0.0
  0
LINE
  5
3DD
330
18
100
AcDbEntity
  8
Object
100
AcDbLine
 10
34.16285714285714
 20
7.08
 30
0.0
 11
34.17
 21
7.08
 31
0.0
  0
LINE
  5
3DE
330
18
100
AcDbEntity
  8
Object
100
AcDbLine
 10
34.17
 20
7.08
 30
0.0
 11
34.17428571428572
 21
7.081428571428571
 31
0.0
  0
LINE
  5
3DF
330
18
100
AcDbEntity
  8
Object
100
AcDbLine
 10
34.21285714285715
 20
7.599999999999999
 30
0.0
 11
35.79714285714286
 21
9.182857142857143
 31
0.0
  0
LINE
  5
3E0
330
18
100
AcDbEntity
  8
Object
100
AcDbLine
 10
35.05142857142857
 20
8.904285714285714
 30
0.0
 11
35.04285714285714
 21
8.898571428571427
 31
0.0
  0
LINE
  5
3E1
330
18
100
AcDbEntity
  8
Object
100
AcDbLine
 10
35.17428571428572
 20
8.977142857142856
 30
0.0
 11
35.13142857142857
 21
8.952857142857142
 31
0.0
  0
LINE
  5
3E2
330
18
100
AcDbEntity
  8
Object
100
AcDbLine
 10
34.33428571428571
 20
8.044285714285713
 30
0.0
 11
34.32571428571428
 21
8.024285714285714
 31
0.0
  0
LINE
  5
3E3
330
18
100
AcDbEntity
  8
Object
100
AcDbLine
 10
35.36571428571428
 20
9.067142857142856
 30
0.0
 11
35.35142857142857
 21
9.061428571428571
 31
0.0
  0
LINE
  5
3E4
330
18
100
AcDbEntity
  8
Object
100
AcDbLine
 10
34.31857142857143
 20
8.004285714285714
 30
0.0
 11
34.31714285714285
 21
8.0
 31
0.0
  0
LINE
  5
3E5
330
18
100
AcDbEntity
  8
Object
100
AcDbLine
 10
35.50714285714286
 20
9.117142857142857
 30
0.0
 11
35.45
 21
9.098571428571428
 31
0.0
  0
LINE
  5
3E6
330
18
100
AcDbEntity
  8
Object
100
AcDbLine
 10
35.54857142857143
 20
9.13
 30
0.0
 11
35.58857142857143
 21
9.141428571428571
 31
0.0
  0
LINE
  5
3E7
330
18
100
AcDbEntity
  8
Object
100
AcDbLine
 10
35.58857142857143
 20
9.141428571428571
 30
0.0
 11
35.60857142857143
 21
9.145714285714285
 31
0.0
  0
LINE
  5
3E8
330
18
100
AcDbEntity
  8
Object
100
AcDbLine
 10
35.71571428571429
 20
9.169999999999999
 30
0.0
 11
35.69
 21
9.164285714285714
 31
0.0
  0
LINE
  5
3E9
330
18
100
AcDbEntity
  8
Object
100
AcDbLine
 10
34.21285714285715
 20
7.599999999999999
 30
0.0
 11
35.79714285714286
 21
9.182857142857143
 31
0.0
  0
LINE
  5
3EA
330
18
100
AcDbEntity
  8
Object
100
AcDbLine
 10
34.19714285714286
 20
7.33
 30
0.0
 11
34.19285714285714
 21
7.33
 31
0.0
  0
LINE
  5
3EB
330
18
100
AcDbEntity
  8
Object
100
AcDbLine
 10
36.06714285714286
 20
9.204285714285713
 30
0.0
 11
38.06714285714285
 21
9.238571428571429
 31
0.0
  0
LINE
  5
3EC
330
18
100
AcDbEntity
  8
Object
100
AcDbLine
 10
35.07428571428572
 20
13.02142857142857
 30
0.0
 11
35.06
 21
13.02285714285714
 31
0.0
  0
LINE
  5
3ED
330
18
100
AcDbEntity
  8
Object
100
AcDbLine
 10
35.06
 20
13.02285714285714
 30
0.0
 11
34.97285714285715
 21
13.02428571428571
 31
0.0
  0
LINE
  5
3EE
330
18
100
AcDbEntity
  8
Object
100
AcDbLine
 10
34.97285714285715
 20
13.02428571428571
 30
0.0
 11
34.88857142857143
 21
13.02571428571428
 31
0.0
  0
LINE
  5
3EF
330
18
100
AcDbEntity
  8
Object
100
AcDbLine
 10
34.88857142857143
 20
13.02571428571428
 30
0.0
 11
34.80714285714286
 21
13.02714285714286
 31
0.0
  0
LINE
  5
3F0
330
18
100
AcDbEntity
  8
Object
100
AcDbLine
 10
34.80714285714286
 20
13.02714285714286
 30
0.0
 11
34.72857142857143
 21
13.02857142857143
 31
0.0
  0
LINE
  5
3F1
330
18
100
AcDbEntity
  8
Object
100
AcDbLine
 10
34.72857142857143
 20
13.02857142857143
 30
0.0
 11
34.65285714285715
 21
13.03
 31
0.0
  0
LINE
  5
3F2
330
18
100
AcDbEntity
  8
Object
100
AcDbLine
 10
34.65285714285715
 20
13.03
 30
0.0
 11
34.62857142857143
 21
13.03
 31
0.0
  0
LINE
  5
3F3
330
18
100
AcDbEntity
  8
Object
100
AcDbLine
 10
34.42714285714286
 20
13.03285714285714
 30
0.0
 11
34.39428571428571
 21
13.03428571428571
 31
0.0
  0
LINE
  5
3F4
330
18
100
AcDbEntity
  8
Object
100
AcDbLine
 10
34.39428571428571
 20
13.03428571428571
 30
0.0
 11
34.37714285714286
 21
13.03428571428571
 31
0.0
  0
LINE
  5
3F5
330
18
100
AcDbEntity
  8
Object
100
AcDbLine
 10
34.17428571428572
 20
13.03714285714286
 30
0.0
 11
34.14428571428572
 21
13.03857142857143
 31
0.0
  0
LINE
  5
3F6
330
18
100
AcDbEntity
  8
Object
100
AcDbLine
 10
34.14428571428572
 20
13.03857142857143
 30
0.0
 11
34.12
 21
13.03857142857143
 31
0.0
  0
LINE
  5
3F7
330
18
100
AcDbEntity
  8
Object
100
AcDbLine
 10
34.12
 20
13.03857142857143
 30
0.0
 11
34.11428571428571
 21
13.03857142857143
 31
0.0
  0
LINE
  5
3F8
330
18
100
AcDbEntity
  8
Object
100
AcDbLine
 10
34.07714285714286
 20
13.03857142857143
 30
0.0
 11
34.07571428571428
 21
13.04
 31
0.0
  0
LINE
  5
3F9
330
18
100
AcDbEntity
  8
Object
100
AcDbLine
 10
34.07571428571428
 20
13.04
 30
0.0
 11
34.07
 21
13.04
 31
0.0
  0
LINE
  5
3FA
330
18
100
AcDbEntity
  8
Object
100
AcDbLine
 10
34.07
 20
13.04
 30
0.0
 11
34.06714285714286
 21
13.04
 31
0.0
  0
LINE
  5
3FB
330
18
100
AcDbEntity
  8
Object
100
AcDbLine
 10
38.06714285714285
 20
12.97
 30
0.0
 11
38.06714285714285
 21
9.662857142857143
 31
0.0
  0
LINE
  5
3FC
330
18
100
AcDbEntity
  8
Object
100
AcDbLine
 10
38.06714285714285
 20
9.662857142857143
 30
0.0
 11
36.06714285714286
 21
9.66
 31
0.0
  0
LINE
  5
3FD
330
18
100
AcDbEntity
  8
Object
100
AcDbLine
 10
38.06714285714285
 20
12.97
 30
0.0
 11
36.06714285714286
 21
13.00428571428571
 31
0.0
  0
LINE
  5
3FE
330
18
100
AcDbEntity
  8
Object
100
AcDbLine
 10
34.06714285714286
 20
9.395714285714285
 30
0.0
 11
34.06714285714286
 21
13.04
 31
0.0
  0
LINE
  5
3FF
330
18
100
AcDbEntity
  8
Object
100
AcDbLine
 10
34.06714285714286
 20
13.04
 30
0.0
 11
34.16285714285714
 21
13.03714285714286
 31
0.0
  0
LINE
  5
400
330
18
100
AcDbEntity
  8
Object
100
AcDbLine
 10
34.16285714285714
 20
13.03714285714286
 30
0.0
 11
34.16285714285714
 21
9.395714285714285
 31
0.0
  0
LINE
  5
401
330
18
100
AcDbEntity
  8
Object
100
AcDbLine
 10
34.16285714285714
 20
9.395714285714285
 30
0.0
 11
34.06714285714286
 21
9.395714285714285
 31
0.0
  0
LINE
  5
402
330
18
100
AcDbEntity
  8
Object
100
AcDbLine
 10
34.06714285714286
 20
7.094285714285714
 30
0.0
 11
34.06714285714286
 21
7.082857142857142
 31
0.0
  0
LINE
  5
403
330
18
100
AcDbEntity
  8
Object
100
AcDbLine
 10
34.06714285714286
 20
7.139999999999999
 30
0.0
 11
34.06714285714286
 21
7.114285714285713
 31
0.0
  0
LINE
  5
404
330
18
100
AcDbEntity
  8
Object
100
AcDbLine
 10
34.06714285714286
 20
7.265714285714286
 30
0.0
 11
34.06714285714286
 21
7.217142857142857
 31
0.0
  0
LINE
  5
405
330
18
100
AcDbEntity
  8
Object
100
AcDbLine
 10
34.06714285714286
 20
7.384285714285714
 30
0.0
 11
34.06714285714286
 21
7.321428571428571
 31
0.0
  0
LINE
  5
406
330
18
100
AcDbEntity
  8
Object
100
AcDbLine
 10
34.06714285714286
 20
7.53
 30
0.0
 11
34.06714285714286
 21
7.454285714285714
 31
0.0
  0
LINE
  5
407
330
18
100
AcDbEntity
  8
Object
100
AcDbLine
 10
34.06714285714286
 20
7.701428571428571
 30
0.0
 11
34.06714285714286
 21
7.612857142857142
 31
0.0
  0
LINE
  5
408
330
18
100
AcDbEntity
  8
Object
100
AcDbLine
 10
34.06714285714286
 20
8.00142857142857
 30
0.0
 11
34.06714285714286
 21
7.895714285714285
 31
0.0
  0
LINE
  5
409
330
18
100
AcDbEntity
  8
Object
100
AcDbLine
 10
34.06714285714286
 20
8.225714285714285
 30
0.0
 11
34.06714285714286
 21
8.111428571428572
 31
0.0
  0
LINE
  5
40A
330
18
100
AcDbEntity
  8
Object
100
AcDbLine
 10
34.06714285714286
 20
8.465714285714286
 30
0.0
 11
34.06714285714286
 21
8.344285714285714
 31
0.0
  0
LINE
  5
40B
330
18
100
AcDbEntity
  8
Object
100
AcDbLine
 10
34.06714285714286
 20
8.721428571428571
 30
0.0
 11
34.06714285714286
 21
8.59142857142857
 31
0.0
  0
LINE
  5
40C
330
18
100
AcDbEntity
  8
Object
100
AcDbLine
 10
34.06714285714286
 20
8.985714285714285
 30
0.0
 11
34.06714285714286
 21
8.85142857142857
 31
0.0
  0
LINE
  5
40D
330
18
100
AcDbEntity
  8
Object
100
AcDbLine
 10
34.06714285714286
 20
9.258571428571428
 30
0.0
 11
34.06714285714286
 21
9.121428571428571
 31
0.0
  0
LINE
  5
40E
330
18
100
AcDbEntity
  8
Object
100
AcDbLine
 10
34.06714285714286
 20
13.04
 30
0.0
 11
34.06714285714286
 21
9.395714285714285
 31
0.0
  0
LINE
  5
40F
330
18
100
AcDbEntity
  8
Object
100
AcDbLine
 10
34.06714285714286
 20
9.395714285714285
 30
0.0
 11
34.06714285714286
 21
9.258571428571428
 31
0.0
  0
LINE
  5
410
330
18
100
AcDbEntity
  8
Object
100
AcDbLine
 10
34.06714285714286
 20
9.121428571428571
 30
0.0
 11
34.06714285714286
 21
8.985714285714285
 31
0.0
  0
LINE
  5
411
330
18
100
AcDbEntity
  8
Object
100
AcDbLine
 10
34.06714285714286
 20
8.85142857142857
 30
0.0
 11
34.06714285714286
 21
8.721428571428571
 31
0.0
  0
LINE
  5
412
330
18
100
AcDbEntity
  8
Object
100
AcDbLine
 10
34.06714285714286
 20
8.59142857142857
 30
0.0
 11
34.06714285714286
 21
8.465714285714286
 31
0.0
  0
LINE
  5
413
330
18
100
AcDbEntity
  8
Object
100
AcDbLine
 10
34.06714285714286
 20
8.344285714285714
 30
0.0
 11
34.06714285714286
 21
8.225714285714285
 31
0.0
  0
LINE
  5
414
330
18
100
AcDbEntity
  8
Object
100
AcDbLine
 10
34.06714285714286
 20
8.111428571428572
 30
0.0
 11
34.06714285714286
 21
8.00142857142857
 31
0.0
  0
LINE
  5
415
330
18
100
AcDbEntity
  8
Object
100
AcDbLine
 10
34.06714285714286
 20
7.895714285714285
 30
0.0
 11
34.06714285714286
 21
7.795714285714285
 31
0.0
  0
LINE
  5
416
330
18
100
AcDbEntity
  8
Object
100
AcDbLine
 10
34.06714285714286
 20
7.795714285714285
 30
0.0
 11
34.06714285714286
 21
7.701428571428571
 31
0.0
  0
LINE
  5
417
330
18
100
AcDbEntity
  8
Object
100
AcDbLine
 10
34.06714285714286
 20
7.612857142857142
 30
0.0
 11
34.06714285714286
 21
7.53
 31
0.0
  0
LINE
  5
418
330
18
100
AcDbEntity
  8
Object
100
AcDbLine
 10
34.06714285714286
 20
7.454285714285714
 30
0.0
 11
34.06714285714286
 21
7.384285714285714
 31
0.0
  0
LINE
  5
419
330
18
100
AcDbEntity
  8
Object
100
AcDbLine
 10
34.06714285714286
 20
7.321428571428571
 30
0.0
 11
34.06714285714286
 21
7.265714285714286
 31
0.0
  0
LINE
  5
41A
330
18
100
AcDbEntity
  8
Object
100
AcDbLine
 10
34.06714285714286
 20
7.217142857142857
 30
0.0
 11
34.06714285714286
 21
7.174285714285714
 31
0.0
  0
LINE
  5
41B
330
18
100
AcDbEntity
  8
Object
100
AcDbLine
 10
34.06714285714286
 20
7.174285714285714
 30
0.0
 11
34.06714285714286
 21
7.139999999999999
 31
0.0
  0
LINE
  5
41C
330
18
100
AcDbEntity
  8
Object
100
AcDbLine
 10
34.06714285714286
 20
7.114285714285713
 30
0.0
 11
34.06714285714286
 21
7.094285714285714
 31
0.0
  0
LINE
  5
41D
330
18
100
AcDbEntity
  8
Object
100
AcDbLine
 10
34.06714285714286
 20
7.082857142857142
 30
0.0
 11
34.06714285714286
 21
7.08
 31
0.0
  0
LINE
  5
41E
330
18
100
AcDbEntity
  8
Object
100
AcDbLine
 10
38.06714285714285
 20
9.325714285714285
 30
0.0
 11
38.06714285714285
 21
9.361428571428572
 31
0.0
  0
LINE
  5
41F
330
18
100
AcDbEntity
  8
Object
100
AcDbLine
 10
38.06714285714285
 20
9.238571428571429
 30
0.0
 11
38.06714285714285
 21
9.242857142857141
 31
0.0
  0
LINE
  5
420
330
18
100
AcDbEntity
  8
Object
100
AcDbLine
 10
38.06714285714285
 20
9.551428571428571
 30
0.0
 11
38.06714285714285
 21
9.605714285714284
 31
0.0
  0
LINE
  5
421
330
18
100
AcDbEntity
  8
Object
100
AcDbLine
 10
38.06714285714285
 20
9.448571428571428
 30
0.0
 11
38.06714285714285
 21
9.498571428571429
 31
0.0
  0
LINE
  5
422
330
18
100
AcDbEntity
  8
Object
100
AcDbLine
 10
38.06714285714285
 20
9.271428571428572
 30
0.0
 11
38.06714285714285
 21
9.295714285714286
 31
0.0
  0
LINE
  5
423
330
18
100
AcDbEntity
  8
Object
100
AcDbLine
 10
38.06714285714285
 20
9.242857142857141
 30
0.0
 11
38.06714285714285
 21
9.252857142857143
 31
0.0
  0
LINE
  5
424
330
18
100
AcDbEntity
  8
Object
100
AcDbLine
 10
38.06714285714285
 20
9.252857142857143
 30
0.0
 11
38.06714285714285
 21
9.271428571428572
 31
0.0
  0
LINE
  5
425
330
18
100
AcDbEntity
  8
Object
100
AcDbLine
 10
38.06714285714285
 20
9.295714285714286
 30
0.0
 11
38.06714285714285
 21
9.325714285714285
 31
0.0
  0
LINE
  5
426
330
18
100
AcDbEntity
  8
Object
100
AcDbLine
 10
38.06714285714285
 20
9.361428571428572
 30
0.0
 11
38.06714285714285
 21
9.402857142857142
 31
0.0
  0
LINE
  5
427
330
18
100
AcDbEntity
  8
Object
100
AcDbLine
 10
38.06714285714285
 20
9.402857142857142
 30
0.0
 11
38.06714285714285
 21
9.448571428571428
 31
0.0
  0
LINE
  5
428
330
18
100
AcDbEntity
  8
Object
100
AcDbLine
 10
38.06714285714285
 20
9.498571428571429
 30
0.0
 11
38.06714285714285
 21
9.551428571428571
 31
0.0
  0
LINE
  5
429
330
18
100
AcDbEntity
  8
Object
100
AcDbLine
 10
38.06714285714285
 20
9.605714285714284
 30
0.0
 11
38.06714285714285
 21
9.662857142857143
 31
0.0
  0
LINE
  5
42A
330
18
100
AcDbEntity
  8
Object
100
AcDbLine
 10
38.06714285714285
 20
9.662857142857143
 30
0.0
 11
38.06714285714285
 21
12.97
 31
0.0
  0
LINE
  5
42B
330
18
100
AcDbEntity
  8
Object
100
AcDbLine
 10
34.21142857142857
 20
13.03714285714286
 30
0.0
 11
35.79857142857143
 21
13.01
 31
0.0
  0
LINE
  5
42C
330
18
100
AcDbEntity
  8
Object
100
AcDbLine
 10
35.79857142857143
 20
13.01
 30
0.0
 11
35.79857142857143
 21
12.96714285714285
 31
0.0
  0
LINE
  5
42D
330
18
100
AcDbEntity
  8
Object
100
AcDbLine
 10
35.79857142857143
 20
12.96714285714285
 30
0.0
 11
34.21142857142857
 21
12.94
 31
0.0
  0
LINE
  5
42E
330
18
100
AcDbEntity
  8
Object
100
AcDbLine
 10
34.16285714285714
 20
9.258571428571428
 30
0.0
 11
34.16285714285714
 21
9.395714285714285
 31
0.0
  0
LINE
  5
42F
330
18
100
AcDbEntity
  8
Object
100
AcDbLine
 10
34.06714285714286
 20
9.395714285714285
 30
0.0
 11
34.06714285714286
 21
9.258571428571428
 31
0.0
  0
LINE
  5
430
330
18
100
AcDbEntity
  8
Object
100
AcDbLine
 10
34.06714285714286
 20
9.258571428571428
 30
0.0
 11
34.06714285714286
 21
9.121428571428571
 31
0.0
  0
LINE
  5
431
330
18
100
AcDbEntity
  8
Object
100
AcDbLine
 10
34.16285714285714
 20
9.121428571428571
 30
0.0
 11
34.16285714285714
 21
9.258571428571428
 31
0.0
  0
LINE
  5
432
330
18
100
AcDbEntity
  8
Object
100
AcDbLine
 10
34.16285714285714
 20
8.59142857142857
 30
0.0
 11
34.16285714285714
 21
8.721428571428571
 31
0.0
  0
LINE
  5
433
330
18
100
AcDbEntity
  8
Object
100
AcDbLine
 10
34.06714285714286
 20
8.721428571428571
 30
0.0
 11
34.06714285714286
 21
8.59142857142857
 31
0.0
  0
LINE
  5
434
330
18
100
AcDbEntity
  8
Object
100
AcDbLine
 10
34.16285714285714
 20
8.85142857142857
 30
0.0
 11
34.16285714285714
 21
8.985714285714285
 31
0.0
  0
LINE
  5
435
330
18
100
AcDbEntity
  8
Object
100
AcDbLine
 10
34.06714285714286
 20
8.85142857142857
 30
0.0
 11
34.06714285714286
 21
8.985714285714285
 31
0.0
  0
LINE
  5
436
330
18
100
AcDbEntity
  8
Object
100
AcDbLine
 10
34.06714285714286
 20
8.985714285714285
 30
0.0
 11
34.06714285714286
 21
9.121428571428571
 31
0.0
  0
LINE
  5
437
330
18
100
AcDbEntity
  8
Object
100
AcDbLine
 10
34.16285714285714
 20
8.985714285714285
 30
0.0
 11
34.16285714285714
 21
9.121428571428571
 31
0.0
  0
LINE
  5
438
330
18
100
AcDbEntity
  8
Object
100
AcDbLine
 10
34.06714285714286
 20
8.85142857142857
 30
0.0
 11
34.06714285714286
 21
8.721428571428571
 31
0.0
  0
LINE
  5
439
330
18
100
AcDbEntity
  8
Object
100
AcDbLine
 10
34.16285714285714
 20
8.721428571428571
 30
0.0
 11
34.16285714285714
 21
8.85142857142857
 31
0.0
  0
LINE
  5
43A
330
18
100
AcDbEntity
  8
Object
100
AcDbLine
 10
34.06714285714286
 20
8.59142857142857
 30
0.0
 11
34.06714285714286
 21
8.465714285714286
 31
0.0
  0
LINE
  5
43B
330
18
100
AcDbEntity
  8
Object
100
AcDbLine
 10
34.16285714285714
 20
8.465714285714286
 30
0.0
 11
34.16285714285714
 21
8.59142857142857
 31
0.0
  0
LINE
  5
43C
330
18
100
AcDbEntity
  8
Object
100
AcDbLine
 10
34.16285714285714
 20
7.895714285714285
 30
0.0
 11
34.16285714285714
 21
8.00142857142857
 31
0.0
  0
LINE
  5
43D
330
18
100
AcDbEntity
  8
Object
100
AcDbLine
 10
34.06714285714286
 20
8.00142857142857
 30
0.0
 11
34.06714285714286
 21
7.895714285714285
 31
0.0
  0
LINE
  5
43E
330
18
100
AcDbEntity
  8
Object
100
AcDbLine
 10
34.16285714285714
 20
8.111428571428572
 30
0.0
 11
34.16285714285714
 21
8.225714285714285
 31
0.0
  0
LINE
  5
43F
330
18
100
AcDbEntity
  8
Object
100
AcDbLine
 10
34.06714285714286
 20
8.225714285714285
 30
0.0
 11
34.06714285714286
 21
8.111428571428572
 31
0.0
  0
LINE
  5
440
330
18
100
AcDbEntity
  8
Object
100
AcDbLine
 10
34.16285714285714
 20
8.344285714285714
 30
0.0
 11
34.16285714285714
 21
8.465714285714286
 31
0.0
  0
LINE
  5
441
330
18
100
AcDbEntity
  8
Object
100
AcDbLine
 10
34.06714285714286
 20
8.465714285714286
 30
0.0
 11
34.06714285714286
 21
8.344285714285714
 31
0.0
  0
LINE
  5
442
330
18
100
AcDbEntity
  8
Object
100
AcDbLine
 10
34.06714285714286
 20
8.344285714285714
 30
0.0
 11
34.06714285714286
 21
8.225714285714285
 31
0.0
  0
LINE
  5
443
330
18
100
AcDbEntity
  8
Object
100
AcDbLine
 10
34.16285714285714
 20
8.225714285714285
 30
0.0
 11
34.16285714285714
 21
8.344285714285714
 31
0.0
  0
LINE
  5
444
330
18
100
AcDbEntity
  8
Object
100
AcDbLine
 10
34.06714285714286
 20
8.111428571428572
 30
0.0
 11
34.06714285714286
 21
8.00142857142857
 31
0.0
  0
LINE
  5
445
330
18
100
AcDbEntity
  8
Object
100
AcDbLine
 10
34.16285714285714
 20
8.00142857142857
 30
0.0
 11
34.16285714285714
 21
8.111428571428572
 31
0.0
  0
LINE
  5
446
330
18
100
AcDbEntity
  8
Object
100
AcDbLine
 10
34.16285714285714
 20
7.795714285714285
 30
0.0
 11
34.16285714285714
 21
7.895714285714285
 31
0.0
  0
LINE
  5
447
330
18
100
AcDbEntity
  8
Object
100
AcDbLine
 10
34.06714285714286
 20
7.895714285714285
 30
0.0
 11
34.06714285714286
 21
7.795714285714285
 31
0.0
  0
LINE
  5
448
330
18
100
AcDbEntity
  8
Object
100
AcDbLine
 10
34.16285714285714
 20
7.174285714285714
 30
0.0
 11
34.16285714285714
 21
7.217142857142857
 31
0.0
  0
LINE
  5
449
330
18
100
AcDbEntity
  8
Object
100
AcDbLine
 10
34.06714285714286
 20
7.217142857142857
 30
0.0
 11
34.06714285714286
 21
7.174285714285714
 31
0.0
  0
LINE
  5
44A
330
18
100
AcDbEntity
  8
Object
100
AcDbLine
 10
34.16285714285714
 20
7.265714285714286
 30
0.0
 11
34.16285714285714
 21
7.321428571428571
 31
0.0
  0
LINE
  5
44B
330
18
100
AcDbEntity
  8
Object
100
AcDbLine
 10
34.06714285714286
 20
7.321428571428571
 30
0.0
 11
34.06714285714286
 21
7.265714285714286
 31
0.0
  0
LINE
  5
44C
330
18
100
AcDbEntity
  8
Object
100
AcDbLine
 10
34.16285714285714
 20
7.384285714285714
 30
0.0
 11
34.16285714285714
 21
7.454285714285714
 31
0.0
  0
LINE
  5
44D
330
18
100
AcDbEntity
  8
Object
100
AcDbLine
 10
34.06714285714286
 20
7.454285714285714
 30
0.0
 11
34.06714285714286
 21
7.384285714285714
 31
0.0
  0
LINE
  5
44E
330
18
100
AcDbEntity
  8
Object
100
AcDbLine
 10
34.16285714285714
 20
7.53
 30
0.0
 11
34.16285714285714
 21
7.612857142857142
 31
0.0
  0
LINE
  5
44F
330
18
100
AcDbEntity
  8
Object
100
AcDbLine
 10
34.06714285714286
 20
7.53
 30
0.0
 11
34.06714285714286
 21
7.612857142857142
 31
0.0
  0
LINE
  5
450
330
18
100
AcDbEntity
  8
Object
100
AcDbLine
 10
34.06714285714286
 20
7.612857142857142
 30
0.0
 11
34.06714285714286
 21
7.701428571428571
 31
0.0
  0
LINE
  5
451
330
18
100
AcDbEntity
  8
Object
100
AcDbLine
 10
34.06714285714286
 20
7.701428571428571
 30
0.0
 11
34.06714285714286
 21
7.795714285714285
 31
0.0
  0
LINE
  5
452
330
18
100
AcDbEntity
  8
Object
100
AcDbLine
 10
34.16285714285714
 20
7.795714285714285
 30
0.0
 11
34.16285714285714
 21
7.701428571428571
 31
0.0
  0
LINE
  5
453
330
18
100
AcDbEntity
  8
Object
100
AcDbLine
 10
34.16285714285714
 20
7.701428571428571
 30
0.0
 11
34.16285714285714
 21
7.612857142857142
 31
0.0
  0
LINE
  5
454
330
18
100
AcDbEntity
  8
Object
100
AcDbLine
 10
34.06714285714286
 20
7.53
 30
0.0
 11
34.06714285714286
 21
7.454285714285714
 31
0.0
  0
LINE
  5
455
330
18
100
AcDbEntity
  8
Object
100
AcDbLine
 10
34.16285714285714
 20
7.454285714285714
 30
0.0
 11
34.16285714285714
 21
7.53
 31
0.0
  0
LINE
  5
456
330
18
100
AcDbEntity
  8
Object
100
AcDbLine
 10
34.06714285714286
 20
7.384285714285714
 30
0.0
 11
34.06714285714286
 21
7.321428571428571
 31
0.0
  0
LINE
  5
457
330
18
100
AcDbEntity
  8
Object
100
AcDbLine
 10
34.16285714285714
 20
7.321428571428571
 30
0.0
 11
34.16285714285714
 21
7.384285714285714
 31
0.0
  0
LINE
  5
458
330
18
100
AcDbEntity
  8
Object
100
AcDbLine
 10
34.06714285714286
 20
7.265714285714286
 30
0.0
 11
34.06714285714286
 21
7.217142857142857
 31
0.0
  0
LINE
  5
459
330
18
100
AcDbEntity
  8
Object
100
AcDbLine
 10
34.16285714285714
 20
7.217142857142857
 30
0.0
 11
34.16285714285714
 21
7.265714285714286
 31
0.0
  0
LINE
  5
45A
330
18
100
AcDbEntity
  8
Object
100
AcDbLine
 10
34.16285714285714
 20
7.082857142857142
 30
0.0
 11
34.16285714285714
 21
7.094285714285714
 31
0.0
  0
LINE
  5
45B
330
18
100
AcDbEntity
  8
Object
100
AcDbLine
 10
34.06714285714286
 20
7.094285714285714
 30
0.0
 11
34.06714285714286
 21
7.082857142857142
 31
0.0
  0
LINE
  5
45C
330
18
100
AcDbEntity
  8
Object
100
AcDbLine
 10
34.16285714285714
 20
7.114285714285713
 30
0.0
 11
34.16285714285714
 21
7.139999999999999
 31
0.0
  0
LINE
  5
45D
330
18
100
AcDbEntity
  8
Object
100
AcDbLine
 10
34.06714285714286
 20
7.114285714285713
 30
0.0
 11
34.06714285714286
 21
7.139999999999999
 31
0.0
  0
LINE
  5
45E
330
18
100
AcDbEntity
  8
Object
100
AcDbLine
 10
34.06714285714286
 20
7.139999999999999
 30
0.0
 11
34.06714285714286
 21
7.174285714285714
 31
0.0
  0
LINE
  5
45F
330
18
100
AcDbEntity
  8
Object
100
AcDbLine
 10
34.16285714285714
 20
7.139999999999999
 30
0.0
 11
34.16285714285714
 21
7.174285714285714
 31
0.0
  0
LINE
  5
460
330
18
100
AcDbEntity
  8
Object
100
AcDbLine
 10
34.06714285714286
 20
7.114285714285713
 30
0.0
 11
34.06714285714286
 21
7.094285714285714
 31
0.0
  0
LINE
  5
461
330
18
100
AcDbEntity
  8
Object
100
AcDbLine
 10
34.16285714285714
 20
7.094285714285714
 30
0.0
 11
34.16285714285714
 21
7.114285714285713
 31
0.0
  0
LINE
  5
462
330
18
100
AcDbEntity
  8
Object
100
AcDbLine
 10
34.06714285714286
 20
7.082857142857142
 30
0.0
 11
34.06714285714286
 21
7.08
 31
0.0
  0
LINE
  5
463
330
18
100
AcDbEntity
  8
Object
100
AcDbLine
 10
34.16285714285714
 20
7.082857142857142
 30
0.0
 11
34.16285714285714
 21
7.08
 31
0.0
  0
LINE
  5
464
330
18
100
AcDbEntity
  8
Object
100
AcDbLine
 10
34.16285714285714
 20
7.08
 30
0.0
 11
34.06714285714286
 21
7.08
 31
0.0
  0
LINE
  5
465
330
18
100
AcDbEntity
  8
Object
100
AcDbLine
 10
34.19714285714286
 20
7.299999999999999
 30
0.0
 11
34.19714285714286
 21
7.33
 31
0.0
  0
LINE
  5
466
330
18
100
AcDbEntity
  8
Object
100
AcDbLine
 10
35.79857142857143
 20
12.96714285714285
 30
0.0
 11
35.72857142857143
 21
12.96571428571428
 31
0.0
  0
LINE
  5
467
330
18
100
AcDbEntity
  8
Object
100
AcDbLine
 10
35.72857142857143
 20
12.96571428571428
 30
0.0
 11
35.65857142857143
 21
12.96428571428571
 31
0.0
  0
LINE
  5
468
330
18
100
AcDbEntity
  8
Object
100
AcDbLine
 10
35.65857142857143
 20
12.96428571428571
 30
0.0
 11
35.63142857142857
 21
12.96428571428571
 31
0.0
  0
LINE
  5
469
330
18
100
AcDbEntity
  8
Object
100
AcDbLine
 10
35.36714285714286
 20
12.95857142857143
 30
0.0
 11
35.31000000000001
 21
12.95857142857143
 31
0.0
  0
LINE
  5
46A
330
18
100
AcDbEntity
  8
Object
100
AcDbLine
 10
35.31000000000001
 20
12.95857142857143
 30
0.0
 11
35.24142857142857
 21
12.95714285714286
 31
0.0
  0
LINE
  5
46B
330
18
100
AcDbEntity
  8
Object
100
AcDbLine
 10
35.24142857142857
 20
12.95714285714286
 30
0.0
 11
35.17428571428572
 21
12.95571428571429
 31
0.0
  0
LINE
  5
46C
330
18
100
AcDbEntity
  8
Object
100
AcDbLine
 10
35.17428571428572
 20
12.95571428571429
 30
0.0
 11
35.13
 21
12.95571428571429
 31
0.0
  0
LINE
  5
46D
330
18
100
AcDbEntity
  8
Object
100
AcDbLine
 10
35.02857142857144
 20
12.95285714285714
 30
0.0
 11
34.97857142857143
 21
12.95285714285714
 31
0.0
  0
LINE
  5
46E
330
18
100
AcDbEntity
  8
Object
100
AcDbLine
 10
34.97857142857143
 20
12.95285714285714
 30
0.0
 11
34.91714285714286
 21
12.95142857142857
 31
0.0
  0
LINE
  5
46F
330
18
100
AcDbEntity
  8
Object
100
AcDbLine
 10
34.91714285714286
 20
12.95142857142857
 30
0.0
 11
34.87857142857143
 21
12.95142857142857
 31
0.0
  0
LINE
  5
470
330
18
100
AcDbEntity
  8
Object
100
AcDbLine
 10
34.80285714285714
 20
12.95
 30
0.0
 11
34.79857142857143
 21
12.95
 31
0.0
  0
LINE
  5
471
330
18
100
AcDbEntity
  8
Object
100
AcDbLine
 10
34.79857142857143
 20
12.95
 30
0.0
 11
34.74142857142857
 21
12.94857142857143
 31
0.0
  0
LINE
  5
472
330
18
100
AcDbEntity
  8
Object
100
AcDbLine
 10
34.74142857142857
 20
12.94857142857143
 30
0.0
 11
34.71142857142857
 21
12.94857142857143
 31
0.0
  0
LINE
  5
473
330
18
100
AcDbEntity
  8
Object
100
AcDbLine
 10
34.65
 20
12.94714285714286
 30
0.0
 11
34.63714285714285
 21
12.94714285714286
 31
0.0
  0
LINE
  5
474
330
18
100
AcDbEntity
  8
Object
100
AcDbLine
 10
34.63714285714285
 20
12.94714285714286
 30
0.0
 11
34.58714285714286
 21
12.94571428571428
 31
0.0
  0
LINE
  5
475
330
18
100
AcDbEntity
  8
Object
100
AcDbLine
 10
34.58714285714286
 20
12.94571428571428
 30
0.0
 11
34.54428571428572
 21
12.94571428571428
 31
0.0
  0
LINE
  5
476
330
18
100
AcDbEntity
  8
Object
100
AcDbLine
 10
34.53571428571429
 20
12.94428571428571
 30
0.0
 11
34.49714285714286
 21
12.94428571428571
 31
0.0
  0
LINE
  5
477
330
18
100
AcDbEntity
  8
Object
100
AcDbLine
 10
34.49714285714286
 20
12.94428571428571
 30
0.0
 11
34.46142857142857
 21
12.94428571428571
 31
0.0
  0
LINE
  5
478
330
18
100
AcDbEntity
  8
Object
100
AcDbLine
 10
34.45285714285714
 20
12.94285714285714
 30
0.0
 11
34.42
 21
12.94285714285714
 31
0.0
  0
LINE
  5
479
330
18
100
AcDbEntity
  8
Object
100
AcDbLine
 10
34.42
 20
12.94285714285714
 30
0.0
 11
34.38428571428572
 21
12.94285714285714
 31
0.0
  0
LINE
  5
47A
330
18
100
AcDbEntity
  8
Object
100
AcDbLine
 10
34.38428571428572
 20
12.94285714285714
 30
0.0
 11
34.35285714285714
 21
12.94142857142857
 31
0.0
  0
LINE
  5
47B
330
18
100
AcDbEntity
  8
Object
100
AcDbLine
 10
34.35285714285714
 20
12.94142857142857
 30
0.0
 11
34.32428571428572
 21
12.94142857142857
 31
0.0
  0
LINE
  5
47C
330
18
100
AcDbEntity
  8
Object
100
AcDbLine
 10
34.32428571428572
 20
12.94142857142857
 30
0.0
 11
34.29714285714286
 21
12.94142857142857
 31
0.0
  0
LINE
  5
47D
330
18
100
AcDbEntity
  8
Object
100
AcDbLine
 10
34.29714285714286
 20
12.94142857142857
 30
0.0
 11
34.27428571428572
 21
12.94
 31
0.0
  0
LINE
  5
47E
330
18
100
AcDbEntity
  8
Object
100
AcDbLine
 10
34.27428571428572
 20
12.94
 30
0.0
 11
34.25428571428572
 21
12.94
 31
0.0
  0
LINE
  5
47F
330
18
100
AcDbEntity
  8
Object
100
AcDbLine
 10
34.25428571428572
 20
12.94
 30
0.0
 11
34.23714285714286
 21
12.94
 31
0.0
  0
LINE
  5
480
330
18
100
AcDbEntity
  8
Object
100
AcDbLine
 10
34.23714285714286
 20
12.94
 30
0.0
 11
34.22285714285715
 21
12.94
 31
0.0
  0
LINE
  5
481
330
18
100
AcDbEntity
  8
Object
100
AcDbLine
 10
34.22285714285715
 20
12.94
 30
0.0
 11
34.21142857142857
 21
12.94
 31
0.0
  0
LINE
  5
482
330
18
100
AcDbEntity
  8
Object
100
AcDbLine
 10
34.21142857142857
 20
12.94
 30
0.0
 11
35.79857142857143
 21
12.96714285714285
 31
0.0
  0
LINE
  5
483
330
18
100
AcDbEntity
  8
Object
100
AcDbLine
 10
34.19714285714286
 20
7.142857142857143
 30
0.0
 11
34.19714285714286
 21
7.154285714285713
 31
0.0
  0
LINE
  5
484
330
18
100
AcDbEntity
  8
Object
100
AcDbLine
 10
34.19714285714286
 20
7.172857142857142
 30
0.0
 11
34.19714285714286
 21
7.194285714285713
 31
0.0
  0
LINE
  5
485
330
18
100
AcDbEntity
  8
Object
100
AcDbLine
 10
34.19714285714286
 20
7.194285714285713
 30
0.0
 11
34.19714285714286
 21
7.219999999999999
 31
0.0
  0
LINE
  5
486
330
18
100
AcDbEntity
  8
Object
100
AcDbLine
 10
34.19714285714286
 20
7.219999999999999
 30
0.0
 11
34.19714285714286
 21
7.244285714285714
 31
0.0
  0
LINE
  5
487
330
18
100
AcDbEntity
  8
Object
100
AcDbLine
 10
34.19714285714286
 20
7.265714285714286
 30
0.0
 11
34.19714285714286
 21
7.284285714285714
 31
0.0
  0
LINE
  5
488
330
18
100
AcDbEntity
  8
Object
100
AcDbLine
 10
34.19714285714286
 20
7.295714285714285
 30
0.0
 11
34.19714285714286
 21
7.299999999999999
 31
0.0
  0
LINE
  5
489
330
18
100
AcDbEntity
  8
Object
100
AcDbLine
 10
34.19714285714286
 20
7.154285714285713
 30
0.0
 11
34.19714285714286
 21
7.172857142857142
 31
0.0
  0
LINE
  5
48A
330
18
100
AcDbEntity
  8
Object
100
AcDbLine
 10
34.19714285714286
 20
7.139999999999999
 30
0.0
 11
34.19714285714286
 21
7.142857142857143
 31
0.0
  0
LINE
  5
48B
330
18
100
AcDbEntity
  8
Object
100
AcDbLine
 10
34.19714285714286
 20
7.284285714285714
 30
0.0
 11
34.19714285714286
 21
7.295714285714285
 31
0.0
  0
LINE
  5
48C
330
18
100
AcDbEntity
  8
Object
100
AcDbLine
 10
34.19714285714286
 20
7.244285714285714
 30
0.0
 11
34.19714285714286
 21
7.265714285714286
 31
0.0
  0
LINE
  5
48D
330
18
100
AcDbEntity
  8
Object
100
AcDbLine
 10
38.06714285714285
 20
9.551428571428571
 30
0.0
 11
38.06714285714285
 21
9.605714285714284
 31
0.0
  0
LINE
  5
48E
330
18
100
AcDbEntity
  8
Object
100
AcDbLine
 10
38.06714285714285
 20
9.448571428571428
 30
0.0
 11
38.06714285714285
 21
9.498571428571429
 31
0.0
  0
LINE
  5
48F
330
18
100
AcDbEntity
  8
Object
100
AcDbLine
 10
38.06714285714285
 20
9.361428571428572
 30
0.0
 11
38.06714285714285
 21
9.402857142857142
 31
0.0
  0
LINE
  5
490
330
18
100
AcDbEntity
  8
Object
100
AcDbLine
 10
38.06714285714285
 20
9.295714285714286
 30
0.0
 11
38.06714285714285
 21
9.325714285714285
 31
0.0
  0
LINE
  5
491
330
18
100
AcDbEntity
  8
Object
100
AcDbLine
 10
38.06714285714285
 20
9.252857142857143
 30
0.0
 11
38.06714285714285
 21
9.271428571428572
 31
0.0
  0
LINE
  5
492
330
18
100
AcDbEntity
  8
Object
100
AcDbLine
 10
38.06714285714285
 20
9.242857142857141
 30
0.0
 11
38.06714285714285
 21
9.238571428571429
 31
0.0
  0
LINE
  5
493
330
18
100
AcDbEntity
  8
Object
100
AcDbLine
 10
38.06714285714285
 20
9.238571428571429
 30
0.0
 11
36.06714285714286
 21
9.204285714285713
 31
0.0
  0
LINE
  5
494
330
18
100
AcDbEntity
  8
Object
100
AcDbLine
 10
38.06714285714285
 20
9.242857142857141
 30
0.0
 11
38.06714285714285
 21
9.252857142857143
 31
0.0
  0
LINE
  5
495
330
18
100
AcDbEntity
  8
Object
100
AcDbLine
 10
38.06714285714285
 20
9.271428571428572
 30
0.0
 11
38.06714285714285
 21
9.295714285714286
 31
0.0
  0
LINE
  5
496
330
18
100
AcDbEntity
  8
Object
100
AcDbLine
 10
38.06714285714285
 20
9.325714285714285
 30
0.0
 11
38.06714285714285
 21
9.361428571428572
 31
0.0
  0
LINE
  5
497
330
18
100
AcDbEntity
  8
Object
100
AcDbLine
 10
38.06714285714285
 20
9.402857142857142
 30
0.0
 11
38.06714285714285
 21
9.448571428571428
 31
0.0
  0
LINE
  5
498
330
18
100
AcDbEntity
  8
Object
100
AcDbLine
 10
38.06714285714285
 20
9.498571428571429
 30
0.0
 11
38.06714285714285
 21
9.551428571428571
 31
0.0
  0
LINE
  5
499
330
18
100
AcDbEntity
  8
Object
100
AcDbLine
 10
38.06714285714285
 20
9.605714285714284
 30
0.0
 11
38.06714285714285
 21
9.662857142857143
 31
0.0
  0
LINE
  5
49A
330
18
100
AcDbEntity
  8
Object
100
AcDbLine
 10
34.06714285714286
 20
7.08
 30
0.0
 11
34.16285714285714
 21
7.08
 31
0.0
  0
LINE
  5
49B
330
18
100
AcDbEntity
  8
Object
100
AcDbLine
 10
23.20142857142857
 20
13.03714285714286
 30
0.0
 11
23.20142857142857
 21
13.04
 31
0.0
  0
LINE
  5
49C
330
18
100
AcDbEntity
  8
Object
100
AcDbLine
 10
21.53142857142857
 20
13.03
 30
0.0
 11
21.46
 21
13.02857142857143
 31
0.0
  0
LINE
  5
49D
330
18
100
AcDbEntity
  8
Object
100
AcDbLine
 10
21.46
 20
13.02857142857143
 30
0.0
 11
21.39285714285714
 21
13.02714285714286
 31
0.0
  0
LINE
  5
49E
330
18
100
AcDbEntity
  8
Object
100
AcDbLine
 10
5.435714285714285
 20
13.03714285714286
 30
0.0
 11
5.69
 21
9.395714285714285
 31
0.0
  0
LINE
  5
49F
330
18
100
AcDbEntity
  8
Object
100
AcDbLine
 10
22.94571428571428
 20
9.395714285714285
 30
0.0
 11
22.93571428571429
 21
9.288571428571428
 31
0.0
  0
LINE
  5
4A0
330
18
100
AcDbEntity
  8
Object
100
AcDbLine
 10
22.93571428571429
 20
9.288571428571428
 30
0.0
 11
22.93285714285714
 21
9.258571428571428
 31
0.0
  0
LINE
  5
4A1
330
18
100
AcDbEntity
  8
Object
100
AcDbLine
 10
22.93285714285714
 20
9.258571428571428
 30
0.0
 11
22.91571428571429
 21
9.148571428571427
 31
0.0
  0
LINE
  5
4A2
330
18
100
AcDbEntity
  8
Object
100
AcDbLine
 10
22.91571428571429
 20
9.148571428571427
 30
0.0
 11
22.91142857142857
 21
9.121428571428571
 31
0.0
  0
LINE
  5
4A3
330
18
100
AcDbEntity
  8
Object
100
AcDbLine
 10
22.55857142857143
 20
8.225714285714285
 30
0.0
 11
22.48428571428572
 21
8.117142857142857
 31
0.0
  0
LINE
  5
4A4
330
18
100
AcDbEntity
  8
Object
100
AcDbLine
 10
22.48428571428572
 20
8.117142857142857
 30
0.0
 11
22.48
 21
8.111428571428572
 31
0.0
  0
LINE
  5
4A5
330
18
100
AcDbEntity
  8
Object
100
AcDbLine
 10
21.53285714285714
 20
7.321428571428571
 30
0.0
 11
21.52
 21
7.315714285714285
 31
0.0
  0
LINE
  5
4A6
330
18
100
AcDbEntity
  8
Object
100
AcDbLine
 10
21.52
 20
7.315714285714285
 30
0.0
 11
21.40714285714286
 21
7.265714285714286
 31
0.0
  0
LINE
  5
4A7
330
18
100
AcDbEntity
  8
Object
100
AcDbLine
 10
20.87571428571429
 20
7.114285714285713
 30
0.0
 11
20.84857142857143
 21
7.11
 31
0.0
  0
LINE
  5
4A8
330
18
100
AcDbEntity
  8
Object
100
AcDbLine
 10
20.84857142857143
 20
7.11
 30
0.0
 11
20.73857142857143
 21
7.094285714285714
 31
0.0
  0
LINE
  5
4A9
330
18
100
AcDbEntity
  8
Object
100
AcDbLine
 10
22.94571428571428
 20
9.395714285714285
 30
0.0
 11
23.20142857142857
 21
13.03714285714286
 31
0.0
  0
LINE
  5
4AA
330
18
100
AcDbEntity
  8
Object
100
AcDbLine
 10
7.731428571428571
 20
12.97
 30
0.0
 11
7.694285714285713
 21
13.00428571428571
 31
0.0
  0
LINE
  5
4AB
330
18
100
AcDbEntity
  8
Object
100
AcDbLine
 10
7.694285714285713
 20
13.00428571428571
 30
0.0
 11
7.691428571428571
 21
13.00571428571428
 31
0.0
  0
LINE
  5
4AC
330
18
100
AcDbEntity
  8
Object
100
AcDbLine
 10
7.691428571428571
 20
13.00571428571428
 30
0.0
 11
7.685714285714285
 21
13.00714285714286
 31
0.0
  0
LINE
  5
4AD
330
18
100
AcDbEntity
  8
Object
100
AcDbLine
 10
7.685714285714285
 20
13.00714285714286
 30
0.0
 11
7.674285714285714
 21
13.01
 31
0.0
  0
LINE
  5
4AE
330
18
100
AcDbEntity
  8
Object
100
AcDbLine
 10
7.674285714285714
 20
13.01
 30
0.0
 11
7.66
 21
13.01142857142857
 31
0.0
  0
LINE
  5
4AF
330
18
100
AcDbEntity
  8
Object
100
AcDbLine
 10
7.66
 20
13.01142857142857
 30
0.0
 11
7.639999999999999
 21
13.01285714285714
 31
0.0
  0
LINE
  5
4B0
330
18
100
AcDbEntity
  8
Object
100
AcDbLine
 10
7.639999999999999
 20
13.01285714285714
 30
0.0
 11
7.615714285714285
 21
13.01428571428571
 31
0.0
  0
LINE
  5
4B1
330
18
100
AcDbEntity
  8
Object
100
AcDbLine
 10
7.615714285714285
 20
13.01428571428571
 30
0.0
 11
7.585714285714285
 21
13.01571428571428
 31
0.0
  0
LINE
  5
4B2
330
18
100
AcDbEntity
  8
Object
100
AcDbLine
 10
7.585714285714285
 20
13.01571428571428
 30
0.0
 11
7.551428571428571
 21
13.01714285714286
 31
0.0
  0
LINE
  5
4B3
330
18
100
AcDbEntity
  8
Object
100
AcDbLine
 10
7.104285714285714
 20
13.03
 30
0.0
 11
7.03
 21
13.03
 31
0.0
  0
LINE
  5
4B4
330
18
100
AcDbEntity
  8
Object
100
AcDbLine
 10
7.03
 20
13.03
 30
0.0
 11
6.95
 21
13.03142857142857
 31
0.0
  0
LINE
  5
4B5
330
18
100
AcDbEntity
  8
Object
100
AcDbLine
 10
6.95
 20
13.03142857142857
 30
0.0
 11
6.868571428571428
 21
13.03285714285714
 31
0.0
  0
LINE
  5
4B6
330
18
100
AcDbEntity
  8
Object
100
AcDbLine
 10
6.868571428571428
 20
13.03285714285714
 30
0.0
 11
6.784285714285714
 21
13.03428571428571
 31
0.0
  0
LINE
  5
4B7
330
18
100
AcDbEntity
  8
Object
100
AcDbLine
 10
6.784285714285714
 20
13.03428571428571
 30
0.0
 11
6.697142857142857
 21
13.03428571428571
 31
0.0
  0
LINE
  5
4B8
330
18
100
AcDbEntity
  8
Object
100
AcDbLine
 10
6.697142857142857
 20
13.03428571428571
 30
0.0
 11
6.607142857142856
 21
13.03571428571429
 31
0.0
  0
LINE
  5
4B9
330
18
100
AcDbEntity
  8
Object
100
AcDbLine
 10
6.607142857142856
 20
13.03571428571429
 30
0.0
 11
6.517142857142856
 21
13.03571428571429
 31
0.0
  0
LINE
  5
4BA
330
18
100
AcDbEntity
  8
Object
100
AcDbLine
 10
6.517142857142856
 20
13.03571428571429
 30
0.0
 11
6.424285714285714
 21
13.03714285714286
 31
0.0
  0
LINE
  5
4BB
330
18
100
AcDbEntity
  8
Object
100
AcDbLine
 10
6.424285714285714
 20
13.03714285714286
 30
0.0
 11
6.331428571428571
 21
13.03714285714286
 31
0.0
  0
LINE
  5
4BC
330
18
100
AcDbEntity
  8
Object
100
AcDbLine
 10
6.331428571428571
 20
13.03714285714286
 30
0.0
 11
6.238571428571428
 21
13.03857142857143
 31
0.0
  0
LINE
  5
4BD
330
18
100
AcDbEntity
  8
Object
100
AcDbLine
 10
6.238571428571428
 20
13.03857142857143
 30
0.0
 11
6.144285714285714
 21
13.03857142857143
 31
0.0
  0
LINE
  5
4BE
330
18
100
AcDbEntity
  8
Object
100
AcDbLine
 10
6.144285714285714
 20
13.03857142857143
 30
0.0
 11
6.051428571428571
 21
13.03857142857143
 31
0.0
  0
LINE
  5
4BF
330
18
100
AcDbEntity
  8
Object
100
AcDbLine
 10
6.051428571428571
 20
13.03857142857143
 30
0.0
 11
5.958571428571428
 21
13.03857142857143
 31
0.0
  0
LINE
  5
4C0
330
18
100
AcDbEntity
  8
Object
100
AcDbLine
 10
5.435714285714285
 20
13.04
 30
0.0
 11
5.435714285714285
 21
13.03714285714286
 31
0.0
  0
LINE
  5
4C1
330
18
100
AcDbEntity
  8
Object
100
AcDbLine
 10
8.174285714285714
 20
7.08
 30
0.0
 11
8.14
 21
7.08
 31
0.0
  0
LINE
  5
4C2
330
18
100
AcDbEntity
  8
Object
100
AcDbLine
 10
8.14
 20
7.08
 30
0.0
 11
8.035714285714286
 21
7.082857142857142
 31
0.0
  0
LINE
  5
4C3
330
18
100
AcDbEntity
  8
Object
100
AcDbLine
 10
7.898571428571428
 20
7.094285714285714
 30
0.0
 11
7.858571428571428
 21
7.099999999999999
 31
0.0
  0
LINE
  5
4C4
330
18
100
AcDbEntity
  8
Object
100
AcDbLine
 10
7.858571428571428
 20
7.099999999999999
 30
0.0
 11
7.761428571428571
 21
7.114285714285713
 31
0.0
  0
LINE
  5
4C5
330
18
100
AcDbEntity
  8
Object
100
AcDbLine
 10
7.358571428571428
 20
7.217142857142857
 30
0.0
 11
7.312857142857143
 21
7.234285714285713
 31
0.0
  0
LINE
  5
4C6
330
18
100
AcDbEntity
  8
Object
100
AcDbLine
 10
7.312857142857143
 20
7.234285714285713
 30
0.0
 11
7.23
 21
7.265714285714286
 31
0.0
  0
LINE
  5
4C7
330
18
100
AcDbEntity
  8
Object
100
AcDbLine
 10
6.078571428571428
 20
8.225714285714285
 30
0.0
 11
6.037142857142857
 21
8.294285714285713
 31
0.0
  0
LINE
  5
4C8
330
18
100
AcDbEntity
  8
Object
100
AcDbLine
 10
6.037142857142857
 20
8.294285714285713
 30
0.0
 11
6.007142857142857
 21
8.344285714285714
 31
0.0
  0
LINE
  5
4C9
330
18
100
AcDbEntity
  8
Object
100
AcDbLine
 10
5.884285714285714
 20
8.59142857142857
 30
0.0
 11
5.851428571428571
 21
8.674285714285714
 31
0.0
  0
LINE
  5
4CA
330
18
100
AcDbEntity
  8
Object
100
AcDbLine
 10
5.851428571428571
 20
8.674285714285714
 30
0.0
 11
5.832857142857142
 21
8.721428571428571
 31
0.0
  0
LINE
  5
4CB
330
18
100
AcDbEntity
  8
Object
100
AcDbLine
 10
5.832857142857142
 20
8.721428571428571
 30
0.0
 11
5.804285714285714
 21
8.807142857142856
 31
0.0
  0
LINE
  5
4CC
330
18
100
AcDbEntity
  8
Object
100
AcDbLine
 10
5.804285714285714
 20
8.807142857142856
 30
0.0
 11
5.832857142857142
 21
8.721428571428571
 31
0.0
  0
LINE
  5
4CD
330
18
100
AcDbEntity
  8
Object
100
AcDbLine
 10
5.804285714285714
 20
8.807142857142856
 30
0.0
 11
5.79
 21
8.85142857142857
 31
0.0
  0
LINE
  5
4CE
330
18
100
AcDbEntity
  8
Object
100
AcDbLine
 10
5.79
 20
8.85142857142857
 30
0.0
 11
5.804285714285714
 21
8.807142857142856
 31
0.0
  0
LINE
  5
4CF
330
18
100
AcDbEntity
  8
Object
100
AcDbLine
 10
5.79
 20
8.85142857142857
 30
0.0
 11
5.765714285714286
 21
8.941428571428572
 31
0.0
  0
LINE
  5
4D0
330
18
100
AcDbEntity
  8
Object
100
AcDbLine
 10
5.765714285714286
 20
8.941428571428572
 30
0.0
 11
5.754285714285714
 21
8.985714285714285
 31
0.0
  0
LINE
  5
4D1
330
18
100
AcDbEntity
  8
Object
100
AcDbLine
 10
5.754285714285714
 20
8.985714285714285
 30
0.0
 11
5.734285714285713
 21
9.08
 31
0.0
  0
LINE
  5
4D2
330
18
100
AcDbEntity
  8
Object
100
AcDbLine
 10
5.734285714285713
 20
9.08
 30
0.0
 11
5.725714285714285
 21
9.121428571428571
 31
0.0
  0
LINE
  5
4D3
330
18
100
AcDbEntity
  8
Object
100
AcDbLine
 10
5.725714285714285
 20
9.121428571428571
 30
0.0
 11
5.709999999999999
 21
9.218571428571427
 31
0.0
  0
LINE
  5
4D4
330
18
100
AcDbEntity
  8
Object
100
AcDbLine
 10
5.709999999999999
 20
9.218571428571427
 30
0.0
 11
5.704285714285714
 21
9.258571428571428
 31
0.0
  0
LINE
  5
4D5
330
18
100
AcDbEntity
  8
Object
100
AcDbLine
 10
22.86142857142857
 20
13.04
 30
0.0
 11
22.95
 21
13.04
 31
0.0
  0
LINE
  5
4D6
330
18
100
AcDbEntity
  8
Object
100
AcDbLine
 10
22.95
 20
13.04
 30
0.0
 11
22.69857142857143
 21
9.525714285714284
 31
0.0
  0
LINE
  5
4D7
330
18
100
AcDbEntity
  8
Object
100
AcDbLine
 10
22.86142857142857
 20
13.04
 30
0.0
 11
22.77
 21
13.04
 31
0.0
  0
LINE
  5
4D8
330
18
100
AcDbEntity
  8
Object
100
AcDbLine
 10
22.44857142857143
 20
9.542857142857142
 30
0.0
 11
22.57285714285714
 21
9.534285714285713
 31
0.0
  0
LINE
  5
4D9
330
18
100
AcDbEntity
  8
Object
100
AcDbLine
 10
22.77
 20
13.04
 30
0.0
 11
22.67857142857143
 21
13.03857142857143
 31
0.0
  0
LINE
  5
4DA
330
18
100
AcDbEntity
  8
Object
100
AcDbLine
 10
22.49285714285714
 20
13.03857142857143
 30
0.0
 11
22.58571428571428
 21
13.03857142857143
 31
0.0
  0
LINE
  5
4DB
330
18
100
AcDbEntity
  8
Object
100
AcDbLine
 10
22.58571428571428
 20
13.03857142857143
 30
0.0
 11
22.67857142857143
 21
13.03857142857143
 31
0.0
  0
LINE
  5
4DC
330
18
100
AcDbEntity
  8
Object
100
AcDbLine
 10
22.44857142857143
 20
9.542857142857142
 30
0.0
 11
22.32428571428572
 21
9.551428571428571
 31
0.0
  0
LINE
  5
4DD
330
18
100
AcDbEntity
  8
Object
100
AcDbLine
 10
22.32428571428572
 20
9.551428571428571
 30
0.0
 11
22.20285714285714
 21
9.56
 31
0.0
  0
LINE
  5
4DE
330
18
100
AcDbEntity
  8
Object
100
AcDbLine
 10
22.49285714285714
 20
13.03857142857143
 30
0.0
 11
22.39857142857143
 21
13.03857142857143
 31
0.0
  0
LINE
  5
4DF
330
18
100
AcDbEntity
  8
Object
100
AcDbLine
 10
22.39857142857143
 20
13.03857142857143
 30
0.0
 11
22.30571428571428
 21
13.03714285714286
 31
0.0
  0
LINE
  5
4E0
330
18
100
AcDbEntity
  8
Object
100
AcDbLine
 10
22.20285714285714
 20
9.56
 30
0.0
 11
22.08142857142857
 21
9.57
 31
0.0
  0
LINE
  5
4E1
330
18
100
AcDbEntity
  8
Object
100
AcDbLine
 10
22.08142857142857
 20
9.57
 30
0.0
 11
21.96428571428572
 21
9.577142857142856
 31
0.0
  0
LINE
  5
4E2
330
18
100
AcDbEntity
  8
Object
100
AcDbLine
 10
22.12
 20
13.03571428571429
 30
0.0
 11
22.21285714285714
 21
13.03714285714286
 31
0.0
  0
LINE
  5
4E3
330
18
100
AcDbEntity
  8
Object
100
AcDbLine
 10
22.21285714285714
 20
13.03714285714286
 30
0.0
 11
22.30571428571428
 21
13.03714285714286
 31
0.0
  0
LINE
  5
4E4
330
18
100
AcDbEntity
  8
Object
100
AcDbLine
 10
22.12
 20
13.03571428571429
 30
0.0
 11
22.02857142857143
 21
13.03571428571429
 31
0.0
  0
LINE
  5
4E5
330
18
100
AcDbEntity
  8
Object
100
AcDbLine
 10
21.96428571428572
 20
9.577142857142856
 30
0.0
 11
21.84857142857143
 21
9.585714285714285
 31
0.0
  0
LINE
  5
4E6
330
18
100
AcDbEntity
  8
Object
100
AcDbLine
 10
21.84857142857143
 20
9.585714285714285
 30
0.0
 11
21.73714285714286
 21
9.594285714285714
 31
0.0
  0
LINE
  5
4E7
330
18
100
AcDbEntity
  8
Object
100
AcDbLine
 10
22.02857142857143
 20
13.03571428571429
 30
0.0
 11
21.94
 21
13.03428571428571
 31
0.0
  0
LINE
  5
4E8
330
18
100
AcDbEntity
  8
Object
100
AcDbLine
 10
21.94
 20
13.03428571428571
 30
0.0
 11
21.85285714285714
 21
13.03428571428571
 31
0.0
  0
LINE
  5
4E9
330
18
100
AcDbEntity
  8
Object
100
AcDbLine
 10
21.73714285714286
 20
9.594285714285714
 30
0.0
 11
21.63
 21
9.60142857142857
 31
0.0
  0
LINE
  5
4EA
330
18
100
AcDbEntity
  8
Object
100
AcDbLine
 10
21.63
 20
9.60142857142857
 30
0.0
 11
21.52571428571429
 21
9.608571428571428
 31
0.0
  0
LINE
  5
4EB
330
18
100
AcDbEntity
  8
Object
100
AcDbLine
 10
21.68571428571429
 20
13.03142857142857
 30
0.0
 11
21.76857142857143
 21
13.03285714285714
 31
0.0
  0
LINE
  5
4EC
330
18
100
AcDbEntity
  8
Object
100
AcDbLine
 10
21.76857142857143
 20
13.03285714285714
 30
0.0
 11
21.85285714285714
 21
13.03428571428571
 31
0.0
  0
LINE
  5
4ED
330
18
100
AcDbEntity
  8
Object
100
AcDbLine
 10
21.68571428571429
 20
13.03142857142857
 30
0.0
 11
21.60714285714286
 21
13.03
 31
0.0
  0
LINE
  5
4EE
330
18
100
AcDbEntity
  8
Object
100
AcDbLine
 10
21.52571428571429
 20
9.608571428571428
 30
0.0
 11
21.42714285714286
 21
9.615714285714286
 31
0.0
  0
LINE
  5
4EF
330
18
100
AcDbEntity
  8
Object
100
AcDbLine
 10
21.42714285714286
 20
9.615714285714286
 30
0.0
 11
21.33285714285714
 21
9.622857142857142
 31
0.0
  0
LINE
  5
4F0
330
18
100
AcDbEntity
  8
Object
100
AcDbLine
 10
21.60714285714286
 20
13.03
 30
0.0
 11
21.53142857142857
 21
13.03
 31
0.0
  0
LINE
  5
4F1
330
18
100
AcDbEntity
  8
Object
100
AcDbLine
 10
21.33285714285714
 20
9.622857142857142
 30
0.0
 11
21.24428571428571
 21
9.63
 31
0.0
  0
LINE
  5
4F2
330
18
100
AcDbEntity
  8
Object
100
AcDbLine
 10
21.24428571428571
 20
9.63
 30
0.0
 11
21.16142857142857
 21
9.635714285714286
 31
0.0
  0
LINE
  5
4F3
330
18
100
AcDbEntity
  8
Object
100
AcDbLine
 10
21.27142857142857
 20
13.02428571428571
 30
0.0
 11
21.33
 21
13.02571428571428
 31
0.0
  0
LINE
  5
4F4
330
18
100
AcDbEntity
  8
Object
100
AcDbLine
 10
21.33
 20
13.02571428571428
 30
0.0
 11
21.39285714285714
 21
13.02714285714286
 31
0.0
  0
LINE
  5
4F5
330
18
100
AcDbEntity
  8
Object
100
AcDbLine
 10
21.16142857142857
 20
9.635714285714286
 30
0.0
 11
21.08428571428571
 21
9.641428571428571
 31
0.0
  0
LINE
  5
4F6
330
18
100
AcDbEntity
  8
Object
100
AcDbLine
 10
21.08428571428571
 20
9.641428571428571
 30
0.0
 11
21.01428571428572
 21
9.645714285714285
 31
0.0
  0
LINE
  5
4F7
330
18
100
AcDbEntity
  8
Object
100
AcDbLine
 10
21.27142857142857
 20
13.02428571428571
 30
0.0
 11
21.21714285714286
 21
13.02285714285714
 31
0.0
  0
LINE
  5
4F8
330
18
100
AcDbEntity
  8
Object
100
AcDbLine
 10
21.21714285714286
 20
13.02285714285714
 30
0.0
 11
21.16857142857143
 21
13.02
 31
0.0
  0
LINE
  5
4F9
330
18
100
AcDbEntity
  8
Object
100
AcDbLine
 10
21.01428571428572
 20
9.645714285714285
 30
0.0
 11
20.95
 21
9.65
 31
0.0
  0
LINE
  5
4FA
330
18
100
AcDbEntity
  8
Object
100
AcDbLine
 10
20.95
 20
9.65
 30
0.0
 11
20.89285714285714
 21
9.654285714285714
 31
0.0
  0
LINE
  5
4FB
330
18
100
AcDbEntity
  8
Object
100
AcDbLine
 10
21.16857142857143
 20
13.02
 30
0.0
 11
21.12428571428571
 21
13.01857142857143
 31
0.0
  0
LINE
  5
4FC
330
18
100
AcDbEntity
  8
Object
100
AcDbLine
 10
21.05
 20
13.01571428571428
 30
0.0
 11
21.08428571428571
 21
13.01714285714286
 31
0.0
  0
LINE
  5
4FD
330
18
100
AcDbEntity
  8
Object
100
AcDbLine
 10
21.08428571428571
 20
13.01714285714286
 30
0.0
 11
21.12428571428571
 21
13.01857142857143
 31
0.0
  0
LINE
  5
4FE
330
18
100
AcDbEntity
  8
Object
100
AcDbLine
 10
20.89285714285714
 20
9.654285714285714
 30
0.0
 11
20.84285714285714
 21
9.658571428571429
 31
0.0
  0
LINE
  5
4FF
330
18
100
AcDbEntity
  8
Object
100
AcDbLine
 10
20.84285714285714
 20
9.658571428571429
 30
0.0
 11
20.80142857142857
 21
9.661428571428571
 31
0.0
  0
LINE
  5
500
330
18
100
AcDbEntity
  8
Object
100
AcDbLine
 10
21.05
 20
13.01571428571428
 30
0.0
 11
21.02142857142857
 21
13.01428571428571
 31
0.0
  0
LINE
  5
501
330
18
100
AcDbEntity
  8
Object
100
AcDbLine
 10
21.02142857142857
 20
13.01428571428571
 30
0.0
 11
20.99571428571429
 21
13.01285714285714
 31
0.0
  0
LINE
  5
502
330
18
100
AcDbEntity
  8
Object
100
AcDbLine
 10
20.80142857142857
 20
9.661428571428571
 30
0.0
 11
20.76571428571428
 21
9.664285714285714
 31
0.0
  0
LINE
  5
503
330
18
100
AcDbEntity
  8
Object
100
AcDbLine
 10
20.76571428571428
 20
9.664285714285714
 30
0.0
 11
20.73857142857143
 21
9.665714285714285
 31
0.0
  0
LINE
  5
504
330
18
100
AcDbEntity
  8
Object
100
AcDbLine
 10
20.96142857142857
 20
13.01
 30
0.0
 11
20.97714285714286
 21
13.01142857142857
 31
0.0
  0
LINE
  5
505
330
18
100
AcDbEntity
  8
Object
100
AcDbLine
 10
20.97714285714286
 20
13.01142857142857
 30
0.0
 11
20.99571428571429
 21
13.01285714285714
 31
0.0
  0
LINE
  5
506
330
18
100
AcDbEntity
  8
Object
100
AcDbLine
 10
20.96142857142857
 20
13.01
 30
0.0
 11
20.95142857142857
 21
13.00714285714286
 31
0.0
  0
LINE
  5
507
330
18
100
AcDbEntity
  8
Object
100
AcDbLine
 10
20.73857142857143
 20
9.665714285714285
 30
0.0
 11
20.71857142857143
 21
9.667142857142856
 31
0.0
  0
LINE
  5
508
330
18
100
AcDbEntity
  8
Object
100
AcDbLine
 10
20.71857142857143
 20
9.667142857142856
 30
0.0
 11
20.70714285714286
 21
9.668571428571429
 31
0.0
  0
LINE
  5
509
330
18
100
AcDbEntity
  8
Object
100
AcDbLine
 10
20.95142857142857
 20
13.00714285714286
 30
0.0
 11
20.94428571428572
 21
13.00571428571428
 31
0.0
  0
LINE
  5
50A
330
18
100
AcDbEntity
  8
Object
100
AcDbLine
 10
20.70714285714286
 20
9.668571428571429
 30
0.0
 11
20.70285714285714
 21
9.668571428571429
 31
0.0
  0
LINE
  5
50B
330
18
100
AcDbEntity
  8
Object
100
AcDbLine
 10
20.70285714285714
 20
9.668571428571429
 30
0.0
 11
20.94285714285714
 21
13.00428571428571
 31
0.0
  0
LINE
  5
50C
330
18
100
AcDbEntity
  8
Object
100
AcDbLine
 10
20.94285714285714
 20
13.00428571428571
 30
0.0
 11
20.94428571428572
 21
13.00571428571428
 31
0.0
  0
LINE
  5
50D
330
18
100
AcDbEntity
  8
Object
100
AcDbLine
 10
20.94285714285714
 20
13.00428571428571
 30
0.0
 11
20.90571428571429
 21
12.97
 31
0.0
  0
LINE
  5
50E
330
18
100
AcDbEntity
  8
Object
100
AcDbLine
 10
20.70285714285714
 20
9.668571428571429
 30
0.0
 11
20.66857142857143
 21
9.669999999999999
 31
0.0
  0
LINE
  5
50F
330
18
100
AcDbEntity
  8
Object
100
AcDbLine
 10
20.66857142857143
 20
9.669999999999999
 30
0.0
 11
20.90571428571429
 21
12.97
 31
0.0
  0
LINE
  5
510
330
18
100
AcDbEntity
  8
Object
100
AcDbLine
 10
23.20142857142857
 20
13.03714285714286
 30
0.0
 11
23.20142857142857
 21
13.04
 31
0.0
  0
LINE
  5
511
330
18
100
AcDbEntity
  8
Object
100
AcDbLine
 10
23.20142857142857
 20
13.04
 30
0.0
 11
22.94571428571428
 21
9.395714285714285
 31
0.0
  0
LINE
  5
512
330
18
100
AcDbEntity
  8
Object
100
AcDbLine
 10
22.94571428571428
 20
9.395714285714285
 30
0.0
 11
23.20142857142857
 21
13.03714285714286
 31
0.0
  0
LINE
  5
513
330
18
100
AcDbEntity
  8
Object
100
AcDbLine
 10
22.95
 20
13.04
 30
0.0
 11
23.20142857142857
 21
13.04
 31
0.0
  0
LINE
  5
514
330
18
100
AcDbEntity
  8
Object
100
AcDbLine
 10
23.20142857142857
 20
13.04
 30
0.0
 11
22.94571428571428
 21
9.395714285714285
 31
0.0
  0
LINE
  5
515
330
18
100
AcDbEntity
  8
Object
100
AcDbLine
 10
22.94571428571428
 20
9.395714285714285
 30
0.0
 11
22.93285714285714
 21
9.258571428571428
 31
0.0
  0
LINE
  5
516
330
18
100
AcDbEntity
  8
Object
100
AcDbLine
 10
22.93285714285714
 20
9.258571428571428
 30
0.0
 11
22.91142857142857
 21
9.121428571428571
 31
0.0
  0
LINE
  5
517
330
18
100
AcDbEntity
  8
Object
100
AcDbLine
 10
22.91142857142857
 20
9.121428571428571
 30
0.0
 11
22.88285714285715
 21
8.985714285714285
 31
0.0
  0
LINE
  5
518
330
18
100
AcDbEntity
  8
Object
100
AcDbLine
 10
22.88285714285715
 20
8.985714285714285
 30
0.0
 11
22.84714285714286
 21
8.85142857142857
 31
0.0
  0
LINE
  5
519
330
18
100
AcDbEntity
  8
Object
100
AcDbLine
 10
22.84714285714286
 20
8.85142857142857
 30
0.0
 11
22.80285714285714
 21
8.721428571428571
 31
0.0
  0
LINE
  5
51A
330
18
100
AcDbEntity
  8
Object
100
AcDbLine
 10
22.80285714285714
 20
8.721428571428571
 30
0.0
 11
22.75285714285714
 21
8.59142857142857
 31
0.0
  0
LINE
  5
51B
330
18
100
AcDbEntity
  8
Object
100
AcDbLine
 10
22.75285714285714
 20
8.59142857142857
 30
0.0
 11
22.69428571428572
 21
8.465714285714286
 31
0.0
  0
LINE
  5
51C
330
18
100
AcDbEntity
  8
Object
100
AcDbLine
 10
22.69428571428572
 20
8.465714285714286
 30
0.0
 11
22.63
 21
8.344285714285714
 31
0.0
  0
LINE
  5
51D
330
18
100
AcDbEntity
  8
Object
100
AcDbLine
 10
22.63
 20
8.344285714285714
 30
0.0
 11
22.55857142857143
 21
8.225714285714285
 31
0.0
  0
LINE
  5
51E
330
18
100
AcDbEntity
  8
Object
100
AcDbLine
 10
22.55857142857143
 20
8.225714285714285
 30
0.0
 11
22.48
 21
8.111428571428572
 31
0.0
  0
LINE
  5
51F
330
18
100
AcDbEntity
  8
Object
100
AcDbLine
 10
22.48
 20
8.111428571428572
 30
0.0
 11
22.39571428571428
 21
8.00142857142857
 31
0.0
  0
LINE
  5
520
330
18
100
AcDbEntity
  8
Object
100
AcDbLine
 10
22.39571428571428
 20
8.00142857142857
 30
0.0
 11
22.30571428571428
 21
7.895714285714285
 31
0.0
  0
LINE
  5
521
330
18
100
AcDbEntity
  8
Object
100
AcDbLine
 10
22.30571428571428
 20
7.895714285714285
 30
0.0
 11
22.21
 21
7.795714285714285
 31
0.0
  0
LINE
  5
522
330
18
100
AcDbEntity
  8
Object
100
AcDbLine
 10
22.21
 20
7.795714285714285
 30
0.0
 11
22.10857142857143
 21
7.701428571428571
 31
0.0
  0
LINE
  5
523
330
18
100
AcDbEntity
  8
Object
100
AcDbLine
 10
22.10857142857143
 20
7.701428571428571
 30
0.0
 11
22.00285714285714
 21
7.612857142857142
 31
0.0
  0
LINE
  5
524
330
18
100
AcDbEntity
  8
Object
100
AcDbLine
 10
22.00285714285714
 20
7.612857142857142
 30
0.0
 11
21.89142857142857
 21
7.53
 31
0.0
  0
LINE
  5
525
330
18
100
AcDbEntity
  8
Object
100
AcDbLine
 10
21.89142857142857
 20
7.53
 30
0.0
 11
21.77571428571429
 21
7.454285714285714
 31
0.0
  0
LINE
  5
526
330
18
100
AcDbEntity
  8
Object
100
AcDbLine
 10
21.77571428571429
 20
7.454285714285714
 30
0.0
 11
21.65714285714286
 21
7.384285714285714
 31
0.0
  0
LINE
  5
527
330
18
100
AcDbEntity
  8
Object
100
AcDbLine
 10
21.65714285714286
 20
7.384285714285714
 30
0.0
 11
21.53285714285714
 21
7.321428571428571
 31
0.0
  0
LINE
  5
528
330
18
100
AcDbEntity
  8
Object
100
AcDbLine
 10
21.51285714285714
 20
7.641428571428571
 30
0.0
 11
21.39142857142857
 21
7.577142857142857
 31
0.0
  0
LINE
  5
529
330
18
100
AcDbEntity
  8
Object
100
AcDbLine
 10
21.53285714285714
 20
7.321428571428571
 30
0.0
 11
21.40714285714286
 21
7.265714285714286
 31
0.0
  0
LINE
  5
52A
330
18
100
AcDbEntity
  8
Object
100
AcDbLine
 10
21.40714285714286
 20
7.265714285714286
 30
0.0
 11
21.27714285714286
 21
7.217142857142857
 31
0.0
  0
LINE
  5
52B
330
18
100
AcDbEntity
  8
Object
100
AcDbLine
 10
21.26857142857143
 20
7.519999999999999
 30
0.0
 11
21.14142857142857
 21
7.469999999999999
 31
0.0
  0
LINE
  5
52C
330
18
100
AcDbEntity
  8
Object
100
AcDbLine
 10
21.14142857142857
 20
7.469999999999999
 30
0.0
 11
21.01142857142857
 21
7.427142857142857
 31
0.0
  0
LINE
  5
52D
330
18
100
AcDbEntity
  8
Object
100
AcDbLine
 10
21.27714285714286
 20
7.217142857142857
 30
0.0
 11
21.14571428571428
 21
7.174285714285714
 31
0.0
  0
LINE
  5
52E
330
18
100
AcDbEntity
  8
Object
100
AcDbLine
 10
21.14571428571428
 20
7.174285714285714
 30
0.0
 11
21.01142857142857
 21
7.139999999999999
 31
0.0
  0
LINE
  5
52F
330
18
100
AcDbEntity
  8
Object
100
AcDbLine
 10
21.01142857142857
 20
7.427142857142857
 30
0.0
 11
20.88
 21
7.391428571428571
 31
0.0
  0
LINE
  5
530
330
18
100
AcDbEntity
  8
Object
100
AcDbLine
 10
20.87571428571429
 20
7.114285714285713
 30
0.0
 11
21.01142857142857
 21
7.139999999999999
 31
0.0
  0
LINE
  5
531
330
18
100
AcDbEntity
  8
Object
100
AcDbLine
 10
20.88
 20
7.391428571428571
 30
0.0
 11
20.74714285714286
 21
7.364285714285713
 31
0.0
  0
LINE
  5
532
330
18
100
AcDbEntity
  8
Object
100
AcDbLine
 10
20.73857142857143
 20
7.094285714285714
 30
0.0
 11
20.87571428571429
 21
7.114285714285713
 31
0.0
  0
LINE
  5
533
330
18
100
AcDbEntity
  8
Object
100
AcDbLine
 10
20.74714285714286
 20
7.364285714285713
 30
0.0
 11
20.61142857142857
 21
7.345714285714286
 31
0.0
  0
LINE
  5
534
330
18
100
AcDbEntity
  8
Object
100
AcDbLine
 10
20.6
 20
7.082857142857142
 30
0.0
 11
20.73857142857143
 21
7.094285714285714
 31
0.0
  0
LINE
  5
535
330
18
100
AcDbEntity
  8
Object
100
AcDbLine
 10
20.61142857142857
 20
7.345714285714286
 30
0.0
 11
20.47571428571429
 21
7.332857142857142
 31
0.0
  0
LINE
  5
536
330
18
100
AcDbEntity
  8
Object
100
AcDbLine
 10
20.46142857142857
 20
7.08
 30
0.0
 11
20.6
 21
7.082857142857142
 31
0.0
  0
LINE
  5
537
330
18
100
AcDbEntity
  8
Object
100
AcDbLine
 10
20.47571428571429
 20
7.332857142857142
 30
0.0
 11
20.34
 21
7.33
 31
0.0
  0
LINE
  5
538
330
18
100
AcDbEntity
  8
Object
100
AcDbLine
 10
20.34
 20
7.33
 30
0.0
 11
14.91857142857143
 21
7.33
 31
0.0
  0
LINE
  5
539
330
18
100
AcDbEntity
  8
Object
100
AcDbLine
 10
8.297142857142857
 20
7.33
 30
0.0
 11
13.71857142857143
 21
7.33
 31
0.0
  0
LINE
  5
53A
330
18
100
AcDbEntity
  8
Object
100
AcDbLine
 10
13.71857142857143
 20
7.33
 30
0.0
 11
14.91857142857143
 21
7.33
 31
0.0
  0
LINE
  5
53B
330
18
100
AcDbEntity
  8
Object
100
AcDbLine
 10
8.174285714285714
 20
7.08
 30
0.0
 11
20.46142857142857
 21
7.08
 31
0.0
  0
LINE
  5
53C
330
18
100
AcDbEntity
  8
Object
100
AcDbLine
 10
8.297142857142857
 20
7.33
 30
0.0
 11
8.161428571428571
 21
7.332857142857142
 31
0.0
  0
LINE
  5
53D
330
18
100
AcDbEntity
  8
Object
100
AcDbLine
 10
8.035714285714286
 20
7.082857142857142
 30
0.0
 11
8.174285714285714
 21
7.08
 31
0.0
  0
LINE
  5
53E
330
18
100
AcDbEntity
  8
Object
100
AcDbLine
 10
8.161428571428571
 20
7.332857142857142
 30
0.0
 11
8.024285714285714
 21
7.345714285714286
 31
0.0
  0
LINE
  5
53F
330
18
100
AcDbEntity
  8
Object
100
AcDbLine
 10
7.898571428571428
 20
7.094285714285714
 30
0.0
 11
8.035714285714286
 21
7.082857142857142
 31
0.0
  0
LINE
  5
540
330
18
100
AcDbEntity
  8
Object
100
AcDbLine
 10
8.024285714285714
 20
7.345714285714286
 30
0.0
 11
7.889999999999999
 21
7.364285714285713
 31
0.0
  0
LINE
  5
541
330
18
100
AcDbEntity
  8
Object
100
AcDbLine
 10
7.761428571428571
 20
7.114285714285713
 30
0.0
 11
7.898571428571428
 21
7.094285714285714
 31
0.0
  0
LINE
  5
542
330
18
100
AcDbEntity
  8
Object
100
AcDbLine
 10
7.889999999999999
 20
7.364285714285713
 30
0.0
 11
7.757142857142857
 21
7.391428571428571
 31
0.0
  0
LINE
  5
543
330
18
100
AcDbEntity
  8
Object
100
AcDbLine
 10
7.625714285714285
 20
7.139999999999999
 30
0.0
 11
7.761428571428571
 21
7.114285714285713
 31
0.0
  0
LINE
  5
544
330
18
100
AcDbEntity
  8
Object
100
AcDbLine
 10
7.757142857142857
 20
7.391428571428571
 30
0.0
 11
7.624285714285714
 21
7.427142857142857
 31
0.0
  0
LINE
  5
545
330
18
100
AcDbEntity
  8
Object
100
AcDbLine
 10
7.491428571428571
 20
7.174285714285714
 30
0.0
 11
7.625714285714285
 21
7.139999999999999
 31
0.0
  0
LINE
  5
546
330
18
100
AcDbEntity
  8
Object
100
AcDbLine
 10
7.624285714285714
 20
7.427142857142857
 30
0.0
 11
7.495714285714285
 21
7.469999999999999
 31
0.0
  0
LINE
  5
547
330
18
100
AcDbEntity
  8
Object
100
AcDbLine
 10
7.491428571428571
 20
7.174285714285714
 30
0.0
 11
7.358571428571428
 21
7.217142857142857
 31
0.0
  0
LINE
  5
548
330
18
100
AcDbEntity
  8
Object
100
AcDbLine
 10
7.358571428571428
 20
7.217142857142857
 30
0.0
 11
7.23
 21
7.265714285714286
 31
0.0
  0
LINE
  5
549
330
18
100
AcDbEntity
  8
Object
100
AcDbLine
 10
7.495714285714285
 20
7.469999999999999
 30
0.0
 11
7.368571428571428
 21
7.519999999999999
 31
0.0
  0
LINE
  5
54A
330
18
100
AcDbEntity
  8
Object
100
AcDbLine
 10
7.368571428571428
 20
7.519999999999999
 30
0.0
 11
7.244285714285714
 21
7.577142857142857
 31
0.0
  0
LINE
  5
54B
330
18
100
AcDbEntity
  8
Object
100
AcDbLine
 10
7.23
 20
7.265714285714286
 30
0.0
 11
7.102857142857143
 21
7.321428571428571
 31
0.0
  0
LINE
  5
54C
330
18
100
AcDbEntity
  8
Object
100
AcDbLine
 10
7.102857142857143
 20
7.321428571428571
 30
0.0
 11
6.98
 21
7.384285714285714
 31
0.0
  0
LINE
  5
54D
330
18
100
AcDbEntity
  8
Object
100
AcDbLine
 10
7.244285714285714
 20
7.577142857142857
 30
0.0
 11
7.124285714285714
 21
7.641428571428571
 31
0.0
  0
LINE
  5
54E
330
18
100
AcDbEntity
  8
Object
100
AcDbLine
 10
7.124285714285714
 20
7.641428571428571
 30
0.0
 11
7.007142857142857
 21
7.711428571428571
 31
0.0
  0
LINE
  5
54F
330
18
100
AcDbEntity
  8
Object
100
AcDbLine
 10
6.98
 20
7.384285714285714
 30
0.0
 11
6.86
 21
7.454285714285714
 31
0.0
  0
LINE
  5
550
330
18
100
AcDbEntity
  8
Object
100
AcDbLine
 10
6.86
 20
7.454285714285714
 30
0.0
 11
6.744285714285714
 21
7.53
 31
0.0
  0
LINE
  5
551
330
18
100
AcDbEntity
  8
Object
100
AcDbLine
 10
7.007142857142857
 20
7.711428571428571
 30
0.0
 11
6.895714285714285
 21
7.79
 31
0.0
  0
LINE
  5
552
330
18
100
AcDbEntity
  8
Object
100
AcDbLine
 10
6.895714285714285
 20
7.79
 30
0.0
 11
6.788571428571428
 21
7.872857142857142
 31
0.0
  0
LINE
  5
553
330
18
100
AcDbEntity
  8
Object
100
AcDbLine
 10
6.634285714285714
 20
7.612857142857142
 30
0.0
 11
6.744285714285714
 21
7.53
 31
0.0
  0
LINE
  5
554
330
18
100
AcDbEntity
  8
Object
100
AcDbLine
 10
6.788571428571428
 20
7.872857142857142
 30
0.0
 11
6.685714285714285
 21
7.962857142857142
 31
0.0
  0
LINE
  5
555
330
18
100
AcDbEntity
  8
Object
100
AcDbLine
 10
6.634285714285714
 20
7.612857142857142
 30
0.0
 11
6.527142857142857
 21
7.701428571428571
 31
0.0
  0
LINE
  5
556
330
18
100
AcDbEntity
  8
Object
100
AcDbLine
 10
6.527142857142857
 20
7.701428571428571
 30
0.0
 11
6.425714285714285
 21
7.795714285714285
 31
0.0
  0
LINE
  5
557
330
18
100
AcDbEntity
  8
Object
100
AcDbLine
 10
6.685714285714285
 20
7.962857142857142
 30
0.0
 11
6.588571428571428
 21
8.058571428571427
 31
0.0
  0
LINE
  5
558
330
18
100
AcDbEntity
  8
Object
100
AcDbLine
 10
6.425714285714285
 20
7.795714285714285
 30
0.0
 11
6.33
 21
7.895714285714285
 31
0.0
  0
LINE
  5
559
330
18
100
AcDbEntity
  8
Object
100
AcDbLine
 10
6.33
 20
7.895714285714285
 30
0.0
 11
6.24
 21
8.00142857142857
 31
0.0
  0
LINE
  5
55A
330
18
100
AcDbEntity
  8
Object
100
AcDbLine
 10
6.588571428571428
 20
8.058571428571427
 30
0.0
 11
6.497142857142857
 21
8.16
 31
0.0
  0
LINE
  5
55B
330
18
100
AcDbEntity
  8
Object
100
AcDbLine
 10
6.497142857142857
 20
8.16
 30
0.0
 11
6.411428571428571
 21
8.267142857142857
 31
0.0
  0
LINE
  5
55C
330
18
100
AcDbEntity
  8
Object
100
AcDbLine
 10
6.24
 20
8.00142857142857
 30
0.0
 11
6.155714285714285
 21
8.111428571428572
 31
0.0
  0
LINE
  5
55D
330
18
100
AcDbEntity
  8
Object
100
AcDbLine
 10
6.155714285714285
 20
8.111428571428572
 30
0.0
 11
6.078571428571428
 21
8.225714285714285
 31
0.0
  0
LINE
  5
55E
330
18
100
AcDbEntity
  8
Object
100
AcDbLine
 10
6.411428571428571
 20
8.267142857142857
 30
0.0
 11
6.332857142857142
 21
8.377142857142857
 31
0.0
  0
LINE
  5
55F
330
18
100
AcDbEntity
  8
Object
100
AcDbLine
 10
6.332857142857142
 20
8.377142857142857
 30
0.0
 11
6.259999999999999
 21
8.492857142857141
 31
0.0
  0
LINE
  5
560
330
18
100
AcDbEntity
  8
Object
100
AcDbLine
 10
6.078571428571428
 20
8.225714285714285
 30
0.0
 11
6.007142857142857
 21
8.344285714285714
 31
0.0
  0
LINE
  5
561
330
18
100
AcDbEntity
  8
Object
100
AcDbLine
 10
6.007142857142857
 20
8.344285714285714
 30
0.0
 11
5.941428571428571
 21
8.465714285714286
 31
0.0
  0
LINE
  5
562
330
18
100
AcDbEntity
  8
Object
100
AcDbLine
 10
6.259999999999999
 20
8.492857142857141
 30
0.0
 11
6.194285714285713
 21
8.612857142857142
 31
0.0
  0
LINE
  5
563
330
18
100
AcDbEntity
  8
Object
100
AcDbLine
 10
6.194285714285713
 20
8.612857142857142
 30
0.0
 11
6.135714285714286
 21
8.735714285714285
 31
0.0
  0
LINE
  5
564
330
18
100
AcDbEntity
  8
Object
100
AcDbLine
 10
5.941428571428571
 20
8.465714285714286
 30
0.0
 11
5.884285714285714
 21
8.59142857142857
 31
0.0
  0
LINE
  5
565
330
18
100
AcDbEntity
  8
Object
100
AcDbLine
 10
5.884285714285714
 20
8.59142857142857
 30
0.0
 11
5.832857142857142
 21
8.721428571428571
 31
0.0
  0
LINE
  5
566
330
18
100
AcDbEntity
  8
Object
100
AcDbLine
 10
6.135714285714286
 20
8.735714285714285
 30
0.0
 11
6.084285714285714
 21
8.861428571428572
 31
0.0
  0
LINE
  5
567
330
18
100
AcDbEntity
  8
Object
100
AcDbLine
 10
6.084285714285714
 20
8.861428571428572
 30
0.0
 11
6.038571428571428
 21
8.99
 31
0.0
  0
LINE
  5
568
330
18
100
AcDbEntity
  8
Object
100
AcDbLine
 10
5.79
 20
8.85142857142857
 30
0.0
 11
5.832857142857142
 21
8.721428571428571
 31
0.0
  0
LINE
  5
569
330
18
100
AcDbEntity
  8
Object
100
AcDbLine
 10
6.038571428571428
 20
8.99
 30
0.0
 11
6.002857142857142
 21
9.121428571428571
 31
0.0
  0
LINE
  5
56A
330
18
100
AcDbEntity
  8
Object
100
AcDbLine
 10
5.754285714285714
 20
8.985714285714285
 30
0.0
 11
5.79
 21
8.85142857142857
 31
0.0
  0
LINE
  5
56B
330
18
100
AcDbEntity
  8
Object
100
AcDbLine
 10
6.002857142857142
 20
9.121428571428571
 30
0.0
 11
5.972857142857142
 21
9.254285714285714
 31
0.0
  0
LINE
  5
56C
330
18
100
AcDbEntity
  8
Object
100
AcDbLine
 10
5.754285714285714
 20
8.985714285714285
 30
0.0
 11
5.725714285714285
 21
9.121428571428571
 31
0.0
  0
LINE
  5
56D
330
18
100
AcDbEntity
  8
Object
100
AcDbLine
 10
5.725714285714285
 20
9.121428571428571
 30
0.0
 11
5.704285714285714
 21
9.258571428571428
 31
0.0
  0
LINE
  5
56E
330
18
100
AcDbEntity
  8
Object
100
AcDbLine
 10
5.972857142857142
 20
9.254285714285714
 30
0.0
 11
5.951428571428571
 21
9.39
 31
0.0
  0
LINE
  5
56F
330
18
100
AcDbEntity
  8
Object
100
AcDbLine
 10
5.951428571428571
 20
9.39
 30
0.0
 11
5.938571428571428
 21
9.525714285714284
 31
0.0
  0
LINE
  5
570
330
18
100
AcDbEntity
  8
Object
100
AcDbLine
 10
5.69
 20
9.395714285714285
 30
0.0
 11
5.704285714285714
 21
9.258571428571428
 31
0.0
  0
LINE
  5
571
330
18
100
AcDbEntity
  8
Object
100
AcDbLine
 10
5.435714285714285
 20
13.04
 30
0.0
 11
5.685714285714285
 21
13.04
 31
0.0
  0
LINE
  5
572
330
18
100
AcDbEntity
  8
Object
100
AcDbLine
 10
5.685714285714285
 20
13.04
 30
0.0
 11
5.938571428571428
 21
9.525714285714284
 31
0.0
  0
LINE
  5
573
330
18
100
AcDbEntity
  8
Object
100
AcDbLine
 10
5.435714285714285
 20
13.04
 30
0.0
 11
5.69
 21
9.395714285714285
 31
0.0
  0
LINE
  5
574
330
18
100
AcDbEntity
  8
Object
100
AcDbLine
 10
20.66857142857143
 20
9.669999999999999
 30
0.0
 11
20.66142857142857
 21
9.621428571428571
 31
0.0
  0
LINE
  5
575
330
18
100
AcDbEntity
  8
Object
100
AcDbLine
 10
20.66142857142857
 20
9.621428571428571
 30
0.0
 11
20.64714285714286
 21
9.574285714285714
 31
0.0
  0
LINE
  5
576
330
18
100
AcDbEntity
  8
Object
100
AcDbLine
 10
20.64714285714286
 20
9.574285714285714
 30
0.0
 11
20.62571428571429
 21
9.529999999999999
 31
0.0
  0
LINE
  5
577
330
18
100
AcDbEntity
  8
Object
100
AcDbLine
 10
20.62571428571429
 20
9.529999999999999
 30
0.0
 11
20.59857142857143
 21
9.488571428571429
 31
0.0
  0
LINE
  5
578
330
18
100
AcDbEntity
  8
Object
100
AcDbLine
 10
20.59857142857143
 20
9.488571428571429
 30
0.0
 11
20.56428571428571
 21
9.452857142857142
 31
0.0
  0
LINE
  5
579
330
18
100
AcDbEntity
  8
Object
100
AcDbLine
 10
20.56428571428571
 20
9.452857142857142
 30
0.0
 11
20.52571428571429
 21
9.42142857142857
 31
0.0
  0
LINE
  5
57A
330
18
100
AcDbEntity
  8
Object
100
AcDbLine
 10
20.52571428571429
 20
9.42142857142857
 30
0.0
 11
20.48285714285714
 21
9.397142857142856
 31
0.0
  0
LINE
  5
57B
330
18
100
AcDbEntity
  8
Object
100
AcDbLine
 10
20.48285714285714
 20
9.397142857142856
 30
0.0
 11
20.43714285714286
 21
9.378571428571428
 31
0.0
  0
LINE
  5
57C
330
18
100
AcDbEntity
  8
Object
100
AcDbLine
 10
20.43714285714286
 20
9.378571428571428
 30
0.0
 11
20.38857142857143
 21
9.368571428571428
 31
0.0
  0
LINE
  5
57D
330
18
100
AcDbEntity
  8
Object
100
AcDbLine
 10
20.38857142857143
 20
9.368571428571428
 30
0.0
 11
20.34
 21
9.364285714285713
 31
0.0
  0
LINE
  5
57E
330
18
100
AcDbEntity
  8
Object
100
AcDbLine
 10
20.34
 20
9.364285714285713
 30
0.0
 11
8.297142857142857
 21
9.364285714285713
 31
0.0
  0
LINE
  5
57F
330
18
100
AcDbEntity
  8
Object
100
AcDbLine
 10
8.297142857142857
 20
9.364285714285713
 30
0.0
 11
8.247142857142856
 21
9.368571428571428
 31
0.0
  0
LINE
  5
580
330
18
100
AcDbEntity
  8
Object
100
AcDbLine
 10
8.247142857142856
 20
9.368571428571428
 30
0.0
 11
8.199999999999999
 21
9.378571428571428
 31
0.0
  0
LINE
  5
581
330
18
100
AcDbEntity
  8
Object
100
AcDbLine
 10
8.199999999999999
 20
9.378571428571428
 30
0.0
 11
8.154285714285714
 21
9.397142857142856
 31
0.0
  0
LINE
  5
582
330
18
100
AcDbEntity
  8
Object
100
AcDbLine
 10
8.154285714285714
 20
9.397142857142856
 30
0.0
 11
8.111428571428572
 21
9.42142857142857
 31
0.0
  0
LINE
  5
583
330
18
100
AcDbEntity
  8
Object
100
AcDbLine
 10
8.111428571428572
 20
9.42142857142857
 30
0.0
 11
8.072857142857142
 21
9.452857142857142
 31
0.0
  0
LINE
  5
584
330
18
100
AcDbEntity
  8
Object
100
AcDbLine
 10
8.072857142857142
 20
9.452857142857142
 30
0.0
 11
8.038571428571428
 21
9.488571428571429
 31
0.0
  0
LINE
  5
585
330
18
100
AcDbEntity
  8
Object
100
AcDbLine
 10
8.038571428571428
 20
9.488571428571429
 30
0.0
 11
8.01142857142857
 21
9.529999999999999
 31
0.0
  0
LINE
  5
586
330
18
100
AcDbEntity
  8
Object
100
AcDbLine
 10
8.01142857142857
 20
9.529999999999999
 30
0.0
 11
7.99
 21
9.574285714285714
 31
0.0
  0
LINE
  5
587
330
18
100
AcDbEntity
  8
Object
100
AcDbLine
 10
7.99
 20
9.574285714285714
 30
0.0
 11
7.975714285714285
 21
9.621428571428571
 31
0.0
  0
LINE
  5
588
330
18
100
AcDbEntity
  8
Object
100
AcDbLine
 10
7.975714285714285
 20
9.621428571428571
 30
0.0
 11
7.968571428571428
 21
9.669999999999999
 31
0.0
  0
LINE
  5
589
330
18
100
AcDbEntity
  8
Object
100
AcDbLine
 10
7.968571428571428
 20
9.669999999999999
 30
0.0
 11
7.731428571428571
 21
12.97
 31
0.0
  0
LINE
  5
58A
330
18
100
AcDbEntity
  8
Object
100
AcDbLine
 10
5.69
 20
9.395714285714285
 30
0.0
 11
5.435714285714285
 21
13.03714285714286
 31
0.0
  0
LINE
  5
58B
330
18
100
AcDbEntity
  8
Object
100
AcDbLine
 10
5.435714285714285
 20
13.03714285714286
 30
0.0
 11
5.435714285714285
 21
13.04
 31
0.0
  0
LINE
  5
58C
330
18
100
AcDbEntity
  8
Object
100
AcDbLine
 10
5.435714285714285
 20
13.04
 30
0.0
 11
5.69
 21
9.395714285714285
 31
0.0
  0
LINE
  5
58D
330
18
100
AcDbEntity
  8
Object
100
AcDbLine
 10
22.94571428571428
 20
9.395714285714285
 30
0.0
 11
22.93285714285714
 21
9.258571428571428
 31
0.0
  0
LINE
  5
58E
330
18
100
AcDbEntity
  8
Object
100
AcDbLine
 10
22.93285714285714
 20
9.258571428571428
 30
0.0
 11
22.91142857142857
 21
9.121428571428571
 31
0.0
  0
LINE
  5
58F
330
18
100
AcDbEntity
  8
Object
100
AcDbLine
 10
22.91142857142857
 20
9.121428571428571
 30
0.0
 11
22.88285714285715
 21
8.985714285714285
 31
0.0
  0
LINE
  5
590
330
18
100
AcDbEntity
  8
Object
100
AcDbLine
 10
22.88285714285715
 20
8.985714285714285
 30
0.0
 11
22.84714285714286
 21
8.85142857142857
 31
0.0
  0
LINE
  5
591
330
18
100
AcDbEntity
  8
Object
100
AcDbLine
 10
22.84714285714286
 20
8.85142857142857
 30
0.0
 11
22.80285714285714
 21
8.721428571428571
 31
0.0
  0
LINE
  5
592
330
18
100
AcDbEntity
  8
Object
100
AcDbLine
 10
22.80285714285714
 20
8.721428571428571
 30
0.0
 11
22.75285714285714
 21
8.59142857142857
 31
0.0
  0
LINE
  5
593
330
18
100
AcDbEntity
  8
Object
100
AcDbLine
 10
22.75285714285714
 20
8.59142857142857
 30
0.0
 11
22.69428571428572
 21
8.465714285714286
 31
0.0
  0
LINE
  5
594
330
18
100
AcDbEntity
  8
Object
100
AcDbLine
 10
22.69428571428572
 20
8.465714285714286
 30
0.0
 11
22.63
 21
8.344285714285714
 31
0.0
  0
LINE
  5
595
330
18
100
AcDbEntity
  8
Object
100
AcDbLine
 10
22.63
 20
8.344285714285714
 30
0.0
 11
22.55857142857143
 21
8.225714285714285
 31
0.0
  0
LINE
  5
596
330
18
100
AcDbEntity
  8
Object
100
AcDbLine
 10
22.55857142857143
 20
8.225714285714285
 30
0.0
 11
22.48
 21
8.111428571428572
 31
0.0
  0
LINE
  5
597
330
18
100
AcDbEntity
  8
Object
100
AcDbLine
 10
22.48
 20
8.111428571428572
 30
0.0
 11
22.39571428571428
 21
8.00142857142857
 31
0.0
  0
LINE
  5
598
330
18
100
AcDbEntity
  8
Object
100
AcDbLine
 10
22.39571428571428
 20
8.00142857142857
 30
0.0
 11
22.30571428571428
 21
7.895714285714285
 31
0.0
  0
LINE
  5
599
330
18
100
AcDbEntity
  8
Object
100
AcDbLine
 10
22.30571428571428
 20
7.895714285714285
 30
0.0
 11
22.21
 21
7.795714285714285
 31
0.0
  0
LINE
  5
59A
330
18
100
AcDbEntity
  8
Object
100
AcDbLine
 10
22.21
 20
7.795714285714285
 30
0.0
 11
22.10857142857143
 21
7.701428571428571
 31
0.0
  0
LINE
  5
59B
330
18
100
AcDbEntity
  8
Object
100
AcDbLine
 10
22.10857142857143
 20
7.701428571428571
 30
0.0
 11
22.00285714285714
 21
7.612857142857142
 31
0.0
  0
LINE
  5
59C
330
18
100
AcDbEntity
  8
Object
100
AcDbLine
 10
22.00285714285714
 20
7.612857142857142
 30
0.0
 11
21.89142857142857
 21
7.53
 31
0.0
  0
LINE
  5
59D
330
18
100
AcDbEntity
  8
Object
100
AcDbLine
 10
21.89142857142857
 20
7.53
 30
0.0
 11
21.77571428571429
 21
7.454285714285714
 31
0.0
  0
LINE
  5
59E
330
18
100
AcDbEntity
  8
Object
100
AcDbLine
 10
21.77571428571429
 20
7.454285714285714
 30
0.0
 11
21.65714285714286
 21
7.384285714285714
 31
0.0
  0
LINE
  5
59F
330
18
100
AcDbEntity
  8
Object
100
AcDbLine
 10
21.65714285714286
 20
7.384285714285714
 30
0.0
 11
21.53285714285714
 21
7.321428571428571
 31
0.0
  0
LINE
  5
5A0
330
18
100
AcDbEntity
  8
Object
100
AcDbLine
 10
21.53285714285714
 20
7.321428571428571
 30
0.0
 11
21.40714285714286
 21
7.265714285714286
 31
0.0
  0
LINE
  5
5A1
330
18
100
AcDbEntity
  8
Object
100
AcDbLine
 10
21.40714285714286
 20
7.265714285714286
 30
0.0
 11
21.27714285714286
 21
7.217142857142857
 31
0.0
  0
LINE
  5
5A2
330
18
100
AcDbEntity
  8
Object
100
AcDbLine
 10
21.27714285714286
 20
7.217142857142857
 30
0.0
 11
21.14571428571428
 21
7.174285714285714
 31
0.0
  0
LINE
  5
5A3
330
18
100
AcDbEntity
  8
Object
100
AcDbLine
 10
21.14571428571428
 20
7.174285714285714
 30
0.0
 11
21.01142857142857
 21
7.139999999999999
 31
0.0
  0
LINE
  5
5A4
330
18
100
AcDbEntity
  8
Object
100
AcDbLine
 10
21.01142857142857
 20
7.139999999999999
 30
0.0
 11
20.87571428571429
 21
7.114285714285713
 31
0.0
  0
LINE
  5
5A5
330
18
100
AcDbEntity
  8
Object
100
AcDbLine
 10
20.87571428571429
 20
7.114285714285713
 30
0.0
 11
20.73857142857143
 21
7.094285714285714
 31
0.0
  0
LINE
  5
5A6
330
18
100
AcDbEntity
  8
Object
100
AcDbLine
 10
20.73857142857143
 20
7.094285714285714
 30
0.0
 11
20.6
 21
7.082857142857142
 31
0.0
  0
LINE
  5
5A7
330
18
100
AcDbEntity
  8
Object
100
AcDbLine
 10
20.6
 20
7.082857142857142
 30
0.0
 11
20.46142857142857
 21
7.08
 31
0.0
  0
LINE
  5
5A8
330
18
100
AcDbEntity
  8
Object
100
AcDbLine
 10
20.46142857142857
 20
7.08
 30
0.0
 11
8.174285714285714
 21
7.08
 31
0.0
  0
LINE
  5
5A9
330
18
100
AcDbEntity
  8
Object
100
AcDbLine
 10
7.694285714285713
 20
13.00428571428571
 30
0.0
 11
7.932857142857143
 21
9.668571428571429
 31
0.0
  0
LINE
  5
5AA
330
18
100
AcDbEntity
  8
Object
100
AcDbLine
 10
7.932857142857143
 20
9.668571428571429
 30
0.0
 11
7.928571428571428
 21
9.668571428571429
 31
0.0
  0
LINE
  5
5AB
330
18
100
AcDbEntity
  8
Object
100
AcDbLine
 10
7.928571428571428
 20
9.668571428571429
 30
0.0
 11
7.917142857142857
 21
9.667142857142856
 31
0.0
  0
LINE
  5
5AC
330
18
100
AcDbEntity
  8
Object
100
AcDbLine
 10
7.917142857142857
 20
9.667142857142856
 30
0.0
 11
7.897142857142856
 21
9.665714285714285
 31
0.0
  0
LINE
  5
5AD
330
18
100
AcDbEntity
  8
Object
100
AcDbLine
 10
7.897142857142856
 20
9.665714285714285
 30
0.0
 11
7.87
 21
9.664285714285714
 31
0.0
  0
LINE
  5
5AE
330
18
100
AcDbEntity
  8
Object
100
AcDbLine
 10
7.87
 20
9.664285714285714
 30
0.0
 11
7.835714285714285
 21
9.661428571428571
 31
0.0
  0
LINE
  5
5AF
330
18
100
AcDbEntity
  8
Object
100
AcDbLine
 10
7.835714285714285
 20
9.661428571428571
 30
0.0
 11
7.792857142857142
 21
9.658571428571429
 31
0.0
  0
LINE
  5
5B0
330
18
100
AcDbEntity
  8
Object
100
AcDbLine
 10
7.792857142857142
 20
9.658571428571429
 30
0.0
 11
7.742857142857142
 21
9.654285714285714
 31
0.0
  0
LINE
  5
5B1
330
18
100
AcDbEntity
  8
Object
100
AcDbLine
 10
7.551428571428571
 20
13.01714285714286
 30
0.0
 11
7.512857142857142
 21
13.01857142857143
 31
0.0
  0
LINE
  5
5B2
330
18
100
AcDbEntity
  8
Object
100
AcDbLine
 10
7.512857142857142
 20
13.01857142857143
 30
0.0
 11
7.468571428571428
 21
13.02
 31
0.0
  0
LINE
  5
5B3
330
18
100
AcDbEntity
  8
Object
100
AcDbLine
 10
7.742857142857142
 20
9.654285714285714
 30
0.0
 11
7.685714285714285
 21
9.65
 31
0.0
  0
LINE
  5
5B4
330
18
100
AcDbEntity
  8
Object
100
AcDbLine
 10
7.685714285714285
 20
9.65
 30
0.0
 11
7.622857142857142
 21
9.645714285714285
 31
0.0
  0
LINE
  5
5B5
330
18
100
AcDbEntity
  8
Object
100
AcDbLine
 10
7.468571428571428
 20
13.02
 30
0.0
 11
7.419999999999999
 21
13.02285714285714
 31
0.0
  0
LINE
  5
5B6
330
18
100
AcDbEntity
  8
Object
100
AcDbLine
 10
7.419999999999999
 20
13.02285714285714
 30
0.0
 11
7.365714285714285
 21
13.02428571428571
 31
0.0
  0
LINE
  5
5B7
330
18
100
AcDbEntity
  8
Object
100
AcDbLine
 10
7.551428571428571
 20
9.641428571428571
 30
0.0
 11
7.622857142857142
 21
9.645714285714285
 31
0.0
  0
LINE
  5
5B8
330
18
100
AcDbEntity
  8
Object
100
AcDbLine
 10
7.365714285714285
 20
13.02428571428571
 30
0.0
 11
7.307142857142856
 21
13.02571428571428
 31
0.0
  0
LINE
  5
5B9
330
18
100
AcDbEntity
  8
Object
100
AcDbLine
 10
7.307142857142856
 20
13.02571428571428
 30
0.0
 11
7.244285714285714
 21
13.02714285714286
 31
0.0
  0
LINE
  5
5BA
330
18
100
AcDbEntity
  8
Object
100
AcDbLine
 10
7.551428571428571
 20
9.641428571428571
 30
0.0
 11
7.475714285714285
 21
9.635714285714286
 31
0.0
  0
LINE
  5
5BB
330
18
100
AcDbEntity
  8
Object
100
AcDbLine
 10
7.475714285714285
 20
9.635714285714286
 30
0.0
 11
7.392857142857143
 21
9.63
 31
0.0
  0
LINE
  5
5BC
330
18
100
AcDbEntity
  8
Object
100
AcDbLine
 10
7.244285714285714
 20
13.02714285714286
 30
0.0
 11
7.175714285714285
 21
13.02857142857143
 31
0.0
  0
LINE
  5
5BD
330
18
100
AcDbEntity
  8
Object
100
AcDbLine
 10
7.175714285714285
 20
13.02857142857143
 30
0.0
 11
7.104285714285714
 21
13.03
 31
0.0
  0
LINE
  5
5BE
330
18
100
AcDbEntity
  8
Object
100
AcDbLine
 10
7.392857142857143
 20
9.63
 30
0.0
 11
7.304285714285714
 21
9.622857142857142
 31
0.0
  0
LINE
  5
5BF
330
18
100
AcDbEntity
  8
Object
100
AcDbLine
 10
7.304285714285714
 20
9.622857142857142
 30
0.0
 11
7.209999999999999
 21
9.615714285714286
 31
0.0
  0
LINE
  5
5C0
330
18
100
AcDbEntity
  8
Object
100
AcDbLine
 10
7.209999999999999
 20
9.615714285714286
 30
0.0
 11
7.111428571428571
 21
9.608571428571428
 31
0.0
  0
LINE
  5
5C1
330
18
100
AcDbEntity
  8
Object
100
AcDbLine
 10
7.111428571428571
 20
9.608571428571428
 30
0.0
 11
7.007142857142857
 21
9.60142857142857
 31
0.0
  0
LINE
  5
5C2
330
18
100
AcDbEntity
  8
Object
100
AcDbLine
 10
7.007142857142857
 20
9.60142857142857
 30
0.0
 11
6.898571428571428
 21
9.594285714285714
 31
0.0
  0
LINE
  5
5C3
330
18
100
AcDbEntity
  8
Object
100
AcDbLine
 10
6.898571428571428
 20
9.594285714285714
 30
0.0
 11
6.787142857142857
 21
9.585714285714285
 31
0.0
  0
LINE
  5
5C4
330
18
100
AcDbEntity
  8
Object
100
AcDbLine
 10
6.787142857142857
 20
9.585714285714285
 30
0.0
 11
6.672857142857142
 21
9.577142857142856
 31
0.0
  0
LINE
  5
5C5
330
18
100
AcDbEntity
  8
Object
100
AcDbLine
 10
6.672857142857142
 20
9.577142857142856
 30
0.0
 11
6.554285714285714
 21
9.57
 31
0.0
  0
LINE
  5
5C6
330
18
100
AcDbEntity
  8
Object
100
AcDbLine
 10
6.554285714285714
 20
9.57
 30
0.0
 11
6.434285714285714
 21
9.56
 31
0.0
  0
LINE
  5
5C7
330
18
100
AcDbEntity
  8
Object
100
AcDbLine
 10
6.434285714285714
 20
9.56
 30
0.0
 11
6.311428571428571
 21
9.551428571428571
 31
0.0
  0
LINE
  5
5C8
330
18
100
AcDbEntity
  8
Object
100
AcDbLine
 10
6.311428571428571
 20
9.551428571428571
 30
0.0
 11
6.188571428571428
 21
9.542857142857142
 31
0.0
  0
LINE
  5
5C9
330
18
100
AcDbEntity
  8
Object
100
AcDbLine
 10
5.958571428571428
 20
13.03857142857143
 30
0.0
 11
5.865714285714285
 21
13.04
 31
0.0
  0
LINE
  5
5CA
330
18
100
AcDbEntity
  8
Object
100
AcDbLine
 10
6.188571428571428
 20
9.542857142857142
 30
0.0
 11
6.062857142857143
 21
9.534285714285713
 31
0.0
  0
LINE
  5
5CB
330
18
100
AcDbEntity
  8
Object
100
AcDbLine
 10
6.062857142857143
 20
9.534285714285713
 30
0.0
 11
5.938571428571428
 21
9.525714285714284
 31
0.0
  0
LINE
  5
5CC
330
18
100
AcDbEntity
  8
Object
100
AcDbLine
 10
5.865714285714285
 20
13.04
 30
0.0
 11
5.775714285714285
 21
13.04
 31
0.0
  0
LINE
  5
5CD
330
18
100
AcDbEntity
  8
Object
100
AcDbLine
 10
5.775714285714285
 20
13.04
 30
0.0
 11
5.685714285714285
 21
13.04
 31
0.0
  0
LINE
  5
5CE
330
18
100
AcDbEntity
  8
Object
100
AcDbLine
 10
7.932857142857143
 20
9.668571428571429
 30
0.0
 11
7.968571428571428
 21
9.669999999999999
 31
0.0
  0
LINE
  5
5CF
330
18
100
AcDbEntity
  8
Object
100
AcDbLine
 10
8.174285714285714
 20
7.08
 30
0.0
 11
8.035714285714286
 21
7.082857142857142
 31
0.0
  0
LINE
  5
5D0
330
18
100
AcDbEntity
  8
Object
100
AcDbLine
 10
8.035714285714286
 20
7.082857142857142
 30
0.0
 11
7.898571428571428
 21
7.094285714285714
 31
0.0
  0
LINE
  5
5D1
330
18
100
AcDbEntity
  8
Object
100
AcDbLine
 10
7.898571428571428
 20
7.094285714285714
 30
0.0
 11
7.761428571428571
 21
7.114285714285713
 31
0.0
  0
LINE
  5
5D2
330
18
100
AcDbEntity
  8
Object
100
AcDbLine
 10
7.761428571428571
 20
7.114285714285713
 30
0.0
 11
7.625714285714285
 21
7.139999999999999
 31
0.0
  0
LINE
  5
5D3
330
18
100
AcDbEntity
  8
Object
100
AcDbLine
 10
7.625714285714285
 20
7.139999999999999
 30
0.0
 11
7.491428571428571
 21
7.174285714285714
 31
0.0
  0
LINE
  5
5D4
330
18
100
AcDbEntity
  8
Object
100
AcDbLine
 10
7.491428571428571
 20
7.174285714285714
 30
0.0
 11
7.358571428571428
 21
7.217142857142857
 31
0.0
  0
LINE
  5
5D5
330
18
100
AcDbEntity
  8
Object
100
AcDbLine
 10
7.358571428571428
 20
7.217142857142857
 30
0.0
 11
7.23
 21
7.265714285714286
 31
0.0
  0
LINE
  5
5D6
330
18
100
AcDbEntity
  8
Object
100
AcDbLine
 10
7.23
 20
7.265714285714286
 30
0.0
 11
7.102857142857143
 21
7.321428571428571
 31
0.0
  0
LINE
  5
5D7
330
18
100
AcDbEntity
  8
Object
100
AcDbLine
 10
7.102857142857143
 20
7.321428571428571
 30
0.0
 11
6.98
 21
7.384285714285714
 31
0.0
  0
LINE
  5
5D8
330
18
100
AcDbEntity
  8
Object
100
AcDbLine
 10
6.98
 20
7.384285714285714
 30
0.0
 11
6.86
 21
7.454285714285714
 31
0.0
  0
LINE
  5
5D9
330
18
100
AcDbEntity
  8
Object
100
AcDbLine
 10
6.86
 20
7.454285714285714
 30
0.0
 11
6.744285714285714
 21
7.53
 31
0.0
  0
LINE
  5
5DA
330
18
100
AcDbEntity
  8
Object
100
AcDbLine
 10
6.744285714285714
 20
7.53
 30
0.0
 11
6.634285714285714
 21
7.612857142857142
 31
0.0
  0
LINE
  5
5DB
330
18
100
AcDbEntity
  8
Object
100
AcDbLine
 10
6.634285714285714
 20
7.612857142857142
 30
0.0
 11
6.527142857142857
 21
7.701428571428571
 31
0.0
  0
LINE
  5
5DC
330
18
100
AcDbEntity
  8
Object
100
AcDbLine
 10
6.527142857142857
 20
7.701428571428571
 30
0.0
 11
6.425714285714285
 21
7.795714285714285
 31
0.0
  0
LINE
  5
5DD
330
18
100
AcDbEntity
  8
Object
100
AcDbLine
 10
6.425714285714285
 20
7.795714285714285
 30
0.0
 11
6.33
 21
7.895714285714285
 31
0.0
  0
LINE
  5
5DE
330
18
100
AcDbEntity
  8
Object
100
AcDbLine
 10
6.33
 20
7.895714285714285
 30
0.0
 11
6.24
 21
8.00142857142857
 31
0.0
  0
LINE
  5
5DF
330
18
100
AcDbEntity
  8
Object
100
AcDbLine
 10
6.24
 20
8.00142857142857
 30
0.0
 11
6.155714285714285
 21
8.111428571428572
 31
0.0
  0
LINE
  5
5E0
330
18
100
AcDbEntity
  8
Object
100
AcDbLine
 10
6.155714285714285
 20
8.111428571428572
 30
0.0
 11
6.078571428571428
 21
8.225714285714285
 31
0.0
  0
LINE
  5
5E1
330
18
100
AcDbEntity
  8
Object
100
AcDbLine
 10
6.078571428571428
 20
8.225714285714285
 30
0.0
 11
6.007142857142857
 21
8.344285714285714
 31
0.0
  0
LINE
  5
5E2
330
18
100
AcDbEntity
  8
Object
100
AcDbLine
 10
6.007142857142857
 20
8.344285714285714
 30
0.0
 11
5.941428571428571
 21
8.465714285714286
 31
0.0
  0
LINE
  5
5E3
330
18
100
AcDbEntity
  8
Object
100
AcDbLine
 10
5.941428571428571
 20
8.465714285714286
 30
0.0
 11
5.884285714285714
 21
8.59142857142857
 31
0.0
  0
LINE
  5
5E4
330
18
100
AcDbEntity
  8
Object
100
AcDbLine
 10
5.884285714285714
 20
8.59142857142857
 30
0.0
 11
5.832857142857142
 21
8.721428571428571
 31
0.0
  0
LINE
  5
5E5
330
18
100
AcDbEntity
  8
Object
100
AcDbLine
 10
5.832857142857142
 20
8.721428571428571
 30
0.0
 11
5.79
 21
8.85142857142857
 31
0.0
  0
LINE
  5
5E6
330
18
100
AcDbEntity
  8
Object
100
AcDbLine
 10
5.79
 20
8.85142857142857
 30
0.0
 11
5.754285714285714
 21
8.985714285714285
 31
0.0
  0
LINE
  5
5E7
330
18
100
AcDbEntity
  8
Object
100
AcDbLine
 10
5.754285714285714
 20
8.985714285714285
 30
0.0
 11
5.725714285714285
 21
9.121428571428571
 31
0.0
  0
LINE
  5
5E8
330
18
100
AcDbEntity
  8
Object
100
AcDbLine
 10
5.725714285714285
 20
9.121428571428571
 30
0.0
 11
5.704285714285714
 21
9.258571428571428
 31
0.0
  0
LINE
  5
5E9
330
18
100
AcDbEntity
  8
Object
100
AcDbLine
 10
5.704285714285714
 20
9.258571428571428
 30
0.0
 11
5.69
 21
9.395714285714285
 31
0.0
  0
LINE
  5
5EA
330
18
100
AcDbEntity
  8
Object
100
AcDbLine
 10
22.57285714285714
 20
9.534285714285713
 30
0.0
 11
22.69857142857143
 21
9.525714285714284
 31
0.0
  0
LINE
  5
5EB
330
18
100
AcDbEntity
  8
Object
100
AcDbLine
 10
22.69857142857143
 20
9.525714285714284
 30
0.0
 11
22.68428571428572
 21
9.39
 31
0.0
  0
LINE
  5
5EC
330
18
100
AcDbEntity
  8
Object
100
AcDbLine
 10
22.68428571428572
 20
9.39
 30
0.0
 11
22.66285714285714
 21
9.254285714285714
 31
0.0
  0
LINE
  5
5ED
330
18
100
AcDbEntity
  8
Object
100
AcDbLine
 10
22.66285714285714
 20
9.254285714285714
 30
0.0
 11
22.63428571428571
 21
9.121428571428571
 31
0.0
  0
LINE
  5
5EE
330
18
100
AcDbEntity
  8
Object
100
AcDbLine
 10
22.63428571428571
 20
9.121428571428571
 30
0.0
 11
22.59714285714286
 21
8.99
 31
0.0
  0
LINE
  5
5EF
330
18
100
AcDbEntity
  8
Object
100
AcDbLine
 10
22.59714285714286
 20
8.99
 30
0.0
 11
22.55285714285714
 21
8.861428571428572
 31
0.0
  0
LINE
  5
5F0
330
18
100
AcDbEntity
  8
Object
100
AcDbLine
 10
22.55285714285714
 20
8.861428571428572
 30
0.0
 11
22.50142857142857
 21
8.735714285714285
 31
0.0
  0
LINE
  5
5F1
330
18
100
AcDbEntity
  8
Object
100
AcDbLine
 10
22.50142857142857
 20
8.735714285714285
 30
0.0
 11
22.44285714285714
 21
8.612857142857142
 31
0.0
  0
LINE
  5
5F2
330
18
100
AcDbEntity
  8
Object
100
AcDbLine
 10
22.44285714285714
 20
8.612857142857142
 30
0.0
 11
22.37714285714286
 21
8.492857142857141
 31
0.0
  0
LINE
  5
5F3
330
18
100
AcDbEntity
  8
Object
100
AcDbLine
 10
22.37714285714286
 20
8.492857142857141
 30
0.0
 11
22.30428571428571
 21
8.377142857142857
 31
0.0
  0
LINE
  5
5F4
330
18
100
AcDbEntity
  8
Object
100
AcDbLine
 10
22.30428571428571
 20
8.377142857142857
 30
0.0
 11
22.22428571428571
 21
8.267142857142857
 31
0.0
  0
LINE
  5
5F5
330
18
100
AcDbEntity
  8
Object
100
AcDbLine
 10
22.22428571428571
 20
8.267142857142857
 30
0.0
 11
22.14
 21
8.16
 31
0.0
  0
LINE
  5
5F6
330
18
100
AcDbEntity
  8
Object
100
AcDbLine
 10
22.14
 20
8.16
 30
0.0
 11
22.04857142857143
 21
8.058571428571427
 31
0.0
  0
LINE
  5
5F7
330
18
100
AcDbEntity
  8
Object
100
AcDbLine
 10
22.04857142857143
 20
8.058571428571427
 30
0.0
 11
21.95142857142857
 21
7.962857142857142
 31
0.0
  0
LINE
  5
5F8
330
18
100
AcDbEntity
  8
Object
100
AcDbLine
 10
21.95142857142857
 20
7.962857142857142
 30
0.0
 11
21.84857142857143
 21
7.872857142857142
 31
0.0
  0
LINE
  5
5F9
330
18
100
AcDbEntity
  8
Object
100
AcDbLine
 10
21.84857142857143
 20
7.872857142857142
 30
0.0
 11
21.74142857142857
 21
7.79
 31
0.0
  0
LINE
  5
5FA
330
18
100
AcDbEntity
  8
Object
100
AcDbLine
 10
21.74142857142857
 20
7.79
 30
0.0
 11
21.62857142857143
 21
7.711428571428571
 31
0.0
  0
LINE
  5
5FB
330
18
100
AcDbEntity
  8
Object
100
AcDbLine
 10
21.62857142857143
 20
7.711428571428571
 30
0.0
 11
21.51285714285714
 21
7.641428571428571
 31
0.0
  0
LINE
  5
5FC
330
18
100
AcDbEntity
  8
Object
100
AcDbLine
 10
21.26857142857143
 20
7.519999999999999
 30
0.0
 11
21.39142857142857
 21
7.577142857142857
 31
0.0
  0
LINE
  5
5FD
330
18
100
AcDbEntity
  8
Object
100
AcDbLine
 10
20.48428571428571
 20
9.359999999999999
 30
0.0
 11
20.43714285714286
 21
9.342857142857143
 31
0.0
  0
LINE
  5
5FE
330
18
100
AcDbEntity
  8
Object
100
AcDbLine
 10
20.43714285714286
 20
9.342857142857143
 30
0.0
 11
20.38857142857143
 21
9.332857142857143
 31
0.0
  0
LINE
  5
5FF
330
18
100
AcDbEntity
  8
Object
100
AcDbLine
 10
20.38857142857143
 20
9.332857142857143
 30
0.0
 11
20.34
 21
9.33
 31
0.0
  0
LINE
  5
600
330
18
100
AcDbEntity
  8
Object
100
AcDbLine
 10
20.70285714285714
 20
9.668571428571429
 30
0.0
 11
20.69714285714286
 21
9.618571428571428
 31
0.0
  0
LINE
  5
601
330
18
100
AcDbEntity
  8
Object
100
AcDbLine
 10
20.69714285714286
 20
9.618571428571428
 30
0.0
 11
20.68285714285714
 21
9.571428571428571
 31
0.0
  0
LINE
  5
602
330
18
100
AcDbEntity
  8
Object
100
AcDbLine
 10
20.68285714285714
 20
9.571428571428571
 30
0.0
 11
20.66285714285714
 21
9.525714285714284
 31
0.0
  0
LINE
  5
603
330
18
100
AcDbEntity
  8
Object
100
AcDbLine
 10
20.66285714285714
 20
9.525714285714284
 30
0.0
 11
20.63714285714286
 21
9.482857142857142
 31
0.0
  0
LINE
  5
604
330
18
100
AcDbEntity
  8
Object
100
AcDbLine
 10
20.63714285714286
 20
9.482857142857142
 30
0.0
 11
20.60571428571428
 21
9.444285714285713
 31
0.0
  0
LINE
  5
605
330
18
100
AcDbEntity
  8
Object
100
AcDbLine
 10
20.60571428571428
 20
9.444285714285713
 30
0.0
 11
20.57
 21
9.411428571428571
 31
0.0
  0
LINE
  5
606
330
18
100
AcDbEntity
  8
Object
100
AcDbLine
 10
20.57
 20
9.411428571428571
 30
0.0
 11
20.52857142857143
 21
9.382857142857142
 31
0.0
  0
LINE
  5
607
330
18
100
AcDbEntity
  8
Object
100
AcDbLine
 10
20.52857142857143
 20
9.382857142857142
 30
0.0
 11
20.48428571428571
 21
9.359999999999999
 31
0.0
  0
LINE
  5
608
330
18
100
AcDbEntity
  8
Object
100
AcDbLine
 10
20.34
 20
7.58
 30
0.0
 11
20.34
 21
7.704285714285714
 31
0.0
  0
LINE
  5
609
330
18
100
AcDbEntity
  8
Object
100
AcDbLine
 10
14.91857142857143
 20
7.528571428571428
 30
0.0
 11
14.91857142857143
 21
7.429999999999999
 31
0.0
  0
LINE
  5
60A
330
18
100
AcDbEntity
  8
Object
100
AcDbLine
 10
20.34
 20
7.33
 30
0.0
 11
20.34
 21
7.454285714285714
 31
0.0
  0
LINE
  5
60B
330
18
100
AcDbEntity
  8
Object
100
AcDbLine
 10
14.91857142857143
 20
7.429999999999999
 30
0.0
 11
14.91857142857143
 21
7.33
 31
0.0
  0
LINE
  5
60C
330
18
100
AcDbEntity
  8
Object
100
AcDbLine
 10
20.34
 20
7.454285714285714
 30
0.0
 11
20.34
 21
7.58
 31
0.0
  0
LINE
  5
60D
330
18
100
AcDbEntity
  8
Object
100
AcDbLine
 10
14.91857142857143
 20
7.628571428571429
 30
0.0
 11
14.91857142857143
 21
7.528571428571428
 31
0.0
  0
LINE
  5
60E
330
18
100
AcDbEntity
  8
Object
100
AcDbLine
 10
20.34
 20
9.08142857142857
 30
0.0
 11
20.34
 21
9.138571428571427
 31
0.0
  0
LINE
  5
60F
330
18
100
AcDbEntity
  8
Object
100
AcDbLine
 10
20.34
 20
9.188571428571428
 30
0.0
 11
20.34
 21
9.231428571428571
 31
0.0
  0
LINE
  5
610
330
18
100
AcDbEntity
  8
Object
100
AcDbLine
 10
20.34
 20
9.267142857142857
 30
0.0
 11
20.34
 21
9.294285714285713
 31
0.0
  0
LINE
  5
611
330
18
100
AcDbEntity
  8
Object
100
AcDbLine
 10
20.34
 20
9.312857142857142
 30
0.0
 11
20.34
 21
9.325714285714285
 31
0.0
  0
LINE
  5
612
330
18
100
AcDbEntity
  8
Object
100
AcDbLine
 10
8.297142857142857
 20
9.33
 30
0.0
 11
20.34
 21
9.33
 31
0.0
  0
LINE
  5
613
330
18
100
AcDbEntity
  8
Object
100
AcDbLine
 10
20.34
 20
9.33
 30
0.0
 11
20.34
 21
9.325714285714285
 31
0.0
  0
LINE
  5
614
330
18
100
AcDbEntity
  8
Object
100
AcDbLine
 10
20.34
 20
9.294285714285713
 30
0.0
 11
20.34
 21
9.312857142857142
 31
0.0
  0
LINE
  5
615
330
18
100
AcDbEntity
  8
Object
100
AcDbLine
 10
20.34
 20
9.231428571428571
 30
0.0
 11
20.34
 21
9.267142857142857
 31
0.0
  0
LINE
  5
616
330
18
100
AcDbEntity
  8
Object
100
AcDbLine
 10
20.34
 20
9.138571428571427
 30
0.0
 11
20.34
 21
9.188571428571428
 31
0.0
  0
LINE
  5
617
330
18
100
AcDbEntity
  8
Object
100
AcDbLine
 10
20.34
 20
9.08142857142857
 30
0.0
 11
20.34
 21
9.018571428571428
 31
0.0
  0
LINE
  5
618
330
18
100
AcDbEntity
  8
Object
100
AcDbLine
 10
20.34
 20
9.018571428571428
 30
0.0
 11
20.34
 21
8.947142857142857
 31
0.0
  0
LINE
  5
619
330
18
100
AcDbEntity
  8
Object
100
AcDbLine
 10
20.34
 20
8.292857142857142
 30
0.0
 11
20.34
 21
8.401428571428571
 31
0.0
  0
LINE
  5
61A
330
18
100
AcDbEntity
  8
Object
100
AcDbLine
 10
20.34
 20
8.504285714285714
 30
0.0
 11
20.34
 21
8.604285714285714
 31
0.0
  0
LINE
  5
61B
330
18
100
AcDbEntity
  8
Object
100
AcDbLine
 10
20.34
 20
8.787142857142857
 30
0.0
 11
20.34
 21
8.869999999999999
 31
0.0
  0
LINE
  5
61C
330
18
100
AcDbEntity
  8
Object
100
AcDbLine
 10
20.34
 20
8.869999999999999
 30
0.0
 11
20.34
 21
8.947142857142857
 31
0.0
  0
LINE
  5
61D
330
18
100
AcDbEntity
  8
Object
100
AcDbLine
 10
20.34
 20
8.787142857142857
 30
0.0
 11
20.34
 21
8.698571428571428
 31
0.0
  0
LINE
  5
61E
330
18
100
AcDbEntity
  8
Object
100
AcDbLine
 10
20.34
 20
8.698571428571428
 30
0.0
 11
20.34
 21
8.604285714285714
 31
0.0
  0
LINE
  5
61F
330
18
100
AcDbEntity
  8
Object
100
AcDbLine
 10
20.34
 20
8.401428571428571
 30
0.0
 11
20.34
 21
8.504285714285714
 31
0.0
  0
LINE
  5
620
330
18
100
AcDbEntity
  8
Object
100
AcDbLine
 10
20.34
 20
7.704285714285714
 30
0.0
 11
20.34
 21
7.827142857142857
 31
0.0
  0
LINE
  5
621
330
18
100
AcDbEntity
  8
Object
100
AcDbLine
 10
20.34
 20
7.947142857142857
 30
0.0
 11
20.34
 21
8.065714285714285
 31
0.0
  0
LINE
  5
622
330
18
100
AcDbEntity
  8
Object
100
AcDbLine
 10
20.34
 20
8.292857142857142
 30
0.0
 11
20.34
 21
8.18142857142857
 31
0.0
  0
LINE
  5
623
330
18
100
AcDbEntity
  8
Object
100
AcDbLine
 10
20.34
 20
8.18142857142857
 30
0.0
 11
20.34
 21
8.065714285714285
 31
0.0
  0
LINE
  5
624
330
18
100
AcDbEntity
  8
Object
100
AcDbLine
 10
20.34
 20
7.827142857142857
 30
0.0
 11
20.34
 21
7.947142857142857
 31
0.0
  0
LINE
  5
625
330
18
100
AcDbEntity
  8
Object
100
AcDbLine
 10
13.71857142857143
 20
7.528571428571428
 30
0.0
 11
13.71857142857143
 21
7.429999999999999
 31
0.0
  0
LINE
  5
626
330
18
100
AcDbEntity
  8
Object
100
AcDbLine
 10
13.71857142857143
 20
7.429999999999999
 30
0.0
 11
13.71857142857143
 21
7.33
 31
0.0
  0
LINE
  5
627
330
18
100
AcDbEntity
  8
Object
100
AcDbLine
 10
13.71857142857143
 20
7.528571428571428
 30
0.0
 11
13.71857142857143
 21
7.628571428571429
 31
0.0
  0
LINE
  5
628
330
18
100
AcDbEntity
  8
Object
100
AcDbLine
 10
13.71857142857143
 20
7.628571428571429
 30
0.0
 11
14.91857142857143
 21
7.628571428571429
 31
0.0
  0
LINE
  5
629
330
18
100
AcDbEntity
  8
Object
100
AcDbLine
 10
8.297142857142857
 20
9.267142857142857
 30
0.0
 11
8.297142857142857
 21
9.294285714285713
 31
0.0
  0
LINE
  5
62A
330
18
100
AcDbEntity
  8
Object
100
AcDbLine
 10
8.297142857142857
 20
9.312857142857142
 30
0.0
 11
8.297142857142857
 21
9.325714285714285
 31
0.0
  0
LINE
  5
62B
330
18
100
AcDbEntity
  8
Object
100
AcDbLine
 10
8.297142857142857
 20
9.325714285714285
 30
0.0
 11
8.297142857142857
 21
9.33
 31
0.0
  0
LINE
  5
62C
330
18
100
AcDbEntity
  8
Object
100
AcDbLine
 10
8.297142857142857
 20
9.294285714285713
 30
0.0
 11
8.297142857142857
 21
9.312857142857142
 31
0.0
  0
LINE
  5
62D
330
18
100
AcDbEntity
  8
Object
100
AcDbLine
 10
8.297142857142857
 20
9.267142857142857
 30
0.0
 11
8.297142857142857
 21
9.231428571428571
 31
0.0
  0
LINE
  5
62E
330
18
100
AcDbEntity
  8
Object
100
AcDbLine
 10
8.297142857142857
 20
9.231428571428571
 30
0.0
 11
8.297142857142857
 21
9.188571428571428
 31
0.0
  0
LINE
  5
62F
330
18
100
AcDbEntity
  8
Object
100
AcDbLine
 10
8.297142857142857
 20
9.188571428571428
 30
0.0
 11
8.297142857142857
 21
9.138571428571427
 31
0.0
  0
LINE
  5
630
330
18
100
AcDbEntity
  8
Object
100
AcDbLine
 10
8.297142857142857
 20
9.138571428571427
 30
0.0
 11
8.297142857142857
 21
9.08142857142857
 31
0.0
  0
LINE
  5
631
330
18
100
AcDbEntity
  8
Object
100
AcDbLine
 10
8.297142857142857
 20
9.08142857142857
 30
0.0
 11
8.297142857142857
 21
9.018571428571428
 31
0.0
  0
LINE
  5
632
330
18
100
AcDbEntity
  8
Object
100
AcDbLine
 10
8.297142857142857
 20
9.018571428571428
 30
0.0
 11
8.297142857142857
 21
8.947142857142857
 31
0.0
  0
LINE
  5
633
330
18
100
AcDbEntity
  8
Object
100
AcDbLine
 10
8.297142857142857
 20
8.947142857142857
 30
0.0
 11
8.297142857142857
 21
8.869999999999999
 31
0.0
  0
LINE
  5
634
330
18
100
AcDbEntity
  8
Object
100
AcDbLine
 10
8.297142857142857
 20
8.869999999999999
 30
0.0
 11
8.297142857142857
 21
8.787142857142857
 31
0.0
  0
LINE
  5
635
330
18
100
AcDbEntity
  8
Object
100
AcDbLine
 10
8.297142857142857
 20
8.787142857142857
 30
0.0
 11
8.297142857142857
 21
8.698571428571428
 31
0.0
  0
LINE
  5
636
330
18
100
AcDbEntity
  8
Object
100
AcDbLine
 10
8.297142857142857
 20
8.698571428571428
 30
0.0
 11
8.297142857142857
 21
8.604285714285714
 31
0.0
  0
LINE
  5
637
330
18
100
AcDbEntity
  8
Object
100
AcDbLine
 10
8.297142857142857
 20
8.604285714285714
 30
0.0
 11
8.297142857142857
 21
8.504285714285714
 31
0.0
  0
LINE
  5
638
330
18
100
AcDbEntity
  8
Object
100
AcDbLine
 10
8.297142857142857
 20
8.504285714285714
 30
0.0
 11
8.297142857142857
 21
8.401428571428571
 31
0.0
  0
LINE
  5
639
330
18
100
AcDbEntity
  8
Object
100
AcDbLine
 10
8.297142857142857
 20
8.401428571428571
 30
0.0
 11
8.297142857142857
 21
8.292857142857142
 31
0.0
  0
LINE
  5
63A
330
18
100
AcDbEntity
  8
Object
100
AcDbLine
 10
8.297142857142857
 20
8.292857142857142
 30
0.0
 11
8.297142857142857
 21
8.18142857142857
 31
0.0
  0
LINE
  5
63B
330
18
100
AcDbEntity
  8
Object
100
AcDbLine
 10
8.297142857142857
 20
8.18142857142857
 30
0.0
 11
8.297142857142857
 21
8.065714285714285
 31
0.0
  0
LINE
  5
63C
330
18
100
AcDbEntity
  8
Object
100
AcDbLine
 10
8.297142857142857
 20
8.065714285714285
 30
0.0
 11
8.297142857142857
 21
7.947142857142857
 31
0.0
  0
LINE
  5
63D
330
18
100
AcDbEntity
  8
Object
100
AcDbLine
 10
8.297142857142857
 20
7.947142857142857
 30
0.0
 11
8.297142857142857
 21
7.827142857142857
 31
0.0
  0
LINE
  5
63E
330
18
100
AcDbEntity
  8
Object
100
AcDbLine
 10
8.297142857142857
 20
7.827142857142857
 30
0.0
 11
8.297142857142857
 21
7.704285714285714
 31
0.0
  0
LINE
  5
63F
330
18
100
AcDbEntity
  8
Object
100
AcDbLine
 10
8.297142857142857
 20
7.704285714285714
 30
0.0
 11
8.297142857142857
 21
7.58
 31
0.0
  0
LINE
  5
640
330
18
100
AcDbEntity
  8
Object
100
AcDbLine
 10
8.297142857142857
 20
7.58
 30
0.0
 11
8.297142857142857
 21
7.454285714285714
 31
0.0
  0
LINE
  5
641
330
18
100
AcDbEntity
  8
Object
100
AcDbLine
 10
8.297142857142857
 20
7.454285714285714
 30
0.0
 11
8.297142857142857
 21
7.33
 31
0.0
  0
LINE
  5
642
330
18
100
AcDbEntity
  8
Object
100
AcDbLine
 10
8.297142857142857
 20
9.33
 30
0.0
 11
8.247142857142856
 21
9.332857142857143
 31
0.0
  0
LINE
  5
643
330
18
100
AcDbEntity
  8
Object
100
AcDbLine
 10
8.247142857142856
 20
9.332857142857143
 30
0.0
 11
8.198571428571428
 21
9.342857142857143
 31
0.0
  0
LINE
  5
644
330
18
100
AcDbEntity
  8
Object
100
AcDbLine
 10
8.198571428571428
 20
9.342857142857143
 30
0.0
 11
8.151428571428571
 21
9.359999999999999
 31
0.0
  0
LINE
  5
645
330
18
100
AcDbEntity
  8
Object
100
AcDbLine
 10
8.151428571428571
 20
9.359999999999999
 30
0.0
 11
8.108571428571428
 21
9.382857142857142
 31
0.0
  0
LINE
  5
646
330
18
100
AcDbEntity
  8
Object
100
AcDbLine
 10
8.108571428571428
 20
9.382857142857142
 30
0.0
 11
8.067142857142856
 21
9.411428571428571
 31
0.0
  0
LINE
  5
647
330
18
100
AcDbEntity
  8
Object
100
AcDbLine
 10
8.067142857142856
 20
9.411428571428571
 30
0.0
 11
8.031428571428572
 21
9.444285714285713
 31
0.0
  0
LINE
  5
648
330
18
100
AcDbEntity
  8
Object
100
AcDbLine
 10
8.031428571428572
 20
9.444285714285713
 30
0.0
 11
8.0
 21
9.482857142857142
 31
0.0
  0
LINE
  5
649
330
18
100
AcDbEntity
  8
Object
100
AcDbLine
 10
8.0
 20
9.482857142857142
 30
0.0
 11
7.972857142857142
 21
9.525714285714284
 31
0.0
  0
LINE
  5
64A
330
18
100
AcDbEntity
  8
Object
100
AcDbLine
 10
7.972857142857142
 20
9.525714285714284
 30
0.0
 11
7.952857142857142
 21
9.571428571428571
 31
0.0
  0
LINE
  5
64B
330
18
100
AcDbEntity
  8
Object
100
AcDbLine
 10
7.952857142857142
 20
9.571428571428571
 30
0.0
 11
7.94
 21
9.618571428571428
 31
0.0
  0
LINE
  5
64C
330
18
100
AcDbEntity
  8
Object
100
AcDbLine
 10
7.94
 20
9.618571428571428
 30
0.0
 11
7.932857142857143
 21
9.668571428571429
 31
0.0
  0
LINE
  5
64D
330
18
100
AcDbEntity
  8
Object
100
AcDbLine
 10
8.297142857142857
 20
9.33
 30
0.0
 11
8.297142857142857
 21
9.364285714285713
 31
0.0
  0
LINE
  5
64E
330
18
100
AcDbEntity
  8
Object
100
AcDbLine
 10
20.34
 20
9.33
 30
0.0
 11
20.34
 21
9.364285714285713
 31
0.0
  0
LINE
  5
64F
330
18
100
AcDbEntity
  8
Object
100
AcDbLine
 10
13.71857142857143
 20
7.33
 30
0.0
 11
13.71857142857143
 21
7.429999999999999
 31
0.0
  0
LINE
  5
650
330
18
100
AcDbEntity
  8
Object
100
AcDbLine
 10
13.71857142857143
 20
7.429999999999999
 30
0.0
 11
13.71857142857143
 21
7.528571428571428
 31
0.0
  0
LINE
  5
651
330
18
100
AcDbEntity
  8
Object
100
AcDbLine
 10
13.71857142857143
 20
7.528571428571428
 30
0.0
 11
13.71857142857143
 21
7.628571428571429
 31
0.0
  0
LINE
  5
652
330
18
100
AcDbEntity
  8
Object
100
AcDbLine
 10
14.91857142857143
 20
7.429999999999999
 30
0.0
 11
14.91857142857143
 21
7.528571428571428
 31
0.0
  0
LINE
  5
653
330
18
100
AcDbEntity
  8
Object
100
AcDbLine
 10
14.91857142857143
 20
7.528571428571428
 30
0.0
 11
14.91857142857143
 21
7.628571428571429
 31
0.0
  0
LINE
  5
654
330
18
100
AcDbEntity
  8
Object
100
AcDbLine
 10
14.91857142857143
 20
7.429999999999999
 30
0.0
 11
14.91857142857143
 21
7.33
 31
0.0
  0
LINE
  5
655
330
18
100
AcDbEntity
  8
Object
100
AcDbLine
 10
14.89142857142857
 20
7.519999999999999
 30
0.0
 11
14.84571428571428
 21
7.519999999999999
 31
0.0
  0
LINE
  5
656
330
18
100
AcDbEntity
  8
Object
100
AcDbLine
 10
14.84571428571428
 20
7.361428571428571
 30
0.0
 11
14.78428571428571
 21
7.361428571428571
 31
0.0
  0
LINE
  5
657
330
18
100
AcDbEntity
  8
Object
100
AcDbLine
 10
14.78428571428571
 20
7.519999999999999
 30
0.0
 11
14.74428571428571
 21
7.519999999999999
 31
0.0
  0
LINE
  5
658
330
18
100
AcDbEntity
  8
Object
100
AcDbLine
 10
14.70857142857143
 20
7.361428571428571
 30
0.0
 11
14.65571428571428
 21
7.361428571428571
 31
0.0
  0
LINE
  5
659
330
18
100
AcDbEntity
  8
Object
100
AcDbLine
 10
14.61714285714285
 20
7.384285714285714
 30
0.0
 11
14.61
 21
7.37142857142857
 31
0.0
  0
LINE
  5
65A
330
18
100
AcDbEntity
  8
Object
100
AcDbLine
 10
14.61
 20
7.37142857142857
 30
0.0
 11
14.59857142857143
 21
7.364285714285713
 31
0.0
  0
LINE
  5
65B
330
18
100
AcDbEntity
  8
Object
100
AcDbLine
 10
14.59857142857143
 20
7.364285714285713
 30
0.0
 11
14.58428571428571
 21
7.361428571428571
 31
0.0
  0
LINE
  5
65C
330
18
100
AcDbEntity
  8
Object
100
AcDbLine
 10
14.58428571428571
 20
7.361428571428571
 30
0.0
 11
14.51285714285714
 21
7.361428571428571
 31
0.0
  0
LINE
  5
65D
330
18
100
AcDbEntity
  8
Object
100
AcDbLine
 10
14.47714285714285
 20
7.397142857142856
 30
0.0
 11
14.48
 21
7.384285714285714
 31
0.0
  0
LINE
  5
65E
330
18
100
AcDbEntity
  8
Object
100
AcDbLine
 10
14.48
 20
7.384285714285714
 30
0.0
 11
14.48857142857143
 21
7.37142857142857
 31
0.0
  0
LINE
  5
65F
330
18
100
AcDbEntity
  8
Object
100
AcDbLine
 10
14.48857142857143
 20
7.37142857142857
 30
0.0
 11
14.5
 21
7.364285714285713
 31
0.0
  0
LINE
  5
660
330
18
100
AcDbEntity
  8
Object
100
AcDbLine
 10
14.44
 20
7.384285714285714
 30
0.0
 11
14.43142857142857
 21
7.37142857142857
 31
0.0
  0
LINE
  5
661
330
18
100
AcDbEntity
  8
Object
100
AcDbLine
 10
14.43142857142857
 20
7.37142857142857
 30
0.0
 11
14.42
 21
7.364285714285713
 31
0.0
  0
LINE
  5
662
330
18
100
AcDbEntity
  8
Object
100
AcDbLine
 10
14.51285714285714
 20
7.361428571428571
 30
0.0
 11
14.5
 21
7.364285714285713
 31
0.0
  0
LINE
  5
663
330
18
100
AcDbEntity
  8
Object
100
AcDbLine
 10
14.42
 20
7.364285714285713
 30
0.0
 11
14.40714285714286
 21
7.361428571428571
 31
0.0
  0
LINE
  5
664
330
18
100
AcDbEntity
  8
Object
100
AcDbLine
 10
14.40714285714286
 20
7.361428571428571
 30
0.0
 11
14.29428571428571
 21
7.361428571428571
 31
0.0
  0
LINE
  5
665
330
18
100
AcDbEntity
  8
Object
100
AcDbLine
 10
13.97
 20
7.361428571428571
 30
0.0
 11
13.98285714285714
 21
7.389999999999999
 31
0.0
  0
LINE
  5
666
330
18
100
AcDbEntity
  8
Object
100
AcDbLine
 10
13.98285714285714
 20
7.389999999999999
 30
0.0
 11
14.05857142857143
 21
7.389999999999999
 31
0.0
  0
LINE
  5
667
330
18
100
AcDbEntity
  8
Object
100
AcDbLine
 10
14.05857142857143
 20
7.389999999999999
 30
0.0
 11
14.07285714285714
 21
7.361428571428571
 31
0.0
  0
LINE
  5
668
330
18
100
AcDbEntity
  8
Object
100
AcDbLine
 10
13.94714285714286
 20
7.45
 30
0.0
 11
13.93714285714286
 21
7.447142857142857
 31
0.0
  0
LINE
  5
669
330
18
100
AcDbEntity
  8
Object
100
AcDbLine
 10
13.91
 20
7.442857142857143
 30
0.0
 11
13.84571428571428
 21
7.442857142857143
 31
0.0
  0
LINE
  5
66A
330
18
100
AcDbEntity
  8
Object
100
AcDbLine
 10
13.97
 20
7.361428571428571
 30
0.0
 11
13.91142857142857
 21
7.361428571428571
 31
0.0
  0
LINE
  5
66B
330
18
100
AcDbEntity
  8
Object
100
AcDbLine
 10
13.84571428571428
 20
7.361428571428571
 30
0.0
 11
13.72857142857142
 21
7.361428571428571
 31
0.0
  0
LINE
  5
66C
330
18
100
AcDbEntity
  8
Object
100
AcDbLine
 10
14.16285714285714
 20
7.361428571428571
 30
0.0
 11
14.07285714285714
 21
7.361428571428571
 31
0.0
  0
LINE
  5
66D
330
18
100
AcDbEntity
  8
Object
100
AcDbLine
 10
14.26
 20
7.361428571428571
 30
0.0
 11
14.19857142857143
 21
7.361428571428571
 31
0.0
  0
LINE
  5
66E
330
18
100
AcDbEntity
  8
Object
100
AcDbLine
 10
14.91857142857143
 20
7.627142857142857
 30
0.0
 11
13.71857142857143
 21
7.627142857142857
 31
0.0
  0
LINE
  5
66F
330
18
100
AcDbEntity
  8
Object
100
AcDbLine
 10
13.91
 20
7.622857142857142
 30
0.0
 11
13.72857142857142
 21
7.622857142857142
 31
0.0
  0
LINE
  5
670
330
18
100
AcDbEntity
  8
Object
100
AcDbLine
 10
14.44
 20
7.384285714285714
 30
0.0
 11
14.44285714285714
 21
7.397142857142856
 31
0.0
  0
LINE
  5
671
330
18
100
AcDbEntity
  8
Object
100
AcDbLine
 10
14.44285714285714
 20
7.397142857142856
 30
0.0
 11
14.44285714285714
 21
7.398571428571428
 31
0.0
  0
LINE
  5
672
330
18
100
AcDbEntity
  8
Object
100
AcDbLine
 10
14.44285714285714
 20
7.397142857142856
 30
0.0
 11
14.44
 21
7.384285714285714
 31
0.0
  0
LINE
  5
673
330
18
100
AcDbEntity
  8
Object
100
AcDbLine
 10
13.84571428571428
 20
7.361428571428571
 30
0.0
 11
13.84571428571428
 21
7.362857142857142
 31
0.0
  0
LINE
  5
674
330
18
100
AcDbEntity
  8
Object
100
AcDbLine
 10
13.72857142857142
 20
7.361428571428571
 30
0.0
 11
13.72857142857142
 21
7.362857142857142
 31
0.0
  0
LINE
  5
675
330
18
100
AcDbEntity
  8
Object
100
AcDbLine
 10
13.72857142857142
 20
7.362857142857142
 30
0.0
 11
13.84571428571428
 21
7.362857142857142
 31
0.0
  0
LINE
  5
676
330
18
100
AcDbEntity
  8
Object
100
AcDbLine
 10
13.84571428571428
 20
7.362857142857142
 30
0.0
 11
13.84571428571428
 21
7.361428571428571
 31
0.0
  0
LINE
  5
677
330
18
100
AcDbEntity
  8
Object
100
AcDbLine
 10
13.84571428571428
 20
7.362857142857142
 30
0.0
 11
13.84571428571428
 21
7.444285714285713
 31
0.0
  0
LINE
  5
678
330
18
100
AcDbEntity
  8
Object
100
AcDbLine
 10
14.10571428571428
 20
7.562857142857143
 30
0.0
 11
14.10571428571428
 21
7.559999999999999
 31
0.0
  0
LINE
  5
679
330
18
100
AcDbEntity
  8
Object
100
AcDbLine
 10
14.10571428571428
 20
7.561428571428571
 30
0.0
 11
14.10571428571428
 21
7.431428571428571
 31
0.0
  0
LINE
  5
67A
330
18
100
AcDbEntity
  8
Object
100
AcDbLine
 10
14.61714285714285
 20
7.384285714285714
 30
0.0
 11
14.62
 21
7.397142857142856
 31
0.0
  0
LINE
  5
67B
330
18
100
AcDbEntity
  8
Object
100
AcDbLine
 10
14.62
 20
7.397142857142856
 30
0.0
 11
14.62
 21
7.398571428571428
 31
0.0
  0
LINE
  5
67C
330
18
100
AcDbEntity
  8
Object
100
AcDbLine
 10
14.62
 20
7.397142857142856
 30
0.0
 11
14.61714285714285
 21
7.384285714285714
 31
0.0
  0
LINE
  5
67D
330
18
100
AcDbEntity
  8
Object
100
AcDbLine
 10
13.98285714285714
 20
7.391428571428571
 30
0.0
 11
14.05857142857143
 21
7.391428571428571
 31
0.0
  0
LINE
  5
67E
330
18
100
AcDbEntity
  8
Object
100
AcDbLine
 10
14.05857142857143
 20
7.391428571428571
 30
0.0
 11
14.05857142857143
 21
7.389999999999999
 31
0.0
  0
LINE
  5
67F
330
18
100
AcDbEntity
  8
Object
100
AcDbLine
 10
14.84571428571428
 20
7.361428571428571
 30
0.0
 11
14.84571428571428
 21
7.362857142857142
 31
0.0
  0
LINE
  5
680
330
18
100
AcDbEntity
  8
Object
100
AcDbLine
 10
14.78428571428571
 20
7.361428571428571
 30
0.0
 11
14.78428571428571
 21
7.362857142857142
 31
0.0
  0
LINE
  5
681
330
18
100
AcDbEntity
  8
Object
100
AcDbLine
 10
14.78428571428571
 20
7.362857142857142
 30
0.0
 11
14.84571428571428
 21
7.362857142857142
 31
0.0
  0
LINE
  5
682
330
18
100
AcDbEntity
  8
Object
100
AcDbLine
 10
14.84571428571428
 20
7.362857142857142
 30
0.0
 11
14.84571428571428
 21
7.521428571428571
 31
0.0
  0
LINE
  5
683
330
18
100
AcDbEntity
  8
Object
100
AcDbLine
 10
14.84571428571428
 20
7.361428571428571
 30
0.0
 11
14.84571428571428
 21
7.362857142857142
 31
0.0
  0
LINE
  5
684
330
18
100
AcDbEntity
  8
Object
100
AcDbLine
 10
14.54428571428571
 20
7.561428571428571
 30
0.0
 11
14.47714285714285
 21
7.561428571428571
 31
0.0
  0
LINE
  5
685
330
18
100
AcDbEntity
  8
Object
100
AcDbLine
 10
14.56857142857143
 20
7.408571428571428
 30
0.0
 11
14.55428571428571
 21
7.408571428571428
 31
0.0
  0
LINE
  5
686
330
18
100
AcDbEntity
  8
Object
100
AcDbLine
 10
14.17285714285714
 20
7.561428571428571
 30
0.0
 11
14.10571428571428
 21
7.561428571428571
 31
0.0
  0
LINE
  5
687
330
18
100
AcDbEntity
  8
Object
100
AcDbLine
 10
14.89142857142857
 20
7.519999999999999
 30
0.0
 11
14.89142857142857
 21
7.521428571428571
 31
0.0
  0
LINE
  5
688
330
18
100
AcDbEntity
  8
Object
100
AcDbLine
 10
14.89142857142857
 20
7.521428571428571
 30
0.0
 11
14.84571428571428
 21
7.521428571428571
 31
0.0
  0
LINE
  5
689
330
18
100
AcDbEntity
  8
Object
100
AcDbLine
 10
13.91142857142857
 20
7.361428571428571
 30
0.0
 11
13.91142857142857
 21
7.362857142857142
 31
0.0
  0
LINE
  5
68A
330
18
100
AcDbEntity
  8
Object
100
AcDbLine
 10
13.91142857142857
 20
7.362857142857142
 30
0.0
 11
13.94857142857143
 21
7.452857142857142
 31
0.0
  0
LINE
  5
68B
330
18
100
AcDbEntity
  8
Object
100
AcDbLine
 10
14.16285714285714
 20
7.361428571428571
 30
0.0
 11
14.16285714285714
 21
7.362857142857142
 31
0.0
  0
LINE
  5
68C
330
18
100
AcDbEntity
  8
Object
100
AcDbLine
 10
14.16285714285714
 20
7.362857142857142
 30
0.0
 11
14.07285714285714
 21
7.362857142857142
 31
0.0
  0
LINE
  5
68D
330
18
100
AcDbEntity
  8
Object
100
AcDbLine
 10
14.26
 20
7.562857142857143
 30
0.0
 11
14.26
 21
7.561428571428571
 31
0.0
  0
LINE
  5
68E
330
18
100
AcDbEntity
  8
Object
100
AcDbLine
 10
14.26
 20
7.361428571428571
 30
0.0
 11
14.26
 21
7.362857142857142
 31
0.0
  0
LINE
  5
68F
330
18
100
AcDbEntity
  8
Object
100
AcDbLine
 10
14.26
 20
7.362857142857142
 30
0.0
 11
14.26
 21
7.561428571428571
 31
0.0
  0
LINE
  5
690
330
18
100
AcDbEntity
  8
Object
100
AcDbLine
 10
14.74428571428571
 20
7.519999999999999
 30
0.0
 11
14.74428571428571
 21
7.521428571428571
 31
0.0
  0
LINE
  5
691
330
18
100
AcDbEntity
  8
Object
100
AcDbLine
 10
14.74428571428571
 20
7.521428571428571
 30
0.0
 11
14.78428571428571
 21
7.521428571428571
 31
0.0
  0
LINE
  5
692
330
18
100
AcDbEntity
  8
Object
100
AcDbLine
 10
14.5
 20
7.365714285714285
 30
0.0
 11
14.51285714285714
 21
7.362857142857142
 31
0.0
  0
LINE
  5
693
330
18
100
AcDbEntity
  8
Object
100
AcDbLine
 10
14.51285714285714
 20
7.362857142857142
 30
0.0
 11
14.51285714285714
 21
7.361428571428571
 31
0.0
  0
LINE
  5
694
330
18
100
AcDbEntity
  8
Object
100
AcDbLine
 10
14.5
 20
7.365714285714285
 30
0.0
 11
14.48857142857143
 21
7.372857142857142
 31
0.0
  0
LINE
  5
695
330
18
100
AcDbEntity
  8
Object
100
AcDbLine
 10
14.48857142857143
 20
7.372857142857142
 30
0.0
 11
14.48
 21
7.384285714285714
 31
0.0
  0
LINE
  5
696
330
18
100
AcDbEntity
  8
Object
100
AcDbLine
 10
14.47714285714285
 20
7.397142857142856
 30
0.0
 11
14.47714285714285
 21
7.398571428571428
 31
0.0
  0
LINE
  5
697
330
18
100
AcDbEntity
  8
Object
100
AcDbLine
 10
14.47714285714285
 20
7.398571428571428
 30
0.0
 11
14.48
 21
7.384285714285714
 31
0.0
  0
LINE
  5
698
330
18
100
AcDbEntity
  8
Object
100
AcDbLine
 10
13.97
 20
7.361428571428571
 30
0.0
 11
13.97
 21
7.362857142857142
 31
0.0
  0
LINE
  5
699
330
18
100
AcDbEntity
  8
Object
100
AcDbLine
 10
13.97
 20
7.362857142857142
 30
0.0
 11
13.91142857142857
 21
7.362857142857142
 31
0.0
  0
LINE
  5
69A
330
18
100
AcDbEntity
  8
Object
100
AcDbLine
 10
14.19857142857143
 20
7.362857142857142
 30
0.0
 11
14.26
 21
7.362857142857142
 31
0.0
  0
LINE
  5
69B
330
18
100
AcDbEntity
  8
Object
100
AcDbLine
 10
14.26
 20
7.362857142857142
 30
0.0
 11
14.26
 21
7.361428571428571
 31
0.0
  0
LINE
  5
69C
330
18
100
AcDbEntity
  8
Object
100
AcDbLine
 10
14.20857142857142
 20
7.481428571428571
 30
0.0
 11
14.20857142857142
 21
7.478571428571428
 31
0.0
  0
LINE
  5
69D
330
18
100
AcDbEntity
  8
Object
100
AcDbLine
 10
14.20857142857142
 20
7.48
 30
0.0
 11
14.20857142857142
 21
7.561428571428571
 31
0.0
  0
LINE
  5
69E
330
18
100
AcDbEntity
  8
Object
100
AcDbLine
 10
14.20857142857142
 20
7.561428571428571
 30
0.0
 11
14.20857142857142
 21
7.562857142857143
 31
0.0
  0
LINE
  5
69F
330
18
100
AcDbEntity
  8
Object
100
AcDbLine
 10
13.72857142857142
 20
7.361428571428571
 30
0.0
 11
13.72857142857142
 21
7.362857142857142
 31
0.0
  0
LINE
  5
6A0
330
18
100
AcDbEntity
  8
Object
100
AcDbLine
 10
13.72857142857142
 20
7.362857142857142
 30
0.0
 11
13.72857142857142
 21
7.622857142857142
 31
0.0
  0
LINE
  5
6A1
330
18
100
AcDbEntity
  8
Object
100
AcDbLine
 10
14.89142857142857
 20
7.561428571428571
 30
0.0
 11
14.89142857142857
 21
7.521428571428571
 31
0.0
  0
LINE
  5
6A2
330
18
100
AcDbEntity
  8
Object
100
AcDbLine
 10
14.89142857142857
 20
7.521428571428571
 30
0.0
 11
14.89142857142857
 21
7.519999999999999
 31
0.0
  0
LINE
  5
6A3
330
18
100
AcDbEntity
  8
Object
100
AcDbLine
 10
14.89142857142857
 20
7.562857142857143
 30
0.0
 11
14.89142857142857
 21
7.561428571428571
 31
0.0
  0
LINE
  5
6A4
330
18
100
AcDbEntity
  8
Object
100
AcDbLine
 10
14.51285714285714
 20
7.362857142857142
 30
0.0
 11
14.58428571428571
 21
7.362857142857142
 31
0.0
  0
LINE
  5
6A5
330
18
100
AcDbEntity
  8
Object
100
AcDbLine
 10
14.58428571428571
 20
7.362857142857142
 30
0.0
 11
14.58428571428571
 21
7.361428571428571
 31
0.0
  0
LINE
  5
6A6
330
18
100
AcDbEntity
  8
Object
100
AcDbLine
 10
14.29428571428571
 20
7.362857142857142
 30
0.0
 11
14.29428571428571
 21
7.361428571428571
 31
0.0
  0
LINE
  5
6A7
330
18
100
AcDbEntity
  8
Object
100
AcDbLine
 10
14.29428571428571
 20
7.562857142857143
 30
0.0
 11
14.29428571428571
 21
7.559999999999999
 31
0.0
  0
LINE
  5
6A8
330
18
100
AcDbEntity
  8
Object
100
AcDbLine
 10
14.29428571428571
 20
7.561428571428571
 30
0.0
 11
14.29428571428571
 21
7.362857142857142
 31
0.0
  0
LINE
  5
6A9
330
18
100
AcDbEntity
  8
Object
100
AcDbLine
 10
14.54428571428571
 20
7.562857142857143
 30
0.0
 11
14.54428571428571
 21
7.561428571428571
 31
0.0
  0
LINE
  5
6AA
330
18
100
AcDbEntity
  8
Object
100
AcDbLine
 10
14.54428571428571
 20
7.561428571428571
 30
0.0
 11
14.54428571428571
 21
7.418571428571428
 31
0.0
  0
LINE
  5
6AB
330
18
100
AcDbEntity
  8
Object
100
AcDbLine
 10
14.16285714285714
 20
7.447142857142857
 30
0.0
 11
14.16285714285714
 21
7.362857142857142
 31
0.0
  0
LINE
  5
6AC
330
18
100
AcDbEntity
  8
Object
100
AcDbLine
 10
14.16285714285714
 20
7.362857142857142
 30
0.0
 11
14.16285714285714
 21
7.361428571428571
 31
0.0
  0
LINE
  5
6AD
330
18
100
AcDbEntity
  8
Object
100
AcDbLine
 10
14.57285714285714
 20
7.41
 30
0.0
 11
14.56857142857143
 21
7.408571428571428
 31
0.0
  0
LINE
  5
6AE
330
18
100
AcDbEntity
  8
Object
100
AcDbLine
 10
14.44285714285714
 20
7.527142857142857
 30
0.0
 11
14.44285714285714
 21
7.525714285714285
 31
0.0
  0
LINE
  5
6AF
330
18
100
AcDbEntity
  8
Object
100
AcDbLine
 10
14.44285714285714
 20
7.397142857142856
 30
0.0
 11
14.44285714285714
 21
7.398571428571428
 31
0.0
  0
LINE
  5
6B0
330
18
100
AcDbEntity
  8
Object
100
AcDbLine
 10
14.44285714285714
 20
7.398571428571428
 30
0.0
 11
14.44285714285714
 21
7.525714285714285
 31
0.0
  0
LINE
  5
6B1
330
18
100
AcDbEntity
  8
Object
100
AcDbLine
 10
13.98285714285714
 20
7.389999999999999
 30
0.0
 11
13.98285714285714
 21
7.391428571428571
 31
0.0
  0
LINE
  5
6B2
330
18
100
AcDbEntity
  8
Object
100
AcDbLine
 10
14.29428571428571
 20
7.362857142857142
 30
0.0
 11
14.40714285714286
 21
7.362857142857142
 31
0.0
  0
LINE
  5
6B3
330
18
100
AcDbEntity
  8
Object
100
AcDbLine
 10
14.40714285714286
 20
7.362857142857142
 30
0.0
 11
14.40714285714286
 21
7.361428571428571
 31
0.0
  0
LINE
  5
6B4
330
18
100
AcDbEntity
  8
Object
100
AcDbLine
 10
14.29428571428571
 20
7.362857142857142
 30
0.0
 11
14.29428571428571
 21
7.361428571428571
 31
0.0
  0
LINE
  5
6B5
330
18
100
AcDbEntity
  8
Object
100
AcDbLine
 10
14.04714285714286
 20
7.561428571428571
 30
0.0
 11
13.99571428571428
 21
7.561428571428571
 31
0.0
  0
LINE
  5
6B6
330
18
100
AcDbEntity
  8
Object
100
AcDbLine
 10
13.99571428571428
 20
7.561428571428571
 30
0.0
 11
13.98571428571428
 21
7.581428571428571
 31
0.0
  0
LINE
  5
6B7
330
18
100
AcDbEntity
  8
Object
100
AcDbLine
 10
13.95285714285714
 20
7.611428571428571
 30
0.0
 11
13.97142857142857
 21
7.598571428571428
 31
0.0
  0
LINE
  5
6B8
330
18
100
AcDbEntity
  8
Object
100
AcDbLine
 10
14.62
 20
7.562857142857143
 30
0.0
 11
14.62
 21
7.561428571428571
 31
0.0
  0
LINE
  5
6B9
330
18
100
AcDbEntity
  8
Object
100
AcDbLine
 10
14.62
 20
7.397142857142856
 30
0.0
 11
14.62
 21
7.398571428571428
 31
0.0
  0
LINE
  5
6BA
330
18
100
AcDbEntity
  8
Object
100
AcDbLine
 10
14.62
 20
7.398571428571428
 30
0.0
 11
14.62
 21
7.561428571428571
 31
0.0
  0
LINE
  5
6BB
330
18
100
AcDbEntity
  8
Object
100
AcDbLine
 10
14.57857142857143
 20
7.418571428571428
 30
0.0
 11
14.57857142857143
 21
7.561428571428571
 31
0.0
  0
LINE
  5
6BC
330
18
100
AcDbEntity
  8
Object
100
AcDbLine
 10
14.57857142857143
 20
7.561428571428571
 30
0.0
 11
14.57857142857143
 21
7.562857142857143
 31
0.0
  0
LINE
  5
6BD
330
18
100
AcDbEntity
  8
Object
100
AcDbLine
 10
14.70857142857143
 20
7.361428571428571
 30
0.0
 11
14.70857142857143
 21
7.362857142857142
 31
0.0
  0
LINE
  5
6BE
330
18
100
AcDbEntity
  8
Object
100
AcDbLine
 10
14.65571428571428
 20
7.361428571428571
 30
0.0
 11
14.65571428571428
 21
7.362857142857142
 31
0.0
  0
LINE
  5
6BF
330
18
100
AcDbEntity
  8
Object
100
AcDbLine
 10
14.65571428571428
 20
7.362857142857142
 30
0.0
 11
14.70857142857143
 21
7.362857142857142
 31
0.0
  0
LINE
  5
6C0
330
18
100
AcDbEntity
  8
Object
100
AcDbLine
 10
14.74428571428571
 20
7.519999999999999
 30
0.0
 11
14.74428571428571
 21
7.521428571428571
 31
0.0
  0
LINE
  5
6C1
330
18
100
AcDbEntity
  8
Object
100
AcDbLine
 10
14.74428571428571
 20
7.521428571428571
 30
0.0
 11
14.74428571428571
 21
7.561428571428571
 31
0.0
  0
LINE
  5
6C2
330
18
100
AcDbEntity
  8
Object
100
AcDbLine
 10
14.74428571428571
 20
7.561428571428571
 30
0.0
 11
14.74428571428571
 21
7.562857142857143
 31
0.0
  0
LINE
  5
6C3
330
18
100
AcDbEntity
  8
Object
100
AcDbLine
 10
14.70857142857143
 20
7.561428571428571
 30
0.0
 11
14.70857142857143
 21
7.362857142857142
 31
0.0
  0
LINE
  5
6C4
330
18
100
AcDbEntity
  8
Object
100
AcDbLine
 10
14.70857142857143
 20
7.362857142857142
 30
0.0
 11
14.70857142857143
 21
7.361428571428571
 31
0.0
  0
LINE
  5
6C5
330
18
100
AcDbEntity
  8
Object
100
AcDbLine
 10
14.70857142857143
 20
7.562857142857143
 30
0.0
 11
14.70857142857143
 21
7.561428571428571
 31
0.0
  0
LINE
  5
6C6
330
18
100
AcDbEntity
  8
Object
100
AcDbLine
 10
14.47714285714285
 20
7.397142857142856
 30
0.0
 11
14.47714285714285
 21
7.398571428571428
 31
0.0
  0
LINE
  5
6C7
330
18
100
AcDbEntity
  8
Object
100
AcDbLine
 10
14.47714285714285
 20
7.398571428571428
 30
0.0
 11
14.47714285714285
 21
7.561428571428571
 31
0.0
  0
LINE
  5
6C8
330
18
100
AcDbEntity
  8
Object
100
AcDbLine
 10
14.47714285714285
 20
7.561428571428571
 30
0.0
 11
14.47714285714285
 21
7.562857142857143
 31
0.0
  0
LINE
  5
6C9
330
18
100
AcDbEntity
  8
Object
100
AcDbLine
 10
14.05857142857143
 20
7.391428571428571
 30
0.0
 11
14.07285714285714
 21
7.362857142857142
 31
0.0
  0
LINE
  5
6CA
330
18
100
AcDbEntity
  8
Object
100
AcDbLine
 10
14.07285714285714
 20
7.362857142857142
 30
0.0
 11
14.07285714285714
 21
7.361428571428571
 31
0.0
  0
LINE
  5
6CB
330
18
100
AcDbEntity
  8
Object
100
AcDbLine
 10
14.16285714285714
 20
7.447142857142857
 30
0.0
 11
14.19857142857143
 21
7.362857142857142
 31
0.0
  0
LINE
  5
6CC
330
18
100
AcDbEntity
  8
Object
100
AcDbLine
 10
14.19857142857143
 20
7.362857142857142
 30
0.0
 11
14.19857142857143
 21
7.361428571428571
 31
0.0
  0
LINE
  5
6CD
330
18
100
AcDbEntity
  8
Object
100
AcDbLine
 10
14.19857142857143
 20
7.361428571428571
 30
0.0
 11
14.16285714285714
 21
7.447142857142857
 31
0.0
  0
LINE
  5
6CE
330
18
100
AcDbEntity
  8
Object
100
AcDbLine
 10
13.94857142857143
 20
7.452857142857142
 30
0.0
 11
13.93714285714286
 21
7.447142857142857
 31
0.0
  0
LINE
  5
6CF
330
18
100
AcDbEntity
  8
Object
100
AcDbLine
 10
13.93714285714286
 20
7.447142857142857
 30
0.0
 11
13.92285714285714
 21
7.444285714285713
 31
0.0
  0
LINE
  5
6D0
330
18
100
AcDbEntity
  8
Object
100
AcDbLine
 10
13.92285714285714
 20
7.444285714285713
 30
0.0
 11
13.91
 21
7.442857142857143
 31
0.0
  0
LINE
  5
6D1
330
18
100
AcDbEntity
  8
Object
100
AcDbLine
 10
13.91
 20
7.442857142857143
 30
0.0
 11
13.92285714285714
 21
7.444285714285713
 31
0.0
  0
LINE
  5
6D2
330
18
100
AcDbEntity
  8
Object
100
AcDbLine
 10
13.84571428571428
 20
7.444285714285713
 30
0.0
 11
13.91
 21
7.444285714285713
 31
0.0
  0
LINE
  5
6D3
330
18
100
AcDbEntity
  8
Object
100
AcDbLine
 10
13.91
 20
7.444285714285713
 30
0.0
 11
13.91
 21
7.442857142857143
 31
0.0
  0
LINE
  5
6D4
330
18
100
AcDbEntity
  8
Object
100
AcDbLine
 10
14.65571428571428
 20
7.361428571428571
 30
0.0
 11
14.65571428571428
 21
7.362857142857142
 31
0.0
  0
LINE
  5
6D5
330
18
100
AcDbEntity
  8
Object
100
AcDbLine
 10
14.65571428571428
 20
7.362857142857142
 30
0.0
 11
14.65571428571428
 21
7.561428571428571
 31
0.0
  0
LINE
  5
6D6
330
18
100
AcDbEntity
  8
Object
100
AcDbLine
 10
14.65571428571428
 20
7.561428571428571
 30
0.0
 11
14.65571428571428
 21
7.562857142857143
 31
0.0
  0
LINE
  5
6D7
330
18
100
AcDbEntity
  8
Object
100
AcDbLine
 10
14.78428571428571
 20
7.361428571428571
 30
0.0
 11
14.78428571428571
 21
7.362857142857142
 31
0.0
  0
LINE
  5
6D8
330
18
100
AcDbEntity
  8
Object
100
AcDbLine
 10
14.78428571428571
 20
7.362857142857142
 30
0.0
 11
14.78428571428571
 21
7.521428571428571
 31
0.0
  0
LINE
  5
6D9
330
18
100
AcDbEntity
  8
Object
100
AcDbLine
 10
14.44285714285714
 20
7.398571428571428
 30
0.0
 11
14.44285714285714
 21
7.525714285714285
 31
0.0
  0
LINE
  5
6DA
330
18
100
AcDbEntity
  8
Object
100
AcDbLine
 10
14.38428571428571
 20
7.509999999999999
 30
0.0
 11
14.38428571428571
 21
7.418571428571428
 31
0.0
  0
LINE
  5
6DB
330
18
100
AcDbEntity
  8
Object
100
AcDbLine
 10
14.38428571428571
 20
7.418571428571428
 30
0.0
 11
14.38285714285714
 21
7.412857142857142
 31
0.0
  0
LINE
  5
6DC
330
18
100
AcDbEntity
  8
Object
100
AcDbLine
 10
14.44285714285714
 20
7.398571428571428
 30
0.0
 11
14.44
 21
7.384285714285714
 31
0.0
  0
LINE
  5
6DD
330
18
100
AcDbEntity
  8
Object
100
AcDbLine
 10
14.44
 20
7.384285714285714
 30
0.0
 11
14.43142857142857
 21
7.372857142857142
 31
0.0
  0
LINE
  5
6DE
330
18
100
AcDbEntity
  8
Object
100
AcDbLine
 10
14.43142857142857
 20
7.372857142857142
 30
0.0
 11
14.42
 21
7.365714285714285
 31
0.0
  0
LINE
  5
6DF
330
18
100
AcDbEntity
  8
Object
100
AcDbLine
 10
14.42
 20
7.365714285714285
 30
0.0
 11
14.40714285714286
 21
7.362857142857142
 31
0.0
  0
LINE
  5
6E0
330
18
100
AcDbEntity
  8
Object
100
AcDbLine
 10
14.40714285714286
 20
7.561428571428571
 30
0.0
 11
14.42
 21
7.558571428571428
 31
0.0
  0
LINE
  5
6E1
330
18
100
AcDbEntity
  8
Object
100
AcDbLine
 10
14.42
 20
7.558571428571428
 30
0.0
 11
14.43142857142857
 21
7.551428571428571
 31
0.0
  0
LINE
  5
6E2
330
18
100
AcDbEntity
  8
Object
100
AcDbLine
 10
14.43142857142857
 20
7.551428571428571
 30
0.0
 11
14.44
 21
7.54
 31
0.0
  0
LINE
  5
6E3
330
18
100
AcDbEntity
  8
Object
100
AcDbLine
 10
14.44
 20
7.54
 30
0.0
 11
14.44285714285714
 21
7.525714285714285
 31
0.0
  0
LINE
  5
6E4
330
18
100
AcDbEntity
  8
Object
100
AcDbLine
 10
14.38428571428571
 20
7.509999999999999
 30
0.0
 11
14.38285714285714
 21
7.515714285714286
 31
0.0
  0
LINE
  5
6E5
330
18
100
AcDbEntity
  8
Object
100
AcDbLine
 10
14.38285714285714
 20
7.515714285714286
 30
0.0
 11
14.37857142857143
 21
7.518571428571428
 31
0.0
  0
LINE
  5
6E6
330
18
100
AcDbEntity
  8
Object
100
AcDbLine
 10
14.38285714285714
 20
7.412857142857142
 30
0.0
 11
14.37857142857143
 21
7.41
 31
0.0
  0
LINE
  5
6E7
330
18
100
AcDbEntity
  8
Object
100
AcDbLine
 10
14.37428571428571
 20
7.519999999999999
 30
0.0
 11
14.37857142857143
 21
7.518571428571428
 31
0.0
  0
LINE
  5
6E8
330
18
100
AcDbEntity
  8
Object
100
AcDbLine
 10
14.37857142857143
 20
7.41
 30
0.0
 11
14.37428571428571
 21
7.408571428571428
 31
0.0
  0
LINE
  5
6E9
330
18
100
AcDbEntity
  8
Object
100
AcDbLine
 10
14.37428571428571
 20
7.408571428571428
 30
0.0
 11
14.35428571428571
 21
7.408571428571428
 31
0.0
  0
LINE
  5
6EA
330
18
100
AcDbEntity
  8
Object
100
AcDbLine
 10
14.35428571428571
 20
7.519999999999999
 30
0.0
 11
14.37428571428571
 21
7.519999999999999
 31
0.0
  0
LINE
  5
6EB
330
18
100
AcDbEntity
  8
Object
100
AcDbLine
 10
14.29428571428571
 20
7.362857142857142
 30
0.0
 11
14.29428571428571
 21
7.561428571428571
 31
0.0
  0
LINE
  5
6EC
330
18
100
AcDbEntity
  8
Object
100
AcDbLine
 10
14.29428571428571
 20
7.561428571428571
 30
0.0
 11
14.40714285714286
 21
7.561428571428571
 31
0.0
  0
LINE
  5
6ED
330
18
100
AcDbEntity
  8
Object
100
AcDbLine
 10
14.35428571428571
 20
7.408571428571428
 30
0.0
 11
14.35428571428571
 21
7.519999999999999
 31
0.0
  0
LINE
  5
6EE
330
18
100
AcDbEntity
  8
Object
100
AcDbLine
 10
14.20857142857142
 20
7.48
 30
0.0
 11
14.20857142857142
 21
7.561428571428571
 31
0.0
  0
LINE
  5
6EF
330
18
100
AcDbEntity
  8
Object
100
AcDbLine
 10
14.20857142857142
 20
7.561428571428571
 30
0.0
 11
14.26
 21
7.561428571428571
 31
0.0
  0
LINE
  5
6F0
330
18
100
AcDbEntity
  8
Object
100
AcDbLine
 10
14.26
 20
7.561428571428571
 30
0.0
 11
14.26
 21
7.362857142857142
 31
0.0
  0
LINE
  5
6F1
330
18
100
AcDbEntity
  8
Object
100
AcDbLine
 10
14.20857142857142
 20
7.48
 30
0.0
 11
14.17285714285714
 21
7.561428571428571
 31
0.0
  0
LINE
  5
6F2
330
18
100
AcDbEntity
  8
Object
100
AcDbLine
 10
14.16285714285714
 20
7.362857142857142
 30
0.0
 11
14.16285714285714
 21
7.447142857142857
 31
0.0
  0
LINE
  5
6F3
330
18
100
AcDbEntity
  8
Object
100
AcDbLine
 10
14.10571428571428
 20
7.431428571428571
 30
0.0
 11
14.10571428571428
 21
7.561428571428571
 31
0.0
  0
LINE
  5
6F4
330
18
100
AcDbEntity
  8
Object
100
AcDbLine
 10
14.10571428571428
 20
7.561428571428571
 30
0.0
 11
14.17285714285714
 21
7.561428571428571
 31
0.0
  0
LINE
  5
6F5
330
18
100
AcDbEntity
  8
Object
100
AcDbLine
 10
14.10571428571428
 20
7.431428571428571
 30
0.0
 11
14.04714285714286
 21
7.561428571428571
 31
0.0
  0
LINE
  5
6F6
330
18
100
AcDbEntity
  8
Object
100
AcDbLine
 10
14.02
 20
7.49
 30
0.0
 11
14.04571428571428
 21
7.434285714285714
 31
0.0
  0
LINE
  5
6F7
330
18
100
AcDbEntity
  8
Object
100
AcDbLine
 10
14.04714285714286
 20
7.561428571428571
 30
0.0
 11
13.99571428571428
 21
7.561428571428571
 31
0.0
  0
LINE
  5
6F8
330
18
100
AcDbEntity
  8
Object
100
AcDbLine
 10
14.04571428571428
 20
7.434285714285714
 30
0.0
 11
13.99571428571428
 21
7.434285714285714
 31
0.0
  0
LINE
  5
6F9
330
18
100
AcDbEntity
  8
Object
100
AcDbLine
 10
13.99571428571428
 20
7.434285714285714
 30
0.0
 11
14.02
 21
7.49
 31
0.0
  0
LINE
  5
6FA
330
18
100
AcDbEntity
  8
Object
100
AcDbLine
 10
13.97
 20
7.362857142857142
 30
0.0
 11
13.98285714285714
 21
7.391428571428571
 31
0.0
  0
LINE
  5
6FB
330
18
100
AcDbEntity
  8
Object
100
AcDbLine
 10
13.93714285714286
 20
7.447142857142857
 30
0.0
 11
13.94857142857143
 21
7.452857142857142
 31
0.0
  0
LINE
  5
6FC
330
18
100
AcDbEntity
  8
Object
100
AcDbLine
 10
13.88428571428571
 20
7.564285714285714
 30
0.0
 11
13.88428571428571
 21
7.498571428571428
 31
0.0
  0
LINE
  5
6FD
330
18
100
AcDbEntity
  8
Object
100
AcDbLine
 10
13.93142857142857
 20
7.62
 30
0.0
 11
13.95285714285714
 21
7.611428571428571
 31
0.0
  0
LINE
  5
6FE
330
18
100
AcDbEntity
  8
Object
100
AcDbLine
 10
13.95285714285714
 20
7.611428571428571
 30
0.0
 11
13.97142857142857
 21
7.598571428571428
 31
0.0
  0
LINE
  5
6FF
330
18
100
AcDbEntity
  8
Object
100
AcDbLine
 10
13.97142857142857
 20
7.598571428571428
 30
0.0
 11
13.98571428571428
 21
7.581428571428571
 31
0.0
  0
LINE
  5
700
330
18
100
AcDbEntity
  8
Object
100
AcDbLine
 10
13.98571428571428
 20
7.581428571428571
 30
0.0
 11
13.99571428571428
 21
7.561428571428571
 31
0.0
  0
LINE
  5
701
330
18
100
AcDbEntity
  8
Object
100
AcDbLine
 10
13.93142857142857
 20
7.62
 30
0.0
 11
13.91
 21
7.622857142857142
 31
0.0
  0
LINE
  5
702
330
18
100
AcDbEntity
  8
Object
100
AcDbLine
 10
13.88285714285714
 20
7.57
 30
0.0
 11
13.88428571428571
 21
7.564285714285714
 31
0.0
  0
LINE
  5
703
330
18
100
AcDbEntity
  8
Object
100
AcDbLine
 10
13.88428571428571
 20
7.498571428571428
 30
0.0
 11
13.88285714285714
 21
7.491428571428571
 31
0.0
  0
LINE
  5
704
330
18
100
AcDbEntity
  8
Object
100
AcDbLine
 10
13.93714285714286
 20
7.447142857142857
 30
0.0
 11
13.92285714285714
 21
7.444285714285713
 31
0.0
  0
LINE
  5
705
330
18
100
AcDbEntity
  8
Object
100
AcDbLine
 10
13.92285714285714
 20
7.444285714285713
 30
0.0
 11
13.91
 21
7.444285714285713
 31
0.0
  0
LINE
  5
706
330
18
100
AcDbEntity
  8
Object
100
AcDbLine
 10
13.88285714285714
 20
7.491428571428571
 30
0.0
 11
13.87714285714286
 21
7.487142857142857
 31
0.0
  0
LINE
  5
707
330
18
100
AcDbEntity
  8
Object
100
AcDbLine
 10
13.87714285714286
 20
7.575714285714285
 30
0.0
 11
13.88285714285714
 21
7.57
 31
0.0
  0
LINE
  5
708
330
18
100
AcDbEntity
  8
Object
100
AcDbLine
 10
13.87714285714286
 20
7.487142857142857
 30
0.0
 11
13.87142857142857
 21
7.485714285714285
 31
0.0
  0
LINE
  5
709
330
18
100
AcDbEntity
  8
Object
100
AcDbLine
 10
13.87714285714286
 20
7.575714285714285
 30
0.0
 11
13.87142857142857
 21
7.577142857142857
 31
0.0
  0
LINE
  5
70A
330
18
100
AcDbEntity
  8
Object
100
AcDbLine
 10
13.87142857142857
 20
7.577142857142857
 30
0.0
 11
13.84571428571428
 21
7.577142857142857
 31
0.0
  0
LINE
  5
70B
330
18
100
AcDbEntity
  8
Object
100
AcDbLine
 10
13.87142857142857
 20
7.485714285714285
 30
0.0
 11
13.84571428571428
 21
7.485714285714285
 31
0.0
  0
LINE
  5
70C
330
18
100
AcDbEntity
  8
Object
100
AcDbLine
 10
13.84571428571428
 20
7.485714285714285
 30
0.0
 11
13.84571428571428
 21
7.577142857142857
 31
0.0
  0
LINE
  5
70D
330
18
100
AcDbEntity
  8
Object
100
AcDbLine
 10
13.84571428571428
 20
7.362857142857142
 30
0.0
 11
13.84571428571428
 21
7.444285714285713
 31
0.0
  0
LINE
  5
70E
330
18
100
AcDbEntity
  8
Object
100
AcDbLine
 10
13.72857142857142
 20
7.622857142857142
 30
0.0
 11
13.72857142857142
 21
7.362857142857142
 31
0.0
  0
LINE
  5
70F
330
18
100
AcDbEntity
  8
Object
100
AcDbLine
 10
14.57857142857143
 20
7.418571428571428
 30
0.0
 11
14.57857142857143
 21
7.561428571428571
 31
0.0
  0
LINE
  5
710
330
18
100
AcDbEntity
  8
Object
100
AcDbLine
 10
14.57857142857143
 20
7.561428571428571
 30
0.0
 11
14.62
 21
7.561428571428571
 31
0.0
  0
LINE
  5
711
330
18
100
AcDbEntity
  8
Object
100
AcDbLine
 10
14.62
 20
7.561428571428571
 30
0.0
 11
14.62
 21
7.398571428571428
 31
0.0
  0
LINE
  5
712
330
18
100
AcDbEntity
  8
Object
100
AcDbLine
 10
14.62
 20
7.398571428571428
 30
0.0
 11
14.61714285714285
 21
7.384285714285714
 31
0.0
  0
LINE
  5
713
330
18
100
AcDbEntity
  8
Object
100
AcDbLine
 10
14.57857142857143
 20
7.418571428571428
 30
0.0
 11
14.57714285714286
 21
7.412857142857142
 31
0.0
  0
LINE
  5
714
330
18
100
AcDbEntity
  8
Object
100
AcDbLine
 10
14.57714285714286
 20
7.412857142857142
 30
0.0
 11
14.57285714285714
 21
7.41
 31
0.0
  0
LINE
  5
715
330
18
100
AcDbEntity
  8
Object
100
AcDbLine
 10
14.61714285714285
 20
7.384285714285714
 30
0.0
 11
14.61
 21
7.372857142857142
 31
0.0
  0
LINE
  5
716
330
18
100
AcDbEntity
  8
Object
100
AcDbLine
 10
14.61
 20
7.372857142857142
 30
0.0
 11
14.59857142857143
 21
7.365714285714285
 31
0.0
  0
LINE
  5
717
330
18
100
AcDbEntity
  8
Object
100
AcDbLine
 10
14.59857142857143
 20
7.365714285714285
 30
0.0
 11
14.58428571428571
 21
7.362857142857142
 31
0.0
  0
LINE
  5
718
330
18
100
AcDbEntity
  8
Object
100
AcDbLine
 10
14.54428571428571
 20
7.412857142857142
 30
0.0
 11
14.54857142857143
 21
7.41
 31
0.0
  0
LINE
  5
719
330
18
100
AcDbEntity
  8
Object
100
AcDbLine
 10
14.54857142857143
 20
7.41
 30
0.0
 11
14.55428571428571
 21
7.408571428571428
 31
0.0
  0
LINE
  5
71A
330
18
100
AcDbEntity
  8
Object
100
AcDbLine
 10
14.48857142857143
 20
7.372857142857142
 30
0.0
 11
14.48
 21
7.384285714285714
 31
0.0
  0
LINE
  5
71B
330
18
100
AcDbEntity
  8
Object
100
AcDbLine
 10
14.48
 20
7.384285714285714
 30
0.0
 11
14.47714285714285
 21
7.398571428571428
 31
0.0
  0
LINE
  5
71C
330
18
100
AcDbEntity
  8
Object
100
AcDbLine
 10
14.54428571428571
 20
7.412857142857142
 30
0.0
 11
14.54428571428571
 21
7.418571428571428
 31
0.0
  0
LINE
  5
71D
330
18
100
AcDbEntity
  8
Object
100
AcDbLine
 10
14.47714285714285
 20
7.398571428571428
 30
0.0
 11
14.47714285714285
 21
7.561428571428571
 31
0.0
  0
LINE
  5
71E
330
18
100
AcDbEntity
  8
Object
100
AcDbLine
 10
14.47714285714285
 20
7.561428571428571
 30
0.0
 11
14.54428571428571
 21
7.561428571428571
 31
0.0
  0
LINE
  5
71F
330
18
100
AcDbEntity
  8
Object
100
AcDbLine
 10
14.54428571428571
 20
7.561428571428571
 30
0.0
 11
14.54428571428571
 21
7.418571428571428
 31
0.0
  0
LINE
  5
720
330
18
100
AcDbEntity
  8
Object
100
AcDbLine
 10
14.89142857142857
 20
7.521428571428571
 30
0.0
 11
14.89142857142857
 21
7.561428571428571
 31
0.0
  0
LINE
  5
721
330
18
100
AcDbEntity
  8
Object
100
AcDbLine
 10
14.84571428571428
 20
7.362857142857142
 30
0.0
 11
14.84571428571428
 21
7.521428571428571
 31
0.0
  0
LINE
  5
722
330
18
100
AcDbEntity
  8
Object
100
AcDbLine
 10
14.78428571428571
 20
7.521428571428571
 30
0.0
 11
14.78428571428571
 21
7.362857142857142
 31
0.0
  0
LINE
  5
723
330
18
100
AcDbEntity
  8
Object
100
AcDbLine
 10
14.89142857142857
 20
7.561428571428571
 30
0.0
 11
14.74428571428571
 21
7.561428571428571
 31
0.0
  0
LINE
  5
724
330
18
100
AcDbEntity
  8
Object
100
AcDbLine
 10
14.74428571428571
 20
7.561428571428571
 30
0.0
 11
14.74428571428571
 21
7.521428571428571
 31
0.0
  0
LINE
  5
725
330
18
100
AcDbEntity
  8
Object
100
AcDbLine
 10
14.65571428571428
 20
7.362857142857142
 30
0.0
 11
14.65571428571428
 21
7.561428571428571
 31
0.0
  0
LINE
  5
726
330
18
100
AcDbEntity
  8
Object
100
AcDbLine
 10
14.65571428571428
 20
7.561428571428571
 30
0.0
 11
14.70857142857143
 21
7.561428571428571
 31
0.0
  0
LINE
  5
727
330
18
100
AcDbEntity
  8
Object
100
AcDbLine
 10
14.70857142857143
 20
7.561428571428571
 30
0.0
 11
14.70857142857143
 21
7.362857142857142
 31
0.0
  0
LINE
  5
728
330
18
100
AcDbEntity
  8
Object
100
AcDbLine
 10
14.38428571428571
 20
7.509999999999999
 30
0.0
 11
14.38428571428571
 21
7.418571428571428
 31
0.0
  0
LINE
  5
729
330
18
100
AcDbEntity
  8
Object
100
AcDbLine
 10
14.37857142857143
 20
7.518571428571428
 30
0.0
 11
14.38285714285714
 21
7.514285714285714
 31
0.0
  0
LINE
  5
72A
330
18
100
AcDbEntity
  8
Object
100
AcDbLine
 10
14.38285714285714
 20
7.514285714285714
 30
0.0
 11
14.37857142857143
 21
7.518571428571428
 31
0.0
  0
LINE
  5
72B
330
18
100
AcDbEntity
  8
Object
100
AcDbLine
 10
14.37428571428571
 20
7.519999999999999
 30
0.0
 11
14.35428571428571
 21
7.519999999999999
 31
0.0
  0
LINE
  5
72C
330
18
100
AcDbEntity
  8
Object
100
AcDbLine
 10
14.35428571428571
 20
7.519999999999999
 30
0.0
 11
14.35428571428571
 21
7.408571428571428
 31
0.0
  0
LINE
  5
72D
330
18
100
AcDbEntity
  8
Object
100
AcDbLine
 10
13.87142857142857
 20
7.577142857142857
 30
0.0
 11
13.87142857142857
 21
7.575714285714285
 31
0.0
  0
LINE
  5
72E
330
18
100
AcDbEntity
  8
Object
100
AcDbLine
 10
13.87142857142857
 20
7.575714285714285
 30
0.0
 11
13.84571428571428
 21
7.575714285714285
 31
0.0
  0
LINE
  5
72F
330
18
100
AcDbEntity
  8
Object
100
AcDbLine
 10
13.88285714285714
 20
7.57
 30
0.0
 11
13.88428571428571
 21
7.562857142857143
 31
0.0
  0
LINE
  5
730
330
18
100
AcDbEntity
  8
Object
100
AcDbLine
 10
13.88428571428571
 20
7.562857142857143
 30
0.0
 11
13.88285714285714
 21
7.57
 31
0.0
  0
LINE
  5
731
330
18
100
AcDbEntity
  8
Object
100
AcDbLine
 10
13.88285714285714
 20
7.57
 30
0.0
 11
13.87714285714286
 21
7.575714285714285
 31
0.0
  0
LINE
  5
732
330
18
100
AcDbEntity
  8
Object
100
AcDbLine
 10
13.87142857142857
 20
7.575714285714285
 30
0.0
 11
13.87714285714286
 21
7.574285714285713
 31
0.0
  0
LINE
  5
733
330
18
100
AcDbEntity
  8
Object
100
AcDbLine
 10
14.04428571428571
 20
7.434285714285714
 30
0.0
 11
14.02
 21
7.49
 31
0.0
  0
LINE
  5
734
330
18
100
AcDbEntity
  8
Object
100
AcDbLine
 10
14.02
 20
7.49
 30
0.0
 11
13.99571428571428
 21
7.434285714285714
 31
0.0
  0
LINE
  5
735
330
18
100
AcDbEntity
  8
Object
100
AcDbLine
 10
13.88428571428571
 20
7.564285714285714
 30
0.0
 11
13.88428571428571
 21
7.498571428571428
 31
0.0
  0
LINE
  5
736
330
18
100
AcDbEntity
  8
Object
100
AcDbLine
 10
13.84571428571428
 20
7.485714285714285
 30
0.0
 11
13.84571428571428
 21
7.577142857142857
 31
0.0
  0
LINE
  5
737
330
18
100
AcDbEntity
  8
Object
100
AcDbLine
 10
13.88285714285714
 20
7.491428571428571
 30
0.0
 11
13.88428571428571
 21
7.498571428571428
 31
0.0
  0
LINE
  5
738
330
18
100
AcDbEntity
  8
Object
100
AcDbLine
 10
14.38428571428571
 20
7.508571428571428
 30
0.0
 11
14.38285714285714
 21
7.514285714285714
 31
0.0
  0
LINE
  5
739
330
18
100
AcDbEntity
  8
Object
100
AcDbLine
 10
13.87714285714286
 20
7.574285714285713
 30
0.0
 11
13.88285714285714
 21
7.57
 31
0.0
  0
LINE
  5
73A
330
18
100
AcDbEntity
  8
Object
100
AcDbLine
 10
13.88285714285714
 20
7.57
 30
0.0
 11
13.88428571428571
 21
7.562857142857143
 31
0.0
  0
LINE
  5
73B
330
18
100
AcDbEntity
  8
Object
100
AcDbLine
 10
23.17
 20
23.68285714285714
 30
0.0
 11
22.95
 21
23.68285714285714
 31
0.0
  0
LINE
  5
73C
330
18
100
AcDbEntity
  8
Object
100
AcDbLine
 10
5.687142857142856
 20
23.68285714285714
 30
0.0
 11
5.465714285714285
 21
23.68285714285714
 31
0.0
  0
LINE
  5
73D
330
18
100
AcDbEntity
  8
Object
100
AcDbLine
 10
23.17
 20
23.68285714285714
 30
0.0
 11
22.95
 21
23.68285714285714
 31
0.0
  0
LINE
  5
73E
330
18
100
AcDbEntity
  8
Object
100
AcDbLine
 10
22.95
 20
23.55857142857143
 30
0.0
 11
23.20142857142857
 21
23.55857142857143
 31
0.0
  0
LINE
  5
73F
330
18
100
AcDbEntity
  8
Object
100
AcDbLine
 10
21.53142857142857
 20
24.14428571428572
 30
0.0
 11
21.46
 21
24.21857142857143
 31
0.0
  0
LINE
  5
740
330
18
100
AcDbEntity
  8
Object
100
AcDbLine
 10
21.46
 20
24.21857142857143
 30
0.0
 11
21.39285714285714
 21
24.29714285714286
 31
0.0
  0
LINE
  5
741
330
18
100
AcDbEntity
  8
Object
100
AcDbLine
 10
22.68
 20
23.70285714285714
 30
0.0
 11
21.08857142857143
 21
25.29
 31
0.0
  0
LINE
  5
742
330
18
100
AcDbEntity
  8
Object
100
AcDbLine
 10
21.08857142857143
 20
25.29
 30
0.0
 11
21.08
 21
25.35571428571429
 31
0.0
  0
LINE
  5
743
330
18
100
AcDbEntity
  8
Object
100
AcDbLine
 10
21.03
 20
27.55857142857143
 30
0.0
 11
20.90571428571429
 21
27.55857142857143
 31
0.0
  0
LINE
  5
744
330
18
100
AcDbEntity
  8
Object
100
AcDbLine
 10
5.444285714285713
 20
23.67428571428571
 30
0.0
 11
5.438571428571428
 21
23.66428571428571
 31
0.0
  0
LINE
  5
745
330
18
100
AcDbEntity
  8
Object
100
AcDbLine
 10
5.438571428571428
 20
23.66428571428571
 30
0.0
 11
5.435714285714285
 21
23.65285714285715
 31
0.0
  0
LINE
  5
746
330
18
100
AcDbEntity
  8
Object
100
AcDbLine
 10
22.95
 20
23.68285714285714
 30
0.0
 11
22.88285714285715
 21
23.68428571428571
 31
0.0
  0
LINE
  5
747
330
18
100
AcDbEntity
  8
Object
100
AcDbLine
 10
22.74714285714286
 20
23.69428571428572
 30
0.0
 11
22.68
 21
23.70285714285714
 31
0.0
  0
LINE
  5
748
330
18
100
AcDbEntity
  8
Object
100
AcDbLine
 10
22.88285714285715
 20
23.68428571428571
 30
0.0
 11
22.81428571428572
 21
23.68857142857143
 31
0.0
  0
LINE
  5
749
330
18
100
AcDbEntity
  8
Object
100
AcDbLine
 10
22.81428571428572
 20
23.68857142857143
 30
0.0
 11
22.74714285714286
 21
23.69428571428572
 31
0.0
  0
LINE
  5
74A
330
18
100
AcDbEntity
  8
Object
100
AcDbLine
 10
21.08
 20
25.35571428571429
 30
0.0
 11
21.07285714285714
 21
25.42285714285715
 31
0.0
  0
LINE
  5
74B
330
18
100
AcDbEntity
  8
Object
100
AcDbLine
 10
21.07285714285714
 20
25.42285714285715
 30
0.0
 11
21.07
 21
25.49142857142857
 31
0.0
  0
LINE
  5
74C
330
18
100
AcDbEntity
  8
Object
100
AcDbLine
 10
21.07
 20
25.49142857142857
 30
0.0
 11
21.06857142857143
 21
25.55857142857143
 31
0.0
  0
LINE
  5
74D
330
18
100
AcDbEntity
  8
Object
100
AcDbLine
 10
7.568571428571428
 20
25.55857142857143
 30
0.0
 11
7.567142857142856
 21
25.49142857142857
 31
0.0
  0
LINE
  5
74E
330
18
100
AcDbEntity
  8
Object
100
AcDbLine
 10
7.567142857142856
 20
25.49142857142857
 30
0.0
 11
7.562857142857143
 21
25.42285714285715
 31
0.0
  0
LINE
  5
74F
330
18
100
AcDbEntity
  8
Object
100
AcDbLine
 10
7.562857142857143
 20
25.42285714285715
 30
0.0
 11
7.557142857142856
 21
25.35571428571429
 31
0.0
  0
LINE
  5
750
330
18
100
AcDbEntity
  8
Object
100
AcDbLine
 10
7.557142857142856
 20
25.35571428571429
 30
0.0
 11
7.548571428571428
 21
25.29
 31
0.0
  0
LINE
  5
751
330
18
100
AcDbEntity
  8
Object
100
AcDbLine
 10
23.20142857142857
 20
23.65285714285715
 30
0.0
 11
23.19857142857143
 21
23.66428571428571
 31
0.0
  0
LINE
  5
752
330
18
100
AcDbEntity
  8
Object
100
AcDbLine
 10
23.19857142857143
 20
23.66428571428571
 30
0.0
 11
23.19142857142857
 21
23.67428571428571
 31
0.0
  0
LINE
  5
753
330
18
100
AcDbEntity
  8
Object
100
AcDbLine
 10
23.19142857142857
 20
23.67428571428571
 30
0.0
 11
23.18142857142857
 21
23.68142857142857
 31
0.0
  0
LINE
  5
754
330
18
100
AcDbEntity
  8
Object
100
AcDbLine
 10
23.18142857142857
 20
23.68142857142857
 30
0.0
 11
23.17
 21
23.68285714285714
 31
0.0
  0
LINE
  5
755
330
18
100
AcDbEntity
  8
Object
100
AcDbLine
 10
7.605714285714285
 20
27.55857142857143
 30
0.0
 11
7.731428571428571
 21
27.55857142857143
 31
0.0
  0
LINE
  5
756
330
18
100
AcDbEntity
  8
Object
100
AcDbLine
 10
7.731428571428571
 20
27.55857142857143
 30
0.0
 11
7.694285714285713
 21
25.55857142857143
 31
0.0
  0
LINE
  5
757
330
18
100
AcDbEntity
  8
Object
100
AcDbLine
 10
7.605714285714285
 20
27.55857142857143
 30
0.0
 11
7.568571428571428
 21
25.55857142857143
 31
0.0
  0
LINE
  5
758
330
18
100
AcDbEntity
  8
Object
100
AcDbLine
 10
7.694285714285713
 20
25.55857142857143
 30
0.0
 11
7.691428571428571
 21
25.46857142857143
 31
0.0
  0
LINE
  5
759
330
18
100
AcDbEntity
  8
Object
100
AcDbLine
 10
7.691428571428571
 20
25.46857142857143
 30
0.0
 11
7.685714285714285
 21
25.37857142857143
 31
0.0
  0
LINE
  5
75A
330
18
100
AcDbEntity
  8
Object
100
AcDbLine
 10
7.685714285714285
 20
25.37857142857143
 30
0.0
 11
7.674285714285714
 21
25.28714285714286
 31
0.0
  0
LINE
  5
75B
330
18
100
AcDbEntity
  8
Object
100
AcDbLine
 10
7.674285714285714
 20
25.28714285714286
 30
0.0
 11
7.66
 21
25.19428571428572
 31
0.0
  0
LINE
  5
75C
330
18
100
AcDbEntity
  8
Object
100
AcDbLine
 10
7.66
 20
25.19428571428572
 30
0.0
 11
7.639999999999999
 21
25.10142857142857
 31
0.0
  0
LINE
  5
75D
330
18
100
AcDbEntity
  8
Object
100
AcDbLine
 10
7.639999999999999
 20
25.10142857142857
 30
0.0
 11
7.615714285714285
 21
25.00857142857143
 31
0.0
  0
LINE
  5
75E
330
18
100
AcDbEntity
  8
Object
100
AcDbLine
 10
7.615714285714285
 20
25.00857142857143
 30
0.0
 11
7.585714285714285
 21
24.91428571428571
 31
0.0
  0
LINE
  5
75F
330
18
100
AcDbEntity
  8
Object
100
AcDbLine
 10
7.585714285714285
 20
24.91428571428571
 30
0.0
 11
7.551428571428571
 21
24.82285714285714
 31
0.0
  0
LINE
  5
760
330
18
100
AcDbEntity
  8
Object
100
AcDbLine
 10
7.551428571428571
 20
24.82285714285714
 30
0.0
 11
7.512857142857142
 21
24.73
 31
0.0
  0
LINE
  5
761
330
18
100
AcDbEntity
  8
Object
100
AcDbLine
 10
7.512857142857142
 20
24.73
 30
0.0
 11
7.468571428571428
 21
24.64
 31
0.0
  0
LINE
  5
762
330
18
100
AcDbEntity
  8
Object
100
AcDbLine
 10
7.468571428571428
 20
24.64
 30
0.0
 11
7.419999999999999
 21
24.55142857142857
 31
0.0
  0
LINE
  5
763
330
18
100
AcDbEntity
  8
Object
100
AcDbLine
 10
7.419999999999999
 20
24.55142857142857
 30
0.0
 11
7.365714285714285
 21
24.46428571428572
 31
0.0
  0
LINE
  5
764
330
18
100
AcDbEntity
  8
Object
100
AcDbLine
 10
7.365714285714285
 20
24.46428571428572
 30
0.0
 11
7.307142857142856
 21
24.38
 31
0.0
  0
LINE
  5
765
330
18
100
AcDbEntity
  8
Object
100
AcDbLine
 10
7.307142857142856
 20
24.38
 30
0.0
 11
7.244285714285714
 21
24.29714285714286
 31
0.0
  0
LINE
  5
766
330
18
100
AcDbEntity
  8
Object
100
AcDbLine
 10
7.244285714285714
 20
24.29714285714286
 30
0.0
 11
7.175714285714285
 21
24.21857142857143
 31
0.0
  0
LINE
  5
767
330
18
100
AcDbEntity
  8
Object
100
AcDbLine
 10
7.175714285714285
 20
24.21857142857143
 30
0.0
 11
7.104285714285714
 21
24.14428571428572
 31
0.0
  0
LINE
  5
768
330
18
100
AcDbEntity
  8
Object
100
AcDbLine
 10
7.548571428571428
 20
25.29
 30
0.0
 11
5.955714285714285
 21
23.70285714285714
 31
0.0
  0
LINE
  5
769
330
18
100
AcDbEntity
  8
Object
100
AcDbLine
 10
7.104285714285714
 20
24.14428571428572
 30
0.0
 11
7.03
 21
24.07285714285714
 31
0.0
  0
LINE
  5
76A
330
18
100
AcDbEntity
  8
Object
100
AcDbLine
 10
7.03
 20
24.07285714285714
 30
0.0
 11
6.95
 21
24.00571428571429
 31
0.0
  0
LINE
  5
76B
330
18
100
AcDbEntity
  8
Object
100
AcDbLine
 10
6.95
 20
24.00571428571429
 30
0.0
 11
6.868571428571428
 21
23.94285714285715
 31
0.0
  0
LINE
  5
76C
330
18
100
AcDbEntity
  8
Object
100
AcDbLine
 10
6.868571428571428
 20
23.94285714285715
 30
0.0
 11
6.784285714285714
 21
23.88428571428571
 31
0.0
  0
LINE
  5
76D
330
18
100
AcDbEntity
  8
Object
100
AcDbLine
 10
6.784285714285714
 20
23.88428571428571
 30
0.0
 11
6.697142857142857
 21
23.83
 31
0.0
  0
LINE
  5
76E
330
18
100
AcDbEntity
  8
Object
100
AcDbLine
 10
6.697142857142857
 20
23.83
 30
0.0
 11
6.607142857142856
 21
23.78142857142857
 31
0.0
  0
LINE
  5
76F
330
18
100
AcDbEntity
  8
Object
100
AcDbLine
 10
6.607142857142856
 20
23.78142857142857
 30
0.0
 11
6.517142857142856
 21
23.73714285714286
 31
0.0
  0
LINE
  5
770
330
18
100
AcDbEntity
  8
Object
100
AcDbLine
 10
6.517142857142856
 20
23.73714285714286
 30
0.0
 11
6.424285714285714
 21
23.69857142857143
 31
0.0
  0
LINE
  5
771
330
18
100
AcDbEntity
  8
Object
100
AcDbLine
 10
6.424285714285714
 20
23.69857142857143
 30
0.0
 11
6.331428571428571
 21
23.66428571428571
 31
0.0
  0
LINE
  5
772
330
18
100
AcDbEntity
  8
Object
100
AcDbLine
 10
6.331428571428571
 20
23.66428571428571
 30
0.0
 11
6.238571428571428
 21
23.63571428571429
 31
0.0
  0
LINE
  5
773
330
18
100
AcDbEntity
  8
Object
100
AcDbLine
 10
6.238571428571428
 20
23.63571428571429
 30
0.0
 11
6.144285714285714
 21
23.61142857142857
 31
0.0
  0
LINE
  5
774
330
18
100
AcDbEntity
  8
Object
100
AcDbLine
 10
6.144285714285714
 20
23.61142857142857
 30
0.0
 11
6.051428571428571
 21
23.59142857142857
 31
0.0
  0
LINE
  5
775
330
18
100
AcDbEntity
  8
Object
100
AcDbLine
 10
6.051428571428571
 20
23.59142857142857
 30
0.0
 11
5.958571428571428
 21
23.57714285714286
 31
0.0
  0
LINE
  5
776
330
18
100
AcDbEntity
  8
Object
100
AcDbLine
 10
5.955714285714285
 20
23.70285714285714
 30
0.0
 11
5.888571428571428
 21
23.69428571428572
 31
0.0
  0
LINE
  5
777
330
18
100
AcDbEntity
  8
Object
100
AcDbLine
 10
5.865714285714285
 20
23.56714285714286
 30
0.0
 11
5.958571428571428
 21
23.57714285714286
 31
0.0
  0
LINE
  5
778
330
18
100
AcDbEntity
  8
Object
100
AcDbLine
 10
5.888571428571428
 20
23.69428571428572
 30
0.0
 11
5.821428571428571
 21
23.68857142857143
 31
0.0
  0
LINE
  5
779
330
18
100
AcDbEntity
  8
Object
100
AcDbLine
 10
5.775714285714285
 20
23.56
 30
0.0
 11
5.865714285714285
 21
23.56714285714286
 31
0.0
  0
LINE
  5
77A
330
18
100
AcDbEntity
  8
Object
100
AcDbLine
 10
5.821428571428571
 20
23.68857142857143
 30
0.0
 11
5.754285714285714
 21
23.68428571428571
 31
0.0
  0
LINE
  5
77B
330
18
100
AcDbEntity
  8
Object
100
AcDbLine
 10
5.685714285714285
 20
23.55857142857143
 30
0.0
 11
5.775714285714285
 21
23.56
 31
0.0
  0
LINE
  5
77C
330
18
100
AcDbEntity
  8
Object
100
AcDbLine
 10
5.754285714285714
 20
23.68428571428571
 30
0.0
 11
5.687142857142856
 21
23.68285714285714
 31
0.0
  0
LINE
  5
77D
330
18
100
AcDbEntity
  8
Object
100
AcDbLine
 10
5.687142857142856
 20
23.68285714285714
 30
0.0
 11
5.465714285714285
 21
23.68285714285714
 31
0.0
  0
LINE
  5
77E
330
18
100
AcDbEntity
  8
Object
100
AcDbLine
 10
5.454285714285714
 20
23.68142857142857
 30
0.0
 11
5.444285714285713
 21
23.67428571428571
 31
0.0
  0
LINE
  5
77F
330
18
100
AcDbEntity
  8
Object
100
AcDbLine
 10
5.685714285714285
 20
23.55857142857143
 30
0.0
 11
5.435714285714285
 21
23.55857142857143
 31
0.0
  0
LINE
  5
780
330
18
100
AcDbEntity
  8
Object
100
AcDbLine
 10
5.435714285714285
 20
23.55857142857143
 30
0.0
 11
5.435714285714285
 21
23.65285714285715
 31
0.0
  0
LINE
  5
781
330
18
100
AcDbEntity
  8
Object
100
AcDbLine
 10
5.465714285714285
 20
23.68285714285714
 30
0.0
 11
5.454285714285714
 21
23.68142857142857
 31
0.0
  0
LINE
  5
782
330
18
100
AcDbEntity
  8
Object
100
AcDbLine
 10
22.86142857142857
 20
23.56
 30
0.0
 11
22.95
 21
23.55857142857143
 31
0.0
  0
LINE
  5
783
330
18
100
AcDbEntity
  8
Object
100
AcDbLine
 10
22.95
 20
23.55857142857143
 30
0.0
 11
22.69857142857143
 21
23.55857142857143
 31
0.0
  0
LINE
  5
784
330
18
100
AcDbEntity
  8
Object
100
AcDbLine
 10
22.86142857142857
 20
23.56
 30
0.0
 11
22.77
 21
23.56714285714286
 31
0.0
  0
LINE
  5
785
330
18
100
AcDbEntity
  8
Object
100
AcDbLine
 10
22.44857142857143
 20
23.57428571428572
 30
0.0
 11
22.57285714285714
 21
23.56285714285714
 31
0.0
  0
LINE
  5
786
330
18
100
AcDbEntity
  8
Object
100
AcDbLine
 10
22.77
 20
23.56714285714286
 30
0.0
 11
22.67857142857143
 21
23.57714285714286
 31
0.0
  0
LINE
  5
787
330
18
100
AcDbEntity
  8
Object
100
AcDbLine
 10
22.49285714285714
 20
23.61142857142857
 30
0.0
 11
22.58571428571428
 21
23.59142857142857
 31
0.0
  0
LINE
  5
788
330
18
100
AcDbEntity
  8
Object
100
AcDbLine
 10
22.58571428571428
 20
23.59142857142857
 30
0.0
 11
22.67857142857143
 21
23.57714285714286
 31
0.0
  0
LINE
  5
789
330
18
100
AcDbEntity
  8
Object
100
AcDbLine
 10
22.44857142857143
 20
23.57428571428572
 30
0.0
 11
22.32428571428572
 21
23.59428571428571
 31
0.0
  0
LINE
  5
78A
330
18
100
AcDbEntity
  8
Object
100
AcDbLine
 10
22.32428571428572
 20
23.59428571428571
 30
0.0
 11
22.20285714285714
 21
23.62142857142857
 31
0.0
  0
LINE
  5
78B
330
18
100
AcDbEntity
  8
Object
100
AcDbLine
 10
22.49285714285714
 20
23.61142857142857
 30
0.0
 11
22.39857142857143
 21
23.63571428571429
 31
0.0
  0
LINE
  5
78C
330
18
100
AcDbEntity
  8
Object
100
AcDbLine
 10
22.39857142857143
 20
23.63571428571429
 30
0.0
 11
22.30571428571428
 21
23.66428571428571
 31
0.0
  0
LINE
  5
78D
330
18
100
AcDbEntity
  8
Object
100
AcDbLine
 10
22.08142857142857
 20
23.65571428571429
 30
0.0
 11
22.20285714285714
 21
23.62142857142857
 31
0.0
  0
LINE
  5
78E
330
18
100
AcDbEntity
  8
Object
100
AcDbLine
 10
22.21285714285714
 20
23.69857142857143
 30
0.0
 11
22.12
 21
23.73714285714286
 31
0.0
  0
LINE
  5
78F
330
18
100
AcDbEntity
  8
Object
100
AcDbLine
 10
21.96428571428572
 20
23.69857142857143
 30
0.0
 11
22.08142857142857
 21
23.65571428571429
 31
0.0
  0
LINE
  5
790
330
18
100
AcDbEntity
  8
Object
100
AcDbLine
 10
22.30571428571428
 20
23.66428571428571
 30
0.0
 11
22.21285714285714
 21
23.69857142857143
 31
0.0
  0
LINE
  5
791
330
18
100
AcDbEntity
  8
Object
100
AcDbLine
 10
22.12
 20
23.73714285714286
 30
0.0
 11
22.02857142857143
 21
23.78142857142857
 31
0.0
  0
LINE
  5
792
330
18
100
AcDbEntity
  8
Object
100
AcDbLine
 10
21.96428571428572
 20
23.69857142857143
 30
0.0
 11
21.84857142857143
 21
23.74857142857143
 31
0.0
  0
LINE
  5
793
330
18
100
AcDbEntity
  8
Object
100
AcDbLine
 10
21.84857142857143
 20
23.74857142857143
 30
0.0
 11
21.73714285714286
 21
23.80571428571428
 31
0.0
  0
LINE
  5
794
330
18
100
AcDbEntity
  8
Object
100
AcDbLine
 10
22.02857142857143
 20
23.78142857142857
 30
0.0
 11
21.94
 21
23.83
 31
0.0
  0
LINE
  5
795
330
18
100
AcDbEntity
  8
Object
100
AcDbLine
 10
21.94
 20
23.83
 30
0.0
 11
21.85285714285714
 21
23.88428571428571
 31
0.0
  0
LINE
  5
796
330
18
100
AcDbEntity
  8
Object
100
AcDbLine
 10
21.73714285714286
 20
23.80571428571428
 30
0.0
 11
21.63
 21
23.87
 31
0.0
  0
LINE
  5
797
330
18
100
AcDbEntity
  8
Object
100
AcDbLine
 10
21.63
 20
23.87
 30
0.0
 11
21.52571428571429
 21
23.94
 31
0.0
  0
LINE
  5
798
330
18
100
AcDbEntity
  8
Object
100
AcDbLine
 10
21.68571428571429
 20
24.00571428571429
 30
0.0
 11
21.76857142857143
 21
23.94285714285715
 31
0.0
  0
LINE
  5
799
330
18
100
AcDbEntity
  8
Object
100
AcDbLine
 10
21.76857142857143
 20
23.94285714285715
 30
0.0
 11
21.85285714285714
 21
23.88428571428571
 31
0.0
  0
LINE
  5
79A
330
18
100
AcDbEntity
  8
Object
100
AcDbLine
 10
21.68571428571429
 20
24.00571428571429
 30
0.0
 11
21.60714285714286
 21
24.07285714285714
 31
0.0
  0
LINE
  5
79B
330
18
100
AcDbEntity
  8
Object
100
AcDbLine
 10
21.52571428571429
 20
23.94
 30
0.0
 11
21.42714285714286
 21
24.01714285714286
 31
0.0
  0
LINE
  5
79C
330
18
100
AcDbEntity
  8
Object
100
AcDbLine
 10
21.42714285714286
 20
24.01714285714286
 30
0.0
 11
21.33285714285714
 21
24.1
 31
0.0
  0
LINE
  5
79D
330
18
100
AcDbEntity
  8
Object
100
AcDbLine
 10
21.60714285714286
 20
24.07285714285714
 30
0.0
 11
21.53142857142857
 21
24.14428571428572
 31
0.0
  0
LINE
  5
79E
330
18
100
AcDbEntity
  8
Object
100
AcDbLine
 10
21.33285714285714
 20
24.1
 30
0.0
 11
21.24428571428571
 21
24.18857142857143
 31
0.0
  0
LINE
  5
79F
330
18
100
AcDbEntity
  8
Object
100
AcDbLine
 10
21.24428571428571
 20
24.18857142857143
 30
0.0
 11
21.16142857142857
 21
24.28285714285714
 31
0.0
  0
LINE
  5
7A0
330
18
100
AcDbEntity
  8
Object
100
AcDbLine
 10
21.27142857142857
 20
24.46428571428572
 30
0.0
 11
21.33
 21
24.38
 31
0.0
  0
LINE
  5
7A1
330
18
100
AcDbEntity
  8
Object
100
AcDbLine
 10
21.33
 20
24.38
 30
0.0
 11
21.39285714285714
 21
24.29714285714286
 31
0.0
  0
LINE
  5
7A2
330
18
100
AcDbEntity
  8
Object
100
AcDbLine
 10
21.16142857142857
 20
24.28285714285714
 30
0.0
 11
21.08428571428571
 21
24.38285714285715
 31
0.0
  0
LINE
  5
7A3
330
18
100
AcDbEntity
  8
Object
100
AcDbLine
 10
21.08428571428571
 20
24.38285714285715
 30
0.0
 11
21.01428571428572
 21
24.48714285714286
 31
0.0
  0
LINE
  5
7A4
330
18
100
AcDbEntity
  8
Object
100
AcDbLine
 10
21.27142857142857
 20
24.46428571428572
 30
0.0
 11
21.21714285714286
 21
24.55142857142857
 31
0.0
  0
LINE
  5
7A5
330
18
100
AcDbEntity
  8
Object
100
AcDbLine
 10
21.21714285714286
 20
24.55142857142857
 30
0.0
 11
21.16857142857143
 21
24.64
 31
0.0
  0
LINE
  5
7A6
330
18
100
AcDbEntity
  8
Object
100
AcDbLine
 10
20.95
 20
24.59428571428571
 30
0.0
 11
21.01428571428572
 21
24.48714285714286
 31
0.0
  0
LINE
  5
7A7
330
18
100
AcDbEntity
  8
Object
100
AcDbLine
 10
21.16857142857143
 20
24.64
 30
0.0
 11
21.12428571428571
 21
24.73
 31
0.0
  0
LINE
  5
7A8
330
18
100
AcDbEntity
  8
Object
100
AcDbLine
 10
20.89285714285714
 20
24.70714285714286
 30
0.0
 11
20.95
 21
24.59428571428571
 31
0.0
  0
LINE
  5
7A9
330
18
100
AcDbEntity
  8
Object
100
AcDbLine
 10
21.05
 20
24.91428571428571
 30
0.0
 11
21.08428571428571
 21
24.82285714285714
 31
0.0
  0
LINE
  5
7AA
330
18
100
AcDbEntity
  8
Object
100
AcDbLine
 10
21.08428571428571
 20
24.82285714285714
 30
0.0
 11
21.12428571428571
 21
24.73
 31
0.0
  0
LINE
  5
7AB
330
18
100
AcDbEntity
  8
Object
100
AcDbLine
 10
20.84285714285714
 20
24.82285714285714
 30
0.0
 11
20.89285714285714
 21
24.70714285714286
 31
0.0
  0
LINE
  5
7AC
330
18
100
AcDbEntity
  8
Object
100
AcDbLine
 10
21.05
 20
24.91428571428571
 30
0.0
 11
21.02142857142857
 21
25.00857142857143
 31
0.0
  0
LINE
  5
7AD
330
18
100
AcDbEntity
  8
Object
100
AcDbLine
 10
20.80142857142857
 20
24.94
 30
0.0
 11
20.84285714285714
 21
24.82285714285714
 31
0.0
  0
LINE
  5
7AE
330
18
100
AcDbEntity
  8
Object
100
AcDbLine
 10
21.02142857142857
 20
25.00857142857143
 30
0.0
 11
20.99571428571429
 21
25.10142857142857
 31
0.0
  0
LINE
  5
7AF
330
18
100
AcDbEntity
  8
Object
100
AcDbLine
 10
20.80142857142857
 20
24.94
 30
0.0
 11
20.76571428571428
 21
25.06142857142857
 31
0.0
  0
LINE
  5
7B0
330
18
100
AcDbEntity
  8
Object
100
AcDbLine
 10
20.76571428571428
 20
25.06142857142857
 30
0.0
 11
20.73857142857143
 21
25.18428571428572
 31
0.0
  0
LINE
  5
7B1
330
18
100
AcDbEntity
  8
Object
100
AcDbLine
 10
20.96142857142857
 20
25.28714285714286
 30
0.0
 11
20.97714285714286
 21
25.19428571428572
 31
0.0
  0
LINE
  5
7B2
330
18
100
AcDbEntity
  8
Object
100
AcDbLine
 10
20.97714285714286
 20
25.19428571428572
 30
0.0
 11
20.99571428571429
 21
25.10142857142857
 31
0.0
  0
LINE
  5
7B3
330
18
100
AcDbEntity
  8
Object
100
AcDbLine
 10
20.96142857142857
 20
25.28714285714286
 30
0.0
 11
20.95142857142857
 21
25.37857142857143
 31
0.0
  0
LINE
  5
7B4
330
18
100
AcDbEntity
  8
Object
100
AcDbLine
 10
20.73857142857143
 20
25.18428571428572
 30
0.0
 11
20.71857142857143
 21
25.30714285714286
 31
0.0
  0
LINE
  5
7B5
330
18
100
AcDbEntity
  8
Object
100
AcDbLine
 10
20.71857142857143
 20
25.30714285714286
 30
0.0
 11
20.70714285714286
 21
25.43285714285714
 31
0.0
  0
LINE
  5
7B6
330
18
100
AcDbEntity
  8
Object
100
AcDbLine
 10
20.95142857142857
 20
25.37857142857143
 30
0.0
 11
20.94428571428572
 21
25.46857142857143
 31
0.0
  0
LINE
  5
7B7
330
18
100
AcDbEntity
  8
Object
100
AcDbLine
 10
20.70714285714286
 20
25.43285714285714
 30
0.0
 11
20.70285714285714
 21
25.55857142857143
 31
0.0
  0
LINE
  5
7B8
330
18
100
AcDbEntity
  8
Object
100
AcDbLine
 10
20.70285714285714
 20
25.55857142857143
 30
0.0
 11
20.94285714285714
 21
25.55857142857143
 31
0.0
  0
LINE
  5
7B9
330
18
100
AcDbEntity
  8
Object
100
AcDbLine
 10
20.94285714285714
 20
25.55857142857143
 30
0.0
 11
20.94428571428572
 21
25.46857142857143
 31
0.0
  0
LINE
  5
7BA
330
18
100
AcDbEntity
  8
Object
100
AcDbLine
 10
21.06857142857143
 20
25.55857142857143
 30
0.0
 11
21.03
 21
27.55857142857143
 31
0.0
  0
LINE
  5
7BB
330
18
100
AcDbEntity
  8
Object
100
AcDbLine
 10
20.94285714285714
 20
25.55857142857143
 30
0.0
 11
20.90571428571429
 21
27.55857142857143
 31
0.0
  0
LINE
  5
7BC
330
18
100
AcDbEntity
  8
Object
100
AcDbLine
 10
20.70285714285714
 20
25.55857142857143
 30
0.0
 11
20.66857142857143
 21
27.55857142857143
 31
0.0
  0
LINE
  5
7BD
330
18
100
AcDbEntity
  8
Object
100
AcDbLine
 10
20.66857142857143
 20
27.55857142857143
 30
0.0
 11
20.90571428571429
 21
27.55857142857143
 31
0.0
  0
LINE
  5
7BE
330
18
100
AcDbEntity
  8
Object
100
AcDbLine
 10
23.20142857142857
 20
23.65285714285715
 30
0.0
 11
23.20142857142857
 21
23.55857142857143
 31
0.0
  0
LINE
  5
7BF
330
18
100
AcDbEntity
  8
Object
100
AcDbLine
 10
23.20142857142857
 20
23.55857142857143
 30
0.0
 11
22.95
 21
23.55857142857143
 31
0.0
  0
LINE
  5
7C0
330
18
100
AcDbEntity
  8
Object
100
AcDbLine
 10
22.95
 20
23.55857142857143
 30
0.0
 11
22.69857142857143
 21
23.55857142857143
 31
0.0
  0
LINE
  5
7C1
330
18
100
AcDbEntity
  8
Object
100
AcDbLine
 10
22.69857142857143
 20
23.55857142857143
 30
0.0
 11
22.68428571428572
 21
23.55857142857143
 31
0.0
  0
LINE
  5
7C2
330
18
100
AcDbEntity
  8
Object
100
AcDbLine
 10
22.68428571428572
 20
23.55857142857143
 30
0.0
 11
22.66285714285714
 21
23.55857142857143
 31
0.0
  0
LINE
  5
7C3
330
18
100
AcDbEntity
  8
Object
100
AcDbLine
 10
22.66285714285714
 20
23.55857142857143
 30
0.0
 11
22.63428571428571
 21
23.55857142857143
 31
0.0
  0
LINE
  5
7C4
330
18
100
AcDbEntity
  8
Object
100
AcDbLine
 10
22.63428571428571
 20
23.55857142857143
 30
0.0
 11
22.59714285714286
 21
23.55857142857143
 31
0.0
  0
LINE
  5
7C5
330
18
100
AcDbEntity
  8
Object
100
AcDbLine
 10
22.59714285714286
 20
23.55857142857143
 30
0.0
 11
22.55285714285714
 21
23.55857142857143
 31
0.0
  0
LINE
  5
7C6
330
18
100
AcDbEntity
  8
Object
100
AcDbLine
 10
22.55285714285714
 20
23.55857142857143
 30
0.0
 11
22.50142857142857
 21
23.55857142857143
 31
0.0
  0
LINE
  5
7C7
330
18
100
AcDbEntity
  8
Object
100
AcDbLine
 10
22.50142857142857
 20
23.55857142857143
 30
0.0
 11
22.44285714285714
 21
23.55857142857143
 31
0.0
  0
LINE
  5
7C8
330
18
100
AcDbEntity
  8
Object
100
AcDbLine
 10
22.44285714285714
 20
23.55857142857143
 30
0.0
 11
22.37714285714286
 21
23.55857142857143
 31
0.0
  0
LINE
  5
7C9
330
18
100
AcDbEntity
  8
Object
100
AcDbLine
 10
22.37714285714286
 20
23.55857142857143
 30
0.0
 11
22.30428571428571
 21
23.55857142857143
 31
0.0
  0
LINE
  5
7CA
330
18
100
AcDbEntity
  8
Object
100
AcDbLine
 10
22.30428571428571
 20
23.55857142857143
 30
0.0
 11
22.22428571428571
 21
23.55857142857143
 31
0.0
  0
LINE
  5
7CB
330
18
100
AcDbEntity
  8
Object
100
AcDbLine
 10
22.22428571428571
 20
23.55857142857143
 30
0.0
 11
22.14
 21
23.55857142857143
 31
0.0
  0
LINE
  5
7CC
330
18
100
AcDbEntity
  8
Object
100
AcDbLine
 10
22.14
 20
23.55857142857143
 30
0.0
 11
22.04857142857143
 21
23.55857142857143
 31
0.0
  0
LINE
  5
7CD
330
18
100
AcDbEntity
  8
Object
100
AcDbLine
 10
22.04857142857143
 20
23.55857142857143
 30
0.0
 11
21.95142857142857
 21
23.55857142857143
 31
0.0
  0
LINE
  5
7CE
330
18
100
AcDbEntity
  8
Object
100
AcDbLine
 10
21.95142857142857
 20
23.55857142857143
 30
0.0
 11
21.84857142857143
 21
23.55857142857143
 31
0.0
  0
LINE
  5
7CF
330
18
100
AcDbEntity
  8
Object
100
AcDbLine
 10
21.84857142857143
 20
23.55857142857143
 30
0.0
 11
21.74142857142857
 21
23.55857142857143
 31
0.0
  0
LINE
  5
7D0
330
18
100
AcDbEntity
  8
Object
100
AcDbLine
 10
21.74142857142857
 20
23.55857142857143
 30
0.0
 11
21.62857142857143
 21
23.55857142857143
 31
0.0
  0
LINE
  5
7D1
330
18
100
AcDbEntity
  8
Object
100
AcDbLine
 10
21.62857142857143
 20
23.55857142857143
 30
0.0
 11
21.51285714285714
 21
23.55857142857143
 31
0.0
  0
LINE
  5
7D2
330
18
100
AcDbEntity
  8
Object
100
AcDbLine
 10
21.51285714285714
 20
23.55857142857143
 30
0.0
 11
21.39142857142857
 21
23.55857142857143
 31
0.0
  0
LINE
  5
7D3
330
18
100
AcDbEntity
  8
Object
100
AcDbLine
 10
21.39142857142857
 20
23.55857142857143
 30
0.0
 11
21.26857142857143
 21
23.55857142857143
 31
0.0
  0
LINE
  5
7D4
330
18
100
AcDbEntity
  8
Object
100
AcDbLine
 10
21.26857142857143
 20
23.55857142857143
 30
0.0
 11
21.14142857142857
 21
23.55857142857143
 31
0.0
  0
LINE
  5
7D5
330
18
100
AcDbEntity
  8
Object
100
AcDbLine
 10
21.14142857142857
 20
23.55857142857143
 30
0.0
 11
21.01142857142857
 21
23.55857142857143
 31
0.0
  0
LINE
  5
7D6
330
18
100
AcDbEntity
  8
Object
100
AcDbLine
 10
21.01142857142857
 20
23.55857142857143
 30
0.0
 11
20.88
 21
23.55857142857143
 31
0.0
  0
LINE
  5
7D7
330
18
100
AcDbEntity
  8
Object
100
AcDbLine
 10
20.88
 20
23.55857142857143
 30
0.0
 11
20.74714285714286
 21
23.55857142857143
 31
0.0
  0
LINE
  5
7D8
330
18
100
AcDbEntity
  8
Object
100
AcDbLine
 10
20.74714285714286
 20
23.55857142857143
 30
0.0
 11
20.61142857142857
 21
23.55857142857143
 31
0.0
  0
LINE
  5
7D9
330
18
100
AcDbEntity
  8
Object
100
AcDbLine
 10
20.61142857142857
 20
23.55857142857143
 30
0.0
 11
20.47571428571429
 21
23.55857142857143
 31
0.0
  0
LINE
  5
7DA
330
18
100
AcDbEntity
  8
Object
100
AcDbLine
 10
20.47571428571429
 20
23.55857142857143
 30
0.0
 11
20.34
 21
23.55857142857143
 31
0.0
  0
LINE
  5
7DB
330
18
100
AcDbEntity
  8
Object
100
AcDbLine
 10
20.34
 20
23.55857142857143
 30
0.0
 11
14.91857142857143
 21
23.55857142857143
 31
0.0
  0
LINE
  5
7DC
330
18
100
AcDbEntity
  8
Object
100
AcDbLine
 10
14.91857142857143
 20
23.55857142857143
 30
0.0
 11
14.84571428571428
 21
23.55857142857143
 31
0.0
  0
LINE
  5
7DD
330
18
100
AcDbEntity
  8
Object
100
AcDbLine
 10
14.70857142857143
 20
23.55857142857143
 30
0.0
 11
14.78428571428571
 21
23.55857142857143
 31
0.0
  0
LINE
  5
7DE
330
18
100
AcDbEntity
  8
Object
100
AcDbLine
 10
14.59857142857143
 20
23.55857142857143
 30
0.0
 11
14.65571428571428
 21
23.55857142857143
 31
0.0
  0
LINE
  5
7DF
330
18
100
AcDbEntity
  8
Object
100
AcDbLine
 10
14.42
 20
23.55857142857143
 30
0.0
 11
14.5
 21
23.55857142857143
 31
0.0
  0
LINE
  5
7E0
330
18
100
AcDbEntity
  8
Object
100
AcDbLine
 10
14.26
 20
23.55857142857143
 30
0.0
 11
14.29428571428571
 21
23.55857142857143
 31
0.0
  0
LINE
  5
7E1
330
18
100
AcDbEntity
  8
Object
100
AcDbLine
 10
14.16285714285714
 20
23.55857142857143
 30
0.0
 11
14.19428571428571
 21
23.55857142857143
 31
0.0
  0
LINE
  5
7E2
330
18
100
AcDbEntity
  8
Object
100
AcDbLine
 10
13.97285714285714
 20
23.55857142857143
 30
0.0
 11
14.06857142857143
 21
23.55857142857143
 31
0.0
  0
LINE
  5
7E3
330
18
100
AcDbEntity
  8
Object
100
AcDbLine
 10
13.84571428571428
 20
23.55857142857143
 30
0.0
 11
13.91142857142857
 21
23.55857142857143
 31
0.0
  0
LINE
  5
7E4
330
18
100
AcDbEntity
  8
Object
100
AcDbLine
 10
13.72857142857142
 20
23.55857142857143
 30
0.0
 11
13.71857142857143
 21
23.55857142857143
 31
0.0
  0
LINE
  5
7E5
330
18
100
AcDbEntity
  8
Object
100
AcDbLine
 10
13.71857142857143
 20
23.55857142857143
 30
0.0
 11
8.297142857142857
 21
23.55857142857143
 31
0.0
  0
LINE
  5
7E6
330
18
100
AcDbEntity
  8
Object
100
AcDbLine
 10
8.297142857142857
 20
23.55857142857143
 30
0.0
 11
8.161428571428571
 21
23.55857142857143
 31
0.0
  0
LINE
  5
7E7
330
18
100
AcDbEntity
  8
Object
100
AcDbLine
 10
8.161428571428571
 20
23.55857142857143
 30
0.0
 11
8.024285714285714
 21
23.55857142857143
 31
0.0
  0
LINE
  5
7E8
330
18
100
AcDbEntity
  8
Object
100
AcDbLine
 10
8.024285714285714
 20
23.55857142857143
 30
0.0
 11
7.889999999999999
 21
23.55857142857143
 31
0.0
  0
LINE
  5
7E9
330
18
100
AcDbEntity
  8
Object
100
AcDbLine
 10
7.889999999999999
 20
23.55857142857143
 30
0.0
 11
7.757142857142857
 21
23.55857142857143
 31
0.0
  0
LINE
  5
7EA
330
18
100
AcDbEntity
  8
Object
100
AcDbLine
 10
7.757142857142857
 20
23.55857142857143
 30
0.0
 11
7.624285714285714
 21
23.55857142857143
 31
0.0
  0
LINE
  5
7EB
330
18
100
AcDbEntity
  8
Object
100
AcDbLine
 10
7.624285714285714
 20
23.55857142857143
 30
0.0
 11
7.495714285714285
 21
23.55857142857143
 31
0.0
  0
LINE
  5
7EC
330
18
100
AcDbEntity
  8
Object
100
AcDbLine
 10
7.495714285714285
 20
23.55857142857143
 30
0.0
 11
7.368571428571428
 21
23.55857142857143
 31
0.0
  0
LINE
  5
7ED
330
18
100
AcDbEntity
  8
Object
100
AcDbLine
 10
7.368571428571428
 20
23.55857142857143
 30
0.0
 11
7.244285714285714
 21
23.55857142857143
 31
0.0
  0
LINE
  5
7EE
330
18
100
AcDbEntity
  8
Object
100
AcDbLine
 10
7.244285714285714
 20
23.55857142857143
 30
0.0
 11
7.124285714285714
 21
23.55857142857143
 31
0.0
  0
LINE
  5
7EF
330
18
100
AcDbEntity
  8
Object
100
AcDbLine
 10
7.124285714285714
 20
23.55857142857143
 30
0.0
 11
7.007142857142857
 21
23.55857142857143
 31
0.0
  0
LINE
  5
7F0
330
18
100
AcDbEntity
  8
Object
100
AcDbLine
 10
7.007142857142857
 20
23.55857142857143
 30
0.0
 11
6.895714285714285
 21
23.55857142857143
 31
0.0
  0
LINE
  5
7F1
330
18
100
AcDbEntity
  8
Object
100
AcDbLine
 10
6.895714285714285
 20
23.55857142857143
 30
0.0
 11
6.788571428571428
 21
23.55857142857143
 31
0.0
  0
LINE
  5
7F2
330
18
100
AcDbEntity
  8
Object
100
AcDbLine
 10
6.788571428571428
 20
23.55857142857143
 30
0.0
 11
6.685714285714285
 21
23.55857142857143
 31
0.0
  0
LINE
  5
7F3
330
18
100
AcDbEntity
  8
Object
100
AcDbLine
 10
6.685714285714285
 20
23.55857142857143
 30
0.0
 11
6.588571428571428
 21
23.55857142857143
 31
0.0
  0
LINE
  5
7F4
330
18
100
AcDbEntity
  8
Object
100
AcDbLine
 10
6.588571428571428
 20
23.55857142857143
 30
0.0
 11
6.497142857142857
 21
23.55857142857143
 31
0.0
  0
LINE
  5
7F5
330
18
100
AcDbEntity
  8
Object
100
AcDbLine
 10
6.497142857142857
 20
23.55857142857143
 30
0.0
 11
6.411428571428571
 21
23.55857142857143
 31
0.0
  0
LINE
  5
7F6
330
18
100
AcDbEntity
  8
Object
100
AcDbLine
 10
6.411428571428571
 20
23.55857142857143
 30
0.0
 11
6.332857142857142
 21
23.55857142857143
 31
0.0
  0
LINE
  5
7F7
330
18
100
AcDbEntity
  8
Object
100
AcDbLine
 10
6.332857142857142
 20
23.55857142857143
 30
0.0
 11
6.259999999999999
 21
23.55857142857143
 31
0.0
  0
LINE
  5
7F8
330
18
100
AcDbEntity
  8
Object
100
AcDbLine
 10
6.259999999999999
 20
23.55857142857143
 30
0.0
 11
6.194285714285713
 21
23.55857142857143
 31
0.0
  0
LINE
  5
7F9
330
18
100
AcDbEntity
  8
Object
100
AcDbLine
 10
6.194285714285713
 20
23.55857142857143
 30
0.0
 11
6.135714285714286
 21
23.55857142857143
 31
0.0
  0
LINE
  5
7FA
330
18
100
AcDbEntity
  8
Object
100
AcDbLine
 10
6.135714285714286
 20
23.55857142857143
 30
0.0
 11
6.084285714285714
 21
23.55857142857143
 31
0.0
  0
LINE
  5
7FB
330
18
100
AcDbEntity
  8
Object
100
AcDbLine
 10
6.084285714285714
 20
23.55857142857143
 30
0.0
 11
6.038571428571428
 21
23.55857142857143
 31
0.0
  0
LINE
  5
7FC
330
18
100
AcDbEntity
  8
Object
100
AcDbLine
 10
6.038571428571428
 20
23.55857142857143
 30
0.0
 11
6.002857142857142
 21
23.55857142857143
 31
0.0
  0
LINE
  5
7FD
330
18
100
AcDbEntity
  8
Object
100
AcDbLine
 10
6.002857142857142
 20
23.55857142857143
 30
0.0
 11
5.972857142857142
 21
23.55857142857143
 31
0.0
  0
LINE
  5
7FE
330
18
100
AcDbEntity
  8
Object
100
AcDbLine
 10
5.972857142857142
 20
23.55857142857143
 30
0.0
 11
5.951428571428571
 21
23.55857142857143
 31
0.0
  0
LINE
  5
7FF
330
18
100
AcDbEntity
  8
Object
100
AcDbLine
 10
5.951428571428571
 20
23.55857142857143
 30
0.0
 11
5.938571428571428
 21
23.55857142857143
 31
0.0
  0
LINE
  5
800
330
18
100
AcDbEntity
  8
Object
100
AcDbLine
 10
5.938571428571428
 20
23.55857142857143
 30
0.0
 11
5.685714285714285
 21
23.55857142857143
 31
0.0
  0
LINE
  5
801
330
18
100
AcDbEntity
  8
Object
100
AcDbLine
 10
5.685714285714285
 20
23.55857142857143
 30
0.0
 11
5.435714285714285
 21
23.55857142857143
 31
0.0
  0
LINE
  5
802
330
18
100
AcDbEntity
  8
Object
100
AcDbLine
 10
21.03
 20
27.55857142857143
 30
0.0
 11
20.90571428571429
 21
27.55857142857143
 31
0.0
  0
LINE
  5
803
330
18
100
AcDbEntity
  8
Object
100
AcDbLine
 10
20.90571428571429
 20
27.55857142857143
 30
0.0
 11
20.66857142857143
 21
27.55857142857143
 31
0.0
  0
LINE
  5
804
330
18
100
AcDbEntity
  8
Object
100
AcDbLine
 10
20.66857142857143
 20
27.55857142857143
 30
0.0
 11
20.66142857142857
 21
27.55857142857143
 31
0.0
  0
LINE
  5
805
330
18
100
AcDbEntity
  8
Object
100
AcDbLine
 10
20.66142857142857
 20
27.55857142857143
 30
0.0
 11
20.64714285714286
 21
27.55857142857143
 31
0.0
  0
LINE
  5
806
330
18
100
AcDbEntity
  8
Object
100
AcDbLine
 10
20.64714285714286
 20
27.55857142857143
 30
0.0
 11
20.62571428571429
 21
27.55857142857143
 31
0.0
  0
LINE
  5
807
330
18
100
AcDbEntity
  8
Object
100
AcDbLine
 10
20.62571428571429
 20
27.55857142857143
 30
0.0
 11
20.59857142857143
 21
27.55857142857143
 31
0.0
  0
LINE
  5
808
330
18
100
AcDbEntity
  8
Object
100
AcDbLine
 10
20.59857142857143
 20
27.55857142857143
 30
0.0
 11
20.56428571428571
 21
27.55857142857143
 31
0.0
  0
LINE
  5
809
330
18
100
AcDbEntity
  8
Object
100
AcDbLine
 10
20.56428571428571
 20
27.55857142857143
 30
0.0
 11
20.52571428571429
 21
27.55857142857143
 31
0.0
  0
LINE
  5
80A
330
18
100
AcDbEntity
  8
Object
100
AcDbLine
 10
20.52571428571429
 20
27.55857142857143
 30
0.0
 11
20.48285714285714
 21
27.55857142857143
 31
0.0
  0
LINE
  5
80B
330
18
100
AcDbEntity
  8
Object
100
AcDbLine
 10
20.48285714285714
 20
27.55857142857143
 30
0.0
 11
20.43714285714286
 21
27.55857142857143
 31
0.0
  0
LINE
  5
80C
330
18
100
AcDbEntity
  8
Object
100
AcDbLine
 10
20.43714285714286
 20
27.55857142857143
 30
0.0
 11
20.38857142857143
 21
27.55857142857143
 31
0.0
  0
LINE
  5
80D
330
18
100
AcDbEntity
  8
Object
100
AcDbLine
 10
20.38857142857143
 20
27.55857142857143
 30
0.0
 11
20.34
 21
27.55857142857143
 31
0.0
  0
LINE
  5
80E
330
18
100
AcDbEntity
  8
Object
100
AcDbLine
 10
20.34
 20
27.55857142857143
 30
0.0
 11
8.297142857142857
 21
27.55857142857143
 31
0.0
  0
LINE
  5
80F
330
18
100
AcDbEntity
  8
Object
100
AcDbLine
 10
8.297142857142857
 20
27.55857142857143
 30
0.0
 11
8.247142857142856
 21
27.55857142857143
 31
0.0
  0
LINE
  5
810
330
18
100
AcDbEntity
  8
Object
100
AcDbLine
 10
8.247142857142856
 20
27.55857142857143
 30
0.0
 11
8.199999999999999
 21
27.55857142857143
 31
0.0
  0
LINE
  5
811
330
18
100
AcDbEntity
  8
Object
100
AcDbLine
 10
8.199999999999999
 20
27.55857142857143
 30
0.0
 11
8.154285714285714
 21
27.55857142857143
 31
0.0
  0
LINE
  5
812
330
18
100
AcDbEntity
  8
Object
100
AcDbLine
 10
8.154285714285714
 20
27.55857142857143
 30
0.0
 11
8.111428571428572
 21
27.55857142857143
 31
0.0
  0
LINE
  5
813
330
18
100
AcDbEntity
  8
Object
100
AcDbLine
 10
8.111428571428572
 20
27.55857142857143
 30
0.0
 11
8.072857142857142
 21
27.55857142857143
 31
0.0
  0
LINE
  5
814
330
18
100
AcDbEntity
  8
Object
100
AcDbLine
 10
8.072857142857142
 20
27.55857142857143
 30
0.0
 11
8.038571428571428
 21
27.55857142857143
 31
0.0
  0
LINE
  5
815
330
18
100
AcDbEntity
  8
Object
100
AcDbLine
 10
8.038571428571428
 20
27.55857142857143
 30
0.0
 11
8.01142857142857
 21
27.55857142857143
 31
0.0
  0
LINE
  5
816
330
18
100
AcDbEntity
  8
Object
100
AcDbLine
 10
8.01142857142857
 20
27.55857142857143
 30
0.0
 11
7.99
 21
27.55857142857143
 31
0.0
  0
LINE
  5
817
330
18
100
AcDbEntity
  8
Object
100
AcDbLine
 10
7.99
 20
27.55857142857143
 30
0.0
 11
7.975714285714285
 21
27.55857142857143
 31
0.0
  0
LINE
  5
818
330
18
100
AcDbEntity
  8
Object
100
AcDbLine
 10
7.975714285714285
 20
27.55857142857143
 30
0.0
 11
7.968571428571428
 21
27.55857142857143
 31
0.0
  0
LINE
  5
819
330
18
100
AcDbEntity
  8
Object
100
AcDbLine
 10
7.968571428571428
 20
27.55857142857143
 30
0.0
 11
7.731428571428571
 21
27.55857142857143
 31
0.0
  0
LINE
  5
81A
330
18
100
AcDbEntity
  8
Object
100
AcDbLine
 10
7.731428571428571
 20
27.55857142857143
 30
0.0
 11
7.605714285714285
 21
27.55857142857143
 31
0.0
  0
LINE
  5
81B
330
18
100
AcDbEntity
  8
Object
100
AcDbLine
 10
7.694285714285713
 20
25.55857142857143
 30
0.0
 11
7.932857142857143
 21
25.55857142857143
 31
0.0
  0
LINE
  5
81C
330
18
100
AcDbEntity
  8
Object
100
AcDbLine
 10
7.932857142857143
 20
25.55857142857143
 30
0.0
 11
7.928571428571428
 21
25.43285714285714
 31
0.0
  0
LINE
  5
81D
330
18
100
AcDbEntity
  8
Object
100
AcDbLine
 10
7.928571428571428
 20
25.43285714285714
 30
0.0
 11
7.917142857142857
 21
25.30714285714286
 31
0.0
  0
LINE
  5
81E
330
18
100
AcDbEntity
  8
Object
100
AcDbLine
 10
7.917142857142857
 20
25.30714285714286
 30
0.0
 11
7.897142857142856
 21
25.18428571428572
 31
0.0
  0
LINE
  5
81F
330
18
100
AcDbEntity
  8
Object
100
AcDbLine
 10
7.897142857142856
 20
25.18428571428572
 30
0.0
 11
7.87
 21
25.06142857142857
 31
0.0
  0
LINE
  5
820
330
18
100
AcDbEntity
  8
Object
100
AcDbLine
 10
7.87
 20
25.06142857142857
 30
0.0
 11
7.835714285714285
 21
24.94
 31
0.0
  0
LINE
  5
821
330
18
100
AcDbEntity
  8
Object
100
AcDbLine
 10
7.835714285714285
 20
24.94
 30
0.0
 11
7.792857142857142
 21
24.82285714285714
 31
0.0
  0
LINE
  5
822
330
18
100
AcDbEntity
  8
Object
100
AcDbLine
 10
7.792857142857142
 20
24.82285714285714
 30
0.0
 11
7.742857142857142
 21
24.70714285714286
 31
0.0
  0
LINE
  5
823
330
18
100
AcDbEntity
  8
Object
100
AcDbLine
 10
7.742857142857142
 20
24.70714285714286
 30
0.0
 11
7.685714285714285
 21
24.59428571428571
 31
0.0
  0
LINE
  5
824
330
18
100
AcDbEntity
  8
Object
100
AcDbLine
 10
7.685714285714285
 20
24.59428571428571
 30
0.0
 11
7.622857142857142
 21
24.48714285714286
 31
0.0
  0
LINE
  5
825
330
18
100
AcDbEntity
  8
Object
100
AcDbLine
 10
7.622857142857142
 20
24.48714285714286
 30
0.0
 11
7.551428571428571
 21
24.38285714285715
 31
0.0
  0
LINE
  5
826
330
18
100
AcDbEntity
  8
Object
100
AcDbLine
 10
7.551428571428571
 20
24.38285714285715
 30
0.0
 11
7.475714285714285
 21
24.28285714285714
 31
0.0
  0
LINE
  5
827
330
18
100
AcDbEntity
  8
Object
100
AcDbLine
 10
7.475714285714285
 20
24.28285714285714
 30
0.0
 11
7.392857142857143
 21
24.18857142857143
 31
0.0
  0
LINE
  5
828
330
18
100
AcDbEntity
  8
Object
100
AcDbLine
 10
7.392857142857143
 20
24.18857142857143
 30
0.0
 11
7.304285714285714
 21
24.1
 31
0.0
  0
LINE
  5
829
330
18
100
AcDbEntity
  8
Object
100
AcDbLine
 10
7.304285714285714
 20
24.1
 30
0.0
 11
7.209999999999999
 21
24.01714285714286
 31
0.0
  0
LINE
  5
82A
330
18
100
AcDbEntity
  8
Object
100
AcDbLine
 10
7.209999999999999
 20
24.01714285714286
 30
0.0
 11
7.111428571428571
 21
23.94
 31
0.0
  0
LINE
  5
82B
330
18
100
AcDbEntity
  8
Object
100
AcDbLine
 10
7.111428571428571
 20
23.94
 30
0.0
 11
7.007142857142857
 21
23.87
 31
0.0
  0
LINE
  5
82C
330
18
100
AcDbEntity
  8
Object
100
AcDbLine
 10
7.007142857142857
 20
23.87
 30
0.0
 11
6.898571428571428
 21
23.80571428571428
 31
0.0
  0
LINE
  5
82D
330
18
100
AcDbEntity
  8
Object
100
AcDbLine
 10
6.898571428571428
 20
23.80571428571428
 30
0.0
 11
6.787142857142857
 21
23.74857142857143
 31
0.0
  0
LINE
  5
82E
330
18
100
AcDbEntity
  8
Object
100
AcDbLine
 10
6.787142857142857
 20
23.74857142857143
 30
0.0
 11
6.672857142857142
 21
23.69857142857143
 31
0.0
  0
LINE
  5
82F
330
18
100
AcDbEntity
  8
Object
100
AcDbLine
 10
6.672857142857142
 20
23.69857142857143
 30
0.0
 11
6.554285714285714
 21
23.65571428571429
 31
0.0
  0
LINE
  5
830
330
18
100
AcDbEntity
  8
Object
100
AcDbLine
 10
6.554285714285714
 20
23.65571428571429
 30
0.0
 11
6.434285714285714
 21
23.62142857142857
 31
0.0
  0
LINE
  5
831
330
18
100
AcDbEntity
  8
Object
100
AcDbLine
 10
6.434285714285714
 20
23.62142857142857
 30
0.0
 11
6.311428571428571
 21
23.59428571428571
 31
0.0
  0
LINE
  5
832
330
18
100
AcDbEntity
  8
Object
100
AcDbLine
 10
6.311428571428571
 20
23.59428571428571
 30
0.0
 11
6.188571428571428
 21
23.57428571428572
 31
0.0
  0
LINE
  5
833
330
18
100
AcDbEntity
  8
Object
100
AcDbLine
 10
6.188571428571428
 20
23.57428571428572
 30
0.0
 11
6.062857142857143
 21
23.56285714285714
 31
0.0
  0
LINE
  5
834
330
18
100
AcDbEntity
  8
Object
100
AcDbLine
 10
6.062857142857143
 20
23.56285714285714
 30
0.0
 11
5.938571428571428
 21
23.55857142857143
 31
0.0
  0
LINE
  5
835
330
18
100
AcDbEntity
  8
Object
100
AcDbLine
 10
5.938571428571428
 20
23.55857142857143
 30
0.0
 11
5.685714285714285
 21
23.55857142857143
 31
0.0
  0
LINE
  5
836
330
18
100
AcDbEntity
  8
Object
100
AcDbLine
 10
7.731428571428571
 20
27.55857142857143
 30
0.0
 11
7.968571428571428
 21
27.55857142857143
 31
0.0
  0
LINE
  5
837
330
18
100
AcDbEntity
  8
Object
100
AcDbLine
 10
7.968571428571428
 20
27.55857142857143
 30
0.0
 11
7.932857142857143
 21
25.55857142857143
 31
0.0
  0
LINE
  5
838
330
18
100
AcDbEntity
  8
Object
100
AcDbLine
 10
22.57285714285714
 20
23.56285714285714
 30
0.0
 11
22.69857142857143
 21
23.55857142857143
 31
0.0
  0
LINE
  5
839
330
18
100
AcDbEntity
  8
Object
100
AcDbLine
 10
22.69857142857143
 20
23.55857142857143
 30
0.0
 11
22.68428571428572
 21
23.55857142857143
 31
0.0
  0
LINE
  5
83A
330
18
100
AcDbEntity
  8
Object
100
AcDbLine
 10
22.68428571428572
 20
23.55857142857143
 30
0.0
 11
22.66285714285714
 21
23.55857142857143
 31
0.0
  0
LINE
  5
83B
330
18
100
AcDbEntity
  8
Object
100
AcDbLine
 10
22.66285714285714
 20
23.55857142857143
 30
0.0
 11
22.63428571428571
 21
23.55857142857143
 31
0.0
  0
LINE
  5
83C
330
18
100
AcDbEntity
  8
Object
100
AcDbLine
 10
22.63428571428571
 20
23.55857142857143
 30
0.0
 11
22.59714285714286
 21
23.55857142857143
 31
0.0
  0
LINE
  5
83D
330
18
100
AcDbEntity
  8
Object
100
AcDbLine
 10
22.59714285714286
 20
23.55857142857143
 30
0.0
 11
22.55285714285714
 21
23.55857142857143
 31
0.0
  0
LINE
  5
83E
330
18
100
AcDbEntity
  8
Object
100
AcDbLine
 10
22.55285714285714
 20
23.55857142857143
 30
0.0
 11
22.50142857142857
 21
23.55857142857143
 31
0.0
  0
LINE
  5
83F
330
18
100
AcDbEntity
  8
Object
100
AcDbLine
 10
22.50142857142857
 20
23.55857142857143
 30
0.0
 11
22.44285714285714
 21
23.55857142857143
 31
0.0
  0
LINE
  5
840
330
18
100
AcDbEntity
  8
Object
100
AcDbLine
 10
22.44285714285714
 20
23.55857142857143
 30
0.0
 11
22.37714285714286
 21
23.55857142857143
 31
0.0
  0
LINE
  5
841
330
18
100
AcDbEntity
  8
Object
100
AcDbLine
 10
22.37714285714286
 20
23.55857142857143
 30
0.0
 11
22.30428571428571
 21
23.55857142857143
 31
0.0
  0
LINE
  5
842
330
18
100
AcDbEntity
  8
Object
100
AcDbLine
 10
22.30428571428571
 20
23.55857142857143
 30
0.0
 11
22.22428571428571
 21
23.55857142857143
 31
0.0
  0
LINE
  5
843
330
18
100
AcDbEntity
  8
Object
100
AcDbLine
 10
22.22428571428571
 20
23.55857142857143
 30
0.0
 11
22.14
 21
23.55857142857143
 31
0.0
  0
LINE
  5
844
330
18
100
AcDbEntity
  8
Object
100
AcDbLine
 10
22.14
 20
23.55857142857143
 30
0.0
 11
22.04857142857143
 21
23.55857142857143
 31
0.0
  0
LINE
  5
845
330
18
100
AcDbEntity
  8
Object
100
AcDbLine
 10
22.04857142857143
 20
23.55857142857143
 30
0.0
 11
21.95142857142857
 21
23.55857142857143
 31
0.0
  0
LINE
  5
846
330
18
100
AcDbEntity
  8
Object
100
AcDbLine
 10
21.95142857142857
 20
23.55857142857143
 30
0.0
 11
21.84857142857143
 21
23.55857142857143
 31
0.0
  0
LINE
  5
847
330
18
100
AcDbEntity
  8
Object
100
AcDbLine
 10
21.84857142857143
 20
23.55857142857143
 30
0.0
 11
21.74142857142857
 21
23.55857142857143
 31
0.0
  0
LINE
  5
848
330
18
100
AcDbEntity
  8
Object
100
AcDbLine
 10
21.74142857142857
 20
23.55857142857143
 30
0.0
 11
21.62857142857143
 21
23.55857142857143
 31
0.0
  0
LINE
  5
849
330
18
100
AcDbEntity
  8
Object
100
AcDbLine
 10
21.62857142857143
 20
23.55857142857143
 30
0.0
 11
21.51285714285714
 21
23.55857142857143
 31
0.0
  0
LINE
  5
84A
330
18
100
AcDbEntity
  8
Object
100
AcDbLine
 10
21.51285714285714
 20
23.55857142857143
 30
0.0
 11
21.39142857142857
 21
23.55857142857143
 31
0.0
  0
LINE
  5
84B
330
18
100
AcDbEntity
  8
Object
100
AcDbLine
 10
21.39142857142857
 20
23.55857142857143
 30
0.0
 11
21.26857142857143
 21
23.55857142857143
 31
0.0
  0
LINE
  5
84C
330
18
100
AcDbEntity
  8
Object
100
AcDbLine
 10
21.26857142857143
 20
23.55857142857143
 30
0.0
 11
21.14142857142857
 21
23.55857142857143
 31
0.0
  0
LINE
  5
84D
330
18
100
AcDbEntity
  8
Object
100
AcDbLine
 10
21.08428571428571
 20
24.38285714285715
 30
0.0
 11
21.16
 21
24.28285714285714
 31
0.0
  0
LINE
  5
84E
330
18
100
AcDbEntity
  8
Object
100
AcDbLine
 10
21.16
 20
24.28285714285714
 30
0.0
 11
21.08428571428571
 21
24.38285714285715
 31
0.0
  0
LINE
  5
84F
330
18
100
AcDbEntity
  8
Object
100
AcDbLine
 10
21.08428571428571
 20
24.38285714285715
 30
0.0
 11
21.01428571428572
 21
24.48714285714286
 31
0.0
  0
LINE
  5
850
330
18
100
AcDbEntity
  8
Object
100
AcDbLine
 10
21.01142857142857
 20
23.55857142857143
 30
0.0
 11
21.14142857142857
 21
23.55857142857143
 31
0.0
  0
LINE
  5
851
330
18
100
AcDbEntity
  8
Object
100
AcDbLine
 10
20.95
 20
24.59428571428571
 30
0.0
 11
21.01285714285714
 21
24.48714285714286
 31
0.0
  0
LINE
  5
852
330
18
100
AcDbEntity
  8
Object
100
AcDbLine
 10
21.01285714285714
 20
24.48714285714286
 30
0.0
 11
20.95
 21
24.59428571428571
 31
0.0
  0
LINE
  5
853
330
18
100
AcDbEntity
  8
Object
100
AcDbLine
 10
20.95
 20
24.59428571428571
 30
0.0
 11
20.89285714285714
 21
24.70714285714286
 31
0.0
  0
LINE
  5
854
330
18
100
AcDbEntity
  8
Object
100
AcDbLine
 10
20.88
 20
23.55857142857143
 30
0.0
 11
21.01142857142857
 21
23.55857142857143
 31
0.0
  0
LINE
  5
855
330
18
100
AcDbEntity
  8
Object
100
AcDbLine
 10
20.84285714285714
 20
24.82285714285714
 30
0.0
 11
20.80142857142857
 21
24.94
 31
0.0
  0
LINE
  5
856
330
18
100
AcDbEntity
  8
Object
100
AcDbLine
 10
20.76571428571428
 20
25.06142857142857
 30
0.0
 11
20.8
 21
24.94
 31
0.0
  0
LINE
  5
857
330
18
100
AcDbEntity
  8
Object
100
AcDbLine
 10
20.8
 20
24.94
 30
0.0
 11
20.76571428571428
 21
25.06142857142857
 31
0.0
  0
LINE
  5
858
330
18
100
AcDbEntity
  8
Object
100
AcDbLine
 10
20.74714285714286
 20
23.55857142857143
 30
0.0
 11
20.88
 21
23.55857142857143
 31
0.0
  0
LINE
  5
859
330
18
100
AcDbEntity
  8
Object
100
AcDbLine
 10
20.76571428571428
 20
25.06142857142857
 30
0.0
 11
20.73857142857143
 21
25.18428571428572
 31
0.0
  0
LINE
  5
85A
330
18
100
AcDbEntity
  8
Object
100
AcDbLine
 10
20.71857142857143
 20
25.30714285714286
 30
0.0
 11
20.70714285714286
 21
25.43285714285714
 31
0.0
  0
LINE
  5
85B
330
18
100
AcDbEntity
  8
Object
100
AcDbLine
 10
20.74714285714286
 20
23.55857142857143
 30
0.0
 11
20.61142857142857
 21
23.55857142857143
 31
0.0
  0
LINE
  5
85C
330
18
100
AcDbEntity
  8
Object
100
AcDbLine
 10
20.61142857142857
 20
23.55857142857143
 30
0.0
 11
20.47571428571429
 21
23.55857142857143
 31
0.0
  0
LINE
  5
85D
330
18
100
AcDbEntity
  8
Object
100
AcDbLine
 10
20.48428571428571
 20
25.55857142857143
 30
0.0
 11
20.43714285714286
 21
25.55857142857143
 31
0.0
  0
LINE
  5
85E
330
18
100
AcDbEntity
  8
Object
100
AcDbLine
 10
20.43714285714286
 20
25.55857142857143
 30
0.0
 11
20.38857142857143
 21
25.55857142857143
 31
0.0
  0
LINE
  5
85F
330
18
100
AcDbEntity
  8
Object
100
AcDbLine
 10
20.38857142857143
 20
25.55857142857143
 30
0.0
 11
20.34
 21
25.55857142857143
 31
0.0
  0
LINE
  5
860
330
18
100
AcDbEntity
  8
Object
100
AcDbLine
 10
20.34
 20
23.55857142857143
 30
0.0
 11
20.47571428571429
 21
23.55857142857143
 31
0.0
  0
LINE
  5
861
330
18
100
AcDbEntity
  8
Object
100
AcDbLine
 10
20.70285714285714
 20
25.55857142857143
 30
0.0
 11
20.69714285714286
 21
25.55857142857143
 31
0.0
  0
LINE
  5
862
330
18
100
AcDbEntity
  8
Object
100
AcDbLine
 10
20.69714285714286
 20
25.55857142857143
 30
0.0
 11
20.68285714285714
 21
25.55857142857143
 31
0.0
  0
LINE
  5
863
330
18
100
AcDbEntity
  8
Object
100
AcDbLine
 10
20.66857142857143
 20
27.55857142857143
 30
0.0
 11
20.66142857142857
 21
27.55857142857143
 31
0.0
  0
LINE
  5
864
330
18
100
AcDbEntity
  8
Object
100
AcDbLine
 10
20.66142857142857
 20
27.55857142857143
 30
0.0
 11
20.64714285714286
 21
27.55857142857143
 31
0.0
  0
LINE
  5
865
330
18
100
AcDbEntity
  8
Object
100
AcDbLine
 10
20.68285714285714
 20
25.55857142857143
 30
0.0
 11
20.66285714285714
 21
25.55857142857143
 31
0.0
  0
LINE
  5
866
330
18
100
AcDbEntity
  8
Object
100
AcDbLine
 10
20.66285714285714
 20
25.55857142857143
 30
0.0
 11
20.63714285714286
 21
25.55857142857143
 31
0.0
  0
LINE
  5
867
330
18
100
AcDbEntity
  8
Object
100
AcDbLine
 10
20.64714285714286
 20
27.55857142857143
 30
0.0
 11
20.62571428571429
 21
27.55857142857143
 31
0.0
  0
LINE
  5
868
330
18
100
AcDbEntity
  8
Object
100
AcDbLine
 10
20.62571428571429
 20
27.55857142857143
 30
0.0
 11
20.59857142857143
 21
27.55857142857143
 31
0.0
  0
LINE
  5
869
330
18
100
AcDbEntity
  8
Object
100
AcDbLine
 10
20.63714285714286
 20
25.55857142857143
 30
0.0
 11
20.60571428571428
 21
25.55857142857143
 31
0.0
  0
LINE
  5
86A
330
18
100
AcDbEntity
  8
Object
100
AcDbLine
 10
20.60571428571428
 20
25.55857142857143
 30
0.0
 11
20.57
 21
25.55857142857143
 31
0.0
  0
LINE
  5
86B
330
18
100
AcDbEntity
  8
Object
100
AcDbLine
 10
20.59857142857143
 20
27.55857142857143
 30
0.0
 11
20.56428571428571
 21
27.55857142857143
 31
0.0
  0
LINE
  5
86C
330
18
100
AcDbEntity
  8
Object
100
AcDbLine
 10
20.56428571428571
 20
27.55857142857143
 30
0.0
 11
20.52571428571429
 21
27.55857142857143
 31
0.0
  0
LINE
  5
86D
330
18
100
AcDbEntity
  8
Object
100
AcDbLine
 10
20.57
 20
25.55857142857143
 30
0.0
 11
20.52857142857143
 21
25.55857142857143
 31
0.0
  0
LINE
  5
86E
330
18
100
AcDbEntity
  8
Object
100
AcDbLine
 10
20.52857142857143
 20
25.55857142857143
 30
0.0
 11
20.48428571428571
 21
25.55857142857143
 31
0.0
  0
LINE
  5
86F
330
18
100
AcDbEntity
  8
Object
100
AcDbLine
 10
20.52571428571429
 20
27.55857142857143
 30
0.0
 11
20.48285714285714
 21
27.55857142857143
 31
0.0
  0
LINE
  5
870
330
18
100
AcDbEntity
  8
Object
100
AcDbLine
 10
20.48285714285714
 20
27.55857142857143
 30
0.0
 11
20.43714285714286
 21
27.55857142857143
 31
0.0
  0
LINE
  5
871
330
18
100
AcDbEntity
  8
Object
100
AcDbLine
 10
20.43714285714286
 20
27.55857142857143
 30
0.0
 11
20.38857142857143
 21
27.55857142857143
 31
0.0
  0
LINE
  5
872
330
18
100
AcDbEntity
  8
Object
100
AcDbLine
 10
20.38857142857143
 20
27.55857142857143
 30
0.0
 11
20.34
 21
27.55857142857143
 31
0.0
  0
LINE
  5
873
330
18
100
AcDbEntity
  8
Object
100
AcDbLine
 10
13.72857142857142
 20
23.56285714285714
 30
0.0
 11
13.71857142857143
 21
23.56285714285714
 31
0.0
  0
LINE
  5
874
330
18
100
AcDbEntity
  8
Object
100
AcDbLine
 10
13.91142857142857
 20
23.56285714285714
 30
0.0
 11
13.84571428571428
 21
23.56285714285714
 31
0.0
  0
LINE
  5
875
330
18
100
AcDbEntity
  8
Object
100
AcDbLine
 10
14.17142857142857
 20
23.56285714285714
 30
0.0
 11
14.16285714285714
 21
23.56285714285714
 31
0.0
  0
LINE
  5
876
330
18
100
AcDbEntity
  8
Object
100
AcDbLine
 10
14.29428571428571
 20
23.56285714285714
 30
0.0
 11
14.26
 21
23.56285714285714
 31
0.0
  0
LINE
  5
877
330
18
100
AcDbEntity
  8
Object
100
AcDbLine
 10
14.47714285714285
 20
23.56285714285714
 30
0.0
 11
14.44285714285714
 21
23.56285714285714
 31
0.0
  0
LINE
  5
878
330
18
100
AcDbEntity
  8
Object
100
AcDbLine
 10
14.65571428571428
 20
23.56285714285714
 30
0.0
 11
14.62
 21
23.56285714285714
 31
0.0
  0
LINE
  5
879
330
18
100
AcDbEntity
  8
Object
100
AcDbLine
 10
14.78428571428571
 20
23.56285714285714
 30
0.0
 11
14.70857142857143
 21
23.56285714285714
 31
0.0
  0
LINE
  5
87A
330
18
100
AcDbEntity
  8
Object
100
AcDbLine
 10
14.91857142857143
 20
23.56285714285714
 30
0.0
 11
14.84571428571428
 21
23.56285714285714
 31
0.0
  0
LINE
  5
87B
330
18
100
AcDbEntity
  8
Object
100
AcDbLine
 10
14.84571428571428
 20
23.55857142857143
 30
0.0
 11
14.91857142857143
 21
23.55857142857143
 31
0.0
  0
LINE
  5
87C
330
18
100
AcDbEntity
  8
Object
100
AcDbLine
 10
14.70857142857143
 20
23.55857142857143
 30
0.0
 11
14.78428571428571
 21
23.55857142857143
 31
0.0
  0
LINE
  5
87D
330
18
100
AcDbEntity
  8
Object
100
AcDbLine
 10
14.59857142857143
 20
23.55857142857143
 30
0.0
 11
14.65571428571428
 21
23.55857142857143
 31
0.0
  0
LINE
  5
87E
330
18
100
AcDbEntity
  8
Object
100
AcDbLine
 10
14.42
 20
23.55857142857143
 30
0.0
 11
14.5
 21
23.55857142857143
 31
0.0
  0
LINE
  5
87F
330
18
100
AcDbEntity
  8
Object
100
AcDbLine
 10
14.26
 20
23.55857142857143
 30
0.0
 11
14.29428571428571
 21
23.55857142857143
 31
0.0
  0
LINE
  5
880
330
18
100
AcDbEntity
  8
Object
100
AcDbLine
 10
14.16285714285714
 20
23.55857142857143
 30
0.0
 11
14.19428571428571
 21
23.55857142857143
 31
0.0
  0
LINE
  5
881
330
18
100
AcDbEntity
  8
Object
100
AcDbLine
 10
13.97285714285714
 20
23.55857142857143
 30
0.0
 11
14.06857142857143
 21
23.55857142857143
 31
0.0
  0
LINE
  5
882
330
18
100
AcDbEntity
  8
Object
100
AcDbLine
 10
13.84571428571428
 20
23.55857142857143
 30
0.0
 11
13.91142857142857
 21
23.55857142857143
 31
0.0
  0
LINE
  5
883
330
18
100
AcDbEntity
  8
Object
100
AcDbLine
 10
13.71857142857143
 20
23.55857142857143
 30
0.0
 11
13.72857142857142
 21
23.55857142857143
 31
0.0
  0
LINE
  5
884
330
18
100
AcDbEntity
  8
Object
100
AcDbLine
 10
20.34
 20
23.57428571428572
 30
0.0
 11
20.34
 21
23.59428571428571
 31
0.0
  0
LINE
  5
885
330
18
100
AcDbEntity
  8
Object
100
AcDbLine
 10
14.91857142857143
 20
23.56857142857143
 30
0.0
 11
14.91857142857143
 21
23.56142857142857
 31
0.0
  0
LINE
  5
886
330
18
100
AcDbEntity
  8
Object
100
AcDbLine
 10
20.34
 20
23.56285714285714
 30
0.0
 11
20.34
 21
23.55857142857143
 31
0.0
  0
LINE
  5
887
330
18
100
AcDbEntity
  8
Object
100
AcDbLine
 10
20.34
 20
23.55857142857143
 30
0.0
 11
14.91857142857143
 21
23.55857142857143
 31
0.0
  0
LINE
  5
888
330
18
100
AcDbEntity
  8
Object
100
AcDbLine
 10
14.91857142857143
 20
23.55857142857143
 30
0.0
 11
14.91857142857143
 21
23.56142857142857
 31
0.0
  0
LINE
  5
889
330
18
100
AcDbEntity
  8
Object
100
AcDbLine
 10
20.34
 20
23.56285714285714
 30
0.0
 11
20.34
 21
23.57428571428572
 31
0.0
  0
LINE
  5
88A
330
18
100
AcDbEntity
  8
Object
100
AcDbLine
 10
14.91857142857143
 20
23.58142857142857
 30
0.0
 11
14.91857142857143
 21
23.56857142857143
 31
0.0
  0
LINE
  5
88B
330
18
100
AcDbEntity
  8
Object
100
AcDbLine
 10
20.34
 20
25.30714285714286
 30
0.0
 11
20.34
 21
25.43285714285714
 31
0.0
  0
LINE
  5
88C
330
18
100
AcDbEntity
  8
Object
100
AcDbLine
 10
8.297142857142857
 20
25.55857142857143
 30
0.0
 11
20.34
 21
25.55857142857143
 31
0.0
  0
LINE
  5
88D
330
18
100
AcDbEntity
  8
Object
100
AcDbLine
 10
20.34
 20
25.55857142857143
 30
0.0
 11
20.34
 21
25.43285714285714
 31
0.0
  0
LINE
  5
88E
330
18
100
AcDbEntity
  8
Object
100
AcDbLine
 10
20.34
 20
25.06142857142857
 30
0.0
 11
20.34
 21
25.18428571428572
 31
0.0
  0
LINE
  5
88F
330
18
100
AcDbEntity
  8
Object
100
AcDbLine
 10
20.34
 20
25.18428571428572
 30
0.0
 11
20.34
 21
25.30714285714286
 31
0.0
  0
LINE
  5
890
330
18
100
AcDbEntity
  8
Object
100
AcDbLine
 10
20.34
 20
25.06142857142857
 30
0.0
 11
20.34
 21
24.94
 31
0.0
  0
LINE
  5
891
330
18
100
AcDbEntity
  8
Object
100
AcDbLine
 10
20.34
 20
24.94
 30
0.0
 11
20.34
 21
24.82285714285714
 31
0.0
  0
LINE
  5
892
330
18
100
AcDbEntity
  8
Object
100
AcDbLine
 10
20.34
 20
24.82285714285714
 30
0.0
 11
20.34
 21
24.70714285714286
 31
0.0
  0
LINE
  5
893
330
18
100
AcDbEntity
  8
Object
100
AcDbLine
 10
20.34
 20
24.70714285714286
 30
0.0
 11
20.34
 21
24.59428571428571
 31
0.0
  0
LINE
  5
894
330
18
100
AcDbEntity
  8
Object
100
AcDbLine
 10
20.34
 20
24.59428571428571
 30
0.0
 11
20.34
 21
24.48714285714286
 31
0.0
  0
LINE
  5
895
330
18
100
AcDbEntity
  8
Object
100
AcDbLine
 10
20.34
 20
24.48714285714286
 30
0.0
 11
20.34
 21
24.38285714285715
 31
0.0
  0
LINE
  5
896
330
18
100
AcDbEntity
  8
Object
100
AcDbLine
 10
20.34
 20
24.18857142857143
 30
0.0
 11
20.34
 21
24.28285714285714
 31
0.0
  0
LINE
  5
897
330
18
100
AcDbEntity
  8
Object
100
AcDbLine
 10
20.34
 20
24.28285714285714
 30
0.0
 11
20.34
 21
24.38285714285715
 31
0.0
  0
LINE
  5
898
330
18
100
AcDbEntity
  8
Object
100
AcDbLine
 10
20.34
 20
24.18857142857143
 30
0.0
 11
20.34
 21
24.1
 31
0.0
  0
LINE
  5
899
330
18
100
AcDbEntity
  8
Object
100
AcDbLine
 10
20.34
 20
24.1
 30
0.0
 11
20.34
 21
24.01714285714286
 31
0.0
  0
LINE
  5
89A
330
18
100
AcDbEntity
  8
Object
100
AcDbLine
 10
20.34
 20
23.80571428571428
 30
0.0
 11
20.34
 21
23.87
 31
0.0
  0
LINE
  5
89B
330
18
100
AcDbEntity
  8
Object
100
AcDbLine
 10
20.34
 20
24.01714285714286
 30
0.0
 11
20.34
 21
23.94
 31
0.0
  0
LINE
  5
89C
330
18
100
AcDbEntity
  8
Object
100
AcDbLine
 10
20.34
 20
23.94
 30
0.0
 11
20.34
 21
23.87
 31
0.0
  0
LINE
  5
89D
330
18
100
AcDbEntity
  8
Object
100
AcDbLine
 10
20.34
 20
23.80571428571428
 30
0.0
 11
20.34
 21
23.74857142857143
 31
0.0
  0
LINE
  5
89E
330
18
100
AcDbEntity
  8
Object
100
AcDbLine
 10
20.34
 20
23.74857142857143
 30
0.0
 11
20.34
 21
23.69857142857143
 31
0.0
  0
LINE
  5
89F
330
18
100
AcDbEntity
  8
Object
100
AcDbLine
 10
20.34
 20
23.59428571428571
 30
0.0
 11
20.34
 21
23.62142857142857
 31
0.0
  0
LINE
  5
8A0
330
18
100
AcDbEntity
  8
Object
100
AcDbLine
 10
13.71857142857143
 20
23.56857142857143
 30
0.0
 11
13.71857142857143
 21
23.56142857142857
 31
0.0
  0
LINE
  5
8A1
330
18
100
AcDbEntity
  8
Object
100
AcDbLine
 10
13.71857142857143
 20
23.56142857142857
 30
0.0
 11
13.71857142857143
 21
23.55857142857143
 31
0.0
  0
LINE
  5
8A2
330
18
100
AcDbEntity
  8
Object
100
AcDbLine
 10
13.71857142857143
 20
23.55857142857143
 30
0.0
 11
8.297142857142857
 21
23.55857142857143
 31
0.0
  0
LINE
  5
8A3
330
18
100
AcDbEntity
  8
Object
100
AcDbLine
 10
13.71857142857143
 20
23.56857142857143
 30
0.0
 11
13.71857142857143
 21
23.58142857142857
 31
0.0
  0
LINE
  5
8A4
330
18
100
AcDbEntity
  8
Object
100
AcDbLine
 10
20.34
 20
23.69857142857143
 30
0.0
 11
20.34
 21
23.65571428571429
 31
0.0
  0
LINE
  5
8A5
330
18
100
AcDbEntity
  8
Object
100
AcDbLine
 10
20.34
 20
23.65571428571429
 30
0.0
 11
20.34
 21
23.62142857142857
 31
0.0
  0
LINE
  5
8A6
330
18
100
AcDbEntity
  8
Object
100
AcDbLine
 10
13.71857142857143
 20
23.58142857142857
 30
0.0
 11
14.91857142857143
 21
23.58142857142857
 31
0.0
  0
LINE
  5
8A7
330
18
100
AcDbEntity
  8
Object
100
AcDbLine
 10
8.297142857142857
 20
25.30714285714286
 30
0.0
 11
8.297142857142857
 21
25.43285714285714
 31
0.0
  0
LINE
  5
8A8
330
18
100
AcDbEntity
  8
Object
100
AcDbLine
 10
8.297142857142857
 20
25.43285714285714
 30
0.0
 11
8.297142857142857
 21
25.55857142857143
 31
0.0
  0
LINE
  5
8A9
330
18
100
AcDbEntity
  8
Object
100
AcDbLine
 10
8.297142857142857
 20
25.06142857142857
 30
0.0
 11
8.297142857142857
 21
25.18428571428572
 31
0.0
  0
LINE
  5
8AA
330
18
100
AcDbEntity
  8
Object
100
AcDbLine
 10
8.297142857142857
 20
25.18428571428572
 30
0.0
 11
8.297142857142857
 21
25.30714285714286
 31
0.0
  0
LINE
  5
8AB
330
18
100
AcDbEntity
  8
Object
100
AcDbLine
 10
8.297142857142857
 20
25.06142857142857
 30
0.0
 11
8.297142857142857
 21
24.94
 31
0.0
  0
LINE
  5
8AC
330
18
100
AcDbEntity
  8
Object
100
AcDbLine
 10
8.297142857142857
 20
24.94
 30
0.0
 11
8.297142857142857
 21
24.82285714285714
 31
0.0
  0
LINE
  5
8AD
330
18
100
AcDbEntity
  8
Object
100
AcDbLine
 10
8.297142857142857
 20
24.82285714285714
 30
0.0
 11
8.297142857142857
 21
24.70714285714286
 31
0.0
  0
LINE
  5
8AE
330
18
100
AcDbEntity
  8
Object
100
AcDbLine
 10
8.297142857142857
 20
24.70714285714286
 30
0.0
 11
8.297142857142857
 21
24.59428571428571
 31
0.0
  0
LINE
  5
8AF
330
18
100
AcDbEntity
  8
Object
100
AcDbLine
 10
8.297142857142857
 20
24.59428571428571
 30
0.0
 11
8.297142857142857
 21
24.48714285714286
 31
0.0
  0
LINE
  5
8B0
330
18
100
AcDbEntity
  8
Object
100
AcDbLine
 10
8.297142857142857
 20
24.48714285714286
 30
0.0
 11
8.297142857142857
 21
24.38285714285715
 31
0.0
  0
LINE
  5
8B1
330
18
100
AcDbEntity
  8
Object
100
AcDbLine
 10
8.297142857142857
 20
24.38285714285715
 30
0.0
 11
8.297142857142857
 21
24.28285714285714
 31
0.0
  0
LINE
  5
8B2
330
18
100
AcDbEntity
  8
Object
100
AcDbLine
 10
8.297142857142857
 20
24.28285714285714
 30
0.0
 11
8.297142857142857
 21
24.18857142857143
 31
0.0
  0
LINE
  5
8B3
330
18
100
AcDbEntity
  8
Object
100
AcDbLine
 10
8.297142857142857
 20
24.18857142857143
 30
0.0
 11
8.297142857142857
 21
24.1
 31
0.0
  0
LINE
  5
8B4
330
18
100
AcDbEntity
  8
Object
100
AcDbLine
 10
8.297142857142857
 20
24.1
 30
0.0
 11
8.297142857142857
 21
24.01714285714286
 31
0.0
  0
LINE
  5
8B5
330
18
100
AcDbEntity
  8
Object
100
AcDbLine
 10
8.297142857142857
 20
24.01714285714286
 30
0.0
 11
8.297142857142857
 21
23.94
 31
0.0
  0
LINE
  5
8B6
330
18
100
AcDbEntity
  8
Object
100
AcDbLine
 10
8.297142857142857
 20
23.94
 30
0.0
 11
8.297142857142857
 21
23.87
 31
0.0
  0
LINE
  5
8B7
330
18
100
AcDbEntity
  8
Object
100
AcDbLine
 10
8.297142857142857
 20
23.87
 30
0.0
 11
8.297142857142857
 21
23.80571428571428
 31
0.0
  0
LINE
  5
8B8
330
18
100
AcDbEntity
  8
Object
100
AcDbLine
 10
8.297142857142857
 20
23.80571428571428
 30
0.0
 11
8.297142857142857
 21
23.74857142857143
 31
0.0
  0
LINE
  5
8B9
330
18
100
AcDbEntity
  8
Object
100
AcDbLine
 10
8.297142857142857
 20
23.74857142857143
 30
0.0
 11
8.297142857142857
 21
23.69857142857143
 31
0.0
  0
LINE
  5
8BA
330
18
100
AcDbEntity
  8
Object
100
AcDbLine
 10
8.297142857142857
 20
23.69857142857143
 30
0.0
 11
8.297142857142857
 21
23.65571428571429
 31
0.0
  0
LINE
  5
8BB
330
18
100
AcDbEntity
  8
Object
100
AcDbLine
 10
8.297142857142857
 20
23.65571428571429
 30
0.0
 11
8.297142857142857
 21
23.62142857142857
 31
0.0
  0
LINE
  5
8BC
330
18
100
AcDbEntity
  8
Object
100
AcDbLine
 10
8.297142857142857
 20
23.62142857142857
 30
0.0
 11
8.297142857142857
 21
23.59428571428571
 31
0.0
  0
LINE
  5
8BD
330
18
100
AcDbEntity
  8
Object
100
AcDbLine
 10
8.297142857142857
 20
23.59428571428571
 30
0.0
 11
8.297142857142857
 21
23.57428571428572
 31
0.0
  0
LINE
  5
8BE
330
18
100
AcDbEntity
  8
Object
100
AcDbLine
 10
8.297142857142857
 20
23.57428571428572
 30
0.0
 11
8.297142857142857
 21
23.56285714285714
 31
0.0
  0
LINE
  5
8BF
330
18
100
AcDbEntity
  8
Object
100
AcDbLine
 10
8.297142857142857
 20
23.56285714285714
 30
0.0
 11
8.297142857142857
 21
23.55857142857143
 31
0.0
  0
LINE
  5
8C0
330
18
100
AcDbEntity
  8
Object
100
AcDbLine
 10
8.297142857142857
 20
25.55857142857143
 30
0.0
 11
8.247142857142856
 21
25.55857142857143
 31
0.0
  0
LINE
  5
8C1
330
18
100
AcDbEntity
  8
Object
100
AcDbLine
 10
8.247142857142856
 20
25.55857142857143
 30
0.0
 11
8.198571428571428
 21
25.55857142857143
 31
0.0
  0
LINE
  5
8C2
330
18
100
AcDbEntity
  8
Object
100
AcDbLine
 10
8.161428571428571
 20
23.55857142857143
 30
0.0
 11
8.297142857142857
 21
23.55857142857143
 31
0.0
  0
LINE
  5
8C3
330
18
100
AcDbEntity
  8
Object
100
AcDbLine
 10
8.198571428571428
 20
25.55857142857143
 30
0.0
 11
8.151428571428571
 21
25.55857142857143
 31
0.0
  0
LINE
  5
8C4
330
18
100
AcDbEntity
  8
Object
100
AcDbLine
 10
8.151428571428571
 20
25.55857142857143
 30
0.0
 11
8.108571428571428
 21
25.55857142857143
 31
0.0
  0
LINE
  5
8C5
330
18
100
AcDbEntity
  8
Object
100
AcDbLine
 10
8.108571428571428
 20
25.55857142857143
 30
0.0
 11
8.067142857142856
 21
25.55857142857143
 31
0.0
  0
LINE
  5
8C6
330
18
100
AcDbEntity
  8
Object
100
AcDbLine
 10
8.067142857142856
 20
25.55857142857143
 30
0.0
 11
8.031428571428572
 21
25.55857142857143
 31
0.0
  0
LINE
  5
8C7
330
18
100
AcDbEntity
  8
Object
100
AcDbLine
 10
8.024285714285714
 20
23.55857142857143
 30
0.0
 11
8.161428571428571
 21
23.55857142857143
 31
0.0
  0
LINE
  5
8C8
330
18
100
AcDbEntity
  8
Object
100
AcDbLine
 10
8.031428571428572
 20
25.55857142857143
 30
0.0
 11
8.0
 21
25.55857142857143
 31
0.0
  0
LINE
  5
8C9
330
18
100
AcDbEntity
  8
Object
100
AcDbLine
 10
8.0
 20
25.55857142857143
 30
0.0
 11
7.972857142857142
 21
25.55857142857143
 31
0.0
  0
LINE
  5
8CA
330
18
100
AcDbEntity
  8
Object
100
AcDbLine
 10
7.972857142857142
 20
25.55857142857143
 30
0.0
 11
7.952857142857142
 21
25.55857142857143
 31
0.0
  0
LINE
  5
8CB
330
18
100
AcDbEntity
  8
Object
100
AcDbLine
 10
7.952857142857142
 20
25.55857142857143
 30
0.0
 11
7.94
 21
25.55857142857143
 31
0.0
  0
LINE
  5
8CC
330
18
100
AcDbEntity
  8
Object
100
AcDbLine
 10
7.94
 20
25.55857142857143
 30
0.0
 11
7.932857142857143
 21
25.55857142857143
 31
0.0
  0
LINE
  5
8CD
330
18
100
AcDbEntity
  8
Object
100
AcDbLine
 10
8.024285714285714
 20
23.55857142857143
 30
0.0
 11
7.889999999999999
 21
23.55857142857143
 31
0.0
  0
LINE
  5
8CE
330
18
100
AcDbEntity
  8
Object
100
AcDbLine
 10
7.889999999999999
 20
23.55857142857143
 30
0.0
 11
7.757142857142857
 21
23.55857142857143
 31
0.0
  0
LINE
  5
8CF
330
18
100
AcDbEntity
  8
Object
100
AcDbLine
 10
7.757142857142857
 20
23.55857142857143
 30
0.0
 11
7.624285714285714
 21
23.55857142857143
 31
0.0
  0
LINE
  5
8D0
330
18
100
AcDbEntity
  8
Object
100
AcDbLine
 10
7.624285714285714
 20
23.55857142857143
 30
0.0
 11
7.495714285714285
 21
23.55857142857143
 31
0.0
  0
LINE
  5
8D1
330
18
100
AcDbEntity
  8
Object
100
AcDbLine
 10
7.495714285714285
 20
23.55857142857143
 30
0.0
 11
7.368571428571428
 21
23.55857142857143
 31
0.0
  0
LINE
  5
8D2
330
18
100
AcDbEntity
  8
Object
100
AcDbLine
 10
7.368571428571428
 20
23.55857142857143
 30
0.0
 11
7.244285714285714
 21
23.55857142857143
 31
0.0
  0
LINE
  5
8D3
330
18
100
AcDbEntity
  8
Object
100
AcDbLine
 10
7.244285714285714
 20
23.55857142857143
 30
0.0
 11
7.124285714285714
 21
23.55857142857143
 31
0.0
  0
LINE
  5
8D4
330
18
100
AcDbEntity
  8
Object
100
AcDbLine
 10
7.124285714285714
 20
23.55857142857143
 30
0.0
 11
7.007142857142857
 21
23.55857142857143
 31
0.0
  0
LINE
  5
8D5
330
18
100
AcDbEntity
  8
Object
100
AcDbLine
 10
7.007142857142857
 20
23.55857142857143
 30
0.0
 11
6.895714285714285
 21
23.55857142857143
 31
0.0
  0
LINE
  5
8D6
330
18
100
AcDbEntity
  8
Object
100
AcDbLine
 10
6.895714285714285
 20
23.55857142857143
 30
0.0
 11
6.788571428571428
 21
23.55857142857143
 31
0.0
  0
LINE
  5
8D7
330
18
100
AcDbEntity
  8
Object
100
AcDbLine
 10
6.788571428571428
 20
23.55857142857143
 30
0.0
 11
6.685714285714285
 21
23.55857142857143
 31
0.0
  0
LINE
  5
8D8
330
18
100
AcDbEntity
  8
Object
100
AcDbLine
 10
6.685714285714285
 20
23.55857142857143
 30
0.0
 11
6.588571428571428
 21
23.55857142857143
 31
0.0
  0
LINE
  5
8D9
330
18
100
AcDbEntity
  8
Object
100
AcDbLine
 10
6.588571428571428
 20
23.55857142857143
 30
0.0
 11
6.497142857142857
 21
23.55857142857143
 31
0.0
  0
LINE
  5
8DA
330
18
100
AcDbEntity
  8
Object
100
AcDbLine
 10
6.497142857142857
 20
23.55857142857143
 30
0.0
 11
6.411428571428571
 21
23.55857142857143
 31
0.0
  0
LINE
  5
8DB
330
18
100
AcDbEntity
  8
Object
100
AcDbLine
 10
6.411428571428571
 20
23.55857142857143
 30
0.0
 11
6.332857142857142
 21
23.55857142857143
 31
0.0
  0
LINE
  5
8DC
330
18
100
AcDbEntity
  8
Object
100
AcDbLine
 10
6.332857142857142
 20
23.55857142857143
 30
0.0
 11
6.259999999999999
 21
23.55857142857143
 31
0.0
  0
LINE
  5
8DD
330
18
100
AcDbEntity
  8
Object
100
AcDbLine
 10
6.259999999999999
 20
23.55857142857143
 30
0.0
 11
6.194285714285713
 21
23.55857142857143
 31
0.0
  0
LINE
  5
8DE
330
18
100
AcDbEntity
  8
Object
100
AcDbLine
 10
6.194285714285713
 20
23.55857142857143
 30
0.0
 11
6.135714285714286
 21
23.55857142857143
 31
0.0
  0
LINE
  5
8DF
330
18
100
AcDbEntity
  8
Object
100
AcDbLine
 10
6.135714285714286
 20
23.55857142857143
 30
0.0
 11
6.084285714285714
 21
23.55857142857143
 31
0.0
  0
LINE
  5
8E0
330
18
100
AcDbEntity
  8
Object
100
AcDbLine
 10
6.084285714285714
 20
23.55857142857143
 30
0.0
 11
6.038571428571428
 21
23.55857142857143
 31
0.0
  0
LINE
  5
8E1
330
18
100
AcDbEntity
  8
Object
100
AcDbLine
 10
6.038571428571428
 20
23.55857142857143
 30
0.0
 11
6.002857142857142
 21
23.55857142857143
 31
0.0
  0
LINE
  5
8E2
330
18
100
AcDbEntity
  8
Object
100
AcDbLine
 10
6.002857142857142
 20
23.55857142857143
 30
0.0
 11
5.972857142857142
 21
23.55857142857143
 31
0.0
  0
LINE
  5
8E3
330
18
100
AcDbEntity
  8
Object
100
AcDbLine
 10
5.972857142857142
 20
23.55857142857143
 30
0.0
 11
5.951428571428571
 21
23.55857142857143
 31
0.0
  0
LINE
  5
8E4
330
18
100
AcDbEntity
  8
Object
100
AcDbLine
 10
5.951428571428571
 20
23.55857142857143
 30
0.0
 11
5.938571428571428
 21
23.55857142857143
 31
0.0
  0
LINE
  5
8E5
330
18
100
AcDbEntity
  8
Object
100
AcDbLine
 10
8.247142857142856
 20
27.55857142857143
 30
0.0
 11
8.297142857142857
 21
27.55857142857143
 31
0.0
  0
LINE
  5
8E6
330
18
100
AcDbEntity
  8
Object
100
AcDbLine
 10
8.297142857142857
 20
27.55857142857143
 30
0.0
 11
8.297142857142857
 21
25.55857142857143
 31
0.0
  0
LINE
  5
8E7
330
18
100
AcDbEntity
  8
Object
100
AcDbLine
 10
8.247142857142856
 20
27.55857142857143
 30
0.0
 11
8.199999999999999
 21
27.55857142857143
 31
0.0
  0
LINE
  5
8E8
330
18
100
AcDbEntity
  8
Object
100
AcDbLine
 10
8.199999999999999
 20
27.55857142857143
 30
0.0
 11
8.154285714285714
 21
27.55857142857143
 31
0.0
  0
LINE
  5
8E9
330
18
100
AcDbEntity
  8
Object
100
AcDbLine
 10
8.154285714285714
 20
27.55857142857143
 30
0.0
 11
8.111428571428572
 21
27.55857142857143
 31
0.0
  0
LINE
  5
8EA
330
18
100
AcDbEntity
  8
Object
100
AcDbLine
 10
8.111428571428572
 20
27.55857142857143
 30
0.0
 11
8.072857142857142
 21
27.55857142857143
 31
0.0
  0
LINE
  5
8EB
330
18
100
AcDbEntity
  8
Object
100
AcDbLine
 10
8.072857142857142
 20
27.55857142857143
 30
0.0
 11
8.038571428571428
 21
27.55857142857143
 31
0.0
  0
LINE
  5
8EC
330
18
100
AcDbEntity
  8
Object
100
AcDbLine
 10
8.038571428571428
 20
27.55857142857143
 30
0.0
 11
8.01142857142857
 21
27.55857142857143
 31
0.0
  0
LINE
  5
8ED
330
18
100
AcDbEntity
  8
Object
100
AcDbLine
 10
8.01142857142857
 20
27.55857142857143
 30
0.0
 11
7.99
 21
27.55857142857143
 31
0.0
  0
LINE
  5
8EE
330
18
100
AcDbEntity
  8
Object
100
AcDbLine
 10
7.99
 20
27.55857142857143
 30
0.0
 11
7.975714285714285
 21
27.55857142857143
 31
0.0
  0
LINE
  5
8EF
330
18
100
AcDbEntity
  8
Object
100
AcDbLine
 10
7.975714285714285
 20
27.55857142857143
 30
0.0
 11
7.968571428571428
 21
27.55857142857143
 31
0.0
  0
LINE
  5
8F0
330
18
100
AcDbEntity
  8
Object
100
AcDbLine
 10
20.34
 20
25.55857142857143
 30
0.0
 11
20.34
 21
27.55857142857143
 31
0.0
  0
LINE
  5
8F1
330
18
100
AcDbEntity
  8
Object
100
AcDbLine
 10
20.34
 20
27.55857142857143
 30
0.0
 11
8.297142857142857
 21
27.55857142857143
 31
0.0
  0
LINE
  5
8F2
330
18
100
AcDbEntity
  8
Object
100
AcDbLine
 10
13.71857142857143
 20
23.55857142857143
 30
0.0
 11
13.71857142857143
 21
23.56142857142857
 31
0.0
  0
LINE
  5
8F3
330
18
100
AcDbEntity
  8
Object
100
AcDbLine
 10
13.71857142857143
 20
23.56142857142857
 30
0.0
 11
13.71857142857143
 21
23.56857142857143
 31
0.0
  0
LINE
  5
8F4
330
18
100
AcDbEntity
  8
Object
100
AcDbLine
 10
13.71857142857143
 20
23.56857142857143
 30
0.0
 11
13.71857142857143
 21
23.58142857142857
 31
0.0
  0
LINE
  5
8F5
330
18
100
AcDbEntity
  8
Object
100
AcDbLine
 10
14.91857142857143
 20
23.56142857142857
 30
0.0
 11
14.91857142857143
 21
23.56857142857143
 31
0.0
  0
LINE
  5
8F6
330
18
100
AcDbEntity
  8
Object
100
AcDbLine
 10
14.91857142857143
 20
23.56857142857143
 30
0.0
 11
14.91857142857143
 21
23.58142857142857
 31
0.0
  0
LINE
  5
8F7
330
18
100
AcDbEntity
  8
Object
100
AcDbLine
 10
14.91857142857143
 20
23.56142857142857
 30
0.0
 11
14.91857142857143
 21
23.55857142857143
 31
0.0
  0
LINE
  5
8F8
330
18
100
AcDbEntity
  8
Object
100
AcDbLine
 10
14.57857142857143
 20
23.57142857142857
 30
0.0
 11
14.57714285714286
 21
23.57
 31
0.0
  0
LINE
  5
8F9
330
18
100
AcDbEntity
  8
Object
100
AcDbLine
 10
14.57714285714286
 20
23.57
 30
0.0
 11
14.57285714285714
 21
23.57
 31
0.0
  0
LINE
  5
8FA
330
18
100
AcDbEntity
  8
Object
100
AcDbLine
 10
14.57285714285714
 20
23.57
 30
0.0
 11
14.56857142857143
 21
23.57
 31
0.0
  0
LINE
  5
8FB
330
18
100
AcDbEntity
  8
Object
100
AcDbLine
 10
14.56857142857143
 20
23.57
 30
0.0
 11
14.55428571428571
 21
23.57
 31
0.0
  0
LINE
  5
8FC
330
18
100
AcDbEntity
  8
Object
100
AcDbLine
 10
14.55428571428571
 20
23.57
 30
0.0
 11
14.54857142857143
 21
23.57
 31
0.0
  0
LINE
  5
8FD
330
18
100
AcDbEntity
  8
Object
100
AcDbLine
 10
14.54857142857143
 20
23.57
 30
0.0
 11
14.54428571428571
 21
23.57
 31
0.0
  0
LINE
  5
8FE
330
18
100
AcDbEntity
  8
Object
100
AcDbLine
 10
14.44142857142857
 20
23.58142857142857
 30
0.0
 11
14.44285714285714
 21
23.58
 31
0.0
  0
LINE
  5
8FF
330
18
100
AcDbEntity
  8
Object
100
AcDbLine
 10
14.18714285714286
 20
23.58142857142857
 30
0.0
 11
14.20857142857142
 21
23.57714285714286
 31
0.0
  0
LINE
  5
900
330
18
100
AcDbEntity
  8
Object
100
AcDbLine
 10
14.06142857142857
 20
23.58142857142857
 30
0.0
 11
14.10571428571428
 21
23.57285714285714
 31
0.0
  0
LINE
  5
901
330
18
100
AcDbEntity
  8
Object
100
AcDbLine
 10
14.29428571428571
 20
23.58142857142857
 30
0.0
 11
14.29428571428571
 21
23.57571428571429
 31
0.0
  0
LINE
  5
902
330
18
100
AcDbEntity
  8
Object
100
AcDbLine
 10
14.40714285714286
 20
23.58142857142857
 30
0.0
 11
14.40714285714286
 21
23.57571428571429
 31
0.0
  0
LINE
  5
903
330
18
100
AcDbEntity
  8
Object
100
AcDbLine
 10
14.40714285714286
 20
23.57571428571429
 30
0.0
 11
14.29428571428571
 21
23.57571428571429
 31
0.0
  0
LINE
  5
904
330
18
100
AcDbEntity
  8
Object
100
AcDbLine
 10
13.72857142857142
 20
23.58142857142857
 30
0.0
 11
13.72857142857142
 21
23.58
 31
0.0
  0
LINE
  5
905
330
18
100
AcDbEntity
  8
Object
100
AcDbLine
 10
13.91
 20
23.58142857142857
 30
0.0
 11
13.91
 21
23.58
 31
0.0
  0
LINE
  5
906
330
18
100
AcDbEntity
  8
Object
100
AcDbLine
 10
13.91
 20
23.58
 30
0.0
 11
13.72857142857142
 21
23.58
 31
0.0
  0
LINE
  5
907
330
18
100
AcDbEntity
  8
Object
100
AcDbLine
 10
13.72857142857142
 20
23.55714285714286
 30
0.0
 11
13.84571428571428
 21
23.55714285714286
 31
0.0
  0
LINE
  5
908
330
18
100
AcDbEntity
  8
Object
100
AcDbLine
 10
13.84571428571428
 20
23.55714285714286
 30
0.0
 11
13.84571428571428
 21
23.56428571428571
 31
0.0
  0
LINE
  5
909
330
18
100
AcDbEntity
  8
Object
100
AcDbLine
 10
14.10571428571428
 20
23.58142857142857
 30
0.0
 11
14.10571428571428
 21
23.57571428571429
 31
0.0
  0
LINE
  5
90A
330
18
100
AcDbEntity
  8
Object
100
AcDbLine
 10
14.10571428571428
 20
23.57571428571429
 30
0.0
 11
14.10571428571428
 21
23.56428571428571
 31
0.0
  0
LINE
  5
90B
330
18
100
AcDbEntity
  8
Object
100
AcDbLine
 10
13.98285714285714
 20
23.56
 30
0.0
 11
14.05857142857143
 21
23.56
 31
0.0
  0
LINE
  5
90C
330
18
100
AcDbEntity
  8
Object
100
AcDbLine
 10
14.78428571428571
 20
23.55714285714286
 30
0.0
 11
14.84571428571428
 21
23.55714285714286
 31
0.0
  0
LINE
  5
90D
330
18
100
AcDbEntity
  8
Object
100
AcDbLine
 10
14.84571428571428
 20
23.55714285714286
 30
0.0
 11
14.84571428571428
 21
23.57142857142857
 31
0.0
  0
LINE
  5
90E
330
18
100
AcDbEntity
  8
Object
100
AcDbLine
 10
14.54428571428571
 20
23.57571428571429
 30
0.0
 11
14.47714285714285
 21
23.57571428571429
 31
0.0
  0
LINE
  5
90F
330
18
100
AcDbEntity
  8
Object
100
AcDbLine
 10
14.47714285714285
 20
23.57571428571429
 30
0.0
 11
14.47714285714285
 21
23.58142857142857
 31
0.0
  0
LINE
  5
910
330
18
100
AcDbEntity
  8
Object
100
AcDbLine
 10
14.54428571428571
 20
23.57571428571429
 30
0.0
 11
14.54428571428571
 21
23.58142857142857
 31
0.0
  0
LINE
  5
911
330
18
100
AcDbEntity
  8
Object
100
AcDbLine
 10
14.56857142857143
 20
23.57
 30
0.0
 11
14.56857142857143
 21
23.56142857142857
 31
0.0
  0
LINE
  5
912
330
18
100
AcDbEntity
  8
Object
100
AcDbLine
 10
14.56857142857143
 20
23.56142857142857
 30
0.0
 11
14.55428571428571
 21
23.56142857142857
 31
0.0
  0
LINE
  5
913
330
18
100
AcDbEntity
  8
Object
100
AcDbLine
 10
14.17285714285714
 20
23.57571428571429
 30
0.0
 11
14.10571428571428
 21
23.57571428571429
 31
0.0
  0
LINE
  5
914
330
18
100
AcDbEntity
  8
Object
100
AcDbLine
 10
14.10571428571428
 20
23.57571428571429
 30
0.0
 11
14.10571428571428
 21
23.58142857142857
 31
0.0
  0
LINE
  5
915
330
18
100
AcDbEntity
  8
Object
100
AcDbLine
 10
14.17285714285714
 20
23.57571428571429
 30
0.0
 11
14.17285714285714
 21
23.58142857142857
 31
0.0
  0
LINE
  5
916
330
18
100
AcDbEntity
  8
Object
100
AcDbLine
 10
14.84571428571428
 20
23.57142857142857
 30
0.0
 11
14.89142857142857
 21
23.57142857142857
 31
0.0
  0
LINE
  5
917
330
18
100
AcDbEntity
  8
Object
100
AcDbLine
 10
14.44285714285714
 20
23.57142857142857
 30
0.0
 11
14.44285714285714
 21
23.58
 31
0.0
  0
LINE
  5
918
330
18
100
AcDbEntity
  8
Object
100
AcDbLine
 10
13.94857142857143
 20
23.56571428571429
 30
0.0
 11
13.91142857142857
 21
23.55714285714286
 31
0.0
  0
LINE
  5
919
330
18
100
AcDbEntity
  8
Object
100
AcDbLine
 10
13.91142857142857
 20
23.55714285714286
 30
0.0
 11
13.91142857142857
 21
23.56428571428571
 31
0.0
  0
LINE
  5
91A
330
18
100
AcDbEntity
  8
Object
100
AcDbLine
 10
14.07285714285714
 20
23.55714285714286
 30
0.0
 11
14.16285714285714
 21
23.55714285714286
 31
0.0
  0
LINE
  5
91B
330
18
100
AcDbEntity
  8
Object
100
AcDbLine
 10
14.26
 20
23.58142857142857
 30
0.0
 11
14.26
 21
23.57571428571429
 31
0.0
  0
LINE
  5
91C
330
18
100
AcDbEntity
  8
Object
100
AcDbLine
 10
14.26
 20
23.57571428571429
 30
0.0
 11
14.26
 21
23.55714285714286
 31
0.0
  0
LINE
  5
91D
330
18
100
AcDbEntity
  8
Object
100
AcDbLine
 10
14.74428571428571
 20
23.57142857142857
 30
0.0
 11
14.78428571428571
 21
23.57142857142857
 31
0.0
  0
LINE
  5
91E
330
18
100
AcDbEntity
  8
Object
100
AcDbLine
 10
14.51285714285714
 20
23.55714285714286
 30
0.0
 11
14.5
 21
23.55857142857143
 31
0.0
  0
LINE
  5
91F
330
18
100
AcDbEntity
  8
Object
100
AcDbLine
 10
14.5
 20
23.55857142857143
 30
0.0
 11
14.48857142857143
 21
23.55857142857143
 31
0.0
  0
LINE
  5
920
330
18
100
AcDbEntity
  8
Object
100
AcDbLine
 10
14.48857142857143
 20
23.55857142857143
 30
0.0
 11
14.48
 21
23.56
 31
0.0
  0
LINE
  5
921
330
18
100
AcDbEntity
  8
Object
100
AcDbLine
 10
14.48
 20
23.56
 30
0.0
 11
14.47714285714285
 21
23.56142857142857
 31
0.0
  0
LINE
  5
922
330
18
100
AcDbEntity
  8
Object
100
AcDbLine
 10
14.65571428571428
 20
23.58142857142857
 30
0.0
 11
14.65571428571428
 21
23.57571428571429
 31
0.0
  0
LINE
  5
923
330
18
100
AcDbEntity
  8
Object
100
AcDbLine
 10
14.70857142857143
 20
23.58142857142857
 30
0.0
 11
14.70857142857143
 21
23.57571428571429
 31
0.0
  0
LINE
  5
924
330
18
100
AcDbEntity
  8
Object
100
AcDbLine
 10
14.70857142857143
 20
23.57571428571429
 30
0.0
 11
14.65571428571428
 21
23.57571428571429
 31
0.0
  0
LINE
  5
925
330
18
100
AcDbEntity
  8
Object
100
AcDbLine
 10
13.91142857142857
 20
23.55714285714286
 30
0.0
 11
13.97
 21
23.55714285714286
 31
0.0
  0
LINE
  5
926
330
18
100
AcDbEntity
  8
Object
100
AcDbLine
 10
14.19857142857143
 20
23.55714285714286
 30
0.0
 11
14.26
 21
23.55714285714286
 31
0.0
  0
LINE
  5
927
330
18
100
AcDbEntity
  8
Object
100
AcDbLine
 10
14.20857142857142
 20
23.56857142857143
 30
0.0
 11
14.20857142857142
 21
23.57571428571429
 31
0.0
  0
LINE
  5
928
330
18
100
AcDbEntity
  8
Object
100
AcDbLine
 10
14.20857142857142
 20
23.57571428571429
 30
0.0
 11
14.20857142857142
 21
23.58142857142857
 31
0.0
  0
LINE
  5
929
330
18
100
AcDbEntity
  8
Object
100
AcDbLine
 10
13.72857142857142
 20
23.55714285714286
 30
0.0
 11
13.72857142857142
 21
23.58
 31
0.0
  0
LINE
  5
92A
330
18
100
AcDbEntity
  8
Object
100
AcDbLine
 10
13.72857142857142
 20
23.58
 30
0.0
 11
13.72857142857142
 21
23.58142857142857
 31
0.0
  0
LINE
  5
92B
330
18
100
AcDbEntity
  8
Object
100
AcDbLine
 10
14.89142857142857
 20
23.57142857142857
 30
0.0
 11
14.89142857142857
 21
23.57571428571429
 31
0.0
  0
LINE
  5
92C
330
18
100
AcDbEntity
  8
Object
100
AcDbLine
 10
14.89142857142857
 20
23.57571428571429
 30
0.0
 11
14.89142857142857
 21
23.58142857142857
 31
0.0
  0
LINE
  5
92D
330
18
100
AcDbEntity
  8
Object
100
AcDbLine
 10
14.51285714285714
 20
23.55714285714286
 30
0.0
 11
14.58428571428571
 21
23.55714285714286
 31
0.0
  0
LINE
  5
92E
330
18
100
AcDbEntity
  8
Object
100
AcDbLine
 10
14.29428571428571
 20
23.58142857142857
 30
0.0
 11
14.29428571428571
 21
23.57571428571429
 31
0.0
  0
LINE
  5
92F
330
18
100
AcDbEntity
  8
Object
100
AcDbLine
 10
14.29428571428571
 20
23.57571428571429
 30
0.0
 11
14.29428571428571
 21
23.55714285714286
 31
0.0
  0
LINE
  5
930
330
18
100
AcDbEntity
  8
Object
100
AcDbLine
 10
14.54428571428571
 20
23.58142857142857
 30
0.0
 11
14.54428571428571
 21
23.57571428571429
 31
0.0
  0
LINE
  5
931
330
18
100
AcDbEntity
  8
Object
100
AcDbLine
 10
14.54428571428571
 20
23.57571428571429
 30
0.0
 11
14.54428571428571
 21
23.56285714285714
 31
0.0
  0
LINE
  5
932
330
18
100
AcDbEntity
  8
Object
100
AcDbLine
 10
14.16285714285714
 20
23.55714285714286
 30
0.0
 11
14.16285714285714
 21
23.56571428571429
 31
0.0
  0
LINE
  5
933
330
18
100
AcDbEntity
  8
Object
100
AcDbLine
 10
14.57857142857143
 20
23.56285714285714
 30
0.0
 11
14.57714285714286
 21
23.56285714285714
 31
0.0
  0
LINE
  5
934
330
18
100
AcDbEntity
  8
Object
100
AcDbLine
 10
14.57714285714286
 20
23.56285714285714
 30
0.0
 11
14.57285714285714
 21
23.56142857142857
 31
0.0
  0
LINE
  5
935
330
18
100
AcDbEntity
  8
Object
100
AcDbLine
 10
14.57285714285714
 20
23.56142857142857
 30
0.0
 11
14.56857142857143
 21
23.56142857142857
 31
0.0
  0
LINE
  5
936
330
18
100
AcDbEntity
  8
Object
100
AcDbLine
 10
14.44285714285714
 20
23.58
 30
0.0
 11
14.44285714285714
 21
23.57142857142857
 31
0.0
  0
LINE
  5
937
330
18
100
AcDbEntity
  8
Object
100
AcDbLine
 10
14.44285714285714
 20
23.57142857142857
 30
0.0
 11
14.44285714285714
 21
23.56142857142857
 31
0.0
  0
LINE
  5
938
330
18
100
AcDbEntity
  8
Object
100
AcDbLine
 10
14.74428571428571
 20
23.58142857142857
 30
0.0
 11
14.74428571428571
 21
23.57571428571429
 31
0.0
  0
LINE
  5
939
330
18
100
AcDbEntity
  8
Object
100
AcDbLine
 10
14.89142857142857
 20
23.58142857142857
 30
0.0
 11
14.89142857142857
 21
23.57571428571429
 31
0.0
  0
LINE
  5
93A
330
18
100
AcDbEntity
  8
Object
100
AcDbLine
 10
14.89142857142857
 20
23.57571428571429
 30
0.0
 11
14.74428571428571
 21
23.57571428571429
 31
0.0
  0
LINE
  5
93B
330
18
100
AcDbEntity
  8
Object
100
AcDbLine
 10
14.29428571428571
 20
23.55714285714286
 30
0.0
 11
14.40714285714286
 21
23.55714285714286
 31
0.0
  0
LINE
  5
93C
330
18
100
AcDbEntity
  8
Object
100
AcDbLine
 10
13.99571428571428
 20
23.57571428571429
 30
0.0
 11
14.04714285714286
 21
23.57571428571429
 31
0.0
  0
LINE
  5
93D
330
18
100
AcDbEntity
  8
Object
100
AcDbLine
 10
14.04714285714286
 20
23.57571428571429
 30
0.0
 11
14.04714285714286
 21
23.58142857142857
 31
0.0
  0
LINE
  5
93E
330
18
100
AcDbEntity
  8
Object
100
AcDbLine
 10
14.20857142857142
 20
23.58142857142857
 30
0.0
 11
14.20857142857142
 21
23.57571428571429
 31
0.0
  0
LINE
  5
93F
330
18
100
AcDbEntity
  8
Object
100
AcDbLine
 10
14.26
 20
23.58142857142857
 30
0.0
 11
14.26
 21
23.57571428571429
 31
0.0
  0
LINE
  5
940
330
18
100
AcDbEntity
  8
Object
100
AcDbLine
 10
14.26
 20
23.57571428571429
 30
0.0
 11
14.20857142857142
 21
23.57571428571429
 31
0.0
  0
LINE
  5
941
330
18
100
AcDbEntity
  8
Object
100
AcDbLine
 10
13.99571428571428
 20
23.57571428571429
 30
0.0
 11
13.99571428571428
 21
23.58142857142857
 31
0.0
  0
LINE
  5
942
330
18
100
AcDbEntity
  8
Object
100
AcDbLine
 10
14.62
 20
23.58142857142857
 30
0.0
 11
14.62
 21
23.57571428571429
 31
0.0
  0
LINE
  5
943
330
18
100
AcDbEntity
  8
Object
100
AcDbLine
 10
14.62
 20
23.57571428571429
 30
0.0
 11
14.62
 21
23.56142857142857
 31
0.0
  0
LINE
  5
944
330
18
100
AcDbEntity
  8
Object
100
AcDbLine
 10
14.57857142857143
 20
23.56285714285714
 30
0.0
 11
14.57857142857143
 21
23.57571428571429
 31
0.0
  0
LINE
  5
945
330
18
100
AcDbEntity
  8
Object
100
AcDbLine
 10
14.57857142857143
 20
23.57571428571429
 30
0.0
 11
14.57857142857143
 21
23.58142857142857
 31
0.0
  0
LINE
  5
946
330
18
100
AcDbEntity
  8
Object
100
AcDbLine
 10
14.65571428571428
 20
23.55714285714286
 30
0.0
 11
14.70857142857143
 21
23.55714285714286
 31
0.0
  0
LINE
  5
947
330
18
100
AcDbEntity
  8
Object
100
AcDbLine
 10
14.74428571428571
 20
23.57142857142857
 30
0.0
 11
14.74428571428571
 21
23.57571428571429
 31
0.0
  0
LINE
  5
948
330
18
100
AcDbEntity
  8
Object
100
AcDbLine
 10
14.74428571428571
 20
23.57571428571429
 30
0.0
 11
14.74428571428571
 21
23.58142857142857
 31
0.0
  0
LINE
  5
949
330
18
100
AcDbEntity
  8
Object
100
AcDbLine
 10
14.70857142857143
 20
23.55714285714286
 30
0.0
 11
14.70857142857143
 21
23.57571428571429
 31
0.0
  0
LINE
  5
94A
330
18
100
AcDbEntity
  8
Object
100
AcDbLine
 10
14.70857142857143
 20
23.57571428571429
 30
0.0
 11
14.70857142857143
 21
23.58142857142857
 31
0.0
  0
LINE
  5
94B
330
18
100
AcDbEntity
  8
Object
100
AcDbLine
 10
14.47714285714285
 20
23.56142857142857
 30
0.0
 11
14.47714285714285
 21
23.57571428571429
 31
0.0
  0
LINE
  5
94C
330
18
100
AcDbEntity
  8
Object
100
AcDbLine
 10
14.47714285714285
 20
23.57571428571429
 30
0.0
 11
14.47714285714285
 21
23.58142857142857
 31
0.0
  0
LINE
  5
94D
330
18
100
AcDbEntity
  8
Object
100
AcDbLine
 10
14.55428571428571
 20
23.56142857142857
 30
0.0
 11
14.55428571428571
 21
23.57
 31
0.0
  0
LINE
  5
94E
330
18
100
AcDbEntity
  8
Object
100
AcDbLine
 10
14.05857142857143
 20
23.56
 30
0.0
 11
14.07285714285714
 21
23.55714285714286
 31
0.0
  0
LINE
  5
94F
330
18
100
AcDbEntity
  8
Object
100
AcDbLine
 10
14.16285714285714
 20
23.56571428571429
 30
0.0
 11
14.19857142857143
 21
23.55714285714286
 31
0.0
  0
LINE
  5
950
330
18
100
AcDbEntity
  8
Object
100
AcDbLine
 10
14.57857142857143
 20
23.58142857142857
 30
0.0
 11
14.57857142857143
 21
23.57571428571429
 31
0.0
  0
LINE
  5
951
330
18
100
AcDbEntity
  8
Object
100
AcDbLine
 10
14.62
 20
23.58142857142857
 30
0.0
 11
14.62
 21
23.57571428571429
 31
0.0
  0
LINE
  5
952
330
18
100
AcDbEntity
  8
Object
100
AcDbLine
 10
14.62
 20
23.57571428571429
 30
0.0
 11
14.57857142857143
 21
23.57571428571429
 31
0.0
  0
LINE
  5
953
330
18
100
AcDbEntity
  8
Object
100
AcDbLine
 10
13.84571428571428
 20
23.56428571428571
 30
0.0
 11
13.91
 21
23.56428571428571
 31
0.0
  0
LINE
  5
954
330
18
100
AcDbEntity
  8
Object
100
AcDbLine
 10
14.65571428571428
 20
23.55714285714286
 30
0.0
 11
14.65571428571428
 21
23.57571428571429
 31
0.0
  0
LINE
  5
955
330
18
100
AcDbEntity
  8
Object
100
AcDbLine
 10
14.65571428571428
 20
23.57571428571429
 30
0.0
 11
14.65571428571428
 21
23.58142857142857
 31
0.0
  0
LINE
  5
956
330
18
100
AcDbEntity
  8
Object
100
AcDbLine
 10
14.78428571428571
 20
23.57142857142857
 30
0.0
 11
14.78428571428571
 21
23.55714285714286
 31
0.0
  0
LINE
  5
957
330
18
100
AcDbEntity
  8
Object
100
AcDbLine
 10
14.44285714285714
 20
23.56142857142857
 30
0.0
 11
14.44285714285714
 21
23.57142857142857
 31
0.0
  0
LINE
  5
958
330
18
100
AcDbEntity
  8
Object
100
AcDbLine
 10
14.38428571428571
 20
23.57
 30
0.0
 11
14.38428571428571
 21
23.56285714285714
 31
0.0
  0
LINE
  5
959
330
18
100
AcDbEntity
  8
Object
100
AcDbLine
 10
14.38428571428571
 20
23.56285714285714
 30
0.0
 11
14.38285714285714
 21
23.56285714285714
 31
0.0
  0
LINE
  5
95A
330
18
100
AcDbEntity
  8
Object
100
AcDbLine
 10
14.44285714285714
 20
23.56142857142857
 30
0.0
 11
14.44
 21
23.56
 31
0.0
  0
LINE
  5
95B
330
18
100
AcDbEntity
  8
Object
100
AcDbLine
 10
14.44
 20
23.56
 30
0.0
 11
14.43142857142857
 21
23.55857142857143
 31
0.0
  0
LINE
  5
95C
330
18
100
AcDbEntity
  8
Object
100
AcDbLine
 10
14.43142857142857
 20
23.55857142857143
 30
0.0
 11
14.42
 21
23.55857142857143
 31
0.0
  0
LINE
  5
95D
330
18
100
AcDbEntity
  8
Object
100
AcDbLine
 10
14.42
 20
23.55857142857143
 30
0.0
 11
14.40714285714286
 21
23.55714285714286
 31
0.0
  0
LINE
  5
95E
330
18
100
AcDbEntity
  8
Object
100
AcDbLine
 10
14.40714285714286
 20
23.57571428571429
 30
0.0
 11
14.42
 21
23.57571428571429
 31
0.0
  0
LINE
  5
95F
330
18
100
AcDbEntity
  8
Object
100
AcDbLine
 10
14.42
 20
23.57571428571429
 30
0.0
 11
14.43142857142857
 21
23.57428571428572
 31
0.0
  0
LINE
  5
960
330
18
100
AcDbEntity
  8
Object
100
AcDbLine
 10
14.43142857142857
 20
23.57428571428572
 30
0.0
 11
14.44
 21
23.57285714285714
 31
0.0
  0
LINE
  5
961
330
18
100
AcDbEntity
  8
Object
100
AcDbLine
 10
14.44
 20
23.57285714285714
 30
0.0
 11
14.44285714285714
 21
23.57142857142857
 31
0.0
  0
LINE
  5
962
330
18
100
AcDbEntity
  8
Object
100
AcDbLine
 10
14.38428571428571
 20
23.57
 30
0.0
 11
14.38285714285714
 21
23.57142857142857
 31
0.0
  0
LINE
  5
963
330
18
100
AcDbEntity
  8
Object
100
AcDbLine
 10
14.38285714285714
 20
23.57142857142857
 30
0.0
 11
14.37857142857143
 21
23.57142857142857
 31
0.0
  0
LINE
  5
964
330
18
100
AcDbEntity
  8
Object
100
AcDbLine
 10
14.38285714285714
 20
23.56285714285714
 30
0.0
 11
14.37857142857143
 21
23.56142857142857
 31
0.0
  0
LINE
  5
965
330
18
100
AcDbEntity
  8
Object
100
AcDbLine
 10
14.37428571428571
 20
23.57142857142857
 30
0.0
 11
14.37857142857143
 21
23.57142857142857
 31
0.0
  0
LINE
  5
966
330
18
100
AcDbEntity
  8
Object
100
AcDbLine
 10
14.37857142857143
 20
23.56142857142857
 30
0.0
 11
14.37428571428571
 21
23.56142857142857
 31
0.0
  0
LINE
  5
967
330
18
100
AcDbEntity
  8
Object
100
AcDbLine
 10
14.37428571428571
 20
23.56142857142857
 30
0.0
 11
14.35428571428571
 21
23.56142857142857
 31
0.0
  0
LINE
  5
968
330
18
100
AcDbEntity
  8
Object
100
AcDbLine
 10
14.35428571428571
 20
23.57142857142857
 30
0.0
 11
14.37428571428571
 21
23.57142857142857
 31
0.0
  0
LINE
  5
969
330
18
100
AcDbEntity
  8
Object
100
AcDbLine
 10
14.29428571428571
 20
23.57571428571429
 30
0.0
 11
14.29428571428571
 21
23.55714285714286
 31
0.0
  0
LINE
  5
96A
330
18
100
AcDbEntity
  8
Object
100
AcDbLine
 10
14.35428571428571
 20
23.56142857142857
 30
0.0
 11
14.35428571428571
 21
23.57142857142857
 31
0.0
  0
LINE
  5
96B
330
18
100
AcDbEntity
  8
Object
100
AcDbLine
 10
14.20857142857142
 20
23.57571428571429
 30
0.0
 11
14.20857142857142
 21
23.56857142857143
 31
0.0
  0
LINE
  5
96C
330
18
100
AcDbEntity
  8
Object
100
AcDbLine
 10
14.26
 20
23.55714285714286
 30
0.0
 11
14.26
 21
23.57571428571429
 31
0.0
  0
LINE
  5
96D
330
18
100
AcDbEntity
  8
Object
100
AcDbLine
 10
14.20857142857142
 20
23.56857142857143
 30
0.0
 11
14.17285714285714
 21
23.57571428571429
 31
0.0
  0
LINE
  5
96E
330
18
100
AcDbEntity
  8
Object
100
AcDbLine
 10
14.16285714285714
 20
23.55714285714286
 30
0.0
 11
14.16285714285714
 21
23.56571428571429
 31
0.0
  0
LINE
  5
96F
330
18
100
AcDbEntity
  8
Object
100
AcDbLine
 10
14.10571428571428
 20
23.57571428571429
 30
0.0
 11
14.10571428571428
 21
23.56428571428571
 31
0.0
  0
LINE
  5
970
330
18
100
AcDbEntity
  8
Object
100
AcDbLine
 10
14.10571428571428
 20
23.56428571428571
 30
0.0
 11
14.04714285714286
 21
23.57571428571429
 31
0.0
  0
LINE
  5
971
330
18
100
AcDbEntity
  8
Object
100
AcDbLine
 10
14.02
 20
23.56857142857143
 30
0.0
 11
14.04571428571428
 21
23.56428571428571
 31
0.0
  0
LINE
  5
972
330
18
100
AcDbEntity
  8
Object
100
AcDbLine
 10
14.04571428571428
 20
23.56428571428571
 30
0.0
 11
13.99571428571428
 21
23.56428571428571
 31
0.0
  0
LINE
  5
973
330
18
100
AcDbEntity
  8
Object
100
AcDbLine
 10
13.99571428571428
 20
23.56428571428571
 30
0.0
 11
14.02
 21
23.56857142857143
 31
0.0
  0
LINE
  5
974
330
18
100
AcDbEntity
  8
Object
100
AcDbLine
 10
13.97
 20
23.55714285714286
 30
0.0
 11
13.98285714285714
 21
23.56
 31
0.0
  0
LINE
  5
975
330
18
100
AcDbEntity
  8
Object
100
AcDbLine
 10
13.93714285714286
 20
23.56571428571429
 30
0.0
 11
13.94857142857143
 21
23.56571428571429
 31
0.0
  0
LINE
  5
976
330
18
100
AcDbEntity
  8
Object
100
AcDbLine
 10
13.88428571428571
 20
23.57571428571429
 30
0.0
 11
13.88428571428571
 21
23.57
 31
0.0
  0
LINE
  5
977
330
18
100
AcDbEntity
  8
Object
100
AcDbLine
 10
13.93142857142857
 20
23.58
 30
0.0
 11
13.95285714285714
 21
23.58
 31
0.0
  0
LINE
  5
978
330
18
100
AcDbEntity
  8
Object
100
AcDbLine
 10
13.95285714285714
 20
23.58
 30
0.0
 11
13.97142857142857
 21
23.57857142857143
 31
0.0
  0
LINE
  5
979
330
18
100
AcDbEntity
  8
Object
100
AcDbLine
 10
13.97142857142857
 20
23.57857142857143
 30
0.0
 11
13.98571428571428
 21
23.57714285714286
 31
0.0
  0
LINE
  5
97A
330
18
100
AcDbEntity
  8
Object
100
AcDbLine
 10
13.98571428571428
 20
23.57714285714286
 30
0.0
 11
13.99571428571428
 21
23.57571428571429
 31
0.0
  0
LINE
  5
97B
330
18
100
AcDbEntity
  8
Object
100
AcDbLine
 10
13.93142857142857
 20
23.58
 30
0.0
 11
13.91
 21
23.58
 31
0.0
  0
LINE
  5
97C
330
18
100
AcDbEntity
  8
Object
100
AcDbLine
 10
13.88285714285714
 20
23.57571428571429
 30
0.0
 11
13.88428571428571
 21
23.57571428571429
 31
0.0
  0
LINE
  5
97D
330
18
100
AcDbEntity
  8
Object
100
AcDbLine
 10
13.88428571428571
 20
23.57
 30
0.0
 11
13.88285714285714
 21
23.56857142857143
 31
0.0
  0
LINE
  5
97E
330
18
100
AcDbEntity
  8
Object
100
AcDbLine
 10
13.93714285714286
 20
23.56571428571429
 30
0.0
 11
13.92285714285714
 21
23.56571428571429
 31
0.0
  0
LINE
  5
97F
330
18
100
AcDbEntity
  8
Object
100
AcDbLine
 10
13.92285714285714
 20
23.56571428571429
 30
0.0
 11
13.91
 21
23.56428571428571
 31
0.0
  0
LINE
  5
980
330
18
100
AcDbEntity
  8
Object
100
AcDbLine
 10
13.88285714285714
 20
23.56857142857143
 30
0.0
 11
13.87714285714286
 21
23.56857142857143
 31
0.0
  0
LINE
  5
981
330
18
100
AcDbEntity
  8
Object
100
AcDbLine
 10
13.87714285714286
 20
23.57714285714286
 30
0.0
 11
13.88285714285714
 21
23.57571428571429
 31
0.0
  0
LINE
  5
982
330
18
100
AcDbEntity
  8
Object
100
AcDbLine
 10
13.87714285714286
 20
23.56857142857143
 30
0.0
 11
13.87142857142857
 21
23.56857142857143
 31
0.0
  0
LINE
  5
983
330
18
100
AcDbEntity
  8
Object
100
AcDbLine
 10
13.87714285714286
 20
23.57714285714286
 30
0.0
 11
13.87142857142857
 21
23.57714285714286
 31
0.0
  0
LINE
  5
984
330
18
100
AcDbEntity
  8
Object
100
AcDbLine
 10
13.87142857142857
 20
23.57714285714286
 30
0.0
 11
13.84571428571428
 21
23.57714285714286
 31
0.0
  0
LINE
  5
985
330
18
100
AcDbEntity
  8
Object
100
AcDbLine
 10
13.87142857142857
 20
23.56857142857143
 30
0.0
 11
13.84571428571428
 21
23.56857142857143
 31
0.0
  0
LINE
  5
986
330
18
100
AcDbEntity
  8
Object
100
AcDbLine
 10
13.84571428571428
 20
23.56857142857143
 30
0.0
 11
13.84571428571428
 21
23.57714285714286
 31
0.0
  0
LINE
  5
987
330
18
100
AcDbEntity
  8
Object
100
AcDbLine
 10
13.84571428571428
 20
23.55714285714286
 30
0.0
 11
13.84571428571428
 21
23.56428571428571
 31
0.0
  0
LINE
  5
988
330
18
100
AcDbEntity
  8
Object
100
AcDbLine
 10
13.72857142857142
 20
23.58
 30
0.0
 11
13.72857142857142
 21
23.55714285714286
 31
0.0
  0
LINE
  5
989
330
18
100
AcDbEntity
  8
Object
100
AcDbLine
 10
14.57857142857143
 20
23.57571428571429
 30
0.0
 11
14.57857142857143
 21
23.56285714285714
 31
0.0
  0
LINE
  5
98A
330
18
100
AcDbEntity
  8
Object
100
AcDbLine
 10
14.62
 20
23.57571428571429
 30
0.0
 11
14.62
 21
23.56142857142857
 31
0.0
  0
LINE
  5
98B
330
18
100
AcDbEntity
  8
Object
100
AcDbLine
 10
14.62
 20
23.56142857142857
 30
0.0
 11
14.61714285714285
 21
23.56
 31
0.0
  0
LINE
  5
98C
330
18
100
AcDbEntity
  8
Object
100
AcDbLine
 10
14.61714285714285
 20
23.56
 30
0.0
 11
14.61
 21
23.55857142857143
 31
0.0
  0
LINE
  5
98D
330
18
100
AcDbEntity
  8
Object
100
AcDbLine
 10
14.61
 20
23.55857142857143
 30
0.0
 11
14.59857142857143
 21
23.55857142857143
 31
0.0
  0
LINE
  5
98E
330
18
100
AcDbEntity
  8
Object
100
AcDbLine
 10
14.59857142857143
 20
23.55857142857143
 30
0.0
 11
14.58428571428571
 21
23.55714285714286
 31
0.0
  0
LINE
  5
98F
330
18
100
AcDbEntity
  8
Object
100
AcDbLine
 10
14.54428571428571
 20
23.56285714285714
 30
0.0
 11
14.54857142857143
 21
23.56142857142857
 31
0.0
  0
LINE
  5
990
330
18
100
AcDbEntity
  8
Object
100
AcDbLine
 10
14.54857142857143
 20
23.56142857142857
 30
0.0
 11
14.55428571428571
 21
23.56142857142857
 31
0.0
  0
LINE
  5
991
330
18
100
AcDbEntity
  8
Object
100
AcDbLine
 10
14.47714285714285
 20
23.57571428571429
 30
0.0
 11
14.47714285714285
 21
23.56142857142857
 31
0.0
  0
LINE
  5
992
330
18
100
AcDbEntity
  8
Object
100
AcDbLine
 10
14.54428571428571
 20
23.56285714285714
 30
0.0
 11
14.54428571428571
 21
23.57571428571429
 31
0.0
  0
LINE
  5
993
330
18
100
AcDbEntity
  8
Object
100
AcDbLine
 10
14.89142857142857
 20
23.57142857142857
 30
0.0
 11
14.89142857142857
 21
23.57571428571429
 31
0.0
  0
LINE
  5
994
330
18
100
AcDbEntity
  8
Object
100
AcDbLine
 10
14.84571428571428
 20
23.55714285714286
 30
0.0
 11
14.84571428571428
 21
23.57142857142857
 31
0.0
  0
LINE
  5
995
330
18
100
AcDbEntity
  8
Object
100
AcDbLine
 10
14.78428571428571
 20
23.57142857142857
 30
0.0
 11
14.78428571428571
 21
23.55714285714286
 31
0.0
  0
LINE
  5
996
330
18
100
AcDbEntity
  8
Object
100
AcDbLine
 10
14.74428571428571
 20
23.57571428571429
 30
0.0
 11
14.74428571428571
 21
23.57142857142857
 31
0.0
  0
LINE
  5
997
330
18
100
AcDbEntity
  8
Object
100
AcDbLine
 10
14.65571428571428
 20
23.57571428571429
 30
0.0
 11
14.65571428571428
 21
23.55714285714286
 31
0.0
  0
LINE
  5
998
330
18
100
AcDbEntity
  8
Object
100
AcDbLine
 10
14.70857142857143
 20
23.55714285714286
 30
0.0
 11
14.70857142857143
 21
23.57571428571429
 31
0.0
  0
LINE
  5
999
330
18
100
AcDbEntity
  8
Object
100
AcDbLine
 10
14.38428571428571
 20
23.57
 30
0.0
 11
14.38428571428571
 21
23.56285714285714
 31
0.0
  0
LINE
  5
99A
330
18
100
AcDbEntity
  8
Object
100
AcDbLine
 10
14.38142857142857
 20
23.57
 30
0.0
 11
14.37857142857143
 21
23.57
 31
0.0
  0
LINE
  5
99B
330
18
100
AcDbEntity
  8
Object
100
AcDbLine
 10
14.37857142857143
 20
23.57
 30
0.0
 11
14.37428571428571
 21
23.57
 31
0.0
  0
LINE
  5
99C
330
18
100
AcDbEntity
  8
Object
100
AcDbLine
 10
14.37428571428571
 20
23.57
 30
0.0
 11
14.35428571428571
 21
23.57
 31
0.0
  0
LINE
  5
99D
330
18
100
AcDbEntity
  8
Object
100
AcDbLine
 10
14.37428571428571
 20
23.56142857142857
 30
0.0
 11
14.37428571428571
 21
23.57
 31
0.0
  0
LINE
  5
99E
330
18
100
AcDbEntity
  8
Object
100
AcDbLine
 10
14.35428571428571
 20
23.56142857142857
 30
0.0
 11
14.35428571428571
 21
23.57142857142857
 31
0.0
  0
LINE
  5
99F
330
18
100
AcDbEntity
  8
Object
100
AcDbLine
 10
13.88428571428571
 20
23.57571428571429
 30
0.0
 11
13.88428571428571
 21
23.57
 31
0.0
  0
LINE
  5
9A0
330
18
100
AcDbEntity
  8
Object
100
AcDbLine
 10
13.84571428571428
 20
23.56857142857143
 30
0.0
 11
13.84571428571428
 21
23.57714285714286
 31
0.0
  0
LINE
  5
9A1
330
18
100
AcDbEntity
  8
Object
100
AcDbLine
 10
13.87142857142857
 20
23.56857142857143
 30
0.0
 11
13.87142857142857
 21
23.57714285714286
 31
0.0
  0
DIMENSION
  5
9A2
330
18
100
AcDbEntity
  8
Dimension
100
AcDbDimension
  2
*D0
 10
23.20142857142857
 20
14.81054279312459
 30
0.0
 11
14.31857142857143
 21
14.81054279312459
 31
0.0
 70
    32
  1
17.76 [451.2mm]
 71
     5
 42
17.76571428571428
  3
STANDARD
100
AcDbAlignedDimension
 13
5.435714285714285
 23
13.04
 33
0.0
 14
23.20142857142857
 24
13.04
 34
0.0
100
AcDbRotatedDimension
  0
DIMENSION
  5
9B0
330
18
100
AcDbEntity
  8
Dimension
100
AcDbDimension
  2
*D1
 10
32.20141043939809
 20
7.08
 30
0.0
 11
32.20141043939809
 21
10.06
 31
0.0
 70
    32
 71
     5
 42
5.959999999999998
  3
STANDARD
100
AcDbAlignedDimension
 13
34.06714285714286
 23
13.04
 33
0.0
 14
34.06714285714286
 24
7.08
 34
0.0
 50
90.0
100
AcDbRotatedDimension
  0
DIMENSION
  5
9BE
330
18
100
AcDbEntity
  8
Dimension
100
AcDbDimension
  2
*D2
 10
25.28758698289605
 20
23.55857142857143
 30
0.0
 11
25.28758698289605
 21
25.55857142857143
 31
0.0
 70
    32
 71
     5
 42
4.0
  3
STANDARD
100
AcDbAlignedDimension
 13
21.03
 23
27.55857142857143
 33
0.0
 14
23.20142857142857
 24
23.55857142857143
 34
0.0
 50
90.0
100
AcDbRotatedDimension
  0
ENDSEC
  0
SECTION
  2
OBJECTS
  0
DICTIONARY
  5
C
330
0
100
AcDbDictionary
281
     1
  3
ACAD_COLOR
350
131
  3
ACAD_GROUP
350
D
  3
ACAD_LAYOUT
350
134
  3
ACAD_MATERIAL
350
130
  3
ACAD_MLINESTYLE
350
1B
  3
ACAD_PLOTSETTINGS
350
135
  3
ACAD_PLOTSTYLENAME
350
12E
  3
ACAD_TABLESTYLE
350
132
  3
ACDBHEADERROUNDTRIPXREC
350
9EC
  3
AcDbVariableDictionary
350
160
  3
ASE_INDEX_DICTIONARY
350
174
  0
DICTIONARY
  5
180
330
2
100
AcDbDictionary
280
     1
281
     1
  3
ACAD_LAYERFILTERS
360
184
  3
ACLYDICTIONARY
360
183
  0
DICTIONARY
  5
131
102
{ACAD_REACTORS
330
C
102
}
330
C
100
AcDbDictionary
281
     1
  0
DICTIONARY
  5
D
102
{ACAD_REACTORS
330
C
102
}
330
C
100
AcDbDictionary
281
     1
  0
DICTIONARY
  5
134
102
{ACAD_REACTORS
330
C
102
}
330
C
100
AcDbDictionary
281
     1
  3
Layout1
350
137
  3
Model
350
136
  0
DICTIONARY
  5
130
102
{ACAD_REACTORS
330
C
102
}
330
C
100
AcDbDictionary
281
     1
  0
DICTIONARY
  5
1B
102
{ACAD_REACTORS
330
C
102
}
330
C
100
AcDbDictionary
281
     1
  3
STANDARD
350
1C
  0
DICTIONARY
  5
135
102
{ACAD_REACTORS
330
C
102
}
330
C
100
AcDbDictionary
281
     1
  0
ACDBDICTIONARYWDFLT
  5
12E
102
{ACAD_REACTORS
330
C
102
}
330
C
100
AcDbDictionary
281
     1
  3
Normal
350
12F
100
AcDbDictionaryWithDefault
340
12F
  0
DICTIONARY
  5
132
102
{ACAD_REACTORS
330
C
102
}
330
C
100
AcDbDictionary
281
     1
  3
Standard
350
133
  0
DICTIONARY
  5
9EC
102
{ACAD_REACTORS
330
C
102
}
330
C
100
AcDbDictionary
281
     1
  0
DICTIONARY
  5
160
102
{ACAD_REACTORS
330
C
102
}
330
C
100
AcDbDictionary
281
     1
  3
CTABLESTYLE
350
161
  3
DIMASSOC
350
9E9
  3
PROJECTNAME
350
9EA
  0
DICTIONARY
  5
174
102
{ACAD_REACTORS
330
C
102
}
330
C
100
AcDbDictionary
281
     1
  3
ASEBlockHierarchyIndexRecord
350
176
1001
DCO15
1040
1529148180.742
  0
DICTIONARY
  5
184
102
{ACAD_REACTORS
330
180
102
}
330
180
100
AcDbDictionary
281
     1
  0
DICTIONARY
  5
183
102
{ACAD_REACTORS
330
180
102
}
330
180
100
AcDbDictionary
281
     1
1001
ACAD
1000
<All
  0
LAYOUT
  5
137
102
{ACAD_XDICTIONARY
360
9EF
102
}
102
{ACAD_REACTORS
330
134
102
}
330
134
100
AcDbPlotSettings
  1

  2
\\RSENG\RSplotter4NT
  4

  6

 40
0.0
 41
0.0
 42
0.0
 43
0.0
 44
0.0
 45
0.0
 46
0.0
 47
0.0
 48
0.0
 49
0.0
140
0.0
141
0.0
142
1.0
143
1.0
 70
   688
 72
     0
 73
     0
 74
     5
  7
Symantec Fax Starter Edition
 75
    16
147
1.0
148
0.0
149
0.0
100
AcDbLayout
  1
Layout1
 70
     1
 71
     1
 10
0.0
 20
0.0
 11
12.0
 21
9.0
 12
0.0
 22
0.0
 32
0.0
 14
1.000000000000000E+20
 24
1.000000000000000E+20
 34
1.000000000000000E+20
 15
-1.000000000000000E+20
 25
-1.000000000000000E+20
 35
-1.000000000000000E+20
146
0.0
 13
0.0
 23
0.0
 33
0.0
 16
1.0
 26
0.0
 36
0.0
 17
0.0
 27
1.0
 37
0.0
 76
     0
330
15
  0
LAYOUT
  5
136
102
{ACAD_XDICTIONARY
360
9ED
102
}
102
{ACAD_REACTORS
330
134
102
}
330
134
100
AcDbPlotSettings
  1

  2
\\RSENG\RSplotter4NT
  4

  6

 40
0.0
 41
0.0
 42
0.0
 43
0.0
 44
0.0
 45
0.0
 46
0.0
 47
0.0
 48
0.0
 49
0.0
140
0.0
141
0.0
142
1.0
143
1.0
 70
  1712
 72
     0
 73
     0
 74
     0
  7
Symantec Fax Starter Edition
 75
     0
147
1.0
148
0.0
149
0.0
100
AcDbLayout
  1
Model
 70
     1
 71
     0
 10
0.0
 20
0.0
 11
12.0
 21
9.0
 12
0.0
 22
0.0
 32
0.0
 14
0.0
 24
0.0
 34
0.0
 15
0.0
 25
0.0
 35
0.0
146
0.0
 13
0.0
 23
0.0
 33
0.0
 16
1.0
 26
0.0
 36
0.0
 17
0.0
 27
1.0
 37
0.0
 76
     0
330
18
  0
MLINESTYLE
  5
1C
102
{ACAD_REACTORS
330
1B
102
}
330
1B
100
AcDbMlineStyle
  2
STANDARD
 70
     0
  3

 62
   256
 51
90.0
 52
90.0
 71
     2
 49
0.5
 62
   256
  6
BYLAYER
 49
-0.5
 62
   256
  6
BYLAYER
  0
ACDBPLACEHOLDER
  5
12F
102
{ACAD_REACTORS
330
12E
102
}
330
12E
  0
TABLESTYLE
  5
133
102
{ACAD_REACTORS
330
132
102
}
330
132
100
AcDbTableStyle
  3
Standard
 70
     0
 71
     0
 40
0.06
 41
0.06
280
     0
281
     0
  7
STANDARD
140
0.18
170
     2
 62
     0
 63
     7
283
     0
274
    -2
284
     1
 64
     0
275
    -2
285
     1
 65
     0
276
    -2
286
     1
 66
     0
277
    -2
287
     1
 67
     0
278
    -2
288
     1
 68
     0
279
    -2
289
     1
 69
     0
  7
STANDARD
140
0.25
170
     5
 62
     0
 63
     7
283
     0
274
    -2
284
     1
 64
     0
275
    -2
285
     1
 65
     0
276
    -2
286
     1
 66
     0
277
    -2
287
     1
 67
     0
278
    -2
288
     1
 68
     0
279
    -2
289
     1
 69
     0
  7
STANDARD
140
0.18
170
     5
 62
     0
 63
     7
283
     0
274
    -2
284
     1
 64
     0
275
    -2
285
     1
 65
     0
276
    -2
286
     1
 66
     0
277
    -2
287
     1
 67
     0
278
    -2
288
     1
 68
     0
279
    -2
289
     1
 69
     0
  0
DICTIONARYVAR
  5
161
102
{ACAD_REACTORS
330
160
102
}
330
160
100
DictionaryVariables
280
     0
  1
STANDARD
  0
DICTIONARYVAR
  5
9E9
102
{ACAD_REACTORS
330
160
102
}
330
160
100
DictionaryVariables
280
     0
  1
1
  0
DICTIONARYVAR
  5
9EA
102
{ACAD_REACTORS
330
160
102
}
330
160
100
DictionaryVariables
280
     0
  1

  0
XRECORD
  5
176
102
{ACAD_REACTORS
330
174
102
}
330
174
100
AcDbXrecord
280
     1
  0
DICTIONARY
  5
9EF
330
137
100
AcDbDictionary
280
     1
281
     1
  3
ACAD_XREC_ROUNDTRIP
360
9F0
  0
DICTIONARY
  5
9ED
330
136
100
AcDbDictionary
280
     1
281
     1
  3
ACAD_XREC_ROUNDTRIP
360
9EE
  0
XRECORD
  5
9F0
102
{ACAD_REACTORS
330
9EF
102
}
330
9EF
100
AcDbXrecord
280
     1
102
SHADEPLOT
 70
     0
102
SHADEPLOTRESLEVEL
 70
     2
102
SHADEPLOTCUSTOMDPI
 70
   300
  0
XRECORD
  5
9EE
102
{ACAD_REACTORS
330
9ED
102
}
330
9ED
100
AcDbXrecord
280
     1
102
SHADEPLOT
 70
     0
102
SHADEPLOTRESLEVEL
 70
     2
102
SHADEPLOTCUSTOMDPI
 70
   300
  0
ENDSEC
  0
EOF
