  0
SECTION
  2
HEADER
  9
$ACADVER
  1
AC1015
  9
$ACADMAINTVER
 70
    20
  9
$DWGCODEPAGE
  3
ANSI_1252
  9
$INSBASE
 10
0.0
 20
0.0
 30
0.0
  9
$EXTMIN
 10
-0.075
 20
-0.075
 30
0.0
  9
$EXTMAX
 10
22.075
 20
17.075
 30
0.0
  9
$LIMMIN
 10
0.0
 20
0.0
  9
$LIMMAX
 10
12.0
 20
9.0
  9
$ORTHOMODE
 70
     0
  9
$REGENMODE
 70
     1
  9
$FILLMODE
 70
     1
  9
$QTEXTMODE
 70
     0
  9
$MIRRTEXT
 70
     1
  9
$LTSCALE
 40
1.0
  9
$ATTMODE
 70
     1
  9
$TEXTSIZE
 40
0.125
  9
$TRACEWID
 40
0.05
  9
$TEXTSTYLE
  7
STANDARD
  9
$CLAYER
  8
0
  9
$CELTYPE
  6
BYLAYER
  9
$CECOLOR
 62
   256
  9
$CELTSCALE
 40
1.0
  9
$DISPSILH
 70
     0
  9
$DIMSCALE
 40
1.0
  9
$DIMASZ
 40
0.125
  9
$DIMEXO
 40
0.0625
  9
$DIMDLI
 40
0.38
  9
$DIMRND
 40
0.0
  9
$DIMDLE
 40
0.0
  9
$DIMEXE
 40
0.125
  9
$DIMTP
 40
0.0
  9
$DIMTM
 40
0.0
  9
$DIMTXT
 40
0.09
  9
$DIMCEN
 40
0.09
  9
$DIMTSZ
 40
0.0
  9
$DIMTOL
 70
     0
  9
$DIMLIM
 70
     0
  9
$DIMTIH
 70
     1
  9
$DIMTOH
 70
     1
  9
$DIMSE1
 70
     0
  9
$DIMSE2
 70
     0
  9
$DIMTAD
 70
     0
  9
$DIMZIN
 70
     0
  9
$DIMBLK
  1

  9
$DIMASO
 70
     1
  9
$DIMSHO
 70
     1
  9
$DIMPOST
  1

  9
$DIMAPOST
  1
mm
  9
$DIMALT
 70
     1
  9
$DIMALTD
 70
     1
  9
$DIMALTF
 40
25.4
  9
$DIMLFAC
 40
1.0
  9
$DIMTOFL
 70
     0
  9
$DIMTVP
 40
0.0
  9
$DIMTIX
 70
     0
  9
$DIMSOXD
 70
     0
  9
$DIMSAH
 70
     0
  9
$DIMBLK1
  1

  9
$DIMBLK2
  1

  9
$DIMSTYLE
  2
STANDARD
  9
$DIMCLRD
 70
     0
  9
$DIMCLRE
 70
     0
  9
$DIMCLRT
 70
     0
  9
$DIMTFAC
 40
1.0
  9
$DIMGAP
 40
0.09
  9
$DIMJUST
 70
     0
  9
$DIMSD1
 70
     0
  9
$DIMSD2
 70
     0
  9
$DIMTOLJ
 70
     1
  9
$DIMTZIN
 70
     0
  9
$DIMALTZ
 70
     0
  9
$DIMALTTZ
 70
     0
  9
$DIMUPT
 70
     0
  9
$DIMDEC
 70
     2
  9
$DIMTDEC
 70
     2
  9
$DIMALTU
 70
     2
  9
$DIMALTTD
 70
     1
  9
$DIMTXSTY
  7
STANDARD
  9
$DIMAUNIT
 70
     0
  9
$DIMADEC
 70
     0
  9
$DIMALTRND
 40
0.0
  9
$DIMAZIN
 70
     0
  9
$DIMDSEP
 70
    46
  9
$DIMATFIT
 70
     3
  9
$DIMFRAC
 70
     0
  9
$DIMLDRBLK
  1

  9
$DIMLUNIT
 70
     2
  9
$DIMLWD
 70
    -2
  9
$DIMLWE
 70
    -2
  9
$DIMTMOVE
 70
     0
  9
$LUNITS
 70
     2
  9
$LUPREC
 70
     2
  9
$SKETCHINC
 40
0.1
  9
$FILLETRAD
 40
0.5
  9
$AUNITS
 70
     0
  9
$AUPREC
 70
     0
  9
$MENU
  1
.
  9
$ELEVATION
 40
0.0
  9
$PELEVATION
 40
0.0
  9
$THICKNESS
 40
0.0
  9
$LIMCHECK
 70
     0
  9
$CHAMFERA
 40
0.5
  9
$CHAMFERB
 40
0.5
  9
$CHAMFERC
 40
1.0
  9
$CHAMFERD
 40
0.0
  9
$SKPOLY
 70
     0
  9
$TDCREATE
 40
2451681.555436007
  9
$TDUCREATE
 40
2451681.763769340
  9
$TDUPDATE
 40
2454294.590442327
  9
$TDUUPDATE
 40
2454294.798775660
  9
$TDINDWG
 40
0.2132489815
  9
$TDUSRTIMER
 40
0.2132489815
  9
$USRTIMER
 70
     1
  9
$ANGBASE
 50
0.0
  9
$ANGDIR
 70
     0
  9
$PDMODE
 70
     2
  9
$PDSIZE
 40
0.075
  9
$PLINEWID
 40
0.0
  9
$SPLFRAME
 70
     0
  9
$SPLINETYPE
 70
     6
  9
$SPLINESEGS
 70
     8
  9
$HANDSEED
  5
989
  9
$SURFTAB1
 70
     6
  9
$SURFTAB2
 70
     6
  9
$SURFTYPE
 70
     6
  9
$SURFU
 70
     6
  9
$SURFV
 70
     6
  9
$UCSBASE
  2

  9
$UCSNAME
  2

  9
$UCSORG
 10
0.0
 20
0.0
 30
0.0
  9
$UCSXDIR
 10
1.0
 20
0.0
 30
0.0
  9
$UCSYDIR
 10
0.0
 20
1.0
 30
0.0
  9
$UCSORTHOREF
  2

  9
$UCSORTHOVIEW
 70
     0
  9
$UCSORGTOP
 10
0.0
 20
0.0
 30
0.0
  9
$UCSORGBOTTOM
 10
0.0
 20
0.0
 30
0.0
  9
$UCSORGLEFT
 10
0.0
 20
0.0
 30
0.0
  9
$UCSORGRIGHT
 10
0.0
 20
0.0
 30
0.0
  9
$UCSORGFRONT
 10
0.0
 20
0.0
 30
0.0
  9
$UCSORGBACK
 10
0.0
 20
0.0
 30
0.0
  9
$PUCSBASE
  2

  9
$PUCSNAME
  2

  9
$PUCSORG
 10
0.0
 20
0.0
 30
0.0
  9
$PUCSXDIR
 10
1.0
 20
0.0
 30
0.0
  9
$PUCSYDIR
 10
0.0
 20
1.0
 30
0.0
  9
$PUCSORTHOREF
  2

  9
$PUCSORTHOVIEW
 70
     0
  9
$PUCSORGTOP
 10
0.0
 20
0.0
 30
0.0
  9
$PUCSORGBOTTOM
 10
0.0
 20
0.0
 30
0.0
  9
$PUCSORGLEFT
 10
0.0
 20
0.0
 30
0.0
  9
$PUCSORGRIGHT
 10
0.0
 20
0.0
 30
0.0
  9
$PUCSORGFRONT
 10
0.0
 20
0.0
 30
0.0
  9
$PUCSORGBACK
 10
0.0
 20
0.0
 30
0.0
  9
$USERI1
 70
     0
  9
$USERI2
 70
     0
  9
$USERI3
 70
     0
  9
$USERI4
 70
     0
  9
$USERI5
 70
     0
  9
$USERR1
 40
0.0
  9
$USERR2
 40
0.0
  9
$USERR3
 40
0.0
  9
$USERR4
 40
0.0
  9
$USERR5
 40
0.0
  9
$WORLDVIEW
 70
     1
  9
$SHADEDGE
 70
     3
  9
$SHADEDIF
 70
    70
  9
$TILEMODE
 70
     1
  9
$MAXACTVP
 70
    48
  9
$PINSBASE
 10
0.0
 20
0.0
 30
0.0
  9
$PLIMCHECK
 70
     0
  9
$PEXTMIN
 10
1.000000000000000E+20
 20
1.000000000000000E+20
 30
1.000000000000000E+20
  9
$PEXTMAX
 10
-1.000000000000000E+20
 20
-1.000000000000000E+20
 30
-1.000000000000000E+20
  9
$PLIMMIN
 10
0.0
 20
0.0
  9
$PLIMMAX
 10
12.0
 20
9.0
  9
$UNITMODE
 70
     0
  9
$VISRETAIN
 70
     1
  9
$PLINEGEN
 70
     0
  9
$PSLTSCALE
 70
     1
  9
$TREEDEPTH
 70
  3020
  9
$CMLSTYLE
  2
STANDARD
  9
$CMLJUST
 70
     0
  9
$CMLSCALE
 40
1.0
  9
$PROXYGRAPHICS
 70
     1
  9
$MEASUREMENT
 70
     0
  9
$CELWEIGHT
370
    -1
  9
$ENDCAPS
280
     0
  9
$JOINSTYLE
280
     0
  9
$LWDISPLAY
290
     0
  9
$INSUNITS
 70
     0
  9
$HYPERLINKBASE
  1

  9
$STYLESHEET
  1

  9
$XEDIT
290
     1
  9
$CEPSNTYPE
380
     0
  9
$PSTYLEMODE
290
     1
  9
$FINGERPRINTGUID
  2
{71EC7F31-AA06-4ECF-8D30-7E7FC2EDBC33}
  9
$VERSIONGUID
  2
{83C825CB-27A4-4F09-9035-DCC6A0C84744}
  9
$EXTNAMES
290
     1
  9
$PSVPSCALE
 40
0.0
  9
$OLESTARTUP
290
     0
  0
ENDSEC
  0
SECTION
  2
CLASSES
  0
CLASS
  1
ACDBDICTIONARYWDFLT
  2
AcDbDictionaryWithDefault
  3
ObjectDBX Classes
 90
        0
280
     0
281
     0
  0
CLASS
  1
TABLESTYLE
  2
AcDbTableStyle
  3
ObjectDBX Classes
 90
     2047
280
     0
281
     0
  0
CLASS
  1
DICTIONARYVAR
  2
AcDbDictionaryVar
  3
ObjectDBX Classes
 90
        0
280
     0
281
     0
  0
CLASS
  1
ACDBPLACEHOLDER
  2
AcDbPlaceHolder
  3
ObjectDBX Classes
 90
        0
280
     0
281
     0
  0
CLASS
  1
LAYOUT
  2
AcDbLayout
  3
ObjectDBX Classes
 90
        0
280
     0
281
     0
  0
ENDSEC
  0
SECTION
  2
TABLES
  0
TABLE
  2
VPORT
  5
8
330
0
100
AcDbSymbolTable
 70
     2
  0
VPORT
  5
983
330
8
100
AcDbSymbolTableRecord
100
AcDbViewportTableRecord
  2
*Active
 70
     0
 10
0.0
 20
0.0
 11
1.0
 21
1.0
 12
11.00000015472541
 22
9.103873819164817
 13
0.0
 23
0.0
 14
0.5
 24
0.5
 15
0.5
 25
0.5
 16
0.0
 26
0.0
 36
1.0
 17
0.0
 27
0.0
 37
0.0
 40
18.46820989900854
 41
1.499364675984752
 42
50.0
 43
0.0
 44
0.0
 50
0.0
 51
0.0
 71
     0
 72
   100
 73
     1
 74
     1
 75
     0
 76
     0
 77
     0
 78
     0
281
     0
 65
     1
110
0.0
120
0.0
130
0.0
111
1.0
121
0.0
131
0.0
112
0.0
122
1.0
132
0.0
 79
     0
146
0.0
  0
ENDTAB
  0
TABLE
  2
LTYPE
  5
5
330
0
100
AcDbSymbolTable
 70
     1
  0
LTYPE
  5
12
330
5
100
AcDbSymbolTableRecord
100
AcDbLinetypeTableRecord
  2
BYBLOCK
 70
     0
  3

 72
    65
 73
     0
 40
0.0
  0
LTYPE
  5
13
330
5
100
AcDbSymbolTableRecord
100
AcDbLinetypeTableRecord
  2
BYLAYER
 70
     0
  3

 72
    65
 73
     0
 40
0.0
  0
LTYPE
  5
14
330
5
100
AcDbSymbolTableRecord
100
AcDbLinetypeTableRecord
  2
CONTINUOUS
 70
     0
  3
Solid line
 72
    65
 73
     0
 40
0.0
  0
ENDTAB
  0
TABLE
  2
LAYER
  5
2
102
{ACAD_XDICTIONARY
360
154
102
}
330
0
100
AcDbSymbolTable
 70
     6
  0
LAYER
  5
E
330
2
100
AcDbSymbolTableRecord
100
AcDbLayerTableRecord
  2
0
 70
     0
 62
     7
  6
CONTINUOUS
370
    -3
390
10B
  0
LAYER
  5
20
330
2
100
AcDbSymbolTableRecord
100
AcDbLayerTableRecord
  2
Title Block
 70
     0
 62
     3
  6
CONTINUOUS
370
    -3
390
10B
  0
LAYER
  5
21
330
2
100
AcDbSymbolTableRecord
100
AcDbLayerTableRecord
  2
Dimension
 70
     0
 62
     6
  6
CONTINUOUS
370
    -3
390
10B
  0
LAYER
  5
22
330
2
100
AcDbSymbolTableRecord
100
AcDbLayerTableRecord
  2
Text
 70
     0
 62
     1
  6
CONTINUOUS
370
    -3
390
10B
  0
LAYER
  5
23
330
2
100
AcDbSymbolTableRecord
100
AcDbLayerTableRecord
  2
Object
 70
     0
 62
     5
  6
CONTINUOUS
370
    -3
390
10B
  0
LAYER
  5
179
330
2
100
AcDbSymbolTableRecord
100
AcDbLayerTableRecord
  2
Defpoints
 70
     0
 62
     7
  6
CONTINUOUS
290
     0
370
    -3
390
10B
  0
ENDTAB
  0
TABLE
  2
STYLE
  5
3
330
0
100
AcDbSymbolTable
 70
     1
  0
STYLE
  5
F
330
3
100
AcDbSymbolTableRecord
100
AcDbTextStyleTableRecord
  2
STANDARD
 70
     0
 40
0.0
 41
1.0
 50
0.0
 71
     0
 42
0.125
  3
technic_.ttf
  4

1001
ACAD
1000
Technic
1071
      514
  0
ENDTAB
  0
TABLE
  2
VIEW
  5
6
330
0
100
AcDbSymbolTable
 70
     0
  0
ENDTAB
  0
TABLE
  2
UCS
  5
7
330
0
100
AcDbSymbolTable
 70
     0
  0
ENDTAB
  0
TABLE
  2
APPID
  5
9
330
0
100
AcDbSymbolTable
 70
     4
  0
APPID
  5
10
330
9
100
AcDbSymbolTableRecord
100
AcDbRegAppTableRecord
  2
ACAD
 70
     0
  0
APPID
  5
149
330
9
100
AcDbSymbolTableRecord
100
AcDbRegAppTableRecord
  2
DCO15
 70
     0
  0
APPID
  5
153
330
9
100
AcDbSymbolTableRecord
100
AcDbRegAppTableRecord
  2
AcAecLayerStandard
 70
     0
  0
APPID
  5
1A9
330
9
100
AcDbSymbolTableRecord
100
AcDbRegAppTableRecord
  2
ACAD_DSTYLE_DIMTEXT_FILL
 70
     0
  0
ENDTAB
  0
TABLE
  2
DIMSTYLE
  5
A
330
0
100
AcDbSymbolTable
 70
     1
100
AcDbDimStyleTable
 71
     1
340
1D
  0
DIMSTYLE
105
1D
102
{ACAD_REACTORS
330
947
330
955
330
963
102
}
330
A
100
AcDbSymbolTableRecord
100
AcDbDimStyleTableRecord
  2
STANDARD
 70
     0
  4
mm
 41
0.125
 44
0.125
140
0.09
170
     1
171
     1
271
     2
272
     2
274
     1
340
F
  0
ENDTAB
  0
TABLE
  2
BLOCK_RECORD
  5
1
330
0
100
AcDbSymbolTable
 70
     3
  0
BLOCK_RECORD
  5
18
330
1
100
AcDbSymbolTableRecord
100
AcDbBlockTableRecord
  2
*MODEL_SPACE
340
112
  0
BLOCK_RECORD
  5
15
330
1
100
AcDbSymbolTableRecord
100
AcDbBlockTableRecord
  2
*PAPER_SPACE
340
113
  0
BLOCK_RECORD
  5
948
330
1
100
AcDbSymbolTableRecord
100
AcDbBlockTableRecord
  2
*D0
340
0
  0
BLOCK_RECORD
  5
956
330
1
100
AcDbSymbolTableRecord
100
AcDbBlockTableRecord
  2
*D1
340
0
  0
BLOCK_RECORD
  5
964
330
1
100
AcDbSymbolTableRecord
100
AcDbBlockTableRecord
  2
*D2
340
0
  0
ENDTAB
  0
ENDSEC
  0
SECTION
  2
BLOCKS
  0
BLOCK
  5
19
330
18
100
AcDbEntity
  8
0
100
AcDbBlockBegin
  2
*MODEL_SPACE
 70
     0
 10
0.0
 20
0.0
 30
0.0
  3
*MODEL_SPACE
  1

  0
ENDBLK
  5
1A
330
18
100
AcDbEntity
  8
0
100
AcDbBlockEnd
  0
BLOCK
  5
16
330
15
100
AcDbEntity
 67
     1
  8
0
100
AcDbBlockBegin
  2
*PAPER_SPACE
 70
     0
 10
0.0
 20
0.0
 30
0.0
  3
*PAPER_SPACE
  1

  0
ENDBLK
  5
17
330
15
100
AcDbEntity
 67
     1
  8
0
100
AcDbBlockEnd
  0
BLOCK
  5
953
330
948
100
AcDbEntity
  8
0
100
AcDbBlockBegin
  2
*D0
 70
     1
 10
0.0
 20
0.0
 30
0.0
  3
*D0
  1

  0
LINE
  5
949
330
948
100
AcDbEntity
  8
Dimension
 62
     0
370
    -2
100
AcDbLine
 10
7.3455
 20
13.702
 30
0.0
 11
11.18547063268848
 21
13.702
 31
0.0
  0
LINE
  5
94A
330
948
100
AcDbEntity
  8
Dimension
 62
     0
370
    -2
100
AcDbLine
 10
10.1645
 20
12.112
 30
0.0
 11
11.18547063268848
 21
12.112
 31
0.0
  0
LINE
  5
94B
330
948
100
AcDbEntity
  8
Dimension
 62
     0
370
    -2
100
AcDbLine
 10
11.06047063268848
 20
13.577
 30
0.0
 11
11.06047063268848
 21
13.06002631578947
 31
0.0
  0
LINE
  5
94C
330
948
100
AcDbEntity
  8
Dimension
 62
     0
370
    -2
100
AcDbLine
 10
11.06047063268848
 20
12.237
 30
0.0
 11
11.06047063268848
 21
12.75397368421052
 31
0.0
  0
SOLID
  5
94D
330
948
100
AcDbEntity
  8
Dimension
 62
     0
100
AcDbTrace
 10
11.03963729935515
 20
13.577
 30
0.0
 11
11.08130396602182
 21
13.577
 31
0.0
 12
11.06047063268848
 22
13.702
 32
0.0
 13
11.06047063268848
 23
13.702
 33
0.0
  0
SOLID
  5
94E
330
948
100
AcDbEntity
  8
Dimension
 62
     0
100
AcDbTrace
 10
11.03963729935515
 20
12.237
 30
0.0
 11
11.08130396602182
 21
12.237
 31
0.0
 12
11.06047063268848
 22
12.112
 32
0.0
 13
11.06047063268848
 23
12.112
 33
0.0
  0
MTEXT
  5
94F
330
948
100
AcDbEntity
  8
Dimension
 62
     0
100
AcDbMText
 10
11.06047063268848
 20
12.907
 30
0.0
 40
0.09
 41
0.0
 71
     5
 72
     1
  1
\A1;1.59 [40.4mm]
 73
     1
 44
1.0
1001
ACAD
1000
MTEXTBEGIN
1070
    73
1070
     1
1070
    44
1040
1.0
1070
    74
1070
     0
1000
MTEXTEND
  0
POINT
  5
950
330
948
100
AcDbEntity
  8
Defpoints
 62
     0
100
AcDbPoint
 10
7.283
 20
13.702
 30
0.0
  0
POINT
  5
951
330
948
100
AcDbEntity
  8
Defpoints
 62
     0
100
AcDbPoint
 10
10.102
 20
12.112
 30
0.0
  0
POINT
  5
952
330
948
100
AcDbEntity
  8
Defpoints
 62
     0
100
AcDbPoint
 10
11.06047063268848
 20
12.112
 30
0.0
  0
ENDBLK
  5
954
330
948
100
AcDbEntity
  8
0
100
AcDbBlockEnd
  0
BLOCK
  5
961
330
956
100
AcDbEntity
  8
0
100
AcDbBlockBegin
  2
*D1
 70
     1
 10
0.0
 20
0.0
 30
0.0
  3
*D1
  1

  0
LINE
  5
957
330
956
100
AcDbEntity
  8
Dimension
 62
     0
370
    -2
100
AcDbLine
 10
3.337
 20
7.2185
 30
0.0
 11
3.337
 21
9.215977207268565
 31
0.0
  0
LINE
  5
958
330
956
100
AcDbEntity
  8
Dimension
 62
     0
370
    -2
100
AcDbLine
 10
10.105
 20
7.214999999999999
 30
0.0
 11
10.105
 21
9.215977207268565
 31
0.0
  0
LINE
  5
959
330
956
100
AcDbEntity
  8
Dimension
 62
     0
370
    -2
100
AcDbLine
 10
3.462
 20
9.090977207268565
 30
0.0
 11
6.215934210526315
 21
9.090977207268565
 31
0.0
  0
LINE
  5
95A
330
956
100
AcDbEntity
  8
Dimension
 62
     0
370
    -2
100
AcDbLine
 10
9.98
 20
9.090977207268565
 30
0.0
 11
7.226065789473684
 21
9.090977207268565
 31
0.0
  0
SOLID
  5
95B
330
956
100
AcDbEntity
  8
Dimension
 62
     0
100
AcDbTrace
 10
3.462
 20
9.111810540601899
 30
0.0
 11
3.462
 21
9.070143873935231
 31
0.0
 12
3.337
 22
9.090977207268565
 32
0.0
 13
3.337
 23
9.090977207268565
 33
0.0
  0
SOLID
  5
95C
330
956
100
AcDbEntity
  8
Dimension
 62
     0
100
AcDbTrace
 10
9.98
 20
9.111810540601899
 30
0.0
 11
9.98
 21
9.070143873935231
 31
0.0
 12
10.105
 22
9.090977207268565
 32
0.0
 13
10.105
 23
9.090977207268565
 33
0.0
  0
MTEXT
  5
95D
330
956
100
AcDbEntity
  8
Dimension
 62
     0
100
AcDbMText
 10
6.721
 20
9.090977207268565
 30
0.0
 40
0.09
 41
0.0
 71
     5
 72
     1
  1
\A1;6.77 [171.9mm]
 73
     1
 44
1.0
1001
ACAD
1000
MTEXTBEGIN
1070
    73
1070
     1
1070
    44
1040
1.0
1070
    74
1070
     0
1000
MTEXTEND
  0
POINT
  5
95E
330
956
100
AcDbEntity
  8
Defpoints
 62
     0
100
AcDbPoint
 10
3.337
 20
7.156
 30
0.0
  0
POINT
  5
95F
330
956
100
AcDbEntity
  8
Defpoints
 62
     0
100
AcDbPoint
 10
10.105
 20
7.152499999999999
 30
0.0
  0
POINT
  5
960
330
956
100
AcDbEntity
  8
Defpoints
 62
     0
100
AcDbPoint
 10
10.105
 20
9.090977207268565
 30
0.0
  0
ENDBLK
  5
962
330
956
100
AcDbEntity
  8
0
100
AcDbBlockEnd
  0
BLOCK
  5
96F
330
964
100
AcDbEntity
  8
0
100
AcDbBlockBegin
  2
*D2
 70
     1
 10
0.0
 20
0.0
 30
0.0
  3
*D2
  1

  0
LINE
  5
965
330
964
100
AcDbEntity
  8
Dimension
 62
     0
370
    -2
100
AcDbLine
 10
16.6125
 20
8.189
 30
0.0
 11
15.55539859639361
 21
8.189
 31
0.0
  0
LINE
  5
966
330
964
100
AcDbEntity
  8
Dimension
 62
     0
370
    -2
100
AcDbLine
 10
16.7225
 20
3.625999999999999
 30
0.0
 11
15.55539859639361
 21
3.625999999999999
 31
0.0
  0
LINE
  5
967
330
964
100
AcDbEntity
  8
Dimension
 62
     0
370
    -2
100
AcDbLine
 10
15.68039859639361
 20
8.064
 30
0.0
 11
15.68039859639361
 21
6.060526315789473
 31
0.0
  0
LINE
  5
968
330
964
100
AcDbEntity
  8
Dimension
 62
     0
370
    -2
100
AcDbLine
 10
15.68039859639361
 20
3.750999999999999
 30
0.0
 11
15.68039859639361
 21
5.754473684210526
 31
0.0
  0
SOLID
  5
969
330
964
100
AcDbEntity
  8
Dimension
 62
     0
100
AcDbTrace
 10
15.65956526306027
 20
8.064
 30
0.0
 11
15.70123192972694
 21
8.064
 31
0.0
 12
15.68039859639361
 22
8.189
 32
0.0
 13
15.68039859639361
 23
8.189
 33
0.0
  0
SOLID
  5
96A
330
964
100
AcDbEntity
  8
Dimension
 62
     0
100
AcDbTrace
 10
15.65956526306027
 20
3.750999999999999
 30
0.0
 11
15.70123192972694
 21
3.750999999999999
 31
0.0
 12
15.68039859639361
 22
3.625999999999999
 32
0.0
 13
15.68039859639361
 23
3.625999999999999
 33
0.0
  0
MTEXT
  5
96B
330
964
100
AcDbEntity
  8
Dimension
 62
     0
100
AcDbMText
 10
15.68039859639361
 20
5.907500000000002
 30
0.0
 40
0.09
 41
0.0
 71
     5
 72
     1
  1
\A1;4.56 [115.9mm]
 73
     1
 44
1.0
1001
ACAD
1000
MTEXTBEGIN
1070
    73
1070
     1
1070
    44
1040
1.0
1070
    74
1070
     0
1000
MTEXTEND
  0
POINT
  5
96C
330
964
100
AcDbEntity
  8
Defpoints
 62
     0
100
AcDbPoint
 10
16.675
 20
8.189
 30
0.0
  0
POINT
  5
96D
330
964
100
AcDbEntity
  8
Defpoints
 62
     0
100
AcDbPoint
 10
16.785
 20
3.625999999999999
 30
0.0
  0
POINT
  5
96E
330
964
100
AcDbEntity
  8
Defpoints
 62
     0
100
AcDbPoint
 10
15.68039859639361
 20
3.625999999999999
 30
0.0
  0
ENDBLK
  5
970
330
964
100
AcDbEntity
  8
0
100
AcDbBlockEnd
  0
ENDSEC
  0
SECTION
  2
ENTITIES
  0
TEXT
  5
51
330
18
100
AcDbEntity
  8
Title Block
100
AcDbText
 10
17.77669501265554
 20
2.672489851525508
 30
0.0
 40
0.05
  1
FILENAME:
100
AcDbText
  0
TEXT
  5
52
330
18
100
AcDbEntity
  8
Title Block
100
AcDbText
 10
17.76928502872825
 20
2.076224967549325
 30
0.0
 40
0.35
  1
PANDUIT
100
AcDbText
  0
TEXT
  5
53
330
18
100
AcDbEntity
  8
Title Block
100
AcDbText
 10
19.72182039882138
 20
2.061410940562986
 30
0.0
 40
0.125
  1
CORP. TINLEY PARK, IL
100
AcDbText
  0
TEXT
  5
54
330
18
100
AcDbEntity
  8
Title Block
100
AcDbText
 10
17.78039997670861
 20
1.91697409709392
 30
0.0
 40
0.05
  1
TITLE:
100
AcDbText
  0
MTEXT
  5
57
330
18
100
AcDbEntity
  8
Title Block
100
AcDbMText
 10
19.0
 20
1.372215793536348
 30
0.0
 40
0.075
 41
2.5
 71
     5
 72
     5
  1
UNLESS OTHERWISE SPECIFIED,\PDIMENSIONAL TOLERANCES ARE:       
 73
     1
 44
1.0
1001
ACAD
1000
MTEXTBEGIN
1070
    73
1070
     1
1070
    44
1040
1.0
1070
    74
1070
     0
1000
MTEXTEND
  0
MTEXT
  5
58
330
18
100
AcDbEntity
  8
Title Block
100
AcDbMText
 10
18.39237986661001
 20
1.131487708483632
 30
0.0
 40
0.075
 41
2.5
 71
     5
 72
     5
  1
(.X)\P(.XX)
 73
     1
 44
1.0
1001
ACAD
1000
MTEXTBEGIN
1070
    73
1070
     1
1070
    44
1040
1.0
1070
    74
1070
     0
1000
MTEXTEND
  0
MTEXT
  5
59
330
18
100
AcDbEntity
  8
Title Block
100
AcDbMText
 10
19.40014005312411
 20
1.131487708483632
 30
0.0
 40
0.075
 41
2.5
 71
     5
 72
     5
  1
(.XXX)\PANGLES:
 73
     1
 44
1.0
1001
ACAD
1000
MTEXTBEGIN
1070
    73
1070
     1
1070
    44
1040
1.0
1070
    74
1070
     0
1000
MTEXTEND
  0
MTEXT
  5
5A
330
18
100
AcDbEntity
  8
Title Block
100
AcDbMText
 10
21.0
 20
1.25
 30
0.0
 40
0.06
 41
1.5
 71
     5
 72
     5
  1
UNLESS OTHERWISE SPECIFIED,\PALL DIMENSIONS ARE GIVEN IN INCHES, THIRD ANGLE PROJECTION
 73
     1
 44
1.0
1001
ACAD
1000
MTEXTBEGIN
1070
    73
1070
     1
1070
    44
1040
1.0
1070
    74
1070
     0
1000
MTEXTEND
  0
TEXT
  5
5E
330
18
100
AcDbEntity
  8
Title Block
100
AcDbText
 10
17.76076445430618
 20
0.9281373372752312
 30
0.0
 40
0.05
  1
DRAWN BY:
100
AcDbText
  0
TEXT
  5
5F
330
18
100
AcDbEntity
  8
Title Block
100
AcDbText
 10
17.76446947418043
 20
0.6811431865635028
 30
0.0
 40
0.05
  1
DATE:
100
AcDbText
  0
TEXT
  5
60
330
18
100
AcDbEntity
  8
Title Block
100
AcDbText
 10
17.76817443823349
 20
0.4304455338317968
 30
0.0
 40
0.05
  1
CHECKED BY:
100
AcDbText
  0
TEXT
  5
62
330
18
100
AcDbEntity
  8
Title Block
100
AcDbText
 10
18.52028959313306
 20
0.9281373372752312
 30
0.0
 40
0.05
  1
MATERIAL:
100
AcDbText
  0
TEXT
  5
63
330
18
100
AcDbEntity
  8
Title Block
100
AcDbText
 10
20.26534493878154
 20
0.9281373372752312
 30
0.0
 40
0.05
  1
SCALE:
100
AcDbText
  0
TEXT
  5
64
330
18
100
AcDbEntity
  8
Title Block
100
AcDbText
 10
20.26534493878154
 20
0.6725952630490007
 30
0.0
 40
0.05
  1
DRAWING NUMBER:
100
AcDbText
  0
TEXT
  5
65
330
18
100
AcDbEntity
  8
Title Block
100
AcDbText
 10
21.34942622928997
 20
0.6762987650689816
 30
0.0
 40
0.05
  1
DRAWING
100
AcDbText
  0
TEXT
  5
66
330
18
100
AcDbEntity
  8
Title Block
100
AcDbText
 10
21.42723125590085
 20
0.2811642688682026
 30
0.0
 40
0.05
  1
SIZE
100
AcDbText
  0
TEXT
  5
67
330
18
100
AcDbEntity
  8
Title Block
100
AcDbText
 10
21.39373130657865
 20
0.3826699445861052
 30
0.0
 40
0.25
  1
C
100
AcDbText
  0
MTEXT
  5
68
330
18
100
AcDbEntity
  8
Title Block
100
AcDbMText
 10
11.37499999999999
 20
0.375
 30
0.0
 40
0.05
 41
0.25
 71
     5
 72
     5
  1
REV
 73
     1
 44
1.0
1001
ACAD
1000
MTEXTBEGIN
1070
    73
1070
     1
1070
    44
1040
1.0
1070
    74
1070
     0
1000
MTEXTEND
  0
MTEXT
  5
69
330
18
100
AcDbEntity
  8
Title Block
100
AcDbMText
 10
11.74999999999999
 20
0.375
 30
0.0
 40
0.05
 41
0.5
 71
     5
 72
     5
  1
DATE
 73
     1
 44
1.0
1001
ACAD
1000
MTEXTBEGIN
1070
    73
1070
     1
1070
    44
1040
1.0
1070
    74
1070
     0
1000
MTEXTEND
  0
MTEXT
  5
6A
330
18
100
AcDbEntity
  8
Title Block
100
AcDbMText
 10
12.18999999999999
 20
0.375
 30
0.0
 40
0.05
 41
0.38
 71
     5
 72
     5
  1
BY
 73
     1
 44
1.0
1001
ACAD
1000
MTEXTBEGIN
1070
    73
1070
     1
1070
    44
1040
1.0
1070
    74
1070
     0
1000
MTEXTEND
  0
MTEXT
  5
6B
330
18
100
AcDbEntity
  8
Title Block
100
AcDbMText
 10
12.56499999999999
 20
0.375
 30
0.0
 40
0.05
 41
0.38
 71
     5
 72
     5
  1
CHK
 73
     1
 44
1.0
1001
ACAD
1000
MTEXTBEGIN
1070
    73
1070
     1
1070
    44
1040
1.0
1070
    74
1070
     0
1000
MTEXTEND
  0
MTEXT
  5
6C
330
18
100
AcDbEntity
  8
Title Block
100
AcDbMText
 10
14.12499999999999
 20
0.375
 30
0.0
 40
0.05
 41
2.75
 71
     5
 72
     5
  1
DESCRIPTION
 73
     1
 44
1.0
1001
ACAD
1000
MTEXTBEGIN
1070
    73
1070
     1
1070
    44
1040
1.0
1070
    74
1070
     0
1000
MTEXTEND
  0
MTEXT
  5
6D
330
18
100
AcDbEntity
  8
Title Block
100
AcDbMText
 10
16.065
 20
0.375
 30
0.0
 40
0.05
 41
1.129999999999999
 71
     5
 72
     5
  1
ECN   -   R
 73
     1
 44
1.0
1001
ACAD
1000
MTEXTBEGIN
1070
    73
1070
     1
1070
    44
1040
1.0
1070
    74
1070
     0
1000
MTEXTEND
  0
MTEXT
  5
6E
330
18
100
AcDbEntity
  8
Title Block
100
AcDbMText
 10
16.81499999999999
 20
0.375
 30
0.0
 40
0.05
 41
0.38
 71
     5
 72
     5
  1
CUST
 73
     1
 44
1.0
1001
ACAD
1000
MTEXTBEGIN
1070
    73
1070
     1
1070
    44
1040
1.0
1070
    74
1070
     0
1000
MTEXTEND
  0
MTEXT
  5
6F
330
18
100
AcDbEntity
  8
Title Block
100
AcDbMText
 10
17.19
 20
0.375
 30
0.0
 40
0.05
 41
0.38
 71
     5
 72
     5
  1
SUP
 73
     1
 44
1.0
1001
ACAD
1000
MTEXTBEGIN
1070
    73
1070
     1
1070
    44
1040
1.0
1070
    74
1070
     0
1000
MTEXTEND
  0
LINE
  5
A5
330
18
100
AcDbEntity
  8
Title Block
100
AcDbLine
 10
21.75
 20
2.749999999999999
 30
0.0
 11
11.25
 21
2.75
 31
0.0
  0
LINE
  5
A6
330
18
100
AcDbEntity
  8
Title Block
100
AcDbLine
 10
17.74999999999999
 20
2.75
 30
0.0
 11
17.74999999999999
 21
0.25
 31
0.0
  0
LINE
  5
A7
330
18
100
AcDbEntity
  8
Title Block
100
AcDbLine
 10
21.75
 20
2.499999999999999
 30
0.0
 11
11.25
 21
2.5
 31
0.0
  0
LINE
  5
A8
330
18
100
AcDbEntity
  8
Title Block
100
AcDbLine
 10
17.74999999999999
 20
2.25
 30
0.0
 11
11.25
 21
2.25
 31
0.0
  0
LINE
  5
A9
330
18
100
AcDbEntity
  8
Title Block
100
AcDbLine
 10
21.75
 20
1.999999999999999
 30
0.0
 11
11.25
 21
2.0
 31
0.0
  0
LINE
  5
AA
330
18
100
AcDbEntity
  8
Title Block
100
AcDbLine
 10
17.74999999999999
 20
1.75
 30
0.0
 11
11.25
 21
1.75
 31
0.0
  0
LINE
  5
AB
330
18
100
AcDbEntity
  8
Title Block
100
AcDbLine
 10
21.75
 20
1.499999999999999
 30
0.0
 11
11.25
 21
1.5
 31
0.0
  0
LINE
  5
AC
330
18
100
AcDbEntity
  8
Title Block
100
AcDbLine
 10
17.74999999999999
 20
1.25
 30
0.0
 11
11.25
 21
1.25
 31
0.0
  0
LINE
  5
AD
330
18
100
AcDbEntity
  8
Title Block
100
AcDbLine
 10
21.75
 20
0.9999999999999996
 30
0.0
 11
11.25
 21
1.0
 31
0.0
  0
LINE
  5
AE
330
18
100
AcDbEntity
  8
Title Block
100
AcDbLine
 10
18.49999999999999
 20
0.75
 30
0.0
 11
11.25
 21
0.7500000000000009
 31
0.0
  0
LINE
  5
AF
330
18
100
AcDbEntity
  8
Title Block
100
AcDbLine
 10
18.49999999999999
 20
0.5
 30
0.0
 11
11.25
 21
0.5000000000000009
 31
0.0
  0
LINE
  5
B6
330
18
100
AcDbEntity
  8
Title Block
100
AcDbLine
 10
11.25
 20
0.25
 30
0.0
 11
11.25
 21
2.75
 31
0.0
  0
LINE
  5
BC
330
18
100
AcDbEntity
  8
Title Block
100
AcDbLine
 10
11.49999999999999
 20
0.25
 30
0.0
 11
11.49999999999999
 21
2.750000000000001
 31
0.0
  0
LINE
  5
BD
330
18
100
AcDbEntity
  8
Title Block
100
AcDbLine
 10
11.99999999999999
 20
0.25
 30
0.0
 11
11.99999999999999
 21
2.750000000000001
 31
0.0
  0
LINE
  5
C0
330
18
100
AcDbEntity
  8
Title Block
100
AcDbLine
 10
12.375
 20
0.25
 30
0.0
 11
12.375
 21
2.750000000000001
 31
0.0
  0
LINE
  5
C1
330
18
100
AcDbEntity
  8
Title Block
100
AcDbLine
 10
12.74999999999999
 20
0.25
 30
0.0
 11
12.74999999999999
 21
2.750000000000001
 31
0.0
  0
LINE
  5
C2
330
18
100
AcDbEntity
  8
Title Block
100
AcDbLine
 10
17.375
 20
2.75
 30
0.0
 11
17.375
 21
0.25
 31
0.0
  0
LINE
  5
C3
330
18
100
AcDbEntity
  8
Title Block
100
AcDbLine
 10
17.0
 20
2.75
 30
0.0
 11
17.0
 21
0.25
 31
0.0
  0
LINE
  5
C4
330
18
100
AcDbEntity
  8
Title Block
100
AcDbLine
 10
16.62499999999999
 20
2.75
 30
0.0
 11
16.62499999999999
 21
0.25
 31
0.0
  0
LINE
  5
C5
330
18
100
AcDbEntity
  8
Title Block
100
AcDbLine
 10
16.25
 20
2.75
 30
0.0
 11
16.25
 21
0.5000000000000002
 31
0.0
  0
LINE
  5
C6
330
18
100
AcDbEntity
  8
Title Block
100
AcDbLine
 10
15.5
 20
2.75
 30
0.0
 11
15.5
 21
0.25
 31
0.0
  0
LINE
  5
C7
330
18
100
AcDbEntity
  8
Title Block
100
AcDbLine
 10
20.25
 20
0.75
 30
0.0
 11
20.25
 21
1.499999999999999
 31
0.0
  0
LINE
  5
C8
330
18
100
AcDbEntity
  8
Title Block
100
AcDbLine
 10
20.25
 20
0.75
 30
0.0
 11
20.25
 21
0.25
 31
0.0
  0
LINE
  5
C9
330
18
100
AcDbEntity
  8
Title Block
100
AcDbLine
 10
20.25
 20
0.75
 30
0.0
 11
21.75
 21
0.75
 31
0.0
  0
LINE
  5
CA
330
18
100
AcDbEntity
  8
Title Block
100
AcDbLine
 10
18.49999999999999
 20
0.5
 30
0.0
 11
18.49999999999999
 21
0.25
 31
0.0
  0
LINE
  5
CB
330
18
100
AcDbEntity
  8
Title Block
100
AcDbLine
 10
18.49999999999999
 20
0.5
 30
0.0
 11
18.49999999999999
 21
1.0
 31
0.0
  0
LINE
  5
CD
330
18
100
AcDbEntity
  8
Title Block
100
AcDbLine
 10
21.25
 20
0.75
 30
0.0
 11
21.25
 21
0.25
 31
0.0
  0
LWPOLYLINE
  5
F8
330
18
100
AcDbEntity
  8
Title Block
100
AcDbPolyline
 90
        4
 70
     1
 43
0.01
 10
21.75
 20
16.75
 10
21.75
 20
0.25
 10
0.25
 20
0.25
 10
0.250000000000001
 20
16.75
  0
POINT
  5
FC
330
18
100
AcDbEntity
  8
Title Block
100
AcDbPoint
 10
22.0
 20
0.0
 30
0.0
  0
POINT
  5
FF
330
18
100
AcDbEntity
  8
Title Block
100
AcDbPoint
 10
22.0
 20
17.0
 30
0.0
  0
POINT
  5
102
330
18
100
AcDbEntity
  8
Title Block
100
AcDbPoint
 10
0.000000000000001
 20
17.0
 30
0.0
  0
POINT
  5
105
330
18
100
AcDbEntity
  8
Title Block
100
AcDbPoint
 10
0.0
 20
0.0
 30
0.0
  0
MTEXT
  5
12C
330
18
100
AcDbEntity
  8
Text
100
AcDbMText
 10
11.37324893148254
 20
0.6275685908585027
 30
0.0
 40
0.09
 41
0.25
 71
     5
 72
     5
  1
R
 73
     1
 44
1.0
1001
ACAD
1000
MTEXTBEGIN
1070
    73
1070
     1
1070
    44
1040
1.0
1070
    74
1070
     0
1000
MTEXTEND
  0
MTEXT
  5
12D
330
18
100
AcDbEntity
  8
Text
100
AcDbMText
 10
11.74824893148254
 20
0.6275685908585027
 30
0.0
 40
0.07
 41
0.5
 71
     5
 72
     5
  1
6-22-07
 73
     1
 44
1.0
1001
ACAD
1000
MTEXTBEGIN
1070
    73
1070
     1
1070
    44
1040
1.0
1070
    74
1070
     0
1000
MTEXTEND
  0
MTEXT
  5
12E
330
18
100
AcDbEntity
  8
Text
100
AcDbMText
 10
12.18574893148254
 20
0.6275685908585027
 30
0.0
 40
0.09
 41
0.375
 71
     5
 72
     5
  1
DTP
 73
     1
 44
1.0
1001
ACAD
1000
MTEXTBEGIN
1070
    73
1070
     1
1070
    44
1040
1.0
1070
    74
1070
     0
1000
MTEXTEND
  0
MTEXT
  5
130
330
18
100
AcDbEntity
  8
Text
100
AcDbMText
 10
14.12324893148254
 20
0.6275685908585023
 30
0.0
 40
0.09
 41
2.75
 71
     5
 72
     5
  1
DRAWING RELEASED
 73
     1
 44
1.0
1001
ACAD
1000
MTEXTBEGIN
1070
    73
1070
     1
1070
    44
1040
1.0
1070
    74
1070
     0
1000
MTEXTEND
  0
MTEXT
  5
133
330
18
100
AcDbEntity
  8
Text
100
AcDbMText
 10
18.47324893148254
 20
0.8525685908585018
 30
0.0
 40
0.09
 41
0.75
 71
     6
 72
     5
  1
DTP
 73
     1
 44
1.0
1001
ACAD
1000
MTEXTBEGIN
1070
    73
1070
     1
1070
    44
1040
1.0
1070
    74
1070
     0
1000
MTEXTEND
  0
MTEXT
  5
134
330
18
100
AcDbEntity
  8
Text
100
AcDbMText
 10
18.47324893148254
 20
0.6025685908585017
 30
0.0
 40
0.09
 41
0.75
 71
     6
 72
     5
  1
6-22-07
 73
     1
 44
1.0
1001
ACAD
1000
MTEXTBEGIN
1070
    73
1070
     1
1070
    44
1040
1.0
1070
    74
1070
     0
1000
MTEXTEND
  0
MTEXT
  5
135
330
18
100
AcDbEntity
  8
Text
100
AcDbMText
 10
18.47324893148254
 20
0.3525685908585019
 30
0.0
 40
0.09
 41
0.75
 71
     6
 72
     5
  1
DJWA
 73
     1
 44
1.0
1001
ACAD
1000
MTEXTBEGIN
1070
    73
1070
     1
1070
    44
1040
1.0
1070
    74
1070
     0
1000
MTEXTEND
  0
MTEXT
  5
136
330
18
100
AcDbEntity
  8
Text
100
AcDbMText
 10
19.74824893148254
 20
2.627568590858501
 30
0.0
 40
0.09
 41
4.0
 71
     5
 72
     5
  1
FITF6X4.dwg
 73
     1
 44
1.0
1001
ACAD
1000
MTEXTBEGIN
1070
    73
1070
     1
1070
    44
1040
1.0
1070
    74
1070
     0
1000
MTEXTEND
  0
MTEXT
  5
137
330
18
100
AcDbEntity
  8
Text
100
AcDbMText
 10
19.74824893148254
 20
1.752568590858501
 30
0.0
 40
0.09
 41
4.0
 71
     5
 72
     5
  1
FIBERRUNNER 6x4 INNERDUCT TRANSITION\PFITTING (FITF6X4)\PMARKETING DRAWING
 73
     1
 44
1.0
1001
ACAD
1000
MTEXTBEGIN
1070
    73
1070
     1
1070
    44
1040
1.0
1070
    74
1070
     0
1000
MTEXTEND
  0
MTEXT
  5
138
330
18
100
AcDbEntity
  8
Text
100
AcDbMText
 10
20.99824893148254
 20
0.8775685908585016
 30
0.0
 40
0.12
 41
1.5
 71
     5
 72
     5
  1
FULL
 73
     1
 44
1.0
1001
ACAD
1000
MTEXTBEGIN
1070
    73
1070
     1
1070
    44
1040
1.0
1070
    74
1070
     0
1000
MTEXTEND
  0
MTEXT
  5
139
330
18
100
AcDbEntity
  8
Text
100
AcDbMText
 10
20.74824893148254
 20
0.5025685908585018
 30
0.0
 40
0.12
 41
1.0
 71
     5
 72
     5
  1
36897-1192
 73
     1
 44
1.0
1001
ACAD
1000
MTEXTBEGIN
1070
    73
1070
     1
1070
    44
1040
1.0
1070
    74
1070
     0
1000
MTEXTEND
  0
MTEXT
  5
2AA
330
18
100
AcDbEntity
  8
Text
100
AcDbMText
 10
17.24260057688626
 20
16.19438693294295
 30
0.0
 40
0.09
 41
3.688768513624079
 71
     1
 72
     5
  3
{\LNOTES:}\P\P1. THE FIBERRUNNER 6x4 INNERDUCT TRANSITION FITTING \P   INCLUDES:\P   ONE (1) INNERDUCT TRANSITION FITTING,\P   THREE (3) #10-32x{\H0.7x;\S1#2;} PAN HEAD PHILLIPS MACHINE      \P                 SCREWS,\P   THREE (3) #10 HELICAL SPRING
  1
S LOCKWASHERS,\P   THREE (3) #10-32 HEX MACHINE SCREW NUTS,\P   TWO (2) BT41 - DOME-TOP BARB-TY CABLE TIES.
 73
     1
 44
1.0
1001
ACAD
1000
MTEXTBEGIN
1070
    73
1070
     1
1070
    44
1040
1.0
1070
    74
1070
     1
1000
MTEXTEND
  0
TEXT
  5
2AB
330
18
100
AcDbEntity
  8
Text
100
AcDbText
 10
6.341328679137546
 20
11.63985280291012
 30
0.0
 40
0.125
  1
TOP VIEW
100
AcDbText
  0
TEXT
  5
2AC
330
18
100
AcDbEntity
  8
Text
100
AcDbText
 10
6.238988938303094
 20
3.181739210720344
 30
0.0
 40
0.125
  1
FRONT VIEW
100
AcDbText
  0
TEXT
  5
2AD
330
18
100
AcDbEntity
  8
Text
100
AcDbText
 10
16.70447457829118
 20
3.269453342270388
 30
0.0
 40
0.125
  1
RIGHT SIDE VIEW
100
AcDbText
  0
MTEXT
  5
2BE
330
18
100
AcDbEntity
  8
Text
100
AcDbMText
 10
12.5604002814227
 20
0.626249074032665
 30
0.0
 40
0.07
 41
0.375
 71
     5
 72
     5
  1
DJWA
 73
     1
 44
1.0
1001
ACAD
1000
MTEXTBEGIN
1070
    73
1070
     1
1070
    44
1040
1.0
1070
    74
1070
     0
1000
MTEXTEND
  0
LINE
  5
2CD
330
18
100
AcDbEntity
  8
Object
100
AcDbLine
 10
16.675
 20
4.169999999999999
 30
0.0
 11
16.675
 21
4.088
 31
0.0
  0
LINE
  5
2CE
330
18
100
AcDbEntity
  8
Object
100
AcDbLine
 10
16.675
 20
7.189
 30
0.0
 11
16.675
 21
7.171
 31
0.0
  0
LINE
  5
2CF
330
18
100
AcDbEntity
  8
Object
100
AcDbLine
 10
16.675
 20
4.342
 30
0.0
 11
16.675
 21
4.32
 31
0.0
  0
LINE
  5
2D0
330
18
100
AcDbEntity
  8
Object
100
AcDbLine
 10
16.675
 20
8.163
 30
0.0
 11
16.675
 21
8.182999999999999
 31
0.0
  0
LINE
  5
2D1
330
18
100
AcDbEntity
  8
Object
100
AcDbLine
 10
16.675
 20
8.182999999999999
 30
0.0
 11
16.675
 21
8.189
 31
0.0
  0
LINE
  5
2D2
330
18
100
AcDbEntity
  8
Object
100
AcDbLine
 10
16.675
 20
8.163
 30
0.0
 11
16.675
 21
8.13
 31
0.0
  0
LINE
  5
2D3
330
18
100
AcDbEntity
  8
Object
100
AcDbLine
 10
16.675
 20
8.13
 30
0.0
 11
16.675
 21
8.085
 31
0.0
  0
LINE
  5
2D4
330
18
100
AcDbEntity
  8
Object
100
AcDbLine
 10
16.675
 20
8.085
 30
0.0
 11
16.675
 21
8.029999999999999
 31
0.0
  0
LINE
  5
2D5
330
18
100
AcDbEntity
  8
Object
100
AcDbLine
 10
16.675
 20
8.029999999999999
 30
0.0
 11
16.675
 21
7.966
 31
0.0
  0
LINE
  5
2D6
330
18
100
AcDbEntity
  8
Object
100
AcDbLine
 10
16.675
 20
7.966
 30
0.0
 11
16.675
 21
7.894
 31
0.0
  0
LINE
  5
2D7
330
18
100
AcDbEntity
  8
Object
100
AcDbLine
 10
16.675
 20
7.894
 30
0.0
 11
16.675
 21
7.817
 31
0.0
  0
LINE
  5
2D8
330
18
100
AcDbEntity
  8
Object
100
AcDbLine
 10
16.675
 20
7.817
 30
0.0
 11
16.675
 21
7.735999999999999
 31
0.0
  0
LINE
  5
2D9
330
18
100
AcDbEntity
  8
Object
100
AcDbLine
 10
16.675
 20
7.735999999999999
 30
0.0
 11
16.675
 21
7.653999999999999
 31
0.0
  0
LINE
  5
2DA
330
18
100
AcDbEntity
  8
Object
100
AcDbLine
 10
16.675
 20
7.653999999999999
 30
0.0
 11
16.675
 21
7.248
 31
0.0
  0
LINE
  5
2DB
330
18
100
AcDbEntity
  8
Object
100
AcDbLine
 10
16.675
 20
7.248
 30
0.0
 11
16.675
 21
7.233
 31
0.0
  0
LINE
  5
2DC
330
18
100
AcDbEntity
  8
Object
100
AcDbLine
 10
16.675
 20
7.233
 30
0.0
 11
16.675
 21
7.211
 31
0.0
  0
LINE
  5
2DD
330
18
100
AcDbEntity
  8
Object
100
AcDbLine
 10
16.675
 20
7.211
 30
0.0
 11
16.675
 21
7.189
 31
0.0
  0
LINE
  5
2DE
330
18
100
AcDbEntity
  8
Object
100
AcDbLine
 10
16.675
 20
7.171
 30
0.0
 11
16.675
 21
7.163
 31
0.0
  0
LINE
  5
2DF
330
18
100
AcDbEntity
  8
Object
100
AcDbLine
 10
16.675
 20
7.163
 30
0.0
 11
16.675
 21
7.164
 31
0.0
  0
LINE
  5
2E0
330
18
100
AcDbEntity
  8
Object
100
AcDbLine
 10
16.675
 20
7.163
 30
0.0
 11
16.675
 21
4.360999999999999
 31
0.0
  0
LINE
  5
2E1
330
18
100
AcDbEntity
  8
Object
100
AcDbLine
 10
16.675
 20
4.360999999999999
 30
0.0
 11
16.675
 21
4.362
 31
0.0
  0
LINE
  5
2E2
330
18
100
AcDbEntity
  8
Object
100
AcDbLine
 10
16.675
 20
4.360999999999999
 30
0.0
 11
16.675
 21
4.357
 31
0.0
  0
LINE
  5
2E3
330
18
100
AcDbEntity
  8
Object
100
AcDbLine
 10
16.675
 20
4.357
 30
0.0
 11
16.675
 21
4.342
 31
0.0
  0
LINE
  5
2E4
330
18
100
AcDbEntity
  8
Object
100
AcDbLine
 10
16.675
 20
4.32
 30
0.0
 11
16.675
 21
4.296999999999999
 31
0.0
  0
LINE
  5
2E5
330
18
100
AcDbEntity
  8
Object
100
AcDbLine
 10
16.675
 20
4.278999999999999
 30
0.0
 11
16.675
 21
4.272
 31
0.0
  0
LINE
  5
2E6
330
18
100
AcDbEntity
  8
Object
100
AcDbLine
 10
16.675
 20
4.272
 30
0.0
 11
16.675
 21
4.267
 31
0.0
  0
LINE
  5
2E7
330
18
100
AcDbEntity
  8
Object
100
AcDbLine
 10
16.675
 20
4.267
 30
0.0
 11
16.675
 21
4.169999999999999
 31
0.0
  0
LINE
  5
2E8
330
18
100
AcDbEntity
  8
Object
100
AcDbLine
 10
16.675
 20
4.088
 30
0.0
 11
16.675
 21
4.009
 31
0.0
  0
LINE
  5
2E9
330
18
100
AcDbEntity
  8
Object
100
AcDbLine
 10
16.675
 20
4.009
 30
0.0
 11
16.675
 21
3.935
 31
0.0
  0
LINE
  5
2EA
330
18
100
AcDbEntity
  8
Object
100
AcDbLine
 10
16.675
 20
4.296999999999999
 30
0.0
 11
16.675
 21
4.278999999999999
 31
0.0
  0
LINE
  5
2EB
330
18
100
AcDbEntity
  8
Object
100
AcDbLine
 10
16.675
 20
3.935
 30
0.0
 11
16.675
 21
3.869
 31
0.0
  0
LINE
  5
2EC
330
18
100
AcDbEntity
  8
Object
100
AcDbLine
 10
16.675
 20
3.869
 30
0.0
 11
16.675
 21
3.812
 31
0.0
  0
LINE
  5
2ED
330
18
100
AcDbEntity
  8
Object
100
AcDbLine
 10
16.675
 20
3.812
 30
0.0
 11
16.675
 21
3.766
 31
0.0
  0
LINE
  5
2EE
330
18
100
AcDbEntity
  8
Object
100
AcDbLine
 10
16.675
 20
3.766
 30
0.0
 11
16.675
 21
3.732
 31
0.0
  0
LINE
  5
2EF
330
18
100
AcDbEntity
  8
Object
100
AcDbLine
 10
16.675
 20
3.732
 30
0.0
 11
16.675
 21
3.712
 31
0.0
  0
LINE
  5
2F0
330
18
100
AcDbEntity
  8
Object
100
AcDbLine
 10
16.675
 20
3.712
 30
0.0
 11
16.675
 21
3.705
 31
0.0
  0
LINE
  5
2F1
330
18
100
AcDbEntity
  8
Object
100
AcDbLine
 10
16.765
 20
7.189
 30
0.0
 11
16.765
 21
7.211
 31
0.0
  0
LINE
  5
2F2
330
18
100
AcDbEntity
  8
Object
100
AcDbLine
 10
16.765
 20
3.705
 30
0.0
 11
16.765
 21
3.712
 31
0.0
  0
LINE
  5
2F3
330
18
100
AcDbEntity
  8
Object
100
AcDbLine
 10
16.765
 20
3.712
 30
0.0
 11
16.765
 21
3.732
 31
0.0
  0
LINE
  5
2F4
330
18
100
AcDbEntity
  8
Object
100
AcDbLine
 10
16.765
 20
3.732
 30
0.0
 11
16.765
 21
3.766
 31
0.0
  0
LINE
  5
2F5
330
18
100
AcDbEntity
  8
Object
100
AcDbLine
 10
16.765
 20
3.766
 30
0.0
 11
16.765
 21
3.812
 31
0.0
  0
LINE
  5
2F6
330
18
100
AcDbEntity
  8
Object
100
AcDbLine
 10
16.765
 20
3.812
 30
0.0
 11
16.765
 21
3.869
 31
0.0
  0
LINE
  5
2F7
330
18
100
AcDbEntity
  8
Object
100
AcDbLine
 10
16.765
 20
3.869
 30
0.0
 11
16.765
 21
3.935
 31
0.0
  0
LINE
  5
2F8
330
18
100
AcDbEntity
  8
Object
100
AcDbLine
 10
16.765
 20
3.935
 30
0.0
 11
16.765
 21
4.009
 31
0.0
  0
LINE
  5
2F9
330
18
100
AcDbEntity
  8
Object
100
AcDbLine
 10
16.765
 20
4.009
 30
0.0
 11
16.765
 21
4.088
 31
0.0
  0
LINE
  5
2FA
330
18
100
AcDbEntity
  8
Object
100
AcDbLine
 10
16.765
 20
4.088
 30
0.0
 11
16.765
 21
4.169999999999999
 31
0.0
  0
LINE
  5
2FB
330
18
100
AcDbEntity
  8
Object
100
AcDbLine
 10
16.765
 20
4.272
 30
0.0
 11
16.765
 21
4.267
 31
0.0
  0
LINE
  5
2FC
330
18
100
AcDbEntity
  8
Object
100
AcDbLine
 10
16.765
 20
4.267
 30
0.0
 11
16.765
 21
4.169999999999999
 31
0.0
  0
LINE
  5
2FD
330
18
100
AcDbEntity
  8
Object
100
AcDbLine
 10
16.765
 20
4.272
 30
0.0
 11
16.765
 21
4.278999999999999
 31
0.0
  0
LINE
  5
2FE
330
18
100
AcDbEntity
  8
Object
100
AcDbLine
 10
16.765
 20
4.278999999999999
 30
0.0
 11
16.765
 21
4.296999999999999
 31
0.0
  0
LINE
  5
2FF
330
18
100
AcDbEntity
  8
Object
100
AcDbLine
 10
16.765
 20
4.32
 30
0.0
 11
16.765
 21
4.342
 31
0.0
  0
LINE
  5
300
330
18
100
AcDbEntity
  8
Object
100
AcDbLine
 10
16.765
 20
7.164
 30
0.0
 11
16.765
 21
7.163
 31
0.0
  0
LINE
  5
301
330
18
100
AcDbEntity
  8
Object
100
AcDbLine
 10
16.765
 20
7.163
 30
0.0
 11
16.765
 21
7.171
 31
0.0
  0
LINE
  5
302
330
18
100
AcDbEntity
  8
Object
100
AcDbLine
 10
16.765
 20
7.171
 30
0.0
 11
16.765
 21
7.189
 31
0.0
  0
LINE
  5
303
330
18
100
AcDbEntity
  8
Object
100
AcDbLine
 10
16.765
 20
7.211
 30
0.0
 11
16.765
 21
7.233
 31
0.0
  0
LINE
  5
304
330
18
100
AcDbEntity
  8
Object
100
AcDbLine
 10
16.765
 20
7.233
 30
0.0
 11
16.765
 21
7.248
 31
0.0
  0
LINE
  5
305
330
18
100
AcDbEntity
  8
Object
100
AcDbLine
 10
16.765
 20
7.248
 30
0.0
 11
16.765
 21
7.653999999999999
 31
0.0
  0
LINE
  5
306
330
18
100
AcDbEntity
  8
Object
100
AcDbLine
 10
16.765
 20
7.653999999999999
 30
0.0
 11
16.765
 21
7.735999999999999
 31
0.0
  0
LINE
  5
307
330
18
100
AcDbEntity
  8
Object
100
AcDbLine
 10
16.765
 20
7.735999999999999
 30
0.0
 11
16.765
 21
7.817
 31
0.0
  0
LINE
  5
308
330
18
100
AcDbEntity
  8
Object
100
AcDbLine
 10
16.765
 20
7.817
 30
0.0
 11
16.765
 21
7.894
 31
0.0
  0
LINE
  5
309
330
18
100
AcDbEntity
  8
Object
100
AcDbLine
 10
16.765
 20
7.894
 30
0.0
 11
16.765
 21
7.966
 31
0.0
  0
LINE
  5
30A
330
18
100
AcDbEntity
  8
Object
100
AcDbLine
 10
16.765
 20
7.966
 30
0.0
 11
16.765
 21
8.029999999999999
 31
0.0
  0
LINE
  5
30B
330
18
100
AcDbEntity
  8
Object
100
AcDbLine
 10
16.765
 20
8.029999999999999
 30
0.0
 11
16.765
 21
8.085
 31
0.0
  0
LINE
  5
30C
330
18
100
AcDbEntity
  8
Object
100
AcDbLine
 10
16.765
 20
8.085
 30
0.0
 11
16.765
 21
8.13
 31
0.0
  0
LINE
  5
30D
330
18
100
AcDbEntity
  8
Object
100
AcDbLine
 10
16.765
 20
8.13
 30
0.0
 11
16.765
 21
8.163
 31
0.0
  0
LINE
  5
30E
330
18
100
AcDbEntity
  8
Object
100
AcDbLine
 10
16.765
 20
8.163
 30
0.0
 11
16.765
 21
8.182999999999999
 31
0.0
  0
LINE
  5
30F
330
18
100
AcDbEntity
  8
Object
100
AcDbLine
 10
16.765
 20
8.182999999999999
 30
0.0
 11
16.765
 21
8.189
 31
0.0
  0
LINE
  5
310
330
18
100
AcDbEntity
  8
Object
100
AcDbLine
 10
16.765
 20
4.342
 30
0.0
 11
16.765
 21
4.354
 31
0.0
  0
LINE
  5
311
330
18
100
AcDbEntity
  8
Object
100
AcDbLine
 10
16.765
 20
4.296999999999999
 30
0.0
 11
16.765
 21
4.32
 31
0.0
  0
LINE
  5
312
330
18
100
AcDbEntity
  8
Object
100
AcDbLine
 10
16.785
 20
3.625999999999999
 30
0.0
 11
17.43
 21
3.625999999999999
 31
0.0
  0
LINE
  5
313
330
18
100
AcDbEntity
  8
Object
100
AcDbLine
 10
16.785
 20
3.716
 30
0.0
 11
17.43
 21
3.716
 31
0.0
  0
LINE
  5
314
330
18
100
AcDbEntity
  8
Object
100
AcDbLine
 10
17.43
 20
3.716
 30
0.0
 11
17.43
 21
3.625999999999999
 31
0.0
  0
LINE
  5
315
330
18
100
AcDbEntity
  8
Object
100
AcDbLine
 10
16.785
 20
3.716
 30
0.0
 11
16.775
 21
3.717999999999999
 31
0.0
  0
LINE
  5
316
330
18
100
AcDbEntity
  8
Object
100
AcDbLine
 10
16.785
 20
3.625999999999999
 30
0.0
 11
16.751
 21
3.631
 31
0.0
  0
LINE
  5
317
330
18
100
AcDbEntity
  8
Object
100
AcDbLine
 10
16.751
 20
3.631
 30
0.0
 11
16.721
 21
3.647
 31
0.0
  0
LINE
  5
318
330
18
100
AcDbEntity
  8
Object
100
AcDbLine
 10
16.775
 20
3.717999999999999
 30
0.0
 11
16.768
 21
3.725999999999999
 31
0.0
  0
LINE
  5
319
330
18
100
AcDbEntity
  8
Object
100
AcDbLine
 10
16.721
 20
3.647
 30
0.0
 11
16.696
 21
3.671
 31
0.0
  0
LINE
  5
31A
330
18
100
AcDbEntity
  8
Object
100
AcDbLine
 10
16.696
 20
3.671
 30
0.0
 11
16.681
 21
3.701999999999999
 31
0.0
  0
LINE
  5
31B
330
18
100
AcDbEntity
  8
Object
100
AcDbLine
 10
16.768
 20
3.725999999999999
 30
0.0
 11
16.765
 21
3.736
 31
0.0
  0
LINE
  5
31C
330
18
100
AcDbEntity
  8
Object
100
AcDbLine
 10
16.68
 20
3.705
 30
0.0
 11
16.681
 21
3.701999999999999
 31
0.0
  0
LINE
  5
31D
330
18
100
AcDbEntity
  8
Object
100
AcDbLine
 10
16.765
 20
3.894999999999999
 30
0.0
 11
16.785
 21
3.891999999999999
 31
0.0
  0
LINE
  5
31E
330
18
100
AcDbEntity
  8
Object
100
AcDbLine
 10
16.675
 20
4.169999999999999
 30
0.0
 11
16.675
 21
4.267
 31
0.0
  0
LINE
  5
31F
330
18
100
AcDbEntity
  8
Object
100
AcDbLine
 10
16.675
 20
4.267
 30
0.0
 11
16.765
 21
4.267
 31
0.0
  0
LINE
  5
320
330
18
100
AcDbEntity
  8
Object
100
AcDbLine
 10
16.765
 20
4.267
 30
0.0
 11
16.765
 21
4.169999999999999
 31
0.0
  0
LINE
  5
321
330
18
100
AcDbEntity
  8
Object
100
AcDbLine
 10
16.765
 20
4.169999999999999
 30
0.0
 11
16.675
 21
4.169999999999999
 31
0.0
  0
LINE
  5
322
330
18
100
AcDbEntity
  8
Object
100
AcDbLine
 10
16.675
 20
3.705
 30
0.0
 11
16.765
 21
3.705
 31
0.0
  0
LINE
  5
323
330
18
100
AcDbEntity
  8
Object
100
AcDbLine
 10
16.675
 20
8.13
 30
0.0
 11
16.675
 21
8.163
 31
0.0
  0
LINE
  5
324
330
18
100
AcDbEntity
  8
Object
100
AcDbLine
 10
16.675
 20
8.163
 30
0.0
 11
16.675
 21
8.182999999999999
 31
0.0
  0
LINE
  5
325
330
18
100
AcDbEntity
  8
Object
100
AcDbLine
 10
16.675
 20
8.182999999999999
 30
0.0
 11
16.675
 21
8.189
 31
0.0
  0
LINE
  5
326
330
18
100
AcDbEntity
  8
Object
100
AcDbLine
 10
16.675
 20
8.189
 30
0.0
 11
16.765
 21
8.189
 31
0.0
  0
LINE
  5
327
330
18
100
AcDbEntity
  8
Object
100
AcDbLine
 10
16.765
 20
8.189
 30
0.0
 11
16.765
 21
8.182999999999999
 31
0.0
  0
LINE
  5
328
330
18
100
AcDbEntity
  8
Object
100
AcDbLine
 10
16.765
 20
8.182999999999999
 30
0.0
 11
16.765
 21
8.163
 31
0.0
  0
LINE
  5
329
330
18
100
AcDbEntity
  8
Object
100
AcDbLine
 10
16.765
 20
8.163
 30
0.0
 11
16.765
 21
8.13
 31
0.0
  0
LINE
  5
32A
330
18
100
AcDbEntity
  8
Object
100
AcDbLine
 10
16.765
 20
7.817
 30
0.0
 11
16.765
 21
7.894
 31
0.0
  0
LINE
  5
32B
330
18
100
AcDbEntity
  8
Object
100
AcDbLine
 10
16.675
 20
7.894
 30
0.0
 11
16.675
 21
7.817
 31
0.0
  0
LINE
  5
32C
330
18
100
AcDbEntity
  8
Object
100
AcDbLine
 10
16.765
 20
7.966
 30
0.0
 11
16.765
 21
8.029999999999999
 31
0.0
  0
LINE
  5
32D
330
18
100
AcDbEntity
  8
Object
100
AcDbLine
 10
16.675
 20
8.029999999999999
 30
0.0
 11
16.675
 21
7.966
 31
0.0
  0
LINE
  5
32E
330
18
100
AcDbEntity
  8
Object
100
AcDbLine
 10
16.765
 20
8.085
 30
0.0
 11
16.765
 21
8.13
 31
0.0
  0
LINE
  5
32F
330
18
100
AcDbEntity
  8
Object
100
AcDbLine
 10
16.675
 20
8.13
 30
0.0
 11
16.675
 21
8.085
 31
0.0
  0
LINE
  5
330
330
18
100
AcDbEntity
  8
Object
100
AcDbLine
 10
16.675
 20
8.085
 30
0.0
 11
16.675
 21
8.029999999999999
 31
0.0
  0
LINE
  5
331
330
18
100
AcDbEntity
  8
Object
100
AcDbLine
 10
16.765
 20
8.029999999999999
 30
0.0
 11
16.765
 21
8.085
 31
0.0
  0
LINE
  5
332
330
18
100
AcDbEntity
  8
Object
100
AcDbLine
 10
16.675
 20
7.966
 30
0.0
 11
16.675
 21
7.894
 31
0.0
  0
LINE
  5
333
330
18
100
AcDbEntity
  8
Object
100
AcDbLine
 10
16.765
 20
7.894
 30
0.0
 11
16.765
 21
7.966
 31
0.0
  0
LINE
  5
334
330
18
100
AcDbEntity
  8
Object
100
AcDbLine
 10
16.675
 20
7.817
 30
0.0
 11
16.675
 21
7.735999999999999
 31
0.0
  0
LINE
  5
335
330
18
100
AcDbEntity
  8
Object
100
AcDbLine
 10
16.765
 20
7.817
 30
0.0
 11
16.765
 21
7.735999999999999
 31
0.0
  0
LINE
  5
336
330
18
100
AcDbEntity
  8
Object
100
AcDbLine
 10
16.765
 20
7.735999999999999
 30
0.0
 11
16.765
 21
7.653999999999999
 31
0.0
  0
LINE
  5
337
330
18
100
AcDbEntity
  8
Object
100
AcDbLine
 10
16.675
 20
7.735999999999999
 30
0.0
 11
16.675
 21
7.653999999999999
 31
0.0
  0
LINE
  5
338
330
18
100
AcDbEntity
  8
Object
100
AcDbLine
 10
16.675
 20
7.248
 30
0.0
 11
16.765
 21
7.248
 31
0.0
  0
LINE
  5
339
330
18
100
AcDbEntity
  8
Object
100
AcDbLine
 10
16.765
 20
7.189
 30
0.0
 11
16.765
 21
7.211
 31
0.0
  0
LINE
  5
33A
330
18
100
AcDbEntity
  8
Object
100
AcDbLine
 10
16.675
 20
7.211
 30
0.0
 11
16.675
 21
7.189
 31
0.0
  0
LINE
  5
33B
330
18
100
AcDbEntity
  8
Object
100
AcDbLine
 10
16.765
 20
7.233
 30
0.0
 11
16.765
 21
7.248
 31
0.0
  0
LINE
  5
33C
330
18
100
AcDbEntity
  8
Object
100
AcDbLine
 10
16.675
 20
7.248
 30
0.0
 11
16.675
 21
7.233
 31
0.0
  0
LINE
  5
33D
330
18
100
AcDbEntity
  8
Object
100
AcDbLine
 10
16.675
 20
7.233
 30
0.0
 11
16.675
 21
7.211
 31
0.0
  0
LINE
  5
33E
330
18
100
AcDbEntity
  8
Object
100
AcDbLine
 10
16.765
 20
7.211
 30
0.0
 11
16.765
 21
7.233
 31
0.0
  0
LINE
  5
33F
330
18
100
AcDbEntity
  8
Object
100
AcDbLine
 10
16.765
 20
7.171
 30
0.0
 11
16.765
 21
7.189
 31
0.0
  0
LINE
  5
340
330
18
100
AcDbEntity
  8
Object
100
AcDbLine
 10
16.675
 20
7.189
 30
0.0
 11
16.675
 21
7.171
 31
0.0
  0
LINE
  5
341
330
18
100
AcDbEntity
  8
Object
100
AcDbLine
 10
16.765
 20
7.163
 30
0.0
 11
16.765
 21
7.171
 31
0.0
  0
LINE
  5
342
330
18
100
AcDbEntity
  8
Object
100
AcDbLine
 10
16.675
 20
7.171
 30
0.0
 11
16.675
 21
7.163
 31
0.0
  0
LINE
  5
343
330
18
100
AcDbEntity
  8
Object
100
AcDbLine
 10
16.775
 20
7.161999999999999
 30
0.0
 11
16.785
 21
7.161999999999999
 31
0.0
  0
LINE
  5
344
330
18
100
AcDbEntity
  8
Object
100
AcDbLine
 10
16.785
 20
7.161999999999999
 30
0.0
 11
16.785
 21
7.156
 31
0.0
  0
LINE
  5
345
330
18
100
AcDbEntity
  8
Object
100
AcDbLine
 10
16.775
 20
7.161999999999999
 30
0.0
 11
16.768
 21
7.163
 31
0.0
  0
LINE
  5
346
330
18
100
AcDbEntity
  8
Object
100
AcDbLine
 10
16.768
 20
7.163
 30
0.0
 11
16.765
 21
7.163
 31
0.0
  0
LINE
  5
347
330
18
100
AcDbEntity
  8
Object
100
AcDbLine
 10
16.765
 20
7.163
 30
0.0
 11
16.675
 21
7.163
 31
0.0
  0
LINE
  5
348
330
18
100
AcDbEntity
  8
Object
100
AcDbLine
 10
16.751
 20
7.156
 30
0.0
 11
16.785
 21
7.156
 31
0.0
  0
LINE
  5
349
330
18
100
AcDbEntity
  8
Object
100
AcDbLine
 10
16.785
 20
7.156
 30
0.0
 11
16.785
 21
4.354
 31
0.0
  0
LINE
  5
34A
330
18
100
AcDbEntity
  8
Object
100
AcDbLine
 10
16.785
 20
4.354
 30
0.0
 11
16.751
 21
4.354
 31
0.0
  0
LINE
  5
34B
330
18
100
AcDbEntity
  8
Object
100
AcDbLine
 10
16.751
 20
4.354
 30
0.0
 11
16.721
 21
4.355
 31
0.0
  0
LINE
  5
34C
330
18
100
AcDbEntity
  8
Object
100
AcDbLine
 10
16.751
 20
7.156
 30
0.0
 11
16.721
 21
7.157
 31
0.0
  0
LINE
  5
34D
330
18
100
AcDbEntity
  8
Object
100
AcDbLine
 10
16.721
 20
7.157
 30
0.0
 11
16.696
 21
7.158999999999999
 31
0.0
  0
LINE
  5
34E
330
18
100
AcDbEntity
  8
Object
100
AcDbLine
 10
16.721
 20
4.355
 30
0.0
 11
16.696
 21
4.357
 31
0.0
  0
LINE
  5
34F
330
18
100
AcDbEntity
  8
Object
100
AcDbLine
 10
16.696
 20
4.357
 30
0.0
 11
16.681
 21
4.358999999999999
 31
0.0
  0
LINE
  5
350
330
18
100
AcDbEntity
  8
Object
100
AcDbLine
 10
16.696
 20
7.158999999999999
 30
0.0
 11
16.681
 21
7.161
 31
0.0
  0
LINE
  5
351
330
18
100
AcDbEntity
  8
Object
100
AcDbLine
 10
16.681
 20
7.161
 30
0.0
 11
16.675
 21
7.163
 31
0.0
  0
LINE
  5
352
330
18
100
AcDbEntity
  8
Object
100
AcDbLine
 10
16.681
 20
4.358999999999999
 30
0.0
 11
16.675
 21
4.360999999999999
 31
0.0
  0
LINE
  5
353
330
18
100
AcDbEntity
  8
Object
100
AcDbLine
 10
16.675
 20
4.360999999999999
 30
0.0
 11
16.675
 21
7.163
 31
0.0
  0
LINE
  5
354
330
18
100
AcDbEntity
  8
Object
100
AcDbLine
 10
16.765
 20
8.189
 30
0.0
 11
16.675
 21
8.189
 31
0.0
  0
LINE
  5
355
330
18
100
AcDbEntity
  8
Object
100
AcDbLine
 10
16.765
 20
4.088
 30
0.0
 11
16.765
 21
4.169999999999999
 31
0.0
  0
LINE
  5
356
330
18
100
AcDbEntity
  8
Object
100
AcDbLine
 10
16.675
 20
4.169999999999999
 30
0.0
 11
16.675
 21
4.088
 31
0.0
  0
LINE
  5
357
330
18
100
AcDbEntity
  8
Object
100
AcDbLine
 10
16.675
 20
4.088
 30
0.0
 11
16.675
 21
4.009
 31
0.0
  0
LINE
  5
358
330
18
100
AcDbEntity
  8
Object
100
AcDbLine
 10
16.765
 20
4.009
 30
0.0
 11
16.765
 21
4.088
 31
0.0
  0
LINE
  5
359
330
18
100
AcDbEntity
  8
Object
100
AcDbLine
 10
16.765
 20
3.732
 30
0.0
 11
16.765
 21
3.766
 31
0.0
  0
LINE
  5
35A
330
18
100
AcDbEntity
  8
Object
100
AcDbLine
 10
16.675
 20
3.766
 30
0.0
 11
16.675
 21
3.732
 31
0.0
  0
LINE
  5
35B
330
18
100
AcDbEntity
  8
Object
100
AcDbLine
 10
16.765
 20
3.812
 30
0.0
 11
16.765
 21
3.869
 31
0.0
  0
LINE
  5
35C
330
18
100
AcDbEntity
  8
Object
100
AcDbLine
 10
16.675
 20
3.869
 30
0.0
 11
16.675
 21
3.812
 31
0.0
  0
LINE
  5
35D
330
18
100
AcDbEntity
  8
Object
100
AcDbLine
 10
16.765
 20
3.935
 30
0.0
 11
16.765
 21
4.009
 31
0.0
  0
LINE
  5
35E
330
18
100
AcDbEntity
  8
Object
100
AcDbLine
 10
16.675
 20
4.009
 30
0.0
 11
16.675
 21
3.935
 31
0.0
  0
LINE
  5
35F
330
18
100
AcDbEntity
  8
Object
100
AcDbLine
 10
16.675
 20
3.935
 30
0.0
 11
16.675
 21
3.869
 31
0.0
  0
LINE
  5
360
330
18
100
AcDbEntity
  8
Object
100
AcDbLine
 10
16.765
 20
3.869
 30
0.0
 11
16.765
 21
3.935
 31
0.0
  0
LINE
  5
361
330
18
100
AcDbEntity
  8
Object
100
AcDbLine
 10
16.675
 20
3.812
 30
0.0
 11
16.675
 21
3.766
 31
0.0
  0
LINE
  5
362
330
18
100
AcDbEntity
  8
Object
100
AcDbLine
 10
16.765
 20
3.766
 30
0.0
 11
16.765
 21
3.812
 31
0.0
  0
LINE
  5
363
330
18
100
AcDbEntity
  8
Object
100
AcDbLine
 10
16.675
 20
3.732
 30
0.0
 11
16.675
 21
3.712
 31
0.0
  0
LINE
  5
364
330
18
100
AcDbEntity
  8
Object
100
AcDbLine
 10
16.765
 20
3.732
 30
0.0
 11
16.765
 21
3.712
 31
0.0
  0
LINE
  5
365
330
18
100
AcDbEntity
  8
Object
100
AcDbLine
 10
16.765
 20
3.712
 30
0.0
 11
16.765
 21
3.705
 31
0.0
  0
LINE
  5
366
330
18
100
AcDbEntity
  8
Object
100
AcDbLine
 10
16.765
 20
3.705
 30
0.0
 11
16.675
 21
3.705
 31
0.0
  0
LINE
  5
367
330
18
100
AcDbEntity
  8
Object
100
AcDbLine
 10
16.675
 20
3.705
 30
0.0
 11
16.675
 21
3.712
 31
0.0
  0
LINE
  5
368
330
18
100
AcDbEntity
  8
Object
100
AcDbLine
 10
16.675
 20
4.267
 30
0.0
 11
16.675
 21
4.272
 31
0.0
  0
LINE
  5
369
330
18
100
AcDbEntity
  8
Object
100
AcDbLine
 10
16.675
 20
4.272
 30
0.0
 11
16.765
 21
4.272
 31
0.0
  0
LINE
  5
36A
330
18
100
AcDbEntity
  8
Object
100
AcDbLine
 10
16.765
 20
4.272
 30
0.0
 11
16.765
 21
4.267
 31
0.0
  0
LINE
  5
36B
330
18
100
AcDbEntity
  8
Object
100
AcDbLine
 10
16.765
 20
4.296999999999999
 30
0.0
 11
16.765
 21
4.32
 31
0.0
  0
LINE
  5
36C
330
18
100
AcDbEntity
  8
Object
100
AcDbLine
 10
16.675
 20
4.32
 30
0.0
 11
16.675
 21
4.296999999999999
 31
0.0
  0
LINE
  5
36D
330
18
100
AcDbEntity
  8
Object
100
AcDbLine
 10
16.765
 20
4.342
 30
0.0
 11
16.765
 21
4.354
 31
0.0
  0
LINE
  5
36E
330
18
100
AcDbEntity
  8
Object
100
AcDbLine
 10
16.675
 20
4.342
 30
0.0
 11
16.675
 21
4.357
 31
0.0
  0
LINE
  5
36F
330
18
100
AcDbEntity
  8
Object
100
AcDbLine
 10
16.675
 20
4.357
 30
0.0
 11
16.675
 21
4.360999999999999
 31
0.0
  0
LINE
  5
370
330
18
100
AcDbEntity
  8
Object
100
AcDbLine
 10
16.675
 20
4.342
 30
0.0
 11
16.675
 21
4.32
 31
0.0
  0
LINE
  5
371
330
18
100
AcDbEntity
  8
Object
100
AcDbLine
 10
16.765
 20
4.32
 30
0.0
 11
16.765
 21
4.342
 31
0.0
  0
LINE
  5
372
330
18
100
AcDbEntity
  8
Object
100
AcDbLine
 10
16.675
 20
4.296999999999999
 30
0.0
 11
16.675
 21
4.278999999999999
 31
0.0
  0
LINE
  5
373
330
18
100
AcDbEntity
  8
Object
100
AcDbLine
 10
16.765
 20
4.296999999999999
 30
0.0
 11
16.765
 21
4.278999999999999
 31
0.0
  0
LINE
  5
374
330
18
100
AcDbEntity
  8
Object
100
AcDbLine
 10
16.765
 20
4.278999999999999
 30
0.0
 11
16.765
 21
4.272
 31
0.0
  0
LINE
  5
375
330
18
100
AcDbEntity
  8
Object
100
AcDbLine
 10
16.675
 20
4.278999999999999
 30
0.0
 11
16.675
 21
4.272
 31
0.0
  0
LINE
  5
376
330
18
100
AcDbEntity
  8
Object
100
AcDbLine
 10
16.785
 20
3.625999999999999
 30
0.0
 11
16.751
 21
3.631
 31
0.0
  0
LINE
  5
377
330
18
100
AcDbEntity
  8
Object
100
AcDbLine
 10
16.751
 20
3.631
 30
0.0
 11
16.721
 21
3.647
 31
0.0
  0
LINE
  5
378
330
18
100
AcDbEntity
  8
Object
100
AcDbLine
 10
16.721
 20
3.647
 30
0.0
 11
16.696
 21
3.671
 31
0.0
  0
LINE
  5
379
330
18
100
AcDbEntity
  8
Object
100
AcDbLine
 10
16.696
 20
3.671
 30
0.0
 11
16.681
 21
3.701999999999999
 31
0.0
  0
LINE
  5
37A
330
18
100
AcDbEntity
  8
Object
100
AcDbLine
 10
16.681
 20
3.701999999999999
 30
0.0
 11
16.68
 21
3.705
 31
0.0
  0
LINE
  5
37B
330
18
100
AcDbEntity
  8
Object
100
AcDbLine
 10
16.675
 20
4.362
 30
0.0
 11
16.675
 21
4.360999999999999
 31
0.0
  0
LINE
  5
37C
330
18
100
AcDbEntity
  8
Object
100
AcDbLine
 10
16.675
 20
7.248
 30
0.0
 11
16.675
 21
7.653999999999999
 31
0.0
  0
LINE
  5
37D
330
18
100
AcDbEntity
  8
Object
100
AcDbLine
 10
16.675
 20
7.653999999999999
 30
0.0
 11
16.765
 21
7.653999999999999
 31
0.0
  0
LINE
  5
37E
330
18
100
AcDbEntity
  8
Object
100
AcDbLine
 10
16.765
 20
7.653999999999999
 30
0.0
 11
16.765
 21
7.248
 31
0.0
  0
LINE
  5
37F
330
18
100
AcDbEntity
  8
Object
100
AcDbLine
 10
16.775
 20
3.983999999999999
 30
0.0
 11
16.785
 21
3.982
 31
0.0
  0
LINE
  5
380
330
18
100
AcDbEntity
  8
Object
100
AcDbLine
 10
16.785
 20
3.982
 30
0.0
 11
16.785
 21
3.891999999999999
 31
0.0
  0
LINE
  5
381
330
18
100
AcDbEntity
  8
Object
100
AcDbLine
 10
16.785
 20
3.891999999999999
 30
0.0
 11
16.765
 21
3.894999999999999
 31
0.0
  0
LINE
  5
382
330
18
100
AcDbEntity
  8
Object
100
AcDbLine
 10
16.775
 20
3.983999999999999
 30
0.0
 11
16.768
 21
3.991999999999999
 31
0.0
  0
LINE
  5
383
330
18
100
AcDbEntity
  8
Object
100
AcDbLine
 10
16.768
 20
3.991999999999999
 30
0.0
 11
16.765
 21
4.001999999999999
 31
0.0
  0
LINE
  5
384
330
18
100
AcDbEntity
  8
Object
100
AcDbLine
 10
16.785
 20
3.982
 30
0.0
 11
16.775
 21
3.983999999999999
 31
0.0
  0
LINE
  5
385
330
18
100
AcDbEntity
  8
Object
100
AcDbLine
 10
16.775
 20
3.983999999999999
 30
0.0
 11
16.768
 21
3.991999999999999
 31
0.0
  0
LINE
  5
386
330
18
100
AcDbEntity
  8
Object
100
AcDbLine
 10
16.768
 20
3.991999999999999
 30
0.0
 11
16.765
 21
4.001999999999999
 31
0.0
  0
LINE
  5
387
330
18
100
AcDbEntity
  8
Object
100
AcDbLine
 10
16.785
 20
3.716
 30
0.0
 11
16.775
 21
3.717999999999999
 31
0.0
  0
LINE
  5
388
330
18
100
AcDbEntity
  8
Object
100
AcDbLine
 10
16.775
 20
3.717999999999999
 30
0.0
 11
16.768
 21
3.725999999999999
 31
0.0
  0
LINE
  5
389
330
18
100
AcDbEntity
  8
Object
100
AcDbLine
 10
16.768
 20
3.725999999999999
 30
0.0
 11
16.765
 21
3.736
 31
0.0
  0
LINE
  5
38A
330
18
100
AcDbEntity
  8
Object
100
AcDbLine
 10
17.549
 20
3.716
 30
0.0
 11
17.555
 21
3.716
 31
0.0
  0
LINE
  5
38B
330
18
100
AcDbEntity
  8
Object
100
AcDbLine
 10
17.555
 20
3.716
 30
0.0
 11
17.555
 21
3.625999999999999
 31
0.0
  0
LINE
  5
38C
330
18
100
AcDbEntity
  8
Object
100
AcDbLine
 10
17.555
 20
3.625999999999999
 30
0.0
 11
17.549
 21
3.625999999999999
 31
0.0
  0
LINE
  5
38D
330
18
100
AcDbEntity
  8
Object
100
AcDbLine
 10
17.549
 20
3.625999999999999
 30
0.0
 11
17.531
 21
3.625999999999999
 31
0.0
  0
LINE
  5
38E
330
18
100
AcDbEntity
  8
Object
100
AcDbLine
 10
17.549
 20
3.716
 30
0.0
 11
17.531
 21
3.716
 31
0.0
  0
LINE
  5
38F
330
18
100
AcDbEntity
  8
Object
100
AcDbLine
 10
17.504
 20
3.625999999999999
 30
0.0
 11
17.531
 21
3.625999999999999
 31
0.0
  0
LINE
  5
390
330
18
100
AcDbEntity
  8
Object
100
AcDbLine
 10
17.531
 20
3.716
 30
0.0
 11
17.504
 21
3.716
 31
0.0
  0
LINE
  5
391
330
18
100
AcDbEntity
  8
Object
100
AcDbLine
 10
17.504
 20
3.716
 30
0.0
 11
17.469
 21
3.716
 31
0.0
  0
LINE
  5
392
330
18
100
AcDbEntity
  8
Object
100
AcDbLine
 10
17.504
 20
3.625999999999999
 30
0.0
 11
17.469
 21
3.625999999999999
 31
0.0
  0
LINE
  5
393
330
18
100
AcDbEntity
  8
Object
100
AcDbLine
 10
17.469
 20
3.625999999999999
 30
0.0
 11
17.43
 21
3.625999999999999
 31
0.0
  0
LINE
  5
394
330
18
100
AcDbEntity
  8
Object
100
AcDbLine
 10
17.469
 20
3.716
 30
0.0
 11
17.43
 21
3.716
 31
0.0
  0
LINE
  5
395
330
18
100
AcDbEntity
  8
Object
100
AcDbLine
 10
17.555
 20
3.716
 30
0.0
 11
17.549
 21
3.716
 31
0.0
  0
LINE
  5
396
330
18
100
AcDbEntity
  8
Object
100
AcDbLine
 10
17.549
 20
3.716
 30
0.0
 11
17.531
 21
3.716
 31
0.0
  0
LINE
  5
397
330
18
100
AcDbEntity
  8
Object
100
AcDbLine
 10
17.531
 20
3.716
 30
0.0
 11
17.504
 21
3.716
 31
0.0
  0
LINE
  5
398
330
18
100
AcDbEntity
  8
Object
100
AcDbLine
 10
17.504
 20
3.716
 30
0.0
 11
17.469
 21
3.716
 31
0.0
  0
LINE
  5
399
330
18
100
AcDbEntity
  8
Object
100
AcDbLine
 10
17.469
 20
3.716
 30
0.0
 11
17.43
 21
3.716
 31
0.0
  0
LINE
  5
39A
330
18
100
AcDbEntity
  8
Object
100
AcDbLine
 10
17.43
 20
3.716
 30
0.0
 11
16.785
 21
3.716
 31
0.0
  0
LINE
  5
39B
330
18
100
AcDbEntity
  8
Object
100
AcDbLine
 10
17.555
 20
3.625999999999999
 30
0.0
 11
17.549
 21
3.625999999999999
 31
0.0
  0
LINE
  5
39C
330
18
100
AcDbEntity
  8
Object
100
AcDbLine
 10
17.549
 20
3.625999999999999
 30
0.0
 11
17.531
 21
3.625999999999999
 31
0.0
  0
LINE
  5
39D
330
18
100
AcDbEntity
  8
Object
100
AcDbLine
 10
17.531
 20
3.625999999999999
 30
0.0
 11
17.504
 21
3.625999999999999
 31
0.0
  0
LINE
  5
39E
330
18
100
AcDbEntity
  8
Object
100
AcDbLine
 10
17.504
 20
3.625999999999999
 30
0.0
 11
17.469
 21
3.625999999999999
 31
0.0
  0
LINE
  5
39F
330
18
100
AcDbEntity
  8
Object
100
AcDbLine
 10
17.469
 20
3.625999999999999
 30
0.0
 11
17.43
 21
3.625999999999999
 31
0.0
  0
LINE
  5
3A0
330
18
100
AcDbEntity
  8
Object
100
AcDbLine
 10
17.43
 20
3.625999999999999
 30
0.0
 11
16.785
 21
3.625999999999999
 31
0.0
  0
LINE
  5
3A1
330
18
100
AcDbEntity
  8
Object
100
AcDbLine
 10
18.265
 20
3.891999999999999
 30
0.0
 11
18.259
 21
3.891999999999999
 31
0.0
  0
LINE
  5
3A2
330
18
100
AcDbEntity
  8
Object
100
AcDbLine
 10
18.259
 20
3.891999999999999
 30
0.0
 11
18.241
 21
3.891999999999999
 31
0.0
  0
LINE
  5
3A3
330
18
100
AcDbEntity
  8
Object
100
AcDbLine
 10
18.241
 20
3.891999999999999
 30
0.0
 11
18.214
 21
3.891999999999999
 31
0.0
  0
LINE
  5
3A4
330
18
100
AcDbEntity
  8
Object
100
AcDbLine
 10
18.214
 20
3.891999999999999
 30
0.0
 11
18.179
 21
3.891999999999999
 31
0.0
  0
LINE
  5
3A5
330
18
100
AcDbEntity
  8
Object
100
AcDbLine
 10
18.179
 20
3.891999999999999
 30
0.0
 11
18.14
 21
3.891999999999999
 31
0.0
  0
LINE
  5
3A6
330
18
100
AcDbEntity
  8
Object
100
AcDbLine
 10
18.14
 20
3.891999999999999
 30
0.0
 11
16.785
 21
3.891999999999999
 31
0.0
  0
LINE
  5
3A7
330
18
100
AcDbEntity
  8
Object
100
AcDbLine
 10
17.305
 20
7.156
 30
0.0
 11
17.305
 21
7.161999999999999
 31
0.0
  0
LINE
  5
3A8
330
18
100
AcDbEntity
  8
Object
100
AcDbLine
 10
17.555
 20
4.602999999999999
 30
0.0
 11
17.549
 21
4.548
 31
0.0
  0
LINE
  5
3A9
330
18
100
AcDbEntity
  8
Object
100
AcDbLine
 10
17.549
 20
4.548
 30
0.0
 11
17.53
 21
4.495
 31
0.0
  0
LINE
  5
3AA
330
18
100
AcDbEntity
  8
Object
100
AcDbLine
 10
17.53
 20
4.495
 30
0.0
 11
17.501
 21
4.448
 31
0.0
  0
LINE
  5
3AB
330
18
100
AcDbEntity
  8
Object
100
AcDbLine
 10
17.501
 20
4.448
 30
0.0
 11
17.461
 21
4.408
 31
0.0
  0
LINE
  5
3AC
330
18
100
AcDbEntity
  8
Object
100
AcDbLine
 10
17.414
 20
7.131
 30
0.0
 11
17.461
 21
7.100999999999999
 31
0.0
  0
LINE
  5
3AD
330
18
100
AcDbEntity
  8
Object
100
AcDbLine
 10
17.461
 20
7.100999999999999
 30
0.0
 11
17.501
 21
7.062
 31
0.0
  0
LINE
  5
3AE
330
18
100
AcDbEntity
  8
Object
100
AcDbLine
 10
17.414
 20
4.378
 30
0.0
 11
17.461
 21
4.408
 31
0.0
  0
LINE
  5
3AF
330
18
100
AcDbEntity
  8
Object
100
AcDbLine
 10
17.414
 20
7.131
 30
0.0
 11
17.361
 21
7.149
 31
0.0
  0
LINE
  5
3B0
330
18
100
AcDbEntity
  8
Object
100
AcDbLine
 10
17.501
 20
7.062
 30
0.0
 11
17.53
 21
7.014
 31
0.0
  0
LINE
  5
3B1
330
18
100
AcDbEntity
  8
Object
100
AcDbLine
 10
17.53
 20
7.014
 30
0.0
 11
17.549
 21
6.961999999999999
 31
0.0
  0
LINE
  5
3B2
330
18
100
AcDbEntity
  8
Object
100
AcDbLine
 10
17.549
 20
6.961999999999999
 30
0.0
 11
17.555
 21
6.906
 31
0.0
  0
LINE
  5
3B3
330
18
100
AcDbEntity
  8
Object
100
AcDbLine
 10
17.361
 20
4.36
 30
0.0
 11
17.414
 21
4.378
 31
0.0
  0
LINE
  5
3B4
330
18
100
AcDbEntity
  8
Object
100
AcDbLine
 10
17.361
 20
7.149
 30
0.0
 11
17.305
 21
7.156
 31
0.0
  0
LINE
  5
3B5
330
18
100
AcDbEntity
  8
Object
100
AcDbLine
 10
17.305
 20
4.354
 30
0.0
 11
17.361
 21
4.36
 31
0.0
  0
LINE
  5
3B6
330
18
100
AcDbEntity
  8
Object
100
AcDbLine
 10
17.288
 20
6.177
 30
0.0
 11
17.288
 21
6.139
 31
0.0
  0
LINE
  5
3B7
330
18
100
AcDbEntity
  8
Object
100
AcDbLine
 10
17.555
 20
4.602999999999999
 30
0.0
 11
17.555
 21
6.906
 31
0.0
  0
LINE
  5
3B8
330
18
100
AcDbEntity
  8
Object
100
AcDbLine
 10
17.275
 20
6.211999999999999
 30
0.0
 11
17.288
 21
6.177
 31
0.0
  0
LINE
  5
3B9
330
18
100
AcDbEntity
  8
Object
100
AcDbLine
 10
17.288
 20
6.139
 30
0.0
 11
17.275
 21
6.104
 31
0.0
  0
LINE
  5
3BA
330
18
100
AcDbEntity
  8
Object
100
AcDbLine
 10
17.25
 20
6.241
 30
0.0
 11
17.275
 21
6.211999999999999
 31
0.0
  0
LINE
  5
3BB
330
18
100
AcDbEntity
  8
Object
100
AcDbLine
 10
17.275
 20
6.104
 30
0.0
 11
17.25
 21
6.075
 31
0.0
  0
LINE
  5
3BC
330
18
100
AcDbEntity
  8
Object
100
AcDbLine
 10
17.218
 20
6.259999999999999
 30
0.0
 11
17.25
 21
6.241
 31
0.0
  0
LINE
  5
3BD
330
18
100
AcDbEntity
  8
Object
100
AcDbLine
 10
17.25
 20
6.075
 30
0.0
 11
17.218
 21
6.056
 31
0.0
  0
LINE
  5
3BE
330
18
100
AcDbEntity
  8
Object
100
AcDbLine
 10
17.18
 20
6.267
 30
0.0
 11
17.218
 21
6.259999999999999
 31
0.0
  0
LINE
  5
3BF
330
18
100
AcDbEntity
  8
Object
100
AcDbLine
 10
17.218
 20
6.056
 30
0.0
 11
17.18
 21
6.049
 31
0.0
  0
LINE
  5
3C0
330
18
100
AcDbEntity
  8
Object
100
AcDbLine
 10
17.143
 20
6.259999999999999
 30
0.0
 11
17.18
 21
6.267
 31
0.0
  0
LINE
  5
3C1
330
18
100
AcDbEntity
  8
Object
100
AcDbLine
 10
17.18
 20
6.049
 30
0.0
 11
17.143
 21
6.056
 31
0.0
  0
LINE
  5
3C2
330
18
100
AcDbEntity
  8
Object
100
AcDbLine
 10
17.11
 20
6.241
 30
0.0
 11
17.143
 21
6.259999999999999
 31
0.0
  0
LINE
  5
3C3
330
18
100
AcDbEntity
  8
Object
100
AcDbLine
 10
17.305
 20
7.156
 30
0.0
 11
16.785
 21
7.156
 31
0.0
  0
LINE
  5
3C4
330
18
100
AcDbEntity
  8
Object
100
AcDbLine
 10
17.11
 20
6.241
 30
0.0
 11
17.086
 21
6.211999999999999
 31
0.0
  0
LINE
  5
3C5
330
18
100
AcDbEntity
  8
Object
100
AcDbLine
 10
17.086
 20
6.211999999999999
 30
0.0
 11
17.073
 21
6.177
 31
0.0
  0
LINE
  5
3C6
330
18
100
AcDbEntity
  8
Object
100
AcDbLine
 10
17.073
 20
6.177
 30
0.0
 11
17.073
 21
6.139
 31
0.0
  0
LINE
  5
3C7
330
18
100
AcDbEntity
  8
Object
100
AcDbLine
 10
16.785
 20
4.354
 30
0.0
 11
17.305
 21
4.354
 31
0.0
  0
LINE
  5
3C8
330
18
100
AcDbEntity
  8
Object
100
AcDbLine
 10
17.073
 20
6.139
 30
0.0
 11
17.086
 21
6.104
 31
0.0
  0
LINE
  5
3C9
330
18
100
AcDbEntity
  8
Object
100
AcDbLine
 10
17.086
 20
6.104
 30
0.0
 11
17.11
 21
6.075
 31
0.0
  0
LINE
  5
3CA
330
18
100
AcDbEntity
  8
Object
100
AcDbLine
 10
17.11
 20
6.075
 30
0.0
 11
17.143
 21
6.056
 31
0.0
  0
LINE
  5
3CB
330
18
100
AcDbEntity
  8
Object
100
AcDbLine
 10
16.785
 20
3.982
 30
0.0
 11
18.14
 21
3.982
 31
0.0
  0
LINE
  5
3CC
330
18
100
AcDbEntity
  8
Object
100
AcDbLine
 10
18.14
 20
3.982
 30
0.0
 11
18.14
 21
3.891999999999999
 31
0.0
  0
LINE
  5
3CD
330
18
100
AcDbEntity
  8
Object
100
AcDbLine
 10
18.14
 20
3.891999999999999
 30
0.0
 11
16.785
 21
3.891999999999999
 31
0.0
  0
LINE
  5
3CE
330
18
100
AcDbEntity
  8
Object
100
AcDbLine
 10
18.265
 20
3.982
 30
0.0
 11
18.259
 21
3.982
 31
0.0
  0
LINE
  5
3CF
330
18
100
AcDbEntity
  8
Object
100
AcDbLine
 10
18.259
 20
3.982
 30
0.0
 11
18.241
 21
3.982
 31
0.0
  0
LINE
  5
3D0
330
18
100
AcDbEntity
  8
Object
100
AcDbLine
 10
18.241
 20
3.982
 30
0.0
 11
18.214
 21
3.982
 31
0.0
  0
LINE
  5
3D1
330
18
100
AcDbEntity
  8
Object
100
AcDbLine
 10
18.214
 20
3.982
 30
0.0
 11
18.179
 21
3.982
 31
0.0
  0
LINE
  5
3D2
330
18
100
AcDbEntity
  8
Object
100
AcDbLine
 10
18.179
 20
3.982
 30
0.0
 11
18.14
 21
3.982
 31
0.0
  0
LINE
  5
3D3
330
18
100
AcDbEntity
  8
Object
100
AcDbLine
 10
18.14
 20
3.982
 30
0.0
 11
16.785
 21
3.982
 31
0.0
  0
LINE
  5
3D4
330
18
100
AcDbEntity
  8
Object
100
AcDbLine
 10
17.53
 20
7.020999999999999
 30
0.0
 11
17.549
 21
6.967999999999999
 31
0.0
  0
LINE
  5
3D5
330
18
100
AcDbEntity
  8
Object
100
AcDbLine
 10
17.549
 20
6.967999999999999
 30
0.0
 11
17.555
 21
6.911999999999999
 31
0.0
  0
LINE
  5
3D6
330
18
100
AcDbEntity
  8
Object
100
AcDbLine
 10
17.53
 20
7.020999999999999
 30
0.0
 11
17.501
 21
7.068
 31
0.0
  0
LINE
  5
3D7
330
18
100
AcDbEntity
  8
Object
100
AcDbLine
 10
17.501
 20
7.068
 30
0.0
 11
17.461
 21
7.107
 31
0.0
  0
LINE
  5
3D8
330
18
100
AcDbEntity
  8
Object
100
AcDbLine
 10
17.461
 20
7.107
 30
0.0
 11
17.414
 21
7.137
 31
0.0
  0
LINE
  5
3D9
330
18
100
AcDbEntity
  8
Object
100
AcDbLine
 10
17.414
 20
7.137
 30
0.0
 11
17.361
 21
7.156
 31
0.0
  0
LINE
  5
3DA
330
18
100
AcDbEntity
  8
Object
100
AcDbLine
 10
17.361
 20
7.156
 30
0.0
 11
17.305
 21
7.161999999999999
 31
0.0
  0
LINE
  5
3DB
330
18
100
AcDbEntity
  8
Object
100
AcDbLine
 10
17.288
 20
6.145
 30
0.0
 11
17.275
 21
6.11
 31
0.0
  0
LINE
  5
3DC
330
18
100
AcDbEntity
  8
Object
100
AcDbLine
 10
17.275
 20
6.11
 30
0.0
 11
17.25
 21
6.081
 31
0.0
  0
LINE
  5
3DD
330
18
100
AcDbEntity
  8
Object
100
AcDbLine
 10
17.25
 20
6.081
 30
0.0
 11
17.218
 21
6.062
 31
0.0
  0
LINE
  5
3DE
330
18
100
AcDbEntity
  8
Object
100
AcDbLine
 10
17.218
 20
6.062
 30
0.0
 11
17.18
 21
6.056
 31
0.0
  0
LINE
  5
3DF
330
18
100
AcDbEntity
  8
Object
100
AcDbLine
 10
17.18
 20
6.056
 30
0.0
 11
17.143
 21
6.062
 31
0.0
  0
LINE
  5
3E0
330
18
100
AcDbEntity
  8
Object
100
AcDbLine
 10
17.305
 20
7.161999999999999
 30
0.0
 11
16.785
 21
7.161999999999999
 31
0.0
  0
LINE
  5
3E1
330
18
100
AcDbEntity
  8
Object
100
AcDbLine
 10
17.11
 20
6.081
 30
0.0
 11
17.086
 21
6.11
 31
0.0
  0
LINE
  5
3E2
330
18
100
AcDbEntity
  8
Object
100
AcDbLine
 10
17.086
 20
6.11
 30
0.0
 11
17.073
 21
6.145
 31
0.0
  0
LINE
  5
3E3
330
18
100
AcDbEntity
  8
Object
100
AcDbLine
 10
17.143
 20
6.062
 30
0.0
 11
17.11
 21
6.081
 31
0.0
  0
LINE
  5
3E4
330
18
100
AcDbEntity
  8
Object
100
AcDbLine
 10
17.555
 20
3.625999999999999
 30
0.0
 11
17.555
 21
3.716
 31
0.0
  0
LINE
  5
3E5
330
18
100
AcDbEntity
  8
Object
100
AcDbLine
 10
18.259
 20
3.982
 30
0.0
 11
18.265
 21
3.982
 31
0.0
  0
LINE
  5
3E6
330
18
100
AcDbEntity
  8
Object
100
AcDbLine
 10
18.265
 20
3.982
 30
0.0
 11
18.265
 21
3.891999999999999
 31
0.0
  0
LINE
  5
3E7
330
18
100
AcDbEntity
  8
Object
100
AcDbLine
 10
18.265
 20
3.891999999999999
 30
0.0
 11
18.259
 21
3.891999999999999
 31
0.0
  0
LINE
  5
3E8
330
18
100
AcDbEntity
  8
Object
100
AcDbLine
 10
18.259
 20
3.891999999999999
 30
0.0
 11
18.241
 21
3.891999999999999
 31
0.0
  0
LINE
  5
3E9
330
18
100
AcDbEntity
  8
Object
100
AcDbLine
 10
18.259
 20
3.982
 30
0.0
 11
18.241
 21
3.982
 31
0.0
  0
LINE
  5
3EA
330
18
100
AcDbEntity
  8
Object
100
AcDbLine
 10
18.214
 20
3.891999999999999
 30
0.0
 11
18.241
 21
3.891999999999999
 31
0.0
  0
LINE
  5
3EB
330
18
100
AcDbEntity
  8
Object
100
AcDbLine
 10
18.241
 20
3.982
 30
0.0
 11
18.214
 21
3.982
 31
0.0
  0
LINE
  5
3EC
330
18
100
AcDbEntity
  8
Object
100
AcDbLine
 10
18.214
 20
3.982
 30
0.0
 11
18.179
 21
3.982
 31
0.0
  0
LINE
  5
3ED
330
18
100
AcDbEntity
  8
Object
100
AcDbLine
 10
18.214
 20
3.891999999999999
 30
0.0
 11
18.179
 21
3.891999999999999
 31
0.0
  0
LINE
  5
3EE
330
18
100
AcDbEntity
  8
Object
100
AcDbLine
 10
18.179
 20
3.891999999999999
 30
0.0
 11
18.14
 21
3.891999999999999
 31
0.0
  0
LINE
  5
3EF
330
18
100
AcDbEntity
  8
Object
100
AcDbLine
 10
18.179
 20
3.982
 30
0.0
 11
18.14
 21
3.982
 31
0.0
  0
LINE
  5
3F0
330
18
100
AcDbEntity
  8
Object
100
AcDbLine
 10
18.265
 20
3.891999999999999
 30
0.0
 11
18.265
 21
3.982
 31
0.0
  0
LINE
  5
3F1
330
18
100
AcDbEntity
  8
Object
100
AcDbLine
 10
17.555
 20
6.906
 30
0.0
 11
17.555
 21
6.911999999999999
 31
0.0
  0
LINE
  5
3F2
330
18
100
AcDbEntity
  8
Object
100
AcDbLine
 10
17.288
 20
6.177
 30
0.0
 11
17.288
 21
6.139
 31
0.0
  0
LINE
  5
3F3
330
18
100
AcDbEntity
  8
Object
100
AcDbLine
 10
17.555
 20
4.602999999999999
 30
0.0
 11
17.555
 21
6.906
 31
0.0
  0
LINE
  5
3F4
330
18
100
AcDbEntity
  8
Object
100
AcDbLine
 10
17.555
 20
6.906
 30
0.0
 11
17.555
 21
6.911999999999999
 31
0.0
  0
LINE
  5
3F5
330
18
100
AcDbEntity
  8
Object
100
AcDbLine
 10
17.18
 20
6.049
 30
0.0
 11
17.18
 21
6.056
 31
0.0
  0
LINE
  5
3F6
330
18
100
AcDbEntity
  8
Object
100
AcDbLine
 10
17.073
 20
6.139
 30
0.0
 11
17.073
 21
6.177
 31
0.0
  0
LINE
  5
3F7
330
18
100
AcDbEntity
  8
Object
100
AcDbLine
 10
4.711
 20
3.701999999999999
 30
0.0
 11
4.711
 21
3.671
 31
0.0
  0
LINE
  5
3F8
330
18
100
AcDbEntity
  8
Object
100
AcDbLine
 10
4.711
 20
3.631
 30
0.0
 11
4.711
 21
3.625999999999999
 31
0.0
  0
LINE
  5
3F9
330
18
100
AcDbEntity
  8
Object
100
AcDbLine
 10
4.711
 20
3.738999999999999
 30
0.0
 11
4.711
 21
3.736
 31
0.0
  0
LINE
  5
3FA
330
18
100
AcDbEntity
  8
Object
100
AcDbLine
 10
4.711
 20
3.736
 30
0.0
 11
4.711
 21
3.701999999999999
 31
0.0
  0
LINE
  5
3FB
330
18
100
AcDbEntity
  8
Object
100
AcDbLine
 10
4.711
 20
3.671
 30
0.0
 11
4.711
 21
3.647
 31
0.0
  0
LINE
  5
3FC
330
18
100
AcDbEntity
  8
Object
100
AcDbLine
 10
4.711
 20
3.647
 30
0.0
 11
4.711
 21
3.631
 31
0.0
  0
LINE
  5
3FD
330
18
100
AcDbEntity
  8
Object
100
AcDbLine
 10
4.711
 20
3.625999999999999
 30
0.0
 11
5.360999999999999
 21
3.625999999999999
 31
0.0
  0
LINE
  5
3FE
330
18
100
AcDbEntity
  8
Object
100
AcDbLine
 10
10.102
 20
7.653999999999999
 30
0.0
 11
10.073
 21
7.248
 31
0.0
  0
LINE
  5
3FF
330
18
100
AcDbEntity
  8
Object
100
AcDbLine
 10
10.073
 20
7.248
 30
0.0
 11
9.999
 21
7.253
 31
0.0
  0
LINE
  5
400
330
18
100
AcDbEntity
  8
Object
100
AcDbLine
 10
9.999
 20
7.253
 30
0.0
 11
9.976
 21
7.249
 31
0.0
  0
LINE
  5
401
330
18
100
AcDbEntity
  8
Object
100
AcDbLine
 10
9.976
 20
7.249
 30
0.0
 11
9.958
 21
7.233
 31
0.0
  0
LINE
  5
402
330
18
100
AcDbEntity
  8
Object
100
AcDbLine
 10
9.79
 20
4.272
 30
0.0
 11
9.865
 21
4.267
 31
0.0
  0
LINE
  5
403
330
18
100
AcDbEntity
  8
Object
100
AcDbLine
 10
9.865
 20
4.267
 30
0.0
 11
9.858
 21
4.169999999999999
 31
0.0
  0
LINE
  5
404
330
18
100
AcDbEntity
  8
Object
100
AcDbLine
 10
9.79
 20
4.272
 30
0.0
 11
9.768
 21
4.278999999999999
 31
0.0
  0
LINE
  5
405
330
18
100
AcDbEntity
  8
Object
100
AcDbLine
 10
9.858
 20
4.169999999999999
 30
0.0
 11
9.845
 21
4.088
 31
0.0
  0
LINE
  5
406
330
18
100
AcDbEntity
  8
Object
100
AcDbLine
 10
9.845
 20
4.088
 30
0.0
 11
9.819
 21
4.009
 31
0.0
  0
LINE
  5
407
330
18
100
AcDbEntity
  8
Object
100
AcDbLine
 10
9.819
 20
4.009
 30
0.0
 11
9.779999999999999
 21
3.935
 31
0.0
  0
LINE
  5
408
330
18
100
AcDbEntity
  8
Object
100
AcDbLine
 10
9.768
 20
4.278999999999999
 30
0.0
 11
9.753
 21
4.296999999999999
 31
0.0
  0
LINE
  5
409
330
18
100
AcDbEntity
  8
Object
100
AcDbLine
 10
9.779999999999999
 20
3.935
 30
0.0
 11
9.73
 21
3.869
 31
0.0
  0
LINE
  5
40A
330
18
100
AcDbEntity
  8
Object
100
AcDbLine
 10
9.73
 20
3.869
 30
0.0
 11
9.669
 21
3.812
 31
0.0
  0
LINE
  5
40B
330
18
100
AcDbEntity
  8
Object
100
AcDbLine
 10
9.602999999999999
 20
8.189
 30
0.0
 11
9.685
 21
8.182999999999999
 31
0.0
  0
LINE
  5
40C
330
18
100
AcDbEntity
  8
Object
100
AcDbLine
 10
9.685
 20
8.182999999999999
 30
0.0
 11
9.763999999999999
 21
8.163
 31
0.0
  0
LINE
  5
40D
330
18
100
AcDbEntity
  8
Object
100
AcDbLine
 10
9.763999999999999
 20
8.163
 30
0.0
 11
9.839
 21
8.13
 31
0.0
  0
LINE
  5
40E
330
18
100
AcDbEntity
  8
Object
100
AcDbLine
 10
9.839
 20
8.13
 30
0.0
 11
9.907999999999999
 21
8.085
 31
0.0
  0
LINE
  5
40F
330
18
100
AcDbEntity
  8
Object
100
AcDbLine
 10
9.907999999999999
 20
8.085
 30
0.0
 11
9.968999999999999
 21
8.029999999999999
 31
0.0
  0
LINE
  5
410
330
18
100
AcDbEntity
  8
Object
100
AcDbLine
 10
9.968999999999999
 20
8.029999999999999
 30
0.0
 11
10.02
 21
7.966
 31
0.0
  0
LINE
  5
411
330
18
100
AcDbEntity
  8
Object
100
AcDbLine
 10
10.02
 20
7.966
 30
0.0
 11
10.059
 21
7.894
 31
0.0
  0
LINE
  5
412
330
18
100
AcDbEntity
  8
Object
100
AcDbLine
 10
10.059
 20
7.894
 30
0.0
 11
10.087
 21
7.817
 31
0.0
  0
LINE
  5
413
330
18
100
AcDbEntity
  8
Object
100
AcDbLine
 10
10.087
 20
7.817
 30
0.0
 11
10.101
 21
7.735999999999999
 31
0.0
  0
LINE
  5
414
330
18
100
AcDbEntity
  8
Object
100
AcDbLine
 10
10.101
 20
7.735999999999999
 30
0.0
 11
10.102
 21
7.653999999999999
 31
0.0
  0
LINE
  5
415
330
18
100
AcDbEntity
  8
Object
100
AcDbLine
 10
9.669
 20
3.812
 30
0.0
 11
9.599
 21
3.766
 31
0.0
  0
LINE
  5
416
330
18
100
AcDbEntity
  8
Object
100
AcDbLine
 10
9.599
 20
3.766
 30
0.0
 11
9.522999999999999
 21
3.732
 31
0.0
  0
LINE
  5
417
330
18
100
AcDbEntity
  8
Object
100
AcDbLine
 10
9.522999999999999
 20
3.732
 30
0.0
 11
9.442
 21
3.712
 31
0.0
  0
LINE
  5
418
330
18
100
AcDbEntity
  8
Object
100
AcDbLine
 10
9.442
 20
3.712
 30
0.0
 11
9.358999999999999
 21
3.705
 31
0.0
  0
LINE
  5
419
330
18
100
AcDbEntity
  8
Object
100
AcDbLine
 10
9.143
 20
8.163999999999999
 30
0.0
 11
9.195999999999999
 21
8.182999999999999
 31
0.0
  0
LINE
  5
41A
330
18
100
AcDbEntity
  8
Object
100
AcDbLine
 10
9.195999999999999
 20
8.182999999999999
 30
0.0
 11
9.250999999999999
 21
8.189
 31
0.0
  0
LINE
  5
41B
330
18
100
AcDbEntity
  8
Object
100
AcDbLine
 10
9.143
 20
8.163999999999999
 30
0.0
 11
9.095
 21
8.134999999999999
 31
0.0
  0
LINE
  5
41C
330
18
100
AcDbEntity
  8
Object
100
AcDbLine
 10
9.095
 20
8.134999999999999
 30
0.0
 11
9.056
 21
8.095
 31
0.0
  0
LINE
  5
41D
330
18
100
AcDbEntity
  8
Object
100
AcDbLine
 10
9.056
 20
8.095
 30
0.0
 11
9.025999999999999
 21
8.048
 31
0.0
  0
LINE
  5
41E
330
18
100
AcDbEntity
  8
Object
100
AcDbLine
 10
9.025999999999999
 20
8.048
 30
0.0
 11
9.008
 21
7.995
 31
0.0
  0
LINE
  5
41F
330
18
100
AcDbEntity
  8
Object
100
AcDbLine
 10
9.008
 20
7.995
 30
0.0
 11
9.000999999999999
 21
7.939
 31
0.0
  0
LINE
  5
420
330
18
100
AcDbEntity
  8
Object
100
AcDbLine
 10
9.602999999999999
 20
8.189
 30
0.0
 11
9.250999999999999
 21
8.189
 31
0.0
  0
LINE
  5
421
330
18
100
AcDbEntity
  8
Object
100
AcDbLine
 10
9.958
 20
7.233
 30
0.0
 11
9.951
 21
7.211
 31
0.0
  0
LINE
  5
422
330
18
100
AcDbEntity
  8
Object
100
AcDbLine
 10
9.951
 20
7.211
 30
0.0
 11
9.955
 21
7.189
 31
0.0
  0
LINE
  5
423
330
18
100
AcDbEntity
  8
Object
100
AcDbLine
 10
9.955
 20
7.189
 30
0.0
 11
9.971
 21
7.171
 31
0.0
  0
LINE
  5
424
330
18
100
AcDbEntity
  8
Object
100
AcDbLine
 10
9.000999999999999
 20
7.939
 30
0.0
 11
9.000999999999999
 21
5.062999999999999
 31
0.0
  0
LINE
  5
425
330
18
100
AcDbEntity
  8
Object
100
AcDbLine
 10
9.971
 20
7.171
 30
0.0
 11
9.993
 21
7.163
 31
0.0
  0
LINE
  5
426
330
18
100
AcDbEntity
  8
Object
100
AcDbLine
 10
9.993
 20
7.163
 30
0.0
 11
9.996
 21
7.163
 31
0.0
  0
LINE
  5
427
330
18
100
AcDbEntity
  8
Object
100
AcDbLine
 10
9.996
 20
7.163
 30
0.0
 11
9.8
 21
4.360999999999999
 31
0.0
  0
LINE
  5
428
330
18
100
AcDbEntity
  8
Object
100
AcDbLine
 10
9.8
 20
4.360999999999999
 30
0.0
 11
9.797
 21
4.362
 31
0.0
  0
LINE
  5
429
330
18
100
AcDbEntity
  8
Object
100
AcDbLine
 10
9.000999999999999
 20
5.062999999999999
 30
0.0
 11
8.993
 21
4.951999999999999
 31
0.0
  0
LINE
  5
42A
330
18
100
AcDbEntity
  8
Object
100
AcDbLine
 10
9.774
 20
4.357
 30
0.0
 11
9.797
 21
4.362
 31
0.0
  0
LINE
  5
42B
330
18
100
AcDbEntity
  8
Object
100
AcDbLine
 10
8.993
 20
4.951999999999999
 30
0.0
 11
8.97
 21
4.844
 31
0.0
  0
LINE
  5
42C
330
18
100
AcDbEntity
  8
Object
100
AcDbLine
 10
8.97
 20
4.844
 30
0.0
 11
8.931
 21
4.738999999999999
 31
0.0
  0
LINE
  5
42D
330
18
100
AcDbEntity
  8
Object
100
AcDbLine
 10
9.774
 20
4.357
 30
0.0
 11
9.756
 21
4.342
 31
0.0
  0
LINE
  5
42E
330
18
100
AcDbEntity
  8
Object
100
AcDbLine
 10
9.756
 20
4.342
 30
0.0
 11
9.749
 21
4.32
 31
0.0
  0
LINE
  5
42F
330
18
100
AcDbEntity
  8
Object
100
AcDbLine
 10
8.931
 20
4.738999999999999
 30
0.0
 11
8.878
 21
4.642
 31
0.0
  0
LINE
  5
430
330
18
100
AcDbEntity
  8
Object
100
AcDbLine
 10
9.358999999999999
 20
3.705
 30
0.0
 11
8.820999999999999
 21
3.705
 31
0.0
  0
LINE
  5
431
330
18
100
AcDbEntity
  8
Object
100
AcDbLine
 10
8.820999999999999
 20
3.705
 30
0.0
 11
8.820999999999999
 21
3.738999999999999
 31
0.0
  0
LINE
  5
432
330
18
100
AcDbEntity
  8
Object
100
AcDbLine
 10
8.820999999999999
 20
3.738999999999999
 30
0.0
 11
8.814999999999999
 21
3.761
 31
0.0
  0
LINE
  5
433
330
18
100
AcDbEntity
  8
Object
100
AcDbLine
 10
8.878
 20
4.642
 30
0.0
 11
8.810999999999999
 21
4.552
 31
0.0
  0
LINE
  5
434
330
18
100
AcDbEntity
  8
Object
100
AcDbLine
 10
9.753
 20
4.296999999999999
 30
0.0
 11
9.749
 21
4.32
 31
0.0
  0
LINE
  5
435
330
18
100
AcDbEntity
  8
Object
100
AcDbLine
 10
8.798999999999999
 20
3.778
 30
0.0
 11
8.814999999999999
 21
3.761
 31
0.0
  0
LINE
  5
436
330
18
100
AcDbEntity
  8
Object
100
AcDbLine
 10
8.810999999999999
 20
4.552
 30
0.0
 11
8.731999999999999
 21
4.474
 31
0.0
  0
LINE
  5
437
330
18
100
AcDbEntity
  8
Object
100
AcDbLine
 10
8.775999999999999
 20
3.784
 30
0.0
 11
8.798999999999999
 21
3.778
 31
0.0
  0
LINE
  5
438
330
18
100
AcDbEntity
  8
Object
100
AcDbLine
 10
8.731999999999999
 20
4.474
 30
0.0
 11
8.643
 21
4.407
 31
0.0
  0
LINE
  5
439
330
18
100
AcDbEntity
  8
Object
100
AcDbLine
 10
8.643
 20
4.407
 30
0.0
 11
8.544999999999999
 21
4.354
 31
0.0
  0
LINE
  5
43A
330
18
100
AcDbEntity
  8
Object
100
AcDbLine
 10
8.753999999999999
 20
3.778
 30
0.0
 11
8.775999999999999
 21
3.784
 31
0.0
  0
LINE
  5
43B
330
18
100
AcDbEntity
  8
Object
100
AcDbLine
 10
8.544999999999999
 20
4.354
 30
0.0
 11
8.441
 21
4.315
 31
0.0
  0
LINE
  5
43C
330
18
100
AcDbEntity
  8
Object
100
AcDbLine
 10
8.737
 20
3.761
 30
0.0
 11
8.753999999999999
 21
3.778
 31
0.0
  0
LINE
  5
43D
330
18
100
AcDbEntity
  8
Object
100
AcDbLine
 10
8.441
 20
4.315
 30
0.0
 11
8.332
 21
4.291
 31
0.0
  0
LINE
  5
43E
330
18
100
AcDbEntity
  8
Object
100
AcDbLine
 10
8.730999999999999
 20
3.738999999999999
 30
0.0
 11
8.730999999999999
 21
3.736
 31
0.0
  0
LINE
  5
43F
330
18
100
AcDbEntity
  8
Object
100
AcDbLine
 10
8.730999999999999
 20
3.736
 30
0.0
 11
8.080999999999999
 21
3.736
 31
0.0
  0
LINE
  5
440
330
18
100
AcDbEntity
  8
Object
100
AcDbLine
 10
8.080999999999999
 20
3.736
 30
0.0
 11
8.080999999999999
 21
3.738999999999999
 31
0.0
  0
LINE
  5
441
330
18
100
AcDbEntity
  8
Object
100
AcDbLine
 10
8.730999999999999
 20
3.738999999999999
 30
0.0
 11
8.737
 21
3.761
 31
0.0
  0
LINE
  5
442
330
18
100
AcDbEntity
  8
Object
100
AcDbLine
 10
8.074999999999999
 20
3.761
 30
0.0
 11
8.080999999999999
 21
3.738999999999999
 31
0.0
  0
LINE
  5
443
330
18
100
AcDbEntity
  8
Object
100
AcDbLine
 10
8.109999999999999
 20
4.291
 30
0.0
 11
8.221
 21
4.283
 31
0.0
  0
LINE
  5
444
330
18
100
AcDbEntity
  8
Object
100
AcDbLine
 10
8.221
 20
4.283
 30
0.0
 11
8.332
 21
4.291
 31
0.0
  0
LINE
  5
445
330
18
100
AcDbEntity
  8
Object
100
AcDbLine
 10
8.074999999999999
 20
3.761
 30
0.0
 11
8.059000000000001
 21
3.778
 31
0.0
  0
LINE
  5
446
330
18
100
AcDbEntity
  8
Object
100
AcDbLine
 10
8.059000000000001
 20
3.778
 30
0.0
 11
8.035999999999999
 21
3.784
 31
0.0
  0
LINE
  5
447
330
18
100
AcDbEntity
  8
Object
100
AcDbLine
 10
8.035999999999999
 20
3.784
 30
0.0
 11
8.013999999999999
 21
3.778
 31
0.0
  0
LINE
  5
448
330
18
100
AcDbEntity
  8
Object
100
AcDbLine
 10
8.109999999999999
 20
4.291
 30
0.0
 11
8.002
 21
4.315
 31
0.0
  0
LINE
  5
449
330
18
100
AcDbEntity
  8
Object
100
AcDbLine
 10
8.002
 20
4.315
 30
0.0
 11
7.897
 21
4.354
 31
0.0
  0
LINE
  5
44A
330
18
100
AcDbEntity
  8
Object
100
AcDbLine
 10
8.013999999999999
 20
3.778
 30
0.0
 11
7.996999999999999
 21
3.761
 31
0.0
  0
LINE
  5
44B
330
18
100
AcDbEntity
  8
Object
100
AcDbLine
 10
7.996999999999999
 20
3.761
 30
0.0
 11
7.991
 21
3.738999999999999
 31
0.0
  0
LINE
  5
44C
330
18
100
AcDbEntity
  8
Object
100
AcDbLine
 10
7.991
 20
3.738999999999999
 30
0.0
 11
7.991
 21
3.705
 31
0.0
  0
LINE
  5
44D
330
18
100
AcDbEntity
  8
Object
100
AcDbLine
 10
7.991
 20
3.705
 30
0.0
 11
7.498
 21
3.705
 31
0.0
  0
LINE
  5
44E
330
18
100
AcDbEntity
  8
Object
100
AcDbLine
 10
7.498
 20
3.705
 30
0.0
 11
7.498
 21
4.004999999999999
 31
0.0
  0
LINE
  5
44F
330
18
100
AcDbEntity
  8
Object
100
AcDbLine
 10
7.498
 20
4.004999999999999
 30
0.0
 11
7.491999999999999
 21
4.027
 31
0.0
  0
LINE
  5
450
330
18
100
AcDbEntity
  8
Object
100
AcDbLine
 10
7.897
 20
4.354
 30
0.0
 11
7.799999999999999
 21
4.407
 31
0.0
  0
LINE
  5
451
330
18
100
AcDbEntity
  8
Object
100
AcDbLine
 10
7.799999999999999
 20
4.407
 30
0.0
 11
7.709999999999999
 21
4.474
 31
0.0
  0
LINE
  5
452
330
18
100
AcDbEntity
  8
Object
100
AcDbLine
 10
7.491999999999999
 20
4.027
 30
0.0
 11
7.475999999999999
 21
4.044
 31
0.0
  0
LINE
  5
453
330
18
100
AcDbEntity
  8
Object
100
AcDbLine
 10
7.475999999999999
 20
4.044
 30
0.0
 11
7.453
 21
4.049999999999999
 31
0.0
  0
LINE
  5
454
330
18
100
AcDbEntity
  8
Object
100
AcDbLine
 10
7.709999999999999
 20
4.474
 30
0.0
 11
7.632
 21
4.552
 31
0.0
  0
LINE
  5
455
330
18
100
AcDbEntity
  8
Object
100
AcDbLine
 10
7.431
 20
4.044
 30
0.0
 11
7.453
 21
4.049999999999999
 31
0.0
  0
LINE
  5
456
330
18
100
AcDbEntity
  8
Object
100
AcDbLine
 10
7.299999999999999
 20
8.163999999999999
 30
0.0
 11
7.246999999999999
 21
8.182999999999999
 31
0.0
  0
LINE
  5
457
330
18
100
AcDbEntity
  8
Object
100
AcDbLine
 10
7.246999999999999
 20
8.182999999999999
 30
0.0
 11
7.190999999999999
 21
8.189
 31
0.0
  0
LINE
  5
458
330
18
100
AcDbEntity
  8
Object
100
AcDbLine
 10
7.299999999999999
 20
8.163999999999999
 30
0.0
 11
7.347
 21
8.134999999999999
 31
0.0
  0
LINE
  5
459
330
18
100
AcDbEntity
  8
Object
100
AcDbLine
 10
7.347
 20
8.134999999999999
 30
0.0
 11
7.387
 21
8.095
 31
0.0
  0
LINE
  5
45A
330
18
100
AcDbEntity
  8
Object
100
AcDbLine
 10
7.387
 20
8.095
 30
0.0
 11
7.416
 21
8.048
 31
0.0
  0
LINE
  5
45B
330
18
100
AcDbEntity
  8
Object
100
AcDbLine
 10
7.416
 20
8.048
 30
0.0
 11
7.435
 21
7.995
 31
0.0
  0
LINE
  5
45C
330
18
100
AcDbEntity
  8
Object
100
AcDbLine
 10
7.435
 20
7.995
 30
0.0
 11
7.440999999999999
 21
7.939
 31
0.0
  0
LINE
  5
45D
330
18
100
AcDbEntity
  8
Object
100
AcDbLine
 10
7.512
 20
4.738999999999999
 30
0.0
 11
7.565
 21
4.642
 31
0.0
  0
LINE
  5
45E
330
18
100
AcDbEntity
  8
Object
100
AcDbLine
 10
7.565
 20
4.642
 30
0.0
 11
7.632
 21
4.552
 31
0.0
  0
LINE
  5
45F
330
18
100
AcDbEntity
  8
Object
100
AcDbLine
 10
6.876999999999999
 20
4.524
 30
0.0
 11
6.87
 21
4.475999999999999
 31
0.0
  0
LINE
  5
460
330
18
100
AcDbEntity
  8
Object
100
AcDbLine
 10
7.512
 20
4.738999999999999
 30
0.0
 11
7.472999999999999
 21
4.844
 31
0.0
  0
LINE
  5
461
330
18
100
AcDbEntity
  8
Object
100
AcDbLine
 10
6.876999999999999
 20
4.524
 30
0.0
 11
6.87
 21
4.572
 31
0.0
  0
LINE
  5
462
330
18
100
AcDbEntity
  8
Object
100
AcDbLine
 10
6.87
 20
4.572
 30
0.0
 11
6.847
 21
4.615
 31
0.0
  0
LINE
  5
463
330
18
100
AcDbEntity
  8
Object
100
AcDbLine
 10
7.472999999999999
 20
4.844
 30
0.0
 11
7.448999999999999
 21
4.951999999999999
 31
0.0
  0
LINE
  5
464
330
18
100
AcDbEntity
  8
Object
100
AcDbLine
 10
6.87
 20
4.475999999999999
 30
0.0
 11
6.847
 21
4.432
 31
0.0
  0
LINE
  5
465
330
18
100
AcDbEntity
  8
Object
100
AcDbLine
 10
7.414
 20
4.027
 30
0.0
 11
7.431
 21
4.044
 31
0.0
  0
LINE
  5
466
330
18
100
AcDbEntity
  8
Object
100
AcDbLine
 10
7.448999999999999
 20
4.951999999999999
 30
0.0
 11
7.440999999999999
 21
5.062999999999999
 31
0.0
  0
LINE
  5
467
330
18
100
AcDbEntity
  8
Object
100
AcDbLine
 10
6.812999999999999
 20
4.65
 30
0.0
 11
6.847
 21
4.615
 31
0.0
  0
LINE
  5
468
330
18
100
AcDbEntity
  8
Object
100
AcDbLine
 10
7.408
 20
4.004999999999999
 30
0.0
 11
7.414
 21
4.027
 31
0.0
  0
LINE
  5
469
330
18
100
AcDbEntity
  8
Object
100
AcDbLine
 10
6.847
 20
4.432
 30
0.0
 11
6.812999999999999
 21
4.397999999999999
 31
0.0
  0
LINE
  5
46A
330
18
100
AcDbEntity
  8
Object
100
AcDbLine
 10
6.769
 20
4.671999999999999
 30
0.0
 11
6.812999999999999
 21
4.65
 31
0.0
  0
LINE
  5
46B
330
18
100
AcDbEntity
  8
Object
100
AcDbLine
 10
6.812999999999999
 20
4.397999999999999
 30
0.0
 11
6.769
 21
4.375
 31
0.0
  0
LINE
  5
46C
330
18
100
AcDbEntity
  8
Object
100
AcDbLine
 10
7.408
 20
4.001999999999999
 30
0.0
 11
7.408
 21
4.004999999999999
 31
0.0
  0
LINE
  5
46D
330
18
100
AcDbEntity
  8
Object
100
AcDbLine
 10
6.721
 20
4.679999999999999
 30
0.0
 11
6.769
 21
4.671999999999999
 31
0.0
  0
LINE
  5
46E
330
18
100
AcDbEntity
  8
Object
100
AcDbLine
 10
6.769
 20
4.375
 30
0.0
 11
6.721
 21
4.368
 31
0.0
  0
LINE
  5
46F
330
18
100
AcDbEntity
  8
Object
100
AcDbLine
 10
6.142999999999999
 20
8.163999999999999
 30
0.0
 11
6.195999999999999
 21
8.182999999999999
 31
0.0
  0
LINE
  5
470
330
18
100
AcDbEntity
  8
Object
100
AcDbLine
 10
6.195999999999999
 20
8.182999999999999
 30
0.0
 11
6.251
 21
8.189
 31
0.0
  0
LINE
  5
471
330
18
100
AcDbEntity
  8
Object
100
AcDbLine
 10
6.142999999999999
 20
8.163999999999999
 30
0.0
 11
6.094999999999999
 21
8.134999999999999
 31
0.0
  0
LINE
  5
472
330
18
100
AcDbEntity
  8
Object
100
AcDbLine
 10
6.094999999999999
 20
8.134999999999999
 30
0.0
 11
6.056
 21
8.095
 31
0.0
  0
LINE
  5
473
330
18
100
AcDbEntity
  8
Object
100
AcDbLine
 10
6.673
 20
4.375
 30
0.0
 11
6.629999999999999
 21
4.397999999999999
 31
0.0
  0
LINE
  5
474
330
18
100
AcDbEntity
  8
Object
100
AcDbLine
 10
6.033999999999999
 20
4.001999999999999
 30
0.0
 11
7.408
 21
4.001999999999999
 31
0.0
  0
LINE
  5
475
330
18
100
AcDbEntity
  8
Object
100
AcDbLine
 10
6.721
 20
4.368
 30
0.0
 11
6.673
 21
4.375
 31
0.0
  0
LINE
  5
476
330
18
100
AcDbEntity
  8
Object
100
AcDbLine
 10
6.033999999999999
 20
4.001999999999999
 30
0.0
 11
6.033999999999999
 21
4.004999999999999
 31
0.0
  0
LINE
  5
477
330
18
100
AcDbEntity
  8
Object
100
AcDbLine
 10
6.033999999999999
 20
4.004999999999999
 30
0.0
 11
6.028
 21
4.027
 31
0.0
  0
LINE
  5
478
330
18
100
AcDbEntity
  8
Object
100
AcDbLine
 10
6.629999999999999
 20
4.397999999999999
 30
0.0
 11
6.594999999999999
 21
4.432
 31
0.0
  0
LINE
  5
479
330
18
100
AcDbEntity
  8
Object
100
AcDbLine
 10
6.056
 20
8.095
 30
0.0
 11
6.025999999999999
 21
8.048
 31
0.0
  0
LINE
  5
47A
330
18
100
AcDbEntity
  8
Object
100
AcDbLine
 10
6.594999999999999
 20
4.432
 30
0.0
 11
6.573
 21
4.475999999999999
 31
0.0
  0
LINE
  5
47B
330
18
100
AcDbEntity
  8
Object
100
AcDbLine
 10
6.012
 20
4.044
 30
0.0
 11
6.028
 21
4.027
 31
0.0
  0
LINE
  5
47C
330
18
100
AcDbEntity
  8
Object
100
AcDbLine
 10
6.025999999999999
 20
8.048
 30
0.0
 11
6.007
 21
7.995
 31
0.0
  0
LINE
  5
47D
330
18
100
AcDbEntity
  8
Object
100
AcDbLine
 10
6.007
 20
7.995
 30
0.0
 11
6.001
 21
7.939
 31
0.0
  0
LINE
  5
47E
330
18
100
AcDbEntity
  8
Object
100
AcDbLine
 10
7.190999999999999
 20
8.189
 30
0.0
 11
6.251
 21
8.189
 31
0.0
  0
LINE
  5
47F
330
18
100
AcDbEntity
  8
Object
100
AcDbLine
 10
6.001
 20
7.939
 30
0.0
 11
6.001
 21
5.062999999999999
 31
0.0
  0
LINE
  5
480
330
18
100
AcDbEntity
  8
Object
100
AcDbLine
 10
7.440999999999999
 20
5.062999999999999
 30
0.0
 11
7.440999999999999
 21
7.939
 31
0.0
  0
LINE
  5
481
330
18
100
AcDbEntity
  8
Object
100
AcDbLine
 10
6.721
 20
4.679999999999999
 30
0.0
 11
6.673
 21
4.671999999999999
 31
0.0
  0
LINE
  5
482
330
18
100
AcDbEntity
  8
Object
100
AcDbLine
 10
6.673
 20
4.671999999999999
 30
0.0
 11
6.629999999999999
 21
4.65
 31
0.0
  0
LINE
  5
483
330
18
100
AcDbEntity
  8
Object
100
AcDbLine
 10
6.629999999999999
 20
4.65
 30
0.0
 11
6.594999999999999
 21
4.615
 31
0.0
  0
LINE
  5
484
330
18
100
AcDbEntity
  8
Object
100
AcDbLine
 10
6.001
 20
5.062999999999999
 30
0.0
 11
5.993
 21
4.951999999999999
 31
0.0
  0
LINE
  5
485
330
18
100
AcDbEntity
  8
Object
100
AcDbLine
 10
5.993
 20
4.951999999999999
 30
0.0
 11
5.969999999999999
 21
4.844
 31
0.0
  0
LINE
  5
486
330
18
100
AcDbEntity
  8
Object
100
AcDbLine
 10
6.594999999999999
 20
4.615
 30
0.0
 11
6.573
 21
4.572
 31
0.0
  0
LINE
  5
487
330
18
100
AcDbEntity
  8
Object
100
AcDbLine
 10
6.573
 20
4.572
 30
0.0
 11
6.565
 21
4.524
 31
0.0
  0
LINE
  5
488
330
18
100
AcDbEntity
  8
Object
100
AcDbLine
 10
5.969999999999999
 20
4.844
 30
0.0
 11
5.931
 21
4.738999999999999
 31
0.0
  0
LINE
  5
489
330
18
100
AcDbEntity
  8
Object
100
AcDbLine
 10
5.931
 20
4.738999999999999
 30
0.0
 11
5.876999999999999
 21
4.642
 31
0.0
  0
LINE
  5
48A
330
18
100
AcDbEntity
  8
Object
100
AcDbLine
 10
6.573
 20
4.475999999999999
 30
0.0
 11
6.565
 21
4.524
 31
0.0
  0
LINE
  5
48B
330
18
100
AcDbEntity
  8
Object
100
AcDbLine
 10
5.876999999999999
 20
4.642
 30
0.0
 11
5.810999999999999
 21
4.552
 31
0.0
  0
LINE
  5
48C
330
18
100
AcDbEntity
  8
Object
100
AcDbLine
 10
6.012
 20
4.044
 30
0.0
 11
5.988999999999999
 21
4.049999999999999
 31
0.0
  0
LINE
  5
48D
330
18
100
AcDbEntity
  8
Object
100
AcDbLine
 10
5.988999999999999
 20
4.049999999999999
 30
0.0
 11
5.967
 21
4.044
 31
0.0
  0
LINE
  5
48E
330
18
100
AcDbEntity
  8
Object
100
AcDbLine
 10
5.810999999999999
 20
4.552
 30
0.0
 11
5.732
 21
4.474
 31
0.0
  0
LINE
  5
48F
330
18
100
AcDbEntity
  8
Object
100
AcDbLine
 10
5.732
 20
4.474
 30
0.0
 11
5.642999999999999
 21
4.407
 31
0.0
  0
LINE
  5
490
330
18
100
AcDbEntity
  8
Object
100
AcDbLine
 10
5.967
 20
4.044
 30
0.0
 11
5.95
 21
4.027
 31
0.0
  0
LINE
  5
491
330
18
100
AcDbEntity
  8
Object
100
AcDbLine
 10
5.95
 20
4.027
 30
0.0
 11
5.943999999999999
 21
4.004999999999999
 31
0.0
  0
LINE
  5
492
330
18
100
AcDbEntity
  8
Object
100
AcDbLine
 10
5.642999999999999
 20
4.407
 30
0.0
 11
5.544999999999999
 21
4.354
 31
0.0
  0
LINE
  5
493
330
18
100
AcDbEntity
  8
Object
100
AcDbLine
 10
5.943999999999999
 20
3.705
 30
0.0
 11
5.451
 21
3.705
 31
0.0
  0
LINE
  5
494
330
18
100
AcDbEntity
  8
Object
100
AcDbLine
 10
5.451
 20
3.705
 30
0.0
 11
5.451
 21
3.738999999999999
 31
0.0
  0
LINE
  5
495
330
18
100
AcDbEntity
  8
Object
100
AcDbLine
 10
5.943999999999999
 20
3.705
 30
0.0
 11
5.943999999999999
 21
4.004999999999999
 31
0.0
  0
LINE
  5
496
330
18
100
AcDbEntity
  8
Object
100
AcDbLine
 10
5.445
 20
3.761
 30
0.0
 11
5.451
 21
3.738999999999999
 31
0.0
  0
LINE
  5
497
330
18
100
AcDbEntity
  8
Object
100
AcDbLine
 10
5.544999999999999
 20
4.354
 30
0.0
 11
5.440999999999999
 21
4.315
 31
0.0
  0
LINE
  5
498
330
18
100
AcDbEntity
  8
Object
100
AcDbLine
 10
5.445
 20
3.761
 30
0.0
 11
5.429
 21
3.778
 31
0.0
  0
LINE
  5
499
330
18
100
AcDbEntity
  8
Object
100
AcDbLine
 10
5.429
 20
3.778
 30
0.0
 11
5.405999999999999
 21
3.784
 31
0.0
  0
LINE
  5
49A
330
18
100
AcDbEntity
  8
Object
100
AcDbLine
 10
5.405999999999999
 20
3.784
 30
0.0
 11
5.384
 21
3.778
 31
0.0
  0
LINE
  5
49B
330
18
100
AcDbEntity
  8
Object
100
AcDbLine
 10
5.440999999999999
 20
4.315
 30
0.0
 11
5.331999999999999
 21
4.291
 31
0.0
  0
LINE
  5
49C
330
18
100
AcDbEntity
  8
Object
100
AcDbLine
 10
5.331999999999999
 20
4.291
 30
0.0
 11
5.221
 21
4.283
 31
0.0
  0
LINE
  5
49D
330
18
100
AcDbEntity
  8
Object
100
AcDbLine
 10
5.221
 20
4.283
 30
0.0
 11
5.11
 21
4.291
 31
0.0
  0
LINE
  5
49E
330
18
100
AcDbEntity
  8
Object
100
AcDbLine
 10
5.366999999999999
 20
3.761
 30
0.0
 11
5.384
 21
3.778
 31
0.0
  0
LINE
  5
49F
330
18
100
AcDbEntity
  8
Object
100
AcDbLine
 10
5.360999999999999
 20
3.738999999999999
 30
0.0
 11
5.360999999999999
 21
3.736
 31
0.0
  0
LINE
  5
4A0
330
18
100
AcDbEntity
  8
Object
100
AcDbLine
 10
5.360999999999999
 20
3.736
 30
0.0
 11
4.711
 21
3.736
 31
0.0
  0
LINE
  5
4A1
330
18
100
AcDbEntity
  8
Object
100
AcDbLine
 10
4.711
 20
3.736
 30
0.0
 11
4.711
 21
3.738999999999999
 31
0.0
  0
LINE
  5
4A2
330
18
100
AcDbEntity
  8
Object
100
AcDbLine
 10
5.360999999999999
 20
3.738999999999999
 30
0.0
 11
5.366999999999999
 21
3.761
 31
0.0
  0
LINE
  5
4A3
330
18
100
AcDbEntity
  8
Object
100
AcDbLine
 10
4.711
 20
3.738999999999999
 30
0.0
 11
4.705
 21
3.761
 31
0.0
  0
LINE
  5
4A4
330
18
100
AcDbEntity
  8
Object
100
AcDbLine
 10
4.705
 20
3.761
 30
0.0
 11
4.689
 21
3.778
 31
0.0
  0
LINE
  5
4A5
330
18
100
AcDbEntity
  8
Object
100
AcDbLine
 10
4.897
 20
4.354
 30
0.0
 11
5.001
 21
4.315
 31
0.0
  0
LINE
  5
4A6
330
18
100
AcDbEntity
  8
Object
100
AcDbLine
 10
5.001
 20
4.315
 30
0.0
 11
5.11
 21
4.291
 31
0.0
  0
LINE
  5
4A7
330
18
100
AcDbEntity
  8
Object
100
AcDbLine
 10
4.897
 20
4.354
 30
0.0
 11
4.799
 21
4.407
 31
0.0
  0
LINE
  5
4A8
330
18
100
AcDbEntity
  8
Object
100
AcDbLine
 10
4.689
 20
3.778
 30
0.0
 11
4.666
 21
3.784
 31
0.0
  0
LINE
  5
4A9
330
18
100
AcDbEntity
  8
Object
100
AcDbLine
 10
4.666
 20
3.784
 30
0.0
 11
4.644
 21
3.778
 31
0.0
  0
LINE
  5
4AA
330
18
100
AcDbEntity
  8
Object
100
AcDbLine
 10
4.799
 20
4.407
 30
0.0
 11
4.709999999999999
 21
4.474
 31
0.0
  0
LINE
  5
4AB
330
18
100
AcDbEntity
  8
Object
100
AcDbLine
 10
4.190999999999999
 20
8.189
 30
0.0
 11
4.246999999999999
 21
8.182999999999999
 31
0.0
  0
LINE
  5
4AC
330
18
100
AcDbEntity
  8
Object
100
AcDbLine
 10
4.246999999999999
 20
8.182999999999999
 30
0.0
 11
4.299999999999999
 21
8.163999999999999
 31
0.0
  0
LINE
  5
4AD
330
18
100
AcDbEntity
  8
Object
100
AcDbLine
 10
4.299999999999999
 20
8.163999999999999
 30
0.0
 11
4.347
 21
8.134999999999999
 31
0.0
  0
LINE
  5
4AE
330
18
100
AcDbEntity
  8
Object
100
AcDbLine
 10
4.347
 20
8.134999999999999
 30
0.0
 11
4.387
 21
8.095
 31
0.0
  0
LINE
  5
4AF
330
18
100
AcDbEntity
  8
Object
100
AcDbLine
 10
4.387
 20
8.095
 30
0.0
 11
4.416
 21
8.048
 31
0.0
  0
LINE
  5
4B0
330
18
100
AcDbEntity
  8
Object
100
AcDbLine
 10
4.416
 20
8.048
 30
0.0
 11
4.435
 21
7.995
 31
0.0
  0
LINE
  5
4B1
330
18
100
AcDbEntity
  8
Object
100
AcDbLine
 10
4.435
 20
7.995
 30
0.0
 11
4.440999999999999
 21
7.939
 31
0.0
  0
LINE
  5
4B2
330
18
100
AcDbEntity
  8
Object
100
AcDbLine
 10
4.644
 20
3.778
 30
0.0
 11
4.626999999999999
 21
3.761
 31
0.0
  0
LINE
  5
4B3
330
18
100
AcDbEntity
  8
Object
100
AcDbLine
 10
4.626999999999999
 20
3.761
 30
0.0
 11
4.621
 21
3.738999999999999
 31
0.0
  0
LINE
  5
4B4
330
18
100
AcDbEntity
  8
Object
100
AcDbLine
 10
4.621
 20
3.738999999999999
 30
0.0
 11
4.621
 21
3.705
 31
0.0
  0
LINE
  5
4B5
330
18
100
AcDbEntity
  8
Object
100
AcDbLine
 10
4.621
 20
3.705
 30
0.0
 11
4.083
 21
3.705
 31
0.0
  0
LINE
  5
4B6
330
18
100
AcDbEntity
  8
Object
100
AcDbLine
 10
4.190999999999999
 20
8.189
 30
0.0
 11
3.839
 21
8.189
 31
0.0
  0
LINE
  5
4B7
330
18
100
AcDbEntity
  8
Object
100
AcDbLine
 10
4.631999999999999
 20
4.552
 30
0.0
 11
4.565
 21
4.642
 31
0.0
  0
LINE
  5
4B8
330
18
100
AcDbEntity
  8
Object
100
AcDbLine
 10
3.693999999999999
 20
4.32
 30
0.0
 11
3.689
 21
4.296999999999999
 31
0.0
  0
LINE
  5
4B9
330
18
100
AcDbEntity
  8
Object
100
AcDbLine
 10
4.709999999999999
 20
4.474
 30
0.0
 11
4.631999999999999
 21
4.552
 31
0.0
  0
LINE
  5
4BA
330
18
100
AcDbEntity
  8
Object
100
AcDbLine
 10
4.083
 20
3.705
 30
0.0
 11
4.0
 21
3.712
 31
0.0
  0
LINE
  5
4BB
330
18
100
AcDbEntity
  8
Object
100
AcDbLine
 10
4.0
 20
3.712
 30
0.0
 11
3.919
 21
3.732
 31
0.0
  0
LINE
  5
4BC
330
18
100
AcDbEntity
  8
Object
100
AcDbLine
 10
3.919
 20
3.732
 30
0.0
 11
3.842999999999999
 21
3.766
 31
0.0
  0
LINE
  5
4BD
330
18
100
AcDbEntity
  8
Object
100
AcDbLine
 10
3.842999999999999
 20
3.766
 30
0.0
 11
3.774
 21
3.812
 31
0.0
  0
LINE
  5
4BE
330
18
100
AcDbEntity
  8
Object
100
AcDbLine
 10
3.774
 20
3.812
 30
0.0
 11
3.713
 21
3.869
 31
0.0
  0
LINE
  5
4BF
330
18
100
AcDbEntity
  8
Object
100
AcDbLine
 10
3.685999999999999
 20
4.342
 30
0.0
 11
3.693999999999999
 21
4.32
 31
0.0
  0
LINE
  5
4C0
330
18
100
AcDbEntity
  8
Object
100
AcDbLine
 10
4.565
 20
4.642
 30
0.0
 11
4.512
 21
4.738999999999999
 31
0.0
  0
LINE
  5
4C1
330
18
100
AcDbEntity
  8
Object
100
AcDbLine
 10
3.677999999999999
 20
8.163
 30
0.0
 11
3.758
 21
8.182999999999999
 31
0.0
  0
LINE
  5
4C2
330
18
100
AcDbEntity
  8
Object
100
AcDbLine
 10
3.758
 20
8.182999999999999
 30
0.0
 11
3.839
 21
8.189
 31
0.0
  0
LINE
  5
4C3
330
18
100
AcDbEntity
  8
Object
100
AcDbLine
 10
4.448999999999999
 20
4.951999999999999
 30
0.0
 11
4.472999999999999
 21
4.844
 31
0.0
  0
LINE
  5
4C4
330
18
100
AcDbEntity
  8
Object
100
AcDbLine
 10
4.472999999999999
 20
4.844
 30
0.0
 11
4.512
 21
4.738999999999999
 31
0.0
  0
LINE
  5
4C5
330
18
100
AcDbEntity
  8
Object
100
AcDbLine
 10
3.669
 20
4.357
 30
0.0
 11
3.685999999999999
 21
4.342
 31
0.0
  0
LINE
  5
4C6
330
18
100
AcDbEntity
  8
Object
100
AcDbLine
 10
3.661999999999999
 20
3.935
 30
0.0
 11
3.713
 21
3.869
 31
0.0
  0
LINE
  5
4C7
330
18
100
AcDbEntity
  8
Object
100
AcDbLine
 10
3.689
 20
4.296999999999999
 30
0.0
 11
3.673999999999999
 21
4.278999999999999
 31
0.0
  0
LINE
  5
4C8
330
18
100
AcDbEntity
  8
Object
100
AcDbLine
 10
3.645999999999999
 20
4.362
 30
0.0
 11
3.669
 21
4.357
 31
0.0
  0
LINE
  5
4C9
330
18
100
AcDbEntity
  8
Object
100
AcDbLine
 10
4.448999999999999
 20
4.951999999999999
 30
0.0
 11
4.440999999999999
 21
5.062999999999999
 31
0.0
  0
LINE
  5
4CA
330
18
100
AcDbEntity
  8
Object
100
AcDbLine
 10
3.643
 20
4.360999999999999
 30
0.0
 11
3.645999999999999
 21
4.362
 31
0.0
  0
LINE
  5
4CB
330
18
100
AcDbEntity
  8
Object
100
AcDbLine
 10
3.623
 20
4.009
 30
0.0
 11
3.661999999999999
 21
3.935
 31
0.0
  0
LINE
  5
4CC
330
18
100
AcDbEntity
  8
Object
100
AcDbLine
 10
3.677999999999999
 20
8.163
 30
0.0
 11
3.603
 21
8.13
 31
0.0
  0
LINE
  5
4CD
330
18
100
AcDbEntity
  8
Object
100
AcDbLine
 10
3.596999999999999
 20
4.088
 30
0.0
 11
3.623
 21
4.009
 31
0.0
  0
LINE
  5
4CE
330
18
100
AcDbEntity
  8
Object
100
AcDbLine
 10
3.673999999999999
 20
4.278999999999999
 30
0.0
 11
3.652
 21
4.272
 31
0.0
  0
LINE
  5
4CF
330
18
100
AcDbEntity
  8
Object
100
AcDbLine
 10
3.596999999999999
 20
4.088
 30
0.0
 11
3.584
 21
4.169999999999999
 31
0.0
  0
LINE
  5
4D0
330
18
100
AcDbEntity
  8
Object
100
AcDbLine
 10
3.584
 20
4.169999999999999
 30
0.0
 11
3.576999999999999
 21
4.267
 31
0.0
  0
LINE
  5
4D1
330
18
100
AcDbEntity
  8
Object
100
AcDbLine
 10
3.576999999999999
 20
4.267
 30
0.0
 11
3.652
 21
4.272
 31
0.0
  0
LINE
  5
4D2
330
18
100
AcDbEntity
  8
Object
100
AcDbLine
 10
3.603
 20
8.13
 30
0.0
 11
3.534
 21
8.085
 31
0.0
  0
LINE
  5
4D3
330
18
100
AcDbEntity
  8
Object
100
AcDbLine
 10
3.491999999999999
 20
7.211
 30
0.0
 11
3.487
 21
7.189
 31
0.0
  0
LINE
  5
4D4
330
18
100
AcDbEntity
  8
Object
100
AcDbLine
 10
4.440999999999999
 20
5.062999999999999
 30
0.0
 11
4.440999999999999
 21
7.939
 31
0.0
  0
LINE
  5
4D5
330
18
100
AcDbEntity
  8
Object
100
AcDbLine
 10
3.483999999999999
 20
7.233
 30
0.0
 11
3.491999999999999
 21
7.211
 31
0.0
  0
LINE
  5
4D6
330
18
100
AcDbEntity
  8
Object
100
AcDbLine
 10
3.534
 20
8.085
 30
0.0
 11
3.474
 21
8.029999999999999
 31
0.0
  0
LINE
  5
4D7
330
18
100
AcDbEntity
  8
Object
100
AcDbLine
 10
3.487
 20
7.189
 30
0.0
 11
3.471999999999999
 21
7.171
 31
0.0
  0
LINE
  5
4D8
330
18
100
AcDbEntity
  8
Object
100
AcDbLine
 10
3.471999999999999
 20
7.171
 30
0.0
 11
3.45
 21
7.163
 31
0.0
  0
LINE
  5
4D9
330
18
100
AcDbEntity
  8
Object
100
AcDbLine
 10
3.45
 20
7.163
 30
0.0
 11
3.447
 21
7.163
 31
0.0
  0
LINE
  5
4DA
330
18
100
AcDbEntity
  8
Object
100
AcDbLine
 10
3.447
 20
7.163
 30
0.0
 11
3.643
 21
4.360999999999999
 31
0.0
  0
LINE
  5
4DB
330
18
100
AcDbEntity
  8
Object
100
AcDbLine
 10
3.474
 20
8.029999999999999
 30
0.0
 11
3.423
 21
7.966
 31
0.0
  0
LINE
  5
4DC
330
18
100
AcDbEntity
  8
Object
100
AcDbLine
 10
3.423
 20
7.966
 30
0.0
 11
3.383
 21
7.894
 31
0.0
  0
LINE
  5
4DD
330
18
100
AcDbEntity
  8
Object
100
AcDbLine
 10
3.383
 20
7.894
 30
0.0
 11
3.355999999999999
 21
7.817
 31
0.0
  0
LINE
  5
4DE
330
18
100
AcDbEntity
  8
Object
100
AcDbLine
 10
3.355999999999999
 20
7.817
 30
0.0
 11
3.342
 21
7.735999999999999
 31
0.0
  0
LINE
  5
4DF
330
18
100
AcDbEntity
  8
Object
100
AcDbLine
 10
3.483999999999999
 20
7.233
 30
0.0
 11
3.466
 21
7.249
 31
0.0
  0
LINE
  5
4E0
330
18
100
AcDbEntity
  8
Object
100
AcDbLine
 10
3.466
 20
7.249
 30
0.0
 11
3.443999999999999
 21
7.253
 31
0.0
  0
LINE
  5
4E1
330
18
100
AcDbEntity
  8
Object
100
AcDbLine
 10
3.443999999999999
 20
7.253
 30
0.0
 11
3.369
 21
7.248
 31
0.0
  0
LINE
  5
4E2
330
18
100
AcDbEntity
  8
Object
100
AcDbLine
 10
3.369
 20
7.248
 30
0.0
 11
3.341
 21
7.653999999999999
 31
0.0
  0
LINE
  5
4E3
330
18
100
AcDbEntity
  8
Object
100
AcDbLine
 10
3.341
 20
7.653999999999999
 30
0.0
 11
3.342
 21
7.735999999999999
 31
0.0
  0
LINE
  5
4E4
330
18
100
AcDbEntity
  8
Object
100
AcDbLine
 10
4.711
 20
3.738999999999999
 30
0.0
 11
4.705
 21
3.761
 31
0.0
  0
LINE
  5
4E5
330
18
100
AcDbEntity
  8
Object
100
AcDbLine
 10
4.705
 20
3.761
 30
0.0
 11
4.689
 21
3.778
 31
0.0
  0
LINE
  5
4E6
330
18
100
AcDbEntity
  8
Object
100
AcDbLine
 10
4.689
 20
3.778
 30
0.0
 11
4.666
 21
3.784
 31
0.0
  0
LINE
  5
4E7
330
18
100
AcDbEntity
  8
Object
100
AcDbLine
 10
4.666
 20
3.784
 30
0.0
 11
4.644
 21
3.778
 31
0.0
  0
LINE
  5
4E8
330
18
100
AcDbEntity
  8
Object
100
AcDbLine
 10
4.644
 20
3.778
 30
0.0
 11
4.626999999999999
 21
3.761
 31
0.0
  0
LINE
  5
4E9
330
18
100
AcDbEntity
  8
Object
100
AcDbLine
 10
4.626999999999999
 20
3.761
 30
0.0
 11
4.621
 21
3.738999999999999
 31
0.0
  0
LINE
  5
4EA
330
18
100
AcDbEntity
  8
Object
100
AcDbLine
 10
4.711
 20
3.701999999999999
 30
0.0
 11
4.711
 21
3.671
 31
0.0
  0
LINE
  5
4EB
330
18
100
AcDbEntity
  8
Object
100
AcDbLine
 10
5.360999999999999
 20
3.671
 30
0.0
 11
5.360999999999999
 21
3.701999999999999
 31
0.0
  0
LINE
  5
4EC
330
18
100
AcDbEntity
  8
Object
100
AcDbLine
 10
4.711
 20
3.647
 30
0.0
 11
4.711
 21
3.631
 31
0.0
  0
LINE
  5
4ED
330
18
100
AcDbEntity
  8
Object
100
AcDbLine
 10
5.360999999999999
 20
3.647
 30
0.0
 11
5.360999999999999
 21
3.631
 31
0.0
  0
LINE
  5
4EE
330
18
100
AcDbEntity
  8
Object
100
AcDbLine
 10
5.360999999999999
 20
3.631
 30
0.0
 11
5.360999999999999
 21
3.625999999999999
 31
0.0
  0
LINE
  5
4EF
330
18
100
AcDbEntity
  8
Object
100
AcDbLine
 10
5.360999999999999
 20
3.625999999999999
 30
0.0
 11
4.711
 21
3.625999999999999
 31
0.0
  0
LINE
  5
4F0
330
18
100
AcDbEntity
  8
Object
100
AcDbLine
 10
4.711
 20
3.625999999999999
 30
0.0
 11
4.711
 21
3.631
 31
0.0
  0
LINE
  5
4F1
330
18
100
AcDbEntity
  8
Object
100
AcDbLine
 10
5.360999999999999
 20
3.647
 30
0.0
 11
5.360999999999999
 21
3.671
 31
0.0
  0
LINE
  5
4F2
330
18
100
AcDbEntity
  8
Object
100
AcDbLine
 10
4.711
 20
3.671
 30
0.0
 11
4.711
 21
3.647
 31
0.0
  0
LINE
  5
4F3
330
18
100
AcDbEntity
  8
Object
100
AcDbLine
 10
5.360999999999999
 20
3.701999999999999
 30
0.0
 11
5.360999999999999
 21
3.736
 31
0.0
  0
LINE
  5
4F4
330
18
100
AcDbEntity
  8
Object
100
AcDbLine
 10
4.711
 20
3.736
 30
0.0
 11
4.711
 21
3.701999999999999
 31
0.0
  0
LINE
  5
4F5
330
18
100
AcDbEntity
  8
Object
100
AcDbLine
 10
5.360999999999999
 20
3.671
 30
0.0
 11
5.360999999999999
 21
3.701999999999999
 31
0.0
  0
LINE
  5
4F6
330
18
100
AcDbEntity
  8
Object
100
AcDbLine
 10
5.360999999999999
 20
3.701999999999999
 30
0.0
 11
5.360999999999999
 21
3.736
 31
0.0
  0
LINE
  5
4F7
330
18
100
AcDbEntity
  8
Object
100
AcDbLine
 10
5.360999999999999
 20
3.736
 30
0.0
 11
5.360999999999999
 21
3.738999999999999
 31
0.0
  0
LINE
  5
4F8
330
18
100
AcDbEntity
  8
Object
100
AcDbLine
 10
5.360999999999999
 20
3.671
 30
0.0
 11
5.360999999999999
 21
3.647
 31
0.0
  0
LINE
  5
4F9
330
18
100
AcDbEntity
  8
Object
100
AcDbLine
 10
5.360999999999999
 20
3.647
 30
0.0
 11
5.360999999999999
 21
3.631
 31
0.0
  0
LINE
  5
4FA
330
18
100
AcDbEntity
  8
Object
100
AcDbLine
 10
5.360999999999999
 20
3.631
 30
0.0
 11
5.360999999999999
 21
3.625999999999999
 31
0.0
  0
LINE
  5
4FB
330
18
100
AcDbEntity
  8
Object
100
AcDbLine
 10
8.730999999999999
 20
3.671
 30
0.0
 11
8.730999999999999
 21
3.701999999999999
 31
0.0
  0
LINE
  5
4FC
330
18
100
AcDbEntity
  8
Object
100
AcDbLine
 10
8.730999999999999
 20
3.701999999999999
 30
0.0
 11
8.730999999999999
 21
3.736
 31
0.0
  0
LINE
  5
4FD
330
18
100
AcDbEntity
  8
Object
100
AcDbLine
 10
8.730999999999999
 20
3.736
 30
0.0
 11
8.730999999999999
 21
3.738999999999999
 31
0.0
  0
LINE
  5
4FE
330
18
100
AcDbEntity
  8
Object
100
AcDbLine
 10
8.730999999999999
 20
3.671
 30
0.0
 11
8.730999999999999
 21
3.647
 31
0.0
  0
LINE
  5
4FF
330
18
100
AcDbEntity
  8
Object
100
AcDbLine
 10
8.730999999999999
 20
3.647
 30
0.0
 11
8.730999999999999
 21
3.631
 31
0.0
  0
LINE
  5
500
330
18
100
AcDbEntity
  8
Object
100
AcDbLine
 10
8.730999999999999
 20
3.631
 30
0.0
 11
8.730999999999999
 21
3.625999999999999
 31
0.0
  0
LINE
  5
501
330
18
100
AcDbEntity
  8
Object
100
AcDbLine
 10
8.080999999999999
 20
3.738999999999999
 30
0.0
 11
8.074999999999999
 21
3.761
 31
0.0
  0
LINE
  5
502
330
18
100
AcDbEntity
  8
Object
100
AcDbLine
 10
8.074999999999999
 20
3.761
 30
0.0
 11
8.059000000000001
 21
3.778
 31
0.0
  0
LINE
  5
503
330
18
100
AcDbEntity
  8
Object
100
AcDbLine
 10
8.059000000000001
 20
3.778
 30
0.0
 11
8.035999999999999
 21
3.784
 31
0.0
  0
LINE
  5
504
330
18
100
AcDbEntity
  8
Object
100
AcDbLine
 10
8.035999999999999
 20
3.784
 30
0.0
 11
8.013999999999999
 21
3.778
 31
0.0
  0
LINE
  5
505
330
18
100
AcDbEntity
  8
Object
100
AcDbLine
 10
8.013999999999999
 20
3.778
 30
0.0
 11
7.996999999999999
 21
3.761
 31
0.0
  0
LINE
  5
506
330
18
100
AcDbEntity
  8
Object
100
AcDbLine
 10
7.996999999999999
 20
3.761
 30
0.0
 11
7.991
 21
3.738999999999999
 31
0.0
  0
LINE
  5
507
330
18
100
AcDbEntity
  8
Object
100
AcDbLine
 10
3.369
 20
7.248
 30
0.0
 11
3.443999999999999
 21
7.253
 31
0.0
  0
LINE
  5
508
330
18
100
AcDbEntity
  8
Object
100
AcDbLine
 10
6.033999999999999
 20
3.967999999999999
 30
0.0
 11
6.033999999999999
 21
3.937
 31
0.0
  0
LINE
  5
509
330
18
100
AcDbEntity
  8
Object
100
AcDbLine
 10
7.408
 20
3.937
 30
0.0
 11
7.408
 21
3.967999999999999
 31
0.0
  0
LINE
  5
50A
330
18
100
AcDbEntity
  8
Object
100
AcDbLine
 10
6.033999999999999
 20
3.913
 30
0.0
 11
6.033999999999999
 21
3.897
 31
0.0
  0
LINE
  5
50B
330
18
100
AcDbEntity
  8
Object
100
AcDbLine
 10
7.408
 20
3.913
 30
0.0
 11
7.408
 21
3.897
 31
0.0
  0
LINE
  5
50C
330
18
100
AcDbEntity
  8
Object
100
AcDbLine
 10
7.408
 20
3.897
 30
0.0
 11
7.408
 21
3.891999999999999
 31
0.0
  0
LINE
  5
50D
330
18
100
AcDbEntity
  8
Object
100
AcDbLine
 10
7.408
 20
3.891999999999999
 30
0.0
 11
6.033999999999999
 21
3.891999999999999
 31
0.0
  0
LINE
  5
50E
330
18
100
AcDbEntity
  8
Object
100
AcDbLine
 10
6.033999999999999
 20
3.891999999999999
 30
0.0
 11
6.033999999999999
 21
3.897
 31
0.0
  0
LINE
  5
50F
330
18
100
AcDbEntity
  8
Object
100
AcDbLine
 10
7.408
 20
3.913
 30
0.0
 11
7.408
 21
3.937
 31
0.0
  0
LINE
  5
510
330
18
100
AcDbEntity
  8
Object
100
AcDbLine
 10
6.033999999999999
 20
3.937
 30
0.0
 11
6.033999999999999
 21
3.913
 31
0.0
  0
LINE
  5
511
330
18
100
AcDbEntity
  8
Object
100
AcDbLine
 10
7.408
 20
3.967999999999999
 30
0.0
 11
7.408
 21
4.001999999999999
 31
0.0
  0
LINE
  5
512
330
18
100
AcDbEntity
  8
Object
100
AcDbLine
 10
6.033999999999999
 20
4.001999999999999
 30
0.0
 11
6.033999999999999
 21
3.967999999999999
 31
0.0
  0
LINE
  5
513
330
18
100
AcDbEntity
  8
Object
100
AcDbLine
 10
3.645999999999999
 20
4.362
 30
0.0
 11
3.643
 21
4.360999999999999
 31
0.0
  0
LINE
  5
514
330
18
100
AcDbEntity
  8
Object
100
AcDbLine
 10
3.643
 20
4.360999999999999
 30
0.0
 11
3.608999999999999
 21
4.358999999999999
 31
0.0
  0
LINE
  5
515
330
18
100
AcDbEntity
  8
Object
100
AcDbLine
 10
3.608999999999999
 20
4.358999999999999
 30
0.0
 11
3.578
 21
4.357
 31
0.0
  0
LINE
  5
516
330
18
100
AcDbEntity
  8
Object
100
AcDbLine
 10
3.578
 20
4.357
 30
0.0
 11
3.554
 21
4.355
 31
0.0
  0
LINE
  5
517
330
18
100
AcDbEntity
  8
Object
100
AcDbLine
 10
3.554
 20
4.355
 30
0.0
 11
3.538
 21
4.354
 31
0.0
  0
LINE
  5
518
330
18
100
AcDbEntity
  8
Object
100
AcDbLine
 10
3.578
 20
4.357
 30
0.0
 11
3.55
 21
4.355
 31
0.0
  0
LINE
  5
519
330
18
100
AcDbEntity
  8
Object
100
AcDbLine
 10
3.623
 20
4.36
 30
0.0
 11
3.617999999999999
 21
4.358999999999999
 31
0.0
  0
LINE
  5
51A
330
18
100
AcDbEntity
  8
Object
100
AcDbLine
 10
3.532999999999999
 20
4.354
 30
0.0
 11
3.538
 21
4.354
 31
0.0
  0
LINE
  5
51B
330
18
100
AcDbEntity
  8
Object
100
AcDbLine
 10
9.858
 20
4.169999999999999
 30
0.0
 11
9.865
 21
4.267
 31
0.0
  0
LINE
  5
51C
330
18
100
AcDbEntity
  8
Object
100
AcDbLine
 10
5.943999999999999
 20
3.705
 30
0.0
 11
5.451
 21
3.705
 31
0.0
  0
LINE
  5
51D
330
18
100
AcDbEntity
  8
Object
100
AcDbLine
 10
5.451
 20
3.705
 30
0.0
 11
5.451
 21
3.738999999999999
 31
0.0
  0
LINE
  5
51E
330
18
100
AcDbEntity
  8
Object
100
AcDbLine
 10
4.083
 20
3.705
 30
0.0
 11
4.621
 21
3.705
 31
0.0
  0
LINE
  5
51F
330
18
100
AcDbEntity
  8
Object
100
AcDbLine
 10
3.643
 20
4.360999999999999
 30
0.0
 11
3.608999999999999
 21
4.358999999999999
 31
0.0
  0
LINE
  5
520
330
18
100
AcDbEntity
  8
Object
100
AcDbLine
 10
3.608999999999999
 20
4.358999999999999
 30
0.0
 11
3.578
 21
4.357
 31
0.0
  0
LINE
  5
521
330
18
100
AcDbEntity
  8
Object
100
AcDbLine
 10
3.447
 20
7.163
 30
0.0
 11
3.413
 21
7.161
 31
0.0
  0
LINE
  5
522
330
18
100
AcDbEntity
  8
Object
100
AcDbLine
 10
3.413
 20
7.161
 30
0.0
 11
3.382
 21
7.158999999999999
 31
0.0
  0
LINE
  5
523
330
18
100
AcDbEntity
  8
Object
100
AcDbLine
 10
3.578
 20
4.357
 30
0.0
 11
3.554
 21
4.355
 31
0.0
  0
LINE
  5
524
330
18
100
AcDbEntity
  8
Object
100
AcDbLine
 10
3.554
 20
4.355
 30
0.0
 11
3.538
 21
4.354
 31
0.0
  0
LINE
  5
525
330
18
100
AcDbEntity
  8
Object
100
AcDbLine
 10
3.382
 20
7.158999999999999
 30
0.0
 11
3.358
 21
7.157
 31
0.0
  0
LINE
  5
526
330
18
100
AcDbEntity
  8
Object
100
AcDbLine
 10
3.358
 20
7.157
 30
0.0
 11
3.342
 21
7.156
 31
0.0
  0
LINE
  5
527
330
18
100
AcDbEntity
  8
Object
100
AcDbLine
 10
3.538
 20
4.354
 30
0.0
 11
3.532999999999999
 21
4.354
 31
0.0
  0
LINE
  5
528
330
18
100
AcDbEntity
  8
Object
100
AcDbLine
 10
3.532999999999999
 20
4.354
 30
0.0
 11
3.337
 21
7.156
 31
0.0
  0
LINE
  5
529
330
18
100
AcDbEntity
  8
Object
100
AcDbLine
 10
3.337
 20
7.156
 30
0.0
 11
3.342
 21
7.156
 31
0.0
  0
LINE
  5
52A
330
18
100
AcDbEntity
  8
Object
100
AcDbLine
 10
3.45
 20
7.163
 30
0.0
 11
3.447
 21
7.163
 31
0.0
  0
LINE
  5
52B
330
18
100
AcDbEntity
  8
Object
100
AcDbLine
 10
3.447
 20
7.163
 30
0.0
 11
3.437
 21
7.163
 31
0.0
  0
LINE
  5
52C
330
18
100
AcDbEntity
  8
Object
100
AcDbLine
 10
3.437
 20
7.163
 30
0.0
 11
3.43
 21
7.161999999999999
 31
0.0
  0
LINE
  5
52D
330
18
100
AcDbEntity
  8
Object
100
AcDbLine
 10
3.43
 20
7.161999999999999
 30
0.0
 11
3.427
 21
7.161999999999999
 31
0.0
  0
LINE
  5
52E
330
18
100
AcDbEntity
  8
Object
100
AcDbLine
 10
3.447
 20
7.163
 30
0.0
 11
3.413
 21
7.161
 31
0.0
  0
LINE
  5
52F
330
18
100
AcDbEntity
  8
Object
100
AcDbLine
 10
3.413
 20
7.161
 30
0.0
 11
3.382
 21
7.158999999999999
 31
0.0
  0
LINE
  5
530
330
18
100
AcDbEntity
  8
Object
100
AcDbLine
 10
3.382
 20
7.158999999999999
 30
0.0
 11
3.358
 21
7.157
 31
0.0
  0
LINE
  5
531
330
18
100
AcDbEntity
  8
Object
100
AcDbLine
 10
3.358
 20
7.157
 30
0.0
 11
3.342
 21
7.156
 31
0.0
  0
LINE
  5
532
330
18
100
AcDbEntity
  8
Object
100
AcDbLine
 10
3.342
 20
7.156
 30
0.0
 11
3.337
 21
7.156
 31
0.0
  0
LINE
  5
533
330
18
100
AcDbEntity
  8
Object
100
AcDbLine
 10
3.382
 20
7.158999999999999
 30
0.0
 11
3.422
 21
7.161
 31
0.0
  0
LINE
  5
534
330
18
100
AcDbEntity
  8
Object
100
AcDbLine
 10
3.337
 20
7.156
 30
0.0
 11
3.354
 21
7.157
 31
0.0
  0
LINE
  5
535
330
18
100
AcDbEntity
  8
Object
100
AcDbLine
 10
8.820999999999999
 20
3.705
 30
0.0
 11
9.358999999999999
 21
3.705
 31
0.0
  0
LINE
  5
536
330
18
100
AcDbEntity
  8
Object
100
AcDbLine
 10
5.943999999999999
 20
3.705
 30
0.0
 11
5.943999999999999
 21
4.004999999999999
 31
0.0
  0
LINE
  5
537
330
18
100
AcDbEntity
  8
Object
100
AcDbLine
 10
3.341
 20
7.653999999999999
 30
0.0
 11
3.369
 21
7.248
 31
0.0
  0
LINE
  5
538
330
18
100
AcDbEntity
  8
Object
100
AcDbLine
 10
10.102
 20
7.653999999999999
 30
0.0
 11
10.101
 21
7.735999999999999
 31
0.0
  0
LINE
  5
539
330
18
100
AcDbEntity
  8
Object
100
AcDbLine
 10
10.101
 20
7.735999999999999
 30
0.0
 11
10.087
 21
7.817
 31
0.0
  0
LINE
  5
53A
330
18
100
AcDbEntity
  8
Object
100
AcDbLine
 10
10.087
 20
7.817
 30
0.0
 11
10.059
 21
7.894
 31
0.0
  0
LINE
  5
53B
330
18
100
AcDbEntity
  8
Object
100
AcDbLine
 10
10.059
 20
7.894
 30
0.0
 11
10.02
 21
7.966
 31
0.0
  0
LINE
  5
53C
330
18
100
AcDbEntity
  8
Object
100
AcDbLine
 10
10.02
 20
7.966
 30
0.0
 11
9.968999999999999
 21
8.029999999999999
 31
0.0
  0
LINE
  5
53D
330
18
100
AcDbEntity
  8
Object
100
AcDbLine
 10
9.968999999999999
 20
8.029999999999999
 30
0.0
 11
9.907999999999999
 21
8.085
 31
0.0
  0
LINE
  5
53E
330
18
100
AcDbEntity
  8
Object
100
AcDbLine
 10
9.907999999999999
 20
8.085
 30
0.0
 11
9.839
 21
8.13
 31
0.0
  0
LINE
  5
53F
330
18
100
AcDbEntity
  8
Object
100
AcDbLine
 10
9.839
 20
8.13
 30
0.0
 11
9.763999999999999
 21
8.163
 31
0.0
  0
LINE
  5
540
330
18
100
AcDbEntity
  8
Object
100
AcDbLine
 10
9.763999999999999
 20
8.163
 30
0.0
 11
9.685
 21
8.182999999999999
 31
0.0
  0
LINE
  5
541
330
18
100
AcDbEntity
  8
Object
100
AcDbLine
 10
9.685
 20
8.182999999999999
 30
0.0
 11
9.602999999999999
 21
8.189
 31
0.0
  0
LINE
  5
542
330
18
100
AcDbEntity
  8
Object
100
AcDbLine
 10
10.073
 20
7.248
 30
0.0
 11
9.999
 21
7.253
 31
0.0
  0
LINE
  5
543
330
18
100
AcDbEntity
  8
Object
100
AcDbLine
 10
9.999
 20
7.253
 30
0.0
 11
9.976
 21
7.249
 31
0.0
  0
LINE
  5
544
330
18
100
AcDbEntity
  8
Object
100
AcDbLine
 10
9.993
 20
7.163
 30
0.0
 11
9.971
 21
7.171
 31
0.0
  0
LINE
  5
545
330
18
100
AcDbEntity
  8
Object
100
AcDbLine
 10
9.958
 20
7.233
 30
0.0
 11
9.976
 21
7.249
 31
0.0
  0
LINE
  5
546
330
18
100
AcDbEntity
  8
Object
100
AcDbLine
 10
9.971
 20
7.171
 30
0.0
 11
9.955
 21
7.189
 31
0.0
  0
LINE
  5
547
330
18
100
AcDbEntity
  8
Object
100
AcDbLine
 10
9.955
 20
7.189
 30
0.0
 11
9.951
 21
7.211
 31
0.0
  0
LINE
  5
548
330
18
100
AcDbEntity
  8
Object
100
AcDbLine
 10
9.951
 20
7.211
 30
0.0
 11
9.958
 21
7.233
 31
0.0
  0
LINE
  5
549
330
18
100
AcDbEntity
  8
Object
100
AcDbLine
 10
10.105
 20
7.156
 30
0.0
 11
10.1
 21
7.156
 31
0.0
  0
LINE
  5
54A
330
18
100
AcDbEntity
  8
Object
100
AcDbLine
 10
10.1
 20
7.156
 30
0.0
 11
10.084
 21
7.157
 31
0.0
  0
LINE
  5
54B
330
18
100
AcDbEntity
  8
Object
100
AcDbLine
 10
10.084
 20
7.157
 30
0.0
 11
10.06
 21
7.158999999999999
 31
0.0
  0
LINE
  5
54C
330
18
100
AcDbEntity
  8
Object
100
AcDbLine
 10
10.06
 20
7.158999999999999
 30
0.0
 11
10.029
 21
7.161
 31
0.0
  0
LINE
  5
54D
330
18
100
AcDbEntity
  8
Object
100
AcDbLine
 10
10.087
 20
7.157
 30
0.0
 11
10.105
 21
7.156
 31
0.0
  0
LINE
  5
54E
330
18
100
AcDbEntity
  8
Object
100
AcDbLine
 10
10.066
 20
7.158
 30
0.0
 11
10.016
 21
7.161999999999999
 31
0.0
  0
LINE
  5
54F
330
18
100
AcDbEntity
  8
Object
100
AcDbLine
 10
10.016
 20
7.161999999999999
 30
0.0
 11
10.013
 21
7.161999999999999
 31
0.0
  0
LINE
  5
550
330
18
100
AcDbEntity
  8
Object
100
AcDbLine
 10
10.013
 20
7.161999999999999
 30
0.0
 11
10.006
 21
7.163
 31
0.0
  0
LINE
  5
551
330
18
100
AcDbEntity
  8
Object
100
AcDbLine
 10
10.029
 20
7.161
 30
0.0
 11
9.996
 21
7.163
 31
0.0
  0
LINE
  5
552
330
18
100
AcDbEntity
  8
Object
100
AcDbLine
 10
9.996
 20
7.163
 30
0.0
 11
10.006
 21
7.163
 31
0.0
  0
LINE
  5
553
330
18
100
AcDbEntity
  8
Object
100
AcDbLine
 10
9.996
 20
7.163
 30
0.0
 11
9.993
 21
7.163
 31
0.0
  0
LINE
  5
554
330
18
100
AcDbEntity
  8
Object
100
AcDbLine
 10
10.1
 20
7.156
 30
0.0
 11
10.105
 21
7.156
 31
0.0
  0
LINE
  5
555
330
18
100
AcDbEntity
  8
Object
100
AcDbLine
 10
10.105
 20
7.156
 30
0.0
 11
9.909
 21
4.354
 31
0.0
  0
LINE
  5
556
330
18
100
AcDbEntity
  8
Object
100
AcDbLine
 10
10.1
 20
7.156
 30
0.0
 11
10.084
 21
7.157
 31
0.0
  0
LINE
  5
557
330
18
100
AcDbEntity
  8
Object
100
AcDbLine
 10
9.909
 20
4.354
 30
0.0
 11
9.903999999999999
 21
4.354
 31
0.0
  0
LINE
  5
558
330
18
100
AcDbEntity
  8
Object
100
AcDbLine
 10
9.903999999999999
 20
4.354
 30
0.0
 11
9.887999999999999
 21
4.355
 31
0.0
  0
LINE
  5
559
330
18
100
AcDbEntity
  8
Object
100
AcDbLine
 10
10.084
 20
7.157
 30
0.0
 11
10.06
 21
7.158999999999999
 31
0.0
  0
LINE
  5
55A
330
18
100
AcDbEntity
  8
Object
100
AcDbLine
 10
10.06
 20
7.158999999999999
 30
0.0
 11
10.029
 21
7.161
 31
0.0
  0
LINE
  5
55B
330
18
100
AcDbEntity
  8
Object
100
AcDbLine
 10
9.887999999999999
 20
4.355
 30
0.0
 11
9.864
 21
4.357
 31
0.0
  0
LINE
  5
55C
330
18
100
AcDbEntity
  8
Object
100
AcDbLine
 10
9.864
 20
4.357
 30
0.0
 11
9.833999999999999
 21
4.358999999999999
 31
0.0
  0
LINE
  5
55D
330
18
100
AcDbEntity
  8
Object
100
AcDbLine
 10
10.029
 20
7.161
 30
0.0
 11
9.996
 21
7.163
 31
0.0
  0
LINE
  5
55E
330
18
100
AcDbEntity
  8
Object
100
AcDbLine
 10
9.8
 20
4.360999999999999
 30
0.0
 11
9.833999999999999
 21
4.358999999999999
 31
0.0
  0
LINE
  5
55F
330
18
100
AcDbEntity
  8
Object
100
AcDbLine
 10
6.033999999999999
 20
4.004999999999999
 30
0.0
 11
6.033999999999999
 21
4.001999999999999
 31
0.0
  0
LINE
  5
560
330
18
100
AcDbEntity
  8
Object
100
AcDbLine
 10
6.033999999999999
 20
4.001999999999999
 30
0.0
 11
6.033999999999999
 21
3.967999999999999
 31
0.0
  0
LINE
  5
561
330
18
100
AcDbEntity
  8
Object
100
AcDbLine
 10
6.033999999999999
 20
3.967999999999999
 30
0.0
 11
6.033999999999999
 21
3.937
 31
0.0
  0
LINE
  5
562
330
18
100
AcDbEntity
  8
Object
100
AcDbLine
 10
6.033999999999999
 20
3.937
 30
0.0
 11
6.033999999999999
 21
3.913
 31
0.0
  0
LINE
  5
563
330
18
100
AcDbEntity
  8
Object
100
AcDbLine
 10
6.033999999999999
 20
3.891999999999999
 30
0.0
 11
6.033999999999999
 21
3.897
 31
0.0
  0
LINE
  5
564
330
18
100
AcDbEntity
  8
Object
100
AcDbLine
 10
6.033999999999999
 20
3.897
 30
0.0
 11
6.033999999999999
 21
3.913
 31
0.0
  0
LINE
  5
565
330
18
100
AcDbEntity
  8
Object
100
AcDbLine
 10
6.87
 20
4.572
 30
0.0
 11
6.876999999999999
 21
4.524
 31
0.0
  0
LINE
  5
566
330
18
100
AcDbEntity
  8
Object
100
AcDbLine
 10
6.876999999999999
 20
4.524
 30
0.0
 11
6.87
 21
4.475999999999999
 31
0.0
  0
LINE
  5
567
330
18
100
AcDbEntity
  8
Object
100
AcDbLine
 10
6.847
 20
4.615
 30
0.0
 11
6.87
 21
4.572
 31
0.0
  0
LINE
  5
568
330
18
100
AcDbEntity
  8
Object
100
AcDbLine
 10
6.87
 20
4.475999999999999
 30
0.0
 11
6.847
 21
4.432
 31
0.0
  0
LINE
  5
569
330
18
100
AcDbEntity
  8
Object
100
AcDbLine
 10
6.812999999999999
 20
4.65
 30
0.0
 11
6.847
 21
4.615
 31
0.0
  0
LINE
  5
56A
330
18
100
AcDbEntity
  8
Object
100
AcDbLine
 10
6.847
 20
4.432
 30
0.0
 11
6.812999999999999
 21
4.397999999999999
 31
0.0
  0
LINE
  5
56B
330
18
100
AcDbEntity
  8
Object
100
AcDbLine
 10
6.769
 20
4.671999999999999
 30
0.0
 11
6.812999999999999
 21
4.65
 31
0.0
  0
LINE
  5
56C
330
18
100
AcDbEntity
  8
Object
100
AcDbLine
 10
6.812999999999999
 20
4.397999999999999
 30
0.0
 11
6.769
 21
4.375
 31
0.0
  0
LINE
  5
56D
330
18
100
AcDbEntity
  8
Object
100
AcDbLine
 10
6.721
 20
4.679999999999999
 30
0.0
 11
6.769
 21
4.671999999999999
 31
0.0
  0
LINE
  5
56E
330
18
100
AcDbEntity
  8
Object
100
AcDbLine
 10
6.769
 20
4.375
 30
0.0
 11
6.721
 21
4.368
 31
0.0
  0
LINE
  5
56F
330
18
100
AcDbEntity
  8
Object
100
AcDbLine
 10
3.689
 20
4.296999999999999
 30
0.0
 11
3.693999999999999
 21
4.32
 31
0.0
  0
LINE
  5
570
330
18
100
AcDbEntity
  8
Object
100
AcDbLine
 10
3.693999999999999
 20
4.32
 30
0.0
 11
3.685999999999999
 21
4.342
 31
0.0
  0
LINE
  5
571
330
18
100
AcDbEntity
  8
Object
100
AcDbLine
 10
3.689
 20
4.296999999999999
 30
0.0
 11
3.673999999999999
 21
4.278999999999999
 31
0.0
  0
LINE
  5
572
330
18
100
AcDbEntity
  8
Object
100
AcDbLine
 10
3.669
 20
4.357
 30
0.0
 11
3.685999999999999
 21
4.342
 31
0.0
  0
LINE
  5
573
330
18
100
AcDbEntity
  8
Object
100
AcDbLine
 10
3.673999999999999
 20
4.278999999999999
 30
0.0
 11
3.652
 21
4.272
 31
0.0
  0
LINE
  5
574
330
18
100
AcDbEntity
  8
Object
100
AcDbLine
 10
3.645999999999999
 20
4.362
 30
0.0
 11
3.669
 21
4.357
 31
0.0
  0
LINE
  5
575
330
18
100
AcDbEntity
  8
Object
100
AcDbLine
 10
3.487
 20
7.189
 30
0.0
 11
3.491999999999999
 21
7.211
 31
0.0
  0
LINE
  5
576
330
18
100
AcDbEntity
  8
Object
100
AcDbLine
 10
3.491999999999999
 20
7.211
 30
0.0
 11
3.483999999999999
 21
7.233
 31
0.0
  0
LINE
  5
577
330
18
100
AcDbEntity
  8
Object
100
AcDbLine
 10
3.487
 20
7.189
 30
0.0
 11
3.471999999999999
 21
7.171
 31
0.0
  0
LINE
  5
578
330
18
100
AcDbEntity
  8
Object
100
AcDbLine
 10
3.466
 20
7.249
 30
0.0
 11
3.483999999999999
 21
7.233
 31
0.0
  0
LINE
  5
579
330
18
100
AcDbEntity
  8
Object
100
AcDbLine
 10
3.471999999999999
 20
7.171
 30
0.0
 11
3.45
 21
7.163
 31
0.0
  0
LINE
  5
57A
330
18
100
AcDbEntity
  8
Object
100
AcDbLine
 10
3.443999999999999
 20
7.253
 30
0.0
 11
3.466
 21
7.249
 31
0.0
  0
LINE
  5
57B
330
18
100
AcDbEntity
  8
Object
100
AcDbLine
 10
7.498
 20
4.004999999999999
 30
0.0
 11
7.491999999999999
 21
4.027
 31
0.0
  0
LINE
  5
57C
330
18
100
AcDbEntity
  8
Object
100
AcDbLine
 10
7.491999999999999
 20
4.027
 30
0.0
 11
7.475999999999999
 21
4.044
 31
0.0
  0
LINE
  5
57D
330
18
100
AcDbEntity
  8
Object
100
AcDbLine
 10
7.475999999999999
 20
4.044
 30
0.0
 11
7.453
 21
4.049999999999999
 31
0.0
  0
LINE
  5
57E
330
18
100
AcDbEntity
  8
Object
100
AcDbLine
 10
7.453
 20
4.049999999999999
 30
0.0
 11
7.431
 21
4.044
 31
0.0
  0
LINE
  5
57F
330
18
100
AcDbEntity
  8
Object
100
AcDbLine
 10
7.431
 20
4.044
 30
0.0
 11
7.414
 21
4.027
 31
0.0
  0
LINE
  5
580
330
18
100
AcDbEntity
  8
Object
100
AcDbLine
 10
7.414
 20
4.027
 30
0.0
 11
7.408
 21
4.004999999999999
 31
0.0
  0
LINE
  5
581
330
18
100
AcDbEntity
  8
Object
100
AcDbLine
 10
3.576999999999999
 20
4.267
 30
0.0
 11
3.584
 21
4.169999999999999
 31
0.0
  0
LINE
  5
582
330
18
100
AcDbEntity
  8
Object
100
AcDbLine
 10
5.221
 20
4.283
 30
0.0
 11
5.11
 21
4.291
 31
0.0
  0
LINE
  5
583
330
18
100
AcDbEntity
  8
Object
100
AcDbLine
 10
5.11
 20
4.291
 30
0.0
 11
5.001
 21
4.315
 31
0.0
  0
LINE
  5
584
330
18
100
AcDbEntity
  8
Object
100
AcDbLine
 10
5.001
 20
4.315
 30
0.0
 11
4.897
 21
4.354
 31
0.0
  0
LINE
  5
585
330
18
100
AcDbEntity
  8
Object
100
AcDbLine
 10
4.897
 20
4.354
 30
0.0
 11
4.799
 21
4.407
 31
0.0
  0
LINE
  5
586
330
18
100
AcDbEntity
  8
Object
100
AcDbLine
 10
4.799
 20
4.407
 30
0.0
 11
4.709999999999999
 21
4.474
 31
0.0
  0
LINE
  5
587
330
18
100
AcDbEntity
  8
Object
100
AcDbLine
 10
4.709999999999999
 20
4.474
 30
0.0
 11
4.631999999999999
 21
4.552
 31
0.0
  0
LINE
  5
588
330
18
100
AcDbEntity
  8
Object
100
AcDbLine
 10
4.631999999999999
 20
4.552
 30
0.0
 11
4.565
 21
4.642
 31
0.0
  0
LINE
  5
589
330
18
100
AcDbEntity
  8
Object
100
AcDbLine
 10
4.565
 20
4.642
 30
0.0
 11
4.512
 21
4.738999999999999
 31
0.0
  0
LINE
  5
58A
330
18
100
AcDbEntity
  8
Object
100
AcDbLine
 10
4.512
 20
4.738999999999999
 30
0.0
 11
4.472999999999999
 21
4.844
 31
0.0
  0
LINE
  5
58B
330
18
100
AcDbEntity
  8
Object
100
AcDbLine
 10
4.472999999999999
 20
4.844
 30
0.0
 11
4.448999999999999
 21
4.951999999999999
 31
0.0
  0
LINE
  5
58C
330
18
100
AcDbEntity
  8
Object
100
AcDbLine
 10
4.448999999999999
 20
4.951999999999999
 30
0.0
 11
4.440999999999999
 21
5.062999999999999
 31
0.0
  0
LINE
  5
58D
330
18
100
AcDbEntity
  8
Object
100
AcDbLine
 10
9.000999999999999
 20
7.939
 30
0.0
 11
9.000999999999999
 21
5.062999999999999
 31
0.0
  0
LINE
  5
58E
330
18
100
AcDbEntity
  8
Object
100
AcDbLine
 10
8.820999999999999
 20
3.738999999999999
 30
0.0
 11
8.814999999999999
 21
3.761
 31
0.0
  0
LINE
  5
58F
330
18
100
AcDbEntity
  8
Object
100
AcDbLine
 10
8.814999999999999
 20
3.761
 30
0.0
 11
8.798999999999999
 21
3.778
 31
0.0
  0
LINE
  5
590
330
18
100
AcDbEntity
  8
Object
100
AcDbLine
 10
8.798999999999999
 20
3.778
 30
0.0
 11
8.775999999999999
 21
3.784
 31
0.0
  0
LINE
  5
591
330
18
100
AcDbEntity
  8
Object
100
AcDbLine
 10
8.775999999999999
 20
3.784
 30
0.0
 11
8.753999999999999
 21
3.778
 31
0.0
  0
LINE
  5
592
330
18
100
AcDbEntity
  8
Object
100
AcDbLine
 10
8.753999999999999
 20
3.778
 30
0.0
 11
8.737
 21
3.761
 31
0.0
  0
LINE
  5
593
330
18
100
AcDbEntity
  8
Object
100
AcDbLine
 10
8.737
 20
3.761
 30
0.0
 11
8.730999999999999
 21
3.738999999999999
 31
0.0
  0
LINE
  5
594
330
18
100
AcDbEntity
  8
Object
100
AcDbLine
 10
4.621
 20
3.705
 30
0.0
 11
4.621
 21
3.738999999999999
 31
0.0
  0
LINE
  5
595
330
18
100
AcDbEntity
  8
Object
100
AcDbLine
 10
7.190999999999999
 20
8.189
 30
0.0
 11
6.251
 21
8.189
 31
0.0
  0
LINE
  5
596
330
18
100
AcDbEntity
  8
Object
100
AcDbLine
 10
5.451
 20
3.738999999999999
 30
0.0
 11
5.445
 21
3.761
 31
0.0
  0
LINE
  5
597
330
18
100
AcDbEntity
  8
Object
100
AcDbLine
 10
5.445
 20
3.761
 30
0.0
 11
5.429
 21
3.778
 31
0.0
  0
LINE
  5
598
330
18
100
AcDbEntity
  8
Object
100
AcDbLine
 10
5.429
 20
3.778
 30
0.0
 11
5.405999999999999
 21
3.784
 31
0.0
  0
LINE
  5
599
330
18
100
AcDbEntity
  8
Object
100
AcDbLine
 10
5.405999999999999
 20
3.784
 30
0.0
 11
5.384
 21
3.778
 31
0.0
  0
LINE
  5
59A
330
18
100
AcDbEntity
  8
Object
100
AcDbLine
 10
5.384
 20
3.778
 30
0.0
 11
5.366999999999999
 21
3.761
 31
0.0
  0
LINE
  5
59B
330
18
100
AcDbEntity
  8
Object
100
AcDbLine
 10
5.366999999999999
 20
3.761
 30
0.0
 11
5.360999999999999
 21
3.738999999999999
 31
0.0
  0
LINE
  5
59C
330
18
100
AcDbEntity
  8
Object
100
AcDbLine
 10
9.602999999999999
 20
8.189
 30
0.0
 11
9.250999999999999
 21
8.189
 31
0.0
  0
LINE
  5
59D
330
18
100
AcDbEntity
  8
Object
100
AcDbLine
 10
4.440999999999999
 20
5.062999999999999
 30
0.0
 11
4.440999999999999
 21
7.939
 31
0.0
  0
LINE
  5
59E
330
18
100
AcDbEntity
  8
Object
100
AcDbLine
 10
8.221
 20
4.283
 30
0.0
 11
8.109999999999999
 21
4.291
 31
0.0
  0
LINE
  5
59F
330
18
100
AcDbEntity
  8
Object
100
AcDbLine
 10
8.109999999999999
 20
4.291
 30
0.0
 11
8.002
 21
4.315
 31
0.0
  0
LINE
  5
5A0
330
18
100
AcDbEntity
  8
Object
100
AcDbLine
 10
8.002
 20
4.315
 30
0.0
 11
7.897
 21
4.354
 31
0.0
  0
LINE
  5
5A1
330
18
100
AcDbEntity
  8
Object
100
AcDbLine
 10
7.897
 20
4.354
 30
0.0
 11
7.799999999999999
 21
4.407
 31
0.0
  0
LINE
  5
5A2
330
18
100
AcDbEntity
  8
Object
100
AcDbLine
 10
7.799999999999999
 20
4.407
 30
0.0
 11
7.709999999999999
 21
4.474
 31
0.0
  0
LINE
  5
5A3
330
18
100
AcDbEntity
  8
Object
100
AcDbLine
 10
7.709999999999999
 20
4.474
 30
0.0
 11
7.632
 21
4.552
 31
0.0
  0
LINE
  5
5A4
330
18
100
AcDbEntity
  8
Object
100
AcDbLine
 10
7.632
 20
4.552
 30
0.0
 11
7.565
 21
4.642
 31
0.0
  0
LINE
  5
5A5
330
18
100
AcDbEntity
  8
Object
100
AcDbLine
 10
7.565
 20
4.642
 30
0.0
 11
7.512
 21
4.738999999999999
 31
0.0
  0
LINE
  5
5A6
330
18
100
AcDbEntity
  8
Object
100
AcDbLine
 10
7.512
 20
4.738999999999999
 30
0.0
 11
7.472999999999999
 21
4.844
 31
0.0
  0
LINE
  5
5A7
330
18
100
AcDbEntity
  8
Object
100
AcDbLine
 10
7.472999999999999
 20
4.844
 30
0.0
 11
7.448999999999999
 21
4.951999999999999
 31
0.0
  0
LINE
  5
5A8
330
18
100
AcDbEntity
  8
Object
100
AcDbLine
 10
7.448999999999999
 20
4.951999999999999
 30
0.0
 11
7.440999999999999
 21
5.062999999999999
 31
0.0
  0
LINE
  5
5A9
330
18
100
AcDbEntity
  8
Object
100
AcDbLine
 10
9.858
 20
4.169999999999999
 30
0.0
 11
9.845
 21
4.088
 31
0.0
  0
LINE
  5
5AA
330
18
100
AcDbEntity
  8
Object
100
AcDbLine
 10
9.845
 20
4.088
 30
0.0
 11
9.819
 21
4.009
 31
0.0
  0
LINE
  5
5AB
330
18
100
AcDbEntity
  8
Object
100
AcDbLine
 10
9.819
 20
4.009
 30
0.0
 11
9.779999999999999
 21
3.935
 31
0.0
  0
LINE
  5
5AC
330
18
100
AcDbEntity
  8
Object
100
AcDbLine
 10
9.779999999999999
 20
3.935
 30
0.0
 11
9.73
 21
3.869
 31
0.0
  0
LINE
  5
5AD
330
18
100
AcDbEntity
  8
Object
100
AcDbLine
 10
9.73
 20
3.869
 30
0.0
 11
9.669
 21
3.812
 31
0.0
  0
LINE
  5
5AE
330
18
100
AcDbEntity
  8
Object
100
AcDbLine
 10
9.669
 20
3.812
 30
0.0
 11
9.599
 21
3.766
 31
0.0
  0
LINE
  5
5AF
330
18
100
AcDbEntity
  8
Object
100
AcDbLine
 10
9.599
 20
3.766
 30
0.0
 11
9.522999999999999
 21
3.732
 31
0.0
  0
LINE
  5
5B0
330
18
100
AcDbEntity
  8
Object
100
AcDbLine
 10
9.522999999999999
 20
3.732
 30
0.0
 11
9.442
 21
3.712
 31
0.0
  0
LINE
  5
5B1
330
18
100
AcDbEntity
  8
Object
100
AcDbLine
 10
9.442
 20
3.712
 30
0.0
 11
9.358999999999999
 21
3.705
 31
0.0
  0
LINE
  5
5B2
330
18
100
AcDbEntity
  8
Object
100
AcDbLine
 10
6.721
 20
4.368
 30
0.0
 11
6.673
 21
4.375
 31
0.0
  0
LINE
  5
5B3
330
18
100
AcDbEntity
  8
Object
100
AcDbLine
 10
6.721
 20
4.679999999999999
 30
0.0
 11
6.673
 21
4.671999999999999
 31
0.0
  0
LINE
  5
5B4
330
18
100
AcDbEntity
  8
Object
100
AcDbLine
 10
6.673
 20
4.671999999999999
 30
0.0
 11
6.629999999999999
 21
4.65
 31
0.0
  0
LINE
  5
5B5
330
18
100
AcDbEntity
  8
Object
100
AcDbLine
 10
6.673
 20
4.375
 30
0.0
 11
6.629999999999999
 21
4.397999999999999
 31
0.0
  0
LINE
  5
5B6
330
18
100
AcDbEntity
  8
Object
100
AcDbLine
 10
6.629999999999999
 20
4.397999999999999
 30
0.0
 11
6.594999999999999
 21
4.432
 31
0.0
  0
LINE
  5
5B7
330
18
100
AcDbEntity
  8
Object
100
AcDbLine
 10
6.629999999999999
 20
4.65
 30
0.0
 11
6.594999999999999
 21
4.615
 31
0.0
  0
LINE
  5
5B8
330
18
100
AcDbEntity
  8
Object
100
AcDbLine
 10
6.594999999999999
 20
4.615
 30
0.0
 11
6.573
 21
4.572
 31
0.0
  0
LINE
  5
5B9
330
18
100
AcDbEntity
  8
Object
100
AcDbLine
 10
6.594999999999999
 20
4.432
 30
0.0
 11
6.573
 21
4.475999999999999
 31
0.0
  0
LINE
  5
5BA
330
18
100
AcDbEntity
  8
Object
100
AcDbLine
 10
6.573
 20
4.475999999999999
 30
0.0
 11
6.565
 21
4.524
 31
0.0
  0
LINE
  5
5BB
330
18
100
AcDbEntity
  8
Object
100
AcDbLine
 10
6.565
 20
4.524
 30
0.0
 11
6.573
 21
4.572
 31
0.0
  0
LINE
  5
5BC
330
18
100
AcDbEntity
  8
Object
100
AcDbLine
 10
9.865
 20
4.267
 30
0.0
 11
9.79
 21
4.272
 31
0.0
  0
LINE
  5
5BD
330
18
100
AcDbEntity
  8
Object
100
AcDbLine
 10
7.498
 20
3.705
 30
0.0
 11
7.991
 21
3.705
 31
0.0
  0
LINE
  5
5BE
330
18
100
AcDbEntity
  8
Object
100
AcDbLine
 10
4.190999999999999
 20
8.189
 30
0.0
 11
3.839
 21
8.189
 31
0.0
  0
LINE
  5
5BF
330
18
100
AcDbEntity
  8
Object
100
AcDbLine
 10
4.440999999999999
 20
7.939
 30
0.0
 11
4.435
 21
7.995
 31
0.0
  0
LINE
  5
5C0
330
18
100
AcDbEntity
  8
Object
100
AcDbLine
 10
4.435
 20
7.995
 30
0.0
 11
4.416
 21
8.048
 31
0.0
  0
LINE
  5
5C1
330
18
100
AcDbEntity
  8
Object
100
AcDbLine
 10
4.416
 20
8.048
 30
0.0
 11
4.387
 21
8.095
 31
0.0
  0
LINE
  5
5C2
330
18
100
AcDbEntity
  8
Object
100
AcDbLine
 10
4.387
 20
8.095
 30
0.0
 11
4.347
 21
8.134999999999999
 31
0.0
  0
LINE
  5
5C3
330
18
100
AcDbEntity
  8
Object
100
AcDbLine
 10
4.347
 20
8.134999999999999
 30
0.0
 11
4.299999999999999
 21
8.163999999999999
 31
0.0
  0
LINE
  5
5C4
330
18
100
AcDbEntity
  8
Object
100
AcDbLine
 10
4.299999999999999
 20
8.163999999999999
 30
0.0
 11
4.246999999999999
 21
8.182999999999999
 31
0.0
  0
LINE
  5
5C5
330
18
100
AcDbEntity
  8
Object
100
AcDbLine
 10
4.246999999999999
 20
8.182999999999999
 30
0.0
 11
4.190999999999999
 21
8.189
 31
0.0
  0
LINE
  5
5C6
330
18
100
AcDbEntity
  8
Object
100
AcDbLine
 10
9.774
 20
4.357
 30
0.0
 11
9.797
 21
4.362
 31
0.0
  0
LINE
  5
5C7
330
18
100
AcDbEntity
  8
Object
100
AcDbLine
 10
9.79
 20
4.272
 30
0.0
 11
9.768
 21
4.278999999999999
 31
0.0
  0
LINE
  5
5C8
330
18
100
AcDbEntity
  8
Object
100
AcDbLine
 10
9.756
 20
4.342
 30
0.0
 11
9.774
 21
4.357
 31
0.0
  0
LINE
  5
5C9
330
18
100
AcDbEntity
  8
Object
100
AcDbLine
 10
9.768
 20
4.278999999999999
 30
0.0
 11
9.753
 21
4.296999999999999
 31
0.0
  0
LINE
  5
5CA
330
18
100
AcDbEntity
  8
Object
100
AcDbLine
 10
9.753
 20
4.296999999999999
 30
0.0
 11
9.749
 21
4.32
 31
0.0
  0
LINE
  5
5CB
330
18
100
AcDbEntity
  8
Object
100
AcDbLine
 10
9.749
 20
4.32
 30
0.0
 11
9.756
 21
4.342
 31
0.0
  0
LINE
  5
5CC
330
18
100
AcDbEntity
  8
Object
100
AcDbLine
 10
3.839
 20
8.189
 30
0.0
 11
3.758
 21
8.182999999999999
 31
0.0
  0
LINE
  5
5CD
330
18
100
AcDbEntity
  8
Object
100
AcDbLine
 10
3.758
 20
8.182999999999999
 30
0.0
 11
3.677999999999999
 21
8.163
 31
0.0
  0
LINE
  5
5CE
330
18
100
AcDbEntity
  8
Object
100
AcDbLine
 10
3.677999999999999
 20
8.163
 30
0.0
 11
3.603
 21
8.13
 31
0.0
  0
LINE
  5
5CF
330
18
100
AcDbEntity
  8
Object
100
AcDbLine
 10
3.603
 20
8.13
 30
0.0
 11
3.534
 21
8.085
 31
0.0
  0
LINE
  5
5D0
330
18
100
AcDbEntity
  8
Object
100
AcDbLine
 10
3.534
 20
8.085
 30
0.0
 11
3.474
 21
8.029999999999999
 31
0.0
  0
LINE
  5
5D1
330
18
100
AcDbEntity
  8
Object
100
AcDbLine
 10
3.474
 20
8.029999999999999
 30
0.0
 11
3.423
 21
7.966
 31
0.0
  0
LINE
  5
5D2
330
18
100
AcDbEntity
  8
Object
100
AcDbLine
 10
3.423
 20
7.966
 30
0.0
 11
3.383
 21
7.894
 31
0.0
  0
LINE
  5
5D3
330
18
100
AcDbEntity
  8
Object
100
AcDbLine
 10
3.383
 20
7.894
 30
0.0
 11
3.355999999999999
 21
7.817
 31
0.0
  0
LINE
  5
5D4
330
18
100
AcDbEntity
  8
Object
100
AcDbLine
 10
3.355999999999999
 20
7.817
 30
0.0
 11
3.342
 21
7.735999999999999
 31
0.0
  0
LINE
  5
5D5
330
18
100
AcDbEntity
  8
Object
100
AcDbLine
 10
3.342
 20
7.735999999999999
 30
0.0
 11
3.341
 21
7.653999999999999
 31
0.0
  0
LINE
  5
5D6
330
18
100
AcDbEntity
  8
Object
100
AcDbLine
 10
6.251
 20
8.189
 30
0.0
 11
6.195999999999999
 21
8.182999999999999
 31
0.0
  0
LINE
  5
5D7
330
18
100
AcDbEntity
  8
Object
100
AcDbLine
 10
6.195999999999999
 20
8.182999999999999
 30
0.0
 11
6.142999999999999
 21
8.163999999999999
 31
0.0
  0
LINE
  5
5D8
330
18
100
AcDbEntity
  8
Object
100
AcDbLine
 10
6.142999999999999
 20
8.163999999999999
 30
0.0
 11
6.094999999999999
 21
8.134999999999999
 31
0.0
  0
LINE
  5
5D9
330
18
100
AcDbEntity
  8
Object
100
AcDbLine
 10
6.094999999999999
 20
8.134999999999999
 30
0.0
 11
6.056
 21
8.095
 31
0.0
  0
LINE
  5
5DA
330
18
100
AcDbEntity
  8
Object
100
AcDbLine
 10
6.056
 20
8.095
 30
0.0
 11
6.025999999999999
 21
8.048
 31
0.0
  0
LINE
  5
5DB
330
18
100
AcDbEntity
  8
Object
100
AcDbLine
 10
6.025999999999999
 20
8.048
 30
0.0
 11
6.007
 21
7.995
 31
0.0
  0
LINE
  5
5DC
330
18
100
AcDbEntity
  8
Object
100
AcDbLine
 10
6.007
 20
7.995
 30
0.0
 11
6.001
 21
7.939
 31
0.0
  0
LINE
  5
5DD
330
18
100
AcDbEntity
  8
Object
100
AcDbLine
 10
7.440999999999999
 20
5.062999999999999
 30
0.0
 11
7.440999999999999
 21
7.939
 31
0.0
  0
LINE
  5
5DE
330
18
100
AcDbEntity
  8
Object
100
AcDbLine
 10
9.000999999999999
 20
5.062999999999999
 30
0.0
 11
8.993
 21
4.951999999999999
 31
0.0
  0
LINE
  5
5DF
330
18
100
AcDbEntity
  8
Object
100
AcDbLine
 10
8.993
 20
4.951999999999999
 30
0.0
 11
8.97
 21
4.844
 31
0.0
  0
LINE
  5
5E0
330
18
100
AcDbEntity
  8
Object
100
AcDbLine
 10
8.97
 20
4.844
 30
0.0
 11
8.931
 21
4.738999999999999
 31
0.0
  0
LINE
  5
5E1
330
18
100
AcDbEntity
  8
Object
100
AcDbLine
 10
8.931
 20
4.738999999999999
 30
0.0
 11
8.878
 21
4.642
 31
0.0
  0
LINE
  5
5E2
330
18
100
AcDbEntity
  8
Object
100
AcDbLine
 10
8.878
 20
4.642
 30
0.0
 11
8.810999999999999
 21
4.552
 31
0.0
  0
LINE
  5
5E3
330
18
100
AcDbEntity
  8
Object
100
AcDbLine
 10
8.810999999999999
 20
4.552
 30
0.0
 11
8.731999999999999
 21
4.474
 31
0.0
  0
LINE
  5
5E4
330
18
100
AcDbEntity
  8
Object
100
AcDbLine
 10
8.731999999999999
 20
4.474
 30
0.0
 11
8.643
 21
4.407
 31
0.0
  0
LINE
  5
5E5
330
18
100
AcDbEntity
  8
Object
100
AcDbLine
 10
8.643
 20
4.407
 30
0.0
 11
8.544999999999999
 21
4.354
 31
0.0
  0
LINE
  5
5E6
330
18
100
AcDbEntity
  8
Object
100
AcDbLine
 10
8.544999999999999
 20
4.354
 30
0.0
 11
8.441
 21
4.315
 31
0.0
  0
LINE
  5
5E7
330
18
100
AcDbEntity
  8
Object
100
AcDbLine
 10
8.441
 20
4.315
 30
0.0
 11
8.332
 21
4.291
 31
0.0
  0
LINE
  5
5E8
330
18
100
AcDbEntity
  8
Object
100
AcDbLine
 10
8.332
 20
4.291
 30
0.0
 11
8.221
 21
4.283
 31
0.0
  0
LINE
  5
5E9
330
18
100
AcDbEntity
  8
Object
100
AcDbLine
 10
8.080999999999999
 20
3.701999999999999
 30
0.0
 11
8.080999999999999
 21
3.671
 31
0.0
  0
LINE
  5
5EA
330
18
100
AcDbEntity
  8
Object
100
AcDbLine
 10
8.730999999999999
 20
3.671
 30
0.0
 11
8.730999999999999
 21
3.701999999999999
 31
0.0
  0
LINE
  5
5EB
330
18
100
AcDbEntity
  8
Object
100
AcDbLine
 10
8.080999999999999
 20
3.647
 30
0.0
 11
8.080999999999999
 21
3.631
 31
0.0
  0
LINE
  5
5EC
330
18
100
AcDbEntity
  8
Object
100
AcDbLine
 10
8.730999999999999
 20
3.647
 30
0.0
 11
8.730999999999999
 21
3.631
 31
0.0
  0
LINE
  5
5ED
330
18
100
AcDbEntity
  8
Object
100
AcDbLine
 10
8.730999999999999
 20
3.631
 30
0.0
 11
8.730999999999999
 21
3.625999999999999
 31
0.0
  0
LINE
  5
5EE
330
18
100
AcDbEntity
  8
Object
100
AcDbLine
 10
8.730999999999999
 20
3.625999999999999
 30
0.0
 11
8.080999999999999
 21
3.625999999999999
 31
0.0
  0
LINE
  5
5EF
330
18
100
AcDbEntity
  8
Object
100
AcDbLine
 10
8.080999999999999
 20
3.625999999999999
 30
0.0
 11
8.080999999999999
 21
3.631
 31
0.0
  0
LINE
  5
5F0
330
18
100
AcDbEntity
  8
Object
100
AcDbLine
 10
8.730999999999999
 20
3.647
 30
0.0
 11
8.730999999999999
 21
3.671
 31
0.0
  0
LINE
  5
5F1
330
18
100
AcDbEntity
  8
Object
100
AcDbLine
 10
8.080999999999999
 20
3.671
 30
0.0
 11
8.080999999999999
 21
3.647
 31
0.0
  0
LINE
  5
5F2
330
18
100
AcDbEntity
  8
Object
100
AcDbLine
 10
8.730999999999999
 20
3.701999999999999
 30
0.0
 11
8.730999999999999
 21
3.736
 31
0.0
  0
LINE
  5
5F3
330
18
100
AcDbEntity
  8
Object
100
AcDbLine
 10
8.080999999999999
 20
3.736
 30
0.0
 11
8.080999999999999
 21
3.701999999999999
 31
0.0
  0
LINE
  5
5F4
330
18
100
AcDbEntity
  8
Object
100
AcDbLine
 10
8.080999999999999
 20
3.631
 30
0.0
 11
8.080999999999999
 21
3.625999999999999
 31
0.0
  0
LINE
  5
5F5
330
18
100
AcDbEntity
  8
Object
100
AcDbLine
 10
8.080999999999999
 20
3.701999999999999
 30
0.0
 11
8.080999999999999
 21
3.671
 31
0.0
  0
LINE
  5
5F6
330
18
100
AcDbEntity
  8
Object
100
AcDbLine
 10
8.080999999999999
 20
3.738999999999999
 30
0.0
 11
8.080999999999999
 21
3.736
 31
0.0
  0
LINE
  5
5F7
330
18
100
AcDbEntity
  8
Object
100
AcDbLine
 10
8.080999999999999
 20
3.736
 30
0.0
 11
8.080999999999999
 21
3.701999999999999
 31
0.0
  0
LINE
  5
5F8
330
18
100
AcDbEntity
  8
Object
100
AcDbLine
 10
8.080999999999999
 20
3.671
 30
0.0
 11
8.080999999999999
 21
3.647
 31
0.0
  0
LINE
  5
5F9
330
18
100
AcDbEntity
  8
Object
100
AcDbLine
 10
8.080999999999999
 20
3.647
 30
0.0
 11
8.080999999999999
 21
3.631
 31
0.0
  0
LINE
  5
5FA
330
18
100
AcDbEntity
  8
Object
100
AcDbLine
 10
7.991
 20
3.705
 30
0.0
 11
7.991
 21
3.738999999999999
 31
0.0
  0
LINE
  5
5FB
330
18
100
AcDbEntity
  8
Object
100
AcDbLine
 10
9.250999999999999
 20
8.189
 30
0.0
 11
9.195999999999999
 21
8.182999999999999
 31
0.0
  0
LINE
  5
5FC
330
18
100
AcDbEntity
  8
Object
100
AcDbLine
 10
9.195999999999999
 20
8.182999999999999
 30
0.0
 11
9.143
 21
8.163999999999999
 31
0.0
  0
LINE
  5
5FD
330
18
100
AcDbEntity
  8
Object
100
AcDbLine
 10
9.143
 20
8.163999999999999
 30
0.0
 11
9.095
 21
8.134999999999999
 31
0.0
  0
LINE
  5
5FE
330
18
100
AcDbEntity
  8
Object
100
AcDbLine
 10
9.095
 20
8.134999999999999
 30
0.0
 11
9.056
 21
8.095
 31
0.0
  0
LINE
  5
5FF
330
18
100
AcDbEntity
  8
Object
100
AcDbLine
 10
9.056
 20
8.095
 30
0.0
 11
9.025999999999999
 21
8.048
 31
0.0
  0
LINE
  5
600
330
18
100
AcDbEntity
  8
Object
100
AcDbLine
 10
9.025999999999999
 20
8.048
 30
0.0
 11
9.008
 21
7.995
 31
0.0
  0
LINE
  5
601
330
18
100
AcDbEntity
  8
Object
100
AcDbLine
 10
9.008
 20
7.995
 30
0.0
 11
9.000999999999999
 21
7.939
 31
0.0
  0
LINE
  5
602
330
18
100
AcDbEntity
  8
Object
100
AcDbLine
 10
9.909
 20
4.354
 30
0.0
 11
9.903999999999999
 21
4.354
 31
0.0
  0
LINE
  5
603
330
18
100
AcDbEntity
  8
Object
100
AcDbLine
 10
9.903999999999999
 20
4.354
 30
0.0
 11
9.887999999999999
 21
4.355
 31
0.0
  0
LINE
  5
604
330
18
100
AcDbEntity
  8
Object
100
AcDbLine
 10
9.887999999999999
 20
4.355
 30
0.0
 11
9.864
 21
4.357
 31
0.0
  0
LINE
  5
605
330
18
100
AcDbEntity
  8
Object
100
AcDbLine
 10
9.864
 20
4.357
 30
0.0
 11
9.833999999999999
 21
4.358999999999999
 31
0.0
  0
LINE
  5
606
330
18
100
AcDbEntity
  8
Object
100
AcDbLine
 10
9.823999999999999
 20
4.358999999999999
 30
0.0
 11
9.82
 21
4.36
 31
0.0
  0
LINE
  5
607
330
18
100
AcDbEntity
  8
Object
100
AcDbLine
 10
9.891
 20
4.355
 30
0.0
 11
9.87
 21
4.355999999999999
 31
0.0
  0
LINE
  5
608
330
18
100
AcDbEntity
  8
Object
100
AcDbLine
 10
9.82
 20
4.36
 30
0.0
 11
9.819
 21
4.36
 31
0.0
  0
LINE
  5
609
330
18
100
AcDbEntity
  8
Object
100
AcDbLine
 10
9.833999999999999
 20
4.358999999999999
 30
0.0
 11
9.8
 21
4.360999999999999
 31
0.0
  0
LINE
  5
60A
330
18
100
AcDbEntity
  8
Object
100
AcDbLine
 10
9.8
 20
4.360999999999999
 30
0.0
 11
9.797
 21
4.362
 31
0.0
  0
LINE
  5
60B
330
18
100
AcDbEntity
  8
Object
100
AcDbLine
 10
7.498
 20
4.004999999999999
 30
0.0
 11
7.498
 21
3.705
 31
0.0
  0
LINE
  5
60C
330
18
100
AcDbEntity
  8
Object
100
AcDbLine
 10
6.033999999999999
 20
4.004999999999999
 30
0.0
 11
6.028
 21
4.027
 31
0.0
  0
LINE
  5
60D
330
18
100
AcDbEntity
  8
Object
100
AcDbLine
 10
6.028
 20
4.027
 30
0.0
 11
6.012
 21
4.044
 31
0.0
  0
LINE
  5
60E
330
18
100
AcDbEntity
  8
Object
100
AcDbLine
 10
6.012
 20
4.044
 30
0.0
 11
5.988999999999999
 21
4.049999999999999
 31
0.0
  0
LINE
  5
60F
330
18
100
AcDbEntity
  8
Object
100
AcDbLine
 10
5.988999999999999
 20
4.049999999999999
 30
0.0
 11
5.967
 21
4.044
 31
0.0
  0
LINE
  5
610
330
18
100
AcDbEntity
  8
Object
100
AcDbLine
 10
5.967
 20
4.044
 30
0.0
 11
5.95
 21
4.027
 31
0.0
  0
LINE
  5
611
330
18
100
AcDbEntity
  8
Object
100
AcDbLine
 10
5.95
 20
4.027
 30
0.0
 11
5.943999999999999
 21
4.004999999999999
 31
0.0
  0
LINE
  5
612
330
18
100
AcDbEntity
  8
Object
100
AcDbLine
 10
3.652
 20
4.272
 30
0.0
 11
3.576999999999999
 21
4.267
 31
0.0
  0
LINE
  5
613
330
18
100
AcDbEntity
  8
Object
100
AcDbLine
 10
7.440999999999999
 20
7.939
 30
0.0
 11
7.435
 21
7.995
 31
0.0
  0
LINE
  5
614
330
18
100
AcDbEntity
  8
Object
100
AcDbLine
 10
7.435
 20
7.995
 30
0.0
 11
7.416
 21
8.048
 31
0.0
  0
LINE
  5
615
330
18
100
AcDbEntity
  8
Object
100
AcDbLine
 10
7.416
 20
8.048
 30
0.0
 11
7.387
 21
8.095
 31
0.0
  0
LINE
  5
616
330
18
100
AcDbEntity
  8
Object
100
AcDbLine
 10
7.387
 20
8.095
 30
0.0
 11
7.347
 21
8.134999999999999
 31
0.0
  0
LINE
  5
617
330
18
100
AcDbEntity
  8
Object
100
AcDbLine
 10
7.347
 20
8.134999999999999
 30
0.0
 11
7.299999999999999
 21
8.163999999999999
 31
0.0
  0
LINE
  5
618
330
18
100
AcDbEntity
  8
Object
100
AcDbLine
 10
7.299999999999999
 20
8.163999999999999
 30
0.0
 11
7.246999999999999
 21
8.182999999999999
 31
0.0
  0
LINE
  5
619
330
18
100
AcDbEntity
  8
Object
100
AcDbLine
 10
7.246999999999999
 20
8.182999999999999
 30
0.0
 11
7.190999999999999
 21
8.189
 31
0.0
  0
LINE
  5
61A
330
18
100
AcDbEntity
  8
Object
100
AcDbLine
 10
6.001
 20
7.939
 30
0.0
 11
6.001
 21
5.062999999999999
 31
0.0
  0
LINE
  5
61B
330
18
100
AcDbEntity
  8
Object
100
AcDbLine
 10
10.073
 20
7.248
 30
0.0
 11
10.102
 21
7.653999999999999
 31
0.0
  0
LINE
  5
61C
330
18
100
AcDbEntity
  8
Object
100
AcDbLine
 10
8.820999999999999
 20
3.738999999999999
 30
0.0
 11
8.820999999999999
 21
3.705
 31
0.0
  0
LINE
  5
61D
330
18
100
AcDbEntity
  8
Object
100
AcDbLine
 10
7.408
 20
3.897
 30
0.0
 11
7.408
 21
3.913
 31
0.0
  0
LINE
  5
61E
330
18
100
AcDbEntity
  8
Object
100
AcDbLine
 10
7.408
 20
3.913
 30
0.0
 11
7.408
 21
3.937
 31
0.0
  0
LINE
  5
61F
330
18
100
AcDbEntity
  8
Object
100
AcDbLine
 10
7.408
 20
3.967999999999999
 30
0.0
 11
7.408
 21
4.001999999999999
 31
0.0
  0
LINE
  5
620
330
18
100
AcDbEntity
  8
Object
100
AcDbLine
 10
7.408
 20
4.001999999999999
 30
0.0
 11
7.408
 21
4.004999999999999
 31
0.0
  0
LINE
  5
621
330
18
100
AcDbEntity
  8
Object
100
AcDbLine
 10
7.408
 20
3.937
 30
0.0
 11
7.408
 21
3.967999999999999
 31
0.0
  0
LINE
  5
622
330
18
100
AcDbEntity
  8
Object
100
AcDbLine
 10
7.408
 20
3.891999999999999
 30
0.0
 11
7.408
 21
3.897
 31
0.0
  0
LINE
  5
623
330
18
100
AcDbEntity
  8
Object
100
AcDbLine
 10
4.083
 20
3.705
 30
0.0
 11
4.0
 21
3.712
 31
0.0
  0
LINE
  5
624
330
18
100
AcDbEntity
  8
Object
100
AcDbLine
 10
4.0
 20
3.712
 30
0.0
 11
3.919
 21
3.732
 31
0.0
  0
LINE
  5
625
330
18
100
AcDbEntity
  8
Object
100
AcDbLine
 10
3.919
 20
3.732
 30
0.0
 11
3.842999999999999
 21
3.766
 31
0.0
  0
LINE
  5
626
330
18
100
AcDbEntity
  8
Object
100
AcDbLine
 10
3.842999999999999
 20
3.766
 30
0.0
 11
3.774
 21
3.812
 31
0.0
  0
LINE
  5
627
330
18
100
AcDbEntity
  8
Object
100
AcDbLine
 10
3.774
 20
3.812
 30
0.0
 11
3.713
 21
3.869
 31
0.0
  0
LINE
  5
628
330
18
100
AcDbEntity
  8
Object
100
AcDbLine
 10
3.713
 20
3.869
 30
0.0
 11
3.661999999999999
 21
3.935
 31
0.0
  0
LINE
  5
629
330
18
100
AcDbEntity
  8
Object
100
AcDbLine
 10
3.661999999999999
 20
3.935
 30
0.0
 11
3.623
 21
4.009
 31
0.0
  0
LINE
  5
62A
330
18
100
AcDbEntity
  8
Object
100
AcDbLine
 10
3.623
 20
4.009
 30
0.0
 11
3.596999999999999
 21
4.088
 31
0.0
  0
LINE
  5
62B
330
18
100
AcDbEntity
  8
Object
100
AcDbLine
 10
3.596999999999999
 20
4.088
 30
0.0
 11
3.584
 21
4.169999999999999
 31
0.0
  0
LINE
  5
62C
330
18
100
AcDbEntity
  8
Object
100
AcDbLine
 10
6.001
 20
5.062999999999999
 30
0.0
 11
5.993
 21
4.951999999999999
 31
0.0
  0
LINE
  5
62D
330
18
100
AcDbEntity
  8
Object
100
AcDbLine
 10
5.993
 20
4.951999999999999
 30
0.0
 11
5.969999999999999
 21
4.844
 31
0.0
  0
LINE
  5
62E
330
18
100
AcDbEntity
  8
Object
100
AcDbLine
 10
5.969999999999999
 20
4.844
 30
0.0
 11
5.931
 21
4.738999999999999
 31
0.0
  0
LINE
  5
62F
330
18
100
AcDbEntity
  8
Object
100
AcDbLine
 10
5.931
 20
4.738999999999999
 30
0.0
 11
5.876999999999999
 21
4.642
 31
0.0
  0
LINE
  5
630
330
18
100
AcDbEntity
  8
Object
100
AcDbLine
 10
5.876999999999999
 20
4.642
 30
0.0
 11
5.810999999999999
 21
4.552
 31
0.0
  0
LINE
  5
631
330
18
100
AcDbEntity
  8
Object
100
AcDbLine
 10
5.810999999999999
 20
4.552
 30
0.0
 11
5.732
 21
4.474
 31
0.0
  0
LINE
  5
632
330
18
100
AcDbEntity
  8
Object
100
AcDbLine
 10
5.732
 20
4.474
 30
0.0
 11
5.642999999999999
 21
4.407
 31
0.0
  0
LINE
  5
633
330
18
100
AcDbEntity
  8
Object
100
AcDbLine
 10
5.642999999999999
 20
4.407
 30
0.0
 11
5.544999999999999
 21
4.354
 31
0.0
  0
LINE
  5
634
330
18
100
AcDbEntity
  8
Object
100
AcDbLine
 10
5.544999999999999
 20
4.354
 30
0.0
 11
5.440999999999999
 21
4.315
 31
0.0
  0
LINE
  5
635
330
18
100
AcDbEntity
  8
Object
100
AcDbLine
 10
5.440999999999999
 20
4.315
 30
0.0
 11
5.331999999999999
 21
4.291
 31
0.0
  0
LINE
  5
636
330
18
100
AcDbEntity
  8
Object
100
AcDbLine
 10
5.331999999999999
 20
4.291
 30
0.0
 11
5.221
 21
4.283
 31
0.0
  0
LINE
  5
637
330
18
100
AcDbEntity
  8
Object
100
AcDbLine
 10
10.016
 20
7.161999999999999
 30
0.0
 11
10.013
 21
7.161999999999999
 31
0.0
  0
LINE
  5
638
330
18
100
AcDbEntity
  8
Object
100
AcDbLine
 10
10.013
 20
7.161999999999999
 30
0.0
 11
10.006
 21
7.163
 31
0.0
  0
LINE
  5
639
330
18
100
AcDbEntity
  8
Object
100
AcDbLine
 10
9.819
 20
4.36
 30
0.0
 11
9.82
 21
4.36
 31
0.0
  0
LINE
  5
63A
330
18
100
AcDbEntity
  8
Object
100
AcDbLine
 10
10.006
 20
7.163
 30
0.0
 11
9.996
 21
7.163
 31
0.0
  0
LINE
  5
63B
330
18
100
AcDbEntity
  8
Object
100
AcDbLine
 10
3.447
 20
7.163
 30
0.0
 11
3.437
 21
7.163
 31
0.0
  0
LINE
  5
63C
330
18
100
AcDbEntity
  8
Object
100
AcDbLine
 10
3.437
 20
7.163
 30
0.0
 11
3.43
 21
7.161999999999999
 31
0.0
  0
LINE
  5
63D
330
18
100
AcDbEntity
  8
Object
100
AcDbLine
 10
3.43
 20
7.161999999999999
 30
0.0
 11
3.427
 21
7.161999999999999
 31
0.0
  0
LINE
  5
63E
330
18
100
AcDbEntity
  8
Object
100
AcDbLine
 10
8.080999999999999
 20
3.625999999999999
 30
0.0
 11
8.730999999999999
 21
3.625999999999999
 31
0.0
  0
LINE
  5
63F
330
18
100
AcDbEntity
  8
Object
100
AcDbLine
 10
6.033999999999999
 20
3.891999999999999
 30
0.0
 11
7.408
 21
3.891999999999999
 31
0.0
  0
LINE
  5
640
330
18
100
AcDbEntity
  8
Object
100
AcDbLine
 10
3.578
 20
4.357
 30
0.0
 11
3.55
 21
4.355
 31
0.0
  0
LINE
  5
641
330
18
100
AcDbEntity
  8
Object
100
AcDbLine
 10
3.623
 20
4.36
 30
0.0
 11
3.617999999999999
 21
4.358999999999999
 31
0.0
  0
LINE
  5
642
330
18
100
AcDbEntity
  8
Object
100
AcDbLine
 10
3.617999999999999
 20
4.358999999999999
 30
0.0
 11
3.623
 21
4.36
 31
0.0
  0
LINE
  5
643
330
18
100
AcDbEntity
  8
Object
100
AcDbLine
 10
3.55
 20
4.355
 30
0.0
 11
3.578
 21
4.357
 31
0.0
  0
LINE
  5
644
330
18
100
AcDbEntity
  8
Object
100
AcDbLine
 10
3.531
 20
4.37
 30
0.0
 11
3.531
 21
4.378
 31
0.0
  0
LINE
  5
645
330
18
100
AcDbEntity
  8
Object
100
AcDbLine
 10
3.531
 20
4.378
 30
0.0
 11
3.528999999999999
 21
4.408
 31
0.0
  0
LINE
  5
646
330
18
100
AcDbEntity
  8
Object
100
AcDbLine
 10
3.528999999999999
 20
4.408
 30
0.0
 11
3.526
 21
4.448
 31
0.0
  0
LINE
  5
647
330
18
100
AcDbEntity
  8
Object
100
AcDbLine
 10
3.526
 20
4.448
 30
0.0
 11
3.523
 21
4.495
 31
0.0
  0
LINE
  5
648
330
18
100
AcDbEntity
  8
Object
100
AcDbLine
 10
3.523
 20
4.495
 30
0.0
 11
3.519
 21
4.548
 31
0.0
  0
LINE
  5
649
330
18
100
AcDbEntity
  8
Object
100
AcDbLine
 10
3.519
 20
4.548
 30
0.0
 11
3.516999999999999
 21
4.575
 31
0.0
  0
LINE
  5
64A
330
18
100
AcDbEntity
  8
Object
100
AcDbLine
 10
3.414
 20
6.049
 30
0.0
 11
3.414
 21
6.054999999999999
 31
0.0
  0
LINE
  5
64B
330
18
100
AcDbEntity
  8
Object
100
AcDbLine
 10
3.407999999999999
 20
6.132
 30
0.0
 11
3.407999999999999
 21
6.139
 31
0.0
  0
LINE
  5
64C
330
18
100
AcDbEntity
  8
Object
100
AcDbLine
 10
3.407999999999999
 20
6.139
 30
0.0
 11
3.407
 21
6.145
 31
0.0
  0
LINE
  5
64D
330
18
100
AcDbEntity
  8
Object
100
AcDbLine
 10
3.399
 20
6.264
 30
0.0
 11
3.399
 21
6.267
 31
0.0
  0
LINE
  5
64E
330
18
100
AcDbEntity
  8
Object
100
AcDbLine
 10
3.337
 20
7.156
 30
0.0
 11
3.532999999999999
 21
4.354
 31
0.0
  0
LINE
  5
64F
330
18
100
AcDbEntity
  8
Object
100
AcDbLine
 10
3.382
 20
7.158999999999999
 30
0.0
 11
3.422
 21
7.161
 31
0.0
  0
LINE
  5
650
330
18
100
AcDbEntity
  8
Object
100
AcDbLine
 10
3.337
 20
7.156
 30
0.0
 11
3.354
 21
7.157
 31
0.0
  0
LINE
  5
651
330
18
100
AcDbEntity
  8
Object
100
AcDbLine
 10
3.354
 20
7.157
 30
0.0
 11
3.337
 21
7.156
 31
0.0
  0
LINE
  5
652
330
18
100
AcDbEntity
  8
Object
100
AcDbLine
 10
3.422
 20
7.161
 30
0.0
 11
3.382
 21
7.158999999999999
 31
0.0
  0
LINE
  5
653
330
18
100
AcDbEntity
  8
Object
100
AcDbLine
 10
10.087
 20
7.157
 30
0.0
 11
10.105
 21
7.156
 31
0.0
  0
LINE
  5
654
330
18
100
AcDbEntity
  8
Object
100
AcDbLine
 10
10.016
 20
7.161999999999999
 30
0.0
 11
10.066
 21
7.158
 31
0.0
  0
LINE
  5
655
330
18
100
AcDbEntity
  8
Object
100
AcDbLine
 10
10.066
 20
7.158
 30
0.0
 11
10.016
 21
7.161999999999999
 31
0.0
  0
LINE
  5
656
330
18
100
AcDbEntity
  8
Object
100
AcDbLine
 10
10.087
 20
7.157
 30
0.0
 11
10.105
 21
7.156
 31
0.0
  0
LINE
  5
657
330
18
100
AcDbEntity
  8
Object
100
AcDbLine
 10
10.105
 20
7.156
 30
0.0
 11
10.105
 21
7.149
 31
0.0
  0
LINE
  5
658
330
18
100
AcDbEntity
  8
Object
100
AcDbLine
 10
10.105
 20
7.149
 30
0.0
 11
10.104
 21
7.131
 31
0.0
  0
LINE
  5
659
330
18
100
AcDbEntity
  8
Object
100
AcDbLine
 10
10.104
 20
7.131
 30
0.0
 11
10.102
 21
7.100999999999999
 31
0.0
  0
LINE
  5
65A
330
18
100
AcDbEntity
  8
Object
100
AcDbLine
 10
10.102
 20
7.100999999999999
 30
0.0
 11
10.099
 21
7.062
 31
0.0
  0
LINE
  5
65B
330
18
100
AcDbEntity
  8
Object
100
AcDbLine
 10
10.099
 20
7.062
 30
0.0
 11
10.095
 21
7.020999999999999
 31
0.0
  0
LINE
  5
65C
330
18
100
AcDbEntity
  8
Object
100
AcDbLine
 10
10.094
 20
7.006
 30
0.0
 11
10.092
 21
6.961999999999999
 31
0.0
  0
LINE
  5
65D
330
18
100
AcDbEntity
  8
Object
100
AcDbLine
 10
10.092
 20
6.961999999999999
 30
0.0
 11
10.088
 21
6.906
 31
0.0
  0
LINE
  5
65E
330
18
100
AcDbEntity
  8
Object
100
AcDbLine
 10
10.043
 20
6.267
 30
0.0
 11
10.043
 21
6.259999999999999
 31
0.0
  0
LINE
  5
65F
330
18
100
AcDbEntity
  8
Object
100
AcDbLine
 10
10.043
 20
6.259999999999999
 30
0.0
 11
10.041
 21
6.241999999999999
 31
0.0
  0
LINE
  5
660
330
18
100
AcDbEntity
  8
Object
100
AcDbLine
 10
10.038
 20
6.211999999999999
 30
0.0
 11
10.037
 21
6.177
 31
0.0
  0
LINE
  5
661
330
18
100
AcDbEntity
  8
Object
100
AcDbLine
 10
10.037
 20
6.177
 30
0.0
 11
10.034
 21
6.139
 31
0.0
  0
LINE
  5
662
330
18
100
AcDbEntity
  8
Object
100
AcDbLine
 10
10.034
 20
6.139
 30
0.0
 11
10.032
 21
6.104
 31
0.0
  0
LINE
  5
663
330
18
100
AcDbEntity
  8
Object
100
AcDbLine
 10
10.032
 20
6.104
 30
0.0
 11
10.03
 21
6.075
 31
0.0
  0
LINE
  5
664
330
18
100
AcDbEntity
  8
Object
100
AcDbLine
 10
10.028
 20
6.054999999999999
 30
0.0
 11
10.028
 21
6.049
 31
0.0
  0
LINE
  5
665
330
18
100
AcDbEntity
  8
Object
100
AcDbLine
 10
10.03
 20
6.075
 30
0.0
 11
10.028
 21
6.057
 31
0.0
  0
LINE
  5
666
330
18
100
AcDbEntity
  8
Object
100
AcDbLine
 10
10.029
 20
6.070999999999999
 30
0.0
 11
9.926999999999999
 21
4.602999999999999
 31
0.0
  0
LINE
  5
667
330
18
100
AcDbEntity
  8
Object
100
AcDbLine
 10
10.042
 20
6.254999999999999
 30
0.0
 11
10.032
 21
6.110999999999999
 31
0.0
  0
LINE
  5
668
330
18
100
AcDbEntity
  8
Object
100
AcDbLine
 10
10.088
 20
6.906
 30
0.0
 11
10.043
 21
6.262
 31
0.0
  0
LINE
  5
669
330
18
100
AcDbEntity
  8
Object
100
AcDbLine
 10
9.926999999999999
 20
4.602999999999999
 30
0.0
 11
9.923
 21
4.548
 31
0.0
  0
LINE
  5
66A
330
18
100
AcDbEntity
  8
Object
100
AcDbLine
 10
9.923
 20
4.548
 30
0.0
 11
9.919
 21
4.495
 31
0.0
  0
LINE
  5
66B
330
18
100
AcDbEntity
  8
Object
100
AcDbLine
 10
9.919
 20
4.495
 30
0.0
 11
9.916
 21
4.448
 31
0.0
  0
LINE
  5
66C
330
18
100
AcDbEntity
  8
Object
100
AcDbLine
 10
9.916
 20
4.448
 30
0.0
 11
9.913
 21
4.408
 31
0.0
  0
LINE
  5
66D
330
18
100
AcDbEntity
  8
Object
100
AcDbLine
 10
9.913
 20
4.408
 30
0.0
 11
9.910999999999999
 21
4.378
 31
0.0
  0
LINE
  5
66E
330
18
100
AcDbEntity
  8
Object
100
AcDbLine
 10
9.910999999999999
 20
4.378
 30
0.0
 11
9.91
 21
4.36
 31
0.0
  0
LINE
  5
66F
330
18
100
AcDbEntity
  8
Object
100
AcDbLine
 10
9.91
 20
4.36
 30
0.0
 11
9.909
 21
4.354
 31
0.0
  0
LINE
  5
670
330
18
100
AcDbEntity
  8
Object
100
AcDbLine
 10
9.909
 20
4.354
 30
0.0
 11
10.105
 21
7.156
 31
0.0
  0
LINE
  5
671
330
18
100
AcDbEntity
  8
Object
100
AcDbLine
 10
9.823999999999999
 20
4.358999999999999
 30
0.0
 11
9.82
 21
4.36
 31
0.0
  0
LINE
  5
672
330
18
100
AcDbEntity
  8
Object
100
AcDbLine
 10
9.891
 20
4.355
 30
0.0
 11
9.87
 21
4.355999999999999
 31
0.0
  0
LINE
  5
673
330
18
100
AcDbEntity
  8
Object
100
AcDbLine
 10
9.87
 20
4.355999999999999
 30
0.0
 11
9.891
 21
4.355
 31
0.0
  0
LINE
  5
674
330
18
100
AcDbEntity
  8
Object
100
AcDbLine
 10
9.82
 20
4.36
 30
0.0
 11
9.823999999999999
 21
4.358999999999999
 31
0.0
  0
LINE
  5
675
330
18
100
AcDbEntity
  8
Object
100
AcDbLine
 10
3.617999999999999
 20
4.358999999999999
 30
0.0
 11
3.623
 21
4.36
 31
0.0
  0
LINE
  5
676
330
18
100
AcDbEntity
  8
Object
100
AcDbLine
 10
3.55
 20
4.355
 30
0.0
 11
3.578
 21
4.357
 31
0.0
  0
LINE
  5
677
330
18
100
AcDbEntity
  8
Object
100
AcDbLine
 10
3.531
 20
4.37
 30
0.0
 11
3.531
 21
4.378
 31
0.0
  0
LINE
  5
678
330
18
100
AcDbEntity
  8
Object
100
AcDbLine
 10
3.531
 20
4.378
 30
0.0
 11
3.528999999999999
 21
4.408
 31
0.0
  0
LINE
  5
679
330
18
100
AcDbEntity
  8
Object
100
AcDbLine
 10
3.528999999999999
 20
4.408
 30
0.0
 11
3.526
 21
4.448
 31
0.0
  0
LINE
  5
67A
330
18
100
AcDbEntity
  8
Object
100
AcDbLine
 10
3.526
 20
4.448
 30
0.0
 11
3.523
 21
4.495
 31
0.0
  0
LINE
  5
67B
330
18
100
AcDbEntity
  8
Object
100
AcDbLine
 10
3.523
 20
4.495
 30
0.0
 11
3.519
 21
4.548
 31
0.0
  0
LINE
  5
67C
330
18
100
AcDbEntity
  8
Object
100
AcDbLine
 10
3.519
 20
4.548
 30
0.0
 11
3.516999999999999
 21
4.575
 31
0.0
  0
LINE
  5
67D
330
18
100
AcDbEntity
  8
Object
100
AcDbLine
 10
3.354
 20
7.157
 30
0.0
 11
3.337
 21
7.156
 31
0.0
  0
LINE
  5
67E
330
18
100
AcDbEntity
  8
Object
100
AcDbLine
 10
3.422
 20
7.161
 30
0.0
 11
3.382
 21
7.158999999999999
 31
0.0
  0
LINE
  5
67F
330
18
100
AcDbEntity
  8
Object
100
AcDbLine
 10
3.414
 20
6.049
 30
0.0
 11
3.414
 21
6.054999999999999
 31
0.0
  0
LINE
  5
680
330
18
100
AcDbEntity
  8
Object
100
AcDbLine
 10
3.407999999999999
 20
6.132
 30
0.0
 11
3.407999999999999
 21
6.139
 31
0.0
  0
LINE
  5
681
330
18
100
AcDbEntity
  8
Object
100
AcDbLine
 10
3.407999999999999
 20
6.139
 30
0.0
 11
3.407
 21
6.145
 31
0.0
  0
LINE
  5
682
330
18
100
AcDbEntity
  8
Object
100
AcDbLine
 10
3.399
 20
6.267
 30
0.0
 11
3.399
 21
6.264
 31
0.0
  0
LINE
  5
683
330
18
100
AcDbEntity
  8
Object
100
AcDbLine
 10
10.105
 20
7.149
 30
0.0
 11
10.105
 21
7.156
 31
0.0
  0
LINE
  5
684
330
18
100
AcDbEntity
  8
Object
100
AcDbLine
 10
10.066
 20
7.158
 30
0.0
 11
10.016
 21
7.161999999999999
 31
0.0
  0
LINE
  5
685
330
18
100
AcDbEntity
  8
Object
100
AcDbLine
 10
10.105
 20
7.156
 30
0.0
 11
10.087
 21
7.157
 31
0.0
  0
LINE
  5
686
330
18
100
AcDbEntity
  8
Object
100
AcDbLine
 10
10.105
 20
7.149
 30
0.0
 11
10.104
 21
7.131
 31
0.0
  0
LINE
  5
687
330
18
100
AcDbEntity
  8
Object
100
AcDbLine
 10
10.104
 20
7.131
 30
0.0
 11
10.102
 21
7.100999999999999
 31
0.0
  0
LINE
  5
688
330
18
100
AcDbEntity
  8
Object
100
AcDbLine
 10
10.102
 20
7.100999999999999
 30
0.0
 11
10.099
 21
7.062
 31
0.0
  0
LINE
  5
689
330
18
100
AcDbEntity
  8
Object
100
AcDbLine
 10
10.099
 20
7.062
 30
0.0
 11
10.095
 21
7.020999999999999
 31
0.0
  0
LINE
  5
68A
330
18
100
AcDbEntity
  8
Object
100
AcDbLine
 10
10.094
 20
7.006
 30
0.0
 11
10.092
 21
6.961999999999999
 31
0.0
  0
LINE
  5
68B
330
18
100
AcDbEntity
  8
Object
100
AcDbLine
 10
10.092
 20
6.961999999999999
 30
0.0
 11
10.088
 21
6.906
 31
0.0
  0
LINE
  5
68C
330
18
100
AcDbEntity
  8
Object
100
AcDbLine
 10
10.027
 20
6.049
 30
0.0
 11
10.028
 21
6.049
 31
0.0
  0
LINE
  5
68D
330
18
100
AcDbEntity
  8
Object
100
AcDbLine
 10
9.926
 20
4.602999999999999
 30
0.0
 11
9.926999999999999
 21
4.602999999999999
 31
0.0
  0
LINE
  5
68E
330
18
100
AcDbEntity
  8
Object
100
AcDbLine
 10
9.926999999999999
 20
4.602999999999999
 30
0.0
 11
9.923
 21
4.548
 31
0.0
  0
LINE
  5
68F
330
18
100
AcDbEntity
  8
Object
100
AcDbLine
 10
9.923
 20
4.548
 30
0.0
 11
9.919
 21
4.495
 31
0.0
  0
LINE
  5
690
330
18
100
AcDbEntity
  8
Object
100
AcDbLine
 10
9.919
 20
4.495
 30
0.0
 11
9.916
 21
4.448
 31
0.0
  0
LINE
  5
691
330
18
100
AcDbEntity
  8
Object
100
AcDbLine
 10
9.916
 20
4.448
 30
0.0
 11
9.913
 21
4.408
 31
0.0
  0
LINE
  5
692
330
18
100
AcDbEntity
  8
Object
100
AcDbLine
 10
9.913
 20
4.408
 30
0.0
 11
9.910999999999999
 21
4.378
 31
0.0
  0
LINE
  5
693
330
18
100
AcDbEntity
  8
Object
100
AcDbLine
 10
9.910999999999999
 20
4.378
 30
0.0
 11
9.91
 21
4.36
 31
0.0
  0
LINE
  5
694
330
18
100
AcDbEntity
  8
Object
100
AcDbLine
 10
9.87
 20
4.355999999999999
 30
0.0
 11
9.891
 21
4.355
 31
0.0
  0
LINE
  5
695
330
18
100
AcDbEntity
  8
Object
100
AcDbLine
 10
9.82
 20
4.36
 30
0.0
 11
9.823999999999999
 21
4.358999999999999
 31
0.0
  0
LINE
  5
696
330
18
100
AcDbEntity
  8
Object
100
AcDbLine
 10
9.909
 20
4.354
 30
0.0
 11
9.91
 21
4.36
 31
0.0
  0
LINE
  5
697
330
18
100
AcDbEntity
  8
Object
100
AcDbLine
 10
10.043
 20
6.262
 30
0.0
 11
10.088
 21
6.906
 31
0.0
  0
LINE
  5
698
330
18
100
AcDbEntity
  8
Object
100
AcDbLine
 10
10.032
 20
6.110999999999999
 30
0.0
 11
10.042
 21
6.254999999999999
 31
0.0
  0
LINE
  5
699
330
18
100
AcDbEntity
  8
Object
100
AcDbLine
 10
9.926999999999999
 20
4.602999999999999
 30
0.0
 11
10.029
 21
6.070999999999999
 31
0.0
  0
LINE
  5
69A
330
18
100
AcDbEntity
  8
Object
100
AcDbLine
 10
10.088
 20
6.906
 30
0.0
 11
10.087
 21
6.906
 31
0.0
  0
LINE
  5
69B
330
18
100
AcDbEntity
  8
Object
100
AcDbLine
 10
10.043
 20
6.267
 30
0.0
 11
10.043
 21
6.259999999999999
 31
0.0
  0
LINE
  5
69C
330
18
100
AcDbEntity
  8
Object
100
AcDbLine
 10
10.043
 20
6.259999999999999
 30
0.0
 11
10.041
 21
6.241999999999999
 31
0.0
  0
LINE
  5
69D
330
18
100
AcDbEntity
  8
Object
100
AcDbLine
 10
10.038
 20
6.211999999999999
 30
0.0
 11
10.037
 21
6.177
 31
0.0
  0
LINE
  5
69E
330
18
100
AcDbEntity
  8
Object
100
AcDbLine
 10
10.037
 20
6.177
 30
0.0
 11
10.034
 21
6.139
 31
0.0
  0
LINE
  5
69F
330
18
100
AcDbEntity
  8
Object
100
AcDbLine
 10
10.034
 20
6.139
 30
0.0
 11
10.032
 21
6.104
 31
0.0
  0
LINE
  5
6A0
330
18
100
AcDbEntity
  8
Object
100
AcDbLine
 10
10.032
 20
6.104
 30
0.0
 11
10.03
 21
6.075
 31
0.0
  0
LINE
  5
6A1
330
18
100
AcDbEntity
  8
Object
100
AcDbLine
 10
10.028
 20
6.049
 30
0.0
 11
10.028
 21
6.054999999999999
 31
0.0
  0
LINE
  5
6A2
330
18
100
AcDbEntity
  8
Object
100
AcDbLine
 10
10.028
 20
6.057
 30
0.0
 11
10.03
 21
6.075
 31
0.0
  0
LINE
  5
6A3
330
18
100
AcDbEntity
  8
Object
100
AcDbLine
 10
4.836
 20
12.992
 30
0.0
 11
4.798
 21
12.986
 31
0.0
  0
LINE
  5
6A4
330
18
100
AcDbEntity
  8
Object
100
AcDbLine
 10
4.798
 20
12.986
 30
0.0
 11
4.762999999999999
 21
12.968
 31
0.0
  0
LINE
  5
6A5
330
18
100
AcDbEntity
  8
Object
100
AcDbLine
 10
4.762999999999999
 20
12.968
 30
0.0
 11
4.735
 21
12.94
 31
0.0
  0
LINE
  5
6A6
330
18
100
AcDbEntity
  8
Object
100
AcDbLine
 10
4.735
 20
12.94
 30
0.0
 11
4.717
 21
12.905
 31
0.0
  0
LINE
  5
6A7
330
18
100
AcDbEntity
  8
Object
100
AcDbLine
 10
4.717
 20
12.905
 30
0.0
 11
4.711
 21
12.867
 31
0.0
  0
LINE
  5
6A8
330
18
100
AcDbEntity
  8
Object
100
AcDbLine
 10
4.711
 20
12.222
 30
0.0
 11
4.711
 21
12.212
 31
0.0
  0
LINE
  5
6A9
330
18
100
AcDbEntity
  8
Object
100
AcDbLine
 10
4.711
 20
12.202
 30
0.0
 11
4.711
 21
12.204
 31
0.0
  0
LINE
  5
6AA
330
18
100
AcDbEntity
  8
Object
100
AcDbLine
 10
4.711
 20
12.204
 30
0.0
 11
4.711
 21
12.212
 31
0.0
  0
LINE
  5
6AB
330
18
100
AcDbEntity
  8
Object
100
AcDbLine
 10
4.711
 20
12.867
 30
0.0
 11
4.711
 21
12.222
 31
0.0
  0
LINE
  5
6AC
330
18
100
AcDbEntity
  8
Object
100
AcDbLine
 10
5.235999999999999
 20
12.992
 30
0.0
 11
4.836
 21
12.992
 31
0.0
  0
LINE
  5
6AD
330
18
100
AcDbEntity
  8
Object
100
AcDbLine
 10
5.336999999999999
 20
12.94
 30
0.0
 11
5.355
 21
12.905
 31
0.0
  0
LINE
  5
6AE
330
18
100
AcDbEntity
  8
Object
100
AcDbLine
 10
5.355
 20
12.905
 30
0.0
 11
5.360999999999999
 21
12.867
 31
0.0
  0
LINE
  5
6AF
330
18
100
AcDbEntity
  8
Object
100
AcDbLine
 10
5.336999999999999
 20
12.94
 30
0.0
 11
5.31
 21
12.968
 31
0.0
  0
LINE
  5
6B0
330
18
100
AcDbEntity
  8
Object
100
AcDbLine
 10
5.31
 20
12.968
 30
0.0
 11
5.275
 21
12.986
 31
0.0
  0
LINE
  5
6B1
330
18
100
AcDbEntity
  8
Object
100
AcDbLine
 10
5.275
 20
12.986
 30
0.0
 11
5.235999999999999
 21
12.992
 31
0.0
  0
LINE
  5
6B2
330
18
100
AcDbEntity
  8
Object
100
AcDbLine
 10
5.235999999999999
 20
12.992
 30
0.0
 11
4.836
 21
12.992
 31
0.0
  0
LINE
  5
6B3
330
18
100
AcDbEntity
  8
Object
100
AcDbLine
 10
4.762999999999999
 20
12.968
 30
0.0
 11
4.735
 21
12.94
 31
0.0
  0
LINE
  5
6B4
330
18
100
AcDbEntity
  8
Object
100
AcDbLine
 10
4.711
 20
12.867
 30
0.0
 11
4.717
 21
12.905
 31
0.0
  0
LINE
  5
6B5
330
18
100
AcDbEntity
  8
Object
100
AcDbLine
 10
4.717
 20
12.905
 30
0.0
 11
4.735
 21
12.94
 31
0.0
  0
LINE
  5
6B6
330
18
100
AcDbEntity
  8
Object
100
AcDbLine
 10
4.762999999999999
 20
12.968
 30
0.0
 11
4.798
 21
12.986
 31
0.0
  0
LINE
  5
6B7
330
18
100
AcDbEntity
  8
Object
100
AcDbLine
 10
4.798
 20
12.986
 30
0.0
 11
4.836
 21
12.992
 31
0.0
  0
LINE
  5
6B8
330
18
100
AcDbEntity
  8
Object
100
AcDbLine
 10
5.360999999999999
 20
12.867
 30
0.0
 11
5.360999999999999
 21
12.222
 31
0.0
  0
LINE
  5
6B9
330
18
100
AcDbEntity
  8
Object
100
AcDbLine
 10
5.360999999999999
 20
12.222
 30
0.0
 11
4.711
 21
12.222
 31
0.0
  0
LINE
  5
6BA
330
18
100
AcDbEntity
  8
Object
100
AcDbLine
 10
4.711
 20
12.222
 30
0.0
 11
4.711
 21
12.867
 31
0.0
  0
LINE
  5
6BB
330
18
100
AcDbEntity
  8
Object
100
AcDbLine
 10
10.102
 20
12.112
 30
0.0
 11
10.101
 21
12.112
 31
0.0
  0
LINE
  5
6BC
330
18
100
AcDbEntity
  8
Object
100
AcDbLine
 10
10.101
 20
12.112
 30
0.0
 11
10.087
 21
12.112
 31
0.0
  0
LINE
  5
6BD
330
18
100
AcDbEntity
  8
Object
100
AcDbLine
 10
10.087
 20
12.112
 30
0.0
 11
10.059
 21
12.112
 31
0.0
  0
LINE
  5
6BE
330
18
100
AcDbEntity
  8
Object
100
AcDbLine
 10
10.059
 20
12.112
 30
0.0
 11
10.02
 21
12.112
 31
0.0
  0
LINE
  5
6BF
330
18
100
AcDbEntity
  8
Object
100
AcDbLine
 10
10.02
 20
12.112
 30
0.0
 11
9.968999999999999
 21
12.112
 31
0.0
  0
LINE
  5
6C0
330
18
100
AcDbEntity
  8
Object
100
AcDbLine
 10
9.968999999999999
 20
12.112
 30
0.0
 11
9.907999999999999
 21
12.112
 31
0.0
  0
LINE
  5
6C1
330
18
100
AcDbEntity
  8
Object
100
AcDbLine
 10
9.907999999999999
 20
12.112
 30
0.0
 11
9.839
 21
12.112
 31
0.0
  0
LINE
  5
6C2
330
18
100
AcDbEntity
  8
Object
100
AcDbLine
 10
9.839
 20
12.112
 30
0.0
 11
9.763999999999999
 21
12.112
 31
0.0
  0
LINE
  5
6C3
330
18
100
AcDbEntity
  8
Object
100
AcDbLine
 10
9.763999999999999
 20
12.112
 30
0.0
 11
9.685
 21
12.112
 31
0.0
  0
LINE
  5
6C4
330
18
100
AcDbEntity
  8
Object
100
AcDbLine
 10
9.685
 20
12.112
 30
0.0
 11
9.602999999999999
 21
12.112
 31
0.0
  0
LINE
  5
6C5
330
18
100
AcDbEntity
  8
Object
100
AcDbLine
 10
9.602999999999999
 20
12.112
 30
0.0
 11
9.250999999999999
 21
12.112
 31
0.0
  0
LINE
  5
6C6
330
18
100
AcDbEntity
  8
Object
100
AcDbLine
 10
9.250999999999999
 20
12.112
 30
0.0
 11
9.195999999999999
 21
12.112
 31
0.0
  0
LINE
  5
6C7
330
18
100
AcDbEntity
  8
Object
100
AcDbLine
 10
9.195999999999999
 20
12.112
 30
0.0
 11
9.143
 21
12.112
 31
0.0
  0
LINE
  5
6C8
330
18
100
AcDbEntity
  8
Object
100
AcDbLine
 10
9.143
 20
12.112
 30
0.0
 11
9.095
 21
12.112
 31
0.0
  0
LINE
  5
6C9
330
18
100
AcDbEntity
  8
Object
100
AcDbLine
 10
9.095
 20
12.112
 30
0.0
 11
9.056
 21
12.112
 31
0.0
  0
LINE
  5
6CA
330
18
100
AcDbEntity
  8
Object
100
AcDbLine
 10
9.056
 20
12.112
 30
0.0
 11
9.025999999999999
 21
12.112
 31
0.0
  0
LINE
  5
6CB
330
18
100
AcDbEntity
  8
Object
100
AcDbLine
 10
9.025999999999999
 20
12.112
 30
0.0
 11
9.008
 21
12.112
 31
0.0
  0
LINE
  5
6CC
330
18
100
AcDbEntity
  8
Object
100
AcDbLine
 10
9.008
 20
12.112
 30
0.0
 11
9.000999999999999
 21
12.112
 31
0.0
  0
LINE
  5
6CD
330
18
100
AcDbEntity
  8
Object
100
AcDbLine
 10
9.000999999999999
 20
12.112
 30
0.0
 11
8.993
 21
12.112
 31
0.0
  0
LINE
  5
6CE
330
18
100
AcDbEntity
  8
Object
100
AcDbLine
 10
8.993
 20
12.112
 30
0.0
 11
8.97
 21
12.112
 31
0.0
  0
LINE
  5
6CF
330
18
100
AcDbEntity
  8
Object
100
AcDbLine
 10
8.97
 20
12.112
 30
0.0
 11
8.931
 21
12.112
 31
0.0
  0
LINE
  5
6D0
330
18
100
AcDbEntity
  8
Object
100
AcDbLine
 10
8.931
 20
12.112
 30
0.0
 11
8.878
 21
12.112
 31
0.0
  0
LINE
  5
6D1
330
18
100
AcDbEntity
  8
Object
100
AcDbLine
 10
8.878
 20
12.112
 30
0.0
 11
8.810999999999999
 21
12.112
 31
0.0
  0
LINE
  5
6D2
330
18
100
AcDbEntity
  8
Object
100
AcDbLine
 10
8.810999999999999
 20
12.112
 30
0.0
 11
8.731999999999999
 21
12.112
 31
0.0
  0
LINE
  5
6D3
330
18
100
AcDbEntity
  8
Object
100
AcDbLine
 10
8.731999999999999
 20
12.112
 30
0.0
 11
8.643
 21
12.112
 31
0.0
  0
LINE
  5
6D4
330
18
100
AcDbEntity
  8
Object
100
AcDbLine
 10
8.643
 20
12.112
 30
0.0
 11
8.544999999999999
 21
12.112
 31
0.0
  0
LINE
  5
6D5
330
18
100
AcDbEntity
  8
Object
100
AcDbLine
 10
8.544999999999999
 20
12.112
 30
0.0
 11
8.441
 21
12.112
 31
0.0
  0
LINE
  5
6D6
330
18
100
AcDbEntity
  8
Object
100
AcDbLine
 10
8.441
 20
12.112
 30
0.0
 11
8.332
 21
12.112
 31
0.0
  0
LINE
  5
6D7
330
18
100
AcDbEntity
  8
Object
100
AcDbLine
 10
8.332
 20
12.112
 30
0.0
 11
8.221
 21
12.112
 31
0.0
  0
LINE
  5
6D8
330
18
100
AcDbEntity
  8
Object
100
AcDbLine
 10
8.221
 20
12.112
 30
0.0
 11
8.109999999999999
 21
12.112
 31
0.0
  0
LINE
  5
6D9
330
18
100
AcDbEntity
  8
Object
100
AcDbLine
 10
8.109999999999999
 20
12.112
 30
0.0
 11
8.002
 21
12.112
 31
0.0
  0
LINE
  5
6DA
330
18
100
AcDbEntity
  8
Object
100
AcDbLine
 10
8.002
 20
12.112
 30
0.0
 11
7.897
 21
12.112
 31
0.0
  0
LINE
  5
6DB
330
18
100
AcDbEntity
  8
Object
100
AcDbLine
 10
7.897
 20
12.112
 30
0.0
 11
7.799999999999999
 21
12.112
 31
0.0
  0
LINE
  5
6DC
330
18
100
AcDbEntity
  8
Object
100
AcDbLine
 10
7.799999999999999
 20
12.112
 30
0.0
 11
7.709999999999999
 21
12.112
 31
0.0
  0
LINE
  5
6DD
330
18
100
AcDbEntity
  8
Object
100
AcDbLine
 10
7.709999999999999
 20
12.112
 30
0.0
 11
7.632
 21
12.112
 31
0.0
  0
LINE
  5
6DE
330
18
100
AcDbEntity
  8
Object
100
AcDbLine
 10
7.632
 20
12.112
 30
0.0
 11
7.565
 21
12.112
 31
0.0
  0
LINE
  5
6DF
330
18
100
AcDbEntity
  8
Object
100
AcDbLine
 10
7.565
 20
12.112
 30
0.0
 11
7.512
 21
12.112
 31
0.0
  0
LINE
  5
6E0
330
18
100
AcDbEntity
  8
Object
100
AcDbLine
 10
7.512
 20
12.112
 30
0.0
 11
7.472999999999999
 21
12.112
 31
0.0
  0
LINE
  5
6E1
330
18
100
AcDbEntity
  8
Object
100
AcDbLine
 10
7.472999999999999
 20
12.112
 30
0.0
 11
7.448999999999999
 21
12.112
 31
0.0
  0
LINE
  5
6E2
330
18
100
AcDbEntity
  8
Object
100
AcDbLine
 10
7.448999999999999
 20
12.112
 30
0.0
 11
7.440999999999999
 21
12.112
 31
0.0
  0
LINE
  5
6E3
330
18
100
AcDbEntity
  8
Object
100
AcDbLine
 10
7.440999999999999
 20
12.112
 30
0.0
 11
7.435
 21
12.112
 31
0.0
  0
LINE
  5
6E4
330
18
100
AcDbEntity
  8
Object
100
AcDbLine
 10
7.435
 20
12.112
 30
0.0
 11
7.416
 21
12.112
 31
0.0
  0
LINE
  5
6E5
330
18
100
AcDbEntity
  8
Object
100
AcDbLine
 10
7.416
 20
12.112
 30
0.0
 11
7.387
 21
12.112
 31
0.0
  0
LINE
  5
6E6
330
18
100
AcDbEntity
  8
Object
100
AcDbLine
 10
7.387
 20
12.112
 30
0.0
 11
7.347
 21
12.112
 31
0.0
  0
LINE
  5
6E7
330
18
100
AcDbEntity
  8
Object
100
AcDbLine
 10
7.347
 20
12.112
 30
0.0
 11
7.299999999999999
 21
12.112
 31
0.0
  0
LINE
  5
6E8
330
18
100
AcDbEntity
  8
Object
100
AcDbLine
 10
7.299999999999999
 20
12.112
 30
0.0
 11
7.246999999999999
 21
12.112
 31
0.0
  0
LINE
  5
6E9
330
18
100
AcDbEntity
  8
Object
100
AcDbLine
 10
7.246999999999999
 20
12.112
 30
0.0
 11
7.190999999999999
 21
12.112
 31
0.0
  0
LINE
  5
6EA
330
18
100
AcDbEntity
  8
Object
100
AcDbLine
 10
7.190999999999999
 20
12.112
 30
0.0
 11
6.251
 21
12.112
 31
0.0
  0
LINE
  5
6EB
330
18
100
AcDbEntity
  8
Object
100
AcDbLine
 10
6.251
 20
12.112
 30
0.0
 11
6.195999999999999
 21
12.112
 31
0.0
  0
LINE
  5
6EC
330
18
100
AcDbEntity
  8
Object
100
AcDbLine
 10
6.195999999999999
 20
12.112
 30
0.0
 11
6.142999999999999
 21
12.112
 31
0.0
  0
LINE
  5
6ED
330
18
100
AcDbEntity
  8
Object
100
AcDbLine
 10
6.142999999999999
 20
12.112
 30
0.0
 11
6.094999999999999
 21
12.112
 31
0.0
  0
LINE
  5
6EE
330
18
100
AcDbEntity
  8
Object
100
AcDbLine
 10
6.094999999999999
 20
12.112
 30
0.0
 11
6.056
 21
12.112
 31
0.0
  0
LINE
  5
6EF
330
18
100
AcDbEntity
  8
Object
100
AcDbLine
 10
6.056
 20
12.112
 30
0.0
 11
6.025999999999999
 21
12.112
 31
0.0
  0
LINE
  5
6F0
330
18
100
AcDbEntity
  8
Object
100
AcDbLine
 10
6.025999999999999
 20
12.112
 30
0.0
 11
6.007
 21
12.112
 31
0.0
  0
LINE
  5
6F1
330
18
100
AcDbEntity
  8
Object
100
AcDbLine
 10
6.007
 20
12.112
 30
0.0
 11
6.001
 21
12.112
 31
0.0
  0
LINE
  5
6F2
330
18
100
AcDbEntity
  8
Object
100
AcDbLine
 10
6.001
 20
12.112
 30
0.0
 11
5.993
 21
12.112
 31
0.0
  0
LINE
  5
6F3
330
18
100
AcDbEntity
  8
Object
100
AcDbLine
 10
5.993
 20
12.112
 30
0.0
 11
5.969999999999999
 21
12.112
 31
0.0
  0
LINE
  5
6F4
330
18
100
AcDbEntity
  8
Object
100
AcDbLine
 10
5.969999999999999
 20
12.112
 30
0.0
 11
5.931
 21
12.112
 31
0.0
  0
LINE
  5
6F5
330
18
100
AcDbEntity
  8
Object
100
AcDbLine
 10
5.931
 20
12.112
 30
0.0
 11
5.876999999999999
 21
12.112
 31
0.0
  0
LINE
  5
6F6
330
18
100
AcDbEntity
  8
Object
100
AcDbLine
 10
5.876999999999999
 20
12.112
 30
0.0
 11
5.810999999999999
 21
12.112
 31
0.0
  0
LINE
  5
6F7
330
18
100
AcDbEntity
  8
Object
100
AcDbLine
 10
5.810999999999999
 20
12.112
 30
0.0
 11
5.732
 21
12.112
 31
0.0
  0
LINE
  5
6F8
330
18
100
AcDbEntity
  8
Object
100
AcDbLine
 10
5.732
 20
12.112
 30
0.0
 11
5.642999999999999
 21
12.112
 31
0.0
  0
LINE
  5
6F9
330
18
100
AcDbEntity
  8
Object
100
AcDbLine
 10
5.642999999999999
 20
12.112
 30
0.0
 11
5.544999999999999
 21
12.112
 31
0.0
  0
LINE
  5
6FA
330
18
100
AcDbEntity
  8
Object
100
AcDbLine
 10
5.544999999999999
 20
12.112
 30
0.0
 11
5.440999999999999
 21
12.112
 31
0.0
  0
LINE
  5
6FB
330
18
100
AcDbEntity
  8
Object
100
AcDbLine
 10
5.440999999999999
 20
12.112
 30
0.0
 11
5.331999999999999
 21
12.112
 31
0.0
  0
LINE
  5
6FC
330
18
100
AcDbEntity
  8
Object
100
AcDbLine
 10
5.331999999999999
 20
12.112
 30
0.0
 11
5.221
 21
12.112
 31
0.0
  0
LINE
  5
6FD
330
18
100
AcDbEntity
  8
Object
100
AcDbLine
 10
5.221
 20
12.112
 30
0.0
 11
5.11
 21
12.112
 31
0.0
  0
LINE
  5
6FE
330
18
100
AcDbEntity
  8
Object
100
AcDbLine
 10
5.11
 20
12.112
 30
0.0
 11
5.001
 21
12.112
 31
0.0
  0
LINE
  5
6FF
330
18
100
AcDbEntity
  8
Object
100
AcDbLine
 10
5.001
 20
12.112
 30
0.0
 11
4.897
 21
12.112
 31
0.0
  0
LINE
  5
700
330
18
100
AcDbEntity
  8
Object
100
AcDbLine
 10
4.897
 20
12.112
 30
0.0
 11
4.799
 21
12.112
 31
0.0
  0
LINE
  5
701
330
18
100
AcDbEntity
  8
Object
100
AcDbLine
 10
4.799
 20
12.112
 30
0.0
 11
4.709999999999999
 21
12.112
 31
0.0
  0
LINE
  5
702
330
18
100
AcDbEntity
  8
Object
100
AcDbLine
 10
4.709999999999999
 20
12.112
 30
0.0
 11
4.631999999999999
 21
12.112
 31
0.0
  0
LINE
  5
703
330
18
100
AcDbEntity
  8
Object
100
AcDbLine
 10
4.631999999999999
 20
12.112
 30
0.0
 11
4.565
 21
12.112
 31
0.0
  0
LINE
  5
704
330
18
100
AcDbEntity
  8
Object
100
AcDbLine
 10
4.565
 20
12.112
 30
0.0
 11
4.512
 21
12.112
 31
0.0
  0
LINE
  5
705
330
18
100
AcDbEntity
  8
Object
100
AcDbLine
 10
4.512
 20
12.112
 30
0.0
 11
4.472999999999999
 21
12.112
 31
0.0
  0
LINE
  5
706
330
18
100
AcDbEntity
  8
Object
100
AcDbLine
 10
4.472999999999999
 20
12.112
 30
0.0
 11
4.448999999999999
 21
12.112
 31
0.0
  0
LINE
  5
707
330
18
100
AcDbEntity
  8
Object
100
AcDbLine
 10
4.448999999999999
 20
12.112
 30
0.0
 11
4.440999999999999
 21
12.112
 31
0.0
  0
LINE
  5
708
330
18
100
AcDbEntity
  8
Object
100
AcDbLine
 10
4.440999999999999
 20
12.112
 30
0.0
 11
4.435
 21
12.112
 31
0.0
  0
LINE
  5
709
330
18
100
AcDbEntity
  8
Object
100
AcDbLine
 10
4.435
 20
12.112
 30
0.0
 11
4.416
 21
12.112
 31
0.0
  0
LINE
  5
70A
330
18
100
AcDbEntity
  8
Object
100
AcDbLine
 10
4.416
 20
12.112
 30
0.0
 11
4.387
 21
12.112
 31
0.0
  0
LINE
  5
70B
330
18
100
AcDbEntity
  8
Object
100
AcDbLine
 10
4.387
 20
12.112
 30
0.0
 11
4.347
 21
12.112
 31
0.0
  0
LINE
  5
70C
330
18
100
AcDbEntity
  8
Object
100
AcDbLine
 10
4.347
 20
12.112
 30
0.0
 11
4.299999999999999
 21
12.112
 31
0.0
  0
LINE
  5
70D
330
18
100
AcDbEntity
  8
Object
100
AcDbLine
 10
4.299999999999999
 20
12.112
 30
0.0
 11
4.246999999999999
 21
12.112
 31
0.0
  0
LINE
  5
70E
330
18
100
AcDbEntity
  8
Object
100
AcDbLine
 10
4.246999999999999
 20
12.112
 30
0.0
 11
4.190999999999999
 21
12.112
 31
0.0
  0
LINE
  5
70F
330
18
100
AcDbEntity
  8
Object
100
AcDbLine
 10
4.190999999999999
 20
12.112
 30
0.0
 11
3.839
 21
12.112
 31
0.0
  0
LINE
  5
710
330
18
100
AcDbEntity
  8
Object
100
AcDbLine
 10
3.839
 20
12.112
 30
0.0
 11
3.758
 21
12.112
 31
0.0
  0
LINE
  5
711
330
18
100
AcDbEntity
  8
Object
100
AcDbLine
 10
3.758
 20
12.112
 30
0.0
 11
3.677999999999999
 21
12.112
 31
0.0
  0
LINE
  5
712
330
18
100
AcDbEntity
  8
Object
100
AcDbLine
 10
3.677999999999999
 20
12.112
 30
0.0
 11
3.603
 21
12.112
 31
0.0
  0
LINE
  5
713
330
18
100
AcDbEntity
  8
Object
100
AcDbLine
 10
3.603
 20
12.112
 30
0.0
 11
3.534
 21
12.112
 31
0.0
  0
LINE
  5
714
330
18
100
AcDbEntity
  8
Object
100
AcDbLine
 10
3.534
 20
12.112
 30
0.0
 11
3.474
 21
12.112
 31
0.0
  0
LINE
  5
715
330
18
100
AcDbEntity
  8
Object
100
AcDbLine
 10
3.474
 20
12.112
 30
0.0
 11
3.423
 21
12.112
 31
0.0
  0
LINE
  5
716
330
18
100
AcDbEntity
  8
Object
100
AcDbLine
 10
3.423
 20
12.112
 30
0.0
 11
3.383
 21
12.112
 31
0.0
  0
LINE
  5
717
330
18
100
AcDbEntity
  8
Object
100
AcDbLine
 10
3.383
 20
12.112
 30
0.0
 11
3.355999999999999
 21
12.112
 31
0.0
  0
LINE
  5
718
330
18
100
AcDbEntity
  8
Object
100
AcDbLine
 10
3.355999999999999
 20
12.112
 30
0.0
 11
3.342
 21
12.112
 31
0.0
  0
LINE
  5
719
330
18
100
AcDbEntity
  8
Object
100
AcDbLine
 10
3.342
 20
12.112
 30
0.0
 11
3.341
 21
12.112
 31
0.0
  0
LINE
  5
71A
330
18
100
AcDbEntity
  8
Object
100
AcDbLine
 10
5.360999999999999
 20
12.204
 30
0.0
 11
5.360999999999999
 21
12.212
 31
0.0
  0
LINE
  5
71B
330
18
100
AcDbEntity
  8
Object
100
AcDbLine
 10
4.711
 20
12.222
 30
0.0
 11
4.711
 21
12.212
 31
0.0
  0
LINE
  5
71C
330
18
100
AcDbEntity
  8
Object
100
AcDbLine
 10
5.360999999999999
 20
12.212
 30
0.0
 11
5.360999999999999
 21
12.222
 31
0.0
  0
LINE
  5
71D
330
18
100
AcDbEntity
  8
Object
100
AcDbLine
 10
4.711
 20
12.212
 30
0.0
 11
4.711
 21
12.204
 31
0.0
  0
LINE
  5
71E
330
18
100
AcDbEntity
  8
Object
100
AcDbLine
 10
5.360999999999999
 20
12.202
 30
0.0
 11
5.360999999999999
 21
12.204
 31
0.0
  0
LINE
  5
71F
330
18
100
AcDbEntity
  8
Object
100
AcDbLine
 10
4.711
 20
12.204
 30
0.0
 11
4.711
 21
12.202
 31
0.0
  0
LINE
  5
720
330
18
100
AcDbEntity
  8
Object
100
AcDbLine
 10
10.102
 20
12.202
 30
0.0
 11
10.101
 21
12.202
 31
0.0
  0
LINE
  5
721
330
18
100
AcDbEntity
  8
Object
100
AcDbLine
 10
10.101
 20
12.202
 30
0.0
 11
10.087
 21
12.202
 31
0.0
  0
LINE
  5
722
330
18
100
AcDbEntity
  8
Object
100
AcDbLine
 10
10.087
 20
12.202
 30
0.0
 11
10.059
 21
12.202
 31
0.0
  0
LINE
  5
723
330
18
100
AcDbEntity
  8
Object
100
AcDbLine
 10
10.059
 20
12.202
 30
0.0
 11
10.02
 21
12.202
 31
0.0
  0
LINE
  5
724
330
18
100
AcDbEntity
  8
Object
100
AcDbLine
 10
10.02
 20
12.202
 30
0.0
 11
9.968999999999999
 21
12.202
 31
0.0
  0
LINE
  5
725
330
18
100
AcDbEntity
  8
Object
100
AcDbLine
 10
9.968999999999999
 20
12.202
 30
0.0
 11
9.907999999999999
 21
12.202
 31
0.0
  0
LINE
  5
726
330
18
100
AcDbEntity
  8
Object
100
AcDbLine
 10
9.907999999999999
 20
12.202
 30
0.0
 11
9.839
 21
12.202
 31
0.0
  0
LINE
  5
727
330
18
100
AcDbEntity
  8
Object
100
AcDbLine
 10
9.839
 20
12.202
 30
0.0
 11
9.763999999999999
 21
12.202
 31
0.0
  0
LINE
  5
728
330
18
100
AcDbEntity
  8
Object
100
AcDbLine
 10
9.763999999999999
 20
12.202
 30
0.0
 11
9.685
 21
12.202
 31
0.0
  0
LINE
  5
729
330
18
100
AcDbEntity
  8
Object
100
AcDbLine
 10
9.685
 20
12.202
 30
0.0
 11
9.602999999999999
 21
12.202
 31
0.0
  0
LINE
  5
72A
330
18
100
AcDbEntity
  8
Object
100
AcDbLine
 10
9.602999999999999
 20
12.202
 30
0.0
 11
9.250999999999999
 21
12.202
 31
0.0
  0
LINE
  5
72B
330
18
100
AcDbEntity
  8
Object
100
AcDbLine
 10
9.250999999999999
 20
12.202
 30
0.0
 11
9.195999999999999
 21
12.202
 31
0.0
  0
LINE
  5
72C
330
18
100
AcDbEntity
  8
Object
100
AcDbLine
 10
9.195999999999999
 20
12.202
 30
0.0
 11
9.143
 21
12.202
 31
0.0
  0
LINE
  5
72D
330
18
100
AcDbEntity
  8
Object
100
AcDbLine
 10
9.143
 20
12.202
 30
0.0
 11
9.095
 21
12.202
 31
0.0
  0
LINE
  5
72E
330
18
100
AcDbEntity
  8
Object
100
AcDbLine
 10
9.095
 20
12.202
 30
0.0
 11
9.056
 21
12.202
 31
0.0
  0
LINE
  5
72F
330
18
100
AcDbEntity
  8
Object
100
AcDbLine
 10
9.056
 20
12.202
 30
0.0
 11
9.025999999999999
 21
12.202
 31
0.0
  0
LINE
  5
730
330
18
100
AcDbEntity
  8
Object
100
AcDbLine
 10
9.025999999999999
 20
12.202
 30
0.0
 11
9.008
 21
12.202
 31
0.0
  0
LINE
  5
731
330
18
100
AcDbEntity
  8
Object
100
AcDbLine
 10
9.008
 20
12.202
 30
0.0
 11
9.000999999999999
 21
12.202
 31
0.0
  0
LINE
  5
732
330
18
100
AcDbEntity
  8
Object
100
AcDbLine
 10
9.000999999999999
 20
12.202
 30
0.0
 11
8.993
 21
12.202
 31
0.0
  0
LINE
  5
733
330
18
100
AcDbEntity
  8
Object
100
AcDbLine
 10
8.993
 20
12.202
 30
0.0
 11
8.97
 21
12.202
 31
0.0
  0
LINE
  5
734
330
18
100
AcDbEntity
  8
Object
100
AcDbLine
 10
8.97
 20
12.202
 30
0.0
 11
8.931
 21
12.202
 31
0.0
  0
LINE
  5
735
330
18
100
AcDbEntity
  8
Object
100
AcDbLine
 10
8.931
 20
12.202
 30
0.0
 11
8.878
 21
12.202
 31
0.0
  0
LINE
  5
736
330
18
100
AcDbEntity
  8
Object
100
AcDbLine
 10
8.878
 20
12.202
 30
0.0
 11
8.810999999999999
 21
12.202
 31
0.0
  0
LINE
  5
737
330
18
100
AcDbEntity
  8
Object
100
AcDbLine
 10
8.810999999999999
 20
12.202
 30
0.0
 11
8.731999999999999
 21
12.202
 31
0.0
  0
LINE
  5
738
330
18
100
AcDbEntity
  8
Object
100
AcDbLine
 10
8.731999999999999
 20
12.202
 30
0.0
 11
8.643
 21
12.202
 31
0.0
  0
LINE
  5
739
330
18
100
AcDbEntity
  8
Object
100
AcDbLine
 10
8.643
 20
12.202
 30
0.0
 11
8.544999999999999
 21
12.202
 31
0.0
  0
LINE
  5
73A
330
18
100
AcDbEntity
  8
Object
100
AcDbLine
 10
8.544999999999999
 20
12.202
 30
0.0
 11
8.441
 21
12.202
 31
0.0
  0
LINE
  5
73B
330
18
100
AcDbEntity
  8
Object
100
AcDbLine
 10
8.441
 20
12.202
 30
0.0
 11
8.332
 21
12.202
 31
0.0
  0
LINE
  5
73C
330
18
100
AcDbEntity
  8
Object
100
AcDbLine
 10
8.332
 20
12.202
 30
0.0
 11
8.221
 21
12.202
 31
0.0
  0
LINE
  5
73D
330
18
100
AcDbEntity
  8
Object
100
AcDbLine
 10
8.221
 20
12.202
 30
0.0
 11
8.109999999999999
 21
12.202
 31
0.0
  0
LINE
  5
73E
330
18
100
AcDbEntity
  8
Object
100
AcDbLine
 10
8.109999999999999
 20
12.202
 30
0.0
 11
8.002
 21
12.202
 31
0.0
  0
LINE
  5
73F
330
18
100
AcDbEntity
  8
Object
100
AcDbLine
 10
8.002
 20
12.202
 30
0.0
 11
7.897
 21
12.202
 31
0.0
  0
LINE
  5
740
330
18
100
AcDbEntity
  8
Object
100
AcDbLine
 10
7.897
 20
12.202
 30
0.0
 11
7.799999999999999
 21
12.202
 31
0.0
  0
LINE
  5
741
330
18
100
AcDbEntity
  8
Object
100
AcDbLine
 10
7.799999999999999
 20
12.202
 30
0.0
 11
7.709999999999999
 21
12.202
 31
0.0
  0
LINE
  5
742
330
18
100
AcDbEntity
  8
Object
100
AcDbLine
 10
7.709999999999999
 20
12.202
 30
0.0
 11
7.632
 21
12.202
 31
0.0
  0
LINE
  5
743
330
18
100
AcDbEntity
  8
Object
100
AcDbLine
 10
7.632
 20
12.202
 30
0.0
 11
7.565
 21
12.202
 31
0.0
  0
LINE
  5
744
330
18
100
AcDbEntity
  8
Object
100
AcDbLine
 10
7.565
 20
12.202
 30
0.0
 11
7.512
 21
12.202
 31
0.0
  0
LINE
  5
745
330
18
100
AcDbEntity
  8
Object
100
AcDbLine
 10
7.512
 20
12.202
 30
0.0
 11
7.472999999999999
 21
12.202
 31
0.0
  0
LINE
  5
746
330
18
100
AcDbEntity
  8
Object
100
AcDbLine
 10
7.472999999999999
 20
12.202
 30
0.0
 11
7.448999999999999
 21
12.202
 31
0.0
  0
LINE
  5
747
330
18
100
AcDbEntity
  8
Object
100
AcDbLine
 10
7.448999999999999
 20
12.202
 30
0.0
 11
7.440999999999999
 21
12.202
 31
0.0
  0
LINE
  5
748
330
18
100
AcDbEntity
  8
Object
100
AcDbLine
 10
7.440999999999999
 20
12.202
 30
0.0
 11
7.435
 21
12.202
 31
0.0
  0
LINE
  5
749
330
18
100
AcDbEntity
  8
Object
100
AcDbLine
 10
7.435
 20
12.202
 30
0.0
 11
7.416
 21
12.202
 31
0.0
  0
LINE
  5
74A
330
18
100
AcDbEntity
  8
Object
100
AcDbLine
 10
7.416
 20
12.202
 30
0.0
 11
7.387
 21
12.202
 31
0.0
  0
LINE
  5
74B
330
18
100
AcDbEntity
  8
Object
100
AcDbLine
 10
7.387
 20
12.202
 30
0.0
 11
7.347
 21
12.202
 31
0.0
  0
LINE
  5
74C
330
18
100
AcDbEntity
  8
Object
100
AcDbLine
 10
7.347
 20
12.202
 30
0.0
 11
7.299999999999999
 21
12.202
 31
0.0
  0
LINE
  5
74D
330
18
100
AcDbEntity
  8
Object
100
AcDbLine
 10
7.299999999999999
 20
12.202
 30
0.0
 11
7.246999999999999
 21
12.202
 31
0.0
  0
LINE
  5
74E
330
18
100
AcDbEntity
  8
Object
100
AcDbLine
 10
7.246999999999999
 20
12.202
 30
0.0
 11
7.190999999999999
 21
12.202
 31
0.0
  0
LINE
  5
74F
330
18
100
AcDbEntity
  8
Object
100
AcDbLine
 10
7.190999999999999
 20
12.202
 30
0.0
 11
6.251
 21
12.202
 31
0.0
  0
LINE
  5
750
330
18
100
AcDbEntity
  8
Object
100
AcDbLine
 10
6.251
 20
12.202
 30
0.0
 11
6.195999999999999
 21
12.202
 31
0.0
  0
LINE
  5
751
330
18
100
AcDbEntity
  8
Object
100
AcDbLine
 10
6.195999999999999
 20
12.202
 30
0.0
 11
6.142999999999999
 21
12.202
 31
0.0
  0
LINE
  5
752
330
18
100
AcDbEntity
  8
Object
100
AcDbLine
 10
6.142999999999999
 20
12.202
 30
0.0
 11
6.094999999999999
 21
12.202
 31
0.0
  0
LINE
  5
753
330
18
100
AcDbEntity
  8
Object
100
AcDbLine
 10
6.094999999999999
 20
12.202
 30
0.0
 11
6.056
 21
12.202
 31
0.0
  0
LINE
  5
754
330
18
100
AcDbEntity
  8
Object
100
AcDbLine
 10
6.056
 20
12.202
 30
0.0
 11
6.025999999999999
 21
12.202
 31
0.0
  0
LINE
  5
755
330
18
100
AcDbEntity
  8
Object
100
AcDbLine
 10
6.025999999999999
 20
12.202
 30
0.0
 11
6.007
 21
12.202
 31
0.0
  0
LINE
  5
756
330
18
100
AcDbEntity
  8
Object
100
AcDbLine
 10
6.007
 20
12.202
 30
0.0
 11
6.001
 21
12.202
 31
0.0
  0
LINE
  5
757
330
18
100
AcDbEntity
  8
Object
100
AcDbLine
 10
6.001
 20
12.202
 30
0.0
 11
5.993
 21
12.202
 31
0.0
  0
LINE
  5
758
330
18
100
AcDbEntity
  8
Object
100
AcDbLine
 10
5.993
 20
12.202
 30
0.0
 11
5.969999999999999
 21
12.202
 31
0.0
  0
LINE
  5
759
330
18
100
AcDbEntity
  8
Object
100
AcDbLine
 10
5.969999999999999
 20
12.202
 30
0.0
 11
5.931
 21
12.202
 31
0.0
  0
LINE
  5
75A
330
18
100
AcDbEntity
  8
Object
100
AcDbLine
 10
5.931
 20
12.202
 30
0.0
 11
5.876999999999999
 21
12.202
 31
0.0
  0
LINE
  5
75B
330
18
100
AcDbEntity
  8
Object
100
AcDbLine
 10
5.876999999999999
 20
12.202
 30
0.0
 11
5.810999999999999
 21
12.202
 31
0.0
  0
LINE
  5
75C
330
18
100
AcDbEntity
  8
Object
100
AcDbLine
 10
5.810999999999999
 20
12.202
 30
0.0
 11
5.732
 21
12.202
 31
0.0
  0
LINE
  5
75D
330
18
100
AcDbEntity
  8
Object
100
AcDbLine
 10
5.732
 20
12.202
 30
0.0
 11
5.642999999999999
 21
12.202
 31
0.0
  0
LINE
  5
75E
330
18
100
AcDbEntity
  8
Object
100
AcDbLine
 10
5.642999999999999
 20
12.202
 30
0.0
 11
5.544999999999999
 21
12.202
 31
0.0
  0
LINE
  5
75F
330
18
100
AcDbEntity
  8
Object
100
AcDbLine
 10
5.544999999999999
 20
12.202
 30
0.0
 11
5.440999999999999
 21
12.202
 31
0.0
  0
LINE
  5
760
330
18
100
AcDbEntity
  8
Object
100
AcDbLine
 10
5.440999999999999
 20
12.202
 30
0.0
 11
5.331999999999999
 21
12.202
 31
0.0
  0
LINE
  5
761
330
18
100
AcDbEntity
  8
Object
100
AcDbLine
 10
5.331999999999999
 20
12.202
 30
0.0
 11
5.221
 21
12.202
 31
0.0
  0
LINE
  5
762
330
18
100
AcDbEntity
  8
Object
100
AcDbLine
 10
5.221
 20
12.202
 30
0.0
 11
5.11
 21
12.202
 31
0.0
  0
LINE
  5
763
330
18
100
AcDbEntity
  8
Object
100
AcDbLine
 10
5.11
 20
12.202
 30
0.0
 11
5.001
 21
12.202
 31
0.0
  0
LINE
  5
764
330
18
100
AcDbEntity
  8
Object
100
AcDbLine
 10
5.001
 20
12.202
 30
0.0
 11
4.897
 21
12.202
 31
0.0
  0
LINE
  5
765
330
18
100
AcDbEntity
  8
Object
100
AcDbLine
 10
4.897
 20
12.202
 30
0.0
 11
4.799
 21
12.202
 31
0.0
  0
LINE
  5
766
330
18
100
AcDbEntity
  8
Object
100
AcDbLine
 10
4.799
 20
12.202
 30
0.0
 11
4.709999999999999
 21
12.202
 31
0.0
  0
LINE
  5
767
330
18
100
AcDbEntity
  8
Object
100
AcDbLine
 10
4.709999999999999
 20
12.202
 30
0.0
 11
4.631999999999999
 21
12.202
 31
0.0
  0
LINE
  5
768
330
18
100
AcDbEntity
  8
Object
100
AcDbLine
 10
4.631999999999999
 20
12.202
 30
0.0
 11
4.565
 21
12.202
 31
0.0
  0
LINE
  5
769
330
18
100
AcDbEntity
  8
Object
100
AcDbLine
 10
4.565
 20
12.202
 30
0.0
 11
4.512
 21
12.202
 31
0.0
  0
LINE
  5
76A
330
18
100
AcDbEntity
  8
Object
100
AcDbLine
 10
4.512
 20
12.202
 30
0.0
 11
4.472999999999999
 21
12.202
 31
0.0
  0
LINE
  5
76B
330
18
100
AcDbEntity
  8
Object
100
AcDbLine
 10
4.472999999999999
 20
12.202
 30
0.0
 11
4.448999999999999
 21
12.202
 31
0.0
  0
LINE
  5
76C
330
18
100
AcDbEntity
  8
Object
100
AcDbLine
 10
4.448999999999999
 20
12.202
 30
0.0
 11
4.440999999999999
 21
12.202
 31
0.0
  0
LINE
  5
76D
330
18
100
AcDbEntity
  8
Object
100
AcDbLine
 10
4.440999999999999
 20
12.202
 30
0.0
 11
4.435
 21
12.202
 31
0.0
  0
LINE
  5
76E
330
18
100
AcDbEntity
  8
Object
100
AcDbLine
 10
4.435
 20
12.202
 30
0.0
 11
4.416
 21
12.202
 31
0.0
  0
LINE
  5
76F
330
18
100
AcDbEntity
  8
Object
100
AcDbLine
 10
4.416
 20
12.202
 30
0.0
 11
4.387
 21
12.202
 31
0.0
  0
LINE
  5
770
330
18
100
AcDbEntity
  8
Object
100
AcDbLine
 10
4.387
 20
12.202
 30
0.0
 11
4.347
 21
12.202
 31
0.0
  0
LINE
  5
771
330
18
100
AcDbEntity
  8
Object
100
AcDbLine
 10
4.347
 20
12.202
 30
0.0
 11
4.299999999999999
 21
12.202
 31
0.0
  0
LINE
  5
772
330
18
100
AcDbEntity
  8
Object
100
AcDbLine
 10
4.299999999999999
 20
12.202
 30
0.0
 11
4.246999999999999
 21
12.202
 31
0.0
  0
LINE
  5
773
330
18
100
AcDbEntity
  8
Object
100
AcDbLine
 10
4.246999999999999
 20
12.202
 30
0.0
 11
4.190999999999999
 21
12.202
 31
0.0
  0
LINE
  5
774
330
18
100
AcDbEntity
  8
Object
100
AcDbLine
 10
4.190999999999999
 20
12.202
 30
0.0
 11
3.839
 21
12.202
 31
0.0
  0
LINE
  5
775
330
18
100
AcDbEntity
  8
Object
100
AcDbLine
 10
3.839
 20
12.202
 30
0.0
 11
3.758
 21
12.202
 31
0.0
  0
LINE
  5
776
330
18
100
AcDbEntity
  8
Object
100
AcDbLine
 10
3.758
 20
12.202
 30
0.0
 11
3.677999999999999
 21
12.202
 31
0.0
  0
LINE
  5
777
330
18
100
AcDbEntity
  8
Object
100
AcDbLine
 10
3.677999999999999
 20
12.202
 30
0.0
 11
3.603
 21
12.202
 31
0.0
  0
LINE
  5
778
330
18
100
AcDbEntity
  8
Object
100
AcDbLine
 10
3.603
 20
12.202
 30
0.0
 11
3.534
 21
12.202
 31
0.0
  0
LINE
  5
779
330
18
100
AcDbEntity
  8
Object
100
AcDbLine
 10
3.534
 20
12.202
 30
0.0
 11
3.474
 21
12.202
 31
0.0
  0
LINE
  5
77A
330
18
100
AcDbEntity
  8
Object
100
AcDbLine
 10
3.474
 20
12.202
 30
0.0
 11
3.423
 21
12.202
 31
0.0
  0
LINE
  5
77B
330
18
100
AcDbEntity
  8
Object
100
AcDbLine
 10
3.423
 20
12.202
 30
0.0
 11
3.383
 21
12.202
 31
0.0
  0
LINE
  5
77C
330
18
100
AcDbEntity
  8
Object
100
AcDbLine
 10
3.383
 20
12.202
 30
0.0
 11
3.355999999999999
 21
12.202
 31
0.0
  0
LINE
  5
77D
330
18
100
AcDbEntity
  8
Object
100
AcDbLine
 10
3.355999999999999
 20
12.202
 30
0.0
 11
3.342
 21
12.202
 31
0.0
  0
LINE
  5
77E
330
18
100
AcDbEntity
  8
Object
100
AcDbLine
 10
3.342
 20
12.202
 30
0.0
 11
3.341
 21
12.202
 31
0.0
  0
LINE
  5
77F
330
18
100
AcDbEntity
  8
Object
100
AcDbLine
 10
5.360999999999999
 20
12.867
 30
0.0
 11
5.355
 21
12.905
 31
0.0
  0
LINE
  5
780
330
18
100
AcDbEntity
  8
Object
100
AcDbLine
 10
5.355
 20
12.905
 30
0.0
 11
5.336999999999999
 21
12.94
 31
0.0
  0
LINE
  5
781
330
18
100
AcDbEntity
  8
Object
100
AcDbLine
 10
5.336999999999999
 20
12.94
 30
0.0
 11
5.31
 21
12.968
 31
0.0
  0
LINE
  5
782
330
18
100
AcDbEntity
  8
Object
100
AcDbLine
 10
5.31
 20
12.968
 30
0.0
 11
5.275
 21
12.986
 31
0.0
  0
LINE
  5
783
330
18
100
AcDbEntity
  8
Object
100
AcDbLine
 10
5.275
 20
12.986
 30
0.0
 11
5.235999999999999
 21
12.992
 31
0.0
  0
LINE
  5
784
330
18
100
AcDbEntity
  8
Object
100
AcDbLine
 10
5.360999999999999
 20
12.212
 30
0.0
 11
5.360999999999999
 21
12.204
 31
0.0
  0
LINE
  5
785
330
18
100
AcDbEntity
  8
Object
100
AcDbLine
 10
5.360999999999999
 20
12.204
 30
0.0
 11
5.360999999999999
 21
12.202
 31
0.0
  0
LINE
  5
786
330
18
100
AcDbEntity
  8
Object
100
AcDbLine
 10
5.360999999999999
 20
12.867
 30
0.0
 11
5.360999999999999
 21
12.222
 31
0.0
  0
LINE
  5
787
330
18
100
AcDbEntity
  8
Object
100
AcDbLine
 10
5.360999999999999
 20
12.222
 30
0.0
 11
5.360999999999999
 21
12.212
 31
0.0
  0
LINE
  5
788
330
18
100
AcDbEntity
  8
Object
100
AcDbLine
 10
8.730999999999999
 20
12.212
 30
0.0
 11
8.730999999999999
 21
12.204
 31
0.0
  0
LINE
  5
789
330
18
100
AcDbEntity
  8
Object
100
AcDbLine
 10
8.730999999999999
 20
12.204
 30
0.0
 11
8.730999999999999
 21
12.202
 31
0.0
  0
LINE
  5
78A
330
18
100
AcDbEntity
  8
Object
100
AcDbLine
 10
8.730999999999999
 20
12.867
 30
0.0
 11
8.730999999999999
 21
12.222
 31
0.0
  0
LINE
  5
78B
330
18
100
AcDbEntity
  8
Object
100
AcDbLine
 10
8.730999999999999
 20
12.222
 30
0.0
 11
8.730999999999999
 21
12.212
 31
0.0
  0
LINE
  5
78C
330
18
100
AcDbEntity
  8
Object
100
AcDbLine
 10
3.337
 20
12.222
 30
0.0
 11
3.341
 21
12.194
 31
0.0
  0
LINE
  5
78D
330
18
100
AcDbEntity
  8
Object
100
AcDbLine
 10
3.447
 20
12.202
 30
0.0
 11
3.437
 21
12.204
 31
0.0
  0
LINE
  5
78E
330
18
100
AcDbEntity
  8
Object
100
AcDbLine
 10
3.437
 20
12.204
 30
0.0
 11
3.43
 21
12.212
 31
0.0
  0
LINE
  5
78F
330
18
100
AcDbEntity
  8
Object
100
AcDbLine
 10
3.43
 20
12.212
 30
0.0
 11
3.427
 21
12.222
 31
0.0
  0
LINE
  5
790
330
18
100
AcDbEntity
  8
Object
100
AcDbLine
 10
3.427
 20
12.222
 30
0.0
 11
3.337
 21
12.222
 31
0.0
  0
LINE
  5
791
330
18
100
AcDbEntity
  8
Object
100
AcDbLine
 10
3.341
 20
12.202
 30
0.0
 11
3.341
 21
12.112
 31
0.0
  0
LINE
  5
792
330
18
100
AcDbEntity
  8
Object
100
AcDbLine
 10
10.102
 20
12.202
 30
0.0
 11
10.101
 21
12.202
 31
0.0
  0
LINE
  5
793
330
18
100
AcDbEntity
  8
Object
100
AcDbLine
 10
10.102
 20
12.112
 30
0.0
 11
10.101
 21
12.112
 31
0.0
  0
LINE
  5
794
330
18
100
AcDbEntity
  8
Object
100
AcDbLine
 10
10.101
 20
12.112
 30
0.0
 11
10.087
 21
12.112
 31
0.0
  0
LINE
  5
795
330
18
100
AcDbEntity
  8
Object
100
AcDbLine
 10
10.101
 20
12.202
 30
0.0
 11
10.087
 21
12.202
 31
0.0
  0
LINE
  5
796
330
18
100
AcDbEntity
  8
Object
100
AcDbLine
 10
10.087
 20
12.202
 30
0.0
 11
10.059
 21
12.202
 31
0.0
  0
LINE
  5
797
330
18
100
AcDbEntity
  8
Object
100
AcDbLine
 10
10.087
 20
12.112
 30
0.0
 11
10.059
 21
12.112
 31
0.0
  0
LINE
  5
798
330
18
100
AcDbEntity
  8
Object
100
AcDbLine
 10
10.059
 20
12.112
 30
0.0
 11
10.02
 21
12.112
 31
0.0
  0
LINE
  5
799
330
18
100
AcDbEntity
  8
Object
100
AcDbLine
 10
10.059
 20
12.202
 30
0.0
 11
10.02
 21
12.202
 31
0.0
  0
LINE
  5
79A
330
18
100
AcDbEntity
  8
Object
100
AcDbLine
 10
10.02
 20
12.202
 30
0.0
 11
9.968999999999999
 21
12.202
 31
0.0
  0
LINE
  5
79B
330
18
100
AcDbEntity
  8
Object
100
AcDbLine
 10
10.02
 20
12.112
 30
0.0
 11
9.968999999999999
 21
12.112
 31
0.0
  0
LINE
  5
79C
330
18
100
AcDbEntity
  8
Object
100
AcDbLine
 10
9.968999999999999
 20
12.112
 30
0.0
 11
9.907999999999999
 21
12.112
 31
0.0
  0
LINE
  5
79D
330
18
100
AcDbEntity
  8
Object
100
AcDbLine
 10
9.968999999999999
 20
12.202
 30
0.0
 11
9.907999999999999
 21
12.202
 31
0.0
  0
LINE
  5
79E
330
18
100
AcDbEntity
  8
Object
100
AcDbLine
 10
9.907999999999999
 20
12.202
 30
0.0
 11
9.839
 21
12.202
 31
0.0
  0
LINE
  5
79F
330
18
100
AcDbEntity
  8
Object
100
AcDbLine
 10
9.907999999999999
 20
12.112
 30
0.0
 11
9.839
 21
12.112
 31
0.0
  0
LINE
  5
7A0
330
18
100
AcDbEntity
  8
Object
100
AcDbLine
 10
9.839
 20
12.112
 30
0.0
 11
9.763999999999999
 21
12.112
 31
0.0
  0
LINE
  5
7A1
330
18
100
AcDbEntity
  8
Object
100
AcDbLine
 10
9.839
 20
12.202
 30
0.0
 11
9.763999999999999
 21
12.202
 31
0.0
  0
LINE
  5
7A2
330
18
100
AcDbEntity
  8
Object
100
AcDbLine
 10
9.685
 20
12.112
 30
0.0
 11
9.763999999999999
 21
12.112
 31
0.0
  0
LINE
  5
7A3
330
18
100
AcDbEntity
  8
Object
100
AcDbLine
 10
9.763999999999999
 20
12.202
 30
0.0
 11
9.685
 21
12.202
 31
0.0
  0
LINE
  5
7A4
330
18
100
AcDbEntity
  8
Object
100
AcDbLine
 10
9.602999999999999
 20
12.112
 30
0.0
 11
9.685
 21
12.112
 31
0.0
  0
LINE
  5
7A5
330
18
100
AcDbEntity
  8
Object
100
AcDbLine
 10
9.685
 20
12.202
 30
0.0
 11
9.602999999999999
 21
12.202
 31
0.0
  0
LINE
  5
7A6
330
18
100
AcDbEntity
  8
Object
100
AcDbLine
 10
10.016
 20
12.222
 30
0.0
 11
10.105
 21
12.222
 31
0.0
  0
LINE
  5
7A7
330
18
100
AcDbEntity
  8
Object
100
AcDbLine
 10
10.105
 20
12.222
 30
0.0
 11
10.102
 21
12.201
 31
0.0
  0
LINE
  5
7A8
330
18
100
AcDbEntity
  8
Object
100
AcDbLine
 10
6.033999999999999
 20
12.222
 30
0.0
 11
6.033999999999999
 21
12.212
 31
0.0
  0
LINE
  5
7A9
330
18
100
AcDbEntity
  8
Object
100
AcDbLine
 10
6.033999999999999
 20
12.212
 30
0.0
 11
6.033999999999999
 21
12.204
 31
0.0
  0
LINE
  5
7AA
330
18
100
AcDbEntity
  8
Object
100
AcDbLine
 10
6.033999999999999
 20
12.204
 30
0.0
 11
6.033999999999999
 21
12.202
 31
0.0
  0
LINE
  5
7AB
330
18
100
AcDbEntity
  8
Object
100
AcDbLine
 10
5.11
 20
12.202
 30
0.0
 11
5.221
 21
12.202
 31
0.0
  0
LINE
  5
7AC
330
18
100
AcDbEntity
  8
Object
100
AcDbLine
 10
5.221
 20
12.202
 30
0.0
 11
5.221
 21
12.112
 31
0.0
  0
LINE
  5
7AD
330
18
100
AcDbEntity
  8
Object
100
AcDbLine
 10
5.221
 20
12.112
 30
0.0
 11
5.11
 21
12.112
 31
0.0
  0
LINE
  5
7AE
330
18
100
AcDbEntity
  8
Object
100
AcDbLine
 10
5.11
 20
12.202
 30
0.0
 11
5.001
 21
12.202
 31
0.0
  0
LINE
  5
7AF
330
18
100
AcDbEntity
  8
Object
100
AcDbLine
 10
5.11
 20
12.112
 30
0.0
 11
5.001
 21
12.112
 31
0.0
  0
LINE
  5
7B0
330
18
100
AcDbEntity
  8
Object
100
AcDbLine
 10
5.001
 20
12.112
 30
0.0
 11
4.897
 21
12.112
 31
0.0
  0
LINE
  5
7B1
330
18
100
AcDbEntity
  8
Object
100
AcDbLine
 10
5.001
 20
12.202
 30
0.0
 11
4.897
 21
12.202
 31
0.0
  0
LINE
  5
7B2
330
18
100
AcDbEntity
  8
Object
100
AcDbLine
 10
4.799
 20
12.112
 30
0.0
 11
4.897
 21
12.112
 31
0.0
  0
LINE
  5
7B3
330
18
100
AcDbEntity
  8
Object
100
AcDbLine
 10
4.897
 20
12.202
 30
0.0
 11
4.799
 21
12.202
 31
0.0
  0
LINE
  5
7B4
330
18
100
AcDbEntity
  8
Object
100
AcDbLine
 10
4.709999999999999
 20
12.112
 30
0.0
 11
4.799
 21
12.112
 31
0.0
  0
LINE
  5
7B5
330
18
100
AcDbEntity
  8
Object
100
AcDbLine
 10
4.799
 20
12.202
 30
0.0
 11
4.709999999999999
 21
12.202
 31
0.0
  0
LINE
  5
7B6
330
18
100
AcDbEntity
  8
Object
100
AcDbLine
 10
4.631999999999999
 20
12.112
 30
0.0
 11
4.709999999999999
 21
12.112
 31
0.0
  0
LINE
  5
7B7
330
18
100
AcDbEntity
  8
Object
100
AcDbLine
 10
4.709999999999999
 20
12.202
 30
0.0
 11
4.631999999999999
 21
12.202
 31
0.0
  0
LINE
  5
7B8
330
18
100
AcDbEntity
  8
Object
100
AcDbLine
 10
4.565
 20
12.112
 30
0.0
 11
4.631999999999999
 21
12.112
 31
0.0
  0
LINE
  5
7B9
330
18
100
AcDbEntity
  8
Object
100
AcDbLine
 10
4.631999999999999
 20
12.202
 30
0.0
 11
4.565
 21
12.202
 31
0.0
  0
LINE
  5
7BA
330
18
100
AcDbEntity
  8
Object
100
AcDbLine
 10
4.565
 20
12.202
 30
0.0
 11
4.512
 21
12.202
 31
0.0
  0
LINE
  5
7BB
330
18
100
AcDbEntity
  8
Object
100
AcDbLine
 10
4.565
 20
12.112
 30
0.0
 11
4.512
 21
12.112
 31
0.0
  0
LINE
  5
7BC
330
18
100
AcDbEntity
  8
Object
100
AcDbLine
 10
4.512
 20
12.112
 30
0.0
 11
4.472999999999999
 21
12.112
 31
0.0
  0
LINE
  5
7BD
330
18
100
AcDbEntity
  8
Object
100
AcDbLine
 10
4.512
 20
12.202
 30
0.0
 11
4.472999999999999
 21
12.202
 31
0.0
  0
LINE
  5
7BE
330
18
100
AcDbEntity
  8
Object
100
AcDbLine
 10
4.472999999999999
 20
12.202
 30
0.0
 11
4.448999999999999
 21
12.202
 31
0.0
  0
LINE
  5
7BF
330
18
100
AcDbEntity
  8
Object
100
AcDbLine
 10
4.472999999999999
 20
12.112
 30
0.0
 11
4.448999999999999
 21
12.112
 31
0.0
  0
LINE
  5
7C0
330
18
100
AcDbEntity
  8
Object
100
AcDbLine
 10
4.448999999999999
 20
12.112
 30
0.0
 11
4.440999999999999
 21
12.112
 31
0.0
  0
LINE
  5
7C1
330
18
100
AcDbEntity
  8
Object
100
AcDbLine
 10
4.448999999999999
 20
12.202
 30
0.0
 11
4.440999999999999
 21
12.202
 31
0.0
  0
LINE
  5
7C2
330
18
100
AcDbEntity
  8
Object
100
AcDbLine
 10
9.000999999999999
 20
12.202
 30
0.0
 11
9.000999999999999
 21
12.112
 31
0.0
  0
LINE
  5
7C3
330
18
100
AcDbEntity
  8
Object
100
AcDbLine
 10
6.251
 20
12.202
 30
0.0
 11
7.190999999999999
 21
12.202
 31
0.0
  0
LINE
  5
7C4
330
18
100
AcDbEntity
  8
Object
100
AcDbLine
 10
7.190999999999999
 20
12.202
 30
0.0
 11
7.190999999999999
 21
12.112
 31
0.0
  0
LINE
  5
7C5
330
18
100
AcDbEntity
  8
Object
100
AcDbLine
 10
7.190999999999999
 20
12.112
 30
0.0
 11
6.251
 21
12.112
 31
0.0
  0
LINE
  5
7C6
330
18
100
AcDbEntity
  8
Object
100
AcDbLine
 10
9.602999999999999
 20
12.202
 30
0.0
 11
9.602999999999999
 21
12.112
 31
0.0
  0
LINE
  5
7C7
330
18
100
AcDbEntity
  8
Object
100
AcDbLine
 10
9.602999999999999
 20
12.112
 30
0.0
 11
9.250999999999999
 21
12.112
 31
0.0
  0
LINE
  5
7C8
330
18
100
AcDbEntity
  8
Object
100
AcDbLine
 10
9.602999999999999
 20
12.202
 30
0.0
 11
9.250999999999999
 21
12.202
 31
0.0
  0
LINE
  5
7C9
330
18
100
AcDbEntity
  8
Object
100
AcDbLine
 10
4.440999999999999
 20
12.112
 30
0.0
 11
4.440999999999999
 21
12.202
 31
0.0
  0
LINE
  5
7CA
330
18
100
AcDbEntity
  8
Object
100
AcDbLine
 10
8.109999999999999
 20
12.202
 30
0.0
 11
8.221
 21
12.202
 31
0.0
  0
LINE
  5
7CB
330
18
100
AcDbEntity
  8
Object
100
AcDbLine
 10
8.221
 20
12.202
 30
0.0
 11
8.221
 21
12.112
 31
0.0
  0
LINE
  5
7CC
330
18
100
AcDbEntity
  8
Object
100
AcDbLine
 10
8.221
 20
12.112
 30
0.0
 11
8.109999999999999
 21
12.112
 31
0.0
  0
LINE
  5
7CD
330
18
100
AcDbEntity
  8
Object
100
AcDbLine
 10
8.109999999999999
 20
12.202
 30
0.0
 11
8.002
 21
12.202
 31
0.0
  0
LINE
  5
7CE
330
18
100
AcDbEntity
  8
Object
100
AcDbLine
 10
8.109999999999999
 20
12.112
 30
0.0
 11
8.002
 21
12.112
 31
0.0
  0
LINE
  5
7CF
330
18
100
AcDbEntity
  8
Object
100
AcDbLine
 10
8.002
 20
12.112
 30
0.0
 11
7.897
 21
12.112
 31
0.0
  0
LINE
  5
7D0
330
18
100
AcDbEntity
  8
Object
100
AcDbLine
 10
8.002
 20
12.202
 30
0.0
 11
7.897
 21
12.202
 31
0.0
  0
LINE
  5
7D1
330
18
100
AcDbEntity
  8
Object
100
AcDbLine
 10
7.897
 20
12.202
 30
0.0
 11
7.799999999999999
 21
12.202
 31
0.0
  0
LINE
  5
7D2
330
18
100
AcDbEntity
  8
Object
100
AcDbLine
 10
7.897
 20
12.112
 30
0.0
 11
7.799999999999999
 21
12.112
 31
0.0
  0
LINE
  5
7D3
330
18
100
AcDbEntity
  8
Object
100
AcDbLine
 10
7.799999999999999
 20
12.112
 30
0.0
 11
7.709999999999999
 21
12.112
 31
0.0
  0
LINE
  5
7D4
330
18
100
AcDbEntity
  8
Object
100
AcDbLine
 10
7.799999999999999
 20
12.202
 30
0.0
 11
7.709999999999999
 21
12.202
 31
0.0
  0
LINE
  5
7D5
330
18
100
AcDbEntity
  8
Object
100
AcDbLine
 10
7.632
 20
12.112
 30
0.0
 11
7.709999999999999
 21
12.112
 31
0.0
  0
LINE
  5
7D6
330
18
100
AcDbEntity
  8
Object
100
AcDbLine
 10
7.709999999999999
 20
12.202
 30
0.0
 11
7.632
 21
12.202
 31
0.0
  0
LINE
  5
7D7
330
18
100
AcDbEntity
  8
Object
100
AcDbLine
 10
7.565
 20
12.112
 30
0.0
 11
7.632
 21
12.112
 31
0.0
  0
LINE
  5
7D8
330
18
100
AcDbEntity
  8
Object
100
AcDbLine
 10
7.632
 20
12.202
 30
0.0
 11
7.565
 21
12.202
 31
0.0
  0
LINE
  5
7D9
330
18
100
AcDbEntity
  8
Object
100
AcDbLine
 10
7.565
 20
12.202
 30
0.0
 11
7.512
 21
12.202
 31
0.0
  0
LINE
  5
7DA
330
18
100
AcDbEntity
  8
Object
100
AcDbLine
 10
7.565
 20
12.112
 30
0.0
 11
7.512
 21
12.112
 31
0.0
  0
LINE
  5
7DB
330
18
100
AcDbEntity
  8
Object
100
AcDbLine
 10
7.512
 20
12.112
 30
0.0
 11
7.472999999999999
 21
12.112
 31
0.0
  0
LINE
  5
7DC
330
18
100
AcDbEntity
  8
Object
100
AcDbLine
 10
7.512
 20
12.202
 30
0.0
 11
7.472999999999999
 21
12.202
 31
0.0
  0
LINE
  5
7DD
330
18
100
AcDbEntity
  8
Object
100
AcDbLine
 10
7.472999999999999
 20
12.202
 30
0.0
 11
7.448999999999999
 21
12.202
 31
0.0
  0
LINE
  5
7DE
330
18
100
AcDbEntity
  8
Object
100
AcDbLine
 10
7.472999999999999
 20
12.112
 30
0.0
 11
7.448999999999999
 21
12.112
 31
0.0
  0
LINE
  5
7DF
330
18
100
AcDbEntity
  8
Object
100
AcDbLine
 10
7.448999999999999
 20
12.112
 30
0.0
 11
7.440999999999999
 21
12.112
 31
0.0
  0
LINE
  5
7E0
330
18
100
AcDbEntity
  8
Object
100
AcDbLine
 10
7.448999999999999
 20
12.202
 30
0.0
 11
7.440999999999999
 21
12.202
 31
0.0
  0
LINE
  5
7E1
330
18
100
AcDbEntity
  8
Object
100
AcDbLine
 10
3.839
 20
12.112
 30
0.0
 11
4.190999999999999
 21
12.112
 31
0.0
  0
LINE
  5
7E2
330
18
100
AcDbEntity
  8
Object
100
AcDbLine
 10
3.839
 20
12.202
 30
0.0
 11
4.190999999999999
 21
12.202
 31
0.0
  0
LINE
  5
7E3
330
18
100
AcDbEntity
  8
Object
100
AcDbLine
 10
4.190999999999999
 20
12.202
 30
0.0
 11
4.190999999999999
 21
12.112
 31
0.0
  0
LINE
  5
7E4
330
18
100
AcDbEntity
  8
Object
100
AcDbLine
 10
4.435
 20
12.202
 30
0.0
 11
4.440999999999999
 21
12.202
 31
0.0
  0
LINE
  5
7E5
330
18
100
AcDbEntity
  8
Object
100
AcDbLine
 10
4.440999999999999
 20
12.202
 30
0.0
 11
4.440999999999999
 21
12.112
 31
0.0
  0
LINE
  5
7E6
330
18
100
AcDbEntity
  8
Object
100
AcDbLine
 10
4.440999999999999
 20
12.112
 30
0.0
 11
4.435
 21
12.112
 31
0.0
  0
LINE
  5
7E7
330
18
100
AcDbEntity
  8
Object
100
AcDbLine
 10
4.435
 20
12.112
 30
0.0
 11
4.416
 21
12.112
 31
0.0
  0
LINE
  5
7E8
330
18
100
AcDbEntity
  8
Object
100
AcDbLine
 10
4.435
 20
12.202
 30
0.0
 11
4.416
 21
12.202
 31
0.0
  0
LINE
  5
7E9
330
18
100
AcDbEntity
  8
Object
100
AcDbLine
 10
4.416
 20
12.202
 30
0.0
 11
4.387
 21
12.202
 31
0.0
  0
LINE
  5
7EA
330
18
100
AcDbEntity
  8
Object
100
AcDbLine
 10
4.416
 20
12.112
 30
0.0
 11
4.387
 21
12.112
 31
0.0
  0
LINE
  5
7EB
330
18
100
AcDbEntity
  8
Object
100
AcDbLine
 10
4.387
 20
12.112
 30
0.0
 11
4.347
 21
12.112
 31
0.0
  0
LINE
  5
7EC
330
18
100
AcDbEntity
  8
Object
100
AcDbLine
 10
4.387
 20
12.202
 30
0.0
 11
4.347
 21
12.202
 31
0.0
  0
LINE
  5
7ED
330
18
100
AcDbEntity
  8
Object
100
AcDbLine
 10
4.347
 20
12.202
 30
0.0
 11
4.299999999999999
 21
12.202
 31
0.0
  0
LINE
  5
7EE
330
18
100
AcDbEntity
  8
Object
100
AcDbLine
 10
4.347
 20
12.112
 30
0.0
 11
4.299999999999999
 21
12.112
 31
0.0
  0
LINE
  5
7EF
330
18
100
AcDbEntity
  8
Object
100
AcDbLine
 10
4.299999999999999
 20
12.112
 30
0.0
 11
4.246999999999999
 21
12.112
 31
0.0
  0
LINE
  5
7F0
330
18
100
AcDbEntity
  8
Object
100
AcDbLine
 10
4.299999999999999
 20
12.202
 30
0.0
 11
4.246999999999999
 21
12.202
 31
0.0
  0
LINE
  5
7F1
330
18
100
AcDbEntity
  8
Object
100
AcDbLine
 10
4.190999999999999
 20
12.112
 30
0.0
 11
4.246999999999999
 21
12.112
 31
0.0
  0
LINE
  5
7F2
330
18
100
AcDbEntity
  8
Object
100
AcDbLine
 10
4.246999999999999
 20
12.202
 30
0.0
 11
4.190999999999999
 21
12.202
 31
0.0
  0
LINE
  5
7F3
330
18
100
AcDbEntity
  8
Object
100
AcDbLine
 10
3.758
 20
12.202
 30
0.0
 11
3.839
 21
12.202
 31
0.0
  0
LINE
  5
7F4
330
18
100
AcDbEntity
  8
Object
100
AcDbLine
 10
3.839
 20
12.202
 30
0.0
 11
3.839
 21
12.112
 31
0.0
  0
LINE
  5
7F5
330
18
100
AcDbEntity
  8
Object
100
AcDbLine
 10
3.839
 20
12.112
 30
0.0
 11
3.758
 21
12.112
 31
0.0
  0
LINE
  5
7F6
330
18
100
AcDbEntity
  8
Object
100
AcDbLine
 10
3.758
 20
12.202
 30
0.0
 11
3.677999999999999
 21
12.202
 31
0.0
  0
LINE
  5
7F7
330
18
100
AcDbEntity
  8
Object
100
AcDbLine
 10
3.758
 20
12.112
 30
0.0
 11
3.677999999999999
 21
12.112
 31
0.0
  0
LINE
  5
7F8
330
18
100
AcDbEntity
  8
Object
100
AcDbLine
 10
3.677999999999999
 20
12.112
 30
0.0
 11
3.603
 21
12.112
 31
0.0
  0
LINE
  5
7F9
330
18
100
AcDbEntity
  8
Object
100
AcDbLine
 10
3.677999999999999
 20
12.202
 30
0.0
 11
3.603
 21
12.202
 31
0.0
  0
LINE
  5
7FA
330
18
100
AcDbEntity
  8
Object
100
AcDbLine
 10
3.603
 20
12.202
 30
0.0
 11
3.534
 21
12.202
 31
0.0
  0
LINE
  5
7FB
330
18
100
AcDbEntity
  8
Object
100
AcDbLine
 10
3.603
 20
12.112
 30
0.0
 11
3.534
 21
12.112
 31
0.0
  0
LINE
  5
7FC
330
18
100
AcDbEntity
  8
Object
100
AcDbLine
 10
3.534
 20
12.112
 30
0.0
 11
3.474
 21
12.112
 31
0.0
  0
LINE
  5
7FD
330
18
100
AcDbEntity
  8
Object
100
AcDbLine
 10
3.534
 20
12.202
 30
0.0
 11
3.474
 21
12.202
 31
0.0
  0
LINE
  5
7FE
330
18
100
AcDbEntity
  8
Object
100
AcDbLine
 10
3.474
 20
12.202
 30
0.0
 11
3.423
 21
12.202
 31
0.0
  0
LINE
  5
7FF
330
18
100
AcDbEntity
  8
Object
100
AcDbLine
 10
3.474
 20
12.112
 30
0.0
 11
3.423
 21
12.112
 31
0.0
  0
LINE
  5
800
330
18
100
AcDbEntity
  8
Object
100
AcDbLine
 10
3.423
 20
12.112
 30
0.0
 11
3.383
 21
12.112
 31
0.0
  0
LINE
  5
801
330
18
100
AcDbEntity
  8
Object
100
AcDbLine
 10
3.423
 20
12.202
 30
0.0
 11
3.383
 21
12.202
 31
0.0
  0
LINE
  5
802
330
18
100
AcDbEntity
  8
Object
100
AcDbLine
 10
3.383
 20
12.202
 30
0.0
 11
3.355999999999999
 21
12.202
 31
0.0
  0
LINE
  5
803
330
18
100
AcDbEntity
  8
Object
100
AcDbLine
 10
3.383
 20
12.112
 30
0.0
 11
3.355999999999999
 21
12.112
 31
0.0
  0
LINE
  5
804
330
18
100
AcDbEntity
  8
Object
100
AcDbLine
 10
3.355999999999999
 20
12.112
 30
0.0
 11
3.342
 21
12.112
 31
0.0
  0
LINE
  5
805
330
18
100
AcDbEntity
  8
Object
100
AcDbLine
 10
3.355999999999999
 20
12.202
 30
0.0
 11
3.342
 21
12.202
 31
0.0
  0
LINE
  5
806
330
18
100
AcDbEntity
  8
Object
100
AcDbLine
 10
3.342
 20
12.202
 30
0.0
 11
3.341
 21
12.202
 31
0.0
  0
LINE
  5
807
330
18
100
AcDbEntity
  8
Object
100
AcDbLine
 10
3.341
 20
12.112
 30
0.0
 11
3.342
 21
12.112
 31
0.0
  0
LINE
  5
808
330
18
100
AcDbEntity
  8
Object
100
AcDbLine
 10
6.195999999999999
 20
12.112
 30
0.0
 11
6.251
 21
12.112
 31
0.0
  0
LINE
  5
809
330
18
100
AcDbEntity
  8
Object
100
AcDbLine
 10
6.195999999999999
 20
12.202
 30
0.0
 11
6.251
 21
12.202
 31
0.0
  0
LINE
  5
80A
330
18
100
AcDbEntity
  8
Object
100
AcDbLine
 10
6.251
 20
12.202
 30
0.0
 11
6.251
 21
12.112
 31
0.0
  0
LINE
  5
80B
330
18
100
AcDbEntity
  8
Object
100
AcDbLine
 10
6.142999999999999
 20
12.112
 30
0.0
 11
6.195999999999999
 21
12.112
 31
0.0
  0
LINE
  5
80C
330
18
100
AcDbEntity
  8
Object
100
AcDbLine
 10
6.195999999999999
 20
12.202
 30
0.0
 11
6.142999999999999
 21
12.202
 31
0.0
  0
LINE
  5
80D
330
18
100
AcDbEntity
  8
Object
100
AcDbLine
 10
6.142999999999999
 20
12.202
 30
0.0
 11
6.094999999999999
 21
12.202
 31
0.0
  0
LINE
  5
80E
330
18
100
AcDbEntity
  8
Object
100
AcDbLine
 10
6.094999999999999
 20
12.112
 30
0.0
 11
6.142999999999999
 21
12.112
 31
0.0
  0
LINE
  5
80F
330
18
100
AcDbEntity
  8
Object
100
AcDbLine
 10
6.094999999999999
 20
12.202
 30
0.0
 11
6.056
 21
12.202
 31
0.0
  0
LINE
  5
810
330
18
100
AcDbEntity
  8
Object
100
AcDbLine
 10
6.094999999999999
 20
12.112
 30
0.0
 11
6.056
 21
12.112
 31
0.0
  0
LINE
  5
811
330
18
100
AcDbEntity
  8
Object
100
AcDbLine
 10
6.056
 20
12.112
 30
0.0
 11
6.025999999999999
 21
12.112
 31
0.0
  0
LINE
  5
812
330
18
100
AcDbEntity
  8
Object
100
AcDbLine
 10
6.056
 20
12.202
 30
0.0
 11
6.025999999999999
 21
12.202
 31
0.0
  0
LINE
  5
813
330
18
100
AcDbEntity
  8
Object
100
AcDbLine
 10
6.007
 20
12.112
 30
0.0
 11
6.025999999999999
 21
12.112
 31
0.0
  0
LINE
  5
814
330
18
100
AcDbEntity
  8
Object
100
AcDbLine
 10
6.025999999999999
 20
12.202
 30
0.0
 11
6.007
 21
12.202
 31
0.0
  0
LINE
  5
815
330
18
100
AcDbEntity
  8
Object
100
AcDbLine
 10
6.007
 20
12.112
 30
0.0
 11
6.001
 21
12.112
 31
0.0
  0
LINE
  5
816
330
18
100
AcDbEntity
  8
Object
100
AcDbLine
 10
6.001
 20
12.112
 30
0.0
 11
6.001
 21
12.202
 31
0.0
  0
LINE
  5
817
330
18
100
AcDbEntity
  8
Object
100
AcDbLine
 10
6.001
 20
12.202
 30
0.0
 11
6.007
 21
12.202
 31
0.0
  0
LINE
  5
818
330
18
100
AcDbEntity
  8
Object
100
AcDbLine
 10
7.440999999999999
 20
12.112
 30
0.0
 11
7.440999999999999
 21
12.202
 31
0.0
  0
LINE
  5
819
330
18
100
AcDbEntity
  8
Object
100
AcDbLine
 10
9.000999999999999
 20
12.202
 30
0.0
 11
8.993
 21
12.202
 31
0.0
  0
LINE
  5
81A
330
18
100
AcDbEntity
  8
Object
100
AcDbLine
 10
9.000999999999999
 20
12.112
 30
0.0
 11
8.993
 21
12.112
 31
0.0
  0
LINE
  5
81B
330
18
100
AcDbEntity
  8
Object
100
AcDbLine
 10
8.993
 20
12.112
 30
0.0
 11
8.97
 21
12.112
 31
0.0
  0
LINE
  5
81C
330
18
100
AcDbEntity
  8
Object
100
AcDbLine
 10
8.993
 20
12.202
 30
0.0
 11
8.97
 21
12.202
 31
0.0
  0
LINE
  5
81D
330
18
100
AcDbEntity
  8
Object
100
AcDbLine
 10
8.97
 20
12.202
 30
0.0
 11
8.931
 21
12.202
 31
0.0
  0
LINE
  5
81E
330
18
100
AcDbEntity
  8
Object
100
AcDbLine
 10
8.97
 20
12.112
 30
0.0
 11
8.931
 21
12.112
 31
0.0
  0
LINE
  5
81F
330
18
100
AcDbEntity
  8
Object
100
AcDbLine
 10
8.931
 20
12.112
 30
0.0
 11
8.878
 21
12.112
 31
0.0
  0
LINE
  5
820
330
18
100
AcDbEntity
  8
Object
100
AcDbLine
 10
8.931
 20
12.202
 30
0.0
 11
8.878
 21
12.202
 31
0.0
  0
LINE
  5
821
330
18
100
AcDbEntity
  8
Object
100
AcDbLine
 10
8.878
 20
12.202
 30
0.0
 11
8.810999999999999
 21
12.202
 31
0.0
  0
LINE
  5
822
330
18
100
AcDbEntity
  8
Object
100
AcDbLine
 10
8.810999999999999
 20
12.112
 30
0.0
 11
8.878
 21
12.112
 31
0.0
  0
LINE
  5
823
330
18
100
AcDbEntity
  8
Object
100
AcDbLine
 10
8.810999999999999
 20
12.202
 30
0.0
 11
8.731999999999999
 21
12.202
 31
0.0
  0
LINE
  5
824
330
18
100
AcDbEntity
  8
Object
100
AcDbLine
 10
8.810999999999999
 20
12.112
 30
0.0
 11
8.731999999999999
 21
12.112
 31
0.0
  0
LINE
  5
825
330
18
100
AcDbEntity
  8
Object
100
AcDbLine
 10
8.731999999999999
 20
12.112
 30
0.0
 11
8.643
 21
12.112
 31
0.0
  0
LINE
  5
826
330
18
100
AcDbEntity
  8
Object
100
AcDbLine
 10
8.731999999999999
 20
12.202
 30
0.0
 11
8.643
 21
12.202
 31
0.0
  0
LINE
  5
827
330
18
100
AcDbEntity
  8
Object
100
AcDbLine
 10
8.643
 20
12.202
 30
0.0
 11
8.544999999999999
 21
12.202
 31
0.0
  0
LINE
  5
828
330
18
100
AcDbEntity
  8
Object
100
AcDbLine
 10
8.643
 20
12.112
 30
0.0
 11
8.544999999999999
 21
12.112
 31
0.0
  0
LINE
  5
829
330
18
100
AcDbEntity
  8
Object
100
AcDbLine
 10
8.544999999999999
 20
12.112
 30
0.0
 11
8.441
 21
12.112
 31
0.0
  0
LINE
  5
82A
330
18
100
AcDbEntity
  8
Object
100
AcDbLine
 10
8.544999999999999
 20
12.202
 30
0.0
 11
8.441
 21
12.202
 31
0.0
  0
LINE
  5
82B
330
18
100
AcDbEntity
  8
Object
100
AcDbLine
 10
8.441
 20
12.202
 30
0.0
 11
8.332
 21
12.202
 31
0.0
  0
LINE
  5
82C
330
18
100
AcDbEntity
  8
Object
100
AcDbLine
 10
8.441
 20
12.112
 30
0.0
 11
8.332
 21
12.112
 31
0.0
  0
LINE
  5
82D
330
18
100
AcDbEntity
  8
Object
100
AcDbLine
 10
8.332
 20
12.112
 30
0.0
 11
8.221
 21
12.112
 31
0.0
  0
LINE
  5
82E
330
18
100
AcDbEntity
  8
Object
100
AcDbLine
 10
8.332
 20
12.202
 30
0.0
 11
8.221
 21
12.202
 31
0.0
  0
LINE
  5
82F
330
18
100
AcDbEntity
  8
Object
100
AcDbLine
 10
8.080999999999999
 20
12.222
 30
0.0
 11
8.080999999999999
 21
12.212
 31
0.0
  0
LINE
  5
830
330
18
100
AcDbEntity
  8
Object
100
AcDbLine
 10
8.080999999999999
 20
12.202
 30
0.0
 11
8.080999999999999
 21
12.204
 31
0.0
  0
LINE
  5
831
330
18
100
AcDbEntity
  8
Object
100
AcDbLine
 10
8.080999999999999
 20
12.204
 30
0.0
 11
8.080999999999999
 21
12.212
 31
0.0
  0
LINE
  5
832
330
18
100
AcDbEntity
  8
Object
100
AcDbLine
 10
8.080999999999999
 20
12.867
 30
0.0
 11
8.080999999999999
 21
12.222
 31
0.0
  0
LINE
  5
833
330
18
100
AcDbEntity
  8
Object
100
AcDbLine
 10
9.195999999999999
 20
12.112
 30
0.0
 11
9.250999999999999
 21
12.112
 31
0.0
  0
LINE
  5
834
330
18
100
AcDbEntity
  8
Object
100
AcDbLine
 10
9.195999999999999
 20
12.202
 30
0.0
 11
9.250999999999999
 21
12.202
 31
0.0
  0
LINE
  5
835
330
18
100
AcDbEntity
  8
Object
100
AcDbLine
 10
9.250999999999999
 20
12.202
 30
0.0
 11
9.250999999999999
 21
12.112
 31
0.0
  0
LINE
  5
836
330
18
100
AcDbEntity
  8
Object
100
AcDbLine
 10
9.143
 20
12.112
 30
0.0
 11
9.195999999999999
 21
12.112
 31
0.0
  0
LINE
  5
837
330
18
100
AcDbEntity
  8
Object
100
AcDbLine
 10
9.195999999999999
 20
12.202
 30
0.0
 11
9.143
 21
12.202
 31
0.0
  0
LINE
  5
838
330
18
100
AcDbEntity
  8
Object
100
AcDbLine
 10
9.143
 20
12.202
 30
0.0
 11
9.095
 21
12.202
 31
0.0
  0
LINE
  5
839
330
18
100
AcDbEntity
  8
Object
100
AcDbLine
 10
9.143
 20
12.112
 30
0.0
 11
9.095
 21
12.112
 31
0.0
  0
LINE
  5
83A
330
18
100
AcDbEntity
  8
Object
100
AcDbLine
 10
9.095
 20
12.112
 30
0.0
 11
9.056
 21
12.112
 31
0.0
  0
LINE
  5
83B
330
18
100
AcDbEntity
  8
Object
100
AcDbLine
 10
9.095
 20
12.202
 30
0.0
 11
9.056
 21
12.202
 31
0.0
  0
LINE
  5
83C
330
18
100
AcDbEntity
  8
Object
100
AcDbLine
 10
9.056
 20
12.202
 30
0.0
 11
9.025999999999999
 21
12.202
 31
0.0
  0
LINE
  5
83D
330
18
100
AcDbEntity
  8
Object
100
AcDbLine
 10
9.056
 20
12.112
 30
0.0
 11
9.025999999999999
 21
12.112
 31
0.0
  0
LINE
  5
83E
330
18
100
AcDbEntity
  8
Object
100
AcDbLine
 10
9.025999999999999
 20
12.112
 30
0.0
 11
9.008
 21
12.112
 31
0.0
  0
LINE
  5
83F
330
18
100
AcDbEntity
  8
Object
100
AcDbLine
 10
9.025999999999999
 20
12.202
 30
0.0
 11
9.008
 21
12.202
 31
0.0
  0
LINE
  5
840
330
18
100
AcDbEntity
  8
Object
100
AcDbLine
 10
9.008
 20
12.202
 30
0.0
 11
9.000999999999999
 21
12.202
 31
0.0
  0
LINE
  5
841
330
18
100
AcDbEntity
  8
Object
100
AcDbLine
 10
9.008
 20
12.112
 30
0.0
 11
9.000999999999999
 21
12.112
 31
0.0
  0
LINE
  5
842
330
18
100
AcDbEntity
  8
Object
100
AcDbLine
 10
9.000999999999999
 20
12.112
 30
0.0
 11
9.000999999999999
 21
12.202
 31
0.0
  0
LINE
  5
843
330
18
100
AcDbEntity
  8
Object
100
AcDbLine
 10
9.82
 20
12.222
 30
0.0
 11
9.817
 21
12.212
 31
0.0
  0
LINE
  5
844
330
18
100
AcDbEntity
  8
Object
100
AcDbLine
 10
9.817
 20
12.212
 30
0.0
 11
9.81
 21
12.204
 31
0.0
  0
LINE
  5
845
330
18
100
AcDbEntity
  8
Object
100
AcDbLine
 10
9.81
 20
12.204
 30
0.0
 11
9.8
 21
12.202
 31
0.0
  0
LINE
  5
846
330
18
100
AcDbEntity
  8
Object
100
AcDbLine
 10
7.435
 20
12.112
 30
0.0
 11
7.440999999999999
 21
12.112
 31
0.0
  0
LINE
  5
847
330
18
100
AcDbEntity
  8
Object
100
AcDbLine
 10
7.435
 20
12.202
 30
0.0
 11
7.440999999999999
 21
12.202
 31
0.0
  0
LINE
  5
848
330
18
100
AcDbEntity
  8
Object
100
AcDbLine
 10
7.440999999999999
 20
12.202
 30
0.0
 11
7.440999999999999
 21
12.112
 31
0.0
  0
LINE
  5
849
330
18
100
AcDbEntity
  8
Object
100
AcDbLine
 10
7.435
 20
12.202
 30
0.0
 11
7.416
 21
12.202
 31
0.0
  0
LINE
  5
84A
330
18
100
AcDbEntity
  8
Object
100
AcDbLine
 10
7.435
 20
12.112
 30
0.0
 11
7.416
 21
12.112
 31
0.0
  0
LINE
  5
84B
330
18
100
AcDbEntity
  8
Object
100
AcDbLine
 10
7.416
 20
12.112
 30
0.0
 11
7.387
 21
12.112
 31
0.0
  0
LINE
  5
84C
330
18
100
AcDbEntity
  8
Object
100
AcDbLine
 10
7.416
 20
12.202
 30
0.0
 11
7.387
 21
12.202
 31
0.0
  0
LINE
  5
84D
330
18
100
AcDbEntity
  8
Object
100
AcDbLine
 10
7.347
 20
12.112
 30
0.0
 11
7.387
 21
12.112
 31
0.0
  0
LINE
  5
84E
330
18
100
AcDbEntity
  8
Object
100
AcDbLine
 10
7.387
 20
12.202
 30
0.0
 11
7.347
 21
12.202
 31
0.0
  0
LINE
  5
84F
330
18
100
AcDbEntity
  8
Object
100
AcDbLine
 10
7.299999999999999
 20
12.112
 30
0.0
 11
7.347
 21
12.112
 31
0.0
  0
LINE
  5
850
330
18
100
AcDbEntity
  8
Object
100
AcDbLine
 10
7.347
 20
12.202
 30
0.0
 11
7.299999999999999
 21
12.202
 31
0.0
  0
LINE
  5
851
330
18
100
AcDbEntity
  8
Object
100
AcDbLine
 10
7.299999999999999
 20
12.202
 30
0.0
 11
7.246999999999999
 21
12.202
 31
0.0
  0
LINE
  5
852
330
18
100
AcDbEntity
  8
Object
100
AcDbLine
 10
7.299999999999999
 20
12.112
 30
0.0
 11
7.246999999999999
 21
12.112
 31
0.0
  0
LINE
  5
853
330
18
100
AcDbEntity
  8
Object
100
AcDbLine
 10
7.246999999999999
 20
12.112
 30
0.0
 11
7.190999999999999
 21
12.112
 31
0.0
  0
LINE
  5
854
330
18
100
AcDbEntity
  8
Object
100
AcDbLine
 10
7.246999999999999
 20
12.202
 30
0.0
 11
7.190999999999999
 21
12.202
 31
0.0
  0
LINE
  5
855
330
18
100
AcDbEntity
  8
Object
100
AcDbLine
 10
6.001
 20
12.202
 30
0.0
 11
6.001
 21
12.112
 31
0.0
  0
LINE
  5
856
330
18
100
AcDbEntity
  8
Object
100
AcDbLine
 10
10.102
 20
12.112
 30
0.0
 11
10.102
 21
12.202
 31
0.0
  0
LINE
  5
857
330
18
100
AcDbEntity
  8
Object
100
AcDbLine
 10
7.408
 20
12.212
 30
0.0
 11
7.408
 21
12.222
 31
0.0
  0
LINE
  5
858
330
18
100
AcDbEntity
  8
Object
100
AcDbLine
 10
7.408
 20
12.202
 30
0.0
 11
7.408
 21
12.204
 31
0.0
  0
LINE
  5
859
330
18
100
AcDbEntity
  8
Object
100
AcDbLine
 10
7.408
 20
12.204
 30
0.0
 11
7.408
 21
12.212
 31
0.0
  0
LINE
  5
85A
330
18
100
AcDbEntity
  8
Object
100
AcDbLine
 10
6.001
 20
12.202
 30
0.0
 11
5.993
 21
12.202
 31
0.0
  0
LINE
  5
85B
330
18
100
AcDbEntity
  8
Object
100
AcDbLine
 10
6.001
 20
12.112
 30
0.0
 11
5.993
 21
12.112
 31
0.0
  0
LINE
  5
85C
330
18
100
AcDbEntity
  8
Object
100
AcDbLine
 10
5.993
 20
12.112
 30
0.0
 11
5.969999999999999
 21
12.112
 31
0.0
  0
LINE
  5
85D
330
18
100
AcDbEntity
  8
Object
100
AcDbLine
 10
5.993
 20
12.202
 30
0.0
 11
5.969999999999999
 21
12.202
 31
0.0
  0
LINE
  5
85E
330
18
100
AcDbEntity
  8
Object
100
AcDbLine
 10
5.969999999999999
 20
12.202
 30
0.0
 11
5.931
 21
12.202
 31
0.0
  0
LINE
  5
85F
330
18
100
AcDbEntity
  8
Object
100
AcDbLine
 10
5.969999999999999
 20
12.112
 30
0.0
 11
5.931
 21
12.112
 31
0.0
  0
LINE
  5
860
330
18
100
AcDbEntity
  8
Object
100
AcDbLine
 10
5.931
 20
12.112
 30
0.0
 11
5.876999999999999
 21
12.112
 31
0.0
  0
LINE
  5
861
330
18
100
AcDbEntity
  8
Object
100
AcDbLine
 10
5.931
 20
12.202
 30
0.0
 11
5.876999999999999
 21
12.202
 31
0.0
  0
LINE
  5
862
330
18
100
AcDbEntity
  8
Object
100
AcDbLine
 10
5.876999999999999
 20
12.202
 30
0.0
 11
5.810999999999999
 21
12.202
 31
0.0
  0
LINE
  5
863
330
18
100
AcDbEntity
  8
Object
100
AcDbLine
 10
5.876999999999999
 20
12.112
 30
0.0
 11
5.810999999999999
 21
12.112
 31
0.0
  0
LINE
  5
864
330
18
100
AcDbEntity
  8
Object
100
AcDbLine
 10
5.810999999999999
 20
12.112
 30
0.0
 11
5.732
 21
12.112
 31
0.0
  0
LINE
  5
865
330
18
100
AcDbEntity
  8
Object
100
AcDbLine
 10
5.810999999999999
 20
12.202
 30
0.0
 11
5.732
 21
12.202
 31
0.0
  0
LINE
  5
866
330
18
100
AcDbEntity
  8
Object
100
AcDbLine
 10
5.732
 20
12.202
 30
0.0
 11
5.642999999999999
 21
12.202
 31
0.0
  0
LINE
  5
867
330
18
100
AcDbEntity
  8
Object
100
AcDbLine
 10
5.642999999999999
 20
12.112
 30
0.0
 11
5.732
 21
12.112
 31
0.0
  0
LINE
  5
868
330
18
100
AcDbEntity
  8
Object
100
AcDbLine
 10
5.642999999999999
 20
12.202
 30
0.0
 11
5.544999999999999
 21
12.202
 31
0.0
  0
LINE
  5
869
330
18
100
AcDbEntity
  8
Object
100
AcDbLine
 10
5.642999999999999
 20
12.112
 30
0.0
 11
5.544999999999999
 21
12.112
 31
0.0
  0
LINE
  5
86A
330
18
100
AcDbEntity
  8
Object
100
AcDbLine
 10
5.544999999999999
 20
12.112
 30
0.0
 11
5.440999999999999
 21
12.112
 31
0.0
  0
LINE
  5
86B
330
18
100
AcDbEntity
  8
Object
100
AcDbLine
 10
5.544999999999999
 20
12.202
 30
0.0
 11
5.440999999999999
 21
12.202
 31
0.0
  0
LINE
  5
86C
330
18
100
AcDbEntity
  8
Object
100
AcDbLine
 10
5.440999999999999
 20
12.202
 30
0.0
 11
5.331999999999999
 21
12.202
 31
0.0
  0
LINE
  5
86D
330
18
100
AcDbEntity
  8
Object
100
AcDbLine
 10
5.440999999999999
 20
12.112
 30
0.0
 11
5.331999999999999
 21
12.112
 31
0.0
  0
LINE
  5
86E
330
18
100
AcDbEntity
  8
Object
100
AcDbLine
 10
5.331999999999999
 20
12.112
 30
0.0
 11
5.221
 21
12.112
 31
0.0
  0
LINE
  5
86F
330
18
100
AcDbEntity
  8
Object
100
AcDbLine
 10
5.331999999999999
 20
12.202
 30
0.0
 11
5.221
 21
12.202
 31
0.0
  0
LINE
  5
870
330
18
100
AcDbEntity
  8
Object
100
AcDbLine
 10
7.408
 20
12.204
 30
0.0
 11
7.408
 21
12.212
 31
0.0
  0
LINE
  5
871
330
18
100
AcDbEntity
  8
Object
100
AcDbLine
 10
6.033999999999999
 20
12.212
 30
0.0
 11
6.033999999999999
 21
12.222
 31
0.0
  0
LINE
  5
872
330
18
100
AcDbEntity
  8
Object
100
AcDbLine
 10
6.033999999999999
 20
12.222
 30
0.0
 11
7.408
 21
12.222
 31
0.0
  0
LINE
  5
873
330
18
100
AcDbEntity
  8
Object
100
AcDbLine
 10
7.408
 20
12.222
 30
0.0
 11
7.408
 21
12.212
 31
0.0
  0
LINE
  5
874
330
18
100
AcDbEntity
  8
Object
100
AcDbLine
 10
6.033999999999999
 20
12.212
 30
0.0
 11
6.033999999999999
 21
12.204
 31
0.0
  0
LINE
  5
875
330
18
100
AcDbEntity
  8
Object
100
AcDbLine
 10
7.408
 20
12.202
 30
0.0
 11
7.408
 21
12.204
 31
0.0
  0
LINE
  5
876
330
18
100
AcDbEntity
  8
Object
100
AcDbLine
 10
6.033999999999999
 20
12.204
 30
0.0
 11
6.033999999999999
 21
12.202
 31
0.0
  0
LINE
  5
877
330
18
100
AcDbEntity
  8
Object
100
AcDbLine
 10
9.82
 20
12.222
 30
0.0
 11
10.016
 21
12.222
 31
0.0
  0
LINE
  5
878
330
18
100
AcDbEntity
  8
Object
100
AcDbLine
 10
10.016
 20
12.222
 30
0.0
 11
10.013
 21
12.212
 31
0.0
  0
LINE
  5
879
330
18
100
AcDbEntity
  8
Object
100
AcDbLine
 10
10.013
 20
12.212
 30
0.0
 11
10.006
 21
12.204
 31
0.0
  0
LINE
  5
87A
330
18
100
AcDbEntity
  8
Object
100
AcDbLine
 10
10.006
 20
12.204
 30
0.0
 11
9.996
 21
12.202
 31
0.0
  0
LINE
  5
87B
330
18
100
AcDbEntity
  8
Object
100
AcDbLine
 10
3.643
 20
12.202
 30
0.0
 11
3.633
 21
12.204
 31
0.0
  0
LINE
  5
87C
330
18
100
AcDbEntity
  8
Object
100
AcDbLine
 10
3.633
 20
12.204
 30
0.0
 11
3.625
 21
12.212
 31
0.0
  0
LINE
  5
87D
330
18
100
AcDbEntity
  8
Object
100
AcDbLine
 10
3.625
 20
12.212
 30
0.0
 11
3.623
 21
12.222
 31
0.0
  0
LINE
  5
87E
330
18
100
AcDbEntity
  8
Object
100
AcDbLine
 10
3.623
 20
12.222
 30
0.0
 11
3.427
 21
12.222
 31
0.0
  0
LINE
  5
87F
330
18
100
AcDbEntity
  8
Object
100
AcDbLine
 10
8.730999999999999
 20
12.204
 30
0.0
 11
8.730999999999999
 21
12.212
 31
0.0
  0
LINE
  5
880
330
18
100
AcDbEntity
  8
Object
100
AcDbLine
 10
8.080999999999999
 20
12.212
 30
0.0
 11
8.080999999999999
 21
12.222
 31
0.0
  0
LINE
  5
881
330
18
100
AcDbEntity
  8
Object
100
AcDbLine
 10
8.080999999999999
 20
12.222
 30
0.0
 11
8.730999999999999
 21
12.222
 31
0.0
  0
LINE
  5
882
330
18
100
AcDbEntity
  8
Object
100
AcDbLine
 10
8.730999999999999
 20
12.222
 30
0.0
 11
8.730999999999999
 21
12.212
 31
0.0
  0
LINE
  5
883
330
18
100
AcDbEntity
  8
Object
100
AcDbLine
 10
8.080999999999999
 20
12.212
 30
0.0
 11
8.080999999999999
 21
12.204
 31
0.0
  0
LINE
  5
884
330
18
100
AcDbEntity
  8
Object
100
AcDbLine
 10
8.730999999999999
 20
12.202
 30
0.0
 11
8.730999999999999
 21
12.204
 31
0.0
  0
LINE
  5
885
330
18
100
AcDbEntity
  8
Object
100
AcDbLine
 10
8.080999999999999
 20
12.204
 30
0.0
 11
8.080999999999999
 21
12.202
 31
0.0
  0
LINE
  5
886
330
18
100
AcDbEntity
  8
Object
100
AcDbLine
 10
8.730999999999999
 20
12.867
 30
0.0
 11
8.724999999999999
 21
12.905
 31
0.0
  0
LINE
  5
887
330
18
100
AcDbEntity
  8
Object
100
AcDbLine
 10
8.724999999999999
 20
12.905
 30
0.0
 11
8.707
 21
12.94
 31
0.0
  0
LINE
  5
888
330
18
100
AcDbEntity
  8
Object
100
AcDbLine
 10
8.707
 20
12.94
 30
0.0
 11
8.679999999999999
 21
12.968
 31
0.0
  0
LINE
  5
889
330
18
100
AcDbEntity
  8
Object
100
AcDbLine
 10
8.679999999999999
 20
12.968
 30
0.0
 11
8.644999999999999
 21
12.986
 31
0.0
  0
LINE
  5
88A
330
18
100
AcDbEntity
  8
Object
100
AcDbLine
 10
8.644999999999999
 20
12.986
 30
0.0
 11
8.605999999999999
 21
12.992
 31
0.0
  0
LINE
  5
88B
330
18
100
AcDbEntity
  8
Object
100
AcDbLine
 10
8.707
 20
12.94
 30
0.0
 11
8.724999999999999
 21
12.905
 31
0.0
  0
LINE
  5
88C
330
18
100
AcDbEntity
  8
Object
100
AcDbLine
 10
8.724999999999999
 20
12.905
 30
0.0
 11
8.730999999999999
 21
12.867
 31
0.0
  0
LINE
  5
88D
330
18
100
AcDbEntity
  8
Object
100
AcDbLine
 10
8.707
 20
12.94
 30
0.0
 11
8.679999999999999
 21
12.968
 31
0.0
  0
LINE
  5
88E
330
18
100
AcDbEntity
  8
Object
100
AcDbLine
 10
8.679999999999999
 20
12.968
 30
0.0
 11
8.644999999999999
 21
12.986
 31
0.0
  0
LINE
  5
88F
330
18
100
AcDbEntity
  8
Object
100
AcDbLine
 10
8.644999999999999
 20
12.986
 30
0.0
 11
8.605999999999999
 21
12.992
 31
0.0
  0
LINE
  5
890
330
18
100
AcDbEntity
  8
Object
100
AcDbLine
 10
8.605999999999999
 20
12.992
 30
0.0
 11
8.205999999999999
 21
12.992
 31
0.0
  0
LINE
  5
891
330
18
100
AcDbEntity
  8
Object
100
AcDbLine
 10
8.133
 20
12.968
 30
0.0
 11
8.105
 21
12.94
 31
0.0
  0
LINE
  5
892
330
18
100
AcDbEntity
  8
Object
100
AcDbLine
 10
8.080999999999999
 20
12.867
 30
0.0
 11
8.086999999999999
 21
12.905
 31
0.0
  0
LINE
  5
893
330
18
100
AcDbEntity
  8
Object
100
AcDbLine
 10
8.086999999999999
 20
12.905
 30
0.0
 11
8.105
 21
12.94
 31
0.0
  0
LINE
  5
894
330
18
100
AcDbEntity
  8
Object
100
AcDbLine
 10
8.133
 20
12.968
 30
0.0
 11
8.168000000000001
 21
12.986
 31
0.0
  0
LINE
  5
895
330
18
100
AcDbEntity
  8
Object
100
AcDbLine
 10
8.168000000000001
 20
12.986
 30
0.0
 11
8.205999999999999
 21
12.992
 31
0.0
  0
LINE
  5
896
330
18
100
AcDbEntity
  8
Object
100
AcDbLine
 10
8.080999999999999
 20
12.867
 30
0.0
 11
8.080999999999999
 21
12.222
 31
0.0
  0
LINE
  5
897
330
18
100
AcDbEntity
  8
Object
100
AcDbLine
 10
8.730999999999999
 20
12.222
 30
0.0
 11
8.730999999999999
 21
12.867
 31
0.0
  0
LINE
  5
898
330
18
100
AcDbEntity
  8
Object
100
AcDbLine
 10
3.623
 20
12.222
 30
0.0
 11
3.623
 21
12.742
 31
0.0
  0
LINE
  5
899
330
18
100
AcDbEntity
  8
Object
100
AcDbLine
 10
3.346999999999999
 20
12.967
 30
0.0
 11
3.350999999999999
 21
12.985
 31
0.0
  0
LINE
  5
89A
330
18
100
AcDbEntity
  8
Object
100
AcDbLine
 10
3.350999999999999
 20
12.985
 30
0.0
 11
3.354999999999999
 21
12.992
 31
0.0
  0
LINE
  5
89B
330
18
100
AcDbEntity
  8
Object
100
AcDbLine
 10
3.346999999999999
 20
12.967
 30
0.0
 11
3.343999999999999
 21
12.937
 31
0.0
  0
LINE
  5
89C
330
18
100
AcDbEntity
  8
Object
100
AcDbLine
 10
3.343999999999999
 20
12.937
 30
0.0
 11
3.341
 21
12.898
 31
0.0
  0
LINE
  5
89D
330
18
100
AcDbEntity
  8
Object
100
AcDbLine
 10
3.341
 20
12.898
 30
0.0
 11
3.338999999999999
 21
12.85
 31
0.0
  0
LINE
  5
89E
330
18
100
AcDbEntity
  8
Object
100
AcDbLine
 10
3.338999999999999
 20
12.85
 30
0.0
 11
3.338
 21
12.797
 31
0.0
  0
LINE
  5
89F
330
18
100
AcDbEntity
  8
Object
100
AcDbLine
 10
3.338
 20
12.797
 30
0.0
 11
3.337
 21
12.742
 31
0.0
  0
LINE
  5
8A0
330
18
100
AcDbEntity
  8
Object
100
AcDbLine
 10
3.337
 20
12.742
 30
0.0
 11
3.337
 21
12.222
 31
0.0
  0
LINE
  5
8A1
330
18
100
AcDbEntity
  8
Object
100
AcDbLine
 10
3.337
 20
12.742
 30
0.0
 11
3.427
 21
12.742
 31
0.0
  0
LINE
  5
8A2
330
18
100
AcDbEntity
  8
Object
100
AcDbLine
 10
3.427
 20
12.742
 30
0.0
 11
3.427
 21
12.222
 31
0.0
  0
LINE
  5
8A3
330
18
100
AcDbEntity
  8
Object
100
AcDbLine
 10
10.016
 20
12.742
 30
0.0
 11
10.105
 21
12.742
 31
0.0
  0
LINE
  5
8A4
330
18
100
AcDbEntity
  8
Object
100
AcDbLine
 10
10.105
 20
12.742
 30
0.0
 11
10.105
 21
12.222
 31
0.0
  0
LINE
  5
8A5
330
18
100
AcDbEntity
  8
Object
100
AcDbLine
 10
6.033999999999999
 20
13.577
 30
0.0
 11
6.033999999999999
 21
12.222
 31
0.0
  0
LINE
  5
8A6
330
18
100
AcDbEntity
  8
Object
100
AcDbLine
 10
8.205999999999999
 20
12.992
 30
0.0
 11
8.168000000000001
 21
12.986
 31
0.0
  0
LINE
  5
8A7
330
18
100
AcDbEntity
  8
Object
100
AcDbLine
 10
8.168000000000001
 20
12.986
 30
0.0
 11
8.133
 21
12.968
 31
0.0
  0
LINE
  5
8A8
330
18
100
AcDbEntity
  8
Object
100
AcDbLine
 10
8.133
 20
12.968
 30
0.0
 11
8.105
 21
12.94
 31
0.0
  0
LINE
  5
8A9
330
18
100
AcDbEntity
  8
Object
100
AcDbLine
 10
8.105
 20
12.94
 30
0.0
 11
8.086999999999999
 21
12.905
 31
0.0
  0
LINE
  5
8AA
330
18
100
AcDbEntity
  8
Object
100
AcDbLine
 10
8.086999999999999
 20
12.905
 30
0.0
 11
8.080999999999999
 21
12.867
 31
0.0
  0
LINE
  5
8AB
330
18
100
AcDbEntity
  8
Object
100
AcDbLine
 10
9.82
 20
12.742
 30
0.0
 11
9.82
 21
12.222
 31
0.0
  0
LINE
  5
8AC
330
18
100
AcDbEntity
  8
Object
100
AcDbLine
 10
7.408
 20
12.222
 30
0.0
 11
7.408
 21
13.577
 31
0.0
  0
LINE
  5
8AD
330
18
100
AcDbEntity
  8
Object
100
AcDbLine
 10
7.322
 20
13.696
 30
0.0
 11
7.357
 21
13.678
 31
0.0
  0
LINE
  5
8AE
330
18
100
AcDbEntity
  8
Object
100
AcDbLine
 10
7.357
 20
13.678
 30
0.0
 11
7.384
 21
13.65
 31
0.0
  0
LINE
  5
8AF
330
18
100
AcDbEntity
  8
Object
100
AcDbLine
 10
7.384
 20
13.65
 30
0.0
 11
7.402
 21
13.615
 31
0.0
  0
LINE
  5
8B0
330
18
100
AcDbEntity
  8
Object
100
AcDbLine
 10
7.402
 20
13.615
 30
0.0
 11
7.408
 21
13.577
 31
0.0
  0
LINE
  5
8B1
330
18
100
AcDbEntity
  8
Object
100
AcDbLine
 10
7.322
 20
13.696
 30
0.0
 11
7.283
 21
13.702
 31
0.0
  0
LINE
  5
8B2
330
18
100
AcDbEntity
  8
Object
100
AcDbLine
 10
6.828999999999999
 20
13.096
 30
0.0
 11
6.828999999999999
 21
13.058
 31
0.0
  0
LINE
  5
8B3
330
18
100
AcDbEntity
  8
Object
100
AcDbLine
 10
7.408
 20
12.222
 30
0.0
 11
7.408
 21
13.577
 31
0.0
  0
LINE
  5
8B4
330
18
100
AcDbEntity
  8
Object
100
AcDbLine
 10
6.815999999999999
 20
13.131
 30
0.0
 11
6.828999999999999
 21
13.096
 31
0.0
  0
LINE
  5
8B5
330
18
100
AcDbEntity
  8
Object
100
AcDbLine
 10
6.828999999999999
 20
13.058
 30
0.0
 11
6.815999999999999
 21
13.022
 31
0.0
  0
LINE
  5
8B6
330
18
100
AcDbEntity
  8
Object
100
AcDbLine
 10
6.791
 20
13.16
 30
0.0
 11
6.815999999999999
 21
13.131
 31
0.0
  0
LINE
  5
8B7
330
18
100
AcDbEntity
  8
Object
100
AcDbLine
 10
6.815999999999999
 20
13.022
 30
0.0
 11
6.791
 21
12.993
 31
0.0
  0
LINE
  5
8B8
330
18
100
AcDbEntity
  8
Object
100
AcDbLine
 10
6.758
 20
13.179
 30
0.0
 11
6.791
 21
13.16
 31
0.0
  0
LINE
  5
8B9
330
18
100
AcDbEntity
  8
Object
100
AcDbLine
 10
6.791
 20
12.993
 30
0.0
 11
6.758
 21
12.974
 31
0.0
  0
LINE
  5
8BA
330
18
100
AcDbEntity
  8
Object
100
AcDbLine
 10
6.721
 20
13.186
 30
0.0
 11
6.758
 21
13.179
 31
0.0
  0
LINE
  5
8BB
330
18
100
AcDbEntity
  8
Object
100
AcDbLine
 10
6.758
 20
12.974
 30
0.0
 11
6.721
 21
12.968
 31
0.0
  0
LINE
  5
8BC
330
18
100
AcDbEntity
  8
Object
100
AcDbLine
 10
6.721
 20
13.186
 30
0.0
 11
6.684
 21
13.179
 31
0.0
  0
LINE
  5
8BD
330
18
100
AcDbEntity
  8
Object
100
AcDbLine
 10
6.684
 20
13.179
 30
0.0
 11
6.650999999999999
 21
13.16
 31
0.0
  0
LINE
  5
8BE
330
18
100
AcDbEntity
  8
Object
100
AcDbLine
 10
6.650999999999999
 20
13.16
 30
0.0
 11
6.626999999999999
 21
13.131
 31
0.0
  0
LINE
  5
8BF
330
18
100
AcDbEntity
  8
Object
100
AcDbLine
 10
7.283
 20
13.702
 30
0.0
 11
6.158999999999999
 21
13.702
 31
0.0
  0
LINE
  5
8C0
330
18
100
AcDbEntity
  8
Object
100
AcDbLine
 10
6.057999999999999
 20
13.65
 30
0.0
 11
6.086
 21
13.678
 31
0.0
  0
LINE
  5
8C1
330
18
100
AcDbEntity
  8
Object
100
AcDbLine
 10
6.086
 20
13.678
 30
0.0
 11
6.121
 21
13.696
 31
0.0
  0
LINE
  5
8C2
330
18
100
AcDbEntity
  8
Object
100
AcDbLine
 10
6.121
 20
13.696
 30
0.0
 11
6.158999999999999
 21
13.702
 31
0.0
  0
LINE
  5
8C3
330
18
100
AcDbEntity
  8
Object
100
AcDbLine
 10
6.057999999999999
 20
13.65
 30
0.0
 11
6.04
 21
13.615
 31
0.0
  0
LINE
  5
8C4
330
18
100
AcDbEntity
  8
Object
100
AcDbLine
 10
6.04
 20
13.615
 30
0.0
 11
6.033999999999999
 21
13.577
 31
0.0
  0
LINE
  5
8C5
330
18
100
AcDbEntity
  8
Object
100
AcDbLine
 10
6.626999999999999
 20
13.131
 30
0.0
 11
6.613999999999999
 21
13.096
 31
0.0
  0
LINE
  5
8C6
330
18
100
AcDbEntity
  8
Object
100
AcDbLine
 10
6.613999999999999
 20
13.096
 30
0.0
 11
6.613999999999999
 21
13.058
 31
0.0
  0
LINE
  5
8C7
330
18
100
AcDbEntity
  8
Object
100
AcDbLine
 10
6.613999999999999
 20
13.058
 30
0.0
 11
6.626999999999999
 21
13.022
 31
0.0
  0
LINE
  5
8C8
330
18
100
AcDbEntity
  8
Object
100
AcDbLine
 10
6.626999999999999
 20
13.022
 30
0.0
 11
6.650999999999999
 21
12.993
 31
0.0
  0
LINE
  5
8C9
330
18
100
AcDbEntity
  8
Object
100
AcDbLine
 10
6.650999999999999
 20
12.993
 30
0.0
 11
6.684
 21
12.974
 31
0.0
  0
LINE
  5
8CA
330
18
100
AcDbEntity
  8
Object
100
AcDbLine
 10
6.684
 20
12.974
 30
0.0
 11
6.721
 21
12.968
 31
0.0
  0
LINE
  5
8CB
330
18
100
AcDbEntity
  8
Object
100
AcDbLine
 10
6.033999999999999
 20
13.577
 30
0.0
 11
6.033999999999999
 21
12.222
 31
0.0
  0
LINE
  5
8CC
330
18
100
AcDbEntity
  8
Object
100
AcDbLine
 10
10.006
 20
12.967
 30
0.0
 11
10.002
 21
12.985
 31
0.0
  0
LINE
  5
8CD
330
18
100
AcDbEntity
  8
Object
100
AcDbLine
 10
10.002
 20
12.985
 30
0.0
 11
9.997999999999999
 21
12.992
 31
0.0
  0
LINE
  5
8CE
330
18
100
AcDbEntity
  8
Object
100
AcDbLine
 10
10.006
 20
12.967
 30
0.0
 11
10.009
 21
12.937
 31
0.0
  0
LINE
  5
8CF
330
18
100
AcDbEntity
  8
Object
100
AcDbLine
 10
10.009
 20
12.937
 30
0.0
 11
10.012
 21
12.898
 31
0.0
  0
LINE
  5
8D0
330
18
100
AcDbEntity
  8
Object
100
AcDbLine
 10
10.012
 20
12.898
 30
0.0
 11
10.014
 21
12.85
 31
0.0
  0
LINE
  5
8D1
330
18
100
AcDbEntity
  8
Object
100
AcDbLine
 10
10.014
 20
12.85
 30
0.0
 11
10.015
 21
12.797
 31
0.0
  0
LINE
  5
8D2
330
18
100
AcDbEntity
  8
Object
100
AcDbLine
 10
10.015
 20
12.797
 30
0.0
 11
10.016
 21
12.742
 31
0.0
  0
LINE
  5
8D3
330
18
100
AcDbEntity
  8
Object
100
AcDbLine
 10
9.952999999999999
 20
12.654
 30
0.0
 11
9.952999999999999
 21
12.617
 31
0.0
  0
LINE
  5
8D4
330
18
100
AcDbEntity
  8
Object
100
AcDbLine
 10
9.952999999999999
 20
12.617
 30
0.0
 11
9.952999999999999
 21
12.579
 31
0.0
  0
LINE
  5
8D5
330
18
100
AcDbEntity
  8
Object
100
AcDbLine
 10
10.016
 20
12.222
 30
0.0
 11
10.016
 21
12.742
 31
0.0
  0
LINE
  5
8D6
330
18
100
AcDbEntity
  8
Object
100
AcDbLine
 10
9.951999999999999
 20
12.687
 30
0.0
 11
9.952999999999999
 21
12.654
 31
0.0
  0
LINE
  5
8D7
330
18
100
AcDbEntity
  8
Object
100
AcDbLine
 10
9.952999999999999
 20
12.579
 30
0.0
 11
9.951999999999999
 21
12.547
 31
0.0
  0
LINE
  5
8D8
330
18
100
AcDbEntity
  8
Object
100
AcDbLine
 10
9.950000000000001
 20
12.711
 30
0.0
 11
9.951999999999999
 21
12.687
 31
0.0
  0
LINE
  5
8D9
330
18
100
AcDbEntity
  8
Object
100
AcDbLine
 10
9.951999999999999
 20
12.547
 30
0.0
 11
9.950000000000001
 21
12.522
 31
0.0
  0
LINE
  5
8DA
330
18
100
AcDbEntity
  8
Object
100
AcDbLine
 10
9.947
 20
12.724
 30
0.0
 11
9.950000000000001
 21
12.711
 31
0.0
  0
LINE
  5
8DB
330
18
100
AcDbEntity
  8
Object
100
AcDbLine
 10
9.950000000000001
 20
12.522
 30
0.0
 11
9.947
 21
12.509
 31
0.0
  0
LINE
  5
8DC
330
18
100
AcDbEntity
  8
Object
100
AcDbLine
 10
9.944
 20
12.724
 30
0.0
 11
9.947
 21
12.724
 31
0.0
  0
LINE
  5
8DD
330
18
100
AcDbEntity
  8
Object
100
AcDbLine
 10
9.947
 20
12.509
 30
0.0
 11
9.944
 21
12.509
 31
0.0
  0
LINE
  5
8DE
330
18
100
AcDbEntity
  8
Object
100
AcDbLine
 10
9.942
 20
12.711
 30
0.0
 11
9.944
 21
12.724
 31
0.0
  0
LINE
  5
8DF
330
18
100
AcDbEntity
  8
Object
100
AcDbLine
 10
9.997999999999999
 20
12.992
 30
0.0
 11
9.836999999999999
 21
12.992
 31
0.0
  0
LINE
  5
8E0
330
18
100
AcDbEntity
  8
Object
100
AcDbLine
 10
9.942
 20
12.711
 30
0.0
 11
9.939999999999999
 21
12.687
 31
0.0
  0
LINE
  5
8E1
330
18
100
AcDbEntity
  8
Object
100
AcDbLine
 10
9.939999999999999
 20
12.687
 30
0.0
 11
9.939
 21
12.654
 31
0.0
  0
LINE
  5
8E2
330
18
100
AcDbEntity
  8
Object
100
AcDbLine
 10
9.939
 20
12.654
 30
0.0
 11
9.938
 21
12.617
 31
0.0
  0
LINE
  5
8E3
330
18
100
AcDbEntity
  8
Object
100
AcDbLine
 10
9.938
 20
12.617
 30
0.0
 11
9.939
 21
12.579
 31
0.0
  0
LINE
  5
8E4
330
18
100
AcDbEntity
  8
Object
100
AcDbLine
 10
9.829
 20
12.967
 30
0.0
 11
9.833
 21
12.985
 31
0.0
  0
LINE
  5
8E5
330
18
100
AcDbEntity
  8
Object
100
AcDbLine
 10
9.833
 20
12.985
 30
0.0
 11
9.836999999999999
 21
12.992
 31
0.0
  0
LINE
  5
8E6
330
18
100
AcDbEntity
  8
Object
100
AcDbLine
 10
9.829
 20
12.967
 30
0.0
 11
9.826
 21
12.937
 31
0.0
  0
LINE
  5
8E7
330
18
100
AcDbEntity
  8
Object
100
AcDbLine
 10
9.826
 20
12.937
 30
0.0
 11
9.823
 21
12.898
 31
0.0
  0
LINE
  5
8E8
330
18
100
AcDbEntity
  8
Object
100
AcDbLine
 10
9.823
 20
12.898
 30
0.0
 11
9.820999999999999
 21
12.85
 31
0.0
  0
LINE
  5
8E9
330
18
100
AcDbEntity
  8
Object
100
AcDbLine
 10
9.82
 20
12.742
 30
0.0
 11
9.82
 21
12.797
 31
0.0
  0
LINE
  5
8EA
330
18
100
AcDbEntity
  8
Object
100
AcDbLine
 10
9.82
 20
12.797
 30
0.0
 11
9.820999999999999
 21
12.85
 31
0.0
  0
LINE
  5
8EB
330
18
100
AcDbEntity
  8
Object
100
AcDbLine
 10
9.939999999999999
 20
12.547
 30
0.0
 11
9.942
 21
12.522
 31
0.0
  0
LINE
  5
8EC
330
18
100
AcDbEntity
  8
Object
100
AcDbLine
 10
9.942
 20
12.522
 30
0.0
 11
9.944
 21
12.509
 31
0.0
  0
LINE
  5
8ED
330
18
100
AcDbEntity
  8
Object
100
AcDbLine
 10
9.939999999999999
 20
12.547
 30
0.0
 11
9.939
 21
12.579
 31
0.0
  0
LINE
  5
8EE
330
18
100
AcDbEntity
  8
Object
100
AcDbLine
 10
3.604999999999999
 20
12.992
 30
0.0
 11
3.443999999999999
 21
12.992
 31
0.0
  0
LINE
  5
8EF
330
18
100
AcDbEntity
  8
Object
100
AcDbLine
 10
3.495
 20
12.724
 30
0.0
 11
3.498
 21
12.724
 31
0.0
  0
LINE
  5
8F0
330
18
100
AcDbEntity
  8
Object
100
AcDbLine
 10
3.498
 20
12.509
 30
0.0
 11
3.495
 21
12.509
 31
0.0
  0
LINE
  5
8F1
330
18
100
AcDbEntity
  8
Object
100
AcDbLine
 10
8.605999999999999
 20
12.992
 30
0.0
 11
8.205999999999999
 21
12.992
 31
0.0
  0
LINE
  5
8F2
330
18
100
AcDbEntity
  8
Object
100
AcDbLine
 10
6.684
 20
13.179
 30
0.0
 11
6.721
 21
13.186
 31
0.0
  0
LINE
  5
8F3
330
18
100
AcDbEntity
  8
Object
100
AcDbLine
 10
6.721
 20
12.968
 30
0.0
 11
6.684
 21
12.974
 31
0.0
  0
LINE
  5
8F4
330
18
100
AcDbEntity
  8
Object
100
AcDbLine
 10
6.684
 20
12.974
 30
0.0
 11
6.650999999999999
 21
12.993
 31
0.0
  0
LINE
  5
8F5
330
18
100
AcDbEntity
  8
Object
100
AcDbLine
 10
6.684
 20
13.179
 30
0.0
 11
6.650999999999999
 21
13.16
 31
0.0
  0
LINE
  5
8F6
330
18
100
AcDbEntity
  8
Object
100
AcDbLine
 10
6.650999999999999
 20
13.16
 30
0.0
 11
6.626999999999999
 21
13.131
 31
0.0
  0
LINE
  5
8F7
330
18
100
AcDbEntity
  8
Object
100
AcDbLine
 10
6.650999999999999
 20
12.993
 30
0.0
 11
6.626999999999999
 21
13.022
 31
0.0
  0
LINE
  5
8F8
330
18
100
AcDbEntity
  8
Object
100
AcDbLine
 10
6.613999999999999
 20
13.096
 30
0.0
 11
6.613999999999999
 21
13.058
 31
0.0
  0
LINE
  5
8F9
330
18
100
AcDbEntity
  8
Object
100
AcDbLine
 10
6.613999999999999
 20
13.058
 30
0.0
 11
6.626999999999999
 21
13.022
 31
0.0
  0
LINE
  5
8FA
330
18
100
AcDbEntity
  8
Object
100
AcDbLine
 10
6.613999999999999
 20
13.096
 30
0.0
 11
6.626999999999999
 21
13.131
 31
0.0
  0
LINE
  5
8FB
330
18
100
AcDbEntity
  8
Object
100
AcDbLine
 10
7.408
 20
13.577
 30
0.0
 11
7.402
 21
13.615
 31
0.0
  0
LINE
  5
8FC
330
18
100
AcDbEntity
  8
Object
100
AcDbLine
 10
7.402
 20
13.615
 30
0.0
 11
7.384
 21
13.65
 31
0.0
  0
LINE
  5
8FD
330
18
100
AcDbEntity
  8
Object
100
AcDbLine
 10
7.384
 20
13.65
 30
0.0
 11
7.357
 21
13.678
 31
0.0
  0
LINE
  5
8FE
330
18
100
AcDbEntity
  8
Object
100
AcDbLine
 10
7.357
 20
13.678
 30
0.0
 11
7.322
 21
13.696
 31
0.0
  0
LINE
  5
8FF
330
18
100
AcDbEntity
  8
Object
100
AcDbLine
 10
7.322
 20
13.696
 30
0.0
 11
7.283
 21
13.702
 31
0.0
  0
LINE
  5
900
330
18
100
AcDbEntity
  8
Object
100
AcDbLine
 10
6.828999999999999
 20
13.096
 30
0.0
 11
6.828999999999999
 21
13.058
 31
0.0
  0
LINE
  5
901
330
18
100
AcDbEntity
  8
Object
100
AcDbLine
 10
6.828999999999999
 20
13.058
 30
0.0
 11
6.815999999999999
 21
13.022
 31
0.0
  0
LINE
  5
902
330
18
100
AcDbEntity
  8
Object
100
AcDbLine
 10
6.828999999999999
 20
13.096
 30
0.0
 11
6.815999999999999
 21
13.131
 31
0.0
  0
LINE
  5
903
330
18
100
AcDbEntity
  8
Object
100
AcDbLine
 10
6.815999999999999
 20
13.131
 30
0.0
 11
6.791
 21
13.16
 31
0.0
  0
LINE
  5
904
330
18
100
AcDbEntity
  8
Object
100
AcDbLine
 10
6.815999999999999
 20
13.022
 30
0.0
 11
6.791
 21
12.993
 31
0.0
  0
LINE
  5
905
330
18
100
AcDbEntity
  8
Object
100
AcDbLine
 10
6.791
 20
12.993
 30
0.0
 11
6.758
 21
12.974
 31
0.0
  0
LINE
  5
906
330
18
100
AcDbEntity
  8
Object
100
AcDbLine
 10
6.791
 20
13.16
 30
0.0
 11
6.758
 21
13.179
 31
0.0
  0
LINE
  5
907
330
18
100
AcDbEntity
  8
Object
100
AcDbLine
 10
6.758
 20
13.179
 30
0.0
 11
6.721
 21
13.186
 31
0.0
  0
LINE
  5
908
330
18
100
AcDbEntity
  8
Object
100
AcDbLine
 10
6.758
 20
12.974
 30
0.0
 11
6.721
 21
12.968
 31
0.0
  0
LINE
  5
909
330
18
100
AcDbEntity
  8
Object
100
AcDbLine
 10
7.283
 20
13.702
 30
0.0
 11
6.158999999999999
 21
13.702
 31
0.0
  0
LINE
  5
90A
330
18
100
AcDbEntity
  8
Object
100
AcDbLine
 10
6.158999999999999
 20
13.702
 30
0.0
 11
6.121
 21
13.696
 31
0.0
  0
LINE
  5
90B
330
18
100
AcDbEntity
  8
Object
100
AcDbLine
 10
6.121
 20
13.696
 30
0.0
 11
6.086
 21
13.678
 31
0.0
  0
LINE
  5
90C
330
18
100
AcDbEntity
  8
Object
100
AcDbLine
 10
6.086
 20
13.678
 30
0.0
 11
6.057999999999999
 21
13.65
 31
0.0
  0
LINE
  5
90D
330
18
100
AcDbEntity
  8
Object
100
AcDbLine
 10
6.057999999999999
 20
13.65
 30
0.0
 11
6.04
 21
13.615
 31
0.0
  0
LINE
  5
90E
330
18
100
AcDbEntity
  8
Object
100
AcDbLine
 10
6.04
 20
13.615
 30
0.0
 11
6.033999999999999
 21
13.577
 31
0.0
  0
LINE
  5
90F
330
18
100
AcDbEntity
  8
Object
100
AcDbLine
 10
3.623
 20
12.742
 30
0.0
 11
3.621999999999999
 21
12.797
 31
0.0
  0
LINE
  5
910
330
18
100
AcDbEntity
  8
Object
100
AcDbLine
 10
3.621999999999999
 20
12.797
 30
0.0
 11
3.620999999999999
 21
12.85
 31
0.0
  0
LINE
  5
911
330
18
100
AcDbEntity
  8
Object
100
AcDbLine
 10
3.620999999999999
 20
12.85
 30
0.0
 11
3.619
 21
12.898
 31
0.0
  0
LINE
  5
912
330
18
100
AcDbEntity
  8
Object
100
AcDbLine
 10
3.619
 20
12.898
 30
0.0
 11
3.616
 21
12.937
 31
0.0
  0
LINE
  5
913
330
18
100
AcDbEntity
  8
Object
100
AcDbLine
 10
3.616
 20
12.937
 30
0.0
 11
3.612999999999999
 21
12.967
 31
0.0
  0
LINE
  5
914
330
18
100
AcDbEntity
  8
Object
100
AcDbLine
 10
3.612999999999999
 20
12.967
 30
0.0
 11
3.608999999999999
 21
12.985
 31
0.0
  0
LINE
  5
915
330
18
100
AcDbEntity
  8
Object
100
AcDbLine
 10
3.608999999999999
 20
12.985
 30
0.0
 11
3.604999999999999
 21
12.992
 31
0.0
  0
LINE
  5
916
330
18
100
AcDbEntity
  8
Object
100
AcDbLine
 10
3.354999999999999
 20
12.992
 30
0.0
 11
3.443999999999999
 21
12.992
 31
0.0
  0
LINE
  5
917
330
18
100
AcDbEntity
  8
Object
100
AcDbLine
 10
3.443999999999999
 20
12.992
 30
0.0
 11
3.439999999999999
 21
12.985
 31
0.0
  0
LINE
  5
918
330
18
100
AcDbEntity
  8
Object
100
AcDbLine
 10
3.439999999999999
 20
12.985
 30
0.0
 11
3.437
 21
12.967
 31
0.0
  0
LINE
  5
919
330
18
100
AcDbEntity
  8
Object
100
AcDbLine
 10
3.437
 20
12.967
 30
0.0
 11
3.433
 21
12.937
 31
0.0
  0
LINE
  5
91A
330
18
100
AcDbEntity
  8
Object
100
AcDbLine
 10
3.433
 20
12.937
 30
0.0
 11
3.431
 21
12.898
 31
0.0
  0
LINE
  5
91B
330
18
100
AcDbEntity
  8
Object
100
AcDbLine
 10
3.431
 20
12.898
 30
0.0
 11
3.429
 21
12.85
 31
0.0
  0
LINE
  5
91C
330
18
100
AcDbEntity
  8
Object
100
AcDbLine
 10
3.429
 20
12.85
 30
0.0
 11
3.427
 21
12.797
 31
0.0
  0
LINE
  5
91D
330
18
100
AcDbEntity
  8
Object
100
AcDbLine
 10
3.427
 20
12.797
 30
0.0
 11
3.427
 21
12.742
 31
0.0
  0
LINE
  5
91E
330
18
100
AcDbEntity
  8
Object
100
AcDbLine
 10
3.495
 20
12.724
 30
0.0
 11
3.498
 21
12.724
 31
0.0
  0
LINE
  5
91F
330
18
100
AcDbEntity
  8
Object
100
AcDbLine
 10
3.504
 20
12.617
 30
0.0
 11
3.504
 21
12.654
 31
0.0
  0
LINE
  5
920
330
18
100
AcDbEntity
  8
Object
100
AcDbLine
 10
3.504
 20
12.654
 30
0.0
 11
3.502
 21
12.687
 31
0.0
  0
LINE
  5
921
330
18
100
AcDbEntity
  8
Object
100
AcDbLine
 10
3.502
 20
12.687
 30
0.0
 11
3.5
 21
12.711
 31
0.0
  0
LINE
  5
922
330
18
100
AcDbEntity
  8
Object
100
AcDbLine
 10
3.5
 20
12.711
 30
0.0
 11
3.498
 21
12.724
 31
0.0
  0
LINE
  5
923
330
18
100
AcDbEntity
  8
Object
100
AcDbLine
 10
3.495
 20
12.724
 30
0.0
 11
3.492999999999999
 21
12.711
 31
0.0
  0
LINE
  5
924
330
18
100
AcDbEntity
  8
Object
100
AcDbLine
 10
3.492999999999999
 20
12.711
 30
0.0
 11
3.491
 21
12.687
 31
0.0
  0
LINE
  5
925
330
18
100
AcDbEntity
  8
Object
100
AcDbLine
 10
3.491
 20
12.687
 30
0.0
 11
3.488999999999999
 21
12.654
 31
0.0
  0
LINE
  5
926
330
18
100
AcDbEntity
  8
Object
100
AcDbLine
 10
3.488999999999999
 20
12.654
 30
0.0
 11
3.488999999999999
 21
12.617
 31
0.0
  0
LINE
  5
927
330
18
100
AcDbEntity
  8
Object
100
AcDbLine
 10
3.498
 20
12.509
 30
0.0
 11
3.495
 21
12.509
 31
0.0
  0
LINE
  5
928
330
18
100
AcDbEntity
  8
Object
100
AcDbLine
 10
3.488999999999999
 20
12.617
 30
0.0
 11
3.504
 21
12.617
 31
0.0
  0
LINE
  5
929
330
18
100
AcDbEntity
  8
Object
100
AcDbLine
 10
3.504
 20
12.617
 30
0.0
 11
3.504
 21
12.579
 31
0.0
  0
LINE
  5
92A
330
18
100
AcDbEntity
  8
Object
100
AcDbLine
 10
3.504
 20
12.579
 30
0.0
 11
3.502
 21
12.547
 31
0.0
  0
LINE
  5
92B
330
18
100
AcDbEntity
  8
Object
100
AcDbLine
 10
3.502
 20
12.547
 30
0.0
 11
3.5
 21
12.522
 31
0.0
  0
LINE
  5
92C
330
18
100
AcDbEntity
  8
Object
100
AcDbLine
 10
3.5
 20
12.522
 30
0.0
 11
3.498
 21
12.509
 31
0.0
  0
LINE
  5
92D
330
18
100
AcDbEntity
  8
Object
100
AcDbLine
 10
3.495
 20
12.509
 30
0.0
 11
3.492999999999999
 21
12.522
 31
0.0
  0
LINE
  5
92E
330
18
100
AcDbEntity
  8
Object
100
AcDbLine
 10
3.492999999999999
 20
12.522
 30
0.0
 11
3.491
 21
12.547
 31
0.0
  0
LINE
  5
92F
330
18
100
AcDbEntity
  8
Object
100
AcDbLine
 10
3.491
 20
12.547
 30
0.0
 11
3.488999999999999
 21
12.579
 31
0.0
  0
LINE
  5
930
330
18
100
AcDbEntity
  8
Object
100
AcDbLine
 10
3.488999999999999
 20
12.579
 30
0.0
 11
3.488999999999999
 21
12.617
 31
0.0
  0
LINE
  5
931
330
18
100
AcDbEntity
  8
Object
100
AcDbLine
 10
3.604999999999999
 20
12.992
 30
0.0
 11
3.443999999999999
 21
12.992
 31
0.0
  0
LINE
  5
932
330
18
100
AcDbEntity
  8
Object
100
AcDbLine
 10
3.443999999999999
 20
12.992
 30
0.0
 11
3.354999999999999
 21
12.992
 31
0.0
  0
LINE
  5
933
330
18
100
AcDbEntity
  8
Object
100
AcDbLine
 10
10.105
 20
12.742
 30
0.0
 11
10.105
 21
12.797
 31
0.0
  0
LINE
  5
934
330
18
100
AcDbEntity
  8
Object
100
AcDbLine
 10
10.105
 20
12.797
 30
0.0
 11
10.104
 21
12.85
 31
0.0
  0
LINE
  5
935
330
18
100
AcDbEntity
  8
Object
100
AcDbLine
 10
10.104
 20
12.85
 30
0.0
 11
10.102
 21
12.898
 31
0.0
  0
LINE
  5
936
330
18
100
AcDbEntity
  8
Object
100
AcDbLine
 10
10.102
 20
12.898
 30
0.0
 11
10.099
 21
12.937
 31
0.0
  0
LINE
  5
937
330
18
100
AcDbEntity
  8
Object
100
AcDbLine
 10
10.099
 20
12.937
 30
0.0
 11
10.095
 21
12.967
 31
0.0
  0
LINE
  5
938
330
18
100
AcDbEntity
  8
Object
100
AcDbLine
 10
10.095
 20
12.967
 30
0.0
 11
10.092
 21
12.985
 31
0.0
  0
LINE
  5
939
330
18
100
AcDbEntity
  8
Object
100
AcDbLine
 10
10.092
 20
12.985
 30
0.0
 11
10.088
 21
12.992
 31
0.0
  0
LINE
  5
93A
330
18
100
AcDbEntity
  8
Object
100
AcDbLine
 10
10.088
 20
12.992
 30
0.0
 11
9.997999999999999
 21
12.992
 31
0.0
  0
LINE
  5
93B
330
18
100
AcDbEntity
  8
Object
100
AcDbLine
 10
9.944
 20
12.724
 30
0.0
 11
9.947
 21
12.724
 31
0.0
  0
LINE
  5
93C
330
18
100
AcDbEntity
  8
Object
100
AcDbLine
 10
10.088
 20
12.992
 30
0.0
 11
9.997999999999999
 21
12.992
 31
0.0
  0
LINE
  5
93D
330
18
100
AcDbEntity
  8
Object
100
AcDbLine
 10
9.997999999999999
 20
12.992
 30
0.0
 11
9.836999999999999
 21
12.992
 31
0.0
  0
LINE
  5
93E
330
18
100
AcDbEntity
  8
Object
100
AcDbLine
 10
9.947
 20
12.509
 30
0.0
 11
9.944
 21
12.509
 31
0.0
  0
LINE
  5
93F
330
18
100
AcDbEntity
  8
Object
100
AcDbLine
 10
9.952999999999999
 20
12.617
 30
0.0
 11
9.938
 21
12.617
 31
0.0
  0
DIMENSION
  5
947
330
18
100
AcDbEntity
  8
Dimension
100
AcDbDimension
  2
*D0
 10
11.06047063268848
 20
12.112
 30
0.0
 11
11.06047063268848
 21
12.907
 31
0.0
 70
    32
 71
     5
 42
1.589999999999999
  3
STANDARD
100
AcDbAlignedDimension
 13
7.283
 23
13.702
 33
0.0
 14
10.102
 24
12.112
 34
0.0
 50
90.0
100
AcDbRotatedDimension
  0
DIMENSION
  5
955
330
18
100
AcDbEntity
  8
Dimension
100
AcDbDimension
  2
*D1
 10
10.105
 20
9.090977207268565
 30
0.0
 11
6.721
 21
9.090977207268565
 31
0.0
 70
    32
 71
     5
 42
6.768
  3
STANDARD
100
AcDbAlignedDimension
 13
3.337
 23
7.156
 33
0.0
 14
10.105
 24
7.152499999999999
 34
0.0
100
AcDbRotatedDimension
  0
DIMENSION
  5
963
330
18
100
AcDbEntity
  8
Dimension
100
AcDbDimension
  2
*D2
 10
15.68039859639361
 20
3.625999999999999
 30
0.0
 11
15.68039859639361
 21
5.907500000000002
 31
0.0
 70
    32
 71
     5
 42
4.563
  3
STANDARD
100
AcDbAlignedDimension
 13
16.675
 23
8.189
 33
0.0
 14
16.785
 24
3.625999999999999
 34
0.0
 50
90.0
100
AcDbRotatedDimension
  0
ENDSEC
  0
SECTION
  2
OBJECTS
  0
DICTIONARY
  5
C
330
0
100
AcDbDictionary
281
     1
  3
ACAD_COLOR
350
10D
  3
ACAD_GROUP
350
D
  3
ACAD_LAYOUT
350
110
  3
ACAD_MATERIAL
350
10C
  3
ACAD_MLINESTYLE
350
1B
  3
ACAD_PLOTSETTINGS
350
111
  3
ACAD_PLOTSTYLENAME
350
10A
  3
ACAD_TABLESTYLE
350
10E
  3
ACDBHEADERROUNDTRIPXREC
350
984
  3
AcDbVariableDictionary
350
13E
  3
ASE_INDEX_DICTIONARY
350
148
  0
DICTIONARY
  5
154
330
2
100
AcDbDictionary
280
     1
281
     1
  3
ACAD_LAYERFILTERS
360
158
  3
ACLYDICTIONARY
360
157
  0
DICTIONARY
  5
10D
102
{ACAD_REACTORS
330
C
102
}
330
C
100
AcDbDictionary
281
     1
  0
DICTIONARY
  5
D
102
{ACAD_REACTORS
330
C
102
}
330
C
100
AcDbDictionary
281
     1
  0
DICTIONARY
  5
110
102
{ACAD_REACTORS
330
C
102
}
330
C
100
AcDbDictionary
281
     1
  3
Layout1
350
113
  3
Model
350
112
  0
DICTIONARY
  5
10C
102
{ACAD_REACTORS
330
C
102
}
330
C
100
AcDbDictionary
281
     1
  0
DICTIONARY
  5
1B
102
{ACAD_REACTORS
330
C
102
}
330
C
100
AcDbDictionary
281
     1
  3
STANDARD
350
1C
  0
DICTIONARY
  5
111
102
{ACAD_REACTORS
330
C
102
}
330
C
100
AcDbDictionary
281
     1
  0
ACDBDICTIONARYWDFLT
  5
10A
102
{ACAD_REACTORS
330
C
102
}
330
C
100
AcDbDictionary
281
     1
  3
Normal
350
10B
100
AcDbDictionaryWithDefault
340
10B
  0
DICTIONARY
  5
10E
102
{ACAD_REACTORS
330
C
102
}
330
C
100
AcDbDictionary
281
     1
  3
Standard
350
10F
  0
DICTIONARY
  5
984
102
{ACAD_REACTORS
330
C
102
}
330
C
100
AcDbDictionary
281
     1
  0
DICTIONARY
  5
13E
102
{ACAD_REACTORS
330
C
102
}
330
C
100
AcDbDictionary
281
     1
  3
CTABLESTYLE
350
13F
  3
DIMASSOC
350
981
  3
PROJECTNAME
350
982
  0
DICTIONARY
  5
148
102
{ACAD_REACTORS
330
C
102
}
330
C
100
AcDbDictionary
281
     1
  3
ASEBlockHierarchyIndexRecord
350
14A
1001
DCO15
1040
1529148047.148
  0
DICTIONARY
  5
158
102
{ACAD_REACTORS
330
154
102
}
330
154
100
AcDbDictionary
281
     1
  0
DICTIONARY
  5
157
102
{ACAD_REACTORS
330
154
102
}
330
154
100
AcDbDictionary
281
     1
1001
ACAD
1000
<All
  0
LAYOUT
  5
113
102
{ACAD_XDICTIONARY
360
987
102
}
102
{ACAD_REACTORS
330
110
102
}
330
110
100
AcDbPlotSettings
  1

  2
\\RSENG\RSplotter4NT
  4

  6

 40
0.0
 41
0.0
 42
0.0
 43
0.0
 44
0.0
 45
0.0
 46
0.0
 47
0.0
 48
0.0
 49
0.0
140
0.0
141
0.0
142
1.0
143
1.0
 70
   688
 72
     0
 73
     0
 74
     5
  7
Symantec Fax Starter Edition
 75
    16
147
1.0
148
0.0
149
0.0
100
AcDbLayout
  1
Layout1
 70
     1
 71
     1
 10
0.0
 20
0.0
 11
12.0
 21
9.0
 12
0.0
 22
0.0
 32
0.0
 14
1.000000000000000E+20
 24
1.000000000000000E+20
 34
1.000000000000000E+20
 15
-1.000000000000000E+20
 25
-1.000000000000000E+20
 35
-1.000000000000000E+20
146
0.0
 13
0.0
 23
0.0
 33
0.0
 16
1.0
 26
0.0
 36
0.0
 17
0.0
 27
1.0
 37
0.0
 76
     0
330
15
  0
LAYOUT
  5
112
102
{ACAD_XDICTIONARY
360
985
102
}
102
{ACAD_REACTORS
330
110
102
}
330
110
100
AcDbPlotSettings
  1

  2
\\RSENG\RSplotter4NT
  4

  6

 40
0.0
 41
0.0
 42
0.0
 43
0.0
 44
0.0
 45
0.0
 46
0.0
 47
0.0
 48
0.0
 49
0.0
140
0.0
141
0.0
142
1.0
143
1.0
 70
  1712
 72
     0
 73
     0
 74
     0
  7
Symantec Fax Starter Edition
 75
     0
147
1.0
148
0.0
149
0.0
100
AcDbLayout
  1
Model
 70
     1
 71
     0
 10
0.0
 20
0.0
 11
12.0
 21
9.0
 12
0.0
 22
0.0
 32
0.0
 14
0.0
 24
0.0
 34
0.0
 15
0.0
 25
0.0
 35
0.0
146
0.0
 13
0.0
 23
0.0
 33
0.0
 16
1.0
 26
0.0
 36
0.0
 17
0.0
 27
1.0
 37
0.0
 76
     0
330
18
  0
MLINESTYLE
  5
1C
102
{ACAD_REACTORS
330
1B
102
}
330
1B
100
AcDbMlineStyle
  2
STANDARD
 70
     0
  3

 62
   256
 51
90.0
 52
90.0
 71
     2
 49
0.5
 62
   256
  6
BYLAYER
 49
-0.5
 62
   256
  6
BYLAYER
  0
ACDBPLACEHOLDER
  5
10B
102
{ACAD_REACTORS
330
10A
102
}
330
10A
  0
TABLESTYLE
  5
10F
102
{ACAD_REACTORS
330
10E
102
}
330
10E
100
AcDbTableStyle
  3
Standard
 70
     0
 71
     0
 40
0.06
 41
0.06
280
     0
281
     0
  7
STANDARD
140
0.18
170
     2
 62
     0
 63
     7
283
     0
274
    -2
284
     1
 64
     0
275
    -2
285
     1
 65
     0
276
    -2
286
     1
 66
     0
277
    -2
287
     1
 67
     0
278
    -2
288
     1
 68
     0
279
    -2
289
     1
 69
     0
  7
STANDARD
140
0.25
170
     5
 62
     0
 63
     7
283
     0
274
    -2
284
     1
 64
     0
275
    -2
285
     1
 65
     0
276
    -2
286
     1
 66
     0
277
    -2
287
     1
 67
     0
278
    -2
288
     1
 68
     0
279
    -2
289
     1
 69
     0
  7
STANDARD
140
0.18
170
     5
 62
     0
 63
     7
283
     0
274
    -2
284
     1
 64
     0
275
    -2
285
     1
 65
     0
276
    -2
286
     1
 66
     0
277
    -2
287
     1
 67
     0
278
    -2
288
     1
 68
     0
279
    -2
289
     1
 69
     0
  0
DICTIONARYVAR
  5
13F
102
{ACAD_REACTORS
330
13E
102
}
330
13E
100
DictionaryVariables
280
     0
  1
STANDARD
  0
DICTIONARYVAR
  5
981
102
{ACAD_REACTORS
330
13E
102
}
330
13E
100
DictionaryVariables
280
     0
  1
1
  0
DICTIONARYVAR
  5
982
102
{ACAD_REACTORS
330
13E
102
}
330
13E
100
DictionaryVariables
280
     0
  1

  0
XRECORD
  5
14A
102
{ACAD_REACTORS
330
148
102
}
330
148
100
AcDbXrecord
280
     1
  0
DICTIONARY
  5
987
330
113
100
AcDbDictionary
280
     1
281
     1
  3
ACAD_XREC_ROUNDTRIP
360
988
  0
DICTIONARY
  5
985
330
112
100
AcDbDictionary
280
     1
281
     1
  3
ACAD_XREC_ROUNDTRIP
360
986
  0
XRECORD
  5
988
102
{ACAD_REACTORS
330
987
102
}
330
987
100
AcDbXrecord
280
     1
102
SHADEPLOT
 70
     0
102
SHADEPLOTRESLEVEL
 70
     2
102
SHADEPLOTCUSTOMDPI
 70
   300
  0
XRECORD
  5
986
102
{ACAD_REACTORS
330
985
102
}
330
985
100
AcDbXrecord
280
     1
102
SHADEPLOT
 70
     0
102
SHADEPLOTRESLEVEL
 70
     2
102
SHADEPLOTCUSTOMDPI
 70
   300
  0
ENDSEC
  0
EOF
