  0
SECTION
  2
HEADER
  9
$ACADVER
  1
AC1015
  9
$ACADMAINTVER
 70
    20
  9
$DWGCODEPAGE
  3
ANSI_1252
  9
$INSBASE
 10
0.0
 20
0.0
 30
0.0
  9
$EXTMIN
 10
-0.075
 20
-0.0750000000000018
 30
0.0
  9
$EXTMAX
 10
17.075
 20
11.075
 30
0.0
  9
$LIMMIN
 10
0.0
 20
0.0
  9
$LIMMAX
 10
12.0
 20
9.0
  9
$ORTHOMODE
 70
     0
  9
$REGENMODE
 70
     1
  9
$FILLMODE
 70
     1
  9
$QTEXTMODE
 70
     0
  9
$MIRRTEXT
 70
     0
  9
$LTSCALE
 40
1.0
  9
$ATTMODE
 70
     1
  9
$TEXTSIZE
 40
0.09
  9
$TRACEWID
 40
0.05
  9
$TEXTSTYLE
  7
Standard
  9
$CLAYER
  8
0
  9
$CELTYPE
  6
ByLayer
  9
$CECOLOR
 62
   256
  9
$CELTSCALE
 40
1.0
  9
$DISPSILH
 70
     0
  9
$DIMSCALE
 40
1.0
  9
$DIMASZ
 40
0.125
  9
$DIMEXO
 40
0.0625
  9
$DIMDLI
 40
0.38
  9
$DIMRND
 40
0.0
  9
$DIMDLE
 40
0.0
  9
$DIMEXE
 40
0.125
  9
$DIMTP
 40
0.0
  9
$DIMTM
 40
0.0
  9
$DIMTXT
 40
0.09
  9
$DIMCEN
 40
0.09
  9
$DIMTSZ
 40
0.0
  9
$DIMTOL
 70
     0
  9
$DIMLIM
 70
     0
  9
$DIMTIH
 70
     1
  9
$DIMTOH
 70
     1
  9
$DIMSE1
 70
     0
  9
$DIMSE2
 70
     0
  9
$DIMTAD
 70
     0
  9
$DIMZIN
 70
     0
  9
$DIMBLK
  1

  9
$DIMASO
 70
     1
  9
$DIMSHO
 70
     1
  9
$DIMPOST
  1

  9
$DIMAPOST
  1
mm
  9
$DIMALT
 70
     1
  9
$DIMALTD
 70
     1
  9
$DIMALTF
 40
25.4
  9
$DIMLFAC
 40
1.0
  9
$DIMTOFL
 70
     0
  9
$DIMTVP
 40
0.0
  9
$DIMTIX
 70
     0
  9
$DIMSOXD
 70
     0
  9
$DIMSAH
 70
     0
  9
$DIMBLK1
  1

  9
$DIMBLK2
  1

  9
$DIMSTYLE
  2
Standard
  9
$DIMCLRD
 70
     0
  9
$DIMCLRE
 70
     0
  9
$DIMCLRT
 70
     0
  9
$DIMTFAC
 40
1.0
  9
$DIMGAP
 40
0.09
  9
$DIMJUST
 70
     0
  9
$DIMSD1
 70
     0
  9
$DIMSD2
 70
     0
  9
$DIMTOLJ
 70
     1
  9
$DIMTZIN
 70
     0
  9
$DIMALTZ
 70
     0
  9
$DIMALTTZ
 70
     0
  9
$DIMUPT
 70
     0
  9
$DIMDEC
 70
     2
  9
$DIMTDEC
 70
     2
  9
$DIMALTU
 70
     2
  9
$DIMALTTD
 70
     1
  9
$DIMTXSTY
  7
Standard
  9
$DIMAUNIT
 70
     0
  9
$DIMADEC
 70
     0
  9
$DIMALTRND
 40
0.0
  9
$DIMAZIN
 70
     0
  9
$DIMDSEP
 70
    46
  9
$DIMATFIT
 70
     3
  9
$DIMFRAC
 70
     0
  9
$DIMLDRBLK
  1

  9
$DIMLUNIT
 70
     2
  9
$DIMLWD
 70
    -2
  9
$DIMLWE
 70
    -2
  9
$DIMTMOVE
 70
     0
  9
$LUNITS
 70
     2
  9
$LUPREC
 70
     4
  9
$SKETCHINC
 40
0.1
  9
$FILLETRAD
 40
0.0
  9
$AUNITS
 70
     0
  9
$AUPREC
 70
     0
  9
$MENU
  1
.
  9
$ELEVATION
 40
0.0
  9
$PELEVATION
 40
0.0
  9
$THICKNESS
 40
0.0
  9
$LIMCHECK
 70
     0
  9
$CHAMFERA
 40
0.0
  9
$CHAMFERB
 40
0.0
  9
$CHAMFERC
 40
0.0
  9
$CHAMFERD
 40
0.0
  9
$SKPOLY
 70
     0
  9
$TDCREATE
 40
2454118.395966134
  9
$TDUCREATE
 40
2454118.604299468
  9
$TDUPDATE
 40
2454294.668647662
  9
$TDUUPDATE
 40
2454294.876980995
  9
$TDINDWG
 40
0.0266039236
  9
$TDUSRTIMER
 40
0.0266022917
  9
$USRTIMER
 70
     1
  9
$ANGBASE
 50
0.0
  9
$ANGDIR
 70
     0
  9
$PDMODE
 70
     2
  9
$PDSIZE
 40
0.075
  9
$PLINEWID
 40
0.0
  9
$SPLFRAME
 70
     0
  9
$SPLINETYPE
 70
     6
  9
$SPLINESEGS
 70
     8
  9
$HANDSEED
  5
91E
  9
$SURFTAB1
 70
     6
  9
$SURFTAB2
 70
     6
  9
$SURFTYPE
 70
     6
  9
$SURFU
 70
     6
  9
$SURFV
 70
     6
  9
$UCSBASE
  2

  9
$UCSNAME
  2

  9
$UCSORG
 10
0.0
 20
0.0
 30
0.0
  9
$UCSXDIR
 10
1.0
 20
0.0
 30
0.0
  9
$UCSYDIR
 10
0.0
 20
1.0
 30
0.0
  9
$UCSORTHOREF
  2

  9
$UCSORTHOVIEW
 70
     0
  9
$UCSORGTOP
 10
0.0
 20
0.0
 30
0.0
  9
$UCSORGBOTTOM
 10
0.0
 20
0.0
 30
0.0
  9
$UCSORGLEFT
 10
0.0
 20
0.0
 30
0.0
  9
$UCSORGRIGHT
 10
0.0
 20
0.0
 30
0.0
  9
$UCSORGFRONT
 10
0.0
 20
0.0
 30
0.0
  9
$UCSORGBACK
 10
0.0
 20
0.0
 30
0.0
  9
$PUCSBASE
  2

  9
$PUCSNAME
  2

  9
$PUCSORG
 10
0.0
 20
0.0
 30
0.0
  9
$PUCSXDIR
 10
1.0
 20
0.0
 30
0.0
  9
$PUCSYDIR
 10
0.0
 20
1.0
 30
0.0
  9
$PUCSORTHOREF
  2

  9
$PUCSORTHOVIEW
 70
     0
  9
$PUCSORGTOP
 10
0.0
 20
0.0
 30
0.0
  9
$PUCSORGBOTTOM
 10
0.0
 20
0.0
 30
0.0
  9
$PUCSORGLEFT
 10
0.0
 20
0.0
 30
0.0
  9
$PUCSORGRIGHT
 10
0.0
 20
0.0
 30
0.0
  9
$PUCSORGFRONT
 10
0.0
 20
0.0
 30
0.0
  9
$PUCSORGBACK
 10
0.0
 20
0.0
 30
0.0
  9
$USERI1
 70
     0
  9
$USERI2
 70
     0
  9
$USERI3
 70
     0
  9
$USERI4
 70
     0
  9
$USERI5
 70
     0
  9
$USERR1
 40
0.0
  9
$USERR2
 40
0.0
  9
$USERR3
 40
0.0
  9
$USERR4
 40
0.0
  9
$USERR5
 40
0.0
  9
$WORLDVIEW
 70
     1
  9
$SHADEDGE
 70
     3
  9
$SHADEDIF
 70
    70
  9
$TILEMODE
 70
     1
  9
$MAXACTVP
 70
    64
  9
$PINSBASE
 10
0.0
 20
0.0
 30
0.0
  9
$PLIMCHECK
 70
     0
  9
$PEXTMIN
 10
0.0
 20
0.0
 30
0.0
  9
$PEXTMAX
 10
0.0
 20
0.0
 30
0.0
  9
$PLIMMIN
 10
0.0
 20
0.0
  9
$PLIMMAX
 10
12.0
 20
9.0
  9
$UNITMODE
 70
     0
  9
$VISRETAIN
 70
     1
  9
$PLINEGEN
 70
     0
  9
$PSLTSCALE
 70
     1
  9
$TREEDEPTH
 70
  3020
  9
$CMLSTYLE
  2
Standard
  9
$CMLJUST
 70
     0
  9
$CMLSCALE
 40
1.0
  9
$PROXYGRAPHICS
 70
     1
  9
$MEASUREMENT
 70
     0
  9
$CELWEIGHT
370
    -1
  9
$ENDCAPS
280
     0
  9
$JOINSTYLE
280
     0
  9
$LWDISPLAY
290
     0
  9
$INSUNITS
 70
     1
  9
$HYPERLINKBASE
  1

  9
$STYLESHEET
  1

  9
$XEDIT
290
     1
  9
$CEPSNTYPE
380
     0
  9
$PSTYLEMODE
290
     1
  9
$FINGERPRINTGUID
  2
{E2E98CCD-CAC5-49CE-9332-4BBE5499E8E2}
  9
$VERSIONGUID
  2
{65F8E452-7E84-4527-966E-04B0612E3AF5}
  9
$EXTNAMES
290
     1
  9
$PSVPSCALE
 40
0.0
  9
$OLESTARTUP
290
     0
  0
ENDSEC
  0
SECTION
  2
CLASSES
  0
CLASS
  1
ACDBDICTIONARYWDFLT
  2
AcDbDictionaryWithDefault
  3
ObjectDBX Classes
 90
        0
280
     0
281
     0
  0
CLASS
  1
ACDBPLACEHOLDER
  2
AcDbPlaceHolder
  3
ObjectDBX Classes
 90
        0
280
     0
281
     0
  0
CLASS
  1
LAYOUT
  2
AcDbLayout
  3
ObjectDBX Classes
 90
        0
280
     0
281
     0
  0
CLASS
  1
DICTIONARYVAR
  2
AcDbDictionaryVar
  3
ObjectDBX Classes
 90
        0
280
     0
281
     0
  0
CLASS
  1
TABLESTYLE
  2
AcDbTableStyle
  3
ObjectDBX Classes
 90
     2047
280
     0
281
     0
  0
CLASS
  1
SORTENTSTABLE
  2
AcDbSortentsTable
  3
ObjectDBX Classes
 90
        0
280
     0
281
     0
  0
CLASS
  1
DIMASSOC
  2
AcDbDimAssoc
  3
"AcDbDimAssoc|Product Desc:     AcDim ARX App For Dimension|Company:          Autodesk, Inc.|WEB Address:      www.autodesk.com"
 90
    32768
280
     0
281
     0
  0
ENDSEC
  0
SECTION
  2
TABLES
  0
TABLE
  2
VPORT
  5
8
330
0
100
AcDbSymbolTable
 70
     2
  0
VPORT
  5
916
330
8
100
AcDbSymbolTableRecord
100
AcDbViewportTableRecord
  2
*Active
 70
     0
 10
0.0
 20
0.0
 11
1.0
 21
1.0
 12
8.500000080800973
 22
5.892793651408607
 13
0.0
 23
0.0
 14
0.5
 24
0.5
 15
0.5
 25
0.5
 16
0.0
 26
0.0
 36
1.0
 17
0.0
 27
0.0
 37
0.0
 40
12.01276795554657
 41
1.499364675984752
 42
50.0
 43
0.0
 44
0.0
 50
0.0
 51
0.0
 71
     0
 72
  1000
 73
     1
 74
     3
 75
     0
 76
     0
 77
     0
 78
     0
281
     0
 65
     1
110
0.0
120
0.0
130
0.0
111
1.0
121
0.0
131
0.0
112
0.0
122
1.0
132
0.0
 79
     0
146
0.0
  0
ENDTAB
  0
TABLE
  2
LTYPE
  5
5
330
0
100
AcDbSymbolTable
 70
     1
  0
LTYPE
  5
14
330
5
100
AcDbSymbolTableRecord
100
AcDbLinetypeTableRecord
  2
ByBlock
 70
     0
  3

 72
    65
 73
     0
 40
0.0
  0
LTYPE
  5
15
330
5
100
AcDbSymbolTableRecord
100
AcDbLinetypeTableRecord
  2
ByLayer
 70
     0
  3

 72
    65
 73
     0
 40
0.0
  0
LTYPE
  5
16
330
5
100
AcDbSymbolTableRecord
100
AcDbLinetypeTableRecord
  2
Continuous
 70
     0
  3
Solid line
 72
    65
 73
     0
 40
0.0
  0
ENDTAB
  0
TABLE
  2
LAYER
  5
2
330
0
100
AcDbSymbolTable
 70
     6
  0
LAYER
  5
10
330
2
100
AcDbSymbolTableRecord
100
AcDbLayerTableRecord
  2
0
 70
     0
 62
     7
  6
Continuous
370
    -3
390
F
  0
LAYER
  5
98
330
2
100
AcDbSymbolTableRecord
100
AcDbLayerTableRecord
  2
Title Block
 70
     0
 62
     3
  6
Continuous
370
    -3
390
F
  0
LAYER
  5
99
330
2
100
AcDbSymbolTableRecord
100
AcDbLayerTableRecord
  2
Dimension
 70
     0
 62
     6
  6
Continuous
370
    -3
390
F
  0
LAYER
  5
9A
330
2
100
AcDbSymbolTableRecord
100
AcDbLayerTableRecord
  2
Text
 70
     0
 62
     1
  6
Continuous
370
    -3
390
F
  0
LAYER
  5
9B
330
2
100
AcDbSymbolTableRecord
100
AcDbLayerTableRecord
  2
Object
 70
     0
 62
     5
  6
Continuous
370
    -3
390
F
  0
LAYER
  5
9D
330
2
100
AcDbSymbolTableRecord
100
AcDbLayerTableRecord
  2
Defpoints
 70
     0
 62
     7
  6
Continuous
290
     0
370
    -3
390
F
  0
ENDTAB
  0
TABLE
  2
STYLE
  5
3
330
0
100
AcDbSymbolTable
 70
     1
  0
STYLE
  5
11
330
3
100
AcDbSymbolTableRecord
100
AcDbTextStyleTableRecord
  2
Standard
 70
     0
 40
0.0
 41
1.0
 50
0.0
 71
     0
 42
0.09
  3
technic_.ttf
  4

1001
ACAD
1000
Technic
1071
      514
  0
ENDTAB
  0
TABLE
  2
VIEW
  5
6
330
0
100
AcDbSymbolTable
 70
     0
  0
ENDTAB
  0
TABLE
  2
UCS
  5
7
330
0
100
AcDbSymbolTable
 70
     0
  0
ENDTAB
  0
TABLE
  2
APPID
  5
9
330
0
100
AcDbSymbolTable
 70
     4
  0
APPID
  5
12
330
9
100
AcDbSymbolTableRecord
100
AcDbRegAppTableRecord
  2
ACAD
 70
     0
  0
APPID
  5
9E
330
9
100
AcDbSymbolTableRecord
100
AcDbRegAppTableRecord
  2
DCO15
 70
     0
  0
APPID
  5
9F
330
9
100
AcDbSymbolTableRecord
100
AcDbRegAppTableRecord
  2
AcAecLayerStandard
 70
     0
  0
APPID
  5
A0
330
9
100
AcDbSymbolTableRecord
100
AcDbRegAppTableRecord
  2
ACAD_DSTYLE_DIMTEXT_FILL
 70
     0
  0
ENDTAB
  0
TABLE
  2
DIMSTYLE
  5
A
330
0
100
AcDbSymbolTable
 70
     1
100
AcDbDimStyleTable
 71
     1
340
27
  0
DIMSTYLE
105
27
102
{ACAD_REACTORS
330
135
330
513
330
52E
330
54B
102
}
330
A
100
AcDbSymbolTableRecord
100
AcDbDimStyleTableRecord
  2
Standard
 70
     0
  4
mm
 41
0.125
 44
0.125
140
0.09
170
     1
171
     1
271
     2
272
     2
274
     1
340
11
  0
ENDTAB
  0
TABLE
  2
BLOCK_RECORD
  5
1
330
0
100
AcDbSymbolTable
 70
     5
  0
BLOCK_RECORD
  5
1F
102
{ACAD_XDICTIONARY
360
148
102
}
330
1
100
AcDbSymbolTableRecord
100
AcDbBlockTableRecord
  2
*Model_Space
340
22
  0
BLOCK_RECORD
  5
58
330
1
100
AcDbSymbolTableRecord
100
AcDbBlockTableRecord
  2
*Paper_Space
340
59
  0
BLOCK_RECORD
  5
5D
330
1
100
AcDbSymbolTableRecord
100
AcDbBlockTableRecord
  2
*Paper_Space0
340
5E
  0
BLOCK_RECORD
  5
13B
330
1
100
AcDbSymbolTableRecord
100
AcDbBlockTableRecord
  2
*D1
340
0
  0
BLOCK_RECORD
  5
514
330
1
100
AcDbSymbolTableRecord
100
AcDbBlockTableRecord
  2
*D2
340
0
  0
BLOCK_RECORD
  5
52F
330
1
100
AcDbSymbolTableRecord
100
AcDbBlockTableRecord
  2
*D3
340
0
  0
BLOCK_RECORD
  5
54C
330
1
100
AcDbSymbolTableRecord
100
AcDbBlockTableRecord
  2
*D4
340
0
  0
ENDTAB
  0
ENDSEC
  0
SECTION
  2
BLOCKS
  0
BLOCK
  5
20
330
1F
100
AcDbEntity
  8
0
100
AcDbBlockBegin
  2
*Model_Space
 70
     0
 10
0.0
 20
0.0
 30
0.0
  3
*Model_Space
  1

  0
ENDBLK
  5
21
330
1F
100
AcDbEntity
  8
0
100
AcDbBlockEnd
  0
BLOCK
  5
5A
330
58
100
AcDbEntity
 67
     1
  8
0
100
AcDbBlockBegin
  2
*Paper_Space
 70
     0
 10
0.0
 20
0.0
 30
0.0
  3
*Paper_Space
  1

  0
ENDBLK
  5
5B
330
58
100
AcDbEntity
 67
     1
  8
0
100
AcDbBlockEnd
  0
BLOCK
  5
5F
330
5D
100
AcDbEntity
  8
0
100
AcDbBlockBegin
  2
*Paper_Space0
 70
     0
 10
0.0
 20
0.0
 30
0.0
  3
*Paper_Space0
  1

  0
ENDBLK
  5
60
330
5D
100
AcDbEntity
  8
0
100
AcDbBlockEnd
  0
BLOCK
  5
146
330
13B
100
AcDbEntity
  8
0
100
AcDbBlockBegin
  2
*D1
 70
     1
 10
0.0
 20
0.0
 30
0.0
  3
*D1
  1

  0
LINE
  5
567
330
13B
100
AcDbEntity
  8
Dimension
 62
     0
370
    -2
100
AcDbLine
 10
8.123957890809009
 20
8.025402550944544
 30
0.0
 11
9.380633383436739
 21
8.025402550944544
 31
0.0
  0
LINE
  5
568
330
13B
100
AcDbEntity
  8
Dimension
 62
     0
370
    -2
100
AcDbLine
 10
8.123957890809009
 20
9.275402550944544
 30
0.0
 11
9.380633383436739
 21
9.275402550944544
 31
0.0
  0
LINE
  5
569
330
13B
100
AcDbEntity
  8
Dimension
 62
     0
370
    -2
100
AcDbLine
 10
9.255633383436739
 20
8.150402550944544
 30
0.0
 11
9.255633383436739
 21
8.497376235155071
 31
0.0
  0
LINE
  5
56A
330
13B
100
AcDbEntity
  8
Dimension
 62
     0
370
    -2
100
AcDbLine
 10
9.255633383436739
 20
9.150402550944544
 30
0.0
 11
9.255633383436739
 21
8.803428866734018
 31
0.0
  0
SOLID
  5
56B
330
13B
100
AcDbEntity
  8
Dimension
 62
     0
100
AcDbTrace
 10
9.234800050103405
 20
8.150402550944544
 30
0.0
 11
9.276466716770073
 21
8.150402550944544
 31
0.0
 12
9.255633383436739
 22
8.025402550944544
 32
0.0
 13
9.255633383436739
 23
8.025402550944544
 33
0.0
  0
SOLID
  5
56C
330
13B
100
AcDbEntity
  8
Dimension
 62
     0
100
AcDbTrace
 10
9.234800050103405
 20
9.150402550944544
 30
0.0
 11
9.276466716770073
 21
9.150402550944544
 31
0.0
 12
9.255633383436739
 22
9.275402550944544
 32
0.0
 13
9.255633383436739
 23
9.275402550944544
 33
0.0
  0
MTEXT
  5
56D
330
13B
100
AcDbEntity
  8
Dimension
 62
     0
100
AcDbMText
 10
9.255633383436737
 20
8.650402550944546
 30
0.0
 40
0.09
 41
0.0
 71
     5
 72
     1
  1
\A1;1.25 [31.8mm]
 73
     1
 44
1.0
1001
ACAD
1000
MTEXTBEGIN
1070
    73
1070
     1
1070
    44
1040
1.0
1070
    74
1070
     0
1000
MTEXTEND
  0
POINT
  5
56E
330
13B
100
AcDbEntity
  8
Defpoints
 62
     0
100
AcDbPoint
 10
8.061457890809009
 20
8.025402550944544
 30
0.0
  0
POINT
  5
56F
330
13B
100
AcDbEntity
  8
Defpoints
 62
     0
100
AcDbPoint
 10
8.061457890809009
 20
9.275402550944544
 30
0.0
  0
POINT
  5
570
330
13B
100
AcDbEntity
  8
Defpoints
 62
     0
100
AcDbPoint
 10
9.255633383436739
 20
9.275402550944544
 30
0.0
  0
ENDBLK
  5
147
330
13B
100
AcDbEntity
  8
0
100
AcDbBlockEnd
  0
BLOCK
  5
51F
330
514
100
AcDbEntity
  8
0
100
AcDbBlockBegin
  2
*D2
 70
     1
 10
0.0
 20
0.0
 30
0.0
  3
*D2
  1

  0
LINE
  5
5EB
330
514
100
AcDbEntity
  8
Dimension
 62
     0
370
    -2
100
AcDbLine
 10
2.248457890809008
 20
4.773902550944544
 30
0.0
 11
2.248457890809008
 21
5.427175706722188
 31
0.0
  0
LINE
  5
5EC
330
514
100
AcDbEntity
  8
Dimension
 62
     0
370
    -2
100
AcDbLine
 10
8.248457890809008
 20
4.773902550944544
 30
0.0
 11
8.248457890809008
 21
5.427175706722188
 31
0.0
  0
LINE
  5
5ED
330
514
100
AcDbEntity
  8
Dimension
 62
     0
370
    -2
100
AcDbLine
 10
2.373457890809008
 20
5.302175706722188
 30
0.0
 11
4.726747364493219
 21
5.302175706722188
 31
0.0
  0
LINE
  5
5EE
330
514
100
AcDbEntity
  8
Dimension
 62
     0
370
    -2
100
AcDbLine
 10
8.123457890809008
 20
5.302175706722188
 30
0.0
 11
5.770168417124798
 21
5.302175706722188
 31
0.0
  0
SOLID
  5
5EF
330
514
100
AcDbEntity
  8
Dimension
 62
     0
100
AcDbTrace
 10
2.373457890809008
 20
5.323009040055521
 30
0.0
 11
2.373457890809008
 21
5.281342373388855
 31
0.0
 12
2.248457890809008
 22
5.302175706722188
 32
0.0
 13
2.248457890809008
 23
5.302175706722188
 33
0.0
  0
SOLID
  5
5F0
330
514
100
AcDbEntity
  8
Dimension
 62
     0
100
AcDbTrace
 10
8.123457890809008
 20
5.323009040055521
 30
0.0
 11
8.123457890809008
 21
5.281342373388855
 31
0.0
 12
8.248457890809008
 22
5.302175706722188
 32
0.0
 13
8.248457890809008
 23
5.302175706722188
 33
0.0
  0
MTEXT
  5
5F1
330
514
100
AcDbEntity
  8
Dimension
 62
     0
100
AcDbMText
 10
5.248457890809008
 20
5.302175706722188
 30
0.0
 40
0.09
 41
0.0
 71
     5
 72
     1
  1
\A1;6.00 [152.4mm]
 73
     1
 44
1.0
1001
ACAD
1000
MTEXTBEGIN
1070
    73
1070
     1
1070
    44
1040
1.0
1070
    74
1070
     0
1000
MTEXTEND
  0
POINT
  5
5F2
330
514
100
AcDbEntity
  8
Defpoints
 62
     0
100
AcDbPoint
 10
2.248457890809008
 20
4.711402550944544
 30
0.0
  0
POINT
  5
5F3
330
514
100
AcDbEntity
  8
Defpoints
 62
     0
100
AcDbPoint
 10
8.248457890809008
 20
4.711402550944544
 30
0.0
  0
POINT
  5
5F4
330
514
100
AcDbEntity
  8
Defpoints
 62
     0
100
AcDbPoint
 10
8.248457890809008
 20
5.302175706722188
 30
0.0
  0
ENDBLK
  5
520
330
514
100
AcDbEntity
  8
0
100
AcDbBlockEnd
  0
BLOCK
  5
53B
330
52F
100
AcDbEntity
  8
0
100
AcDbBlockBegin
  2
*D3
 70
     1
 10
0.0
 20
0.0
 30
0.0
  3
*D3
  1

  0
LINE
  5
5F5
330
52F
100
AcDbEntity
  8
Dimension
 62
     0
370
    -2
100
AcDbLine
 10
12.81095789080901
 20
4.711402550944544
 30
0.0
 11
12.10075908568888
 21
4.711402550944544
 31
0.0
  0
LINE
  5
5F6
330
52F
100
AcDbEntity
  8
Dimension
 62
     0
370
    -2
100
AcDbLine
 10
12.81095789080901
 20
4.591402550944544
 30
0.0
 11
12.10075908568888
 21
4.591402550944544
 31
0.0
  0
LINE
  5
5F7
330
52F
100
AcDbEntity
  8
Dimension
 62
     0
370
    -2
100
AcDbLine
 10
12.22575908568888
 20
4.836402550944544
 30
0.0
 11
12.22575908568888
 21
4.961402550944544
 31
0.0
  0
LINE
  5
5F8
330
52F
100
AcDbEntity
  8
Dimension
 62
     0
370
    -2
100
AcDbLine
 10
12.22575908568888
 20
4.466402550944544
 30
0.0
 11
12.22575908568888
 21
4.341402550944544
 31
0.0
  0
LINE
  5
5F9
330
52F
100
AcDbEntity
  8
Dimension
 62
     0
370
    -2
100
AcDbLine
 10
12.22575908568888
 20
4.341402550944544
 30
0.0
 11
12.10075908568888
 21
4.341402550944544
 31
0.0
  0
SOLID
  5
5FA
330
52F
100
AcDbEntity
  8
Dimension
 62
     0
100
AcDbTrace
 10
12.20492575235555
 20
4.836402550944544
 30
0.0
 11
12.24659241902222
 21
4.836402550944544
 31
0.0
 12
12.22575908568888
 22
4.711402550944544
 32
0.0
 13
12.22575908568888
 23
4.711402550944544
 33
0.0
  0
SOLID
  5
5FB
330
52F
100
AcDbEntity
  8
Dimension
 62
     0
100
AcDbTrace
 10
12.20492575235555
 20
4.466402550944544
 30
0.0
 11
12.24659241902222
 21
4.466402550944544
 31
0.0
 12
12.22575908568888
 22
4.591402550944544
 32
0.0
 13
12.22575908568888
 23
4.591402550944544
 33
0.0
  0
MTEXT
  5
5FC
330
52F
100
AcDbEntity
  8
Dimension
 62
     0
100
AcDbMText
 10
11.65740382253099
 20
4.341402550944546
 30
0.0
 40
0.09
 41
0.0
 71
     5
 72
     1
  1
\A1;0.12 [3.0mm]
 73
     1
 44
1.0
1001
ACAD
1000
MTEXTBEGIN
1070
    73
1070
     1
1070
    44
1040
1.0
1070
    74
1070
     0
1000
MTEXTEND
  0
POINT
  5
5FD
330
52F
100
AcDbEntity
  8
Defpoints
 62
     0
100
AcDbPoint
 10
12.87345789080901
 20
4.711402550944544
 30
0.0
  0
POINT
  5
5FE
330
52F
100
AcDbEntity
  8
Defpoints
 62
     0
100
AcDbPoint
 10
12.87345789080901
 20
4.591402550944544
 30
0.0
  0
POINT
  5
5FF
330
52F
100
AcDbEntity
  8
Defpoints
 62
     0
100
AcDbPoint
 10
12.22575908568888
 20
4.591402550944544
 30
0.0
  0
ENDBLK
  5
53C
330
52F
100
AcDbEntity
  8
0
100
AcDbBlockEnd
  0
BLOCK
  5
557
330
54C
100
AcDbEntity
  8
0
100
AcDbBlockBegin
  2
*D4
 70
     1
 10
0.0
 20
0.0
 30
0.0
  3
*D4
  1

  0
LINE
  5
8F5
330
54C
100
AcDbEntity
  8
Dimension
 62
     0
370
    -2
100
AcDbLine
 10
3.573457890809008
 20
8.010902550944544
 30
0.0
 11
3.573457890809008
 21
7.389181957078779
 31
0.0
  0
LINE
  5
8F6
330
54C
100
AcDbEntity
  8
Dimension
 62
     0
370
    -2
100
AcDbLine
 10
2.923457890809007
 20
8.010902550944544
 30
0.0
 11
2.923457890809007
 21
7.389181957078779
 31
0.0
  0
LINE
  5
8F7
330
54C
100
AcDbEntity
  8
Dimension
 62
     0
370
    -2
100
AcDbLine
 10
3.448457890809008
 20
7.514181957078779
 30
0.0
 11
3.048457890809007
 21
7.514181957078779
 31
0.0
  0
LINE
  5
8F8
330
54C
100
AcDbEntity
  8
Dimension
 62
     0
370
    -2
100
AcDbLine
 10
2.923457890809007
 20
7.514181957078779
 30
0.0
 11
2.798457890809007
 21
7.514181957078779
 31
0.0
  0
SOLID
  5
8F9
330
54C
100
AcDbEntity
  8
Dimension
 62
     0
100
AcDbTrace
 10
3.448457890809008
 20
7.535015290412112
 30
0.0
 11
3.448457890809008
 21
7.493348623745446
 31
0.0
 12
3.573457890809008
 22
7.514181957078779
 32
0.0
 13
3.573457890809008
 23
7.514181957078779
 33
0.0
  0
SOLID
  5
8FA
330
54C
100
AcDbEntity
  8
Dimension
 62
     0
100
AcDbTrace
 10
3.048457890809007
 20
7.535015290412112
 30
0.0
 11
3.048457890809007
 21
7.493348623745446
 31
0.0
 12
2.923457890809007
 22
7.514181957078779
 32
0.0
 13
2.923457890809007
 23
7.514181957078779
 33
0.0
  0
MTEXT
  5
8FB
330
54C
100
AcDbEntity
  8
Dimension
 62
     0
100
AcDbMText
 10
2.310431575019534
 20
7.514181957078779
 30
0.0
 40
0.09
 41
0.0
 71
     5
 72
     1
  1
\A1;0.65 [16.5mm]
 73
     1
 44
1.0
1001
ACAD
1000
MTEXTBEGIN
1070
    73
1070
     1
1070
    44
1040
1.0
1070
    74
1070
     0
1000
MTEXTEND
  0
POINT
  5
8FC
330
54C
100
AcDbEntity
  8
Defpoints
 62
     0
100
AcDbPoint
 10
3.573457890809008
 20
8.073402550944544
 30
0.0
  0
POINT
  5
8FD
330
54C
100
AcDbEntity
  8
Defpoints
 62
     0
100
AcDbPoint
 10
2.923457890809007
 20
8.073402550944544
 30
0.0
  0
POINT
  5
8FE
330
54C
100
AcDbEntity
  8
Defpoints
 62
     0
100
AcDbPoint
 10
2.923457890809007
 20
7.514181957078779
 30
0.0
  0
ENDBLK
  5
558
330
54C
100
AcDbEntity
  8
0
100
AcDbBlockEnd
  0
ENDSEC
  0
SECTION
  2
ENTITIES
  0
TEXT
  5
F1
330
1F
100
AcDbEntity
  8
Title Block
100
AcDbText
 10
12.77669501265555
 20
2.672489851525506
 30
0.0
 40
0.05
  1
FILENAME:
100
AcDbText
  0
TEXT
  5
F2
330
1F
100
AcDbEntity
  8
Title Block
100
AcDbText
 10
12.76928502872825
 20
2.076224967549324
 30
0.0
 40
0.35
  1
PANDUIT
100
AcDbText
  0
TEXT
  5
F3
330
1F
100
AcDbEntity
  8
Title Block
100
AcDbText
 10
14.72182039882138
 20
2.061410940562984
 30
0.0
 40
0.125
  1
CORP. TINLEY PARK, IL
100
AcDbText
  0
TEXT
  5
F4
330
1F
100
AcDbEntity
  8
Title Block
100
AcDbText
 10
12.78039997670862
 20
1.916974097093918
 30
0.0
 40
0.05
  1
TITLE:
100
AcDbText
  0
MTEXT
  5
F5
330
1F
100
AcDbEntity
  8
Title Block
100
AcDbMText
 10
14.0
 20
1.372215793536346
 30
0.0
 40
0.075
 41
2.5
 71
     5
 72
     5
  1
UNLESS OTHERWISE SPECIFIED,\PDIMENSIONAL TOLERANCES ARE:       
 73
     1
 44
1.0
1001
ACAD
1000
MTEXTBEGIN
1070
    73
1070
     1
1070
    44
1040
1.0
1070
    74
1070
     0
1000
MTEXTEND
  0
MTEXT
  5
F6
330
1F
100
AcDbEntity
  8
Title Block
100
AcDbMText
 10
13.39237986661002
 20
1.13148770848363
 30
0.0
 40
0.075
 41
2.5
 71
     5
 72
     5
  1
(.X)\P(.XX)
 73
     1
 44
1.0
1001
ACAD
1000
MTEXTBEGIN
1070
    73
1070
     1
1070
    44
1040
1.0
1070
    74
1070
     0
1000
MTEXTEND
  0
MTEXT
  5
F7
330
1F
100
AcDbEntity
  8
Title Block
100
AcDbMText
 10
14.40014005312412
 20
1.13148770848363
 30
0.0
 40
0.075
 41
2.5
 71
     5
 72
     5
  1
(.XXX)\PANGLES:
 73
     1
 44
1.0
1001
ACAD
1000
MTEXTBEGIN
1070
    73
1070
     1
1070
    44
1040
1.0
1070
    74
1070
     0
1000
MTEXTEND
  0
MTEXT
  5
F8
330
1F
100
AcDbEntity
  8
Title Block
100
AcDbMText
 10
16.0
 20
1.249999999999998
 30
0.0
 40
0.06
 41
1.5
 71
     5
 72
     5
  1
UNLESS OTHERWISE SPECIFIED,\PALL DIMENSIONS ARE GIVEN IN INCHES, THIRD ANGLE PROJECTION
 73
     1
 44
1.0
1001
ACAD
1000
MTEXTBEGIN
1070
    73
1070
     1
1070
    44
1040
1.0
1070
    74
1070
     0
1000
MTEXTEND
  0
TEXT
  5
F9
330
1F
100
AcDbEntity
  8
Title Block
100
AcDbText
 10
12.76076445430619
 20
0.9281373372752295
 30
0.0
 40
0.05
  1
DRAWN BY:
100
AcDbText
  0
TEXT
  5
FA
330
1F
100
AcDbEntity
  8
Title Block
100
AcDbText
 10
12.76446947418044
 20
0.681143186563501
 30
0.0
 40
0.05
  1
DATE:
100
AcDbText
  0
TEXT
  5
FB
330
1F
100
AcDbEntity
  8
Title Block
100
AcDbText
 10
12.7681744382335
 20
0.430445533831795
 30
0.0
 40
0.05
  1
CHECKED BY:
100
AcDbText
  0
TEXT
  5
FC
330
1F
100
AcDbEntity
  8
Title Block
100
AcDbText
 10
13.52028959313307
 20
0.9281373372752295
 30
0.0
 40
0.05
  1
MATERIAL:
100
AcDbText
  0
TEXT
  5
FD
330
1F
100
AcDbEntity
  8
Title Block
100
AcDbText
 10
15.26534493878154
 20
0.9281373372752295
 30
0.0
 40
0.05
  1
SCALE:
100
AcDbText
  0
TEXT
  5
FE
330
1F
100
AcDbEntity
  8
Title Block
100
AcDbText
 10
15.26534493878154
 20
0.6725952630489989
 30
0.0
 40
0.05
  1
DRAWING NUMBER:
100
AcDbText
  0
TEXT
  5
FF
330
1F
100
AcDbEntity
  8
Title Block
100
AcDbText
 10
16.34942622928998
 20
0.6762987650689798
 30
0.0
 40
0.05
  1
DRAWING
100
AcDbText
  0
TEXT
  5
100
330
1F
100
AcDbEntity
  8
Title Block
100
AcDbText
 10
16.42723125590086
 20
0.2811642688682008
 30
0.0
 40
0.05
  1
SIZE
100
AcDbText
  0
TEXT
  5
101
330
1F
100
AcDbEntity
  8
Title Block
100
AcDbText
 10
16.40622108086223
 20
0.3826699445861035
 30
0.0
 40
0.25
  1
B
100
AcDbText
  0
MTEXT
  5
102
330
1F
100
AcDbEntity
  8
Title Block
100
AcDbMText
 10
6.375000000000003
 20
0.3749999999999982
 30
0.0
 40
0.05
 41
0.25
 71
     5
 72
     5
  1
REV
 73
     1
 44
1.0
1001
ACAD
1000
MTEXTBEGIN
1070
    73
1070
     1
1070
    44
1040
1.0
1070
    74
1070
     0
1000
MTEXTEND
  0
MTEXT
  5
103
330
1F
100
AcDbEntity
  8
Title Block
100
AcDbMText
 10
6.750000000000003
 20
0.3749999999999982
 30
0.0
 40
0.05
 41
0.5
 71
     5
 72
     5
  1
DATE
 73
     1
 44
1.0
1001
ACAD
1000
MTEXTBEGIN
1070
    73
1070
     1
1070
    44
1040
1.0
1070
    74
1070
     0
1000
MTEXTEND
  0
MTEXT
  5
104
330
1F
100
AcDbEntity
  8
Title Block
100
AcDbMText
 10
7.190000000000003
 20
0.3749999999999982
 30
0.0
 40
0.05
 41
0.38
 71
     5
 72
     5
  1
BY
 73
     1
 44
1.0
1001
ACAD
1000
MTEXTBEGIN
1070
    73
1070
     1
1070
    44
1040
1.0
1070
    74
1070
     0
1000
MTEXTEND
  0
MTEXT
  5
105
330
1F
100
AcDbEntity
  8
Title Block
100
AcDbMText
 10
7.565000000000003
 20
0.3749999999999982
 30
0.0
 40
0.05
 41
0.38
 71
     5
 72
     5
  1
CHK
 73
     1
 44
1.0
1001
ACAD
1000
MTEXTBEGIN
1070
    73
1070
     1
1070
    44
1040
1.0
1070
    74
1070
     0
1000
MTEXTEND
  0
MTEXT
  5
106
330
1F
100
AcDbEntity
  8
Title Block
100
AcDbMText
 10
9.125000000000003
 20
0.3749999999999982
 30
0.0
 40
0.05
 41
2.75
 71
     5
 72
     5
  1
DESCRIPTION
 73
     1
 44
1.0
1001
ACAD
1000
MTEXTBEGIN
1070
    73
1070
     1
1070
    44
1040
1.0
1070
    74
1070
     0
1000
MTEXTEND
  0
MTEXT
  5
107
330
1F
100
AcDbEntity
  8
Title Block
100
AcDbMText
 10
11.065
 20
0.3749999999999982
 30
0.0
 40
0.05
 41
1.129999999999999
 71
     5
 72
     5
  1
ECN   -   R
 73
     1
 44
1.0
1001
ACAD
1000
MTEXTBEGIN
1070
    73
1070
     1
1070
    44
1040
1.0
1070
    74
1070
     0
1000
MTEXTEND
  0
MTEXT
  5
108
330
1F
100
AcDbEntity
  8
Title Block
100
AcDbMText
 10
11.815
 20
0.3749999999999982
 30
0.0
 40
0.05
 41
0.38
 71
     5
 72
     5
  1
CUST
 73
     1
 44
1.0
1001
ACAD
1000
MTEXTBEGIN
1070
    73
1070
     1
1070
    44
1040
1.0
1070
    74
1070
     0
1000
MTEXTEND
  0
MTEXT
  5
109
330
1F
100
AcDbEntity
  8
Title Block
100
AcDbMText
 10
12.19
 20
0.3749999999999982
 30
0.0
 40
0.05
 41
0.38
 71
     5
 72
     5
  1
SUP
 73
     1
 44
1.0
1001
ACAD
1000
MTEXTBEGIN
1070
    73
1070
     1
1070
    44
1040
1.0
1070
    74
1070
     0
1000
MTEXTEND
  0
LINE
  5
10A
330
1F
100
AcDbEntity
  8
Title Block
100
AcDbLine
 10
16.75
 20
2.749999999999997
 30
0.0
 11
6.250000000000003
 21
2.749999999999999
 31
0.0
  0
LINE
  5
10B
330
1F
100
AcDbEntity
  8
Title Block
100
AcDbLine
 10
12.75
 20
2.749999999999998
 30
0.0
 11
12.75
 21
0.2499999999999982
 31
0.0
  0
LINE
  5
10C
330
1F
100
AcDbEntity
  8
Title Block
100
AcDbLine
 10
16.75
 20
2.499999999999997
 30
0.0
 11
6.250000000000003
 21
2.499999999999999
 31
0.0
  0
LINE
  5
10D
330
1F
100
AcDbEntity
  8
Title Block
100
AcDbLine
 10
12.75
 20
2.249999999999998
 30
0.0
 11
6.250000000000003
 21
2.249999999999999
 31
0.0
  0
LINE
  5
10E
330
1F
100
AcDbEntity
  8
Title Block
100
AcDbLine
 10
16.75
 20
1.999999999999997
 30
0.0
 11
6.250000000000003
 21
1.999999999999999
 31
0.0
  0
LINE
  5
10F
330
1F
100
AcDbEntity
  8
Title Block
100
AcDbLine
 10
12.75
 20
1.749999999999998
 30
0.0
 11
6.250000000000003
 21
1.749999999999999
 31
0.0
  0
LINE
  5
110
330
1F
100
AcDbEntity
  8
Title Block
100
AcDbLine
 10
16.75
 20
1.499999999999997
 30
0.0
 11
6.250000000000003
 21
1.499999999999999
 31
0.0
  0
LINE
  5
111
330
1F
100
AcDbEntity
  8
Title Block
100
AcDbLine
 10
12.75
 20
1.249999999999998
 30
0.0
 11
6.250000000000003
 21
1.249999999999999
 31
0.0
  0
LINE
  5
112
330
1F
100
AcDbEntity
  8
Title Block
100
AcDbLine
 10
16.75
 20
0.9999999999999978
 30
0.0
 11
6.250000000000003
 21
0.9999999999999991
 31
0.0
  0
LINE
  5
113
330
1F
100
AcDbEntity
  8
Title Block
100
AcDbLine
 10
13.5
 20
0.7499999999999983
 30
0.0
 11
6.250000000000003
 21
0.7499999999999992
 31
0.0
  0
LINE
  5
114
330
1F
100
AcDbEntity
  8
Title Block
100
AcDbLine
 10
13.5
 20
0.4999999999999983
 30
0.0
 11
6.250000000000003
 21
0.4999999999999992
 31
0.0
  0
LINE
  5
115
330
1F
100
AcDbEntity
  8
Title Block
100
AcDbLine
 10
6.250000000000003
 20
0.2499999999999982
 30
0.0
 11
6.250000000000003
 21
2.749999999999999
 31
0.0
  0
LINE
  5
116
330
1F
100
AcDbEntity
  8
Title Block
100
AcDbLine
 10
6.500000000000003
 20
0.2499999999999982
 30
0.0
 11
6.500000000000003
 21
2.75
 31
0.0
  0
LINE
  5
117
330
1F
100
AcDbEntity
  8
Title Block
100
AcDbLine
 10
7.000000000000003
 20
0.2499999999999982
 30
0.0
 11
7.000000000000003
 21
2.75
 31
0.0
  0
LINE
  5
118
330
1F
100
AcDbEntity
  8
Title Block
100
AcDbLine
 10
7.375000000000003
 20
0.2499999999999982
 30
0.0
 11
7.375000000000003
 21
2.75
 31
0.0
  0
LINE
  5
119
330
1F
100
AcDbEntity
  8
Title Block
100
AcDbLine
 10
7.750000000000003
 20
0.2499999999999982
 30
0.0
 11
7.750000000000003
 21
2.75
 31
0.0
  0
LINE
  5
11A
330
1F
100
AcDbEntity
  8
Title Block
100
AcDbLine
 10
12.375
 20
2.749999999999998
 30
0.0
 11
12.375
 21
0.2499999999999982
 31
0.0
  0
LINE
  5
11B
330
1F
100
AcDbEntity
  8
Title Block
100
AcDbLine
 10
12.0
 20
2.749999999999998
 30
0.0
 11
12.0
 21
0.2499999999999982
 31
0.0
  0
LINE
  5
11C
330
1F
100
AcDbEntity
  8
Title Block
100
AcDbLine
 10
11.625
 20
2.749999999999998
 30
0.0
 11
11.625
 21
0.2499999999999982
 31
0.0
  0
LINE
  5
11D
330
1F
100
AcDbEntity
  8
Title Block
100
AcDbLine
 10
11.25
 20
2.749999999999998
 30
0.0
 11
11.25
 21
0.4999999999999984
 31
0.0
  0
LINE
  5
11E
330
1F
100
AcDbEntity
  8
Title Block
100
AcDbLine
 10
10.5
 20
2.749999999999998
 30
0.0
 11
10.5
 21
0.2499999999999982
 31
0.0
  0
LINE
  5
11F
330
1F
100
AcDbEntity
  8
Title Block
100
AcDbLine
 10
15.25
 20
0.7499999999999983
 30
0.0
 11
15.25
 21
1.499999999999997
 31
0.0
  0
LINE
  5
120
330
1F
100
AcDbEntity
  8
Title Block
100
AcDbLine
 10
15.25
 20
0.7499999999999983
 30
0.0
 11
15.25
 21
0.2499999999999982
 31
0.0
  0
LINE
  5
121
330
1F
100
AcDbEntity
  8
Title Block
100
AcDbLine
 10
15.25
 20
0.7499999999999983
 30
0.0
 11
16.75
 21
0.7499999999999983
 31
0.0
  0
LINE
  5
122
330
1F
100
AcDbEntity
  8
Title Block
100
AcDbLine
 10
13.5
 20
0.4999999999999983
 30
0.0
 11
13.5
 21
0.2499999999999982
 31
0.0
  0
LINE
  5
123
330
1F
100
AcDbEntity
  8
Title Block
100
AcDbLine
 10
13.5
 20
0.4999999999999983
 30
0.0
 11
13.5
 21
0.9999999999999982
 31
0.0
  0
LINE
  5
124
330
1F
100
AcDbEntity
  8
Title Block
100
AcDbLine
 10
16.25
 20
0.7499999999999983
 30
0.0
 11
16.25
 21
0.2499999999999982
 31
0.0
  0
LWPOLYLINE
  5
125
330
1F
100
AcDbEntity
  8
Title Block
100
AcDbPolyline
 90
        5
 70
     0
 43
0.01
 10
16.75
 20
0.2499999999999982
 10
16.75
 20
10.75
 10
0.2500000000000035
 20
10.75
 10
0.25
 20
0.25
 10
16.75
 20
0.2499999999999982
  0
POINT
  5
126
330
1F
100
AcDbEntity
  8
Title Block
100
AcDbPoint
 10
17.0
 20
-0.0000000000000018
 30
0.0
  0
POINT
  5
127
330
1F
100
AcDbEntity
  8
Title Block
100
AcDbPoint
 10
0.0
 20
0.0
 30
0.0
  0
POINT
  5
128
330
1F
100
AcDbEntity
  8
Title Block
100
AcDbPoint
 10
0.0000000000000036
 20
11.0
 30
0.0
  0
POINT
  5
129
330
1F
100
AcDbEntity
  8
Title Block
100
AcDbPoint
 10
17.0
 20
11.0
 30
0.0
  0
MTEXT
  5
12A
330
1F
100
AcDbEntity
  8
Text
100
AcDbMText
 10
6.376628153647693
 20
0.6232951697642469
 30
0.0
 40
0.09
 41
0.25
 71
     5
 72
     5
  1
R
 73
     1
 44
1.0
1001
ACAD
1000
MTEXTBEGIN
1070
    73
1070
     1
1070
    44
1040
1.0
1070
    74
1070
     0
1000
MTEXTEND
  0
MTEXT
  5
12B
330
1F
100
AcDbEntity
  8
Text
100
AcDbMText
 10
6.751628153647693
 20
0.6232951697642469
 30
0.0
 40
0.07
 41
0.5
 71
     5
 72
     5
  1
1-10-01
 73
     1
 44
1.0
1001
ACAD
1000
MTEXTBEGIN
1070
    73
1070
     1
1070
    44
1040
1.0
1070
    74
1070
     0
1000
MTEXTEND
  0
MTEXT
  5
12C
330
1F
100
AcDbEntity
  8
Text
100
AcDbMText
 10
7.189128153647693
 20
0.6232951697642469
 30
0.0
 40
0.09
 41
0.375
 71
     5
 72
     5
  1
MSO
 73
     1
 44
1.0
1001
ACAD
1000
MTEXTBEGIN
1070
    73
1070
     1
1070
    44
1040
1.0
1070
    74
1070
     0
1000
MTEXTEND
  0
MTEXT
  5
12D
330
1F
100
AcDbEntity
  8
Text
100
AcDbMText
 10
9.126628153647693
 20
0.6232951697642464
 30
0.0
 40
0.09
 41
2.75
 71
     5
 72
     5
  1
DRAWING RELEASED
 73
     1
 44
1.0
1001
ACAD
1000
MTEXTBEGIN
1070
    73
1070
     1
1070
    44
1040
1.0
1070
    74
1070
     0
1000
MTEXTEND
  0
MTEXT
  5
12E
330
1F
100
AcDbEntity
  8
Text
100
AcDbMText
 10
13.47662815364769
 20
0.8482951697642459
 30
0.0
 40
0.09
 41
0.75
 71
     6
 72
     5
  1
MSO
 73
     1
 44
1.0
1001
ACAD
1000
MTEXTBEGIN
1070
    73
1070
     1
1070
    44
1040
1.0
1070
    74
1070
     0
1000
MTEXTEND
  0
MTEXT
  5
12F
330
1F
100
AcDbEntity
  8
Text
100
AcDbMText
 10
13.47662815364769
 20
0.5982951697642458
 30
0.0
 40
0.09
 41
0.75
 71
     6
 72
     5
  1
1-10-01
 73
     1
 44
1.0
1001
ACAD
1000
MTEXTBEGIN
1070
    73
1070
     1
1070
    44
1040
1.0
1070
    74
1070
     0
1000
MTEXTEND
  0
MTEXT
  5
130
330
1F
100
AcDbEntity
  8
Text
100
AcDbMText
 10
13.47662815364769
 20
0.348295169764246
 30
0.0
 40
0.09
 41
0.75
 71
     6
 72
     5
  1
HIW
 73
     1
 44
1.0
1001
ACAD
1000
MTEXTBEGIN
1070
    73
1070
     1
1070
    44
1040
1.0
1070
    74
1070
     0
1000
MTEXTEND
  0
MTEXT
  5
131
330
1F
100
AcDbEntity
  8
Text
100
AcDbMText
 10
14.75162815364769
 20
2.623295169764245
 30
0.0
 40
0.09
 41
4.0
 71
     5
 72
     5
  1
FTRBE58.dwg
 73
     1
 44
1.0
1001
ACAD
1000
MTEXTBEGIN
1070
    73
1070
     1
1070
    44
1040
1.0
1070
    74
1070
     0
1000
MTEXTEND
  0
MTEXT
  5
132
330
1F
100
AcDbEntity
  8
Text
100
AcDbMText
 10
14.75162815364769
 20
1.748295169764245
 30
0.0
 40
0.09
 41
4.0
 71
     5
 72
     5
  1
FIBER-DUCT 2x2, 4x4 AND FIBERRUNNER 2x2 EXISTING\PTHREADED ROD BRACKET - {\H0.7x;\S5#8;}" THREADED ROD (FTRBE58) MARKETING DRAWING
 73
     1
 44
1.0
1001
ACAD
1000
MTEXTBEGIN
1070
    73
1070
     1
1070
    44
1040
1.0
1070
    74
1070
     1
1000
MTEXTEND
  0
MTEXT
  5
133
330
1F
100
AcDbEntity
  8
Text
100
AcDbMText
 10
16.00162815364769
 20
0.8732951697642457
 30
0.0
 40
0.12
 41
1.5
 71
     5
 72
     5
  1
FULL
 73
     1
 44
1.0
1001
ACAD
1000
MTEXTBEGIN
1070
    73
1070
     1
1070
    44
1040
1.0
1070
    74
1070
     0
1000
MTEXTEND
  0
MTEXT
  5
134
330
1F
100
AcDbEntity
  8
Text
100
AcDbMText
 10
15.75162815364769
 20
0.498295169764246
 30
0.0
 40
0.12
 41
1.0
 71
     5
 72
     5
  1
36897-645
 73
     1
 44
1.0
1001
ACAD
1000
MTEXTBEGIN
1070
    73
1070
     1
1070
    44
1040
1.0
1070
    74
1070
     0
1000
MTEXTEND
  0
DIMENSION
  5
135
330
1F
100
AcDbEntity
  8
Dimension
100
AcDbDimension
  2
*D1
 10
9.255633383436739
 20
9.275402550944544
 30
0.0
 11
9.255633383436737
 21
8.650402550944546
 31
0.0
 70
   160
 71
     5
 42
1.25
  3
Standard
100
AcDbAlignedDimension
 13
8.061457890809009
 23
8.025402550944544
 33
0.0
 14
8.061457890809009
 24
9.275402550944544
 34
0.0
 50
90.0
100
AcDbRotatedDimension
  0
MTEXT
  5
136
330
1F
100
AcDbEntity
  8
Text
100
AcDbMText
 10
11.77512911207421
 20
10.41196922660284
 30
0.0
 40
0.09
 41
4.638480538969798
 71
     1
 72
     5
  3
{\LNOTES:}\P\P1. THE FIBER-DUCT 2x2, 4x4 AND FIBERRUNNER 2x2 EXISTING THREADED\P   ROD BRACKET - {\H0.6878x;\S5#8;}" THREADED ROD INCLUDES:\P\P   ONE (1) BRACKET,\P   TWO (2) {\H0.6878x;\S5#8;}-11 SPLIT LOCK NUTS,\P   TWO (2) #10-32x{\H0.6878x;\S1#2;
  1
} PAN HEAD SLOTTED MACHINE SCREWS,\P   TWO (2) #10-32 HEX MACHINE SCREW NUTS,\P   TWO (2) #10 HELICAL SPRING LOCKWASHERS.
 73
     1
 44
1.0
1001
ACAD
1000
MTEXTBEGIN
1070
    73
1070
     1
1070
    44
1040
1.0
1070
    74
1070
     1
1000
MTEXTEND
  0
TEXT
  5
137
330
1F
100
AcDbEntity
  8
Text
100
AcDbText
 10
4.807474747644974
 20
7.554801452870695
 30
0.0
 40
0.125
  1
TOP VIEW
100
AcDbText
  0
TEXT
  5
138
330
1F
100
AcDbEntity
  8
Text
100
AcDbText
 10
4.689144336381559
 20
4.089356915928439
 30
0.0
 40
0.125
  1
FRONT VIEW
100
AcDbText
  0
TEXT
  5
139
330
1F
100
AcDbEntity
  8
Text
100
AcDbText
 10
12.7829968661567
 20
4.090140694983719
 30
0.0
 40
0.125
  1
RIGHT SIDE VIEW
100
AcDbText
  0
MTEXT
  5
13A
330
1F
100
AcDbEntity
  8
Text
100
AcDbMText
 10
7.560400281422712
 20
0.6262490740326632
 30
0.0
 40
0.09
 41
0.375
 71
     5
 72
     5
  1
HIW
 73
     1
 44
1.0
1001
ACAD
1000
MTEXTBEGIN
1070
    73
1070
     1
1070
    44
1040
1.0
1070
    74
1070
     0
1000
MTEXTEND
  0
DIMENSION
  5
513
330
1F
100
AcDbEntity
  8
Dimension
100
AcDbDimension
  2
*D2
 10
8.248457890809008
 20
5.302175706722188
 30
0.0
 11
5.248457890809008
 21
5.302175706722188
 31
0.0
 70
    32
 71
     5
 42
6.0
  3
Standard
100
AcDbAlignedDimension
 13
2.248457890809008
 23
4.711402550944544
 33
0.0
 14
8.248457890809008
 24
4.711402550944544
 34
0.0
100
AcDbRotatedDimension
  0
DIMENSION
  5
52E
330
1F
100
AcDbEntity
  8
Dimension
100
AcDbDimension
  2
*D3
 10
12.22575908568888
 20
4.591402550944544
 30
0.0
 11
11.65740382253099
 21
4.341402550944546
 31
0.0
 70
    32
 71
     5
 42
0.1200000000000001
  3
Standard
100
AcDbAlignedDimension
 13
12.87345789080901
 23
4.711402550944544
 33
0.0
 14
12.87345789080901
 24
4.591402550944544
 34
0.0
 50
90.0
100
AcDbRotatedDimension
  0
DIMENSION
  5
54B
330
1F
100
AcDbEntity
  8
Dimension
100
AcDbDimension
  2
*D4
 10
2.923457890809007
 20
7.514181957078779
 30
0.0
 11
2.310431575019534
 21
7.514181957078779
 31
0.0
 70
    32
 71
     5
 42
0.6500000000000004
  3
Standard
100
AcDbAlignedDimension
 13
3.573457890809008
 23
8.073402550944544
 33
0.0
 14
2.923457890809007
 24
8.073402550944544
 34
0.0
100
AcDbRotatedDimension
  0
MTEXT
  5
591
330
1F
100
AcDbEntity
  8
Text
100
AcDbMText
 10
6.376628153647693
 20
0.8732951697642468
 30
0.0
 40
0.09
 41
0.25
 71
     5
 72
     5
  1
1
 73
     1
 44
1.0
1001
ACAD
1000
MTEXTBEGIN
1070
    73
1070
     1
1070
    44
1040
1.0
1070
    74
1070
     0
1000
MTEXTEND
  0
MTEXT
  5
592
330
1F
100
AcDbEntity
  8
Text
100
AcDbMText
 10
6.751628153647693
 20
0.8732951697642468
 30
0.0
 40
0.07
 41
0.5
 71
     5
 72
     5
  1
1-17-07
 73
     1
 44
1.0
1001
ACAD
1000
MTEXTBEGIN
1070
    73
1070
     1
1070
    44
1040
1.0
1070
    74
1070
     0
1000
MTEXTEND
  0
MTEXT
  5
593
330
1F
100
AcDbEntity
  8
Text
100
AcDbMText
 10
7.189128153647693
 20
0.8732951697642468
 30
0.0
 40
0.09
 41
0.375
 71
     5
 72
     5
  1
MSO
 73
     1
 44
1.0
1001
ACAD
1000
MTEXTBEGIN
1070
    73
1070
     1
1070
    44
1040
1.0
1070
    74
1070
     0
1000
MTEXTEND
  0
MTEXT
  5
594
330
1F
100
AcDbEntity
  8
Text
100
AcDbMText
 10
7.776628153647694
 20
0.8732951697642462
 30
0.0
 40
0.07
 41
2.75
 71
     4
 72
     5
  1
B. REVISED DRAWING SIZE; WAS A-SIZE.\PA. REVISED DRAWING TITLE.
 73
     1
 44
1.0
1001
ACAD
1000
MTEXTBEGIN
1070
    73
1070
     1
1070
    44
1040
1.0
1070
    74
1070
     0
1000
MTEXTEND
  0
MTEXT
  5
595
330
1F
100
AcDbEntity
  8
Text
100
AcDbMText
 10
7.560400281422712
 20
0.8762490740326631
 30
0.0
 40
0.07
 41
0.375
 71
     5
 72
     5
  1
DJWA
 73
     1
 44
1.0
1001
ACAD
1000
MTEXTBEGIN
1070
    73
1070
     1
1070
    44
1040
1.0
1070
    74
1070
     0
1000
MTEXTEND
  0
MTEXT
  5
596
330
1F
100
AcDbEntity
  8
Text
100
AcDbMText
 10
6.376628153647693
 20
1.123295169764246
 30
0.0
 40
0.09
 41
0.25
 71
     5
 72
     5
  1
-
 73
     1
 44
1.0
1001
ACAD
1000
MTEXTBEGIN
1070
    73
1070
     1
1070
    44
1040
1.0
1070
    74
1070
     0
1000
MTEXTEND
  0
MTEXT
  5
597
330
1F
100
AcDbEntity
  8
Text
100
AcDbMText
 10
6.751628153647693
 20
1.123295169764246
 30
0.0
 40
0.07
 41
0.5
 71
     5
 72
     5
  1
--------
 73
     1
 44
1.0
1001
ACAD
1000
MTEXTBEGIN
1070
    73
1070
     1
1070
    44
1040
1.0
1070
    74
1070
     0
1000
MTEXTEND
  0
MTEXT
  5
598
330
1F
100
AcDbEntity
  8
Text
100
AcDbMText
 10
7.189128153647693
 20
1.123295169764246
 30
0.0
 40
0.09
 41
0.375
 71
     5
 72
     5
  1
---
 73
     1
 44
1.0
1001
ACAD
1000
MTEXTBEGIN
1070
    73
1070
     1
1070
    44
1040
1.0
1070
    74
1070
     0
1000
MTEXTEND
  0
MTEXT
  5
599
330
1F
100
AcDbEntity
  8
Text
100
AcDbMText
 10
7.776628153647694
 20
1.123295169764246
 30
0.0
 40
0.07
 41
2.75
 71
     4
 72
     5
  1
D. ADDED GENERAL NOTES.\PC. REVISED PART GEOMETRY.
 73
     1
 44
1.0
1001
ACAD
1000
MTEXTBEGIN
1070
    73
1070
     1
1070
    44
1040
1.0
1070
    74
1070
     0
1000
MTEXTEND
  0
MTEXT
  5
59A
330
1F
100
AcDbEntity
  8
Text
100
AcDbMText
 10
7.560400281422712
 20
1.126249074032663
 30
0.0
 40
0.07
 41
0.375
 71
     5
 72
     5
  1
----
 73
     1
 44
1.0
1001
ACAD
1000
MTEXTBEGIN
1070
    73
1070
     1
1070
    44
1040
1.0
1070
    74
1070
     0
1000
MTEXTEND
  0
LINE
  5
59F
330
1F
100
AcDbEntity
  8
Text
100
AcDbLine
 10
12.76412685299815
 20
1.514121171150497
 30
0.0
 11
13.06412685299816
 21
1.514121171150497
 31
0.0
  0
LINE
  5
5A0
330
1F
100
AcDbEntity
  8
Text
100
AcDbLine
 10
13.06412685299816
 20
1.514121171150497
 30
0.0
 11
12.91412685299816
 21
1.773928792285826
 31
0.0
  0
LINE
  5
5A1
330
1F
100
AcDbEntity
  8
Text
100
AcDbLine
 10
12.76412685299816
 20
1.514121171150497
 30
0.0
 11
12.91412685299816
 21
1.773928792285826
 31
0.0
  0
TEXT
  5
5A2
330
1F
100
AcDbEntity
  8
Text
100
AcDbText
 10
12.87369334007948
 20
1.564971197873321
 30
0.0
 40
0.09
  1
A
100
AcDbText
  0
LINE
  5
5AD
330
1F
100
AcDbEntity
  8
Text
100
AcDbLine
 10
16.35238419666863
 20
0.7575752289807181
 30
0.0
 11
16.65238419666863
 21
0.7575752289807181
 31
0.0
  0
LINE
  5
5AE
330
1F
100
AcDbEntity
  8
Text
100
AcDbLine
 10
16.65238419666863
 20
0.7575752289807181
 30
0.0
 11
16.50238419666863
 21
1.017382850116046
 31
0.0
  0
LINE
  5
5AF
330
1F
100
AcDbEntity
  8
Text
100
AcDbLine
 10
16.35238419666863
 20
0.7575752289807181
 30
0.0
 11
16.50238419666863
 21
1.017382850116046
 31
0.0
  0
TEXT
  5
5B0
330
1F
100
AcDbEntity
  8
Text
100
AcDbText
 10
16.46195068374995
 20
0.8084252557035416
 30
0.0
 40
0.09
  1
B
100
AcDbText
  0
LINE
  5
5B5
330
1F
100
AcDbEntity
  8
Text
100
AcDbLine
 10
12.47340333204193
 20
4.02918526214623
 30
0.0
 11
12.77340333204193
 21
4.02918526214623
 31
0.0
  0
LINE
  5
5B6
330
1F
100
AcDbEntity
  8
Text
100
AcDbLine
 10
12.77340333204193
 20
4.02918526214623
 30
0.0
 11
12.62340333204193
 21
4.288992883281558
 31
0.0
  0
LINE
  5
5B7
330
1F
100
AcDbEntity
  8
Text
100
AcDbLine
 10
12.47340333204193
 20
4.02918526214623
 30
0.0
 11
12.62340333204193
 21
4.288992883281558
 31
0.0
  0
TEXT
  5
5B8
330
1F
100
AcDbEntity
  8
Text
100
AcDbText
 10
12.58296981912325
 20
4.080035288869053
 30
0.0
 40
0.09
  1
C
100
AcDbText
  0
LINE
  5
5BC
330
1F
100
AcDbEntity
  8
Text
100
AcDbLine
 10
4.511292592183441
 20
7.484731629032802
 30
0.0
 11
4.811292592183441
 21
7.484731629032802
 31
0.0
  0
LINE
  5
5BD
330
1F
100
AcDbEntity
  8
Text
100
AcDbLine
 10
4.811292592183441
 20
7.484731629032802
 30
0.0
 11
4.661292592183443
 21
7.744539250168131
 31
0.0
  0
LINE
  5
5BE
330
1F
100
AcDbEntity
  8
Text
100
AcDbLine
 10
4.511292592183444
 20
7.484731629032802
 30
0.0
 11
4.661292592183443
 21
7.744539250168131
 31
0.0
  0
TEXT
  5
5BF
330
1F
100
AcDbEntity
  8
Text
100
AcDbText
 10
4.620859079264764
 20
7.535581655755626
 30
0.0
 40
0.09
  1
C
100
AcDbText
  0
LINE
  5
5C2
330
1F
100
AcDbEntity
  8
Text
100
AcDbLine
 10
4.379224331223941
 20
4.0348262415808
 30
0.0
 11
4.679224331223942
 21
4.0348262415808
 31
0.0
  0
LINE
  5
5C3
330
1F
100
AcDbEntity
  8
Text
100
AcDbLine
 10
4.679224331223942
 20
4.0348262415808
 30
0.0
 11
4.529224331223943
 21
4.294633862716128
 31
0.0
  0
LINE
  5
5C4
330
1F
100
AcDbEntity
  8
Text
100
AcDbLine
 10
4.379224331223944
 20
4.0348262415808
 30
0.0
 11
4.529224331223943
 21
4.294633862716128
 31
0.0
  0
TEXT
  5
5C5
330
1F
100
AcDbEntity
  8
Text
100
AcDbText
 10
4.488790818305265
 20
4.085676268303624
 30
0.0
 40
0.09
  1
C
100
AcDbText
  0
LINE
  5
5C6
330
1F
100
AcDbEntity
  8
Text
100
AcDbLine
 10
11.44418185649823
 20
10.21964540177524
 30
0.0
 11
11.74418185649823
 21
10.21964540177524
 31
0.0
  0
LINE
  5
5C7
330
1F
100
AcDbEntity
  8
Text
100
AcDbLine
 10
11.74418185649823
 20
10.21964540177524
 30
0.0
 11
11.59418185649823
 21
10.47945302291057
 31
0.0
  0
LINE
  5
5C8
330
1F
100
AcDbEntity
  8
Text
100
AcDbLine
 10
11.44418185649823
 20
10.21964540177524
 30
0.0
 11
11.59418185649823
 21
10.47945302291057
 31
0.0
  0
TEXT
  5
5C9
330
1F
100
AcDbEntity
  8
Text
100
AcDbText
 10
11.56136567038726
 20
10.26723218780074
 30
0.0
 40
0.09
  1
D
100
AcDbText
  0
LINE
  5
600
330
1F
100
AcDbEntity
  8
Object
100
AcDbLine
 10
14.12345789080901
 20
4.711402550944544
 30
0.0
 11
13.93645789080901
 21
4.711402550944544
 31
0.0
  0
LINE
  5
601
330
1F
100
AcDbEntity
  8
Object
100
AcDbLine
 10
13.93645789080901
 20
4.711402550944544
 30
0.0
 11
13.06045789080901
 21
4.711402550944544
 31
0.0
  0
LINE
  5
602
330
1F
100
AcDbEntity
  8
Object
100
AcDbLine
 10
13.06045789080901
 20
4.711402550944544
 30
0.0
 11
12.87345789080901
 21
4.711402550944544
 31
0.0
  0
LINE
  5
603
330
1F
100
AcDbEntity
  8
Object
100
AcDbLine
 10
14.12345789080901
 20
4.711402550944544
 30
0.0
 11
14.12345789080901
 21
4.591402550944544
 31
0.0
  0
LINE
  5
604
330
1F
100
AcDbEntity
  8
Object
100
AcDbLine
 10
14.12345789080901
 20
4.591402550944544
 30
0.0
 11
13.93645789080901
 21
4.591402550944544
 31
0.0
  0
LINE
  5
605
330
1F
100
AcDbEntity
  8
Object
100
AcDbLine
 10
13.93645789080901
 20
4.711402550944544
 30
0.0
 11
14.12345789080901
 21
4.711402550944544
 31
0.0
  0
LINE
  5
606
330
1F
100
AcDbEntity
  8
Object
100
AcDbLine
 10
14.12345789080901
 20
4.711402550944544
 30
0.0
 11
14.12345789080901
 21
4.591402550944544
 31
0.0
  0
LINE
  5
607
330
1F
100
AcDbEntity
  8
Object
100
AcDbLine
 10
13.93645789080901
 20
4.711402550944544
 30
0.0
 11
13.93645789080901
 21
4.591402550944544
 31
0.0
  0
LINE
  5
608
330
1F
100
AcDbEntity
  8
Object
100
AcDbLine
 10
13.93645789080901
 20
4.591402550944544
 30
0.0
 11
13.06045789080901
 21
4.591402550944544
 31
0.0
  0
LINE
  5
609
330
1F
100
AcDbEntity
  8
Object
100
AcDbLine
 10
13.93645789080901
 20
4.711402550944544
 30
0.0
 11
13.06045789080901
 21
4.711402550944544
 31
0.0
  0
LINE
  5
60A
330
1F
100
AcDbEntity
  8
Object
100
AcDbLine
 10
13.06045789080901
 20
4.711402550944544
 30
0.0
 11
13.06045789080901
 21
4.591402550944544
 31
0.0
  0
LINE
  5
60B
330
1F
100
AcDbEntity
  8
Object
100
AcDbLine
 10
13.06045789080901
 20
4.591402550944544
 30
0.0
 11
12.87345789080901
 21
4.591402550944544
 31
0.0
  0
LINE
  5
60C
330
1F
100
AcDbEntity
  8
Object
100
AcDbLine
 10
12.87345789080901
 20
4.591402550944544
 30
0.0
 11
12.87345789080901
 21
4.711402550944544
 31
0.0
  0
LINE
  5
60D
330
1F
100
AcDbEntity
  8
Object
100
AcDbLine
 10
12.87345789080901
 20
4.711402550944544
 30
0.0
 11
13.06045789080901
 21
4.711402550944544
 31
0.0
  0
LINE
  5
60E
330
1F
100
AcDbEntity
  8
Object
100
AcDbLine
 10
12.87345789080901
 20
4.711402550944544
 30
0.0
 11
12.87345789080901
 21
4.591402550944544
 31
0.0
  0
LINE
  5
60F
330
1F
100
AcDbEntity
  8
Object
100
AcDbLine
 10
14.12345789080901
 20
4.591402550944544
 30
0.0
 11
13.93645789080901
 21
4.591402550944544
 31
0.0
  0
LINE
  5
610
330
1F
100
AcDbEntity
  8
Object
100
AcDbLine
 10
13.93645789080901
 20
4.591402550944544
 30
0.0
 11
13.06045789080901
 21
4.591402550944544
 31
0.0
  0
LINE
  5
611
330
1F
100
AcDbEntity
  8
Object
100
AcDbLine
 10
13.06045789080901
 20
4.591402550944544
 30
0.0
 11
12.87345789080901
 21
4.591402550944544
 31
0.0
  0
LINE
  5
612
330
1F
100
AcDbEntity
  8
Object
100
AcDbLine
 10
8.248457890809008
 20
4.711402550944544
 30
0.0
 11
8.061457890809007
 21
4.711402550944544
 31
0.0
  0
LINE
  5
613
330
1F
100
AcDbEntity
  8
Object
100
AcDbLine
 10
8.061457890809007
 20
4.711402550944544
 30
0.0
 11
3.620457890809008
 21
4.711402550944544
 31
0.0
  0
LINE
  5
614
330
1F
100
AcDbEntity
  8
Object
100
AcDbLine
 10
3.620457890809008
 20
4.711402550944544
 30
0.0
 11
3.602457890809008
 21
4.711402550944544
 31
0.0
  0
LINE
  5
615
330
1F
100
AcDbEntity
  8
Object
100
AcDbLine
 10
3.602457890809008
 20
4.711402550944544
 30
0.0
 11
3.587457890809007
 21
4.711402550944544
 31
0.0
  0
LINE
  5
616
330
1F
100
AcDbEntity
  8
Object
100
AcDbLine
 10
3.587457890809007
 20
4.711402550944544
 30
0.0
 11
3.577457890809007
 21
4.711402550944544
 31
0.0
  0
LINE
  5
617
330
1F
100
AcDbEntity
  8
Object
100
AcDbLine
 10
3.577457890809007
 20
4.711402550944544
 30
0.0
 11
3.573457890809008
 21
4.711402550944544
 31
0.0
  0
LINE
  5
618
330
1F
100
AcDbEntity
  8
Object
100
AcDbLine
 10
3.573457890809008
 20
4.711402550944544
 30
0.0
 11
3.570457890809008
 21
4.711402550944544
 31
0.0
  0
LINE
  5
619
330
1F
100
AcDbEntity
  8
Object
100
AcDbLine
 10
3.570457890809008
 20
4.711402550944544
 30
0.0
 11
3.559457890809008
 21
4.711402550944544
 31
0.0
  0
LINE
  5
61A
330
1F
100
AcDbEntity
  8
Object
100
AcDbLine
 10
3.559457890809008
 20
4.711402550944544
 30
0.0
 11
3.541457890809008
 21
4.711402550944544
 31
0.0
  0
LINE
  5
61B
330
1F
100
AcDbEntity
  8
Object
100
AcDbLine
 10
3.541457890809008
 20
4.711402550944544
 30
0.0
 11
3.517457890809007
 21
4.711402550944544
 31
0.0
  0
LINE
  5
61C
330
1F
100
AcDbEntity
  8
Object
100
AcDbLine
 10
3.517457890809007
 20
4.711402550944544
 30
0.0
 11
3.486457890809008
 21
4.711402550944544
 31
0.0
  0
LINE
  5
61D
330
1F
100
AcDbEntity
  8
Object
100
AcDbLine
 10
3.486457890809008
 20
4.711402550944544
 30
0.0
 11
3.451457890809008
 21
4.711402550944544
 31
0.0
  0
LINE
  5
61E
330
1F
100
AcDbEntity
  8
Object
100
AcDbLine
 10
3.451457890809008
 20
4.711402550944544
 30
0.0
 11
3.411457890809007
 21
4.711402550944544
 31
0.0
  0
LINE
  5
61F
330
1F
100
AcDbEntity
  8
Object
100
AcDbLine
 10
3.411457890809007
 20
4.711402550944544
 30
0.0
 11
3.367457890809008
 21
4.711402550944544
 31
0.0
  0
LINE
  5
620
330
1F
100
AcDbEntity
  8
Object
100
AcDbLine
 10
3.367457890809008
 20
4.711402550944544
 30
0.0
 11
3.321457890809007
 21
4.711402550944544
 31
0.0
  0
LINE
  5
621
330
1F
100
AcDbEntity
  8
Object
100
AcDbLine
 10
3.321457890809007
 20
4.711402550944544
 30
0.0
 11
3.272457890809008
 21
4.711402550944544
 31
0.0
  0
LINE
  5
622
330
1F
100
AcDbEntity
  8
Object
100
AcDbLine
 10
3.272457890809008
 20
4.711402550944544
 30
0.0
 11
3.224457890809008
 21
4.711402550944544
 31
0.0
  0
LINE
  5
623
330
1F
100
AcDbEntity
  8
Object
100
AcDbLine
 10
3.224457890809008
 20
4.711402550944544
 30
0.0
 11
3.176457890809007
 21
4.711402550944544
 31
0.0
  0
LINE
  5
624
330
1F
100
AcDbEntity
  8
Object
100
AcDbLine
 10
3.176457890809007
 20
4.711402550944544
 30
0.0
 11
3.129457890809007
 21
4.711402550944544
 31
0.0
  0
LINE
  5
625
330
1F
100
AcDbEntity
  8
Object
100
AcDbLine
 10
3.129457890809007
 20
4.711402550944544
 30
0.0
 11
3.086457890809008
 21
4.711402550944544
 31
0.0
  0
LINE
  5
626
330
1F
100
AcDbEntity
  8
Object
100
AcDbLine
 10
3.086457890809008
 20
4.711402550944544
 30
0.0
 11
3.046457890809007
 21
4.711402550944544
 31
0.0
  0
LINE
  5
627
330
1F
100
AcDbEntity
  8
Object
100
AcDbLine
 10
3.046457890809007
 20
4.711402550944544
 30
0.0
 11
3.010457890809007
 21
4.711402550944544
 31
0.0
  0
LINE
  5
628
330
1F
100
AcDbEntity
  8
Object
100
AcDbLine
 10
3.010457890809007
 20
4.711402550944544
 30
0.0
 11
2.980457890809008
 21
4.711402550944544
 31
0.0
  0
LINE
  5
629
330
1F
100
AcDbEntity
  8
Object
100
AcDbLine
 10
2.980457890809008
 20
4.711402550944544
 30
0.0
 11
2.955457890809007
 21
4.711402550944544
 31
0.0
  0
LINE
  5
62A
330
1F
100
AcDbEntity
  8
Object
100
AcDbLine
 10
2.955457890809007
 20
4.711402550944544
 30
0.0
 11
2.938457890809008
 21
4.711402550944544
 31
0.0
  0
LINE
  5
62B
330
1F
100
AcDbEntity
  8
Object
100
AcDbLine
 10
2.938457890809008
 20
4.711402550944544
 30
0.0
 11
2.927457890809007
 21
4.711402550944544
 31
0.0
  0
LINE
  5
62C
330
1F
100
AcDbEntity
  8
Object
100
AcDbLine
 10
2.927457890809007
 20
4.711402550944544
 30
0.0
 11
2.923457890809007
 21
4.711402550944544
 31
0.0
  0
LINE
  5
62D
330
1F
100
AcDbEntity
  8
Object
100
AcDbLine
 10
2.923457890809007
 20
4.711402550944544
 30
0.0
 11
2.920457890809007
 21
4.711402550944544
 31
0.0
  0
LINE
  5
62E
330
1F
100
AcDbEntity
  8
Object
100
AcDbLine
 10
2.920457890809007
 20
4.711402550944544
 30
0.0
 11
2.909457890809008
 21
4.711402550944544
 31
0.0
  0
LINE
  5
62F
330
1F
100
AcDbEntity
  8
Object
100
AcDbLine
 10
2.909457890809008
 20
4.711402550944544
 30
0.0
 11
2.894457890809007
 21
4.711402550944544
 31
0.0
  0
LINE
  5
630
330
1F
100
AcDbEntity
  8
Object
100
AcDbLine
 10
2.894457890809007
 20
4.711402550944544
 30
0.0
 11
2.876457890809009
 21
4.711402550944544
 31
0.0
  0
LINE
  5
631
330
1F
100
AcDbEntity
  8
Object
100
AcDbLine
 10
2.876457890809009
 20
4.711402550944544
 30
0.0
 11
2.435457890809008
 21
4.711402550944544
 31
0.0
  0
LINE
  5
632
330
1F
100
AcDbEntity
  8
Object
100
AcDbLine
 10
2.435457890809008
 20
4.711402550944544
 30
0.0
 11
2.248457890809008
 21
4.711402550944544
 31
0.0
  0
LINE
  5
633
330
1F
100
AcDbEntity
  8
Object
100
AcDbLine
 10
8.248457890809008
 20
4.591402550944544
 30
0.0
 11
8.248457890809008
 21
4.711402550944544
 31
0.0
  0
LINE
  5
634
330
1F
100
AcDbEntity
  8
Object
100
AcDbLine
 10
8.248457890809008
 20
4.711402550944544
 30
0.0
 11
8.248457890809008
 21
4.591402550944544
 31
0.0
  0
LINE
  5
635
330
1F
100
AcDbEntity
  8
Object
100
AcDbLine
 10
8.248457890809008
 20
4.591402550944544
 30
0.0
 11
8.061457890809007
 21
4.591402550944544
 31
0.0
  0
LINE
  5
636
330
1F
100
AcDbEntity
  8
Object
100
AcDbLine
 10
8.248457890809008
 20
4.711402550944544
 30
0.0
 11
8.061457890809007
 21
4.711402550944544
 31
0.0
  0
LINE
  5
637
330
1F
100
AcDbEntity
  8
Object
100
AcDbLine
 10
2.248457890809008
 20
4.711402550944544
 30
0.0
 11
2.248457890809008
 21
4.591402550944544
 31
0.0
  0
LINE
  5
638
330
1F
100
AcDbEntity
  8
Object
100
AcDbLine
 10
2.920457890809007
 20
4.711402550944544
 30
0.0
 11
2.923457890809007
 21
4.711402550944544
 31
0.0
  0
LINE
  5
639
330
1F
100
AcDbEntity
  8
Object
100
AcDbLine
 10
2.923457890809007
 20
4.711402550944544
 30
0.0
 11
2.923457890809007
 21
4.591402550944544
 31
0.0
  0
LINE
  5
63A
330
1F
100
AcDbEntity
  8
Object
100
AcDbLine
 10
2.923457890809007
 20
4.591402550944544
 30
0.0
 11
2.920457890809007
 21
4.591402550944544
 31
0.0
  0
LINE
  5
63B
330
1F
100
AcDbEntity
  8
Object
100
AcDbLine
 10
2.920457890809007
 20
4.591402550944544
 30
0.0
 11
2.909457890809008
 21
4.591402550944544
 31
0.0
  0
LINE
  5
63C
330
1F
100
AcDbEntity
  8
Object
100
AcDbLine
 10
2.920457890809007
 20
4.711402550944544
 30
0.0
 11
2.909457890809008
 21
4.711402550944544
 31
0.0
  0
LINE
  5
63D
330
1F
100
AcDbEntity
  8
Object
100
AcDbLine
 10
2.909457890809008
 20
4.711402550944544
 30
0.0
 11
2.894457890809007
 21
4.711402550944544
 31
0.0
  0
LINE
  5
63E
330
1F
100
AcDbEntity
  8
Object
100
AcDbLine
 10
2.909457890809008
 20
4.591402550944544
 30
0.0
 11
2.894457890809007
 21
4.591402550944544
 31
0.0
  0
LINE
  5
63F
330
1F
100
AcDbEntity
  8
Object
100
AcDbLine
 10
2.894457890809007
 20
4.591402550944544
 30
0.0
 11
2.876457890809009
 21
4.591402550944544
 31
0.0
  0
LINE
  5
640
330
1F
100
AcDbEntity
  8
Object
100
AcDbLine
 10
2.894457890809007
 20
4.711402550944544
 30
0.0
 11
2.876457890809009
 21
4.711402550944544
 31
0.0
  0
LINE
  5
641
330
1F
100
AcDbEntity
  8
Object
100
AcDbLine
 10
3.573457890809008
 20
4.711402550944544
 30
0.0
 11
3.573457890809008
 21
4.591402550944544
 31
0.0
  0
LINE
  5
642
330
1F
100
AcDbEntity
  8
Object
100
AcDbLine
 10
2.876457890809009
 20
4.711402550944544
 30
0.0
 11
2.876457890809009
 21
4.591402550944544
 31
0.0
  0
LINE
  5
643
330
1F
100
AcDbEntity
  8
Object
100
AcDbLine
 10
2.876457890809009
 20
4.591402550944544
 30
0.0
 11
2.435457890809008
 21
4.591402550944544
 31
0.0
  0
LINE
  5
644
330
1F
100
AcDbEntity
  8
Object
100
AcDbLine
 10
2.876457890809009
 20
4.711402550944544
 30
0.0
 11
2.435457890809008
 21
4.711402550944544
 31
0.0
  0
LINE
  5
645
330
1F
100
AcDbEntity
  8
Object
100
AcDbLine
 10
3.620457890809008
 20
4.711402550944544
 30
0.0
 11
8.061457890809007
 21
4.711402550944544
 31
0.0
  0
LINE
  5
646
330
1F
100
AcDbEntity
  8
Object
100
AcDbLine
 10
8.061457890809007
 20
4.711402550944544
 30
0.0
 11
8.061457890809007
 21
4.591402550944544
 31
0.0
  0
LINE
  5
647
330
1F
100
AcDbEntity
  8
Object
100
AcDbLine
 10
8.061457890809007
 20
4.591402550944544
 30
0.0
 11
3.620457890809008
 21
4.591402550944544
 31
0.0
  0
LINE
  5
648
330
1F
100
AcDbEntity
  8
Object
100
AcDbLine
 10
3.602457890809008
 20
4.711402550944544
 30
0.0
 11
3.620457890809008
 21
4.711402550944544
 31
0.0
  0
LINE
  5
649
330
1F
100
AcDbEntity
  8
Object
100
AcDbLine
 10
3.620457890809008
 20
4.711402550944544
 30
0.0
 11
3.620457890809008
 21
4.591402550944544
 31
0.0
  0
LINE
  5
64A
330
1F
100
AcDbEntity
  8
Object
100
AcDbLine
 10
3.620457890809008
 20
4.591402550944544
 30
0.0
 11
3.602457890809008
 21
4.591402550944544
 31
0.0
  0
LINE
  5
64B
330
1F
100
AcDbEntity
  8
Object
100
AcDbLine
 10
3.602457890809008
 20
4.591402550944544
 30
0.0
 11
3.587457890809007
 21
4.591402550944544
 31
0.0
  0
LINE
  5
64C
330
1F
100
AcDbEntity
  8
Object
100
AcDbLine
 10
3.602457890809008
 20
4.711402550944544
 30
0.0
 11
3.587457890809007
 21
4.711402550944544
 31
0.0
  0
LINE
  5
64D
330
1F
100
AcDbEntity
  8
Object
100
AcDbLine
 10
3.587457890809007
 20
4.711402550944544
 30
0.0
 11
3.577457890809007
 21
4.711402550944544
 31
0.0
  0
LINE
  5
64E
330
1F
100
AcDbEntity
  8
Object
100
AcDbLine
 10
3.587457890809007
 20
4.591402550944544
 30
0.0
 11
3.577457890809007
 21
4.591402550944544
 31
0.0
  0
LINE
  5
64F
330
1F
100
AcDbEntity
  8
Object
100
AcDbLine
 10
3.577457890809007
 20
4.591402550944544
 30
0.0
 11
3.573457890809008
 21
4.591402550944544
 31
0.0
  0
LINE
  5
650
330
1F
100
AcDbEntity
  8
Object
100
AcDbLine
 10
3.573457890809008
 20
4.591402550944544
 30
0.0
 11
3.573457890809008
 21
4.711402550944544
 31
0.0
  0
LINE
  5
651
330
1F
100
AcDbEntity
  8
Object
100
AcDbLine
 10
3.573457890809008
 20
4.711402550944544
 30
0.0
 11
3.577457890809007
 21
4.711402550944544
 31
0.0
  0
LINE
  5
652
330
1F
100
AcDbEntity
  8
Object
100
AcDbLine
 10
2.923457890809007
 20
4.591402550944544
 30
0.0
 11
2.923457890809007
 21
4.711402550944544
 31
0.0
  0
LINE
  5
653
330
1F
100
AcDbEntity
  8
Object
100
AcDbLine
 10
3.573457890809008
 20
4.711402550944544
 30
0.0
 11
3.570457890809008
 21
4.711402550944544
 31
0.0
  0
LINE
  5
654
330
1F
100
AcDbEntity
  8
Object
100
AcDbLine
 10
3.573457890809008
 20
4.591402550944544
 30
0.0
 11
3.570457890809008
 21
4.591402550944544
 31
0.0
  0
LINE
  5
655
330
1F
100
AcDbEntity
  8
Object
100
AcDbLine
 10
3.570457890809008
 20
4.591402550944544
 30
0.0
 11
3.559457890809008
 21
4.591402550944544
 31
0.0
  0
LINE
  5
656
330
1F
100
AcDbEntity
  8
Object
100
AcDbLine
 10
3.570457890809008
 20
4.711402550944544
 30
0.0
 11
3.559457890809008
 21
4.711402550944544
 31
0.0
  0
LINE
  5
657
330
1F
100
AcDbEntity
  8
Object
100
AcDbLine
 10
3.559457890809008
 20
4.711402550944544
 30
0.0
 11
3.541457890809008
 21
4.711402550944544
 31
0.0
  0
LINE
  5
658
330
1F
100
AcDbEntity
  8
Object
100
AcDbLine
 10
3.559457890809008
 20
4.591402550944544
 30
0.0
 11
3.541457890809008
 21
4.591402550944544
 31
0.0
  0
LINE
  5
659
330
1F
100
AcDbEntity
  8
Object
100
AcDbLine
 10
3.541457890809008
 20
4.591402550944544
 30
0.0
 11
3.517457890809007
 21
4.591402550944544
 31
0.0
  0
LINE
  5
65A
330
1F
100
AcDbEntity
  8
Object
100
AcDbLine
 10
3.541457890809008
 20
4.711402550944544
 30
0.0
 11
3.517457890809007
 21
4.711402550944544
 31
0.0
  0
LINE
  5
65B
330
1F
100
AcDbEntity
  8
Object
100
AcDbLine
 10
3.517457890809007
 20
4.711402550944544
 30
0.0
 11
3.486457890809008
 21
4.711402550944544
 31
0.0
  0
LINE
  5
65C
330
1F
100
AcDbEntity
  8
Object
100
AcDbLine
 10
3.517457890809007
 20
4.591402550944544
 30
0.0
 11
3.486457890809008
 21
4.591402550944544
 31
0.0
  0
LINE
  5
65D
330
1F
100
AcDbEntity
  8
Object
100
AcDbLine
 10
3.486457890809008
 20
4.591402550944544
 30
0.0
 11
3.451457890809008
 21
4.591402550944544
 31
0.0
  0
LINE
  5
65E
330
1F
100
AcDbEntity
  8
Object
100
AcDbLine
 10
3.486457890809008
 20
4.711402550944544
 30
0.0
 11
3.451457890809008
 21
4.711402550944544
 31
0.0
  0
LINE
  5
65F
330
1F
100
AcDbEntity
  8
Object
100
AcDbLine
 10
3.451457890809008
 20
4.711402550944544
 30
0.0
 11
3.411457890809007
 21
4.711402550944544
 31
0.0
  0
LINE
  5
660
330
1F
100
AcDbEntity
  8
Object
100
AcDbLine
 10
3.451457890809008
 20
4.591402550944544
 30
0.0
 11
3.411457890809007
 21
4.591402550944544
 31
0.0
  0
LINE
  5
661
330
1F
100
AcDbEntity
  8
Object
100
AcDbLine
 10
3.411457890809007
 20
4.591402550944544
 30
0.0
 11
3.367457890809008
 21
4.591402550944544
 31
0.0
  0
LINE
  5
662
330
1F
100
AcDbEntity
  8
Object
100
AcDbLine
 10
3.411457890809007
 20
4.711402550944544
 30
0.0
 11
3.367457890809008
 21
4.711402550944544
 31
0.0
  0
LINE
  5
663
330
1F
100
AcDbEntity
  8
Object
100
AcDbLine
 10
3.367457890809008
 20
4.711402550944544
 30
0.0
 11
3.321457890809007
 21
4.711402550944544
 31
0.0
  0
LINE
  5
664
330
1F
100
AcDbEntity
  8
Object
100
AcDbLine
 10
3.367457890809008
 20
4.591402550944544
 30
0.0
 11
3.321457890809007
 21
4.591402550944544
 31
0.0
  0
LINE
  5
665
330
1F
100
AcDbEntity
  8
Object
100
AcDbLine
 10
3.321457890809007
 20
4.591402550944544
 30
0.0
 11
3.272457890809008
 21
4.591402550944544
 31
0.0
  0
LINE
  5
666
330
1F
100
AcDbEntity
  8
Object
100
AcDbLine
 10
3.321457890809007
 20
4.711402550944544
 30
0.0
 11
3.272457890809008
 21
4.711402550944544
 31
0.0
  0
LINE
  5
667
330
1F
100
AcDbEntity
  8
Object
100
AcDbLine
 10
3.272457890809008
 20
4.711402550944544
 30
0.0
 11
3.224457890809008
 21
4.711402550944544
 31
0.0
  0
LINE
  5
668
330
1F
100
AcDbEntity
  8
Object
100
AcDbLine
 10
3.272457890809008
 20
4.591402550944544
 30
0.0
 11
3.224457890809008
 21
4.591402550944544
 31
0.0
  0
LINE
  5
669
330
1F
100
AcDbEntity
  8
Object
100
AcDbLine
 10
3.224457890809008
 20
4.591402550944544
 30
0.0
 11
3.176457890809007
 21
4.591402550944544
 31
0.0
  0
LINE
  5
66A
330
1F
100
AcDbEntity
  8
Object
100
AcDbLine
 10
3.224457890809008
 20
4.711402550944544
 30
0.0
 11
3.176457890809007
 21
4.711402550944544
 31
0.0
  0
LINE
  5
66B
330
1F
100
AcDbEntity
  8
Object
100
AcDbLine
 10
3.176457890809007
 20
4.711402550944544
 30
0.0
 11
3.129457890809007
 21
4.711402550944544
 31
0.0
  0
LINE
  5
66C
330
1F
100
AcDbEntity
  8
Object
100
AcDbLine
 10
3.176457890809007
 20
4.591402550944544
 30
0.0
 11
3.129457890809007
 21
4.591402550944544
 31
0.0
  0
LINE
  5
66D
330
1F
100
AcDbEntity
  8
Object
100
AcDbLine
 10
3.129457890809007
 20
4.591402550944544
 30
0.0
 11
3.086457890809008
 21
4.591402550944544
 31
0.0
  0
LINE
  5
66E
330
1F
100
AcDbEntity
  8
Object
100
AcDbLine
 10
3.129457890809007
 20
4.711402550944544
 30
0.0
 11
3.086457890809008
 21
4.711402550944544
 31
0.0
  0
LINE
  5
66F
330
1F
100
AcDbEntity
  8
Object
100
AcDbLine
 10
3.086457890809008
 20
4.711402550944544
 30
0.0
 11
3.046457890809007
 21
4.711402550944544
 31
0.0
  0
LINE
  5
670
330
1F
100
AcDbEntity
  8
Object
100
AcDbLine
 10
3.086457890809008
 20
4.591402550944544
 30
0.0
 11
3.046457890809007
 21
4.591402550944544
 31
0.0
  0
LINE
  5
671
330
1F
100
AcDbEntity
  8
Object
100
AcDbLine
 10
3.046457890809007
 20
4.591402550944544
 30
0.0
 11
3.010457890809007
 21
4.591402550944544
 31
0.0
  0
LINE
  5
672
330
1F
100
AcDbEntity
  8
Object
100
AcDbLine
 10
3.046457890809007
 20
4.711402550944544
 30
0.0
 11
3.010457890809007
 21
4.711402550944544
 31
0.0
  0
LINE
  5
673
330
1F
100
AcDbEntity
  8
Object
100
AcDbLine
 10
3.010457890809007
 20
4.711402550944544
 30
0.0
 11
2.980457890809008
 21
4.711402550944544
 31
0.0
  0
LINE
  5
674
330
1F
100
AcDbEntity
  8
Object
100
AcDbLine
 10
3.010457890809007
 20
4.591402550944544
 30
0.0
 11
2.980457890809008
 21
4.591402550944544
 31
0.0
  0
LINE
  5
675
330
1F
100
AcDbEntity
  8
Object
100
AcDbLine
 10
2.980457890809008
 20
4.591402550944544
 30
0.0
 11
2.955457890809007
 21
4.591402550944544
 31
0.0
  0
LINE
  5
676
330
1F
100
AcDbEntity
  8
Object
100
AcDbLine
 10
2.980457890809008
 20
4.711402550944544
 30
0.0
 11
2.955457890809007
 21
4.711402550944544
 31
0.0
  0
LINE
  5
677
330
1F
100
AcDbEntity
  8
Object
100
AcDbLine
 10
2.955457890809007
 20
4.711402550944544
 30
0.0
 11
2.938457890809008
 21
4.711402550944544
 31
0.0
  0
LINE
  5
678
330
1F
100
AcDbEntity
  8
Object
100
AcDbLine
 10
2.955457890809007
 20
4.591402550944544
 30
0.0
 11
2.938457890809008
 21
4.591402550944544
 31
0.0
  0
LINE
  5
679
330
1F
100
AcDbEntity
  8
Object
100
AcDbLine
 10
2.938457890809008
 20
4.591402550944544
 30
0.0
 11
2.927457890809007
 21
4.591402550944544
 31
0.0
  0
LINE
  5
67A
330
1F
100
AcDbEntity
  8
Object
100
AcDbLine
 10
2.938457890809008
 20
4.711402550944544
 30
0.0
 11
2.927457890809007
 21
4.711402550944544
 31
0.0
  0
LINE
  5
67B
330
1F
100
AcDbEntity
  8
Object
100
AcDbLine
 10
2.923457890809007
 20
4.591402550944544
 30
0.0
 11
2.927457890809007
 21
4.591402550944544
 31
0.0
  0
LINE
  5
67C
330
1F
100
AcDbEntity
  8
Object
100
AcDbLine
 10
2.927457890809007
 20
4.711402550944544
 30
0.0
 11
2.923457890809007
 21
4.711402550944544
 31
0.0
  0
LINE
  5
67D
330
1F
100
AcDbEntity
  8
Object
100
AcDbLine
 10
2.435457890809008
 20
4.591402550944544
 30
0.0
 11
2.248457890809008
 21
4.591402550944544
 31
0.0
  0
LINE
  5
67E
330
1F
100
AcDbEntity
  8
Object
100
AcDbLine
 10
2.248457890809008
 20
4.591402550944544
 30
0.0
 11
2.248457890809008
 21
4.711402550944544
 31
0.0
  0
LINE
  5
67F
330
1F
100
AcDbEntity
  8
Object
100
AcDbLine
 10
2.248457890809008
 20
4.711402550944544
 30
0.0
 11
2.435457890809008
 21
4.711402550944544
 31
0.0
  0
LINE
  5
680
330
1F
100
AcDbEntity
  8
Object
100
AcDbLine
 10
2.435457890809008
 20
4.711402550944544
 30
0.0
 11
2.435457890809008
 21
4.591402550944544
 31
0.0
  0
LINE
  5
681
330
1F
100
AcDbEntity
  8
Object
100
AcDbLine
 10
8.248457890809008
 20
4.591402550944544
 30
0.0
 11
8.061457890809007
 21
4.591402550944544
 31
0.0
  0
LINE
  5
682
330
1F
100
AcDbEntity
  8
Object
100
AcDbLine
 10
8.061457890809007
 20
4.591402550944544
 30
0.0
 11
3.620457890809008
 21
4.591402550944544
 31
0.0
  0
LINE
  5
683
330
1F
100
AcDbEntity
  8
Object
100
AcDbLine
 10
3.620457890809008
 20
4.591402550944544
 30
0.0
 11
3.602457890809008
 21
4.591402550944544
 31
0.0
  0
LINE
  5
684
330
1F
100
AcDbEntity
  8
Object
100
AcDbLine
 10
3.602457890809008
 20
4.591402550944544
 30
0.0
 11
3.587457890809007
 21
4.591402550944544
 31
0.0
  0
LINE
  5
685
330
1F
100
AcDbEntity
  8
Object
100
AcDbLine
 10
3.587457890809007
 20
4.591402550944544
 30
0.0
 11
3.577457890809007
 21
4.591402550944544
 31
0.0
  0
LINE
  5
686
330
1F
100
AcDbEntity
  8
Object
100
AcDbLine
 10
3.577457890809007
 20
4.591402550944544
 30
0.0
 11
3.573457890809008
 21
4.591402550944544
 31
0.0
  0
LINE
  5
687
330
1F
100
AcDbEntity
  8
Object
100
AcDbLine
 10
3.573457890809008
 20
4.591402550944544
 30
0.0
 11
3.570457890809008
 21
4.591402550944544
 31
0.0
  0
LINE
  5
688
330
1F
100
AcDbEntity
  8
Object
100
AcDbLine
 10
3.570457890809008
 20
4.591402550944544
 30
0.0
 11
3.559457890809008
 21
4.591402550944544
 31
0.0
  0
LINE
  5
689
330
1F
100
AcDbEntity
  8
Object
100
AcDbLine
 10
3.559457890809008
 20
4.591402550944544
 30
0.0
 11
3.541457890809008
 21
4.591402550944544
 31
0.0
  0
LINE
  5
68A
330
1F
100
AcDbEntity
  8
Object
100
AcDbLine
 10
3.541457890809008
 20
4.591402550944544
 30
0.0
 11
3.517457890809007
 21
4.591402550944544
 31
0.0
  0
LINE
  5
68B
330
1F
100
AcDbEntity
  8
Object
100
AcDbLine
 10
3.517457890809007
 20
4.591402550944544
 30
0.0
 11
3.486457890809008
 21
4.591402550944544
 31
0.0
  0
LINE
  5
68C
330
1F
100
AcDbEntity
  8
Object
100
AcDbLine
 10
3.486457890809008
 20
4.591402550944544
 30
0.0
 11
3.451457890809008
 21
4.591402550944544
 31
0.0
  0
LINE
  5
68D
330
1F
100
AcDbEntity
  8
Object
100
AcDbLine
 10
3.451457890809008
 20
4.591402550944544
 30
0.0
 11
3.411457890809007
 21
4.591402550944544
 31
0.0
  0
LINE
  5
68E
330
1F
100
AcDbEntity
  8
Object
100
AcDbLine
 10
3.411457890809007
 20
4.591402550944544
 30
0.0
 11
3.367457890809008
 21
4.591402550944544
 31
0.0
  0
LINE
  5
68F
330
1F
100
AcDbEntity
  8
Object
100
AcDbLine
 10
3.367457890809008
 20
4.591402550944544
 30
0.0
 11
3.321457890809007
 21
4.591402550944544
 31
0.0
  0
LINE
  5
690
330
1F
100
AcDbEntity
  8
Object
100
AcDbLine
 10
3.321457890809007
 20
4.591402550944544
 30
0.0
 11
3.272457890809008
 21
4.591402550944544
 31
0.0
  0
LINE
  5
691
330
1F
100
AcDbEntity
  8
Object
100
AcDbLine
 10
3.272457890809008
 20
4.591402550944544
 30
0.0
 11
3.224457890809008
 21
4.591402550944544
 31
0.0
  0
LINE
  5
692
330
1F
100
AcDbEntity
  8
Object
100
AcDbLine
 10
3.224457890809008
 20
4.591402550944544
 30
0.0
 11
3.176457890809007
 21
4.591402550944544
 31
0.0
  0
LINE
  5
693
330
1F
100
AcDbEntity
  8
Object
100
AcDbLine
 10
3.176457890809007
 20
4.591402550944544
 30
0.0
 11
3.129457890809007
 21
4.591402550944544
 31
0.0
  0
LINE
  5
694
330
1F
100
AcDbEntity
  8
Object
100
AcDbLine
 10
3.129457890809007
 20
4.591402550944544
 30
0.0
 11
3.086457890809008
 21
4.591402550944544
 31
0.0
  0
LINE
  5
695
330
1F
100
AcDbEntity
  8
Object
100
AcDbLine
 10
3.086457890809008
 20
4.591402550944544
 30
0.0
 11
3.046457890809007
 21
4.591402550944544
 31
0.0
  0
LINE
  5
696
330
1F
100
AcDbEntity
  8
Object
100
AcDbLine
 10
3.046457890809007
 20
4.591402550944544
 30
0.0
 11
3.010457890809007
 21
4.591402550944544
 31
0.0
  0
LINE
  5
697
330
1F
100
AcDbEntity
  8
Object
100
AcDbLine
 10
3.010457890809007
 20
4.591402550944544
 30
0.0
 11
2.980457890809008
 21
4.591402550944544
 31
0.0
  0
LINE
  5
698
330
1F
100
AcDbEntity
  8
Object
100
AcDbLine
 10
2.980457890809008
 20
4.591402550944544
 30
0.0
 11
2.955457890809007
 21
4.591402550944544
 31
0.0
  0
LINE
  5
699
330
1F
100
AcDbEntity
  8
Object
100
AcDbLine
 10
2.955457890809007
 20
4.591402550944544
 30
0.0
 11
2.938457890809008
 21
4.591402550944544
 31
0.0
  0
LINE
  5
69A
330
1F
100
AcDbEntity
  8
Object
100
AcDbLine
 10
2.938457890809008
 20
4.591402550944544
 30
0.0
 11
2.927457890809007
 21
4.591402550944544
 31
0.0
  0
LINE
  5
69B
330
1F
100
AcDbEntity
  8
Object
100
AcDbLine
 10
2.927457890809007
 20
4.591402550944544
 30
0.0
 11
2.923457890809007
 21
4.591402550944544
 31
0.0
  0
LINE
  5
69C
330
1F
100
AcDbEntity
  8
Object
100
AcDbLine
 10
2.923457890809007
 20
4.591402550944544
 30
0.0
 11
2.920457890809007
 21
4.591402550944544
 31
0.0
  0
LINE
  5
69D
330
1F
100
AcDbEntity
  8
Object
100
AcDbLine
 10
2.920457890809007
 20
4.591402550944544
 30
0.0
 11
2.909457890809008
 21
4.591402550944544
 31
0.0
  0
LINE
  5
69E
330
1F
100
AcDbEntity
  8
Object
100
AcDbLine
 10
2.909457890809008
 20
4.591402550944544
 30
0.0
 11
2.894457890809007
 21
4.591402550944544
 31
0.0
  0
LINE
  5
69F
330
1F
100
AcDbEntity
  8
Object
100
AcDbLine
 10
2.894457890809007
 20
4.591402550944544
 30
0.0
 11
2.876457890809009
 21
4.591402550944544
 31
0.0
  0
LINE
  5
6A0
330
1F
100
AcDbEntity
  8
Object
100
AcDbLine
 10
2.876457890809009
 20
4.591402550944544
 30
0.0
 11
2.435457890809008
 21
4.591402550944544
 31
0.0
  0
LINE
  5
6A1
330
1F
100
AcDbEntity
  8
Object
100
AcDbLine
 10
2.435457890809008
 20
4.591402550944544
 30
0.0
 11
2.248457890809008
 21
4.591402550944544
 31
0.0
  0
LINE
  5
6A2
330
1F
100
AcDbEntity
  8
Object
100
AcDbLine
 10
6.999457890809008
 20
8.954402550944545
 30
0.0
 11
6.972457890809008
 21
8.967402550944544
 31
0.0
  0
LINE
  5
6A3
330
1F
100
AcDbEntity
  8
Object
100
AcDbLine
 10
8.248457890809008
 20
8.213402550944545
 30
0.0
 11
8.248457890809008
 21
9.089402550944544
 31
0.0
  0
LINE
  5
6A4
330
1F
100
AcDbEntity
  8
Object
100
AcDbLine
 10
7.933457890809007
 20
8.678402550944545
 30
0.0
 11
7.936457890809007
 21
8.651402550944544
 31
0.0
  0
LINE
  5
6A5
330
1F
100
AcDbEntity
  8
Object
100
AcDbLine
 10
7.936457890809007
 20
8.651402550944544
 30
0.0
 11
7.933457890809007
 21
8.624402550944544
 31
0.0
  0
LINE
  5
6A6
330
1F
100
AcDbEntity
  8
Object
100
AcDbLine
 10
7.922457890809008
 20
8.704402550944545
 30
0.0
 11
7.933457890809007
 21
8.678402550944545
 31
0.0
  0
LINE
  5
6A7
330
1F
100
AcDbEntity
  8
Object
100
AcDbLine
 10
7.933457890809007
 20
8.624402550944544
 30
0.0
 11
7.922457890809008
 21
8.599402550944544
 31
0.0
  0
LINE
  5
6A8
330
1F
100
AcDbEntity
  8
Object
100
AcDbLine
 10
7.906457890809008
 20
8.725402550944544
 30
0.0
 11
7.922457890809008
 21
8.704402550944545
 31
0.0
  0
LINE
  5
6A9
330
1F
100
AcDbEntity
  8
Object
100
AcDbLine
 10
7.922457890809008
 20
8.599402550944544
 30
0.0
 11
7.906457890809008
 21
8.577402550944544
 31
0.0
  0
LINE
  5
6AA
330
1F
100
AcDbEntity
  8
Object
100
AcDbLine
 10
7.884457890809008
 20
8.742402550944545
 30
0.0
 11
7.906457890809008
 21
8.725402550944544
 31
0.0
  0
LINE
  5
6AB
330
1F
100
AcDbEntity
  8
Object
100
AcDbLine
 10
7.906457890809008
 20
8.577402550944544
 30
0.0
 11
7.884457890809008
 21
8.560402550944544
 31
0.0
  0
LINE
  5
6AC
330
1F
100
AcDbEntity
  8
Object
100
AcDbLine
 10
7.859457890809007
 20
8.753402550944544
 30
0.0
 11
7.884457890809008
 21
8.742402550944545
 31
0.0
  0
LINE
  5
6AD
330
1F
100
AcDbEntity
  8
Object
100
AcDbLine
 10
8.248457890809008
 20
9.089402550944544
 30
0.0
 11
8.061457890809007
 21
9.276402550944544
 31
0.0
  0
LINE
  5
6AE
330
1F
100
AcDbEntity
  8
Object
100
AcDbLine
 10
7.884457890809008
 20
8.560402550944544
 30
0.0
 11
7.859457890809007
 21
8.550402550944545
 31
0.0
  0
LINE
  5
6AF
330
1F
100
AcDbEntity
  8
Object
100
AcDbLine
 10
8.061457890809007
 20
8.026402550944544
 30
0.0
 11
8.248457890809008
 21
8.213402550944545
 31
0.0
  0
LINE
  5
6B0
330
1F
100
AcDbEntity
  8
Object
100
AcDbLine
 10
7.831457890809008
 20
8.756402550944544
 30
0.0
 11
7.859457890809007
 21
8.753402550944544
 31
0.0
  0
LINE
  5
6B1
330
1F
100
AcDbEntity
  8
Object
100
AcDbLine
 10
7.859457890809007
 20
8.550402550944545
 30
0.0
 11
7.831457890809008
 21
8.546402550944545
 31
0.0
  0
LINE
  5
6B2
330
1F
100
AcDbEntity
  8
Object
100
AcDbLine
 10
7.078457890809008
 20
9.008402550944545
 30
0.0
 11
7.078457890809008
 21
8.967402550944544
 31
0.0
  0
LINE
  5
6B3
330
1F
100
AcDbEntity
  8
Object
100
AcDbLine
 10
7.078457890809008
 20
9.066402550944545
 30
0.0
 11
7.078457890809008
 21
9.024402550944545
 31
0.0
  0
LINE
  5
6B4
330
1F
100
AcDbEntity
  8
Object
100
AcDbLine
 10
7.078457890809008
 20
9.008402550944545
 30
0.0
 11
7.062457890809008
 21
9.016402550944544
 31
0.0
  0
LINE
  5
6B5
330
1F
100
AcDbEntity
  8
Object
100
AcDbLine
 10
7.062457890809008
 20
9.016402550944544
 30
0.0
 11
7.078457890809008
 21
9.024402550944545
 31
0.0
  0
LINE
  5
6B6
330
1F
100
AcDbEntity
  8
Object
100
AcDbLine
 10
7.051457890809007
 20
9.079402550944545
 30
0.0
 11
7.078457890809008
 21
9.066402550944545
 31
0.0
  0
LINE
  5
6B7
330
1F
100
AcDbEntity
  8
Object
100
AcDbLine
 10
7.078457890809008
 20
8.967402550944544
 30
0.0
 11
7.051457890809007
 21
8.954402550944545
 31
0.0
  0
LINE
  5
6B8
330
1F
100
AcDbEntity
  8
Object
100
AcDbLine
 10
6.999457890809008
 20
9.079402550944545
 30
0.0
 11
7.051457890809007
 21
9.079402550944545
 31
0.0
  0
LINE
  5
6B9
330
1F
100
AcDbEntity
  8
Object
100
AcDbLine
 10
6.972457890809008
 20
9.024402550944545
 30
0.0
 11
6.988457890809008
 21
9.016402550944544
 31
0.0
  0
LINE
  5
6BA
330
1F
100
AcDbEntity
  8
Object
100
AcDbLine
 10
6.988457890809008
 20
9.016402550944544
 30
0.0
 11
6.972457890809008
 21
9.008402550944545
 31
0.0
  0
LINE
  5
6BB
330
1F
100
AcDbEntity
  8
Object
100
AcDbLine
 10
6.933457890809008
 20
9.020402550944544
 30
0.0
 11
6.933457890809008
 21
8.967402550944544
 31
0.0
  0
LINE
  5
6BC
330
1F
100
AcDbEntity
  8
Object
100
AcDbLine
 10
6.972457890809008
 20
9.066402550944545
 30
0.0
 11
6.999457890809008
 21
9.079402550944545
 31
0.0
  0
LINE
  5
6BD
330
1F
100
AcDbEntity
  8
Object
100
AcDbLine
 10
6.933457890809008
 20
9.079402550944545
 30
0.0
 11
6.933457890809008
 21
9.067402550944544
 31
0.0
  0
LINE
  5
6BE
330
1F
100
AcDbEntity
  8
Object
100
AcDbLine
 10
6.972457890809008
 20
9.024402550944545
 30
0.0
 11
6.972457890809008
 21
9.066402550944545
 31
0.0
  0
LINE
  5
6BF
330
1F
100
AcDbEntity
  8
Object
100
AcDbLine
 10
6.972457890809008
 20
9.008402550944545
 30
0.0
 11
6.972457890809008
 21
8.967402550944544
 31
0.0
  0
LINE
  5
6C0
330
1F
100
AcDbEntity
  8
Object
100
AcDbLine
 10
6.972457890809008
 20
8.967402550944544
 30
0.0
 11
6.999457890809008
 21
8.954402550944545
 31
0.0
  0
LINE
  5
6C1
330
1F
100
AcDbEntity
  8
Object
100
AcDbLine
 10
6.933457890809008
 20
8.967402550944544
 30
0.0
 11
6.907457890809007
 21
8.954402550944545
 31
0.0
  0
LINE
  5
6C2
330
1F
100
AcDbEntity
  8
Object
100
AcDbLine
 10
6.907457890809007
 20
9.033402550944545
 30
0.0
 11
6.933457890809008
 21
9.020402550944544
 31
0.0
  0
LINE
  5
6C3
330
1F
100
AcDbEntity
  8
Object
100
AcDbLine
 10
6.892457890809008
 20
9.021402550944545
 30
0.0
 11
6.917457890809008
 21
9.008402550944545
 31
0.0
  0
LINE
  5
6C4
330
1F
100
AcDbEntity
  8
Object
100
AcDbLine
 10
6.917457890809008
 20
9.008402550944545
 30
0.0
 11
6.917457890809008
 21
8.978402550944544
 31
0.0
  0
LINE
  5
6C5
330
1F
100
AcDbEntity
  8
Object
100
AcDbLine
 10
6.917457890809008
 20
8.978402550944544
 30
0.0
 11
6.892457890809008
 21
8.965402550944544
 31
0.0
  0
LINE
  5
6C6
330
1F
100
AcDbEntity
  8
Object
100
AcDbLine
 10
6.892457890809008
 20
8.965402550944544
 30
0.0
 11
6.870457890809007
 21
8.965402550944544
 31
0.0
  0
LINE
  5
6C7
330
1F
100
AcDbEntity
  8
Object
100
AcDbLine
 10
6.892457890809008
 20
9.021402550944545
 30
0.0
 11
6.870457890809007
 21
9.021402550944545
 31
0.0
  0
LINE
  5
6C8
330
1F
100
AcDbEntity
  8
Object
100
AcDbLine
 10
6.870457890809007
 20
8.965402550944544
 30
0.0
 11
6.843457890809007
 21
8.978402550944544
 31
0.0
  0
LINE
  5
6C9
330
1F
100
AcDbEntity
  8
Object
100
AcDbLine
 10
6.843457890809007
 20
8.978402550944544
 30
0.0
 11
6.843457890809007
 21
8.989402550944545
 31
0.0
  0
LINE
  5
6CA
330
1F
100
AcDbEntity
  8
Object
100
AcDbLine
 10
6.907457890809007
 20
9.033402550944545
 30
0.0
 11
6.854457890809007
 21
9.033402550944545
 31
0.0
  0
LINE
  5
6CB
330
1F
100
AcDbEntity
  8
Object
100
AcDbLine
 10
6.854457890809007
 20
9.033402550944545
 30
0.0
 11
6.843457890809007
 21
9.028402550944544
 31
0.0
  0
LINE
  5
6CC
330
1F
100
AcDbEntity
  8
Object
100
AcDbLine
 10
6.843457890809007
 20
9.028402550944544
 30
0.0
 11
6.843457890809007
 21
9.067402550944544
 31
0.0
  0
LINE
  5
6CD
330
1F
100
AcDbEntity
  8
Object
100
AcDbLine
 10
6.843457890809007
 20
9.067402550944544
 30
0.0
 11
6.933457890809008
 21
9.067402550944544
 31
0.0
  0
LINE
  5
6CE
330
1F
100
AcDbEntity
  8
Object
100
AcDbLine
 10
6.870457890809007
 20
9.021402550944545
 30
0.0
 11
6.843457890809007
 21
9.008402550944545
 31
0.0
  0
LINE
  5
6CF
330
1F
100
AcDbEntity
  8
Object
100
AcDbLine
 10
6.828457890809008
 20
8.989402550944545
 30
0.0
 11
6.843457890809007
 21
8.989402550944545
 31
0.0
  0
LINE
  5
6D0
330
1F
100
AcDbEntity
  8
Object
100
AcDbLine
 10
6.843457890809007
 20
9.008402550944545
 30
0.0
 11
6.828457890809008
 21
9.008402550944545
 31
0.0
  0
LINE
  5
6D1
330
1F
100
AcDbEntity
  8
Object
100
AcDbLine
 10
6.828457890809008
 20
9.079402550944545
 30
0.0
 11
6.933457890809008
 21
9.079402550944545
 31
0.0
  0
LINE
  5
6D2
330
1F
100
AcDbEntity
  8
Object
100
AcDbLine
 10
6.828457890809008
 20
8.989402550944545
 30
0.0
 11
6.828457890809008
 21
8.967402550944544
 31
0.0
  0
LINE
  5
6D3
330
1F
100
AcDbEntity
  8
Object
100
AcDbLine
 10
6.828457890809008
 20
8.967402550944544
 30
0.0
 11
6.854457890809007
 21
8.954402550944545
 31
0.0
  0
LINE
  5
6D4
330
1F
100
AcDbEntity
  8
Object
100
AcDbLine
 10
6.788457890809008
 20
9.079402550944545
 30
0.0
 11
6.788457890809008
 21
9.067402550944544
 31
0.0
  0
LINE
  5
6D5
330
1F
100
AcDbEntity
  8
Object
100
AcDbLine
 10
6.828457890809008
 20
9.008402550944545
 30
0.0
 11
6.828457890809008
 21
9.079402550944545
 31
0.0
  0
LINE
  5
6D6
330
1F
100
AcDbEntity
  8
Object
100
AcDbLine
 10
6.788457890809008
 20
8.965402550944544
 30
0.0
 11
6.788457890809008
 21
8.954402550944545
 31
0.0
  0
LINE
  5
6D7
330
1F
100
AcDbEntity
  8
Object
100
AcDbLine
 10
6.767457890809008
 20
9.011402550944545
 30
0.0
 11
6.767457890809008
 21
9.021402550944545
 31
0.0
  0
LINE
  5
6D8
330
1F
100
AcDbEntity
  8
Object
100
AcDbLine
 10
6.767457890809008
 20
9.021402550944545
 30
0.0
 11
6.711457890809008
 21
9.021402550944545
 31
0.0
  0
LINE
  5
6D9
330
1F
100
AcDbEntity
  8
Object
100
AcDbLine
 10
6.711457890809008
 20
9.021402550944545
 30
0.0
 11
6.711457890809008
 21
9.067402550944544
 31
0.0
  0
LINE
  5
6DA
330
1F
100
AcDbEntity
  8
Object
100
AcDbLine
 10
6.711457890809008
 20
9.067402550944544
 30
0.0
 11
6.788457890809008
 21
9.067402550944544
 31
0.0
  0
LINE
  5
6DB
330
1F
100
AcDbEntity
  8
Object
100
AcDbLine
 10
6.788457890809008
 20
8.965402550944544
 30
0.0
 11
6.711457890809008
 21
8.965402550944544
 31
0.0
  0
LINE
  5
6DC
330
1F
100
AcDbEntity
  8
Object
100
AcDbLine
 10
6.711457890809008
 20
8.965402550944544
 30
0.0
 11
6.711457890809008
 21
9.011402550944545
 31
0.0
  0
LINE
  5
6DD
330
1F
100
AcDbEntity
  8
Object
100
AcDbLine
 10
6.711457890809008
 20
9.011402550944545
 30
0.0
 11
6.767457890809008
 21
9.011402550944545
 31
0.0
  0
LINE
  5
6DE
330
1F
100
AcDbEntity
  8
Object
100
AcDbLine
 10
6.697457890809007
 20
9.079402550944545
 30
0.0
 11
6.788457890809008
 21
9.079402550944545
 31
0.0
  0
LINE
  5
6DF
330
1F
100
AcDbEntity
  8
Object
100
AcDbLine
 10
6.657457890809007
 20
9.015402550944545
 30
0.0
 11
6.657457890809007
 21
8.967402550944544
 31
0.0
  0
LINE
  5
6E0
330
1F
100
AcDbEntity
  8
Object
100
AcDbLine
 10
6.697457890809007
 20
8.954402550944545
 30
0.0
 11
6.697457890809007
 21
9.079402550944545
 31
0.0
  0
LINE
  5
6E1
330
1F
100
AcDbEntity
  8
Object
100
AcDbLine
 10
6.646457890809007
 20
9.067402550944544
 30
0.0
 11
6.646457890809007
 21
9.027402550944545
 31
0.0
  0
LINE
  5
6E2
330
1F
100
AcDbEntity
  8
Object
100
AcDbLine
 10
6.657457890809007
 20
9.015402550944545
 30
0.0
 11
6.644457890809007
 21
9.023402550944544
 31
0.0
  0
LINE
  5
6E3
330
1F
100
AcDbEntity
  8
Object
100
AcDbLine
 10
6.644457890809007
 20
9.023402550944544
 30
0.0
 11
6.646457890809007
 21
9.027402550944545
 31
0.0
  0
LINE
  5
6E4
330
1F
100
AcDbEntity
  8
Object
100
AcDbLine
 10
6.657457890809007
 20
8.967402550944544
 30
0.0
 11
6.637457890809008
 21
8.954402550944545
 31
0.0
  0
LINE
  5
6E5
330
1F
100
AcDbEntity
  8
Object
100
AcDbLine
 10
6.637457890809008
 20
9.079402550944545
 30
0.0
 11
6.646457890809007
 21
9.067402550944544
 31
0.0
  0
LINE
  5
6E6
330
1F
100
AcDbEntity
  8
Object
100
AcDbLine
 10
6.573457890809008
 20
8.756402550944544
 30
0.0
 11
7.831457890809008
 21
8.756402550944544
 31
0.0
  0
LINE
  5
6E7
330
1F
100
AcDbEntity
  8
Object
100
AcDbLine
 10
6.907457890809007
 20
8.954402550944545
 30
0.0
 11
6.854457890809007
 21
8.954402550944545
 31
0.0
  0
LINE
  5
6E8
330
1F
100
AcDbEntity
  8
Object
100
AcDbLine
 10
7.051457890809007
 20
8.954402550944545
 30
0.0
 11
6.999457890809008
 21
8.954402550944545
 31
0.0
  0
LINE
  5
6E9
330
1F
100
AcDbEntity
  8
Object
100
AcDbLine
 10
6.788457890809008
 20
8.954402550944545
 30
0.0
 11
6.697457890809007
 21
8.954402550944545
 31
0.0
  0
LINE
  5
6EA
330
1F
100
AcDbEntity
  8
Object
100
AcDbLine
 10
7.831457890809008
 20
8.546402550944545
 30
0.0
 11
6.573457890809008
 21
8.546402550944545
 31
0.0
  0
LINE
  5
6EB
330
1F
100
AcDbEntity
  8
Object
100
AcDbLine
 10
6.552457890809008
 20
9.079402550944545
 30
0.0
 11
6.637457890809008
 21
9.079402550944545
 31
0.0
  0
LINE
  5
6EC
330
1F
100
AcDbEntity
  8
Object
100
AcDbLine
 10
6.637457890809008
 20
8.954402550944545
 30
0.0
 11
6.552457890809008
 21
8.954402550944545
 31
0.0
  0
LINE
  5
6ED
330
1F
100
AcDbEntity
  8
Object
100
AcDbLine
 10
6.546457890809008
 20
8.753402550944544
 30
0.0
 11
6.573457890809008
 21
8.756402550944544
 31
0.0
  0
LINE
  5
6EE
330
1F
100
AcDbEntity
  8
Object
100
AcDbLine
 10
6.512457890809008
 20
9.064402550944544
 30
0.0
 11
6.512457890809008
 21
9.024402550944545
 31
0.0
  0
LINE
  5
6EF
330
1F
100
AcDbEntity
  8
Object
100
AcDbLine
 10
6.552457890809008
 20
8.954402550944545
 30
0.0
 11
6.552457890809008
 21
9.079402550944545
 31
0.0
  0
LINE
  5
6F0
330
1F
100
AcDbEntity
  8
Object
100
AcDbLine
 10
6.520457890809008
 20
8.742402550944545
 30
0.0
 11
6.546457890809008
 21
8.753402550944544
 31
0.0
  0
LINE
  5
6F1
330
1F
100
AcDbEntity
  8
Object
100
AcDbLine
 10
6.496457890809008
 20
8.954402550944545
 30
0.0
 11
6.512457890809008
 21
8.954402550944545
 31
0.0
  0
LINE
  5
6F2
330
1F
100
AcDbEntity
  8
Object
100
AcDbLine
 10
6.512457890809008
 20
8.954402550944545
 30
0.0
 11
6.491457890809008
 21
9.014402550944545
 31
0.0
  0
LINE
  5
6F3
330
1F
100
AcDbEntity
  8
Object
100
AcDbLine
 10
6.491457890809008
 20
9.014402550944545
 30
0.0
 11
6.512457890809008
 21
9.024402550944545
 31
0.0
  0
LINE
  5
6F4
330
1F
100
AcDbEntity
  8
Object
100
AcDbLine
 10
6.485457890809008
 20
9.079402550944545
 30
0.0
 11
6.512457890809008
 21
9.064402550944544
 31
0.0
  0
LINE
  5
6F5
330
1F
100
AcDbEntity
  8
Object
100
AcDbLine
 10
6.423457890809007
 20
8.954402550944545
 30
0.0
 11
6.423457890809007
 21
9.011402550944545
 31
0.0
  0
LINE
  5
6F6
330
1F
100
AcDbEntity
  8
Object
100
AcDbLine
 10
6.423457890809007
 20
9.011402550944545
 30
0.0
 11
6.475457890809008
 21
9.011402550944545
 31
0.0
  0
LINE
  5
6F7
330
1F
100
AcDbEntity
  8
Object
100
AcDbLine
 10
6.475457890809008
 20
9.011402550944545
 30
0.0
 11
6.496457890809008
 21
8.954402550944545
 31
0.0
  0
LINE
  5
6F8
330
1F
100
AcDbEntity
  8
Object
100
AcDbLine
 10
6.499457890809008
 20
8.725402550944544
 30
0.0
 11
6.520457890809008
 21
8.742402550944545
 31
0.0
  0
LINE
  5
6F9
330
1F
100
AcDbEntity
  8
Object
100
AcDbLine
 10
6.407457890809007
 20
9.079402550944545
 30
0.0
 11
6.485457890809008
 21
9.079402550944545
 31
0.0
  0
LINE
  5
6FA
330
1F
100
AcDbEntity
  8
Object
100
AcDbLine
 10
6.423457890809007
 20
8.954402550944545
 30
0.0
 11
6.407457890809007
 21
8.954402550944545
 31
0.0
  0
LINE
  5
6FB
330
1F
100
AcDbEntity
  8
Object
100
AcDbLine
 10
6.368457890809008
 20
9.079402550944545
 30
0.0
 11
6.368457890809008
 21
9.067402550944544
 31
0.0
  0
LINE
  5
6FC
330
1F
100
AcDbEntity
  8
Object
100
AcDbLine
 10
6.407457890809007
 20
8.954402550944545
 30
0.0
 11
6.407457890809007
 21
9.079402550944545
 31
0.0
  0
LINE
  5
6FD
330
1F
100
AcDbEntity
  8
Object
100
AcDbLine
 10
6.336457890809008
 20
8.954402550944545
 30
0.0
 11
6.336457890809008
 21
9.067402550944544
 31
0.0
  0
LINE
  5
6FE
330
1F
100
AcDbEntity
  8
Object
100
AcDbLine
 10
6.336457890809008
 20
9.067402550944544
 30
0.0
 11
6.368457890809008
 21
9.067402550944544
 31
0.0
  0
LINE
  5
6FF
330
1F
100
AcDbEntity
  8
Object
100
AcDbLine
 10
6.499457890809008
 20
8.725402550944544
 30
0.0
 11
6.482457890809008
 21
8.704402550944545
 31
0.0
  0
LINE
  5
700
330
1F
100
AcDbEntity
  8
Object
100
AcDbLine
 10
6.482457890809008
 20
8.704402550944545
 30
0.0
 11
6.471457890809007
 21
8.678402550944545
 31
0.0
  0
LINE
  5
701
330
1F
100
AcDbEntity
  8
Object
100
AcDbLine
 10
6.336457890809008
 20
8.954402550944545
 30
0.0
 11
6.323457890809008
 21
8.954402550944545
 31
0.0
  0
LINE
  5
702
330
1F
100
AcDbEntity
  8
Object
100
AcDbLine
 10
6.291457890809008
 20
9.079402550944545
 30
0.0
 11
6.368457890809008
 21
9.079402550944545
 31
0.0
  0
LINE
  5
703
330
1F
100
AcDbEntity
  8
Object
100
AcDbLine
 10
6.291457890809008
 20
9.067402550944544
 30
0.0
 11
6.323457890809008
 21
9.067402550944544
 31
0.0
  0
LINE
  5
704
330
1F
100
AcDbEntity
  8
Object
100
AcDbLine
 10
6.323457890809008
 20
9.067402550944544
 30
0.0
 11
6.323457890809008
 21
8.954402550944545
 31
0.0
  0
LINE
  5
705
330
1F
100
AcDbEntity
  8
Object
100
AcDbLine
 10
6.252457890809008
 20
9.079402550944545
 30
0.0
 11
6.252457890809008
 21
9.067402550944544
 31
0.0
  0
LINE
  5
706
330
1F
100
AcDbEntity
  8
Object
100
AcDbLine
 10
6.291457890809008
 20
9.067402550944544
 30
0.0
 11
6.291457890809008
 21
9.079402550944545
 31
0.0
  0
LINE
  5
707
330
1F
100
AcDbEntity
  8
Object
100
AcDbLine
 10
6.231457890809007
 20
9.021402550944545
 30
0.0
 11
6.231457890809007
 21
9.011402550944545
 31
0.0
  0
LINE
  5
708
330
1F
100
AcDbEntity
  8
Object
100
AcDbLine
 10
6.252457890809008
 20
9.067402550944544
 30
0.0
 11
6.175457890809007
 21
9.067402550944544
 31
0.0
  0
LINE
  5
709
330
1F
100
AcDbEntity
  8
Object
100
AcDbLine
 10
6.231457890809007
 20
9.021402550944545
 30
0.0
 11
6.175457890809007
 21
9.021402550944545
 31
0.0
  0
LINE
  5
70A
330
1F
100
AcDbEntity
  8
Object
100
AcDbLine
 10
6.175457890809007
 20
9.021402550944545
 30
0.0
 11
6.175457890809007
 21
9.067402550944544
 31
0.0
  0
LINE
  5
70B
330
1F
100
AcDbEntity
  8
Object
100
AcDbLine
 10
6.175457890809007
 20
8.954402550944545
 30
0.0
 11
6.175457890809007
 21
9.011402550944545
 31
0.0
  0
LINE
  5
70C
330
1F
100
AcDbEntity
  8
Object
100
AcDbLine
 10
6.175457890809007
 20
9.011402550944545
 30
0.0
 11
6.231457890809007
 21
9.011402550944545
 31
0.0
  0
LINE
  5
70D
330
1F
100
AcDbEntity
  8
Object
100
AcDbLine
 10
6.468457890809007
 20
8.651402550944544
 30
0.0
 11
6.471457890809007
 21
8.678402550944545
 31
0.0
  0
LINE
  5
70E
330
1F
100
AcDbEntity
  8
Object
100
AcDbLine
 10
6.160457890809007
 20
9.079402550944545
 30
0.0
 11
6.252457890809008
 21
9.079402550944545
 31
0.0
  0
LINE
  5
70F
330
1F
100
AcDbEntity
  8
Object
100
AcDbLine
 10
6.471457890809007
 20
8.624402550944544
 30
0.0
 11
6.468457890809007
 21
8.651402550944544
 31
0.0
  0
LINE
  5
710
330
1F
100
AcDbEntity
  8
Object
100
AcDbLine
 10
6.175457890809007
 20
8.954402550944545
 30
0.0
 11
6.160457890809007
 21
8.954402550944545
 31
0.0
  0
LINE
  5
711
330
1F
100
AcDbEntity
  8
Object
100
AcDbLine
 10
5.962457890809008
 20
9.079402550944545
 30
0.0
 11
5.962457890809008
 21
9.067402550944544
 31
0.0
  0
LINE
  5
712
330
1F
100
AcDbEntity
  8
Object
100
AcDbLine
 10
6.160457890809007
 20
8.954402550944545
 30
0.0
 11
6.160457890809007
 21
9.079402550944545
 31
0.0
  0
LINE
  5
713
330
1F
100
AcDbEntity
  8
Object
100
AcDbLine
 10
5.930457890809008
 20
8.954402550944545
 30
0.0
 11
5.930457890809008
 21
9.067402550944544
 31
0.0
  0
LINE
  5
714
330
1F
100
AcDbEntity
  8
Object
100
AcDbLine
 10
5.930457890809008
 20
9.067402550944544
 30
0.0
 11
5.962457890809008
 21
9.067402550944544
 31
0.0
  0
LINE
  5
715
330
1F
100
AcDbEntity
  8
Object
100
AcDbLine
 10
5.886457890809007
 20
9.079402550944545
 30
0.0
 11
5.962457890809008
 21
9.079402550944545
 31
0.0
  0
LINE
  5
716
330
1F
100
AcDbEntity
  8
Object
100
AcDbLine
 10
5.886457890809007
 20
9.067402550944544
 30
0.0
 11
5.917457890809007
 21
9.067402550944544
 31
0.0
  0
LINE
  5
717
330
1F
100
AcDbEntity
  8
Object
100
AcDbLine
 10
5.917457890809007
 20
9.067402550944544
 30
0.0
 11
5.917457890809007
 21
8.954402550944545
 31
0.0
  0
LINE
  5
718
330
1F
100
AcDbEntity
  8
Object
100
AcDbLine
 10
5.846457890809007
 20
8.965402550944544
 30
0.0
 11
5.846457890809007
 21
8.954402550944545
 31
0.0
  0
LINE
  5
719
330
1F
100
AcDbEntity
  8
Object
100
AcDbLine
 10
5.846457890809007
 20
9.079402550944545
 30
0.0
 11
5.846457890809007
 21
9.067402550944544
 31
0.0
  0
LINE
  5
71A
330
1F
100
AcDbEntity
  8
Object
100
AcDbLine
 10
5.886457890809007
 20
9.067402550944544
 30
0.0
 11
5.886457890809007
 21
9.079402550944545
 31
0.0
  0
LINE
  5
71B
330
1F
100
AcDbEntity
  8
Object
100
AcDbLine
 10
5.846457890809007
 20
9.067402550944544
 30
0.0
 11
5.843457890809007
 21
9.067402550944544
 31
0.0
  0
LINE
  5
71C
330
1F
100
AcDbEntity
  8
Object
100
AcDbLine
 10
5.846457890809007
 20
8.965402550944544
 30
0.0
 11
5.843457890809007
 21
8.965402550944544
 31
0.0
  0
LINE
  5
71D
330
1F
100
AcDbEntity
  8
Object
100
AcDbLine
 10
5.843457890809007
 20
8.965402550944544
 30
0.0
 11
5.843457890809007
 21
9.067402550944544
 31
0.0
  0
LINE
  5
71E
330
1F
100
AcDbEntity
  8
Object
100
AcDbLine
 10
5.834457890809008
 20
8.965402550944544
 30
0.0
 11
5.836457890809008
 21
8.965402550944544
 31
0.0
  0
LINE
  5
71F
330
1F
100
AcDbEntity
  8
Object
100
AcDbLine
 10
5.834457890809008
 20
9.067402550944544
 30
0.0
 11
5.836457890809008
 21
9.067402550944544
 31
0.0
  0
LINE
  5
720
330
1F
100
AcDbEntity
  8
Object
100
AcDbLine
 10
5.836457890809008
 20
9.067402550944544
 30
0.0
 11
5.836457890809008
 21
8.965402550944544
 31
0.0
  0
LINE
  5
721
330
1F
100
AcDbEntity
  8
Object
100
AcDbLine
 10
5.834457890809008
 20
9.079402550944545
 30
0.0
 11
5.846457890809007
 21
9.079402550944545
 31
0.0
  0
LINE
  5
722
330
1F
100
AcDbEntity
  8
Object
100
AcDbLine
 10
5.795457890809007
 20
9.079402550944545
 30
0.0
 11
5.795457890809007
 21
8.980402550944544
 31
0.0
  0
LINE
  5
723
330
1F
100
AcDbEntity
  8
Object
100
AcDbLine
 10
5.834457890809008
 20
8.954402550944545
 30
0.0
 11
5.834457890809008
 21
8.965402550944544
 31
0.0
  0
LINE
  5
724
330
1F
100
AcDbEntity
  8
Object
100
AcDbLine
 10
5.834457890809008
 20
9.067402550944544
 30
0.0
 11
5.834457890809008
 21
9.079402550944545
 31
0.0
  0
LINE
  5
725
330
1F
100
AcDbEntity
  8
Object
100
AcDbLine
 10
5.779457890809007
 20
9.079402550944545
 30
0.0
 11
5.795457890809007
 21
9.079402550944545
 31
0.0
  0
LINE
  5
726
330
1F
100
AcDbEntity
  8
Object
100
AcDbLine
 10
5.795457890809007
 20
8.980402550944544
 30
0.0
 11
5.771457890809007
 21
8.954402550944545
 31
0.0
  0
LINE
  5
727
330
1F
100
AcDbEntity
  8
Object
100
AcDbLine
 10
5.779457890809007
 20
8.988402550944545
 30
0.0
 11
5.759457890809008
 21
8.965402550944544
 31
0.0
  0
LINE
  5
728
330
1F
100
AcDbEntity
  8
Object
100
AcDbLine
 10
5.759457890809008
 20
8.965402550944544
 30
0.0
 11
5.725457890809008
 21
8.965402550944544
 31
0.0
  0
LINE
  5
729
330
1F
100
AcDbEntity
  8
Object
100
AcDbLine
 10
5.718457890809007
 20
8.651402550944544
 30
0.0
 11
5.714457890809008
 21
8.624402550944544
 31
0.0
  0
LINE
  5
72A
330
1F
100
AcDbEntity
  8
Object
100
AcDbLine
 10
6.482457890809008
 20
8.599402550944544
 30
0.0
 11
6.471457890809007
 21
8.624402550944544
 31
0.0
  0
LINE
  5
72B
330
1F
100
AcDbEntity
  8
Object
100
AcDbLine
 10
5.714457890809008
 20
8.678402550944545
 30
0.0
 11
5.718457890809007
 21
8.651402550944544
 31
0.0
  0
LINE
  5
72C
330
1F
100
AcDbEntity
  8
Object
100
AcDbLine
 10
5.930457890809008
 20
8.954402550944545
 30
0.0
 11
5.917457890809007
 21
8.954402550944545
 31
0.0
  0
LINE
  5
72D
330
1F
100
AcDbEntity
  8
Object
100
AcDbLine
 10
5.705457890809007
 20
8.988402550944545
 30
0.0
 11
5.725457890809008
 21
8.965402550944544
 31
0.0
  0
LINE
  5
72E
330
1F
100
AcDbEntity
  8
Object
100
AcDbLine
 10
5.779457890809007
 20
8.988402550944545
 30
0.0
 11
5.779457890809007
 21
9.079402550944545
 31
0.0
  0
LINE
  5
72F
330
1F
100
AcDbEntity
  8
Object
100
AcDbLine
 10
5.705457890809007
 20
9.079402550944545
 30
0.0
 11
5.705457890809007
 21
8.988402550944545
 31
0.0
  0
LINE
  5
730
330
1F
100
AcDbEntity
  8
Object
100
AcDbLine
 10
5.846457890809007
 20
8.954402550944545
 30
0.0
 11
5.834457890809008
 21
8.954402550944545
 31
0.0
  0
LINE
  5
731
330
1F
100
AcDbEntity
  8
Object
100
AcDbLine
 10
6.499457890809008
 20
8.577402550944544
 30
0.0
 11
6.482457890809008
 21
8.599402550944544
 31
0.0
  0
LINE
  5
732
330
1F
100
AcDbEntity
  8
Object
100
AcDbLine
 10
5.714457890809008
 20
8.624402550944544
 30
0.0
 11
5.704457890809008
 21
8.599402550944544
 31
0.0
  0
LINE
  5
733
330
1F
100
AcDbEntity
  8
Object
100
AcDbLine
 10
5.704457890809008
 20
8.704402550944545
 30
0.0
 11
5.714457890809008
 21
8.678402550944545
 31
0.0
  0
LINE
  5
734
330
1F
100
AcDbEntity
  8
Object
100
AcDbLine
 10
5.690457890809008
 20
9.079402550944545
 30
0.0
 11
5.705457890809007
 21
9.079402550944545
 31
0.0
  0
LINE
  5
735
330
1F
100
AcDbEntity
  8
Object
100
AcDbLine
 10
5.687457890809008
 20
8.725402550944544
 30
0.0
 11
5.704457890809008
 21
8.704402550944545
 31
0.0
  0
LINE
  5
736
330
1F
100
AcDbEntity
  8
Object
100
AcDbLine
 10
5.704457890809008
 20
8.599402550944544
 30
0.0
 11
5.687457890809008
 21
8.577402550944544
 31
0.0
  0
LINE
  5
737
330
1F
100
AcDbEntity
  8
Object
100
AcDbLine
 10
6.520457890809008
 20
8.560402550944544
 30
0.0
 11
6.499457890809008
 21
8.577402550944544
 31
0.0
  0
LINE
  5
738
330
1F
100
AcDbEntity
  8
Object
100
AcDbLine
 10
5.687457890809008
 20
8.577402550944544
 30
0.0
 11
5.665457890809007
 21
8.560402550944544
 31
0.0
  0
LINE
  5
739
330
1F
100
AcDbEntity
  8
Object
100
AcDbLine
 10
5.665457890809007
 20
8.742402550944545
 30
0.0
 11
5.687457890809008
 21
8.725402550944544
 31
0.0
  0
LINE
  5
73A
330
1F
100
AcDbEntity
  8
Object
100
AcDbLine
 10
5.771457890809007
 20
8.954402550944545
 30
0.0
 11
5.713457890809007
 21
8.954402550944545
 31
0.0
  0
LINE
  5
73B
330
1F
100
AcDbEntity
  8
Object
100
AcDbLine
 10
5.650457890809008
 20
9.047402550944545
 30
0.0
 11
5.650457890809008
 21
8.985402550944545
 31
0.0
  0
LINE
  5
73C
330
1F
100
AcDbEntity
  8
Object
100
AcDbLine
 10
5.690457890809008
 20
8.980402550944544
 30
0.0
 11
5.690457890809008
 21
9.079402550944545
 31
0.0
  0
LINE
  5
73D
330
1F
100
AcDbEntity
  8
Object
100
AcDbLine
 10
5.640457890809008
 20
8.753402550944544
 30
0.0
 11
5.665457890809007
 21
8.742402550944545
 31
0.0
  0
LINE
  5
73E
330
1F
100
AcDbEntity
  8
Object
100
AcDbLine
 10
6.546457890809008
 20
8.550402550944545
 30
0.0
 11
6.520457890809008
 21
8.560402550944544
 31
0.0
  0
LINE
  5
73F
330
1F
100
AcDbEntity
  8
Object
100
AcDbLine
 10
5.665457890809007
 20
8.560402550944544
 30
0.0
 11
5.640457890809008
 21
8.550402550944545
 31
0.0
  0
LINE
  5
740
330
1F
100
AcDbEntity
  8
Object
100
AcDbLine
 10
5.650457890809008
 20
8.985402550944545
 30
0.0
 11
5.621457890809008
 21
8.954402550944545
 31
0.0
  0
LINE
  5
741
330
1F
100
AcDbEntity
  8
Object
100
AcDbLine
 10
5.621457890809008
 20
9.079402550944545
 30
0.0
 11
5.650457890809008
 21
9.047402550944545
 31
0.0
  0
LINE
  5
742
330
1F
100
AcDbEntity
  8
Object
100
AcDbLine
 10
5.713457890809007
 20
8.954402550944545
 30
0.0
 11
5.690457890809008
 21
8.980402550944544
 31
0.0
  0
LINE
  5
743
330
1F
100
AcDbEntity
  8
Object
100
AcDbLine
 10
5.640457890809008
 20
8.550402550944545
 30
0.0
 11
5.613457890809008
 21
8.546402550944545
 31
0.0
  0
LINE
  5
744
330
1F
100
AcDbEntity
  8
Object
100
AcDbLine
 10
6.573457890809008
 20
8.546402550944545
 30
0.0
 11
6.546457890809008
 21
8.550402550944545
 31
0.0
  0
LINE
  5
745
330
1F
100
AcDbEntity
  8
Object
100
AcDbLine
 10
5.613457890809008
 20
8.756402550944544
 30
0.0
 11
5.640457890809008
 21
8.753402550944544
 31
0.0
  0
LINE
  5
746
330
1F
100
AcDbEntity
  8
Object
100
AcDbLine
 10
5.545457890809007
 20
9.079402550944545
 30
0.0
 11
5.621457890809008
 21
9.079402550944545
 31
0.0
  0
LINE
  5
747
330
1F
100
AcDbEntity
  8
Object
100
AcDbLine
 10
5.621457890809008
 20
8.954402550944545
 30
0.0
 11
5.545457890809007
 21
8.954402550944545
 31
0.0
  0
LINE
  5
748
330
1F
100
AcDbEntity
  8
Object
100
AcDbLine
 10
5.505457890809007
 20
9.079402550944545
 30
0.0
 11
5.505457890809007
 21
8.954402550944545
 31
0.0
  0
LINE
  5
749
330
1F
100
AcDbEntity
  8
Object
100
AcDbLine
 10
5.545457890809007
 20
8.954402550944545
 30
0.0
 11
5.545457890809007
 21
9.079402550944545
 31
0.0
  0
LINE
  5
74A
330
1F
100
AcDbEntity
  8
Object
100
AcDbLine
 10
5.490457890809008
 20
9.079402550944545
 30
0.0
 11
5.505457890809007
 21
9.079402550944545
 31
0.0
  0
LINE
  5
74B
330
1F
100
AcDbEntity
  8
Object
100
AcDbLine
 10
5.505457890809007
 20
8.954402550944545
 30
0.0
 11
5.490457890809008
 21
8.954402550944545
 31
0.0
  0
LINE
  5
74C
330
1F
100
AcDbEntity
  8
Object
100
AcDbLine
 10
5.490457890809008
 20
9.079402550944545
 30
0.0
 11
5.490457890809008
 21
8.982402550944545
 31
0.0
  0
LINE
  5
74D
330
1F
100
AcDbEntity
  8
Object
100
AcDbLine
 10
5.490457890809008
 20
8.982402550944545
 30
0.0
 11
5.416457890809008
 21
9.079402550944545
 31
0.0
  0
LINE
  5
74E
330
1F
100
AcDbEntity
  8
Object
100
AcDbLine
 10
5.416457890809008
 20
8.954402550944545
 30
0.0
 11
5.416457890809008
 21
9.050402550944545
 31
0.0
  0
LINE
  5
74F
330
1F
100
AcDbEntity
  8
Object
100
AcDbLine
 10
5.416457890809008
 20
9.050402550944545
 30
0.0
 11
5.490457890809008
 21
8.954402550944545
 31
0.0
  0
LINE
  5
750
330
1F
100
AcDbEntity
  8
Object
100
AcDbLine
 10
5.400457890809008
 20
9.079402550944545
 30
0.0
 11
5.416457890809008
 21
9.079402550944545
 31
0.0
  0
LINE
  5
751
330
1F
100
AcDbEntity
  8
Object
100
AcDbLine
 10
5.416457890809008
 20
8.954402550944545
 30
0.0
 11
5.400457890809008
 21
8.954402550944545
 31
0.0
  0
LINE
  5
752
330
1F
100
AcDbEntity
  8
Object
100
AcDbLine
 10
5.400457890809008
 20
8.954402550944545
 30
0.0
 11
5.400457890809008
 21
9.079402550944545
 31
0.0
  0
LINE
  5
753
330
1F
100
AcDbEntity
  8
Object
100
AcDbLine
 10
5.343457890809007
 20
8.954402550944545
 30
0.0
 11
5.360457890809008
 21
8.954402550944545
 31
0.0
  0
LINE
  5
754
330
1F
100
AcDbEntity
  8
Object
100
AcDbLine
 10
5.360457890809008
 20
8.954402550944545
 30
0.0
 11
5.316457890809007
 21
9.079402550944545
 31
0.0
  0
LINE
  5
755
330
1F
100
AcDbEntity
  8
Object
100
AcDbLine
 10
5.316457890809007
 20
9.079402550944545
 30
0.0
 11
5.299457890809008
 21
9.079402550944545
 31
0.0
  0
LINE
  5
756
330
1F
100
AcDbEntity
  8
Object
100
AcDbLine
 10
5.343457890809007
 20
8.954402550944545
 30
0.0
 11
5.335457890809007
 21
8.976402550944545
 31
0.0
  0
LINE
  5
757
330
1F
100
AcDbEntity
  8
Object
100
AcDbLine
 10
5.270457890809008
 20
8.954402550944545
 30
0.0
 11
5.278457890809008
 21
8.976402550944545
 31
0.0
  0
LINE
  5
758
330
1F
100
AcDbEntity
  8
Object
100
AcDbLine
 10
5.278457890809008
 20
8.976402550944545
 30
0.0
 11
5.335457890809007
 21
8.976402550944545
 31
0.0
  0
LINE
  5
759
330
1F
100
AcDbEntity
  8
Object
100
AcDbLine
 10
5.270457890809008
 20
8.954402550944545
 30
0.0
 11
5.253457890809007
 21
8.954402550944545
 31
0.0
  0
LINE
  5
75A
330
1F
100
AcDbEntity
  8
Object
100
AcDbLine
 10
5.213457890809007
 20
9.064402550944544
 30
0.0
 11
5.213457890809007
 21
9.024402550944545
 31
0.0
  0
LINE
  5
75B
330
1F
100
AcDbEntity
  8
Object
100
AcDbLine
 10
5.253457890809007
 20
8.954402550944545
 30
0.0
 11
5.299457890809008
 21
9.079402550944545
 31
0.0
  0
LINE
  5
75C
330
1F
100
AcDbEntity
  8
Object
100
AcDbLine
 10
5.213457890809007
 20
9.024402550944545
 30
0.0
 11
5.186457890809007
 21
9.011402550944545
 31
0.0
  0
LINE
  5
75D
330
1F
100
AcDbEntity
  8
Object
100
AcDbLine
 10
5.186457890809007
 20
9.079402550944545
 30
0.0
 11
5.213457890809007
 21
9.064402550944544
 31
0.0
  0
LINE
  5
75E
330
1F
100
AcDbEntity
  8
Object
100
AcDbLine
 10
5.124457890809008
 20
8.954402550944545
 30
0.0
 11
5.124457890809008
 21
9.011402550944545
 31
0.0
  0
LINE
  5
75F
330
1F
100
AcDbEntity
  8
Object
100
AcDbLine
 10
5.124457890809008
 20
9.011402550944545
 30
0.0
 11
5.186457890809007
 21
9.011402550944545
 31
0.0
  0
LINE
  5
760
330
1F
100
AcDbEntity
  8
Object
100
AcDbLine
 10
5.124457890809008
 20
8.954402550944545
 30
0.0
 11
5.108457890809008
 21
8.954402550944545
 31
0.0
  0
LINE
  5
761
330
1F
100
AcDbEntity
  8
Object
100
AcDbLine
 10
5.108457890809008
 20
8.954402550944545
 30
0.0
 11
5.108457890809008
 21
9.079402550944545
 31
0.0
  0
LINE
  5
762
330
1F
100
AcDbEntity
  8
Object
100
AcDbLine
 10
4.354457890809007
 20
8.756402550944544
 30
0.0
 11
5.613457890809008
 21
8.756402550944544
 31
0.0
  0
LINE
  5
763
330
1F
100
AcDbEntity
  8
Object
100
AcDbLine
 10
3.620457890809008
 20
8.026402550944544
 30
0.0
 11
8.061457890809007
 21
8.026402550944544
 31
0.0
  0
LINE
  5
764
330
1F
100
AcDbEntity
  8
Object
100
AcDbLine
 10
4.263457890809007
 20
8.599402550944544
 30
0.0
 11
4.280457890809008
 21
8.577402550944544
 31
0.0
  0
LINE
  5
765
330
1F
100
AcDbEntity
  8
Object
100
AcDbLine
 10
4.280457890809008
 20
8.577402550944544
 30
0.0
 11
4.302457890809007
 21
8.560402550944544
 31
0.0
  0
LINE
  5
766
330
1F
100
AcDbEntity
  8
Object
100
AcDbLine
 10
4.302457890809007
 20
8.560402550944544
 30
0.0
 11
4.327457890809007
 21
8.550402550944545
 31
0.0
  0
LINE
  5
767
330
1F
100
AcDbEntity
  8
Object
100
AcDbLine
 10
4.327457890809007
 20
8.550402550944545
 30
0.0
 11
4.354457890809007
 21
8.546402550944545
 31
0.0
  0
LINE
  5
768
330
1F
100
AcDbEntity
  8
Object
100
AcDbLine
 10
4.354457890809007
 20
8.546402550944545
 30
0.0
 11
5.613457890809008
 21
8.546402550944545
 31
0.0
  0
LINE
  5
769
330
1F
100
AcDbEntity
  8
Object
100
AcDbLine
 10
3.620457890809008
 20
8.026402550944544
 30
0.0
 11
3.602457890809008
 21
8.029402550944544
 31
0.0
  0
LINE
  5
76A
330
1F
100
AcDbEntity
  8
Object
100
AcDbLine
 10
3.602457890809008
 20
8.029402550944544
 30
0.0
 11
3.587457890809007
 21
8.040402550944545
 31
0.0
  0
LINE
  5
76B
330
1F
100
AcDbEntity
  8
Object
100
AcDbLine
 10
3.587457890809007
 20
8.040402550944545
 30
0.0
 11
3.577457890809007
 21
8.055402550944544
 31
0.0
  0
LINE
  5
76C
330
1F
100
AcDbEntity
  8
Object
100
AcDbLine
 10
4.249457890809008
 20
8.651402550944544
 30
0.0
 11
4.253457890809007
 21
8.624402550944544
 31
0.0
  0
LINE
  5
76D
330
1F
100
AcDbEntity
  8
Object
100
AcDbLine
 10
4.253457890809007
 20
8.624402550944544
 30
0.0
 11
4.263457890809007
 21
8.599402550944544
 31
0.0
  0
LINE
  5
76E
330
1F
100
AcDbEntity
  8
Object
100
AcDbLine
 10
3.577457890809007
 20
8.055402550944544
 30
0.0
 11
3.573457890809008
 21
8.073402550944544
 31
0.0
  0
LINE
  5
76F
330
1F
100
AcDbEntity
  8
Object
100
AcDbLine
 10
3.573457890809008
 20
8.073402550944544
 30
0.0
 11
3.573457890809008
 21
8.651402550944544
 31
0.0
  0
LINE
  5
770
330
1F
100
AcDbEntity
  8
Object
100
AcDbLine
 10
4.249457890809008
 20
8.651402550944544
 30
0.0
 11
4.253457890809007
 21
8.678402550944545
 31
0.0
  0
LINE
  5
771
330
1F
100
AcDbEntity
  8
Object
100
AcDbLine
 10
3.573457890809008
 20
8.651402550944544
 30
0.0
 11
3.570457890809008
 21
8.700402550944545
 31
0.0
  0
LINE
  5
772
330
1F
100
AcDbEntity
  8
Object
100
AcDbLine
 10
3.570457890809008
 20
8.700402550944545
 30
0.0
 11
3.559457890809008
 21
8.747402550944544
 31
0.0
  0
LINE
  5
773
330
1F
100
AcDbEntity
  8
Object
100
AcDbLine
 10
4.253457890809007
 20
8.678402550944545
 30
0.0
 11
4.263457890809007
 21
8.704402550944545
 31
0.0
  0
LINE
  5
774
330
1F
100
AcDbEntity
  8
Object
100
AcDbLine
 10
4.263457890809007
 20
8.704402550944545
 30
0.0
 11
4.280457890809008
 21
8.725402550944544
 31
0.0
  0
LINE
  5
775
330
1F
100
AcDbEntity
  8
Object
100
AcDbLine
 10
3.559457890809008
 20
8.747402550944544
 30
0.0
 11
3.541457890809008
 21
8.792402550944544
 31
0.0
  0
LINE
  5
776
330
1F
100
AcDbEntity
  8
Object
100
AcDbLine
 10
3.541457890809008
 20
8.792402550944544
 30
0.0
 11
3.517457890809007
 21
8.834402550944544
 31
0.0
  0
LINE
  5
777
330
1F
100
AcDbEntity
  8
Object
100
AcDbLine
 10
4.280457890809008
 20
8.725402550944544
 30
0.0
 11
4.302457890809007
 21
8.742402550944545
 31
0.0
  0
LINE
  5
778
330
1F
100
AcDbEntity
  8
Object
100
AcDbLine
 10
3.517457890809007
 20
8.834402550944544
 30
0.0
 11
3.486457890809008
 21
8.872402550944544
 31
0.0
  0
LINE
  5
779
330
1F
100
AcDbEntity
  8
Object
100
AcDbLine
 10
3.486457890809008
 20
8.872402550944544
 30
0.0
 11
3.451457890809008
 21
8.905402550944545
 31
0.0
  0
LINE
  5
77A
330
1F
100
AcDbEntity
  8
Object
100
AcDbLine
 10
4.302457890809007
 20
8.742402550944545
 30
0.0
 11
4.327457890809007
 21
8.753402550944544
 31
0.0
  0
LINE
  5
77B
330
1F
100
AcDbEntity
  8
Object
100
AcDbLine
 10
4.327457890809007
 20
8.753402550944544
 30
0.0
 11
4.354457890809007
 21
8.756402550944544
 31
0.0
  0
LINE
  5
77C
330
1F
100
AcDbEntity
  8
Object
100
AcDbLine
 10
3.451457890809008
 20
8.905402550944545
 30
0.0
 11
3.411457890809007
 21
8.933402550944544
 31
0.0
  0
LINE
  5
77D
330
1F
100
AcDbEntity
  8
Object
100
AcDbLine
 10
3.411457890809007
 20
8.933402550944544
 30
0.0
 11
3.367457890809008
 21
8.954402550944545
 31
0.0
  0
LINE
  5
77E
330
1F
100
AcDbEntity
  8
Object
100
AcDbLine
 10
3.367457890809008
 20
8.954402550944545
 30
0.0
 11
3.321457890809007
 21
8.968402550944544
 31
0.0
  0
LINE
  5
77F
330
1F
100
AcDbEntity
  8
Object
100
AcDbLine
 10
2.923457890809007
 20
8.073402550944544
 30
0.0
 11
2.920457890809007
 21
8.055402550944544
 31
0.0
  0
LINE
  5
780
330
1F
100
AcDbEntity
  8
Object
100
AcDbLine
 10
2.920457890809007
 20
8.055402550944544
 30
0.0
 11
2.909457890809008
 21
8.040402550944545
 31
0.0
  0
LINE
  5
781
330
1F
100
AcDbEntity
  8
Object
100
AcDbLine
 10
2.909457890809008
 20
8.040402550944545
 30
0.0
 11
2.894457890809007
 21
8.029402550944544
 31
0.0
  0
LINE
  5
782
330
1F
100
AcDbEntity
  8
Object
100
AcDbLine
 10
2.894457890809007
 20
8.029402550944544
 30
0.0
 11
2.876457890809009
 21
8.026402550944544
 31
0.0
  0
LINE
  5
783
330
1F
100
AcDbEntity
  8
Object
100
AcDbLine
 10
3.321457890809007
 20
8.968402550944544
 30
0.0
 11
3.272457890809008
 21
8.975402550944544
 31
0.0
  0
LINE
  5
784
330
1F
100
AcDbEntity
  8
Object
100
AcDbLine
 10
3.272457890809008
 20
8.975402550944544
 30
0.0
 11
3.224457890809008
 21
8.975402550944544
 31
0.0
  0
LINE
  5
785
330
1F
100
AcDbEntity
  8
Object
100
AcDbLine
 10
3.224457890809008
 20
8.975402550944544
 30
0.0
 11
3.176457890809007
 21
8.968402550944544
 31
0.0
  0
LINE
  5
786
330
1F
100
AcDbEntity
  8
Object
100
AcDbLine
 10
3.176457890809007
 20
8.968402550944544
 30
0.0
 11
3.129457890809007
 21
8.954402550944545
 31
0.0
  0
LINE
  5
787
330
1F
100
AcDbEntity
  8
Object
100
AcDbLine
 10
3.129457890809007
 20
8.954402550944545
 30
0.0
 11
3.086457890809008
 21
8.933402550944544
 31
0.0
  0
LINE
  5
788
330
1F
100
AcDbEntity
  8
Object
100
AcDbLine
 10
3.086457890809008
 20
8.933402550944544
 30
0.0
 11
3.046457890809007
 21
8.905402550944545
 31
0.0
  0
LINE
  5
789
330
1F
100
AcDbEntity
  8
Object
100
AcDbLine
 10
3.046457890809007
 20
8.905402550944545
 30
0.0
 11
3.010457890809007
 21
8.872402550944544
 31
0.0
  0
LINE
  5
78A
330
1F
100
AcDbEntity
  8
Object
100
AcDbLine
 10
8.061457890809007
 20
9.276402550944544
 30
0.0
 11
2.435457890809008
 21
9.276402550944544
 31
0.0
  0
LINE
  5
78B
330
1F
100
AcDbEntity
  8
Object
100
AcDbLine
 10
5.108457890809008
 20
9.079402550944545
 30
0.0
 11
5.186457890809007
 21
9.079402550944545
 31
0.0
  0
LINE
  5
78C
330
1F
100
AcDbEntity
  8
Object
100
AcDbLine
 10
3.010457890809007
 20
8.872402550944544
 30
0.0
 11
2.980457890809008
 21
8.834402550944544
 31
0.0
  0
LINE
  5
78D
330
1F
100
AcDbEntity
  8
Object
100
AcDbLine
 10
2.980457890809008
 20
8.834402550944544
 30
0.0
 11
2.955457890809007
 21
8.792402550944544
 31
0.0
  0
LINE
  5
78E
330
1F
100
AcDbEntity
  8
Object
100
AcDbLine
 10
2.435457890809008
 20
8.026402550944544
 30
0.0
 11
2.876457890809009
 21
8.026402550944544
 31
0.0
  0
LINE
  5
78F
330
1F
100
AcDbEntity
  8
Object
100
AcDbLine
 10
2.923457890809007
 20
8.073402550944544
 30
0.0
 11
2.923457890809007
 21
8.651402550944544
 31
0.0
  0
LINE
  5
790
330
1F
100
AcDbEntity
  8
Object
100
AcDbLine
 10
2.955457890809007
 20
8.792402550944544
 30
0.0
 11
2.938457890809008
 21
8.747402550944544
 31
0.0
  0
LINE
  5
791
330
1F
100
AcDbEntity
  8
Object
100
AcDbLine
 10
2.938457890809008
 20
8.747402550944544
 30
0.0
 11
2.927457890809007
 21
8.700402550944545
 31
0.0
  0
LINE
  5
792
330
1F
100
AcDbEntity
  8
Object
100
AcDbLine
 10
2.927457890809007
 20
8.700402550944545
 30
0.0
 11
2.923457890809007
 21
8.651402550944544
 31
0.0
  0
LINE
  5
793
330
1F
100
AcDbEntity
  8
Object
100
AcDbLine
 10
2.435457890809008
 20
9.276402550944544
 30
0.0
 11
2.248457890809008
 21
9.089402550944544
 31
0.0
  0
LINE
  5
794
330
1F
100
AcDbEntity
  8
Object
100
AcDbLine
 10
2.248457890809008
 20
9.089402550944544
 30
0.0
 11
2.248457890809008
 21
8.213402550944545
 31
0.0
  0
LINE
  5
795
330
1F
100
AcDbEntity
  8
Object
100
AcDbLine
 10
2.248457890809008
 20
8.213402550944545
 30
0.0
 11
2.435457890809008
 21
8.026402550944544
 31
0.0
  0
LINE
  5
796
330
1F
100
AcDbEntity
  8
Object
100
AcDbLine
 10
6.972457890809008
 20
8.967402550944544
 30
0.0
 11
6.972457890809008
 21
9.008402550944545
 31
0.0
  0
LINE
  5
797
330
1F
100
AcDbEntity
  8
Object
100
AcDbLine
 10
7.051457890809007
 20
8.954402550944545
 30
0.0
 11
6.999457890809008
 21
8.954402550944545
 31
0.0
  0
LINE
  5
798
330
1F
100
AcDbEntity
  8
Object
100
AcDbLine
 10
8.061457890809007
 20
9.276402550944544
 30
0.0
 11
2.435457890809008
 21
9.276402550944544
 31
0.0
  0
LINE
  5
799
330
1F
100
AcDbEntity
  8
Object
100
AcDbLine
 10
5.343457890809007
 20
8.954402550944545
 30
0.0
 11
5.335457890809007
 21
8.976402550944545
 31
0.0
  0
LINE
  5
79A
330
1F
100
AcDbEntity
  8
Object
100
AcDbLine
 10
5.490457890809008
 20
8.982402550944545
 30
0.0
 11
5.490457890809008
 21
9.079402550944545
 31
0.0
  0
LINE
  5
79B
330
1F
100
AcDbEntity
  8
Object
100
AcDbLine
 10
5.650457890809008
 20
9.047402550944545
 30
0.0
 11
5.650457890809008
 21
8.985402550944545
 31
0.0
  0
LINE
  5
79C
330
1F
100
AcDbEntity
  8
Object
100
AcDbLine
 10
5.759457890809008
 20
8.965402550944544
 30
0.0
 11
5.779457890809007
 21
8.988402550944545
 31
0.0
  0
LINE
  5
79D
330
1F
100
AcDbEntity
  8
Object
100
AcDbLine
 10
5.843457890809007
 20
8.965402550944544
 30
0.0
 11
5.846457890809007
 21
8.965402550944544
 31
0.0
  0
LINE
  5
79E
330
1F
100
AcDbEntity
  8
Object
100
AcDbLine
 10
6.644457890809007
 20
9.023402550944544
 30
0.0
 11
6.657457890809007
 21
9.015402550944545
 31
0.0
  0
LINE
  5
79F
330
1F
100
AcDbEntity
  8
Object
100
AcDbLine
 10
6.637457890809008
 20
8.954402550944545
 30
0.0
 11
6.552457890809008
 21
8.954402550944545
 31
0.0
  0
LINE
  5
7A0
330
1F
100
AcDbEntity
  8
Object
100
AcDbLine
 10
6.933457890809008
 20
9.020402550944544
 30
0.0
 11
6.933457890809008
 21
8.967402550944544
 31
0.0
  0
LINE
  5
7A1
330
1F
100
AcDbEntity
  8
Object
100
AcDbLine
 10
6.917457890809008
 20
9.008402550944545
 30
0.0
 11
6.892457890809008
 21
9.021402550944545
 31
0.0
  0
LINE
  5
7A2
330
1F
100
AcDbEntity
  8
Object
100
AcDbLine
 10
7.936457890809007
 20
8.651402550944544
 30
0.0
 11
7.933457890809007
 21
8.678402550944545
 31
0.0
  0
LINE
  5
7A3
330
1F
100
AcDbEntity
  8
Object
100
AcDbLine
 10
7.933457890809007
 20
8.678402550944545
 30
0.0
 11
7.922457890809008
 21
8.704402550944545
 31
0.0
  0
LINE
  5
7A4
330
1F
100
AcDbEntity
  8
Object
100
AcDbLine
 10
7.922457890809008
 20
8.704402550944545
 30
0.0
 11
7.906457890809008
 21
8.725402550944544
 31
0.0
  0
LINE
  5
7A5
330
1F
100
AcDbEntity
  8
Object
100
AcDbLine
 10
7.906457890809008
 20
8.725402550944544
 30
0.0
 11
7.884457890809008
 21
8.742402550944545
 31
0.0
  0
LINE
  5
7A6
330
1F
100
AcDbEntity
  8
Object
100
AcDbLine
 10
7.884457890809008
 20
8.742402550944545
 30
0.0
 11
7.859457890809007
 21
8.753402550944544
 31
0.0
  0
LINE
  5
7A7
330
1F
100
AcDbEntity
  8
Object
100
AcDbLine
 10
7.859457890809007
 20
8.753402550944544
 30
0.0
 11
7.831457890809008
 21
8.756402550944544
 31
0.0
  0
LINE
  5
7A8
330
1F
100
AcDbEntity
  8
Object
100
AcDbLine
 10
7.831457890809008
 20
8.546402550944545
 30
0.0
 11
6.573457890809008
 21
8.546402550944545
 31
0.0
  0
LINE
  5
7A9
330
1F
100
AcDbEntity
  8
Object
100
AcDbLine
 10
8.061457890809007
 20
9.276402550944544
 30
0.0
 11
8.248457890809008
 21
9.089402550944544
 31
0.0
  0
LINE
  5
7AA
330
1F
100
AcDbEntity
  8
Object
100
AcDbLine
 10
8.248457890809008
 20
9.089402550944544
 30
0.0
 11
8.248457890809008
 21
8.213402550944545
 31
0.0
  0
LINE
  5
7AB
330
1F
100
AcDbEntity
  8
Object
100
AcDbLine
 10
5.278457890809008
 20
8.976402550944545
 30
0.0
 11
5.270457890809008
 21
8.954402550944545
 31
0.0
  0
LINE
  5
7AC
330
1F
100
AcDbEntity
  8
Object
100
AcDbLine
 10
5.505457890809007
 20
8.954402550944545
 30
0.0
 11
5.490457890809008
 21
8.954402550944545
 31
0.0
  0
LINE
  5
7AD
330
1F
100
AcDbEntity
  8
Object
100
AcDbLine
 10
5.834457890809008
 20
8.954402550944545
 30
0.0
 11
5.834457890809008
 21
8.965402550944544
 31
0.0
  0
LINE
  5
7AE
330
1F
100
AcDbEntity
  8
Object
100
AcDbLine
 10
6.988457890809008
 20
9.016402550944544
 30
0.0
 11
6.972457890809008
 21
9.024402550944545
 31
0.0
  0
LINE
  5
7AF
330
1F
100
AcDbEntity
  8
Object
100
AcDbLine
 10
6.711457890809008
 20
9.067402550944544
 30
0.0
 11
6.711457890809008
 21
9.021402550944545
 31
0.0
  0
LINE
  5
7B0
330
1F
100
AcDbEntity
  8
Object
100
AcDbLine
 10
8.061457890809007
 20
8.026402550944544
 30
0.0
 11
8.248457890809008
 21
8.213402550944545
 31
0.0
  0
LINE
  5
7B1
330
1F
100
AcDbEntity
  8
Object
100
AcDbLine
 10
5.124457890809008
 20
9.011402550944545
 30
0.0
 11
5.124457890809008
 21
8.954402550944545
 31
0.0
  0
LINE
  5
7B2
330
1F
100
AcDbEntity
  8
Object
100
AcDbLine
 10
5.299457890809008
 20
9.079402550944545
 30
0.0
 11
5.316457890809007
 21
9.079402550944545
 31
0.0
  0
LINE
  5
7B3
330
1F
100
AcDbEntity
  8
Object
100
AcDbLine
 10
5.416457890809008
 20
8.954402550944545
 30
0.0
 11
5.400457890809008
 21
8.954402550944545
 31
0.0
  0
LINE
  5
7B4
330
1F
100
AcDbEntity
  8
Object
100
AcDbLine
 10
6.160457890809007
 20
8.954402550944545
 30
0.0
 11
6.160457890809007
 21
9.079402550944545
 31
0.0
  0
LINE
  5
7B5
330
1F
100
AcDbEntity
  8
Object
100
AcDbLine
 10
6.552457890809008
 20
9.079402550944545
 30
0.0
 11
6.637457890809008
 21
9.079402550944545
 31
0.0
  0
LINE
  5
7B6
330
1F
100
AcDbEntity
  8
Object
100
AcDbLine
 10
6.870457890809007
 20
8.965402550944544
 30
0.0
 11
6.892457890809008
 21
8.965402550944544
 31
0.0
  0
LINE
  5
7B7
330
1F
100
AcDbEntity
  8
Object
100
AcDbLine
 10
6.828457890809008
 20
8.989402550944545
 30
0.0
 11
6.843457890809007
 21
8.989402550944545
 31
0.0
  0
LINE
  5
7B8
330
1F
100
AcDbEntity
  8
Object
100
AcDbLine
 10
6.843457890809007
 20
9.067402550944544
 30
0.0
 11
6.843457890809007
 21
9.028402550944544
 31
0.0
  0
LINE
  5
7B9
330
1F
100
AcDbEntity
  8
Object
100
AcDbLine
 10
7.936457890809007
 20
8.651402550944544
 30
0.0
 11
7.933457890809007
 21
8.624402550944544
 31
0.0
  0
LINE
  5
7BA
330
1F
100
AcDbEntity
  8
Object
100
AcDbLine
 10
7.933457890809007
 20
8.624402550944544
 30
0.0
 11
7.922457890809008
 21
8.599402550944544
 31
0.0
  0
LINE
  5
7BB
330
1F
100
AcDbEntity
  8
Object
100
AcDbLine
 10
7.922457890809008
 20
8.599402550944544
 30
0.0
 11
7.906457890809008
 21
8.577402550944544
 31
0.0
  0
LINE
  5
7BC
330
1F
100
AcDbEntity
  8
Object
100
AcDbLine
 10
7.906457890809008
 20
8.577402550944544
 30
0.0
 11
7.884457890809008
 21
8.560402550944544
 31
0.0
  0
LINE
  5
7BD
330
1F
100
AcDbEntity
  8
Object
100
AcDbLine
 10
7.884457890809008
 20
8.560402550944544
 30
0.0
 11
7.859457890809007
 21
8.550402550944545
 31
0.0
  0
LINE
  5
7BE
330
1F
100
AcDbEntity
  8
Object
100
AcDbLine
 10
7.859457890809007
 20
8.550402550944545
 30
0.0
 11
7.831457890809008
 21
8.546402550944545
 31
0.0
  0
LINE
  5
7BF
330
1F
100
AcDbEntity
  8
Object
100
AcDbLine
 10
5.613457890809008
 20
8.546402550944545
 30
0.0
 11
4.354457890809007
 21
8.546402550944545
 31
0.0
  0
LINE
  5
7C0
330
1F
100
AcDbEntity
  8
Object
100
AcDbLine
 10
5.416457890809008
 20
9.079402550944545
 30
0.0
 11
5.490457890809008
 21
8.982402550944545
 31
0.0
  0
LINE
  5
7C1
330
1F
100
AcDbEntity
  8
Object
100
AcDbLine
 10
5.621457890809008
 20
8.954402550944545
 30
0.0
 11
5.545457890809007
 21
8.954402550944545
 31
0.0
  0
LINE
  5
7C2
330
1F
100
AcDbEntity
  8
Object
100
AcDbLine
 10
5.621457890809008
 20
9.079402550944545
 30
0.0
 11
5.650457890809008
 21
9.047402550944545
 31
0.0
  0
LINE
  5
7C3
330
1F
100
AcDbEntity
  8
Object
100
AcDbLine
 10
5.705457890809007
 20
8.988402550944545
 30
0.0
 11
5.725457890809008
 21
8.965402550944544
 31
0.0
  0
LINE
  5
7C4
330
1F
100
AcDbEntity
  8
Object
100
AcDbLine
 10
6.252457890809008
 20
9.079402550944545
 30
0.0
 11
6.252457890809008
 21
9.067402550944544
 31
0.0
  0
LINE
  5
7C5
330
1F
100
AcDbEntity
  8
Object
100
AcDbLine
 10
6.323457890809008
 20
8.954402550944545
 30
0.0
 11
6.323457890809008
 21
9.067402550944544
 31
0.0
  0
LINE
  5
7C6
330
1F
100
AcDbEntity
  8
Object
100
AcDbLine
 10
6.657457890809007
 20
8.967402550944544
 30
0.0
 11
6.637457890809008
 21
8.954402550944545
 31
0.0
  0
LINE
  5
7C7
330
1F
100
AcDbEntity
  8
Object
100
AcDbLine
 10
6.646457890809007
 20
9.027402550944545
 30
0.0
 11
6.644457890809007
 21
9.023402550944544
 31
0.0
  0
LINE
  5
7C8
330
1F
100
AcDbEntity
  8
Object
100
AcDbLine
 10
6.907457890809007
 20
9.033402550944545
 30
0.0
 11
6.933457890809008
 21
9.020402550944544
 31
0.0
  0
LINE
  5
7C9
330
1F
100
AcDbEntity
  8
Object
100
AcDbLine
 10
2.248457890809008
 20
9.089402550944544
 30
0.0
 11
2.248457890809008
 21
8.213402550944545
 31
0.0
  0
LINE
  5
7CA
330
1F
100
AcDbEntity
  8
Object
100
AcDbLine
 10
4.354457890809007
 20
8.756402550944544
 30
0.0
 11
5.613457890809008
 21
8.756402550944544
 31
0.0
  0
LINE
  5
7CB
330
1F
100
AcDbEntity
  8
Object
100
AcDbLine
 10
5.253457890809007
 20
8.954402550944545
 30
0.0
 11
5.299457890809008
 21
9.079402550944545
 31
0.0
  0
LINE
  5
7CC
330
1F
100
AcDbEntity
  8
Object
100
AcDbLine
 10
5.335457890809007
 20
8.976402550944545
 30
0.0
 11
5.278457890809008
 21
8.976402550944545
 31
0.0
  0
LINE
  5
7CD
330
1F
100
AcDbEntity
  8
Object
100
AcDbLine
 10
5.505457890809007
 20
9.079402550944545
 30
0.0
 11
5.505457890809007
 21
8.954402550944545
 31
0.0
  0
LINE
  5
7CE
330
1F
100
AcDbEntity
  8
Object
100
AcDbLine
 10
5.795457890809007
 20
8.980402550944544
 30
0.0
 11
5.771457890809007
 21
8.954402550944545
 31
0.0
  0
LINE
  5
7CF
330
1F
100
AcDbEntity
  8
Object
100
AcDbLine
 10
5.917457890809007
 20
8.954402550944545
 30
0.0
 11
5.917457890809007
 21
9.067402550944544
 31
0.0
  0
LINE
  5
7D0
330
1F
100
AcDbEntity
  8
Object
100
AcDbLine
 10
6.175457890809007
 20
9.021402550944545
 30
0.0
 11
6.231457890809007
 21
9.021402550944545
 31
0.0
  0
LINE
  5
7D1
330
1F
100
AcDbEntity
  8
Object
100
AcDbLine
 10
6.175457890809007
 20
9.011402550944545
 30
0.0
 11
6.175457890809007
 21
8.954402550944545
 31
0.0
  0
LINE
  5
7D2
330
1F
100
AcDbEntity
  8
Object
100
AcDbLine
 10
6.368457890809008
 20
9.067402550944544
 30
0.0
 11
6.336457890809008
 21
9.067402550944544
 31
0.0
  0
LINE
  5
7D3
330
1F
100
AcDbEntity
  8
Object
100
AcDbLine
 10
6.907457890809007
 20
8.954402550944545
 30
0.0
 11
6.854457890809007
 21
8.954402550944545
 31
0.0
  0
LINE
  5
7D4
330
1F
100
AcDbEntity
  8
Object
100
AcDbLine
 10
6.870457890809007
 20
9.021402550944545
 30
0.0
 11
6.843457890809007
 21
9.008402550944545
 31
0.0
  0
LINE
  5
7D5
330
1F
100
AcDbEntity
  8
Object
100
AcDbLine
 10
6.917457890809008
 20
8.978402550944544
 30
0.0
 11
6.917457890809008
 21
9.008402550944545
 31
0.0
  0
LINE
  5
7D6
330
1F
100
AcDbEntity
  8
Object
100
AcDbLine
 10
6.972457890809008
 20
9.008402550944545
 30
0.0
 11
6.988457890809008
 21
9.016402550944544
 31
0.0
  0
LINE
  5
7D7
330
1F
100
AcDbEntity
  8
Object
100
AcDbLine
 10
6.711457890809008
 20
9.011402550944545
 30
0.0
 11
6.711457890809008
 21
8.965402550944544
 31
0.0
  0
LINE
  5
7D8
330
1F
100
AcDbEntity
  8
Object
100
AcDbLine
 10
5.360457890809008
 20
8.954402550944545
 30
0.0
 11
5.343457890809007
 21
8.954402550944545
 31
0.0
  0
LINE
  5
7D9
330
1F
100
AcDbEntity
  8
Object
100
AcDbLine
 10
5.690457890809008
 20
8.980402550944544
 30
0.0
 11
5.690457890809008
 21
9.079402550944545
 31
0.0
  0
LINE
  5
7DA
330
1F
100
AcDbEntity
  8
Object
100
AcDbLine
 10
5.886457890809007
 20
9.079402550944545
 30
0.0
 11
5.962457890809008
 21
9.079402550944545
 31
0.0
  0
LINE
  5
7DB
330
1F
100
AcDbEntity
  8
Object
100
AcDbLine
 10
5.930457890809008
 20
9.067402550944544
 30
0.0
 11
5.930457890809008
 21
8.954402550944545
 31
0.0
  0
LINE
  5
7DC
330
1F
100
AcDbEntity
  8
Object
100
AcDbLine
 10
6.175457890809007
 20
8.954402550944545
 30
0.0
 11
6.160457890809007
 21
8.954402550944545
 31
0.0
  0
LINE
  5
7DD
330
1F
100
AcDbEntity
  8
Object
100
AcDbLine
 10
6.843457890809007
 20
8.978402550944544
 30
0.0
 11
6.870457890809007
 21
8.965402550944544
 31
0.0
  0
LINE
  5
7DE
330
1F
100
AcDbEntity
  8
Object
100
AcDbLine
 10
6.828457890809008
 20
8.967402550944544
 30
0.0
 11
6.828457890809008
 21
8.989402550944545
 31
0.0
  0
LINE
  5
7DF
330
1F
100
AcDbEntity
  8
Object
100
AcDbLine
 10
7.078457890809008
 20
9.066402550944545
 30
0.0
 11
7.078457890809008
 21
9.024402550944545
 31
0.0
  0
LINE
  5
7E0
330
1F
100
AcDbEntity
  8
Object
100
AcDbLine
 10
6.972457890809008
 20
9.066402550944545
 30
0.0
 11
6.999457890809008
 21
9.079402550944545
 31
0.0
  0
LINE
  5
7E1
330
1F
100
AcDbEntity
  8
Object
100
AcDbLine
 10
6.336457890809008
 20
8.954402550944545
 30
0.0
 11
6.323457890809008
 21
8.954402550944545
 31
0.0
  0
LINE
  5
7E2
330
1F
100
AcDbEntity
  8
Object
100
AcDbLine
 10
6.291457890809008
 20
9.067402550944544
 30
0.0
 11
6.291457890809008
 21
9.079402550944545
 31
0.0
  0
LINE
  5
7E3
330
1F
100
AcDbEntity
  8
Object
100
AcDbLine
 10
6.657457890809007
 20
9.015402550944545
 30
0.0
 11
6.657457890809007
 21
8.967402550944544
 31
0.0
  0
LINE
  5
7E4
330
1F
100
AcDbEntity
  8
Object
100
AcDbLine
 10
6.646457890809007
 20
9.067402550944544
 30
0.0
 11
6.646457890809007
 21
9.027402550944545
 31
0.0
  0
LINE
  5
7E5
330
1F
100
AcDbEntity
  8
Object
100
AcDbLine
 10
6.892457890809008
 20
9.021402550944545
 30
0.0
 11
6.870457890809007
 21
9.021402550944545
 31
0.0
  0
LINE
  5
7E6
330
1F
100
AcDbEntity
  8
Object
100
AcDbLine
 10
2.923457890809007
 20
8.073402550944544
 30
0.0
 11
2.920457890809007
 21
8.055402550944544
 31
0.0
  0
LINE
  5
7E7
330
1F
100
AcDbEntity
  8
Object
100
AcDbLine
 10
2.920457890809007
 20
8.055402550944544
 30
0.0
 11
2.909457890809008
 21
8.040402550944545
 31
0.0
  0
LINE
  5
7E8
330
1F
100
AcDbEntity
  8
Object
100
AcDbLine
 10
2.909457890809008
 20
8.040402550944545
 30
0.0
 11
2.894457890809007
 21
8.029402550944544
 31
0.0
  0
LINE
  5
7E9
330
1F
100
AcDbEntity
  8
Object
100
AcDbLine
 10
2.894457890809007
 20
8.029402550944544
 30
0.0
 11
2.876457890809009
 21
8.026402550944544
 31
0.0
  0
LINE
  5
7EA
330
1F
100
AcDbEntity
  8
Object
100
AcDbLine
 10
5.270457890809008
 20
8.954402550944545
 30
0.0
 11
5.253457890809007
 21
8.954402550944545
 31
0.0
  0
LINE
  5
7EB
330
1F
100
AcDbEntity
  8
Object
100
AcDbLine
 10
5.490457890809008
 20
8.954402550944545
 30
0.0
 11
5.416457890809008
 21
9.050402550944545
 31
0.0
  0
LINE
  5
7EC
330
1F
100
AcDbEntity
  8
Object
100
AcDbLine
 10
5.490457890809008
 20
9.079402550944545
 30
0.0
 11
5.505457890809007
 21
9.079402550944545
 31
0.0
  0
LINE
  5
7ED
330
1F
100
AcDbEntity
  8
Object
100
AcDbLine
 10
5.705457890809007
 20
9.079402550944545
 30
0.0
 11
5.705457890809007
 21
8.988402550944545
 31
0.0
  0
LINE
  5
7EE
330
1F
100
AcDbEntity
  8
Object
100
AcDbLine
 10
5.713457890809007
 20
8.954402550944545
 30
0.0
 11
5.690457890809008
 21
8.980402550944544
 31
0.0
  0
LINE
  5
7EF
330
1F
100
AcDbEntity
  8
Object
100
AcDbLine
 10
5.795457890809007
 20
9.079402550944545
 30
0.0
 11
5.795457890809007
 21
8.980402550944544
 31
0.0
  0
LINE
  5
7F0
330
1F
100
AcDbEntity
  8
Object
100
AcDbLine
 10
5.836457890809008
 20
9.067402550944544
 30
0.0
 11
5.834457890809008
 21
9.067402550944544
 31
0.0
  0
LINE
  5
7F1
330
1F
100
AcDbEntity
  8
Object
100
AcDbLine
 10
5.930457890809008
 20
8.954402550944545
 30
0.0
 11
5.917457890809007
 21
8.954402550944545
 31
0.0
  0
LINE
  5
7F2
330
1F
100
AcDbEntity
  8
Object
100
AcDbLine
 10
6.231457890809007
 20
9.011402550944545
 30
0.0
 11
6.175457890809007
 21
9.011402550944545
 31
0.0
  0
LINE
  5
7F3
330
1F
100
AcDbEntity
  8
Object
100
AcDbLine
 10
6.175457890809007
 20
9.067402550944544
 30
0.0
 11
6.175457890809007
 21
9.021402550944545
 31
0.0
  0
LINE
  5
7F4
330
1F
100
AcDbEntity
  8
Object
100
AcDbLine
 10
6.485457890809008
 20
9.079402550944545
 30
0.0
 11
6.512457890809008
 21
9.064402550944544
 31
0.0
  0
LINE
  5
7F5
330
1F
100
AcDbEntity
  8
Object
100
AcDbLine
 10
6.407457890809007
 20
8.954402550944545
 30
0.0
 11
6.407457890809007
 21
9.079402550944545
 31
0.0
  0
LINE
  5
7F6
330
1F
100
AcDbEntity
  8
Object
100
AcDbLine
 10
6.933457890809008
 20
8.967402550944544
 30
0.0
 11
6.907457890809007
 21
8.954402550944545
 31
0.0
  0
LINE
  5
7F7
330
1F
100
AcDbEntity
  8
Object
100
AcDbLine
 10
6.933457890809008
 20
9.067402550944544
 30
0.0
 11
6.843457890809007
 21
9.067402550944544
 31
0.0
  0
LINE
  5
7F8
330
1F
100
AcDbEntity
  8
Object
100
AcDbLine
 10
6.972457890809008
 20
9.024402550944545
 30
0.0
 11
6.972457890809008
 21
9.066402550944545
 31
0.0
  0
LINE
  5
7F9
330
1F
100
AcDbEntity
  8
Object
100
AcDbLine
 10
3.573457890809008
 20
8.651402550944544
 30
0.0
 11
3.573457890809008
 21
8.073402550944544
 31
0.0
  0
LINE
  5
7FA
330
1F
100
AcDbEntity
  8
Object
100
AcDbLine
 10
2.435457890809008
 20
8.026402550944544
 30
0.0
 11
2.876457890809009
 21
8.026402550944544
 31
0.0
  0
LINE
  5
7FB
330
1F
100
AcDbEntity
  8
Object
100
AcDbLine
 10
2.435457890809008
 20
9.276402550944544
 30
0.0
 11
2.248457890809008
 21
9.089402550944544
 31
0.0
  0
LINE
  5
7FC
330
1F
100
AcDbEntity
  8
Object
100
AcDbLine
 10
5.186457890809007
 20
9.011402550944545
 30
0.0
 11
5.124457890809008
 21
9.011402550944545
 31
0.0
  0
LINE
  5
7FD
330
1F
100
AcDbEntity
  8
Object
100
AcDbLine
 10
5.316457890809007
 20
9.079402550944545
 30
0.0
 11
5.360457890809008
 21
8.954402550944545
 31
0.0
  0
LINE
  5
7FE
330
1F
100
AcDbEntity
  8
Object
100
AcDbLine
 10
5.545457890809007
 20
8.954402550944545
 30
0.0
 11
5.545457890809007
 21
9.079402550944545
 31
0.0
  0
LINE
  5
7FF
330
1F
100
AcDbEntity
  8
Object
100
AcDbLine
 10
5.846457890809007
 20
9.079402550944545
 30
0.0
 11
5.846457890809007
 21
9.067402550944544
 31
0.0
  0
LINE
  5
800
330
1F
100
AcDbEntity
  8
Object
100
AcDbLine
 10
5.886457890809007
 20
9.067402550944544
 30
0.0
 11
5.886457890809007
 21
9.079402550944545
 31
0.0
  0
LINE
  5
801
330
1F
100
AcDbEntity
  8
Object
100
AcDbLine
 10
6.368457890809008
 20
9.079402550944545
 30
0.0
 11
6.368457890809008
 21
9.067402550944544
 31
0.0
  0
LINE
  5
802
330
1F
100
AcDbEntity
  8
Object
100
AcDbLine
 10
6.475457890809008
 20
9.011402550944545
 30
0.0
 11
6.423457890809007
 21
9.011402550944545
 31
0.0
  0
LINE
  5
803
330
1F
100
AcDbEntity
  8
Object
100
AcDbLine
 10
6.512457890809008
 20
9.064402550944544
 30
0.0
 11
6.512457890809008
 21
9.024402550944545
 31
0.0
  0
LINE
  5
804
330
1F
100
AcDbEntity
  8
Object
100
AcDbLine
 10
6.843457890809007
 20
8.989402550944545
 30
0.0
 11
6.843457890809007
 21
8.978402550944544
 31
0.0
  0
LINE
  5
805
330
1F
100
AcDbEntity
  8
Object
100
AcDbLine
 10
7.051457890809007
 20
9.079402550944545
 30
0.0
 11
7.078457890809008
 21
9.066402550944545
 31
0.0
  0
LINE
  5
806
330
1F
100
AcDbEntity
  8
Object
100
AcDbLine
 10
6.788457890809008
 20
9.079402550944545
 30
0.0
 11
6.697457890809007
 21
9.079402550944545
 31
0.0
  0
LINE
  5
807
330
1F
100
AcDbEntity
  8
Object
100
AcDbLine
 10
6.697457890809007
 20
9.079402550944545
 30
0.0
 11
6.697457890809007
 21
8.954402550944545
 31
0.0
  0
LINE
  5
808
330
1F
100
AcDbEntity
  8
Object
100
AcDbLine
 10
6.788457890809008
 20
8.965402550944544
 30
0.0
 11
6.788457890809008
 21
8.954402550944545
 31
0.0
  0
LINE
  5
809
330
1F
100
AcDbEntity
  8
Object
100
AcDbLine
 10
3.620457890809008
 20
8.026402550944544
 30
0.0
 11
8.061457890809007
 21
8.026402550944544
 31
0.0
  0
LINE
  5
80A
330
1F
100
AcDbEntity
  8
Object
100
AcDbLine
 10
5.213457890809007
 20
9.064402550944544
 30
0.0
 11
5.213457890809007
 21
9.024402550944545
 31
0.0
  0
LINE
  5
80B
330
1F
100
AcDbEntity
  8
Object
100
AcDbLine
 10
5.108457890809008
 20
9.079402550944545
 30
0.0
 11
5.186457890809007
 21
9.079402550944545
 31
0.0
  0
LINE
  5
80C
330
1F
100
AcDbEntity
  8
Object
100
AcDbLine
 10
5.962457890809008
 20
9.067402550944544
 30
0.0
 11
5.930457890809008
 21
9.067402550944544
 31
0.0
  0
LINE
  5
80D
330
1F
100
AcDbEntity
  8
Object
100
AcDbLine
 10
6.252457890809008
 20
9.067402550944544
 30
0.0
 11
6.175457890809007
 21
9.067402550944544
 31
0.0
  0
LINE
  5
80E
330
1F
100
AcDbEntity
  8
Object
100
AcDbLine
 10
6.160457890809007
 20
9.079402550944545
 30
0.0
 11
6.252457890809008
 21
9.079402550944545
 31
0.0
  0
LINE
  5
80F
330
1F
100
AcDbEntity
  8
Object
100
AcDbLine
 10
6.552457890809008
 20
8.954402550944545
 30
0.0
 11
6.552457890809008
 21
9.079402550944545
 31
0.0
  0
LINE
  5
810
330
1F
100
AcDbEntity
  8
Object
100
AcDbLine
 10
6.933457890809008
 20
9.079402550944545
 30
0.0
 11
6.828457890809008
 21
9.079402550944545
 31
0.0
  0
LINE
  5
811
330
1F
100
AcDbEntity
  8
Object
100
AcDbLine
 10
6.828457890809008
 20
9.079402550944545
 30
0.0
 11
6.828457890809008
 21
9.008402550944545
 31
0.0
  0
LINE
  5
812
330
1F
100
AcDbEntity
  8
Object
100
AcDbLine
 10
7.062457890809008
 20
9.016402550944544
 30
0.0
 11
7.078457890809008
 21
9.008402550944545
 31
0.0
  0
LINE
  5
813
330
1F
100
AcDbEntity
  8
Object
100
AcDbLine
 10
6.767457890809008
 20
9.021402550944545
 30
0.0
 11
6.767457890809008
 21
9.011402550944545
 31
0.0
  0
LINE
  5
814
330
1F
100
AcDbEntity
  8
Object
100
AcDbLine
 10
6.767457890809008
 20
9.011402550944545
 30
0.0
 11
6.711457890809008
 21
9.011402550944545
 31
0.0
  0
LINE
  5
815
330
1F
100
AcDbEntity
  8
Object
100
AcDbLine
 10
5.771457890809007
 20
8.954402550944545
 30
0.0
 11
5.713457890809007
 21
8.954402550944545
 31
0.0
  0
LINE
  5
816
330
1F
100
AcDbEntity
  8
Object
100
AcDbLine
 10
5.834457890809008
 20
9.079402550944545
 30
0.0
 11
5.846457890809007
 21
9.079402550944545
 31
0.0
  0
LINE
  5
817
330
1F
100
AcDbEntity
  8
Object
100
AcDbLine
 10
6.231457890809007
 20
9.021402550944545
 30
0.0
 11
6.231457890809007
 21
9.011402550944545
 31
0.0
  0
LINE
  5
818
330
1F
100
AcDbEntity
  8
Object
100
AcDbLine
 10
6.336457890809008
 20
9.067402550944544
 30
0.0
 11
6.336457890809008
 21
8.954402550944545
 31
0.0
  0
LINE
  5
819
330
1F
100
AcDbEntity
  8
Object
100
AcDbLine
 10
6.323457890809008
 20
9.067402550944544
 30
0.0
 11
6.291457890809008
 21
9.067402550944544
 31
0.0
  0
LINE
  5
81A
330
1F
100
AcDbEntity
  8
Object
100
AcDbLine
 10
6.423457890809007
 20
8.954402550944545
 30
0.0
 11
6.407457890809007
 21
8.954402550944545
 31
0.0
  0
LINE
  5
81B
330
1F
100
AcDbEntity
  8
Object
100
AcDbLine
 10
6.491457890809008
 20
9.014402550944545
 30
0.0
 11
6.512457890809008
 21
8.954402550944545
 31
0.0
  0
LINE
  5
81C
330
1F
100
AcDbEntity
  8
Object
100
AcDbLine
 10
6.407457890809007
 20
9.079402550944545
 30
0.0
 11
6.485457890809008
 21
9.079402550944545
 31
0.0
  0
LINE
  5
81D
330
1F
100
AcDbEntity
  8
Object
100
AcDbLine
 10
6.711457890809008
 20
8.965402550944544
 30
0.0
 11
6.788457890809008
 21
8.965402550944544
 31
0.0
  0
LINE
  5
81E
330
1F
100
AcDbEntity
  8
Object
100
AcDbLine
 10
6.573457890809008
 20
8.546402550944545
 30
0.0
 11
6.546457890809008
 21
8.550402550944545
 31
0.0
  0
LINE
  5
81F
330
1F
100
AcDbEntity
  8
Object
100
AcDbLine
 10
6.573457890809008
 20
8.756402550944544
 30
0.0
 11
6.546457890809008
 21
8.753402550944544
 31
0.0
  0
LINE
  5
820
330
1F
100
AcDbEntity
  8
Object
100
AcDbLine
 10
6.546457890809008
 20
8.753402550944544
 30
0.0
 11
6.520457890809008
 21
8.742402550944545
 31
0.0
  0
LINE
  5
821
330
1F
100
AcDbEntity
  8
Object
100
AcDbLine
 10
6.546457890809008
 20
8.550402550944545
 30
0.0
 11
6.520457890809008
 21
8.560402550944544
 31
0.0
  0
LINE
  5
822
330
1F
100
AcDbEntity
  8
Object
100
AcDbLine
 10
6.520457890809008
 20
8.560402550944544
 30
0.0
 11
6.499457890809008
 21
8.577402550944544
 31
0.0
  0
LINE
  5
823
330
1F
100
AcDbEntity
  8
Object
100
AcDbLine
 10
6.520457890809008
 20
8.742402550944545
 30
0.0
 11
6.499457890809008
 21
8.725402550944544
 31
0.0
  0
LINE
  5
824
330
1F
100
AcDbEntity
  8
Object
100
AcDbLine
 10
6.499457890809008
 20
8.725402550944544
 30
0.0
 11
6.482457890809008
 21
8.704402550944545
 31
0.0
  0
LINE
  5
825
330
1F
100
AcDbEntity
  8
Object
100
AcDbLine
 10
6.499457890809008
 20
8.577402550944544
 30
0.0
 11
6.482457890809008
 21
8.599402550944544
 31
0.0
  0
LINE
  5
826
330
1F
100
AcDbEntity
  8
Object
100
AcDbLine
 10
6.482457890809008
 20
8.599402550944544
 30
0.0
 11
6.471457890809007
 21
8.624402550944544
 31
0.0
  0
LINE
  5
827
330
1F
100
AcDbEntity
  8
Object
100
AcDbLine
 10
6.471457890809007
 20
8.678402550944545
 30
0.0
 11
6.482457890809008
 21
8.704402550944545
 31
0.0
  0
LINE
  5
828
330
1F
100
AcDbEntity
  8
Object
100
AcDbLine
 10
6.471457890809007
 20
8.624402550944544
 30
0.0
 11
6.468457890809007
 21
8.651402550944544
 31
0.0
  0
LINE
  5
829
330
1F
100
AcDbEntity
  8
Object
100
AcDbLine
 10
6.468457890809007
 20
8.651402550944544
 30
0.0
 11
6.471457890809007
 21
8.678402550944545
 31
0.0
  0
LINE
  5
82A
330
1F
100
AcDbEntity
  8
Object
100
AcDbLine
 10
5.213457890809007
 20
9.024402550944545
 30
0.0
 11
5.186457890809007
 21
9.011402550944545
 31
0.0
  0
LINE
  5
82B
330
1F
100
AcDbEntity
  8
Object
100
AcDbLine
 10
5.108457890809008
 20
9.079402550944545
 30
0.0
 11
5.108457890809008
 21
8.954402550944545
 31
0.0
  0
LINE
  5
82C
330
1F
100
AcDbEntity
  8
Object
100
AcDbLine
 10
5.108457890809008
 20
8.954402550944545
 30
0.0
 11
5.124457890809008
 21
8.954402550944545
 31
0.0
  0
LINE
  5
82D
330
1F
100
AcDbEntity
  8
Object
100
AcDbLine
 10
5.690457890809008
 20
9.079402550944545
 30
0.0
 11
5.705457890809007
 21
9.079402550944545
 31
0.0
  0
LINE
  5
82E
330
1F
100
AcDbEntity
  8
Object
100
AcDbLine
 10
5.779457890809007
 20
9.079402550944545
 30
0.0
 11
5.795457890809007
 21
9.079402550944545
 31
0.0
  0
LINE
  5
82F
330
1F
100
AcDbEntity
  8
Object
100
AcDbLine
 10
5.725457890809008
 20
8.965402550944544
 30
0.0
 11
5.759457890809008
 21
8.965402550944544
 31
0.0
  0
LINE
  5
830
330
1F
100
AcDbEntity
  8
Object
100
AcDbLine
 10
5.843457890809007
 20
9.067402550944544
 30
0.0
 11
5.843457890809007
 21
8.965402550944544
 31
0.0
  0
LINE
  5
831
330
1F
100
AcDbEntity
  8
Object
100
AcDbLine
 10
5.836457890809008
 20
8.965402550944544
 30
0.0
 11
5.836457890809008
 21
9.067402550944544
 31
0.0
  0
LINE
  5
832
330
1F
100
AcDbEntity
  8
Object
100
AcDbLine
 10
5.917457890809007
 20
9.067402550944544
 30
0.0
 11
5.886457890809007
 21
9.067402550944544
 31
0.0
  0
LINE
  5
833
330
1F
100
AcDbEntity
  8
Object
100
AcDbLine
 10
6.496457890809008
 20
8.954402550944545
 30
0.0
 11
6.475457890809008
 21
9.011402550944545
 31
0.0
  0
LINE
  5
834
330
1F
100
AcDbEntity
  8
Object
100
AcDbLine
 10
7.078457890809008
 20
9.024402550944545
 30
0.0
 11
7.062457890809008
 21
9.016402550944544
 31
0.0
  0
LINE
  5
835
330
1F
100
AcDbEntity
  8
Object
100
AcDbLine
 10
6.999457890809008
 20
9.079402550944545
 30
0.0
 11
7.051457890809007
 21
9.079402550944545
 31
0.0
  0
LINE
  5
836
330
1F
100
AcDbEntity
  8
Object
100
AcDbLine
 10
6.788457890809008
 20
9.067402550944544
 30
0.0
 11
6.711457890809008
 21
9.067402550944544
 31
0.0
  0
LINE
  5
837
330
1F
100
AcDbEntity
  8
Object
100
AcDbLine
 10
3.620457890809008
 20
8.026402550944544
 30
0.0
 11
3.602457890809008
 21
8.029402550944544
 31
0.0
  0
LINE
  5
838
330
1F
100
AcDbEntity
  8
Object
100
AcDbLine
 10
3.602457890809008
 20
8.029402550944544
 30
0.0
 11
3.587457890809007
 21
8.040402550944545
 31
0.0
  0
LINE
  5
839
330
1F
100
AcDbEntity
  8
Object
100
AcDbLine
 10
3.587457890809007
 20
8.040402550944545
 30
0.0
 11
3.577457890809007
 21
8.055402550944544
 31
0.0
  0
LINE
  5
83A
330
1F
100
AcDbEntity
  8
Object
100
AcDbLine
 10
3.577457890809007
 20
8.055402550944544
 30
0.0
 11
3.573457890809008
 21
8.073402550944544
 31
0.0
  0
LINE
  5
83B
330
1F
100
AcDbEntity
  8
Object
100
AcDbLine
 10
5.186457890809007
 20
9.079402550944545
 30
0.0
 11
5.213457890809007
 21
9.064402550944544
 31
0.0
  0
LINE
  5
83C
330
1F
100
AcDbEntity
  8
Object
100
AcDbLine
 10
5.416457890809008
 20
9.050402550944545
 30
0.0
 11
5.416457890809008
 21
8.954402550944545
 31
0.0
  0
LINE
  5
83D
330
1F
100
AcDbEntity
  8
Object
100
AcDbLine
 10
5.846457890809007
 20
8.954402550944545
 30
0.0
 11
5.834457890809008
 21
8.954402550944545
 31
0.0
  0
LINE
  5
83E
330
1F
100
AcDbEntity
  8
Object
100
AcDbLine
 10
5.962457890809008
 20
9.079402550944545
 30
0.0
 11
5.962457890809008
 21
9.067402550944544
 31
0.0
  0
LINE
  5
83F
330
1F
100
AcDbEntity
  8
Object
100
AcDbLine
 10
6.291457890809008
 20
9.079402550944545
 30
0.0
 11
6.368457890809008
 21
9.079402550944545
 31
0.0
  0
LINE
  5
840
330
1F
100
AcDbEntity
  8
Object
100
AcDbLine
 10
7.078457890809008
 20
8.967402550944544
 30
0.0
 11
7.051457890809007
 21
8.954402550944545
 31
0.0
  0
LINE
  5
841
330
1F
100
AcDbEntity
  8
Object
100
AcDbLine
 10
6.573457890809008
 20
8.756402550944544
 30
0.0
 11
7.831457890809008
 21
8.756402550944544
 31
0.0
  0
LINE
  5
842
330
1F
100
AcDbEntity
  8
Object
100
AcDbLine
 10
2.923457890809007
 20
8.073402550944544
 30
0.0
 11
2.923457890809007
 21
8.651402550944544
 31
0.0
  0
LINE
  5
843
330
1F
100
AcDbEntity
  8
Object
100
AcDbLine
 10
5.400457890809008
 20
9.079402550944545
 30
0.0
 11
5.416457890809008
 21
9.079402550944545
 31
0.0
  0
LINE
  5
844
330
1F
100
AcDbEntity
  8
Object
100
AcDbLine
 10
5.545457890809007
 20
9.079402550944545
 30
0.0
 11
5.621457890809008
 21
9.079402550944545
 31
0.0
  0
LINE
  5
845
330
1F
100
AcDbEntity
  8
Object
100
AcDbLine
 10
5.834457890809008
 20
9.067402550944544
 30
0.0
 11
5.834457890809008
 21
9.079402550944545
 31
0.0
  0
LINE
  5
846
330
1F
100
AcDbEntity
  8
Object
100
AcDbLine
 10
6.423457890809007
 20
9.011402550944545
 30
0.0
 11
6.423457890809007
 21
8.954402550944545
 31
0.0
  0
LINE
  5
847
330
1F
100
AcDbEntity
  8
Object
100
AcDbLine
 10
6.512457890809008
 20
9.024402550944545
 30
0.0
 11
6.491457890809008
 21
9.014402550944545
 31
0.0
  0
LINE
  5
848
330
1F
100
AcDbEntity
  8
Object
100
AcDbLine
 10
6.854457890809007
 20
9.033402550944545
 30
0.0
 11
6.907457890809007
 21
9.033402550944545
 31
0.0
  0
LINE
  5
849
330
1F
100
AcDbEntity
  8
Object
100
AcDbLine
 10
5.650457890809008
 20
8.985402550944545
 30
0.0
 11
5.621457890809008
 21
8.954402550944545
 31
0.0
  0
LINE
  5
84A
330
1F
100
AcDbEntity
  8
Object
100
AcDbLine
 10
5.779457890809007
 20
8.988402550944545
 30
0.0
 11
5.779457890809007
 21
9.079402550944545
 31
0.0
  0
LINE
  5
84B
330
1F
100
AcDbEntity
  8
Object
100
AcDbLine
 10
5.834457890809008
 20
8.965402550944544
 30
0.0
 11
5.836457890809008
 21
8.965402550944544
 31
0.0
  0
LINE
  5
84C
330
1F
100
AcDbEntity
  8
Object
100
AcDbLine
 10
5.846457890809007
 20
9.067402550944544
 30
0.0
 11
5.843457890809007
 21
9.067402550944544
 31
0.0
  0
LINE
  5
84D
330
1F
100
AcDbEntity
  8
Object
100
AcDbLine
 10
6.788457890809008
 20
9.079402550944545
 30
0.0
 11
6.788457890809008
 21
9.067402550944544
 31
0.0
  0
LINE
  5
84E
330
1F
100
AcDbEntity
  8
Object
100
AcDbLine
 10
6.788457890809008
 20
8.954402550944545
 30
0.0
 11
6.697457890809007
 21
8.954402550944545
 31
0.0
  0
LINE
  5
84F
330
1F
100
AcDbEntity
  8
Object
100
AcDbLine
 10
3.573457890809008
 20
8.651402550944544
 30
0.0
 11
3.570457890809008
 21
8.700402550944545
 31
0.0
  0
LINE
  5
850
330
1F
100
AcDbEntity
  8
Object
100
AcDbLine
 10
3.570457890809008
 20
8.700402550944545
 30
0.0
 11
3.559457890809008
 21
8.747402550944544
 31
0.0
  0
LINE
  5
851
330
1F
100
AcDbEntity
  8
Object
100
AcDbLine
 10
3.559457890809008
 20
8.747402550944544
 30
0.0
 11
3.541457890809008
 21
8.792402550944544
 31
0.0
  0
LINE
  5
852
330
1F
100
AcDbEntity
  8
Object
100
AcDbLine
 10
3.541457890809008
 20
8.792402550944544
 30
0.0
 11
3.517457890809007
 21
8.834402550944544
 31
0.0
  0
LINE
  5
853
330
1F
100
AcDbEntity
  8
Object
100
AcDbLine
 10
3.517457890809007
 20
8.834402550944544
 30
0.0
 11
3.486457890809008
 21
8.872402550944544
 31
0.0
  0
LINE
  5
854
330
1F
100
AcDbEntity
  8
Object
100
AcDbLine
 10
3.486457890809008
 20
8.872402550944544
 30
0.0
 11
3.451457890809008
 21
8.905402550944545
 31
0.0
  0
LINE
  5
855
330
1F
100
AcDbEntity
  8
Object
100
AcDbLine
 10
3.451457890809008
 20
8.905402550944545
 30
0.0
 11
3.411457890809007
 21
8.933402550944544
 31
0.0
  0
LINE
  5
856
330
1F
100
AcDbEntity
  8
Object
100
AcDbLine
 10
3.411457890809007
 20
8.933402550944544
 30
0.0
 11
3.367457890809008
 21
8.954402550944545
 31
0.0
  0
LINE
  5
857
330
1F
100
AcDbEntity
  8
Object
100
AcDbLine
 10
3.367457890809008
 20
8.954402550944545
 30
0.0
 11
3.321457890809007
 21
8.968402550944544
 31
0.0
  0
LINE
  5
858
330
1F
100
AcDbEntity
  8
Object
100
AcDbLine
 10
3.321457890809007
 20
8.968402550944544
 30
0.0
 11
3.272457890809008
 21
8.975402550944544
 31
0.0
  0
LINE
  5
859
330
1F
100
AcDbEntity
  8
Object
100
AcDbLine
 10
3.272457890809008
 20
8.975402550944544
 30
0.0
 11
3.224457890809008
 21
8.975402550944544
 31
0.0
  0
LINE
  5
85A
330
1F
100
AcDbEntity
  8
Object
100
AcDbLine
 10
3.224457890809008
 20
8.975402550944544
 30
0.0
 11
3.176457890809007
 21
8.968402550944544
 31
0.0
  0
LINE
  5
85B
330
1F
100
AcDbEntity
  8
Object
100
AcDbLine
 10
3.176457890809007
 20
8.968402550944544
 30
0.0
 11
3.129457890809007
 21
8.954402550944545
 31
0.0
  0
LINE
  5
85C
330
1F
100
AcDbEntity
  8
Object
100
AcDbLine
 10
3.129457890809007
 20
8.954402550944545
 30
0.0
 11
3.086457890809008
 21
8.933402550944544
 31
0.0
  0
LINE
  5
85D
330
1F
100
AcDbEntity
  8
Object
100
AcDbLine
 10
3.086457890809008
 20
8.933402550944544
 30
0.0
 11
3.046457890809007
 21
8.905402550944545
 31
0.0
  0
LINE
  5
85E
330
1F
100
AcDbEntity
  8
Object
100
AcDbLine
 10
3.046457890809007
 20
8.905402550944545
 30
0.0
 11
3.010457890809007
 21
8.872402550944544
 31
0.0
  0
LINE
  5
85F
330
1F
100
AcDbEntity
  8
Object
100
AcDbLine
 10
3.010457890809007
 20
8.872402550944544
 30
0.0
 11
2.980457890809008
 21
8.834402550944544
 31
0.0
  0
LINE
  5
860
330
1F
100
AcDbEntity
  8
Object
100
AcDbLine
 10
2.980457890809008
 20
8.834402550944544
 30
0.0
 11
2.955457890809007
 21
8.792402550944544
 31
0.0
  0
LINE
  5
861
330
1F
100
AcDbEntity
  8
Object
100
AcDbLine
 10
2.955457890809007
 20
8.792402550944544
 30
0.0
 11
2.938457890809008
 21
8.747402550944544
 31
0.0
  0
LINE
  5
862
330
1F
100
AcDbEntity
  8
Object
100
AcDbLine
 10
2.938457890809008
 20
8.747402550944544
 30
0.0
 11
2.927457890809007
 21
8.700402550944545
 31
0.0
  0
LINE
  5
863
330
1F
100
AcDbEntity
  8
Object
100
AcDbLine
 10
2.927457890809007
 20
8.700402550944545
 30
0.0
 11
2.923457890809007
 21
8.651402550944544
 31
0.0
  0
LINE
  5
864
330
1F
100
AcDbEntity
  8
Object
100
AcDbLine
 10
4.354457890809007
 20
8.546402550944545
 30
0.0
 11
4.327457890809007
 21
8.550402550944545
 31
0.0
  0
LINE
  5
865
330
1F
100
AcDbEntity
  8
Object
100
AcDbLine
 10
4.354457890809007
 20
8.756402550944544
 30
0.0
 11
4.327457890809007
 21
8.753402550944544
 31
0.0
  0
LINE
  5
866
330
1F
100
AcDbEntity
  8
Object
100
AcDbLine
 10
4.327457890809007
 20
8.753402550944544
 30
0.0
 11
4.302457890809007
 21
8.742402550944545
 31
0.0
  0
LINE
  5
867
330
1F
100
AcDbEntity
  8
Object
100
AcDbLine
 10
4.327457890809007
 20
8.550402550944545
 30
0.0
 11
4.302457890809007
 21
8.560402550944544
 31
0.0
  0
LINE
  5
868
330
1F
100
AcDbEntity
  8
Object
100
AcDbLine
 10
4.302457890809007
 20
8.560402550944544
 30
0.0
 11
4.280457890809008
 21
8.577402550944544
 31
0.0
  0
LINE
  5
869
330
1F
100
AcDbEntity
  8
Object
100
AcDbLine
 10
4.302457890809007
 20
8.742402550944545
 30
0.0
 11
4.280457890809008
 21
8.725402550944544
 31
0.0
  0
LINE
  5
86A
330
1F
100
AcDbEntity
  8
Object
100
AcDbLine
 10
4.280457890809008
 20
8.725402550944544
 30
0.0
 11
4.263457890809007
 21
8.704402550944545
 31
0.0
  0
LINE
  5
86B
330
1F
100
AcDbEntity
  8
Object
100
AcDbLine
 10
4.280457890809008
 20
8.577402550944544
 30
0.0
 11
4.263457890809007
 21
8.599402550944544
 31
0.0
  0
LINE
  5
86C
330
1F
100
AcDbEntity
  8
Object
100
AcDbLine
 10
4.263457890809007
 20
8.599402550944544
 30
0.0
 11
4.253457890809007
 21
8.624402550944544
 31
0.0
  0
LINE
  5
86D
330
1F
100
AcDbEntity
  8
Object
100
AcDbLine
 10
4.253457890809007
 20
8.678402550944545
 30
0.0
 11
4.263457890809007
 21
8.704402550944545
 31
0.0
  0
LINE
  5
86E
330
1F
100
AcDbEntity
  8
Object
100
AcDbLine
 10
4.253457890809007
 20
8.624402550944544
 30
0.0
 11
4.249457890809008
 21
8.651402550944544
 31
0.0
  0
LINE
  5
86F
330
1F
100
AcDbEntity
  8
Object
100
AcDbLine
 10
4.249457890809008
 20
8.651402550944544
 30
0.0
 11
4.253457890809007
 21
8.678402550944545
 31
0.0
  0
LINE
  5
870
330
1F
100
AcDbEntity
  8
Object
100
AcDbLine
 10
5.714457890809008
 20
8.678402550944545
 30
0.0
 11
5.718457890809007
 21
8.651402550944544
 31
0.0
  0
LINE
  5
871
330
1F
100
AcDbEntity
  8
Object
100
AcDbLine
 10
5.718457890809007
 20
8.651402550944544
 30
0.0
 11
5.714457890809008
 21
8.624402550944544
 31
0.0
  0
LINE
  5
872
330
1F
100
AcDbEntity
  8
Object
100
AcDbLine
 10
5.704457890809008
 20
8.704402550944545
 30
0.0
 11
5.714457890809008
 21
8.678402550944545
 31
0.0
  0
LINE
  5
873
330
1F
100
AcDbEntity
  8
Object
100
AcDbLine
 10
5.714457890809008
 20
8.624402550944544
 30
0.0
 11
5.704457890809008
 21
8.599402550944544
 31
0.0
  0
LINE
  5
874
330
1F
100
AcDbEntity
  8
Object
100
AcDbLine
 10
5.687457890809008
 20
8.725402550944544
 30
0.0
 11
5.704457890809008
 21
8.704402550944545
 31
0.0
  0
LINE
  5
875
330
1F
100
AcDbEntity
  8
Object
100
AcDbLine
 10
5.704457890809008
 20
8.599402550944544
 30
0.0
 11
5.687457890809008
 21
8.577402550944544
 31
0.0
  0
LINE
  5
876
330
1F
100
AcDbEntity
  8
Object
100
AcDbLine
 10
5.687457890809008
 20
8.577402550944544
 30
0.0
 11
5.665457890809007
 21
8.560402550944544
 31
0.0
  0
LINE
  5
877
330
1F
100
AcDbEntity
  8
Object
100
AcDbLine
 10
5.687457890809008
 20
8.725402550944544
 30
0.0
 11
5.665457890809007
 21
8.742402550944545
 31
0.0
  0
LINE
  5
878
330
1F
100
AcDbEntity
  8
Object
100
AcDbLine
 10
5.665457890809007
 20
8.742402550944545
 30
0.0
 11
5.640457890809008
 21
8.753402550944544
 31
0.0
  0
LINE
  5
879
330
1F
100
AcDbEntity
  8
Object
100
AcDbLine
 10
5.665457890809007
 20
8.560402550944544
 30
0.0
 11
5.640457890809008
 21
8.550402550944545
 31
0.0
  0
LINE
  5
87A
330
1F
100
AcDbEntity
  8
Object
100
AcDbLine
 10
5.640457890809008
 20
8.550402550944545
 30
0.0
 11
5.613457890809008
 21
8.546402550944545
 31
0.0
  0
LINE
  5
87B
330
1F
100
AcDbEntity
  8
Object
100
AcDbLine
 10
5.613457890809008
 20
8.756402550944544
 30
0.0
 11
5.640457890809008
 21
8.753402550944544
 31
0.0
  0
LINE
  5
87C
330
1F
100
AcDbEntity
  8
Object
100
AcDbLine
 10
5.846457890809007
 20
8.965402550944544
 30
0.0
 11
5.846457890809007
 21
8.954402550944545
 31
0.0
  0
LINE
  5
87D
330
1F
100
AcDbEntity
  8
Object
100
AcDbLine
 10
6.512457890809008
 20
8.954402550944545
 30
0.0
 11
6.496457890809008
 21
8.954402550944545
 31
0.0
  0
LINE
  5
87E
330
1F
100
AcDbEntity
  8
Object
100
AcDbLine
 10
6.854457890809007
 20
8.954402550944545
 30
0.0
 11
6.828457890809008
 21
8.967402550944544
 31
0.0
  0
LINE
  5
87F
330
1F
100
AcDbEntity
  8
Object
100
AcDbLine
 10
6.843457890809007
 20
9.008402550944545
 30
0.0
 11
6.828457890809008
 21
9.008402550944545
 31
0.0
  0
LINE
  5
880
330
1F
100
AcDbEntity
  8
Object
100
AcDbLine
 10
7.078457890809008
 20
9.008402550944545
 30
0.0
 11
7.078457890809008
 21
8.967402550944544
 31
0.0
  0
LINE
  5
881
330
1F
100
AcDbEntity
  8
Object
100
AcDbLine
 10
6.711457890809008
 20
9.021402550944545
 30
0.0
 11
6.767457890809008
 21
9.021402550944545
 31
0.0
  0
LINE
  5
882
330
1F
100
AcDbEntity
  8
Object
100
AcDbLine
 10
2.248457890809008
 20
8.213402550944545
 30
0.0
 11
2.435457890809008
 21
8.026402550944544
 31
0.0
  0
LINE
  5
883
330
1F
100
AcDbEntity
  8
Object
100
AcDbLine
 10
5.400457890809008
 20
8.954402550944545
 30
0.0
 11
5.400457890809008
 21
9.079402550944545
 31
0.0
  0
LINE
  5
884
330
1F
100
AcDbEntity
  8
Object
100
AcDbLine
 10
6.637457890809008
 20
9.079402550944545
 30
0.0
 11
6.646457890809007
 21
9.067402550944544
 31
0.0
  0
LINE
  5
885
330
1F
100
AcDbEntity
  8
Object
100
AcDbLine
 10
6.843457890809007
 20
9.028402550944544
 30
0.0
 11
6.854457890809007
 21
9.033402550944545
 31
0.0
  0
LINE
  5
886
330
1F
100
AcDbEntity
  8
Object
100
AcDbLine
 10
6.933457890809008
 20
9.079402550944545
 30
0.0
 11
6.933457890809008
 21
9.067402550944544
 31
0.0
  0
LINE
  5
887
330
1F
100
AcDbEntity
  8
Object
100
AcDbLine
 10
6.892457890809008
 20
8.965402550944544
 30
0.0
 11
6.917457890809008
 21
8.978402550944544
 31
0.0
  0
LINE
  5
888
330
1F
100
AcDbEntity
  8
Object
100
AcDbLine
 10
7.037457890809007
 20
9.011402550944545
 30
0.0
 11
7.014457890809008
 21
9.011402550944545
 31
0.0
  0
LINE
  5
889
330
1F
100
AcDbEntity
  8
Object
100
AcDbLine
 10
7.014457890809008
 20
9.021402550944545
 30
0.0
 11
7.037457890809007
 21
9.021402550944545
 31
0.0
  0
LINE
  5
88A
330
1F
100
AcDbEntity
  8
Object
100
AcDbLine
 10
7.062457890809008
 20
9.034402550944545
 30
0.0
 11
7.062457890809008
 21
9.054402550944544
 31
0.0
  0
LINE
  5
88B
330
1F
100
AcDbEntity
  8
Object
100
AcDbLine
 10
7.014457890809008
 20
9.067402550944544
 30
0.0
 11
6.988457890809008
 21
9.054402550944544
 31
0.0
  0
LINE
  5
88C
330
1F
100
AcDbEntity
  8
Object
100
AcDbLine
 10
7.014457890809008
 20
8.965402550944544
 30
0.0
 11
7.037457890809007
 21
8.965402550944544
 31
0.0
  0
LINE
  5
88D
330
1F
100
AcDbEntity
  8
Object
100
AcDbLine
 10
7.062457890809008
 20
9.054402550944544
 30
0.0
 11
7.037457890809007
 21
9.067402550944544
 31
0.0
  0
LINE
  5
88E
330
1F
100
AcDbEntity
  8
Object
100
AcDbLine
 10
7.037457890809007
 20
9.067402550944544
 30
0.0
 11
7.014457890809008
 21
9.067402550944544
 31
0.0
  0
LINE
  5
88F
330
1F
100
AcDbEntity
  8
Object
100
AcDbLine
 10
6.988457890809008
 20
9.054402550944544
 30
0.0
 11
6.988457890809008
 21
9.034402550944545
 31
0.0
  0
LINE
  5
890
330
1F
100
AcDbEntity
  8
Object
100
AcDbLine
 10
6.988457890809008
 20
8.978402550944544
 30
0.0
 11
7.014457890809008
 21
8.965402550944544
 31
0.0
  0
LINE
  5
891
330
1F
100
AcDbEntity
  8
Object
100
AcDbLine
 10
7.037457890809007
 20
8.965402550944544
 30
0.0
 11
7.062457890809008
 21
8.978402550944544
 31
0.0
  0
LINE
  5
892
330
1F
100
AcDbEntity
  8
Object
100
AcDbLine
 10
7.037457890809007
 20
9.021402550944545
 30
0.0
 11
7.062457890809008
 21
9.034402550944545
 31
0.0
  0
LINE
  5
893
330
1F
100
AcDbEntity
  8
Object
100
AcDbLine
 10
7.014457890809008
 20
9.011402550944545
 30
0.0
 11
6.988457890809008
 21
8.998402550944545
 31
0.0
  0
LINE
  5
894
330
1F
100
AcDbEntity
  8
Object
100
AcDbLine
 10
6.988457890809008
 20
8.998402550944545
 30
0.0
 11
6.988457890809008
 21
8.978402550944544
 31
0.0
  0
LINE
  5
895
330
1F
100
AcDbEntity
  8
Object
100
AcDbLine
 10
7.062457890809008
 20
8.978402550944544
 30
0.0
 11
7.062457890809008
 21
8.998402550944545
 31
0.0
  0
LINE
  5
896
330
1F
100
AcDbEntity
  8
Object
100
AcDbLine
 10
7.062457890809008
 20
8.998402550944545
 30
0.0
 11
7.037457890809007
 21
9.011402550944545
 31
0.0
  0
LINE
  5
897
330
1F
100
AcDbEntity
  8
Object
100
AcDbLine
 10
6.988457890809008
 20
9.034402550944545
 30
0.0
 11
7.014457890809008
 21
9.021402550944545
 31
0.0
  0
LINE
  5
898
330
1F
100
AcDbEntity
  8
Object
100
AcDbLine
 10
7.037457890809007
 20
9.011402550944545
 30
0.0
 11
7.062457890809008
 21
8.998402550944545
 31
0.0
  0
LINE
  5
899
330
1F
100
AcDbEntity
  8
Object
100
AcDbLine
 10
7.062457890809008
 20
8.998402550944545
 30
0.0
 11
7.062457890809008
 21
8.978402550944544
 31
0.0
  0
LINE
  5
89A
330
1F
100
AcDbEntity
  8
Object
100
AcDbLine
 10
7.062457890809008
 20
8.978402550944544
 30
0.0
 11
7.037457890809007
 21
8.965402550944544
 31
0.0
  0
LINE
  5
89B
330
1F
100
AcDbEntity
  8
Object
100
AcDbLine
 10
7.037457890809007
 20
8.965402550944544
 30
0.0
 11
7.014457890809008
 21
8.965402550944544
 31
0.0
  0
LINE
  5
89C
330
1F
100
AcDbEntity
  8
Object
100
AcDbLine
 10
7.037457890809007
 20
9.011402550944545
 30
0.0
 11
7.014457890809008
 21
9.011402550944545
 31
0.0
  0
LINE
  5
89D
330
1F
100
AcDbEntity
  8
Object
100
AcDbLine
 10
7.014457890809008
 20
9.011402550944545
 30
0.0
 11
6.988457890809008
 21
8.998402550944545
 31
0.0
  0
LINE
  5
89E
330
1F
100
AcDbEntity
  8
Object
100
AcDbLine
 10
7.014457890809008
 20
8.965402550944544
 30
0.0
 11
6.988457890809008
 21
8.978402550944544
 31
0.0
  0
LINE
  5
89F
330
1F
100
AcDbEntity
  8
Object
100
AcDbLine
 10
6.988457890809008
 20
8.978402550944544
 30
0.0
 11
6.988457890809008
 21
8.998402550944545
 31
0.0
  0
LINE
  5
8A0
330
1F
100
AcDbEntity
  8
Object
100
AcDbLine
 10
7.037457890809007
 20
9.067402550944544
 30
0.0
 11
7.062457890809008
 21
9.054402550944544
 31
0.0
  0
LINE
  5
8A1
330
1F
100
AcDbEntity
  8
Object
100
AcDbLine
 10
7.062457890809008
 20
9.054402550944544
 30
0.0
 11
7.062457890809008
 21
9.034402550944545
 31
0.0
  0
LINE
  5
8A2
330
1F
100
AcDbEntity
  8
Object
100
AcDbLine
 10
7.062457890809008
 20
9.034402550944545
 30
0.0
 11
7.037457890809007
 21
9.021402550944545
 31
0.0
  0
LINE
  5
8A3
330
1F
100
AcDbEntity
  8
Object
100
AcDbLine
 10
7.037457890809007
 20
9.021402550944545
 30
0.0
 11
7.014457890809008
 21
9.021402550944545
 31
0.0
  0
LINE
  5
8A4
330
1F
100
AcDbEntity
  8
Object
100
AcDbLine
 10
7.037457890809007
 20
9.067402550944544
 30
0.0
 11
7.014457890809008
 21
9.067402550944544
 31
0.0
  0
LINE
  5
8A5
330
1F
100
AcDbEntity
  8
Object
100
AcDbLine
 10
7.014457890809008
 20
9.021402550944545
 30
0.0
 11
6.988457890809008
 21
9.034402550944545
 31
0.0
  0
LINE
  5
8A6
330
1F
100
AcDbEntity
  8
Object
100
AcDbLine
 10
6.988457890809008
 20
9.034402550944545
 30
0.0
 11
6.988457890809008
 21
9.054402550944544
 31
0.0
  0
LINE
  5
8A7
330
1F
100
AcDbEntity
  8
Object
100
AcDbLine
 10
6.988457890809008
 20
9.054402550944544
 30
0.0
 11
7.014457890809008
 21
9.067402550944544
 31
0.0
  0
LINE
  5
8A8
330
1F
100
AcDbEntity
  8
Object
100
AcDbLine
 10
5.331457890809008
 20
8.988402550944545
 30
0.0
 11
5.307457890809008
 21
9.055402550944544
 31
0.0
  0
LINE
  5
8A9
330
1F
100
AcDbEntity
  8
Object
100
AcDbLine
 10
5.307457890809008
 20
9.055402550944544
 30
0.0
 11
5.282457890809007
 21
8.988402550944545
 31
0.0
  0
LINE
  5
8AA
330
1F
100
AcDbEntity
  8
Object
100
AcDbLine
 10
5.282457890809007
 20
8.988402550944545
 30
0.0
 11
5.331457890809008
 21
8.988402550944545
 31
0.0
  0
LINE
  5
8AB
330
1F
100
AcDbEntity
  8
Object
100
AcDbLine
 10
5.634457890809008
 20
8.993402550944544
 30
0.0
 11
5.634457890809008
 21
9.040402550944545
 31
0.0
  0
LINE
  5
8AC
330
1F
100
AcDbEntity
  8
Object
100
AcDbLine
 10
5.560457890809008
 20
9.067402550944544
 30
0.0
 11
5.560457890809008
 21
8.965402550944544
 31
0.0
  0
LINE
  5
8AD
330
1F
100
AcDbEntity
  8
Object
100
AcDbLine
 10
5.634457890809008
 20
9.040402550944545
 30
0.0
 11
5.609457890809007
 21
9.067402550944544
 31
0.0
  0
LINE
  5
8AE
330
1F
100
AcDbEntity
  8
Object
100
AcDbLine
 10
5.609457890809007
 20
9.067402550944544
 30
0.0
 11
5.560457890809008
 21
9.067402550944544
 31
0.0
  0
LINE
  5
8AF
330
1F
100
AcDbEntity
  8
Object
100
AcDbLine
 10
5.560457890809008
 20
8.965402550944544
 30
0.0
 11
5.609457890809007
 21
8.965402550944544
 31
0.0
  0
LINE
  5
8B0
330
1F
100
AcDbEntity
  8
Object
100
AcDbLine
 10
5.609457890809007
 20
8.965402550944544
 30
0.0
 11
5.634457890809008
 21
8.993402550944544
 31
0.0
  0
LINE
  5
8B1
330
1F
100
AcDbEntity
  8
Object
100
AcDbLine
 10
6.624457890809008
 20
9.016402550944544
 30
0.0
 11
6.568457890809008
 21
9.016402550944544
 31
0.0
  0
LINE
  5
8B2
330
1F
100
AcDbEntity
  8
Object
100
AcDbLine
 10
6.625457890809007
 20
9.027402550944545
 30
0.0
 11
6.631457890809008
 21
9.034402550944545
 31
0.0
  0
LINE
  5
8B3
330
1F
100
AcDbEntity
  8
Object
100
AcDbLine
 10
6.625457890809007
 20
9.067402550944544
 30
0.0
 11
6.568457890809008
 21
9.067402550944544
 31
0.0
  0
LINE
  5
8B4
330
1F
100
AcDbEntity
  8
Object
100
AcDbLine
 10
6.568457890809008
 20
9.016402550944544
 30
0.0
 11
6.568457890809008
 21
8.965402550944544
 31
0.0
  0
LINE
  5
8B5
330
1F
100
AcDbEntity
  8
Object
100
AcDbLine
 10
6.642457890809008
 20
8.976402550944545
 30
0.0
 11
6.642457890809008
 21
9.005402550944545
 31
0.0
  0
LINE
  5
8B6
330
1F
100
AcDbEntity
  8
Object
100
AcDbLine
 10
6.642457890809008
 20
9.005402550944545
 30
0.0
 11
6.624457890809008
 21
9.016402550944544
 31
0.0
  0
LINE
  5
8B7
330
1F
100
AcDbEntity
  8
Object
100
AcDbLine
 10
6.631457890809008
 20
9.034402550944545
 30
0.0
 11
6.631457890809008
 21
9.061402550944544
 31
0.0
  0
LINE
  5
8B8
330
1F
100
AcDbEntity
  8
Object
100
AcDbLine
 10
6.568457890809008
 20
9.067402550944544
 30
0.0
 11
6.568457890809008
 21
9.027402550944545
 31
0.0
  0
LINE
  5
8B9
330
1F
100
AcDbEntity
  8
Object
100
AcDbLine
 10
6.631457890809008
 20
9.061402550944544
 30
0.0
 11
6.625457890809007
 21
9.067402550944544
 31
0.0
  0
LINE
  5
8BA
330
1F
100
AcDbEntity
  8
Object
100
AcDbLine
 10
6.568457890809008
 20
8.965402550944544
 30
0.0
 11
6.624457890809008
 21
8.965402550944544
 31
0.0
  0
LINE
  5
8BB
330
1F
100
AcDbEntity
  8
Object
100
AcDbLine
 10
6.568457890809008
 20
9.027402550944545
 30
0.0
 11
6.625457890809007
 21
9.027402550944545
 31
0.0
  0
LINE
  5
8BC
330
1F
100
AcDbEntity
  8
Object
100
AcDbLine
 10
6.624457890809008
 20
8.965402550944544
 30
0.0
 11
6.642457890809008
 21
8.976402550944545
 31
0.0
  0
LINE
  5
8BD
330
1F
100
AcDbEntity
  8
Object
100
AcDbLine
 10
5.124457890809008
 20
9.021402550944545
 30
0.0
 11
5.171457890809008
 21
9.021402550944545
 31
0.0
  0
LINE
  5
8BE
330
1F
100
AcDbEntity
  8
Object
100
AcDbLine
 10
5.171457890809008
 20
9.067402550944544
 30
0.0
 11
5.124457890809008
 21
9.067402550944544
 31
0.0
  0
LINE
  5
8BF
330
1F
100
AcDbEntity
  8
Object
100
AcDbLine
 10
5.198457890809008
 20
9.036402550944544
 30
0.0
 11
5.198457890809008
 21
9.054402550944544
 31
0.0
  0
LINE
  5
8C0
330
1F
100
AcDbEntity
  8
Object
100
AcDbLine
 10
5.198457890809008
 20
9.054402550944544
 30
0.0
 11
5.171457890809008
 21
9.067402550944544
 31
0.0
  0
LINE
  5
8C1
330
1F
100
AcDbEntity
  8
Object
100
AcDbLine
 10
5.124457890809008
 20
9.067402550944544
 30
0.0
 11
5.124457890809008
 21
9.021402550944545
 31
0.0
  0
LINE
  5
8C2
330
1F
100
AcDbEntity
  8
Object
100
AcDbLine
 10
5.171457890809008
 20
9.021402550944545
 30
0.0
 11
5.198457890809008
 21
9.036402550944544
 31
0.0
  0
LINE
  5
8C3
330
1F
100
AcDbEntity
  8
Object
100
AcDbLine
 10
6.471457890809007
 20
9.067402550944544
 30
0.0
 11
6.423457890809007
 21
9.067402550944544
 31
0.0
  0
LINE
  5
8C4
330
1F
100
AcDbEntity
  8
Object
100
AcDbLine
 10
6.471457890809007
 20
9.021402550944545
 30
0.0
 11
6.497457890809007
 21
9.036402550944544
 31
0.0
  0
LINE
  5
8C5
330
1F
100
AcDbEntity
  8
Object
100
AcDbLine
 10
6.497457890809007
 20
9.036402550944544
 30
0.0
 11
6.497457890809007
 21
9.054402550944544
 31
0.0
  0
LINE
  5
8C6
330
1F
100
AcDbEntity
  8
Object
100
AcDbLine
 10
6.423457890809007
 20
9.067402550944544
 30
0.0
 11
6.423457890809007
 21
9.021402550944545
 31
0.0
  0
LINE
  5
8C7
330
1F
100
AcDbEntity
  8
Object
100
AcDbLine
 10
6.497457890809007
 20
9.054402550944544
 30
0.0
 11
6.471457890809007
 21
9.067402550944544
 31
0.0
  0
LINE
  5
8C8
330
1F
100
AcDbEntity
  8
Object
100
AcDbLine
 10
6.423457890809007
 20
9.021402550944545
 30
0.0
 11
6.471457890809007
 21
9.021402550944545
 31
0.0
  0
LINE
  5
8C9
330
1F
100
AcDbEntity
  8
Object
100
AcDbLine
 10
5.282457890809007
 20
8.988402550944545
 30
0.0
 11
5.307457890809008
 21
9.055402550944544
 31
0.0
  0
LINE
  5
8CA
330
1F
100
AcDbEntity
  8
Object
100
AcDbLine
 10
5.307457890809008
 20
9.055402550944544
 30
0.0
 11
5.331457890809008
 21
8.988402550944545
 31
0.0
  0
LINE
  5
8CB
330
1F
100
AcDbEntity
  8
Object
100
AcDbLine
 10
5.331457890809008
 20
8.988402550944545
 30
0.0
 11
5.282457890809007
 21
8.988402550944545
 31
0.0
  0
LINE
  5
8CC
330
1F
100
AcDbEntity
  8
Object
100
AcDbLine
 10
5.609457890809007
 20
9.067402550944544
 30
0.0
 11
5.634457890809008
 21
9.040402550944545
 31
0.0
  0
LINE
  5
8CD
330
1F
100
AcDbEntity
  8
Object
100
AcDbLine
 10
5.634457890809008
 20
9.040402550944545
 30
0.0
 11
5.634457890809008
 21
8.993402550944544
 31
0.0
  0
LINE
  5
8CE
330
1F
100
AcDbEntity
  8
Object
100
AcDbLine
 10
5.634457890809008
 20
8.993402550944544
 30
0.0
 11
5.609457890809007
 21
8.965402550944544
 31
0.0
  0
LINE
  5
8CF
330
1F
100
AcDbEntity
  8
Object
100
AcDbLine
 10
5.609457890809007
 20
8.965402550944544
 30
0.0
 11
5.560457890809008
 21
8.965402550944544
 31
0.0
  0
LINE
  5
8D0
330
1F
100
AcDbEntity
  8
Object
100
AcDbLine
 10
5.560457890809008
 20
8.965402550944544
 30
0.0
 11
5.560457890809008
 21
9.067402550944544
 31
0.0
  0
LINE
  5
8D1
330
1F
100
AcDbEntity
  8
Object
100
AcDbLine
 10
5.560457890809008
 20
9.067402550944544
 30
0.0
 11
5.609457890809007
 21
9.067402550944544
 31
0.0
  0
LINE
  5
8D2
330
1F
100
AcDbEntity
  8
Object
100
AcDbLine
 10
6.624457890809008
 20
9.016402550944544
 30
0.0
 11
6.642457890809008
 21
9.005402550944545
 31
0.0
  0
LINE
  5
8D3
330
1F
100
AcDbEntity
  8
Object
100
AcDbLine
 10
6.642457890809008
 20
9.005402550944545
 30
0.0
 11
6.642457890809008
 21
8.976402550944545
 31
0.0
  0
LINE
  5
8D4
330
1F
100
AcDbEntity
  8
Object
100
AcDbLine
 10
6.642457890809008
 20
8.976402550944545
 30
0.0
 11
6.624457890809008
 21
8.965402550944544
 31
0.0
  0
LINE
  5
8D5
330
1F
100
AcDbEntity
  8
Object
100
AcDbLine
 10
6.624457890809008
 20
8.965402550944544
 30
0.0
 11
6.568457890809008
 21
8.965402550944544
 31
0.0
  0
LINE
  5
8D6
330
1F
100
AcDbEntity
  8
Object
100
AcDbLine
 10
6.568457890809008
 20
8.965402550944544
 30
0.0
 11
6.568457890809008
 21
9.016402550944544
 31
0.0
  0
LINE
  5
8D7
330
1F
100
AcDbEntity
  8
Object
100
AcDbLine
 10
6.568457890809008
 20
9.016402550944544
 30
0.0
 11
6.624457890809008
 21
9.016402550944544
 31
0.0
  0
LINE
  5
8D8
330
1F
100
AcDbEntity
  8
Object
100
AcDbLine
 10
6.625457890809007
 20
9.027402550944545
 30
0.0
 11
6.631457890809008
 21
9.034402550944545
 31
0.0
  0
LINE
  5
8D9
330
1F
100
AcDbEntity
  8
Object
100
AcDbLine
 10
6.625457890809007
 20
9.067402550944544
 30
0.0
 11
6.631457890809008
 21
9.061402550944544
 31
0.0
  0
LINE
  5
8DA
330
1F
100
AcDbEntity
  8
Object
100
AcDbLine
 10
6.631457890809008
 20
9.061402550944544
 30
0.0
 11
6.631457890809008
 21
9.034402550944545
 31
0.0
  0
LINE
  5
8DB
330
1F
100
AcDbEntity
  8
Object
100
AcDbLine
 10
6.625457890809007
 20
9.027402550944545
 30
0.0
 11
6.568457890809008
 21
9.027402550944545
 31
0.0
  0
LINE
  5
8DC
330
1F
100
AcDbEntity
  8
Object
100
AcDbLine
 10
6.568457890809008
 20
9.027402550944545
 30
0.0
 11
6.568457890809008
 21
9.067402550944544
 31
0.0
  0
LINE
  5
8DD
330
1F
100
AcDbEntity
  8
Object
100
AcDbLine
 10
6.568457890809008
 20
9.067402550944544
 30
0.0
 11
6.625457890809007
 21
9.067402550944544
 31
0.0
  0
LINE
  5
8DE
330
1F
100
AcDbEntity
  8
Object
100
AcDbLine
 10
5.171457890809008
 20
9.021402550944545
 30
0.0
 11
5.198457890809008
 21
9.036402550944544
 31
0.0
  0
LINE
  5
8DF
330
1F
100
AcDbEntity
  8
Object
100
AcDbLine
 10
5.171457890809008
 20
9.067402550944544
 30
0.0
 11
5.198457890809008
 21
9.054402550944544
 31
0.0
  0
LINE
  5
8E0
330
1F
100
AcDbEntity
  8
Object
100
AcDbLine
 10
5.198457890809008
 20
9.054402550944544
 30
0.0
 11
5.198457890809008
 21
9.036402550944544
 31
0.0
  0
LINE
  5
8E1
330
1F
100
AcDbEntity
  8
Object
100
AcDbLine
 10
5.171457890809008
 20
9.021402550944545
 30
0.0
 11
5.124457890809008
 21
9.021402550944545
 31
0.0
  0
LINE
  5
8E2
330
1F
100
AcDbEntity
  8
Object
100
AcDbLine
 10
5.124457890809008
 20
9.021402550944545
 30
0.0
 11
5.124457890809008
 21
9.067402550944544
 31
0.0
  0
LINE
  5
8E3
330
1F
100
AcDbEntity
  8
Object
100
AcDbLine
 10
5.124457890809008
 20
9.067402550944544
 30
0.0
 11
5.171457890809008
 21
9.067402550944544
 31
0.0
  0
LINE
  5
8E4
330
1F
100
AcDbEntity
  8
Object
100
AcDbLine
 10
6.471457890809007
 20
9.021402550944545
 30
0.0
 11
6.497457890809007
 21
9.036402550944544
 31
0.0
  0
LINE
  5
8E5
330
1F
100
AcDbEntity
  8
Object
100
AcDbLine
 10
6.471457890809007
 20
9.067402550944544
 30
0.0
 11
6.497457890809007
 21
9.054402550944544
 31
0.0
  0
LINE
  5
8E6
330
1F
100
AcDbEntity
  8
Object
100
AcDbLine
 10
6.497457890809007
 20
9.054402550944544
 30
0.0
 11
6.497457890809007
 21
9.036402550944544
 31
0.0
  0
LINE
  5
8E7
330
1F
100
AcDbEntity
  8
Object
100
AcDbLine
 10
6.471457890809007
 20
9.067402550944544
 30
0.0
 11
6.423457890809007
 21
9.067402550944544
 31
0.0
  0
LINE
  5
8E8
330
1F
100
AcDbEntity
  8
Object
100
AcDbLine
 10
6.423457890809007
 20
9.067402550944544
 30
0.0
 11
6.423457890809007
 21
9.021402550944545
 31
0.0
  0
LINE
  5
8E9
330
1F
100
AcDbEntity
  8
Object
100
AcDbLine
 10
6.423457890809007
 20
9.021402550944545
 30
0.0
 11
6.471457890809007
 21
9.021402550944545
 31
0.0
  0
ENDSEC
  0
SECTION
  2
OBJECTS
  0
DICTIONARY
  5
C
330
0
100
AcDbDictionary
281
     1
  3
ACAD_COLOR
350
73
  3
ACAD_GROUP
350
D
  3
ACAD_LAYOUT
350
1A
  3
ACAD_MATERIAL
350
72
  3
ACAD_MLINESTYLE
350
17
  3
ACAD_PLOTSETTINGS
350
19
  3
ACAD_PLOTSTYLENAME
350
E
  3
ACAD_TABLESTYLE
350
86
  3
ACDBHEADERROUNDTRIPXREC
350
917
  3
AcDbVariableDictionary
350
66
  0
DICTIONARY
  5
148
330
1F
100
AcDbDictionary
280
     1
281
     1
  3
ACAD_SORTENTS
360
149
  0
DICTIONARY
  5
73
102
{ACAD_REACTORS
330
C
102
}
330
C
100
AcDbDictionary
281
     1
  0
DICTIONARY
  5
D
102
{ACAD_REACTORS
330
C
102
}
330
C
100
AcDbDictionary
281
     1
  0
DICTIONARY
  5
1A
102
{ACAD_REACTORS
330
C
102
}
330
C
100
AcDbDictionary
281
     1
  3
Layout1
350
59
  3
Layout2
350
5E
  3
Model
350
22
  0
DICTIONARY
  5
72
102
{ACAD_REACTORS
330
C
102
}
330
C
100
AcDbDictionary
281
     1
  0
DICTIONARY
  5
17
102
{ACAD_REACTORS
330
C
102
}
330
C
100
AcDbDictionary
281
     1
  3
Standard
350
18
  0
DICTIONARY
  5
19
102
{ACAD_REACTORS
330
C
102
}
330
C
100
AcDbDictionary
281
     1
  0
ACDBDICTIONARYWDFLT
  5
E
102
{ACAD_REACTORS
330
C
102
}
330
C
100
AcDbDictionary
281
     1
  3
Normal
350
F
100
AcDbDictionaryWithDefault
340
F
  0
DICTIONARY
  5
86
102
{ACAD_REACTORS
330
C
102
}
330
C
100
AcDbDictionary
281
     1
  3
Standard
350
87
  0
DICTIONARY
  5
917
102
{ACAD_REACTORS
330
C
102
}
330
C
100
AcDbDictionary
281
     1
  0
DICTIONARY
  5
66
102
{ACAD_REACTORS
330
C
102
}
330
C
100
AcDbDictionary
281
     1
  3
CTABLESTYLE
350
5D5
  3
DIMASSOC
350
67
  3
HIDETEXT
350
6B
  3
PROJECTNAME
350
915
  0
SORTENTSTABLE
  5
149
102
{ACAD_REACTORS
330
148
102
}
330
148
100
AcDbSortentsTable
330
1F
331
10C
  5
10C
331
125
  5
125
331
131
  5
131
331
FD
  5
FD
331
119
  5
119
331
F1
  5
F1
331
10D
  5
10D
331
126
  5
126
331
132
  5
132
331
FE
  5
FE
331
11A
  5
11A
331
F2
  5
F2
331
10E
  5
10E
331
127
  5
127
331
133
  5
133
331
FF
  5
FF
331
11B
  5
11B
331
F3
  5
F3
331
10F
  5
10F
331
134
  5
134
331
100
  5
100
331
128
  5
128
331
11C
  5
11C
331
F4
  5
F4
331
110
  5
110
331
135
  5
135
331
129
  5
129
331
11D
  5
11D
331
101
  5
101
331
111
  5
111
331
F5
  5
F5
331
136
  5
136
331
12A
  5
12A
331
11E
  5
11E
331
102
  5
102
331
112
  5
112
331
F6
  5
F6
331
137
  5
137
331
12B
  5
12B
331
11F
  5
11F
331
103
  5
103
331
113
  5
113
331
F7
  5
F7
331
138
  5
138
331
104
  5
104
331
12C
  5
12C
331
120
  5
120
331
F8
  5
F8
331
114
  5
114
331
139
  5
139
331
108
  5
108
331
105
  5
105
331
121
  5
121
331
12D
  5
12D
331
F9
  5
F9
331
115
  5
115
331
13A
  5
13A
331
109
  5
109
331
106
  5
106
331
12E
  5
12E
331
122
  5
122
331
FA
  5
FA
331
116
  5
116
331
10A
  5
10A
331
107
  5
107
331
123
  5
123
331
12F
  5
12F
331
FB
  5
FB
331
117
  5
117
331
10B
  5
10B
331
130
  5
130
331
124
  5
124
331
FC
  5
FC
331
118
  5
118
  0
LAYOUT
  5
59
102
{ACAD_XDICTIONARY
360
91A
102
}
102
{ACAD_REACTORS
330
1A
102
}
330
1A
100
AcDbPlotSettings
  1

  2
None
  4

  6

 40
0.0
 41
0.0
 42
0.0
 43
0.0
 44
0.0
 45
0.0
 46
0.0
 47
0.0
 48
0.0
 49
0.0
140
0.0
141
0.0
142
1.0
143
1.0
 70
   688
 72
     0
 73
     0
 74
     5
  7

 75
    16
147
1.0
148
0.0
149
0.0
100
AcDbLayout
  1
Layout1
 70
     1
 71
     1
 10
0.0
 20
0.0
 11
12.0
 21
9.0
 12
0.0
 22
0.0
 32
0.0
 14
0.0
 24
0.0
 34
0.0
 15
0.0
 25
0.0
 35
0.0
146
0.0
 13
0.0
 23
0.0
 33
0.0
 16
1.0
 26
0.0
 36
0.0
 17
0.0
 27
1.0
 37
0.0
 76
     0
330
58
  0
LAYOUT
  5
5E
102
{ACAD_XDICTIONARY
360
91C
102
}
102
{ACAD_REACTORS
330
1A
102
}
330
1A
100
AcDbPlotSettings
  1

  2
None
  4

  6

 40
0.0
 41
0.0
 42
0.0
 43
0.0
 44
0.0
 45
0.0
 46
0.0
 47
0.0
 48
0.0
 49
0.0
140
0.0
141
0.0
142
1.0
143
1.0
 70
   688
 72
     0
 73
     0
 74
     5
  7

 75
    16
147
1.0
148
0.0
149
0.0
100
AcDbLayout
  1
Layout2
 70
     1
 71
     2
 10
0.0
 20
0.0
 11
12.0
 21
9.0
 12
0.0
 22
0.0
 32
0.0
 14
0.0
 24
0.0
 34
0.0
 15
0.0
 25
0.0
 35
0.0
146
0.0
 13
0.0
 23
0.0
 33
0.0
 16
1.0
 26
0.0
 36
0.0
 17
0.0
 27
1.0
 37
0.0
 76
     0
330
5D
  0
LAYOUT
  5
22
102
{ACAD_XDICTIONARY
360
918
102
}
102
{ACAD_REACTORS
330
1A
102
}
330
1A
100
AcDbPlotSettings
  1

  2
none_device
  4
ANSI_A_(8.50_x_11.00_Inches)
  6

 40
6.349999904632568
 41
19.04999923706055
 42
6.350006103515625
 43
19.04998779296875
 44
215.8999938964844
 45
279.3999938964844
 46
0.0
 47
0.0
 48
0.0
 49
0.0
140
0.0
141
0.0
142
1.0
143
2.584895464708373
 70
 11952
 72
     0
 73
     1
 74
     0
  7

 75
     0
147
0.3868628397755418
148
0.0
149
0.0
100
AcDbLayout
  1
Model
 70
     1
 71
     0
 10
0.0
 20
0.0
 11
12.0
 21
9.0
 12
0.0
 22
0.0
 32
0.0
 14
0.0
 24
0.0
 34
0.0
 15
0.0
 25
0.0
 35
0.0
146
0.0
 13
0.0
 23
0.0
 33
0.0
 16
1.0
 26
0.0
 36
0.0
 17
0.0
 27
1.0
 37
0.0
 76
     0
330
1F
  0
MLINESTYLE
  5
18
102
{ACAD_REACTORS
330
17
102
}
330
17
100
AcDbMlineStyle
  2
STANDARD
 70
     0
  3

 62
   256
 51
90.0
 52
90.0
 71
     2
 49
0.5
 62
   256
  6
BYLAYER
 49
-0.5
 62
   256
  6
BYLAYER
  0
ACDBPLACEHOLDER
  5
F
102
{ACAD_REACTORS
330
E
102
}
330
E
  0
TABLESTYLE
  5
87
102
{ACAD_REACTORS
330
86
102
}
330
86
100
AcDbTableStyle
  3
Standard
 70
     0
 71
     0
 40
0.06
 41
0.06
280
     0
281
     0
  7
Standard
140
0.18
170
     2
 62
     0
 63
     7
283
     0
274
    -2
284
     1
 64
     0
275
    -2
285
     1
 65
     0
276
    -2
286
     1
 66
     0
277
    -2
287
     1
 67
     0
278
    -2
288
     1
 68
     0
279
    -2
289
     1
 69
     0
  7
Standard
140
0.25
170
     5
 62
     0
 63
     7
283
     0
274
    -2
284
     1
 64
     0
275
    -2
285
     1
 65
     0
276
    -2
286
     1
 66
     0
277
    -2
287
     1
 67
     0
278
    -2
288
     1
 68
     0
279
    -2
289
     1
 69
     0
  7
Standard
140
0.18
170
     5
 62
     0
 63
     7
283
     0
274
    -2
284
     1
 64
     0
275
    -2
285
     1
 65
     0
276
    -2
286
     1
 66
     0
277
    -2
287
     1
 67
     0
278
    -2
288
     1
 68
     0
279
    -2
289
     1
 69
     0
  0
DICTIONARYVAR
  5
5D5
102
{ACAD_REACTORS
330
66
102
}
330
66
100
DictionaryVariables
280
     0
  1
STANDARD
  0
DICTIONARYVAR
  5
67
102
{ACAD_REACTORS
330
66
102
}
330
66
100
DictionaryVariables
280
     0
  1
2
  0
DICTIONARYVAR
  5
6B
102
{ACAD_REACTORS
330
66
102
}
330
66
100
DictionaryVariables
280
     0
  1
1
  0
DICTIONARYVAR
  5
915
102
{ACAD_REACTORS
330
66
102
}
330
66
100
DictionaryVariables
280
     0
  1

  0
DICTIONARY
  5
91A
330
59
100
AcDbDictionary
280
     1
281
     1
  3
ACAD_XREC_ROUNDTRIP
360
91B
  0
DICTIONARY
  5
91C
330
5E
100
AcDbDictionary
280
     1
281
     1
  3
ACAD_XREC_ROUNDTRIP
360
91D
  0
DICTIONARY
  5
918
330
22
100
AcDbDictionary
280
     1
281
     1
  3
ACAD_XREC_ROUNDTRIP
360
919
  0
XRECORD
  5
91B
102
{ACAD_REACTORS
330
91A
102
}
330
91A
100
AcDbXrecord
280
     1
102
SHADEPLOT
 70
     0
102
SHADEPLOTRESLEVEL
 70
     2
102
SHADEPLOTCUSTOMDPI
 70
   300
  0
XRECORD
  5
91D
102
{ACAD_REACTORS
330
91C
102
}
330
91C
100
AcDbXrecord
280
     1
102
SHADEPLOT
 70
     0
102
SHADEPLOTRESLEVEL
 70
     2
102
SHADEPLOTCUSTOMDPI
 70
   300
  0
XRECORD
  5
919
102
{ACAD_REACTORS
330
918
102
}
330
918
100
AcDbXrecord
280
     1
102
SHADEPLOT
 70
     0
102
SHADEPLOTRESLEVEL
 70
     2
102
SHADEPLOTCUSTOMDPI
 70
   300
  0
ENDSEC
  0
EOF
