  0
SECTION
  2
HEADER
  9
$ACADVER
  1
AC1015
  9
$ACADMAINTVER
 70
    20
  9
$DWGCODEPAGE
  3
ANSI_1252
  9
$INSBASE
 10
0.0
 20
0.0
 30
0.0
  9
$EXTMIN
 10
-0.075
 20
-0.075
 30
0.0
  9
$EXTMAX
 10
34.07500000000001
 20
22.075
 30
0.0
  9
$LIMMIN
 10
0.0
 20
0.0
  9
$LIMMAX
 10
12.0
 20
9.0
  9
$ORTHOMODE
 70
     0
  9
$REGENMODE
 70
     1
  9
$FILLMODE
 70
     1
  9
$QTEXTMODE
 70
     0
  9
$MIRRTEXT
 70
     1
  9
$LTSCALE
 40
1.0
  9
$ATTMODE
 70
     1
  9
$TEXTSIZE
 40
0.125
  9
$TRACEWID
 40
0.05
  9
$TEXTSTYLE
  7
STANDARD
  9
$CLAYER
  8
0
  9
$CELTYPE
  6
BYLAYER
  9
$CECOLOR
 62
   256
  9
$CELTSCALE
 40
1.0
  9
$DISPSILH
 70
     0
  9
$DIMSCALE
 40
1.0
  9
$DIMASZ
 40
0.125
  9
$DIMEXO
 40
0.0625
  9
$DIMDLI
 40
0.38
  9
$DIMRND
 40
0.0
  9
$DIMDLE
 40
0.0
  9
$DIMEXE
 40
0.125
  9
$DIMTP
 40
0.0
  9
$DIMTM
 40
0.0
  9
$DIMTXT
 40
0.09
  9
$DIMCEN
 40
0.09
  9
$DIMTSZ
 40
0.0
  9
$DIMTOL
 70
     0
  9
$DIMLIM
 70
     0
  9
$DIMTIH
 70
     1
  9
$DIMTOH
 70
     1
  9
$DIMSE1
 70
     0
  9
$DIMSE2
 70
     0
  9
$DIMTAD
 70
     0
  9
$DIMZIN
 70
     0
  9
$DIMBLK
  1

  9
$DIMASO
 70
     1
  9
$DIMSHO
 70
     1
  9
$DIMPOST
  1

  9
$DIMAPOST
  1
mm
  9
$DIMALT
 70
     1
  9
$DIMALTD
 70
     1
  9
$DIMALTF
 40
25.4
  9
$DIMLFAC
 40
1.0
  9
$DIMTOFL
 70
     0
  9
$DIMTVP
 40
0.0
  9
$DIMTIX
 70
     0
  9
$DIMSOXD
 70
     0
  9
$DIMSAH
 70
     0
  9
$DIMBLK1
  1

  9
$DIMBLK2
  1

  9
$DIMSTYLE
  2
STANDARD
  9
$DIMCLRD
 70
     0
  9
$DIMCLRE
 70
     0
  9
$DIMCLRT
 70
     0
  9
$DIMTFAC
 40
1.0
  9
$DIMGAP
 40
0.09
  9
$DIMJUST
 70
     0
  9
$DIMSD1
 70
     0
  9
$DIMSD2
 70
     0
  9
$DIMTOLJ
 70
     1
  9
$DIMTZIN
 70
     0
  9
$DIMALTZ
 70
     0
  9
$DIMALTTZ
 70
     0
  9
$DIMUPT
 70
     0
  9
$DIMDEC
 70
     2
  9
$DIMTDEC
 70
     2
  9
$DIMALTU
 70
     2
  9
$DIMALTTD
 70
     1
  9
$DIMTXSTY
  7
STANDARD
  9
$DIMAUNIT
 70
     0
  9
$DIMADEC
 70
     0
  9
$DIMALTRND
 40
0.0
  9
$DIMAZIN
 70
     0
  9
$DIMDSEP
 70
    46
  9
$DIMATFIT
 70
     3
  9
$DIMFRAC
 70
     0
  9
$DIMLDRBLK
  1

  9
$DIMLUNIT
 70
     2
  9
$DIMLWD
 70
    -2
  9
$DIMLWE
 70
    -2
  9
$DIMTMOVE
 70
     0
  9
$LUNITS
 70
     2
  9
$LUPREC
 70
     2
  9
$SKETCHINC
 40
0.1
  9
$FILLETRAD
 40
0.5
  9
$AUNITS
 70
     0
  9
$AUPREC
 70
     0
  9
$MENU
  1
.
  9
$ELEVATION
 40
0.0
  9
$PELEVATION
 40
0.0
  9
$THICKNESS
 40
0.0
  9
$LIMCHECK
 70
     0
  9
$CHAMFERA
 40
0.5
  9
$CHAMFERB
 40
0.5
  9
$CHAMFERC
 40
1.0
  9
$CHAMFERD
 40
0.0
  9
$SKPOLY
 70
     0
  9
$TDCREATE
 40
2451681.555436007
  9
$TDUCREATE
 40
2451681.763769340
  9
$TDUPDATE
 40
2454294.605457859
  9
$TDUUPDATE
 40
2454294.813791193
  9
$TDINDWG
 40
0.2239204167
  9
$TDUSRTIMER
 40
0.2239204167
  9
$USRTIMER
 70
     1
  9
$ANGBASE
 50
0.0
  9
$ANGDIR
 70
     0
  9
$PDMODE
 70
     2
  9
$PDSIZE
 40
0.075
  9
$PLINEWID
 40
0.0
  9
$SPLFRAME
 70
     0
  9
$SPLINETYPE
 70
     6
  9
$SPLINESEGS
 70
     8
  9
$HANDSEED
  5
14A7
  9
$SURFTAB1
 70
     6
  9
$SURFTAB2
 70
     6
  9
$SURFTYPE
 70
     6
  9
$SURFU
 70
     6
  9
$SURFV
 70
     6
  9
$UCSBASE
  2

  9
$UCSNAME
  2

  9
$UCSORG
 10
0.0
 20
0.0
 30
0.0
  9
$UCSXDIR
 10
1.0
 20
0.0
 30
0.0
  9
$UCSYDIR
 10
0.0
 20
1.0
 30
0.0
  9
$UCSORTHOREF
  2

  9
$UCSORTHOVIEW
 70
     0
  9
$UCSORGTOP
 10
0.0
 20
0.0
 30
0.0
  9
$UCSORGBOTTOM
 10
0.0
 20
0.0
 30
0.0
  9
$UCSORGLEFT
 10
0.0
 20
0.0
 30
0.0
  9
$UCSORGRIGHT
 10
0.0
 20
0.0
 30
0.0
  9
$UCSORGFRONT
 10
0.0
 20
0.0
 30
0.0
  9
$UCSORGBACK
 10
0.0
 20
0.0
 30
0.0
  9
$PUCSBASE
  2

  9
$PUCSNAME
  2

  9
$PUCSORG
 10
0.0
 20
0.0
 30
0.0
  9
$PUCSXDIR
 10
1.0
 20
0.0
 30
0.0
  9
$PUCSYDIR
 10
0.0
 20
1.0
 30
0.0
  9
$PUCSORTHOREF
  2

  9
$PUCSORTHOVIEW
 70
     0
  9
$PUCSORGTOP
 10
0.0
 20
0.0
 30
0.0
  9
$PUCSORGBOTTOM
 10
0.0
 20
0.0
 30
0.0
  9
$PUCSORGLEFT
 10
0.0
 20
0.0
 30
0.0
  9
$PUCSORGRIGHT
 10
0.0
 20
0.0
 30
0.0
  9
$PUCSORGFRONT
 10
0.0
 20
0.0
 30
0.0
  9
$PUCSORGBACK
 10
0.0
 20
0.0
 30
0.0
  9
$USERI1
 70
     0
  9
$USERI2
 70
     0
  9
$USERI3
 70
     0
  9
$USERI4
 70
     0
  9
$USERI5
 70
     0
  9
$USERR1
 40
0.0
  9
$USERR2
 40
0.0
  9
$USERR3
 40
0.0
  9
$USERR4
 40
0.0
  9
$USERR5
 40
0.0
  9
$WORLDVIEW
 70
     1
  9
$SHADEDGE
 70
     3
  9
$SHADEDIF
 70
    70
  9
$TILEMODE
 70
     1
  9
$MAXACTVP
 70
    48
  9
$PINSBASE
 10
0.0
 20
0.0
 30
0.0
  9
$PLIMCHECK
 70
     0
  9
$PEXTMIN
 10
1.000000000000000E+20
 20
1.000000000000000E+20
 30
1.000000000000000E+20
  9
$PEXTMAX
 10
-1.000000000000000E+20
 20
-1.000000000000000E+20
 30
-1.000000000000000E+20
  9
$PLIMMIN
 10
0.0
 20
0.0
  9
$PLIMMAX
 10
12.0
 20
9.0
  9
$UNITMODE
 70
     0
  9
$VISRETAIN
 70
     1
  9
$PLINEGEN
 70
     0
  9
$PSLTSCALE
 70
     1
  9
$TREEDEPTH
 70
  3020
  9
$CMLSTYLE
  2
STANDARD
  9
$CMLJUST
 70
     0
  9
$CMLSCALE
 40
1.0
  9
$PROXYGRAPHICS
 70
     1
  9
$MEASUREMENT
 70
     0
  9
$CELWEIGHT
370
    -1
  9
$ENDCAPS
280
     0
  9
$JOINSTYLE
280
     0
  9
$LWDISPLAY
290
     0
  9
$INSUNITS
 70
     0
  9
$HYPERLINKBASE
  1

  9
$STYLESHEET
  1

  9
$XEDIT
290
     1
  9
$CEPSNTYPE
380
     0
  9
$PSTYLEMODE
290
     1
  9
$FINGERPRINTGUID
  2
{86812B9D-AB26-409B-B573-6F1750BA61C7}
  9
$VERSIONGUID
  2
{9CA82142-EFD4-4967-BA00-793DB0C9B1B6}
  9
$EXTNAMES
290
     1
  9
$PSVPSCALE
 40
0.0
  9
$OLESTARTUP
290
     0
  0
ENDSEC
  0
SECTION
  2
CLASSES
  0
CLASS
  1
ACDBDICTIONARYWDFLT
  2
AcDbDictionaryWithDefault
  3
ObjectDBX Classes
 90
        0
280
     0
281
     0
  0
CLASS
  1
TABLESTYLE
  2
AcDbTableStyle
  3
ObjectDBX Classes
 90
     2047
280
     0
281
     0
  0
CLASS
  1
DICTIONARYVAR
  2
AcDbDictionaryVar
  3
ObjectDBX Classes
 90
        0
280
     0
281
     0
  0
CLASS
  1
ACDBPLACEHOLDER
  2
AcDbPlaceHolder
  3
ObjectDBX Classes
 90
        0
280
     0
281
     0
  0
CLASS
  1
LAYOUT
  2
AcDbLayout
  3
ObjectDBX Classes
 90
        0
280
     0
281
     0
  0
ENDSEC
  0
SECTION
  2
TABLES
  0
TABLE
  2
VPORT
  5
8
330
0
100
AcDbSymbolTable
 70
     2
  0
VPORT
  5
14A1
330
8
100
AcDbSymbolTableRecord
100
AcDbViewportTableRecord
  2
*Active
 70
     0
 10
0.0
 20
0.0
 11
1.0
 21
1.0
 12
17.0000005367371
 22
11.78000192453854
 13
0.0
 23
0.0
 14
0.5
 24
0.5
 15
0.5
 25
0.5
 16
0.0
 26
0.0
 36
1.0
 17
0.0
 27
0.0
 37
0.0
 40
23.85471142350411
 41
1.499364675984752
 42
50.0
 43
0.0
 44
0.0
 50
0.0
 51
0.0
 71
     0
 72
   100
 73
     1
 74
     1
 75
     0
 76
     0
 77
     0
 78
     0
281
     0
 65
     1
110
0.0
120
0.0
130
0.0
111
1.0
121
0.0
131
0.0
112
0.0
122
1.0
132
0.0
 79
     0
146
0.0
  0
ENDTAB
  0
TABLE
  2
LTYPE
  5
5
330
0
100
AcDbSymbolTable
 70
     1
  0
LTYPE
  5
12
330
5
100
AcDbSymbolTableRecord
100
AcDbLinetypeTableRecord
  2
BYBLOCK
 70
     0
  3

 72
    65
 73
     0
 40
0.0
  0
LTYPE
  5
13
330
5
100
AcDbSymbolTableRecord
100
AcDbLinetypeTableRecord
  2
BYLAYER
 70
     0
  3

 72
    65
 73
     0
 40
0.0
  0
LTYPE
  5
14
330
5
100
AcDbSymbolTableRecord
100
AcDbLinetypeTableRecord
  2
CONTINUOUS
 70
     0
  3
Solid line
 72
    65
 73
     0
 40
0.0
  0
ENDTAB
  0
TABLE
  2
LAYER
  5
2
102
{ACAD_XDICTIONARY
360
16C
102
}
330
0
100
AcDbSymbolTable
 70
     6
  0
LAYER
  5
E
330
2
100
AcDbSymbolTableRecord
100
AcDbLayerTableRecord
  2
0
 70
     0
 62
     7
  6
CONTINUOUS
370
    -3
390
124
  0
LAYER
  5
20
330
2
100
AcDbSymbolTableRecord
100
AcDbLayerTableRecord
  2
Title Block
 70
     0
 62
     3
  6
CONTINUOUS
370
    -3
390
124
  0
LAYER
  5
21
330
2
100
AcDbSymbolTableRecord
100
AcDbLayerTableRecord
  2
Dimension
 70
     0
 62
     6
  6
CONTINUOUS
370
    -3
390
124
  0
LAYER
  5
22
330
2
100
AcDbSymbolTableRecord
100
AcDbLayerTableRecord
  2
Text
 70
     0
 62
     1
  6
CONTINUOUS
370
    -3
390
124
  0
LAYER
  5
23
330
2
100
AcDbSymbolTableRecord
100
AcDbLayerTableRecord
  2
Object
 70
     0
 62
     5
  6
CONTINUOUS
370
    -3
390
124
  0
LAYER
  5
197
330
2
100
AcDbSymbolTableRecord
100
AcDbLayerTableRecord
  2
Defpoints
 70
     0
 62
     7
  6
CONTINUOUS
290
     0
370
    -3
390
124
  0
ENDTAB
  0
TABLE
  2
STYLE
  5
3
330
0
100
AcDbSymbolTable
 70
     1
  0
STYLE
  5
F
330
3
100
AcDbSymbolTableRecord
100
AcDbTextStyleTableRecord
  2
STANDARD
 70
     0
 40
0.0
 41
1.0
 50
0.0
 71
     0
 42
0.125
  3
technic_.ttf
  4

1001
ACAD
1000
Technic
1071
      514
  0
ENDTAB
  0
TABLE
  2
VIEW
  5
6
330
0
100
AcDbSymbolTable
 70
     0
  0
ENDTAB
  0
TABLE
  2
UCS
  5
7
330
0
100
AcDbSymbolTable
 70
     0
  0
ENDTAB
  0
TABLE
  2
APPID
  5
9
330
0
100
AcDbSymbolTable
 70
     4
  0
APPID
  5
10
330
9
100
AcDbSymbolTableRecord
100
AcDbRegAppTableRecord
  2
ACAD
 70
     0
  0
APPID
  5
161
330
9
100
AcDbSymbolTableRecord
100
AcDbRegAppTableRecord
  2
DCO15
 70
     0
  0
APPID
  5
16B
330
9
100
AcDbSymbolTableRecord
100
AcDbRegAppTableRecord
  2
AcAecLayerStandard
 70
     0
  0
APPID
  5
1C7
330
9
100
AcDbSymbolTableRecord
100
AcDbRegAppTableRecord
  2
ACAD_DSTYLE_DIMTEXT_FILL
 70
     0
  0
ENDTAB
  0
TABLE
  2
DIMSTYLE
  5
A
330
0
100
AcDbSymbolTable
 70
     1
100
AcDbDimStyleTable
 71
     1
340
1D
  0
DIMSTYLE
105
1D
102
{ACAD_REACTORS
330
1466
330
1474
330
1482
102
}
330
A
100
AcDbSymbolTableRecord
100
AcDbDimStyleTableRecord
  2
STANDARD
 70
     0
  4
mm
 41
0.125
 44
0.125
140
0.09
170
     1
171
     1
271
     2
272
     2
274
     1
340
F
  0
ENDTAB
  0
TABLE
  2
BLOCK_RECORD
  5
1
330
0
100
AcDbSymbolTable
 70
     3
  0
BLOCK_RECORD
  5
18
330
1
100
AcDbSymbolTableRecord
100
AcDbBlockTableRecord
  2
*MODEL_SPACE
340
12B
  0
BLOCK_RECORD
  5
15
330
1
100
AcDbSymbolTableRecord
100
AcDbBlockTableRecord
  2
*PAPER_SPACE
340
12C
  0
BLOCK_RECORD
  5
1467
330
1
100
AcDbSymbolTableRecord
100
AcDbBlockTableRecord
  2
*D0
340
0
  0
BLOCK_RECORD
  5
1475
330
1
100
AcDbSymbolTableRecord
100
AcDbBlockTableRecord
  2
*D1
340
0
  0
BLOCK_RECORD
  5
1483
330
1
100
AcDbSymbolTableRecord
100
AcDbBlockTableRecord
  2
*D2
340
0
  0
ENDTAB
  0
ENDSEC
  0
SECTION
  2
BLOCKS
  0
BLOCK
  5
19
330
18
100
AcDbEntity
  8
0
100
AcDbBlockBegin
  2
*MODEL_SPACE
 70
     0
 10
0.0
 20
0.0
 30
0.0
  3
*MODEL_SPACE
  1

  0
ENDBLK
  5
1A
330
18
100
AcDbEntity
  8
0
100
AcDbBlockEnd
  0
BLOCK
  5
16
330
15
100
AcDbEntity
 67
     1
  8
0
100
AcDbBlockBegin
  2
*PAPER_SPACE
 70
     0
 10
0.0
 20
0.0
 30
0.0
  3
*PAPER_SPACE
  1

  0
ENDBLK
  5
17
330
15
100
AcDbEntity
 67
     1
  8
0
100
AcDbBlockEnd
  0
BLOCK
  5
1472
330
1467
100
AcDbEntity
  8
0
100
AcDbBlockBegin
  2
*D0
 70
     1
 10
0.0
 20
0.0
 30
0.0
  3
*D0
  1

  0
LINE
  5
1468
330
1467
100
AcDbEntity
  8
Dimension
 62
     0
370
    -2
100
AcDbLine
 10
15.66583333333333
 20
14.53666666666667
 30
0.0
 11
16.83696563558361
 21
14.53666666666667
 31
0.0
  0
LINE
  5
1469
330
1467
100
AcDbEntity
  8
Dimension
 62
     0
370
    -2
100
AcDbLine
 10
13.49472222222222
 20
18.53666666666666
 30
0.0
 11
16.83696563558361
 21
18.53666666666666
 31
0.0
  0
LINE
  5
146A
330
1467
100
AcDbEntity
  8
Dimension
 62
     0
370
    -2
100
AcDbLine
 10
16.71196563558361
 20
14.66166666666667
 30
0.0
 11
16.71196563558361
 21
16.38364035087719
 31
0.0
  0
LINE
  5
146B
330
1467
100
AcDbEntity
  8
Dimension
 62
     0
370
    -2
100
AcDbLine
 10
16.71196563558361
 20
18.41166666666666
 30
0.0
 11
16.71196563558361
 21
16.68969298245614
 31
0.0
  0
SOLID
  5
146C
330
1467
100
AcDbEntity
  8
Dimension
 62
     0
100
AcDbTrace
 10
16.69113230225027
 20
14.66166666666667
 30
0.0
 11
16.73279896891694
 21
14.66166666666667
 31
0.0
 12
16.71196563558361
 22
14.53666666666667
 32
0.0
 13
16.71196563558361
 23
14.53666666666667
 33
0.0
  0
SOLID
  5
146D
330
1467
100
AcDbEntity
  8
Dimension
 62
     0
100
AcDbTrace
 10
16.69113230225027
 20
18.41166666666666
 30
0.0
 11
16.73279896891694
 21
18.41166666666666
 31
0.0
 12
16.71196563558361
 22
18.53666666666666
 32
0.0
 13
16.71196563558361
 23
18.53666666666666
 33
0.0
  0
MTEXT
  5
146E
330
1467
100
AcDbEntity
  8
Dimension
 62
     0
100
AcDbMText
 10
16.7119656355836
 20
16.53666666666667
 30
0.0
 40
0.09
 41
0.0
 71
     5
 72
     1
  1
\A1;4.00 [101.6mm]
 73
     1
 44
1.0
1001
ACAD
1000
MTEXTBEGIN
1070
    73
1070
     1
1070
    44
1040
1.0
1070
    74
1070
     0
1000
MTEXTEND
  0
POINT
  5
146F
330
1467
100
AcDbEntity
  8
Defpoints
 62
     0
100
AcDbPoint
 10
15.60333333333333
 20
14.53666666666667
 30
0.0
  0
POINT
  5
1470
330
1467
100
AcDbEntity
  8
Defpoints
 62
     0
100
AcDbPoint
 10
13.43222222222222
 20
18.53666666666666
 30
0.0
  0
POINT
  5
1471
330
1467
100
AcDbEntity
  8
Defpoints
 62
     0
100
AcDbPoint
 10
16.71196563558361
 20
18.53666666666666
 30
0.0
  0
ENDBLK
  5
1473
330
1467
100
AcDbEntity
  8
0
100
AcDbBlockEnd
  0
BLOCK
  5
1480
330
1475
100
AcDbEntity
  8
0
100
AcDbBlockBegin
  2
*D1
 70
     1
 10
0.0
 20
0.0
 30
0.0
  3
*D1
  1

  0
LINE
  5
1476
330
1475
100
AcDbEntity
  8
Dimension
 62
     0
370
    -2
100
AcDbLine
 10
4.712222222222222
 20
10.07916666666667
 30
0.0
 11
4.712222222222222
 21
11.25132503697779
 31
0.0
  0
LINE
  5
1477
330
1475
100
AcDbEntity
  8
Dimension
 62
     0
370
    -2
100
AcDbLine
 10
15.60333333333333
 20
10.07916666666667
 30
0.0
 11
15.60333333333333
 21
11.25132503697779
 31
0.0
  0
LINE
  5
1478
330
1475
100
AcDbEntity
  8
Dimension
 62
     0
370
    -2
100
AcDbLine
 10
4.837222222222222
 20
11.12632503697779
 30
0.0
 11
9.601133040935671
 21
11.12632503697779
 31
0.0
  0
LINE
  5
1479
330
1475
100
AcDbEntity
  8
Dimension
 62
     0
370
    -2
100
AcDbLine
 10
15.47833333333333
 20
11.12632503697779
 30
0.0
 11
10.71442251461988
 21
11.12632503697779
 31
0.0
  0
SOLID
  5
147A
330
1475
100
AcDbEntity
  8
Dimension
 62
     0
100
AcDbTrace
 10
4.837222222222222
 20
11.14715837031113
 30
0.0
 11
4.837222222222222
 21
11.10549170364446
 31
0.0
 12
4.712222222222222
 22
11.12632503697779
 32
0.0
 13
4.712222222222222
 23
11.12632503697779
 33
0.0
  0
SOLID
  5
147B
330
1475
100
AcDbEntity
  8
Dimension
 62
     0
100
AcDbTrace
 10
15.47833333333333
 20
11.14715837031113
 30
0.0
 11
15.47833333333333
 21
11.10549170364446
 31
0.0
 12
15.60333333333333
 22
11.12632503697779
 32
0.0
 13
15.60333333333333
 23
11.12632503697779
 33
0.0
  0
MTEXT
  5
147C
330
1475
100
AcDbEntity
  8
Dimension
 62
     0
100
AcDbMText
 10
10.15777777777778
 20
11.12632503697779
 30
0.0
 40
0.09
 41
0.0
 71
     5
 72
     1
  1
\A1;10.89 [276.6mm]
 73
     1
 44
1.0
1001
ACAD
1000
MTEXTBEGIN
1070
    73
1070
     1
1070
    44
1040
1.0
1070
    74
1070
     0
1000
MTEXTEND
  0
POINT
  5
147D
330
1475
100
AcDbEntity
  8
Defpoints
 62
     0
100
AcDbPoint
 10
4.712222222222222
 20
10.01666666666666
 30
0.0
  0
POINT
  5
147E
330
1475
100
AcDbEntity
  8
Defpoints
 62
     0
100
AcDbPoint
 10
15.60333333333333
 20
10.01666666666666
 30
0.0
  0
POINT
  5
147F
330
1475
100
AcDbEntity
  8
Defpoints
 62
     0
100
AcDbPoint
 10
15.60333333333333
 20
11.12632503697779
 30
0.0
  0
ENDBLK
  5
1481
330
1475
100
AcDbEntity
  8
0
100
AcDbBlockEnd
  0
BLOCK
  5
148E
330
1483
100
AcDbEntity
  8
0
100
AcDbBlockBegin
  2
*D2
 70
     1
 10
0.0
 20
0.0
 30
0.0
  3
*D2
  1

  0
LINE
  5
1484
330
1483
100
AcDbEntity
  8
Dimension
 62
     0
370
    -2
100
AcDbLine
 10
24.84416666666667
 20
10.01666666666666
 30
0.0
 11
23.2191204191354
 21
10.01666666666666
 31
0.0
  0
LINE
  5
1485
330
1483
100
AcDbEntity
  8
Dimension
 62
     0
370
    -2
100
AcDbLine
 10
24.84416666666667
 20
4.056666666666666
 30
0.0
 11
23.21912041913539
 21
4.056666666666666
 31
0.0
  0
LINE
  5
1486
330
1483
100
AcDbEntity
  8
Dimension
 62
     0
370
    -2
100
AcDbLine
 10
23.3441204191354
 20
9.891666666666667
 30
0.0
 11
23.34412041913539
 21
7.18969298245614
 31
0.0
  0
LINE
  5
1487
330
1483
100
AcDbEntity
  8
Dimension
 62
     0
370
    -2
100
AcDbLine
 10
23.34412041913539
 20
4.181666666666666
 30
0.0
 11
23.34412041913539
 21
6.883640350877193
 31
0.0
  0
SOLID
  5
1488
330
1483
100
AcDbEntity
  8
Dimension
 62
     0
100
AcDbTrace
 10
23.32328708580206
 20
9.891666666666667
 30
0.0
 11
23.36495375246873
 21
9.891666666666667
 31
0.0
 12
23.3441204191354
 22
10.01666666666666
 32
0.0
 13
23.3441204191354
 23
10.01666666666666
 33
0.0
  0
SOLID
  5
1489
330
1483
100
AcDbEntity
  8
Dimension
 62
     0
100
AcDbTrace
 10
23.32328708580206
 20
4.181666666666666
 30
0.0
 11
23.36495375246872
 21
4.181666666666666
 31
0.0
 12
23.34412041913539
 22
4.056666666666666
 32
0.0
 13
23.34412041913539
 23
4.056666666666666
 33
0.0
  0
MTEXT
  5
148A
330
1483
100
AcDbEntity
  8
Dimension
 62
     0
100
AcDbMText
 10
23.34412041913539
 20
7.03666666666667
 30
0.0
 40
0.09
 41
0.0
 71
     5
 72
     1
  1
\A1;5.96 [151.4mm]
 73
     1
 44
1.0
1001
ACAD
1000
MTEXTBEGIN
1070
    73
1070
     1
1070
    44
1040
1.0
1070
    74
1070
     0
1000
MTEXTEND
  0
POINT
  5
148B
330
1483
100
AcDbEntity
  8
Defpoints
 62
     0
100
AcDbPoint
 10
24.90666666666667
 20
10.01666666666666
 30
0.0
  0
POINT
  5
148C
330
1483
100
AcDbEntity
  8
Defpoints
 62
     0
100
AcDbPoint
 10
24.90666666666667
 20
4.056666666666666
 30
0.0
  0
POINT
  5
148D
330
1483
100
AcDbEntity
  8
Defpoints
 62
     0
100
AcDbPoint
 10
23.34412041913539
 20
4.056666666666666
 30
0.0
  0
ENDBLK
  5
148F
330
1483
100
AcDbEntity
  8
0
100
AcDbBlockEnd
  0
ENDSEC
  0
SECTION
  2
ENTITIES
  0
TEXT
  5
51
330
18
100
AcDbEntity
  8
Title Block
100
AcDbText
 10
29.77669501265554
 20
2.672489851525508
 30
0.0
 40
0.05
  1
FILENAME:
100
AcDbText
  0
TEXT
  5
52
330
18
100
AcDbEntity
  8
Title Block
100
AcDbText
 10
29.76928502872825
 20
2.076224967549325
 30
0.0
 40
0.35
  1
PANDUIT
100
AcDbText
  0
TEXT
  5
53
330
18
100
AcDbEntity
  8
Title Block
100
AcDbText
 10
31.72182039882138
 20
2.061410940562986
 30
0.0
 40
0.125
  1
CORP. TINLEY PARK, IL
100
AcDbText
  0
TEXT
  5
54
330
18
100
AcDbEntity
  8
Title Block
100
AcDbText
 10
29.78039997670861
 20
1.91697409709392
 30
0.0
 40
0.05
  1
TITLE:
100
AcDbText
  0
MTEXT
  5
57
330
18
100
AcDbEntity
  8
Title Block
100
AcDbMText
 10
31.0
 20
1.372215793536348
 30
0.0
 40
0.075
 41
2.5
 71
     5
 72
     5
  1
UNLESS OTHERWISE SPECIFIED,\PDIMENSIONAL TOLERANCES ARE:       
 73
     1
 44
1.0
1001
ACAD
1000
MTEXTBEGIN
1070
    73
1070
     1
1070
    44
1040
1.0
1070
    74
1070
     0
1000
MTEXTEND
  0
MTEXT
  5
58
330
18
100
AcDbEntity
  8
Title Block
100
AcDbMText
 10
30.39237986661002
 20
1.131487708483632
 30
0.0
 40
0.075
 41
2.5
 71
     5
 72
     5
  1
(.X)\P(.XX)
 73
     1
 44
1.0
1001
ACAD
1000
MTEXTBEGIN
1070
    73
1070
     1
1070
    44
1040
1.0
1070
    74
1070
     0
1000
MTEXTEND
  0
MTEXT
  5
59
330
18
100
AcDbEntity
  8
Title Block
100
AcDbMText
 10
31.40014005312412
 20
1.131487708483632
 30
0.0
 40
0.075
 41
2.5
 71
     5
 72
     5
  1
(.XXX)\PANGLES:
 73
     1
 44
1.0
1001
ACAD
1000
MTEXTBEGIN
1070
    73
1070
     1
1070
    44
1040
1.0
1070
    74
1070
     0
1000
MTEXTEND
  0
MTEXT
  5
5A
330
18
100
AcDbEntity
  8
Title Block
100
AcDbMText
 10
33.0
 20
1.25
 30
0.0
 40
0.06
 41
1.5
 71
     5
 72
     5
  1
UNLESS OTHERWISE SPECIFIED,\PALL DIMENSIONS ARE GIVEN IN INCHES, THIRD ANGLE PROJECTION
 73
     1
 44
1.0
1001
ACAD
1000
MTEXTBEGIN
1070
    73
1070
     1
1070
    44
1040
1.0
1070
    74
1070
     0
1000
MTEXTEND
  0
TEXT
  5
5E
330
18
100
AcDbEntity
  8
Title Block
100
AcDbText
 10
29.76076445430619
 20
0.9281373372752312
 30
0.0
 40
0.05
  1
DRAWN BY:
100
AcDbText
  0
TEXT
  5
5F
330
18
100
AcDbEntity
  8
Title Block
100
AcDbText
 10
29.76446947418043
 20
0.6811431865635028
 30
0.0
 40
0.05
  1
DATE:
100
AcDbText
  0
TEXT
  5
60
330
18
100
AcDbEntity
  8
Title Block
100
AcDbText
 10
29.7681744382335
 20
0.4304455338317968
 30
0.0
 40
0.05
  1
CHECKED BY:
100
AcDbText
  0
TEXT
  5
62
330
18
100
AcDbEntity
  8
Title Block
100
AcDbText
 10
30.52028959313306
 20
0.9281373372752312
 30
0.0
 40
0.05
  1
MATERIAL:
100
AcDbText
  0
TEXT
  5
63
330
18
100
AcDbEntity
  8
Title Block
100
AcDbText
 10
32.26534493878154
 20
0.9281373372752312
 30
0.0
 40
0.05
  1
SCALE:
100
AcDbText
  0
TEXT
  5
64
330
18
100
AcDbEntity
  8
Title Block
100
AcDbText
 10
32.26534493878154
 20
0.6725952630490007
 30
0.0
 40
0.05
  1
DRAWING NUMBER:
100
AcDbText
  0
TEXT
  5
65
330
18
100
AcDbEntity
  8
Title Block
100
AcDbText
 10
33.34942622928998
 20
0.6762987650689816
 30
0.0
 40
0.05
  1
DRAWING
100
AcDbText
  0
TEXT
  5
66
330
18
100
AcDbEntity
  8
Title Block
100
AcDbText
 10
33.42723125590085
 20
0.2811642688682026
 30
0.0
 40
0.05
  1
SIZE
100
AcDbText
  0
TEXT
  5
67
330
18
100
AcDbEntity
  8
Title Block
100
AcDbText
 10
33.4049339528984
 20
0.3826699445861052
 30
0.0
 40
0.25
  1
D
100
AcDbText
  0
MTEXT
  5
68
330
18
100
AcDbEntity
  8
Title Block
100
AcDbMText
 10
23.375
 20
0.375
 30
0.0
 40
0.05
 41
0.25
 71
     5
 72
     5
  1
REV
 73
     1
 44
1.0
1001
ACAD
1000
MTEXTBEGIN
1070
    73
1070
     1
1070
    44
1040
1.0
1070
    74
1070
     0
1000
MTEXTEND
  0
MTEXT
  5
69
330
18
100
AcDbEntity
  8
Title Block
100
AcDbMText
 10
23.75
 20
0.375
 30
0.0
 40
0.05
 41
0.5
 71
     5
 72
     5
  1
DATE
 73
     1
 44
1.0
1001
ACAD
1000
MTEXTBEGIN
1070
    73
1070
     1
1070
    44
1040
1.0
1070
    74
1070
     0
1000
MTEXTEND
  0
MTEXT
  5
6A
330
18
100
AcDbEntity
  8
Title Block
100
AcDbMText
 10
24.19
 20
0.375
 30
0.0
 40
0.05
 41
0.38
 71
     5
 72
     5
  1
BY
 73
     1
 44
1.0
1001
ACAD
1000
MTEXTBEGIN
1070
    73
1070
     1
1070
    44
1040
1.0
1070
    74
1070
     0
1000
MTEXTEND
  0
MTEXT
  5
6B
330
18
100
AcDbEntity
  8
Title Block
100
AcDbMText
 10
24.565
 20
0.375
 30
0.0
 40
0.05
 41
0.38
 71
     5
 72
     5
  1
CHK
 73
     1
 44
1.0
1001
ACAD
1000
MTEXTBEGIN
1070
    73
1070
     1
1070
    44
1040
1.0
1070
    74
1070
     0
1000
MTEXTEND
  0
MTEXT
  5
6C
330
18
100
AcDbEntity
  8
Title Block
100
AcDbMText
 10
26.125
 20
0.375
 30
0.0
 40
0.05
 41
2.75
 71
     5
 72
     5
  1
DESCRIPTION
 73
     1
 44
1.0
1001
ACAD
1000
MTEXTBEGIN
1070
    73
1070
     1
1070
    44
1040
1.0
1070
    74
1070
     0
1000
MTEXTEND
  0
MTEXT
  5
6D
330
18
100
AcDbEntity
  8
Title Block
100
AcDbMText
 10
28.065
 20
0.375
 30
0.0
 40
0.05
 41
1.129999999999999
 71
     5
 72
     5
  1
ECN   -   R
 73
     1
 44
1.0
1001
ACAD
1000
MTEXTBEGIN
1070
    73
1070
     1
1070
    44
1040
1.0
1070
    74
1070
     0
1000
MTEXTEND
  0
MTEXT
  5
6E
330
18
100
AcDbEntity
  8
Title Block
100
AcDbMText
 10
28.815
 20
0.375
 30
0.0
 40
0.05
 41
0.38
 71
     5
 72
     5
  1
CUST
 73
     1
 44
1.0
1001
ACAD
1000
MTEXTBEGIN
1070
    73
1070
     1
1070
    44
1040
1.0
1070
    74
1070
     0
1000
MTEXTEND
  0
MTEXT
  5
6F
330
18
100
AcDbEntity
  8
Title Block
100
AcDbMText
 10
29.19
 20
0.375
 30
0.0
 40
0.05
 41
0.38
 71
     5
 72
     5
  1
SUP
 73
     1
 44
1.0
1001
ACAD
1000
MTEXTBEGIN
1070
    73
1070
     1
1070
    44
1040
1.0
1070
    74
1070
     0
1000
MTEXTEND
  0
LINE
  5
A5
330
18
100
AcDbEntity
  8
Title Block
100
AcDbLine
 10
33.75
 20
2.749999999999999
 30
0.0
 11
23.25
 21
2.75
 31
0.0
  0
LINE
  5
A6
330
18
100
AcDbEntity
  8
Title Block
100
AcDbLine
 10
29.75
 20
2.75
 30
0.0
 11
29.75
 21
0.25
 31
0.0
  0
LINE
  5
A7
330
18
100
AcDbEntity
  8
Title Block
100
AcDbLine
 10
33.75
 20
2.499999999999999
 30
0.0
 11
23.25
 21
2.5
 31
0.0
  0
LINE
  5
A8
330
18
100
AcDbEntity
  8
Title Block
100
AcDbLine
 10
29.75
 20
2.25
 30
0.0
 11
23.25
 21
2.25
 31
0.0
  0
LINE
  5
A9
330
18
100
AcDbEntity
  8
Title Block
100
AcDbLine
 10
33.75
 20
1.999999999999999
 30
0.0
 11
23.25
 21
2.0
 31
0.0
  0
LINE
  5
AA
330
18
100
AcDbEntity
  8
Title Block
100
AcDbLine
 10
29.75
 20
1.75
 30
0.0
 11
23.25
 21
1.75
 31
0.0
  0
LINE
  5
AB
330
18
100
AcDbEntity
  8
Title Block
100
AcDbLine
 10
33.75
 20
1.499999999999999
 30
0.0
 11
23.25
 21
1.5
 31
0.0
  0
LINE
  5
AC
330
18
100
AcDbEntity
  8
Title Block
100
AcDbLine
 10
29.75
 20
1.25
 30
0.0
 11
23.25
 21
1.25
 31
0.0
  0
LINE
  5
AD
330
18
100
AcDbEntity
  8
Title Block
100
AcDbLine
 10
33.75
 20
0.9999999999999996
 30
0.0
 11
23.25
 21
1.0
 31
0.0
  0
LINE
  5
AE
330
18
100
AcDbEntity
  8
Title Block
100
AcDbLine
 10
30.5
 20
0.75
 30
0.0
 11
23.25
 21
0.7500000000000009
 31
0.0
  0
LINE
  5
AF
330
18
100
AcDbEntity
  8
Title Block
100
AcDbLine
 10
30.5
 20
0.5
 30
0.0
 11
23.25
 21
0.5000000000000009
 31
0.0
  0
LINE
  5
B6
330
18
100
AcDbEntity
  8
Title Block
100
AcDbLine
 10
23.25
 20
0.25
 30
0.0
 11
23.25
 21
2.75
 31
0.0
  0
LINE
  5
BC
330
18
100
AcDbEntity
  8
Title Block
100
AcDbLine
 10
23.5
 20
0.25
 30
0.0
 11
23.5
 21
2.750000000000001
 31
0.0
  0
LINE
  5
BD
330
18
100
AcDbEntity
  8
Title Block
100
AcDbLine
 10
24.0
 20
0.25
 30
0.0
 11
24.0
 21
2.750000000000001
 31
0.0
  0
LINE
  5
C0
330
18
100
AcDbEntity
  8
Title Block
100
AcDbLine
 10
24.375
 20
0.25
 30
0.0
 11
24.375
 21
2.750000000000001
 31
0.0
  0
LINE
  5
C1
330
18
100
AcDbEntity
  8
Title Block
100
AcDbLine
 10
24.75
 20
0.25
 30
0.0
 11
24.75
 21
2.750000000000001
 31
0.0
  0
LINE
  5
C2
330
18
100
AcDbEntity
  8
Title Block
100
AcDbLine
 10
29.375
 20
2.75
 30
0.0
 11
29.375
 21
0.25
 31
0.0
  0
LINE
  5
C3
330
18
100
AcDbEntity
  8
Title Block
100
AcDbLine
 10
29.0
 20
2.75
 30
0.0
 11
29.0
 21
0.25
 31
0.0
  0
LINE
  5
C4
330
18
100
AcDbEntity
  8
Title Block
100
AcDbLine
 10
28.625
 20
2.75
 30
0.0
 11
28.625
 21
0.25
 31
0.0
  0
LINE
  5
C5
330
18
100
AcDbEntity
  8
Title Block
100
AcDbLine
 10
28.25
 20
2.75
 30
0.0
 11
28.25
 21
0.5000000000000002
 31
0.0
  0
LINE
  5
C6
330
18
100
AcDbEntity
  8
Title Block
100
AcDbLine
 10
27.5
 20
2.75
 30
0.0
 11
27.5
 21
0.25
 31
0.0
  0
LINE
  5
C7
330
18
100
AcDbEntity
  8
Title Block
100
AcDbLine
 10
32.25
 20
0.75
 30
0.0
 11
32.25
 21
1.499999999999999
 31
0.0
  0
LINE
  5
C8
330
18
100
AcDbEntity
  8
Title Block
100
AcDbLine
 10
32.25
 20
0.75
 30
0.0
 11
32.25
 21
0.25
 31
0.0
  0
LINE
  5
C9
330
18
100
AcDbEntity
  8
Title Block
100
AcDbLine
 10
32.25
 20
0.75
 30
0.0
 11
33.75
 21
0.75
 31
0.0
  0
LINE
  5
CA
330
18
100
AcDbEntity
  8
Title Block
100
AcDbLine
 10
30.5
 20
0.5
 30
0.0
 11
30.5
 21
0.25
 31
0.0
  0
LINE
  5
CB
330
18
100
AcDbEntity
  8
Title Block
100
AcDbLine
 10
30.5
 20
0.5
 30
0.0
 11
30.5
 21
1.0
 31
0.0
  0
LINE
  5
CD
330
18
100
AcDbEntity
  8
Title Block
100
AcDbLine
 10
33.25
 20
0.75
 30
0.0
 11
33.25
 21
0.25
 31
0.0
  0
LWPOLYLINE
  5
112
330
18
100
AcDbEntity
  8
Title Block
100
AcDbPolyline
 90
        4
 70
     1
 43
0.01
 10
33.75
 20
0.25
 10
0.25
 20
0.25
 10
0.25
 20
21.75
 10
33.75
 20
21.75
  0
POINT
  5
115
330
18
100
AcDbEntity
  8
Title Block
100
AcDbPoint
 10
33.99999999999999
 20
0.0
 30
0.0
  0
POINT
  5
118
330
18
100
AcDbEntity
  8
Title Block
100
AcDbPoint
 10
34.0
 20
22.0
 30
0.0
  0
POINT
  5
11B
330
18
100
AcDbEntity
  8
Title Block
100
AcDbPoint
 10
0.0
 20
22.0
 30
0.0
  0
POINT
  5
11E
330
18
100
AcDbEntity
  8
Title Block
100
AcDbPoint
 10
0.0
 20
0.0
 30
0.0
  0
MTEXT
  5
144
330
18
100
AcDbEntity
  8
Text
100
AcDbMText
 10
23.37290028142271
 20
0.626249074032665
 30
0.0
 40
0.09
 41
0.25
 71
     5
 72
     5
  1
R
 73
     1
 44
1.0
1001
ACAD
1000
MTEXTBEGIN
1070
    73
1070
     1
1070
    44
1040
1.0
1070
    74
1070
     0
1000
MTEXTEND
  0
MTEXT
  5
145
330
18
100
AcDbEntity
  8
Text
100
AcDbMText
 10
23.74790028142271
 20
0.626249074032665
 30
0.0
 40
0.07
 41
0.5
 71
     5
 72
     5
  1
6-25-07
 73
     1
 44
1.0
1001
ACAD
1000
MTEXTBEGIN
1070
    73
1070
     1
1070
    44
1040
1.0
1070
    74
1070
     0
1000
MTEXTEND
  0
MTEXT
  5
146
330
18
100
AcDbEntity
  8
Text
100
AcDbMText
 10
24.18540028142271
 20
0.626249074032665
 30
0.0
 40
0.09
 41
0.375
 71
     5
 72
     5
  1
DTP
 73
     1
 44
1.0
1001
ACAD
1000
MTEXTBEGIN
1070
    73
1070
     1
1070
    44
1040
1.0
1070
    74
1070
     0
1000
MTEXTEND
  0
MTEXT
  5
147
330
18
100
AcDbEntity
  8
Text
100
AcDbMText
 10
24.56040028142271
 20
0.626249074032665
 30
0.0
 40
0.07
 41
0.375
 71
     5
 72
     5
  1
DJWA
 73
     1
 44
1.0
1001
ACAD
1000
MTEXTBEGIN
1070
    73
1070
     1
1070
    44
1040
1.0
1070
    74
1070
     0
1000
MTEXTEND
  0
MTEXT
  5
148
330
18
100
AcDbEntity
  8
Text
100
AcDbMText
 10
26.12290028142271
 20
0.6262490740326645
 30
0.0
 40
0.09
 41
2.75
 71
     5
 72
     5
  1
DRAWING RELEASED
 73
     1
 44
1.0
1001
ACAD
1000
MTEXTBEGIN
1070
    73
1070
     1
1070
    44
1040
1.0
1070
    74
1070
     0
1000
MTEXTEND
  0
MTEXT
  5
14B
330
18
100
AcDbEntity
  8
Text
100
AcDbMText
 10
30.47290028142271
 20
0.851249074032664
 30
0.0
 40
0.09
 41
0.75
 71
     6
 72
     5
  1
DTP
 73
     1
 44
1.0
1001
ACAD
1000
MTEXTBEGIN
1070
    73
1070
     1
1070
    44
1040
1.0
1070
    74
1070
     0
1000
MTEXTEND
  0
MTEXT
  5
14C
330
18
100
AcDbEntity
  8
Text
100
AcDbMText
 10
30.47290028142271
 20
0.6012490740326639
 30
0.0
 40
0.09
 41
0.75
 71
     6
 72
     5
  1
6-25-07
 73
     1
 44
1.0
1001
ACAD
1000
MTEXTBEGIN
1070
    73
1070
     1
1070
    44
1040
1.0
1070
    74
1070
     0
1000
MTEXTEND
  0
MTEXT
  5
14D
330
18
100
AcDbEntity
  8
Text
100
AcDbMText
 10
30.47290028142271
 20
0.3512490740326641
 30
0.0
 40
0.09
 41
0.75
 71
     6
 72
     5
  1
DJWA
 73
     1
 44
1.0
1001
ACAD
1000
MTEXTBEGIN
1070
    73
1070
     1
1070
    44
1040
1.0
1070
    74
1070
     0
1000
MTEXTEND
  0
MTEXT
  5
14E
330
18
100
AcDbEntity
  8
Text
100
AcDbMText
 10
31.74790028142271
 20
2.626249074032664
 30
0.0
 40
0.09
 41
4.0
 71
     5
 72
     5
  1
FRTR6X4.dwg
 73
     1
 44
1.0
1001
ACAD
1000
MTEXTBEGIN
1070
    73
1070
     1
1070
    44
1040
1.0
1070
    74
1070
     0
1000
MTEXTEND
  0
MTEXT
  5
14F
330
18
100
AcDbEntity
  8
Text
100
AcDbMText
 10
31.74790028142271
 20
1.751249074032664
 30
0.0
 40
0.09
 41
4.0
 71
     5
 72
     5
  1
FIBERRUNNER 6x4 3-SIDED BEND RADIUS\PCONTROL TRUMPET (FRTR6X4)\PMARKETING DRAWING
 73
     1
 44
1.0
1001
ACAD
1000
MTEXTBEGIN
1070
    73
1070
     1
1070
    44
1040
1.0
1070
    74
1070
     0
1000
MTEXTEND
  0
MTEXT
  5
150
330
18
100
AcDbEntity
  8
Text
100
AcDbMText
 10
32.99790028142271
 20
0.8762490740326638
 30
0.0
 40
0.12
 41
1.5
 71
     5
 72
     5
  1
FULL
 73
     1
 44
1.0
1001
ACAD
1000
MTEXTBEGIN
1070
    73
1070
     1
1070
    44
1040
1.0
1070
    74
1070
     0
1000
MTEXTEND
  0
MTEXT
  5
151
330
18
100
AcDbEntity
  8
Text
100
AcDbMText
 10
32.74790028142271
 20
0.5012490740326641
 30
0.0
 40
0.12
 41
1.0
 71
     5
 72
     5
  1
36897-1195
 73
     1
 44
1.0
1001
ACAD
1000
MTEXTBEGIN
1070
    73
1070
     1
1070
    44
1040
1.0
1070
    74
1070
     0
1000
MTEXTEND
  0
TEXT
  5
EC5
330
18
100
AcDbEntity
  8
Text
100
AcDbText
 10
9.765921025986472
 20
14.06666918263636
 30
0.0
 40
0.125
  1
TOP VIEW
100
AcDbText
  0
TEXT
  5
EC6
330
18
100
AcDbEntity
  8
Text
100
AcDbText
 10
9.647405691848305
 20
3.647343402770665
 30
0.0
 40
0.125
  1
FRONT VIEW
100
AcDbText
  0
TEXT
  5
EC7
330
18
100
AcDbEntity
  8
Text
100
AcDbText
 10
26.13376323699305
 20
3.621913919164903
 30
0.0
 40
0.125
  1
RIGHT SIDE VIEW
100
AcDbText
  0
LINE
  5
EF4
330
18
100
AcDbEntity
  8
Object
100
AcDbLine
 10
25.03777777777778
 20
4.124444444444444
 30
0.0
 11
25.03777777777778
 21
4.146666666666666
 31
0.0
  0
LINE
  5
EF5
330
18
100
AcDbEntity
  8
Object
100
AcDbLine
 10
25.03777777777778
 20
4.178888888888889
 30
0.0
 11
25.03777777777778
 21
4.214444444444444
 31
0.0
  0
LINE
  5
EF6
330
18
100
AcDbEntity
  8
Object
100
AcDbLine
 10
25.03777777777778
 20
4.214444444444444
 30
0.0
 11
25.03777777777778
 21
4.245555555555555
 31
0.0
  0
LINE
  5
EF7
330
18
100
AcDbEntity
  8
Object
100
AcDbLine
 10
25.03777777777778
 20
4.245555555555555
 30
0.0
 11
25.03777777777778
 21
4.267777777777777
 31
0.0
  0
LINE
  5
EF8
330
18
100
AcDbEntity
  8
Object
100
AcDbLine
 10
25.03777777777778
 20
4.146666666666666
 30
0.0
 11
25.03777777777778
 21
4.178888888888889
 31
0.0
  0
LINE
  5
EF9
330
18
100
AcDbEntity
  8
Object
100
AcDbLine
 10
25.03777777777778
 20
4.116666666666666
 30
0.0
 11
25.03777777777778
 21
4.124444444444444
 31
0.0
  0
LINE
  5
EFA
330
18
100
AcDbEntity
  8
Object
100
AcDbLine
 10
25.03777777777778
 20
4.267777777777777
 30
0.0
 11
25.03777777777778
 21
4.276666666666666
 31
0.0
  0
LINE
  5
EFB
330
18
100
AcDbEntity
  8
Object
100
AcDbLine
 10
25.03777777777778
 20
4.276666666666666
 30
0.0
 11
25.03222222222222
 21
4.276666666666666
 31
0.0
  0
LINE
  5
EFC
330
18
100
AcDbEntity
  8
Object
100
AcDbLine
 10
25.03222222222222
 20
4.116666666666666
 30
0.0
 11
25.03777777777778
 21
4.116666666666666
 31
0.0
  0
LINE
  5
EFD
330
18
100
AcDbEntity
  8
Object
100
AcDbLine
 10
25.03777777777778
 20
4.214444444444444
 30
0.0
 11
25.03777777777778
 21
4.245555555555555
 31
0.0
  0
LINE
  5
EFE
330
18
100
AcDbEntity
  8
Object
100
AcDbLine
 10
25.03777777777778
 20
4.146666666666666
 30
0.0
 11
25.03777777777778
 21
4.178888888888889
 31
0.0
  0
LINE
  5
EFF
330
18
100
AcDbEntity
  8
Object
100
AcDbLine
 10
25.03777777777778
 20
4.116666666666666
 30
0.0
 11
25.03777777777778
 21
4.124444444444444
 31
0.0
  0
LINE
  5
F00
330
18
100
AcDbEntity
  8
Object
100
AcDbLine
 10
25.03777777777778
 20
4.124444444444444
 30
0.0
 11
25.03777777777778
 21
4.146666666666666
 31
0.0
  0
LINE
  5
F01
330
18
100
AcDbEntity
  8
Object
100
AcDbLine
 10
25.03777777777778
 20
4.178888888888889
 30
0.0
 11
25.03777777777778
 21
4.214444444444444
 31
0.0
  0
LINE
  5
F02
330
18
100
AcDbEntity
  8
Object
100
AcDbLine
 10
25.03777777777778
 20
4.245555555555555
 30
0.0
 11
25.03777777777778
 21
4.267777777777777
 31
0.0
  0
LINE
  5
F03
330
18
100
AcDbEntity
  8
Object
100
AcDbLine
 10
25.03777777777778
 20
4.267777777777777
 30
0.0
 11
25.03777777777778
 21
4.276666666666666
 31
0.0
  0
LINE
  5
F04
330
18
100
AcDbEntity
  8
Object
100
AcDbLine
 10
25.03222222222222
 20
6.287777777777777
 30
0.0
 11
25.03222222222222
 21
6.491111111111111
 31
0.0
  0
LINE
  5
F05
330
18
100
AcDbEntity
  8
Object
100
AcDbLine
 10
25.03222222222222
 20
5.89111111111111
 30
0.0
 11
25.03222222222222
 21
6.087777777777778
 31
0.0
  0
LINE
  5
F06
330
18
100
AcDbEntity
  8
Object
100
AcDbLine
 10
25.03222222222222
 20
5.512222222222222
 30
0.0
 11
25.03222222222222
 21
5.698888888888888
 31
0.0
  0
LINE
  5
F07
330
18
100
AcDbEntity
  8
Object
100
AcDbLine
 10
25.03222222222222
 20
5.163333333333333
 30
0.0
 11
25.03222222222222
 21
5.333333333333333
 31
0.0
  0
LINE
  5
F08
330
18
100
AcDbEntity
  8
Object
100
AcDbLine
 10
25.03222222222222
 20
4.852222222222222
 30
0.0
 11
25.03222222222222
 21
5.002222222222222
 31
0.0
  0
LINE
  5
F09
330
18
100
AcDbEntity
  8
Object
100
AcDbLine
 10
25.03222222222222
 20
4.585555555555555
 30
0.0
 11
25.03222222222222
 21
4.712222222222222
 31
0.0
  0
LINE
  5
F0A
330
18
100
AcDbEntity
  8
Object
100
AcDbLine
 10
25.03222222222222
 20
4.371111111111111
 30
0.0
 11
25.03222222222222
 21
4.471111111111111
 31
0.0
  0
LINE
  5
F0B
330
18
100
AcDbEntity
  8
Object
100
AcDbLine
 10
25.03222222222222
 20
4.214444444444444
 30
0.0
 11
25.03222222222222
 21
4.285555555555555
 31
0.0
  0
LINE
  5
F0C
330
18
100
AcDbEntity
  8
Object
100
AcDbLine
 10
25.03222222222222
 20
4.158888888888888
 30
0.0
 11
25.03222222222222
 21
4.118888888888888
 31
0.0
  0
LINE
  5
F0D
330
18
100
AcDbEntity
  8
Object
100
AcDbLine
 10
25.03222222222222
 20
4.118888888888888
 30
0.0
 11
25.03222222222222
 21
4.094444444444444
 31
0.0
  0
LINE
  5
F0E
330
18
100
AcDbEntity
  8
Object
100
AcDbLine
 10
25.03222222222222
 20
4.158888888888888
 30
0.0
 11
25.03222222222222
 21
4.214444444444444
 31
0.0
  0
LINE
  5
F0F
330
18
100
AcDbEntity
  8
Object
100
AcDbLine
 10
25.03222222222222
 20
4.285555555555555
 30
0.0
 11
25.03222222222222
 21
4.371111111111111
 31
0.0
  0
LINE
  5
F10
330
18
100
AcDbEntity
  8
Object
100
AcDbLine
 10
25.03222222222222
 20
4.471111111111111
 30
0.0
 11
25.03222222222222
 21
4.585555555555555
 31
0.0
  0
LINE
  5
F11
330
18
100
AcDbEntity
  8
Object
100
AcDbLine
 10
25.03222222222222
 20
4.712222222222222
 30
0.0
 11
25.03222222222222
 21
4.852222222222222
 31
0.0
  0
LINE
  5
F12
330
18
100
AcDbEntity
  8
Object
100
AcDbLine
 10
25.03222222222222
 20
5.002222222222222
 30
0.0
 11
25.03222222222222
 21
5.163333333333333
 31
0.0
  0
LINE
  5
F13
330
18
100
AcDbEntity
  8
Object
100
AcDbLine
 10
25.03222222222222
 20
5.333333333333333
 30
0.0
 11
25.03222222222222
 21
5.512222222222222
 31
0.0
  0
LINE
  5
F14
330
18
100
AcDbEntity
  8
Object
100
AcDbLine
 10
25.03222222222222
 20
5.698888888888888
 30
0.0
 11
25.03222222222222
 21
5.89111111111111
 31
0.0
  0
LINE
  5
F15
330
18
100
AcDbEntity
  8
Object
100
AcDbLine
 10
25.03222222222222
 20
6.087777777777778
 30
0.0
 11
25.03222222222222
 21
6.287777777777777
 31
0.0
  0
LINE
  5
F16
330
18
100
AcDbEntity
  8
Object
100
AcDbLine
 10
25.03222222222222
 20
6.491111111111111
 30
0.0
 11
25.03222222222222
 21
10.01444444444444
 31
0.0
  0
LINE
  5
F17
330
18
100
AcDbEntity
  8
Object
100
AcDbLine
 10
25.03222222222222
 20
4.086666666666666
 30
0.0
 11
25.03222222222222
 21
4.094444444444444
 31
0.0
  0
LINE
  5
F18
330
18
100
AcDbEntity
  8
Object
100
AcDbLine
 10
25.03222222222222
 20
5.89111111111111
 30
0.0
 11
25.03222222222222
 21
6.087777777777778
 31
0.0
  0
LINE
  5
F19
330
18
100
AcDbEntity
  8
Object
100
AcDbLine
 10
25.02777777777778
 20
6.49
 30
0.0
 11
25.03222222222222
 21
6.491111111111111
 31
0.0
  0
LINE
  5
F1A
330
18
100
AcDbEntity
  8
Object
100
AcDbLine
 10
25.03222222222222
 20
6.491111111111111
 30
0.0
 11
25.03222222222222
 21
6.287777777777777
 31
0.0
  0
LINE
  5
F1B
330
18
100
AcDbEntity
  8
Object
100
AcDbLine
 10
25.03222222222222
 20
6.287777777777777
 30
0.0
 11
25.03222222222222
 21
6.087777777777778
 31
0.0
  0
LINE
  5
F1C
330
18
100
AcDbEntity
  8
Object
100
AcDbLine
 10
25.03222222222222
 20
5.333333333333333
 30
0.0
 11
25.03222222222222
 21
5.512222222222222
 31
0.0
  0
LINE
  5
F1D
330
18
100
AcDbEntity
  8
Object
100
AcDbLine
 10
25.03222222222222
 20
5.89111111111111
 30
0.0
 11
25.03222222222222
 21
5.698888888888888
 31
0.0
  0
LINE
  5
F1E
330
18
100
AcDbEntity
  8
Object
100
AcDbLine
 10
25.03222222222222
 20
5.698888888888888
 30
0.0
 11
25.03222222222222
 21
5.512222222222222
 31
0.0
  0
LINE
  5
F1F
330
18
100
AcDbEntity
  8
Object
100
AcDbLine
 10
25.03222222222222
 20
5.333333333333333
 30
0.0
 11
25.03222222222222
 21
5.163333333333333
 31
0.0
  0
LINE
  5
F20
330
18
100
AcDbEntity
  8
Object
100
AcDbLine
 10
25.03222222222222
 20
5.163333333333333
 30
0.0
 11
25.03222222222222
 21
5.002222222222222
 31
0.0
  0
LINE
  5
F21
330
18
100
AcDbEntity
  8
Object
100
AcDbLine
 10
25.03222222222222
 20
4.712222222222222
 30
0.0
 11
25.03222222222222
 21
4.852222222222222
 31
0.0
  0
LINE
  5
F22
330
18
100
AcDbEntity
  8
Object
100
AcDbLine
 10
25.03222222222222
 20
4.471111111111111
 30
0.0
 11
25.03222222222222
 21
4.585555555555555
 31
0.0
  0
LINE
  5
F23
330
18
100
AcDbEntity
  8
Object
100
AcDbLine
 10
25.03222222222222
 20
4.852222222222222
 30
0.0
 11
25.03222222222222
 21
5.002222222222222
 31
0.0
  0
LINE
  5
F24
330
18
100
AcDbEntity
  8
Object
100
AcDbLine
 10
25.03222222222222
 20
4.585555555555555
 30
0.0
 11
25.03222222222222
 21
4.712222222222222
 31
0.0
  0
LINE
  5
F25
330
18
100
AcDbEntity
  8
Object
100
AcDbLine
 10
25.03222222222222
 20
4.285555555555555
 30
0.0
 11
25.03222222222222
 21
4.371111111111111
 31
0.0
  0
LINE
  5
F26
330
18
100
AcDbEntity
  8
Object
100
AcDbLine
 10
25.03222222222222
 20
4.158888888888888
 30
0.0
 11
25.03222222222222
 21
4.214444444444444
 31
0.0
  0
LINE
  5
F27
330
18
100
AcDbEntity
  8
Object
100
AcDbLine
 10
25.03222222222222
 20
4.094444444444444
 30
0.0
 11
25.03222222222222
 21
4.118888888888888
 31
0.0
  0
LINE
  5
F28
330
18
100
AcDbEntity
  8
Object
100
AcDbLine
 10
25.03222222222222
 20
4.371111111111111
 30
0.0
 11
25.03222222222222
 21
4.471111111111111
 31
0.0
  0
LINE
  5
F29
330
18
100
AcDbEntity
  8
Object
100
AcDbLine
 10
25.03222222222222
 20
4.214444444444444
 30
0.0
 11
25.03222222222222
 21
4.285555555555555
 31
0.0
  0
LINE
  5
F2A
330
18
100
AcDbEntity
  8
Object
100
AcDbLine
 10
25.03222222222222
 20
4.118888888888888
 30
0.0
 11
25.03222222222222
 21
4.158888888888888
 31
0.0
  0
LINE
  5
F2B
330
18
100
AcDbEntity
  8
Object
100
AcDbLine
 10
25.03222222222222
 20
4.094444444444444
 30
0.0
 11
25.03222222222222
 21
4.086666666666666
 31
0.0
  0
LINE
  5
F2C
330
18
100
AcDbEntity
  8
Object
100
AcDbLine
 10
25.03222222222222
 20
4.086666666666666
 30
0.0
 11
25.02777777777778
 21
4.07111111111111
 31
0.0
  0
LINE
  5
F2D
330
18
100
AcDbEntity
  8
Object
100
AcDbLine
 10
25.02777777777778
 20
6.49
 30
0.0
 11
25.01666666666667
 21
6.488888888888888
 31
0.0
  0
LINE
  5
F2E
330
18
100
AcDbEntity
  8
Object
100
AcDbLine
 10
25.01666666666667
 20
4.059999999999999
 30
0.0
 11
25.02777777777778
 21
4.07111111111111
 31
0.0
  0
LINE
  5
F2F
330
18
100
AcDbEntity
  8
Object
100
AcDbLine
 10
25.01666666666667
 20
6.488888888888888
 30
0.0
 11
25.00222222222222
 21
6.488888888888888
 31
0.0
  0
LINE
  5
F30
330
18
100
AcDbEntity
  8
Object
100
AcDbLine
 10
25.00222222222222
 20
4.056666666666666
 30
0.0
 11
25.01666666666667
 21
4.059999999999999
 31
0.0
  0
LINE
  5
F31
330
18
100
AcDbEntity
  8
Object
100
AcDbLine
 10
26.77222222222222
 20
9.984444444444443
 30
0.0
 11
26.90666666666667
 21
9.982222222222222
 31
0.0
  0
LINE
  5
F32
330
18
100
AcDbEntity
  8
Object
100
AcDbLine
 10
26.90666666666667
 20
9.982222222222222
 30
0.0
 11
26.90666666666667
 21
6.637777777777777
 31
0.0
  0
LINE
  5
F33
330
18
100
AcDbEntity
  8
Object
100
AcDbLine
 10
26.77222222222222
 20
9.984444444444443
 30
0.0
 11
26.63777777777778
 21
9.986666666666666
 31
0.0
  0
LINE
  5
F34
330
18
100
AcDbEntity
  8
Object
100
AcDbLine
 10
26.73444444444445
 20
6.636666666666666
 30
0.0
 11
26.56222222222222
 21
6.635555555555555
 31
0.0
  0
LINE
  5
F35
330
18
100
AcDbEntity
  8
Object
100
AcDbLine
 10
26.56222222222222
 20
6.635555555555555
 30
0.0
 11
26.39444444444445
 21
6.632222222222222
 31
0.0
  0
LINE
  5
F36
330
18
100
AcDbEntity
  8
Object
100
AcDbLine
 10
26.46444444444445
 20
9.938888888888888
 30
0.0
 11
26.35777777777778
 21
9.936666666666667
 31
0.0
  0
LINE
  5
F37
330
18
100
AcDbEntity
  8
Object
100
AcDbLine
 10
26.23
 20
6.628888888888888
 30
0.0
 11
26.39444444444445
 21
6.632222222222222
 31
0.0
  0
LINE
  5
F38
330
18
100
AcDbEntity
  8
Object
100
AcDbLine
 10
26.35777777777778
 20
9.936666666666667
 30
0.0
 11
26.21888888888889
 21
9.934444444444444
 31
0.0
  0
LINE
  5
F39
330
18
100
AcDbEntity
  8
Object
100
AcDbLine
 10
26.21888888888889
 20
9.934444444444444
 30
0.0
 11
26.08111111111111
 21
9.932222222222222
 31
0.0
  0
LINE
  5
F3A
330
18
100
AcDbEntity
  8
Object
100
AcDbLine
 10
26.07111111111111
 20
6.623333333333333
 30
0.0
 11
26.23
 21
6.628888888888888
 31
0.0
  0
LINE
  5
F3B
330
18
100
AcDbEntity
  8
Object
100
AcDbLine
 10
26.08111111111111
 20
9.932222222222222
 30
0.0
 11
25.94666666666667
 21
9.929999999999999
 31
0.0
  0
LINE
  5
F3C
330
18
100
AcDbEntity
  8
Object
100
AcDbLine
 10
25.92
 20
6.617777777777777
 30
0.0
 11
26.07111111111111
 21
6.623333333333333
 31
0.0
  0
LINE
  5
F3D
330
18
100
AcDbEntity
  8
Object
100
AcDbLine
 10
25.94666666666667
 20
9.929999999999999
 30
0.0
 11
25.81777777777778
 21
9.927777777777777
 31
0.0
  0
LINE
  5
F3E
330
18
100
AcDbEntity
  8
Object
100
AcDbLine
 10
25.77666666666667
 20
6.61111111111111
 30
0.0
 11
25.92
 21
6.617777777777777
 31
0.0
  0
LINE
  5
F3F
330
18
100
AcDbEntity
  8
Object
100
AcDbLine
 10
25.81777777777778
 20
9.927777777777777
 30
0.0
 11
25.69555555555556
 21
9.925555555555556
 31
0.0
  0
LINE
  5
F40
330
18
100
AcDbEntity
  8
Object
100
AcDbLine
 10
25.64333333333334
 20
6.603333333333333
 30
0.0
 11
25.77666666666667
 21
6.61111111111111
 31
0.0
  0
LINE
  5
F41
330
18
100
AcDbEntity
  8
Object
100
AcDbLine
 10
25.69555555555556
 20
9.925555555555556
 30
0.0
 11
25.58111111111111
 21
9.923333333333333
 31
0.0
  0
LINE
  5
F42
330
18
100
AcDbEntity
  8
Object
100
AcDbLine
 10
25.52111111111111
 20
6.594444444444444
 30
0.0
 11
25.64333333333334
 21
6.603333333333333
 31
0.0
  0
LINE
  5
F43
330
18
100
AcDbEntity
  8
Object
100
AcDbLine
 10
25.58111111111111
 20
9.923333333333333
 30
0.0
 11
25.52444444444445
 21
9.922222222222222
 31
0.0
  0
LINE
  5
F44
330
18
100
AcDbEntity
  8
Object
100
AcDbLine
 10
25.41111111111111
 20
6.585555555555555
 30
0.0
 11
25.52111111111111
 21
6.594444444444444
 31
0.0
  0
LINE
  5
F45
330
18
100
AcDbEntity
  8
Object
100
AcDbLine
 10
25.41777777777778
 20
9.919999999999999
 30
0.0
 11
25.38111111111111
 21
9.919999999999999
 31
0.0
  0
LINE
  5
F46
330
18
100
AcDbEntity
  8
Object
100
AcDbLine
 10
25.31333333333333
 20
6.575555555555555
 30
0.0
 11
25.41111111111111
 21
6.585555555555555
 31
0.0
  0
LINE
  5
F47
330
18
100
AcDbEntity
  8
Object
100
AcDbLine
 10
25.38111111111111
 20
9.919999999999999
 30
0.0
 11
25.33
 21
9.918888888888888
 31
0.0
  0
LINE
  5
F48
330
18
100
AcDbEntity
  8
Object
100
AcDbLine
 10
25.22888888888889
 20
6.564444444444444
 30
0.0
 11
25.31333333333333
 21
6.575555555555555
 31
0.0
  0
LINE
  5
F49
330
18
100
AcDbEntity
  8
Object
100
AcDbLine
 10
25.11333333333333
 20
9.914444444444445
 30
0.0
 11
25.07666666666667
 21
9.914444444444445
 31
0.0
  0
LINE
  5
F4A
330
18
100
AcDbEntity
  8
Object
100
AcDbLine
 10
25.07666666666667
 20
9.914444444444445
 30
0.0
 11
25.05111111111111
 21
9.914444444444445
 31
0.0
  0
LINE
  5
F4B
330
18
100
AcDbEntity
  8
Object
100
AcDbLine
 10
25.03666666666667
 20
10.01444444444444
 30
0.0
 11
25.05111111111111
 21
10.01444444444444
 31
0.0
  0
LINE
  5
F4C
330
18
100
AcDbEntity
  8
Object
100
AcDbLine
 10
25.05111111111111
 20
10.01444444444444
 30
0.0
 11
25.05111111111111
 21
9.914444444444445
 31
0.0
  0
LINE
  5
F4D
330
18
100
AcDbEntity
  8
Object
100
AcDbLine
 10
25.03666666666667
 20
10.01444444444444
 30
0.0
 11
25.03222222222222
 21
10.01444444444444
 31
0.0
  0
LINE
  5
F4E
330
18
100
AcDbEntity
  8
Object
100
AcDbLine
 10
26.90666666666667
 20
6.546666666666666
 30
0.0
 11
26.90666666666667
 21
6.637777777777777
 31
0.0
  0
LINE
  5
F4F
330
18
100
AcDbEntity
  8
Object
100
AcDbLine
 10
26.90666666666667
 20
6.637777777777777
 30
0.0
 11
26.73444444444445
 21
6.636666666666666
 31
0.0
  0
LINE
  5
F50
330
18
100
AcDbEntity
  8
Object
100
AcDbLine
 10
26.90666666666667
 20
6.181111111111111
 30
0.0
 11
26.90666666666667
 21
6.19
 31
0.0
  0
LINE
  5
F51
330
18
100
AcDbEntity
  8
Object
100
AcDbLine
 10
26.90666666666667
 20
6.546666666666666
 30
0.0
 11
26.90666666666667
 21
6.459999999999999
 31
0.0
  0
LINE
  5
F52
330
18
100
AcDbEntity
  8
Object
100
AcDbLine
 10
26.90666666666667
 20
6.459999999999999
 30
0.0
 11
26.90666666666667
 21
6.382222222222222
 31
0.0
  0
LINE
  5
F53
330
18
100
AcDbEntity
  8
Object
100
AcDbLine
 10
26.90666666666667
 20
6.382222222222222
 30
0.0
 11
26.90666666666667
 21
6.313333333333333
 31
0.0
  0
LINE
  5
F54
330
18
100
AcDbEntity
  8
Object
100
AcDbLine
 10
26.90666666666667
 20
6.313333333333333
 30
0.0
 11
26.90666666666667
 21
6.256666666666666
 31
0.0
  0
LINE
  5
F55
330
18
100
AcDbEntity
  8
Object
100
AcDbLine
 10
26.90666666666667
 20
6.256666666666666
 30
0.0
 11
26.90666666666667
 21
6.215555555555555
 31
0.0
  0
LINE
  5
F56
330
18
100
AcDbEntity
  8
Object
100
AcDbLine
 10
26.90666666666667
 20
6.215555555555555
 30
0.0
 11
26.90666666666667
 21
6.19
 31
0.0
  0
LINE
  5
F57
330
18
100
AcDbEntity
  8
Object
100
AcDbLine
 10
26.90666666666667
 20
6.181111111111111
 30
0.0
 11
26.73444444444445
 21
6.173333333333332
 31
0.0
  0
LINE
  5
F58
330
18
100
AcDbEntity
  8
Object
100
AcDbLine
 10
26.73444444444445
 20
6.173333333333332
 30
0.0
 11
26.63666666666667
 21
6.16
 31
0.0
  0
LINE
  5
F59
330
18
100
AcDbEntity
  8
Object
100
AcDbLine
 10
26.54666666666667
 20
6.146666666666666
 30
0.0
 11
26.72555555555556
 21
6.173333333333332
 31
0.0
  0
LINE
  5
F5A
330
18
100
AcDbEntity
  8
Object
100
AcDbLine
 10
26.50111111111111
 20
6.135555555555555
 30
0.0
 11
26.55
 21
6.146666666666666
 31
0.0
  0
LINE
  5
F5B
330
18
100
AcDbEntity
  8
Object
100
AcDbLine
 10
26.37111111111111
 20
6.103333333333333
 30
0.0
 11
26.54666666666667
 21
6.146666666666666
 31
0.0
  0
LINE
  5
F5C
330
18
100
AcDbEntity
  8
Object
100
AcDbLine
 10
26.27555555555556
 20
6.07
 30
0.0
 11
26.38444444444445
 21
6.105555555555555
 31
0.0
  0
LINE
  5
F5D
330
18
100
AcDbEntity
  8
Object
100
AcDbLine
 10
26.2
 20
6.043333333333333
 30
0.0
 11
26.37111111111111
 21
6.103333333333333
 31
0.0
  0
LINE
  5
F5E
330
18
100
AcDbEntity
  8
Object
100
AcDbLine
 10
26.11777777777778
 20
6.004444444444444
 30
0.0
 11
26.22333333333334
 21
6.051111111111111
 31
0.0
  0
LINE
  5
F5F
330
18
100
AcDbEntity
  8
Object
100
AcDbLine
 10
26.03555555555555
 20
5.966666666666666
 30
0.0
 11
26.2
 21
6.043333333333333
 31
0.0
  0
LINE
  5
F60
330
18
100
AcDbEntity
  8
Object
100
AcDbLine
 10
25.98111111111111
 20
5.934444444444444
 30
0.0
 11
26.05666666666667
 21
5.976666666666666
 31
0.0
  0
LINE
  5
F61
330
18
100
AcDbEntity
  8
Object
100
AcDbLine
 10
25.88
 20
5.875555555555555
 30
0.0
 11
26.03555555555555
 21
5.966666666666666
 31
0.0
  0
LINE
  5
F62
330
18
100
AcDbEntity
  8
Object
100
AcDbLine
 10
25.82444444444444
 20
5.835555555555555
 30
0.0
 11
25.89888888888889
 21
5.886666666666666
 31
0.0
  0
LINE
  5
F63
330
18
100
AcDbEntity
  8
Object
100
AcDbLine
 10
25.73333333333334
 20
5.768888888888889
 30
0.0
 11
25.88
 21
5.875555555555555
 31
0.0
  0
LINE
  5
F64
330
18
100
AcDbEntity
  8
Object
100
AcDbLine
 10
25.69222222222223
 20
5.733333333333333
 30
0.0
 11
25.75777777777778
 21
5.786666666666667
 31
0.0
  0
LINE
  5
F65
330
18
100
AcDbEntity
  8
Object
100
AcDbLine
 10
25.59777777777778
 20
5.648888888888889
 30
0.0
 11
25.73333333333334
 21
5.768888888888889
 31
0.0
  0
LINE
  5
F66
330
18
100
AcDbEntity
  8
Object
100
AcDbLine
 10
25.57
 20
5.618888888888888
 30
0.0
 11
25.61666666666667
 21
5.665555555555555
 31
0.0
  0
LINE
  5
F67
330
18
100
AcDbEntity
  8
Object
100
AcDbLine
 10
25.47444444444444
 20
5.515555555555555
 30
0.0
 11
25.59777777777778
 21
5.648888888888889
 31
0.0
  0
LINE
  5
F68
330
18
100
AcDbEntity
  8
Object
100
AcDbLine
 10
25.45111111111111
 20
5.484444444444444
 30
0.0
 11
25.49
 21
5.532222222222221
 31
0.0
  0
LINE
  5
F69
330
18
100
AcDbEntity
  8
Object
100
AcDbLine
 10
25.36444444444445
 20
5.372222222222221
 30
0.0
 11
25.47444444444444
 21
5.515555555555555
 31
0.0
  0
LINE
  5
F6A
330
18
100
AcDbEntity
  8
Object
100
AcDbLine
 10
25.33333333333333
 20
5.323333333333333
 30
0.0
 11
25.38777777777778
 21
5.403333333333333
 31
0.0
  0
LINE
  5
F6B
330
18
100
AcDbEntity
  8
Object
100
AcDbLine
 10
25.26777777777778
 20
5.217777777777778
 30
0.0
 11
25.36444444444445
 21
5.372222222222221
 31
0.0
  0
LINE
  5
F6C
330
18
100
AcDbEntity
  8
Object
100
AcDbLine
 10
25.24222222222222
 20
5.166666666666666
 30
0.0
 11
25.29777777777778
 21
5.266666666666666
 31
0.0
  0
LINE
  5
F6D
330
18
100
AcDbEntity
  8
Object
100
AcDbLine
 10
25.18777777777778
 20
5.055555555555555
 30
0.0
 11
25.26777777777778
 21
5.217777777777778
 31
0.0
  0
LINE
  5
F6E
330
18
100
AcDbEntity
  8
Object
100
AcDbLine
 10
25.22888888888889
 20
6.564444444444444
 30
0.0
 11
25.15888888888889
 21
6.553333333333333
 31
0.0
  0
LINE
  5
F6F
330
18
100
AcDbEntity
  8
Object
100
AcDbLine
 10
25.16777777777778
 20
5.005555555555555
 30
0.0
 11
25.21444444444445
 21
5.11111111111111
 31
0.0
  0
LINE
  5
F70
330
18
100
AcDbEntity
  8
Object
100
AcDbLine
 10
25.12333333333334
 20
4.886666666666666
 30
0.0
 11
25.18777777777778
 21
5.055555555555555
 31
0.0
  0
LINE
  5
F71
330
18
100
AcDbEntity
  8
Object
100
AcDbLine
 10
25.15888888888889
 20
6.553333333333333
 30
0.0
 11
25.10333333333333
 21
6.542222222222222
 31
0.0
  0
LINE
  5
F72
330
18
100
AcDbEntity
  8
Object
100
AcDbLine
 10
25.11222222222222
 20
4.844444444444444
 30
0.0
 11
25.14777777777778
 21
4.952222222222221
 31
0.0
  0
LINE
  5
F73
330
18
100
AcDbEntity
  8
Object
100
AcDbLine
 10
25.07666666666667
 20
4.712222222222222
 30
0.0
 11
25.12333333333334
 21
4.886666666666666
 31
0.0
  0
LINE
  5
F74
330
18
100
AcDbEntity
  8
Object
100
AcDbLine
 10
25.10333333333333
 20
6.542222222222222
 30
0.0
 11
25.06444444444444
 21
6.53
 31
0.0
  0
LINE
  5
F75
330
18
100
AcDbEntity
  8
Object
100
AcDbLine
 10
25.07
 20
4.677777777777778
 30
0.0
 11
25.09111111111111
 21
4.765555555555555
 31
0.0
  0
LINE
  5
F76
330
18
100
AcDbEntity
  8
Object
100
AcDbLine
 10
25.04555555555556
 20
4.533333333333333
 30
0.0
 11
25.07666666666667
 21
4.712222222222222
 31
0.0
  0
LINE
  5
F77
330
18
100
AcDbEntity
  8
Object
100
AcDbLine
 10
25.06444444444444
 20
6.53
 30
0.0
 11
25.04
 21
6.518888888888889
 31
0.0
  0
LINE
  5
F78
330
18
100
AcDbEntity
  8
Object
100
AcDbLine
 10
25.04222222222222
 20
4.501111111111111
 30
0.0
 11
25.05666666666667
 21
4.60111111111111
 31
0.0
  0
LINE
  5
F79
330
18
100
AcDbEntity
  8
Object
100
AcDbLine
 10
25.04
 20
6.518888888888889
 30
0.0
 11
25.03222222222222
 21
6.506666666666666
 31
0.0
  0
LINE
  5
F7A
330
18
100
AcDbEntity
  8
Object
100
AcDbLine
 10
25.03222222222222
 20
4.306666666666666
 30
0.0
 11
25.03666666666667
 21
4.424444444444444
 31
0.0
  0
LINE
  5
F7B
330
18
100
AcDbEntity
  8
Object
100
AcDbLine
 10
25.03222222222222
 20
4.352222222222222
 30
0.0
 11
25.04555555555556
 21
4.533333333333333
 31
0.0
  0
LINE
  5
F7C
330
18
100
AcDbEntity
  8
Object
100
AcDbLine
 10
26.73444444444445
 20
6.173333333333332
 30
0.0
 11
26.90666666666667
 21
6.181111111111111
 31
0.0
  0
LINE
  5
F7D
330
18
100
AcDbEntity
  8
Object
100
AcDbLine
 10
25.03222222222222
 20
4.306666666666666
 30
0.0
 11
25.03666666666667
 21
4.424444444444444
 31
0.0
  0
LINE
  5
F7E
330
18
100
AcDbEntity
  8
Object
100
AcDbLine
 10
25.03
 20
10.01555555555555
 30
0.0
 11
25.03222222222222
 21
10.01444444444444
 31
0.0
  0
LINE
  5
F7F
330
18
100
AcDbEntity
  8
Object
100
AcDbLine
 10
25.03222222222222
 20
10.01444444444444
 30
0.0
 11
25.03222222222222
 21
6.491111111111111
 31
0.0
  0
LINE
  5
F80
330
18
100
AcDbEntity
  8
Object
100
AcDbLine
 10
25.03
 20
10.01555555555555
 30
0.0
 11
25.02333333333333
 21
10.01555555555555
 31
0.0
  0
LINE
  5
F81
330
18
100
AcDbEntity
  8
Object
100
AcDbLine
 10
25.02333333333333
 20
10.01555555555555
 30
0.0
 11
25.01333333333333
 21
10.01555555555555
 31
0.0
  0
LINE
  5
F82
330
18
100
AcDbEntity
  8
Object
100
AcDbLine
 10
25.01333333333333
 20
10.01555555555555
 30
0.0
 11
25.00222222222222
 21
10.01555555555555
 31
0.0
  0
LINE
  5
F83
330
18
100
AcDbEntity
  8
Object
100
AcDbLine
 10
25.03222222222222
 20
4.086666666666666
 30
0.0
 11
25.02777777777778
 21
4.07111111111111
 31
0.0
  0
LINE
  5
F84
330
18
100
AcDbEntity
  8
Object
100
AcDbLine
 10
25.02777777777778
 20
4.07111111111111
 30
0.0
 11
25.01666666666667
 21
4.059999999999999
 31
0.0
  0
LINE
  5
F85
330
18
100
AcDbEntity
  8
Object
100
AcDbLine
 10
25.01666666666667
 20
4.059999999999999
 30
0.0
 11
25.00222222222222
 21
4.056666666666666
 31
0.0
  0
LINE
  5
F86
330
18
100
AcDbEntity
  8
Object
100
AcDbLine
 10
28.90666666666667
 20
9.947777777777778
 30
0.0
 11
26.90666666666667
 21
9.982222222222222
 31
0.0
  0
LINE
  5
F87
330
18
100
AcDbEntity
  8
Object
100
AcDbLine
 10
26.90666666666667
 20
9.982222222222222
 30
0.0
 11
26.77222222222222
 21
9.984444444444443
 31
0.0
  0
LINE
  5
F88
330
18
100
AcDbEntity
  8
Object
100
AcDbLine
 10
26.72777777777778
 20
9.985555555555555
 30
0.0
 11
26.90666666666667
 21
9.982222222222222
 31
0.0
  0
LINE
  5
F89
330
18
100
AcDbEntity
  8
Object
100
AcDbLine
 10
26.77222222222222
 20
9.984444444444443
 30
0.0
 11
26.63777777777778
 21
9.986666666666666
 31
0.0
  0
LINE
  5
F8A
330
18
100
AcDbEntity
  8
Object
100
AcDbLine
 10
26.64333333333333
 20
9.985555555555555
 30
0.0
 11
26.72777777777778
 21
9.985555555555555
 31
0.0
  0
LINE
  5
F8B
330
18
100
AcDbEntity
  8
Object
100
AcDbLine
 10
26.62888888888889
 20
9.986666666666666
 30
0.0
 11
26.54333333333334
 21
9.988888888888888
 31
0.0
  0
LINE
  5
F8C
330
18
100
AcDbEntity
  8
Object
100
AcDbLine
 10
26.54333333333334
 20
9.988888888888888
 30
0.0
 11
26.45
 21
9.99
 31
0.0
  0
LINE
  5
F8D
330
18
100
AcDbEntity
  8
Object
100
AcDbLine
 10
26.45
 20
9.99
 30
0.0
 11
26.35666666666667
 21
9.992222222222222
 31
0.0
  0
LINE
  5
F8E
330
18
100
AcDbEntity
  8
Object
100
AcDbLine
 10
26.35666666666667
 20
9.992222222222222
 30
0.0
 11
26.26333333333333
 21
9.993333333333334
 31
0.0
  0
LINE
  5
F8F
330
18
100
AcDbEntity
  8
Object
100
AcDbLine
 10
26.26333333333333
 20
9.993333333333334
 30
0.0
 11
26.17111111111111
 21
9.995555555555554
 31
0.0
  0
LINE
  5
F90
330
18
100
AcDbEntity
  8
Object
100
AcDbLine
 10
26.17111111111111
 20
9.995555555555554
 30
0.0
 11
26.07888888888889
 21
9.996666666666666
 31
0.0
  0
LINE
  5
F91
330
18
100
AcDbEntity
  8
Object
100
AcDbLine
 10
26.07888888888889
 20
9.996666666666666
 30
0.0
 11
26.03666666666667
 21
9.996666666666666
 31
0.0
  0
LINE
  5
F92
330
18
100
AcDbEntity
  8
Object
100
AcDbLine
 10
25.95555555555556
 20
9.997777777777777
 30
0.0
 11
25.9
 21
10.0
 31
0.0
  0
LINE
  5
F93
330
18
100
AcDbEntity
  8
Object
100
AcDbLine
 10
25.9
 20
10.0
 30
0.0
 11
25.81333333333333
 21
10.0
 31
0.0
  0
LINE
  5
F94
330
18
100
AcDbEntity
  8
Object
100
AcDbLine
 10
25.81111111111111
 20
10.00111111111111
 30
0.0
 11
25.72777777777778
 21
10.00333333333333
 31
0.0
  0
LINE
  5
F95
330
18
100
AcDbEntity
  8
Object
100
AcDbLine
 10
25.72777777777778
 20
10.00333333333333
 30
0.0
 11
25.64666666666667
 21
10.00444444444444
 31
0.0
  0
LINE
  5
F96
330
18
100
AcDbEntity
  8
Object
100
AcDbLine
 10
25.64666666666667
 20
10.00444444444444
 30
0.0
 11
25.56777777777778
 21
10.00555555555555
 31
0.0
  0
LINE
  5
F97
330
18
100
AcDbEntity
  8
Object
100
AcDbLine
 10
25.56777777777778
 20
10.00555555555555
 30
0.0
 11
25.50666666666667
 21
10.00555555555555
 31
0.0
  0
LINE
  5
F98
330
18
100
AcDbEntity
  8
Object
100
AcDbLine
 10
25.18333333333333
 20
10.01111111111111
 30
0.0
 11
25.17888888888889
 21
10.01222222222222
 31
0.0
  0
LINE
  5
F99
330
18
100
AcDbEntity
  8
Object
100
AcDbLine
 10
25.17888888888889
 20
10.01222222222222
 30
0.0
 11
25.13
 21
10.01333333333333
 31
0.0
  0
LINE
  5
F9A
330
18
100
AcDbEntity
  8
Object
100
AcDbLine
 10
25.13
 20
10.01333333333333
 30
0.0
 11
25.08666666666667
 21
10.01444444444444
 31
0.0
  0
LINE
  5
F9B
330
18
100
AcDbEntity
  8
Object
100
AcDbLine
 10
26.63777777777778
 20
9.986666666666666
 30
0.0
 11
25.05111111111111
 21
10.01444444444444
 31
0.0
  0
LINE
  5
F9C
330
18
100
AcDbEntity
  8
Object
100
AcDbLine
 10
25.05111111111111
 20
10.01444444444444
 30
0.0
 11
25.08666666666667
 21
10.01444444444444
 31
0.0
  0
LINE
  5
F9D
330
18
100
AcDbEntity
  8
Object
100
AcDbLine
 10
25.05111111111111
 20
10.01444444444444
 30
0.0
 11
25.03666666666667
 21
10.01444444444444
 31
0.0
  0
LINE
  5
F9E
330
18
100
AcDbEntity
  8
Object
100
AcDbLine
 10
25.03666666666667
 20
10.01444444444444
 30
0.0
 11
25.03222222222222
 21
10.01444444444444
 31
0.0
  0
LINE
  5
F9F
330
18
100
AcDbEntity
  8
Object
100
AcDbLine
 10
25.03222222222222
 20
10.01444444444444
 30
0.0
 11
25.03
 21
10.01555555555555
 31
0.0
  0
LINE
  5
FA0
330
18
100
AcDbEntity
  8
Object
100
AcDbLine
 10
25.03
 20
10.01555555555555
 30
0.0
 11
25.02333333333333
 21
10.01555555555555
 31
0.0
  0
LINE
  5
FA1
330
18
100
AcDbEntity
  8
Object
100
AcDbLine
 10
25.03111111111111
 20
10.01444444444444
 30
0.0
 11
25.04777777777778
 21
10.01444444444444
 31
0.0
  0
LINE
  5
FA2
330
18
100
AcDbEntity
  8
Object
100
AcDbLine
 10
25.02333333333333
 20
10.01555555555555
 30
0.0
 11
25.01333333333333
 21
10.01555555555555
 31
0.0
  0
LINE
  5
FA3
330
18
100
AcDbEntity
  8
Object
100
AcDbLine
 10
25.01333333333333
 20
10.01555555555555
 30
0.0
 11
25.00222222222222
 21
10.01555555555555
 31
0.0
  0
LINE
  5
FA4
330
18
100
AcDbEntity
  8
Object
100
AcDbLine
 10
24.97777777777778
 20
10.01555555555555
 30
0.0
 11
24.96
 21
10.01666666666666
 31
0.0
  0
LINE
  5
FA5
330
18
100
AcDbEntity
  8
Object
100
AcDbLine
 10
24.96
 20
10.01666666666666
 30
0.0
 11
24.94
 21
10.01666666666666
 31
0.0
  0
LINE
  5
FA6
330
18
100
AcDbEntity
  8
Object
100
AcDbLine
 10
24.94
 20
10.01666666666666
 30
0.0
 11
24.92555555555556
 21
10.01666666666666
 31
0.0
  0
LINE
  5
FA7
330
18
100
AcDbEntity
  8
Object
100
AcDbLine
 10
24.92555555555556
 20
10.01666666666666
 30
0.0
 11
24.91555555555556
 21
10.01666666666666
 31
0.0
  0
LINE
  5
FA8
330
18
100
AcDbEntity
  8
Object
100
AcDbLine
 10
25.00222222222222
 20
10.01555555555555
 30
0.0
 11
24.90666666666667
 21
10.01666666666666
 31
0.0
  0
LINE
  5
FA9
330
18
100
AcDbEntity
  8
Object
100
AcDbLine
 10
24.90666666666667
 20
10.01666666666666
 30
0.0
 11
24.91555555555556
 21
10.01666666666666
 31
0.0
  0
LINE
  5
FAA
330
18
100
AcDbEntity
  8
Object
100
AcDbLine
 10
25.00222222222222
 20
5.881111111111111
 30
0.0
 11
25.00222222222222
 21
6.081111111111111
 31
0.0
  0
LINE
  5
FAB
330
18
100
AcDbEntity
  8
Object
100
AcDbLine
 10
24.90666666666667
 20
6.081111111111111
 30
0.0
 11
24.90666666666667
 21
6.283333333333333
 31
0.0
  0
LINE
  5
FAC
330
18
100
AcDbEntity
  8
Object
100
AcDbLine
 10
24.90666666666667
 20
6.283333333333333
 30
0.0
 11
24.90666666666667
 21
6.488888888888888
 31
0.0
  0
LINE
  5
FAD
330
18
100
AcDbEntity
  8
Object
100
AcDbLine
 10
24.90666666666667
 20
6.488888888888888
 30
0.0
 11
25.00222222222222
 21
6.488888888888888
 31
0.0
  0
LINE
  5
FAE
330
18
100
AcDbEntity
  8
Object
100
AcDbLine
 10
25.00222222222222
 20
6.488888888888888
 30
0.0
 11
25.00222222222222
 21
6.283333333333333
 31
0.0
  0
LINE
  5
FAF
330
18
100
AcDbEntity
  8
Object
100
AcDbLine
 10
25.00222222222222
 20
6.283333333333333
 30
0.0
 11
25.00222222222222
 21
6.081111111111111
 31
0.0
  0
LINE
  5
FB0
330
18
100
AcDbEntity
  8
Object
100
AcDbLine
 10
24.90666666666667
 20
6.081111111111111
 30
0.0
 11
24.90666666666667
 21
5.881111111111111
 31
0.0
  0
LINE
  5
FB1
330
18
100
AcDbEntity
  8
Object
100
AcDbLine
 10
25.00222222222222
 20
5.145555555555555
 30
0.0
 11
25.00222222222222
 21
5.318888888888888
 31
0.0
  0
LINE
  5
FB2
330
18
100
AcDbEntity
  8
Object
100
AcDbLine
 10
24.90666666666667
 20
5.498888888888888
 30
0.0
 11
24.90666666666667
 21
5.318888888888888
 31
0.0
  0
LINE
  5
FB3
330
18
100
AcDbEntity
  8
Object
100
AcDbLine
 10
25.00222222222222
 20
5.498888888888888
 30
0.0
 11
25.00222222222222
 21
5.687777777777777
 31
0.0
  0
LINE
  5
FB4
330
18
100
AcDbEntity
  8
Object
100
AcDbLine
 10
24.90666666666667
 20
5.881111111111111
 30
0.0
 11
24.90666666666667
 21
5.687777777777777
 31
0.0
  0
LINE
  5
FB5
330
18
100
AcDbEntity
  8
Object
100
AcDbLine
 10
25.00222222222222
 20
5.687777777777777
 30
0.0
 11
25.00222222222222
 21
5.881111111111111
 31
0.0
  0
LINE
  5
FB6
330
18
100
AcDbEntity
  8
Object
100
AcDbLine
 10
24.90666666666667
 20
5.687777777777777
 30
0.0
 11
24.90666666666667
 21
5.498888888888888
 31
0.0
  0
LINE
  5
FB7
330
18
100
AcDbEntity
  8
Object
100
AcDbLine
 10
25.00222222222222
 20
5.318888888888888
 30
0.0
 11
25.00222222222222
 21
5.498888888888888
 31
0.0
  0
LINE
  5
FB8
330
18
100
AcDbEntity
  8
Object
100
AcDbLine
 10
24.90666666666667
 20
5.318888888888888
 30
0.0
 11
24.90666666666667
 21
5.145555555555555
 31
0.0
  0
LINE
  5
FB9
330
18
100
AcDbEntity
  8
Object
100
AcDbLine
 10
24.90666666666667
 20
4.56111111111111
 30
0.0
 11
24.90666666666667
 21
4.445555555555555
 31
0.0
  0
LINE
  5
FBA
330
18
100
AcDbEntity
  8
Object
100
AcDbLine
 10
25.00222222222222
 20
4.56111111111111
 30
0.0
 11
25.00222222222222
 21
4.69
 31
0.0
  0
LINE
  5
FBB
330
18
100
AcDbEntity
  8
Object
100
AcDbLine
 10
24.90666666666667
 20
4.831111111111111
 30
0.0
 11
24.90666666666667
 21
4.69
 31
0.0
  0
LINE
  5
FBC
330
18
100
AcDbEntity
  8
Object
100
AcDbLine
 10
25.00222222222222
 20
4.831111111111111
 30
0.0
 11
25.00222222222222
 21
4.983333333333333
 31
0.0
  0
LINE
  5
FBD
330
18
100
AcDbEntity
  8
Object
100
AcDbLine
 10
24.90666666666667
 20
5.145555555555555
 30
0.0
 11
24.90666666666667
 21
4.983333333333333
 31
0.0
  0
LINE
  5
FBE
330
18
100
AcDbEntity
  8
Object
100
AcDbLine
 10
25.00222222222222
 20
4.983333333333333
 30
0.0
 11
25.00222222222222
 21
5.145555555555555
 31
0.0
  0
LINE
  5
FBF
330
18
100
AcDbEntity
  8
Object
100
AcDbLine
 10
24.90666666666667
 20
4.983333333333333
 30
0.0
 11
24.90666666666667
 21
4.831111111111111
 31
0.0
  0
LINE
  5
FC0
330
18
100
AcDbEntity
  8
Object
100
AcDbLine
 10
25.00222222222222
 20
4.69
 30
0.0
 11
25.00222222222222
 21
4.831111111111111
 31
0.0
  0
LINE
  5
FC1
330
18
100
AcDbEntity
  8
Object
100
AcDbLine
 10
24.90666666666667
 20
4.69
 30
0.0
 11
24.90666666666667
 21
4.56111111111111
 31
0.0
  0
LINE
  5
FC2
330
18
100
AcDbEntity
  8
Object
100
AcDbLine
 10
25.00222222222222
 20
4.445555555555555
 30
0.0
 11
25.00222222222222
 21
4.56111111111111
 31
0.0
  0
LINE
  5
FC3
330
18
100
AcDbEntity
  8
Object
100
AcDbLine
 10
25.00222222222222
 20
4.185555555555555
 30
0.0
 11
25.00222222222222
 21
4.257777777777778
 31
0.0
  0
LINE
  5
FC4
330
18
100
AcDbEntity
  8
Object
100
AcDbLine
 10
25.00222222222222
 20
4.064444444444444
 30
0.0
 11
25.00222222222222
 21
4.088888888888888
 31
0.0
  0
LINE
  5
FC5
330
18
100
AcDbEntity
  8
Object
100
AcDbLine
 10
24.90666666666667
 20
4.064444444444444
 30
0.0
 11
24.90666666666667
 21
4.088888888888888
 31
0.0
  0
LINE
  5
FC6
330
18
100
AcDbEntity
  8
Object
100
AcDbLine
 10
24.90666666666667
 20
4.088888888888888
 30
0.0
 11
24.90666666666667
 21
4.128888888888888
 31
0.0
  0
LINE
  5
FC7
330
18
100
AcDbEntity
  8
Object
100
AcDbLine
 10
24.90666666666667
 20
4.185555555555555
 30
0.0
 11
24.90666666666667
 21
4.257777777777778
 31
0.0
  0
LINE
  5
FC8
330
18
100
AcDbEntity
  8
Object
100
AcDbLine
 10
24.90666666666667
 20
4.257777777777778
 30
0.0
 11
24.90666666666667
 21
4.344444444444444
 31
0.0
  0
LINE
  5
FC9
330
18
100
AcDbEntity
  8
Object
100
AcDbLine
 10
25.00222222222222
 20
4.344444444444444
 30
0.0
 11
25.00222222222222
 21
4.445555555555555
 31
0.0
  0
LINE
  5
FCA
330
18
100
AcDbEntity
  8
Object
100
AcDbLine
 10
24.90666666666667
 20
4.445555555555555
 30
0.0
 11
24.90666666666667
 21
4.344444444444444
 31
0.0
  0
LINE
  5
FCB
330
18
100
AcDbEntity
  8
Object
100
AcDbLine
 10
25.00222222222222
 20
4.257777777777778
 30
0.0
 11
25.00222222222222
 21
4.344444444444444
 31
0.0
  0
LINE
  5
FCC
330
18
100
AcDbEntity
  8
Object
100
AcDbLine
 10
25.00222222222222
 20
4.128888888888888
 30
0.0
 11
25.00222222222222
 21
4.185555555555555
 31
0.0
  0
LINE
  5
FCD
330
18
100
AcDbEntity
  8
Object
100
AcDbLine
 10
24.90666666666667
 20
4.185555555555555
 30
0.0
 11
24.90666666666667
 21
4.128888888888888
 31
0.0
  0
LINE
  5
FCE
330
18
100
AcDbEntity
  8
Object
100
AcDbLine
 10
25.00222222222222
 20
4.088888888888888
 30
0.0
 11
25.00222222222222
 21
4.128888888888888
 31
0.0
  0
LINE
  5
FCF
330
18
100
AcDbEntity
  8
Object
100
AcDbLine
 10
24.90666666666667
 20
4.064444444444444
 30
0.0
 11
24.90666666666667
 21
4.056666666666666
 31
0.0
  0
LINE
  5
FD0
330
18
100
AcDbEntity
  8
Object
100
AcDbLine
 10
25.00222222222222
 20
4.064444444444444
 30
0.0
 11
25.00222222222222
 21
4.056666666666666
 31
0.0
  0
LINE
  5
FD1
330
18
100
AcDbEntity
  8
Object
100
AcDbLine
 10
25.00222222222222
 20
4.056666666666666
 30
0.0
 11
24.90666666666667
 21
4.056666666666666
 31
0.0
  0
LINE
  5
FD2
330
18
100
AcDbEntity
  8
Object
100
AcDbLine
 10
28.90666666666667
 20
9.947777777777778
 30
0.0
 11
28.90666666666667
 21
6.639999999999999
 31
0.0
  0
LINE
  5
FD3
330
18
100
AcDbEntity
  8
Object
100
AcDbLine
 10
28.90666666666667
 20
6.639999999999999
 30
0.0
 11
26.90666666666667
 21
6.637777777777777
 31
0.0
  0
LINE
  5
FD4
330
18
100
AcDbEntity
  8
Object
100
AcDbLine
 10
28.90666666666667
 20
9.947777777777778
 30
0.0
 11
26.90666666666667
 21
9.982222222222222
 31
0.0
  0
LINE
  5
FD5
330
18
100
AcDbEntity
  8
Object
100
AcDbLine
 10
26.46444444444445
 20
9.938888888888888
 30
0.0
 11
26.35777777777778
 21
9.936666666666667
 31
0.0
  0
LINE
  5
FD6
330
18
100
AcDbEntity
  8
Object
100
AcDbLine
 10
26.35777777777778
 20
9.936666666666667
 30
0.0
 11
26.21888888888889
 21
9.934444444444444
 31
0.0
  0
LINE
  5
FD7
330
18
100
AcDbEntity
  8
Object
100
AcDbLine
 10
26.21888888888889
 20
9.934444444444444
 30
0.0
 11
26.08111111111111
 21
9.932222222222222
 31
0.0
  0
LINE
  5
FD8
330
18
100
AcDbEntity
  8
Object
100
AcDbLine
 10
26.08111111111111
 20
9.932222222222222
 30
0.0
 11
25.94666666666667
 21
9.929999999999999
 31
0.0
  0
LINE
  5
FD9
330
18
100
AcDbEntity
  8
Object
100
AcDbLine
 10
25.94666666666667
 20
9.929999999999999
 30
0.0
 11
25.81777777777778
 21
9.927777777777777
 31
0.0
  0
LINE
  5
FDA
330
18
100
AcDbEntity
  8
Object
100
AcDbLine
 10
25.81777777777778
 20
9.927777777777777
 30
0.0
 11
25.69555555555556
 21
9.925555555555556
 31
0.0
  0
LINE
  5
FDB
330
18
100
AcDbEntity
  8
Object
100
AcDbLine
 10
25.69555555555556
 20
9.925555555555556
 30
0.0
 11
25.58111111111111
 21
9.923333333333333
 31
0.0
  0
LINE
  5
FDC
330
18
100
AcDbEntity
  8
Object
100
AcDbLine
 10
25.58111111111111
 20
9.923333333333333
 30
0.0
 11
25.52444444444445
 21
9.922222222222222
 31
0.0
  0
LINE
  5
FDD
330
18
100
AcDbEntity
  8
Object
100
AcDbLine
 10
25.41777777777778
 20
9.919999999999999
 30
0.0
 11
25.38111111111111
 21
9.919999999999999
 31
0.0
  0
LINE
  5
FDE
330
18
100
AcDbEntity
  8
Object
100
AcDbLine
 10
25.38111111111111
 20
9.919999999999999
 30
0.0
 11
25.33
 21
9.918888888888888
 31
0.0
  0
LINE
  5
FDF
330
18
100
AcDbEntity
  8
Object
100
AcDbLine
 10
25.11333333333333
 20
9.914444444444445
 30
0.0
 11
25.07666666666667
 21
9.914444444444445
 31
0.0
  0
LINE
  5
FE0
330
18
100
AcDbEntity
  8
Object
100
AcDbLine
 10
25.07666666666667
 20
9.914444444444445
 30
0.0
 11
25.05111111111111
 21
9.914444444444445
 31
0.0
  0
LINE
  5
FE1
330
18
100
AcDbEntity
  8
Object
100
AcDbLine
 10
25.05111111111111
 20
9.914444444444445
 30
0.0
 11
26.63777777777778
 21
9.942222222222222
 31
0.0
  0
LINE
  5
FE2
330
18
100
AcDbEntity
  8
Object
100
AcDbLine
 10
25.05111111111111
 20
10.01444444444444
 30
0.0
 11
26.63777777777778
 21
9.986666666666666
 31
0.0
  0
LINE
  5
FE3
330
18
100
AcDbEntity
  8
Object
100
AcDbLine
 10
26.63777777777778
 20
9.986666666666666
 30
0.0
 11
26.63777777777778
 21
9.942222222222222
 31
0.0
  0
LINE
  5
FE4
330
18
100
AcDbEntity
  8
Object
100
AcDbLine
 10
26.63777777777778
 20
9.942222222222222
 30
0.0
 11
25.05111111111111
 21
9.914444444444445
 31
0.0
  0
LINE
  5
FE5
330
18
100
AcDbEntity
  8
Object
100
AcDbLine
 10
28.90666666666667
 20
6.555555555555555
 30
0.0
 11
28.90666666666667
 21
6.639999999999999
 31
0.0
  0
LINE
  5
FE6
330
18
100
AcDbEntity
  8
Object
100
AcDbLine
 10
28.90666666666667
 20
6.402222222222222
 30
0.0
 11
28.90666666666667
 21
6.475555555555555
 31
0.0
  0
LINE
  5
FE7
330
18
100
AcDbEntity
  8
Object
100
AcDbLine
 10
28.90666666666667
 20
6.286666666666667
 30
0.0
 11
28.90666666666667
 21
6.338888888888888
 31
0.0
  0
LINE
  5
FE8
330
18
100
AcDbEntity
  8
Object
100
AcDbLine
 10
28.90666666666667
 20
6.247777777777777
 30
0.0
 11
28.90666666666667
 21
6.224444444444444
 31
0.0
  0
LINE
  5
FE9
330
18
100
AcDbEntity
  8
Object
100
AcDbLine
 10
28.90666666666667
 20
6.224444444444444
 30
0.0
 11
28.90666666666667
 21
6.216666666666666
 31
0.0
  0
LINE
  5
FEA
330
18
100
AcDbEntity
  8
Object
100
AcDbLine
 10
28.90666666666667
 20
6.216666666666666
 30
0.0
 11
26.90666666666667
 21
6.181111111111111
 31
0.0
  0
LINE
  5
FEB
330
18
100
AcDbEntity
  8
Object
100
AcDbLine
 10
28.90666666666667
 20
6.247777777777777
 30
0.0
 11
28.90666666666667
 21
6.286666666666667
 31
0.0
  0
LINE
  5
FEC
330
18
100
AcDbEntity
  8
Object
100
AcDbLine
 10
28.90666666666667
 20
6.338888888888888
 30
0.0
 11
28.90666666666667
 21
6.402222222222222
 31
0.0
  0
LINE
  5
FED
330
18
100
AcDbEntity
  8
Object
100
AcDbLine
 10
28.90666666666667
 20
6.475555555555555
 30
0.0
 11
28.90666666666667
 21
6.555555555555555
 31
0.0
  0
LINE
  5
FEE
330
18
100
AcDbEntity
  8
Object
100
AcDbLine
 10
25.05333333333334
 20
4.577777777777777
 30
0.0
 11
26.63444444444444
 21
6.158888888888888
 31
0.0
  0
LINE
  5
FEF
330
18
100
AcDbEntity
  8
Object
100
AcDbLine
 10
25.63222222222222
 20
5.678888888888889
 30
0.0
 11
25.60888888888889
 21
5.657777777777777
 31
0.0
  0
LINE
  5
FF0
330
18
100
AcDbEntity
  8
Object
100
AcDbLine
 10
25.77555555555556
 20
5.798888888888888
 30
0.0
 11
25.74222222222222
 21
5.773333333333333
 31
0.0
  0
LINE
  5
FF1
330
18
100
AcDbEntity
  8
Object
100
AcDbLine
 10
25.91666666666667
 20
5.896666666666666
 30
0.0
 11
25.86444444444444
 21
5.862222222222222
 31
0.0
  0
LINE
  5
FF2
330
18
100
AcDbEntity
  8
Object
100
AcDbLine
 10
26.40777777777778
 20
6.112222222222222
 30
0.0
 11
26.37555555555556
 21
6.103333333333333
 31
0.0
  0
LINE
  5
FF3
330
18
100
AcDbEntity
  8
Object
100
AcDbLine
 10
26.57777777777778
 20
6.15111111111111
 30
0.0
 11
26.53333333333334
 21
6.142222222222222
 31
0.0
  0
LINE
  5
FF4
330
18
100
AcDbEntity
  8
Object
100
AcDbLine
 10
25.05333333333334
 20
4.577777777777777
 30
0.0
 11
26.63444444444444
 21
6.158888888888888
 31
0.0
  0
LINE
  5
FF5
330
18
100
AcDbEntity
  8
Object
100
AcDbLine
 10
26.90666666666667
 20
6.181111111111111
 30
0.0
 11
28.90666666666667
 21
6.216666666666666
 31
0.0
  0
LINE
  5
FF6
330
18
100
AcDbEntity
  8
Object
100
AcDbLine
 10
24.90666666666667
 20
6.488888888888888
 30
0.0
 11
24.90666666666667
 21
10.01666666666666
 31
0.0
  0
LINE
  5
FF7
330
18
100
AcDbEntity
  8
Object
100
AcDbLine
 10
24.90666666666667
 20
10.01666666666666
 30
0.0
 11
25.00222222222222
 21
10.01555555555555
 31
0.0
  0
LINE
  5
FF8
330
18
100
AcDbEntity
  8
Object
100
AcDbLine
 10
25.00222222222222
 20
10.01555555555555
 30
0.0
 11
25.00222222222222
 21
6.488888888888888
 31
0.0
  0
LINE
  5
FF9
330
18
100
AcDbEntity
  8
Object
100
AcDbLine
 10
24.90666666666667
 20
4.064444444444444
 30
0.0
 11
24.90666666666667
 21
4.056666666666666
 31
0.0
  0
LINE
  5
FFA
330
18
100
AcDbEntity
  8
Object
100
AcDbLine
 10
24.90666666666667
 20
4.128888888888888
 30
0.0
 11
24.90666666666667
 21
4.088888888888888
 31
0.0
  0
LINE
  5
FFB
330
18
100
AcDbEntity
  8
Object
100
AcDbLine
 10
24.90666666666667
 20
4.257777777777778
 30
0.0
 11
24.90666666666667
 21
4.185555555555555
 31
0.0
  0
LINE
  5
FFC
330
18
100
AcDbEntity
  8
Object
100
AcDbLine
 10
24.90666666666667
 20
4.445555555555555
 30
0.0
 11
24.90666666666667
 21
4.344444444444444
 31
0.0
  0
LINE
  5
FFD
330
18
100
AcDbEntity
  8
Object
100
AcDbLine
 10
24.90666666666667
 20
4.69
 30
0.0
 11
24.90666666666667
 21
4.56111111111111
 31
0.0
  0
LINE
  5
FFE
330
18
100
AcDbEntity
  8
Object
100
AcDbLine
 10
24.90666666666667
 20
4.983333333333333
 30
0.0
 11
24.90666666666667
 21
4.831111111111111
 31
0.0
  0
LINE
  5
FFF
330
18
100
AcDbEntity
  8
Object
100
AcDbLine
 10
24.90666666666667
 20
5.318888888888888
 30
0.0
 11
24.90666666666667
 21
5.145555555555555
 31
0.0
  0
LINE
  5
1000
330
18
100
AcDbEntity
  8
Object
100
AcDbLine
 10
24.90666666666667
 20
5.687777777777777
 30
0.0
 11
24.90666666666667
 21
5.498888888888888
 31
0.0
  0
LINE
  5
1001
330
18
100
AcDbEntity
  8
Object
100
AcDbLine
 10
24.90666666666667
 20
6.081111111111111
 30
0.0
 11
24.90666666666667
 21
5.881111111111111
 31
0.0
  0
LINE
  5
1002
330
18
100
AcDbEntity
  8
Object
100
AcDbLine
 10
24.90666666666667
 20
6.283333333333333
 30
0.0
 11
24.90666666666667
 21
6.488888888888888
 31
0.0
  0
LINE
  5
1003
330
18
100
AcDbEntity
  8
Object
100
AcDbLine
 10
24.90666666666667
 20
6.488888888888888
 30
0.0
 11
24.90666666666667
 21
10.01666666666666
 31
0.0
  0
LINE
  5
1004
330
18
100
AcDbEntity
  8
Object
100
AcDbLine
 10
24.90666666666667
 20
6.283333333333333
 30
0.0
 11
24.90666666666667
 21
6.081111111111111
 31
0.0
  0
LINE
  5
1005
330
18
100
AcDbEntity
  8
Object
100
AcDbLine
 10
24.90666666666667
 20
5.881111111111111
 30
0.0
 11
24.90666666666667
 21
5.687777777777777
 31
0.0
  0
LINE
  5
1006
330
18
100
AcDbEntity
  8
Object
100
AcDbLine
 10
24.90666666666667
 20
5.498888888888888
 30
0.0
 11
24.90666666666667
 21
5.318888888888888
 31
0.0
  0
LINE
  5
1007
330
18
100
AcDbEntity
  8
Object
100
AcDbLine
 10
24.90666666666667
 20
5.145555555555555
 30
0.0
 11
24.90666666666667
 21
4.983333333333333
 31
0.0
  0
LINE
  5
1008
330
18
100
AcDbEntity
  8
Object
100
AcDbLine
 10
24.90666666666667
 20
4.831111111111111
 30
0.0
 11
24.90666666666667
 21
4.69
 31
0.0
  0
LINE
  5
1009
330
18
100
AcDbEntity
  8
Object
100
AcDbLine
 10
24.90666666666667
 20
4.56111111111111
 30
0.0
 11
24.90666666666667
 21
4.445555555555555
 31
0.0
  0
LINE
  5
100A
330
18
100
AcDbEntity
  8
Object
100
AcDbLine
 10
24.90666666666667
 20
4.344444444444444
 30
0.0
 11
24.90666666666667
 21
4.257777777777778
 31
0.0
  0
LINE
  5
100B
330
18
100
AcDbEntity
  8
Object
100
AcDbLine
 10
24.90666666666667
 20
4.185555555555555
 30
0.0
 11
24.90666666666667
 21
4.128888888888888
 31
0.0
  0
LINE
  5
100C
330
18
100
AcDbEntity
  8
Object
100
AcDbLine
 10
24.90666666666667
 20
4.088888888888888
 30
0.0
 11
24.90666666666667
 21
4.064444444444444
 31
0.0
  0
LINE
  5
100D
330
18
100
AcDbEntity
  8
Object
100
AcDbLine
 10
28.90666666666667
 20
6.475555555555555
 30
0.0
 11
28.90666666666667
 21
6.555555555555555
 31
0.0
  0
LINE
  5
100E
330
18
100
AcDbEntity
  8
Object
100
AcDbLine
 10
28.90666666666667
 20
6.338888888888888
 30
0.0
 11
28.90666666666667
 21
6.402222222222222
 31
0.0
  0
LINE
  5
100F
330
18
100
AcDbEntity
  8
Object
100
AcDbLine
 10
28.90666666666667
 20
6.247777777777777
 30
0.0
 11
28.90666666666667
 21
6.286666666666667
 31
0.0
  0
LINE
  5
1010
330
18
100
AcDbEntity
  8
Object
100
AcDbLine
 10
28.90666666666667
 20
6.216666666666666
 30
0.0
 11
28.90666666666667
 21
6.224444444444444
 31
0.0
  0
LINE
  5
1011
330
18
100
AcDbEntity
  8
Object
100
AcDbLine
 10
28.90666666666667
 20
6.224444444444444
 30
0.0
 11
28.90666666666667
 21
6.247777777777777
 31
0.0
  0
LINE
  5
1012
330
18
100
AcDbEntity
  8
Object
100
AcDbLine
 10
28.90666666666667
 20
6.286666666666667
 30
0.0
 11
28.90666666666667
 21
6.338888888888888
 31
0.0
  0
LINE
  5
1013
330
18
100
AcDbEntity
  8
Object
100
AcDbLine
 10
28.90666666666667
 20
6.402222222222222
 30
0.0
 11
28.90666666666667
 21
6.475555555555555
 31
0.0
  0
LINE
  5
1014
330
18
100
AcDbEntity
  8
Object
100
AcDbLine
 10
28.90666666666667
 20
6.555555555555555
 30
0.0
 11
28.90666666666667
 21
6.639999999999999
 31
0.0
  0
LINE
  5
1015
330
18
100
AcDbEntity
  8
Object
100
AcDbLine
 10
28.90666666666667
 20
6.639999999999999
 30
0.0
 11
28.90666666666667
 21
9.947777777777778
 31
0.0
  0
LINE
  5
1016
330
18
100
AcDbEntity
  8
Object
100
AcDbLine
 10
24.90666666666667
 20
4.056666666666666
 30
0.0
 11
25.00222222222222
 21
4.056666666666666
 31
0.0
  0
LINE
  5
1017
330
18
100
AcDbEntity
  8
Object
100
AcDbLine
 10
26.90666666666667
 20
9.982222222222222
 30
0.0
 11
26.72777777777778
 21
9.985555555555555
 31
0.0
  0
LINE
  5
1018
330
18
100
AcDbEntity
  8
Object
100
AcDbLine
 10
26.72777777777778
 20
9.985555555555555
 30
0.0
 11
26.64333333333333
 21
9.985555555555555
 31
0.0
  0
LINE
  5
1019
330
18
100
AcDbEntity
  8
Object
100
AcDbLine
 10
26.62888888888889
 20
9.986666666666666
 30
0.0
 11
26.54333333333334
 21
9.988888888888888
 31
0.0
  0
LINE
  5
101A
330
18
100
AcDbEntity
  8
Object
100
AcDbLine
 10
26.54333333333334
 20
9.988888888888888
 30
0.0
 11
26.45
 21
9.99
 31
0.0
  0
LINE
  5
101B
330
18
100
AcDbEntity
  8
Object
100
AcDbLine
 10
26.45
 20
9.99
 30
0.0
 11
26.35666666666667
 21
9.992222222222222
 31
0.0
  0
LINE
  5
101C
330
18
100
AcDbEntity
  8
Object
100
AcDbLine
 10
26.35666666666667
 20
9.992222222222222
 30
0.0
 11
26.26333333333333
 21
9.993333333333334
 31
0.0
  0
LINE
  5
101D
330
18
100
AcDbEntity
  8
Object
100
AcDbLine
 10
26.26333333333333
 20
9.993333333333334
 30
0.0
 11
26.17111111111111
 21
9.995555555555554
 31
0.0
  0
LINE
  5
101E
330
18
100
AcDbEntity
  8
Object
100
AcDbLine
 10
26.17111111111111
 20
9.995555555555554
 30
0.0
 11
26.07888888888889
 21
9.996666666666666
 31
0.0
  0
LINE
  5
101F
330
18
100
AcDbEntity
  8
Object
100
AcDbLine
 10
26.07888888888889
 20
9.996666666666666
 30
0.0
 11
26.03666666666667
 21
9.996666666666666
 31
0.0
  0
LINE
  5
1020
330
18
100
AcDbEntity
  8
Object
100
AcDbLine
 10
25.95555555555556
 20
9.997777777777777
 30
0.0
 11
25.9
 21
10.0
 31
0.0
  0
LINE
  5
1021
330
18
100
AcDbEntity
  8
Object
100
AcDbLine
 10
25.9
 20
10.0
 30
0.0
 11
25.81333333333333
 21
10.0
 31
0.0
  0
LINE
  5
1022
330
18
100
AcDbEntity
  8
Object
100
AcDbLine
 10
25.81111111111111
 20
10.00111111111111
 30
0.0
 11
25.72777777777778
 21
10.00333333333333
 31
0.0
  0
LINE
  5
1023
330
18
100
AcDbEntity
  8
Object
100
AcDbLine
 10
25.72777777777778
 20
10.00333333333333
 30
0.0
 11
25.64666666666667
 21
10.00444444444444
 31
0.0
  0
LINE
  5
1024
330
18
100
AcDbEntity
  8
Object
100
AcDbLine
 10
25.64666666666667
 20
10.00444444444444
 30
0.0
 11
25.56777777777778
 21
10.00555555555555
 31
0.0
  0
LINE
  5
1025
330
18
100
AcDbEntity
  8
Object
100
AcDbLine
 10
25.56777777777778
 20
10.00555555555555
 30
0.0
 11
25.50666666666667
 21
10.00555555555555
 31
0.0
  0
LINE
  5
1026
330
18
100
AcDbEntity
  8
Object
100
AcDbLine
 10
25.18333333333333
 20
10.01111111111111
 30
0.0
 11
25.17888888888889
 21
10.01222222222222
 31
0.0
  0
LINE
  5
1027
330
18
100
AcDbEntity
  8
Object
100
AcDbLine
 10
25.17888888888889
 20
10.01222222222222
 30
0.0
 11
25.13
 21
10.01333333333333
 31
0.0
  0
LINE
  5
1028
330
18
100
AcDbEntity
  8
Object
100
AcDbLine
 10
25.13
 20
10.01333333333333
 30
0.0
 11
25.08666666666667
 21
10.01444444444444
 31
0.0
  0
LINE
  5
1029
330
18
100
AcDbEntity
  8
Object
100
AcDbLine
 10
25.08666666666667
 20
10.01444444444444
 30
0.0
 11
25.05111111111111
 21
10.01444444444444
 31
0.0
  0
LINE
  5
102A
330
18
100
AcDbEntity
  8
Object
100
AcDbLine
 10
25.04777777777778
 20
10.01444444444444
 30
0.0
 11
25.03111111111111
 21
10.01444444444444
 31
0.0
  0
LINE
  5
102B
330
18
100
AcDbEntity
  8
Object
100
AcDbLine
 10
24.97777777777778
 20
10.01555555555555
 30
0.0
 11
24.96
 21
10.01666666666666
 31
0.0
  0
LINE
  5
102C
330
18
100
AcDbEntity
  8
Object
100
AcDbLine
 10
24.96
 20
10.01666666666666
 30
0.0
 11
24.94
 21
10.01666666666666
 31
0.0
  0
LINE
  5
102D
330
18
100
AcDbEntity
  8
Object
100
AcDbLine
 10
24.94
 20
10.01666666666666
 30
0.0
 11
24.92555555555556
 21
10.01666666666666
 31
0.0
  0
LINE
  5
102E
330
18
100
AcDbEntity
  8
Object
100
AcDbLine
 10
24.92555555555556
 20
10.01666666666666
 30
0.0
 11
24.91555555555556
 21
10.01666666666666
 31
0.0
  0
LINE
  5
102F
330
18
100
AcDbEntity
  8
Object
100
AcDbLine
 10
24.91555555555556
 20
10.01666666666666
 30
0.0
 11
24.90666666666667
 21
10.01666666666666
 31
0.0
  0
LINE
  5
1030
330
18
100
AcDbEntity
  8
Object
100
AcDbLine
 10
4.712222222222222
 20
10.01555555555555
 30
0.0
 11
4.958888888888888
 21
6.488888888888888
 31
0.0
  0
LINE
  5
1031
330
18
100
AcDbEntity
  8
Object
100
AcDbLine
 10
15.35666666666666
 20
6.488888888888888
 30
0.0
 11
15.60333333333333
 21
10.01555555555555
 31
0.0
  0
LINE
  5
1032
330
18
100
AcDbEntity
  8
Object
100
AcDbLine
 10
7.007777777777778
 20
9.947777777777778
 30
0.0
 11
6.971111111111111
 21
9.982222222222222
 31
0.0
  0
LINE
  5
1033
330
18
100
AcDbEntity
  8
Object
100
AcDbLine
 10
6.971111111111111
 20
9.982222222222222
 30
0.0
 11
6.962222222222222
 21
9.985555555555555
 31
0.0
  0
LINE
  5
1034
330
18
100
AcDbEntity
  8
Object
100
AcDbLine
 10
6.962222222222222
 20
9.985555555555555
 30
0.0
 11
6.952222222222221
 21
9.986666666666666
 31
0.0
  0
LINE
  5
1035
330
18
100
AcDbEntity
  8
Object
100
AcDbLine
 10
6.952222222222221
 20
9.986666666666666
 30
0.0
 11
6.936666666666666
 21
9.988888888888888
 31
0.0
  0
LINE
  5
1036
330
18
100
AcDbEntity
  8
Object
100
AcDbLine
 10
6.936666666666666
 20
9.988888888888888
 30
0.0
 11
6.916666666666666
 21
9.99
 31
0.0
  0
LINE
  5
1037
330
18
100
AcDbEntity
  8
Object
100
AcDbLine
 10
6.916666666666666
 20
9.99
 30
0.0
 11
6.892222222222222
 21
9.992222222222222
 31
0.0
  0
LINE
  5
1038
330
18
100
AcDbEntity
  8
Object
100
AcDbLine
 10
6.892222222222222
 20
9.992222222222222
 30
0.0
 11
6.863333333333333
 21
9.993333333333334
 31
0.0
  0
LINE
  5
1039
330
18
100
AcDbEntity
  8
Object
100
AcDbLine
 10
6.863333333333333
 20
9.993333333333334
 30
0.0
 11
6.828888888888888
 21
9.995555555555554
 31
0.0
  0
LINE
  5
103A
330
18
100
AcDbEntity
  8
Object
100
AcDbLine
 10
6.382222222222222
 20
10.00666666666666
 30
0.0
 11
6.306666666666666
 21
10.00777777777777
 31
0.0
  0
LINE
  5
103B
330
18
100
AcDbEntity
  8
Object
100
AcDbLine
 10
6.306666666666666
 20
10.00777777777777
 30
0.0
 11
6.227777777777777
 21
10.00888888888889
 31
0.0
  0
LINE
  5
103C
330
18
100
AcDbEntity
  8
Object
100
AcDbLine
 10
6.227777777777777
 20
10.00888888888889
 30
0.0
 11
6.145555555555555
 21
10.01
 31
0.0
  0
LINE
  5
103D
330
18
100
AcDbEntity
  8
Object
100
AcDbLine
 10
6.145555555555555
 20
10.01
 30
0.0
 11
6.06111111111111
 21
10.01111111111111
 31
0.0
  0
LINE
  5
103E
330
18
100
AcDbEntity
  8
Object
100
AcDbLine
 10
6.06111111111111
 20
10.01111111111111
 30
0.0
 11
5.973333333333333
 21
10.01222222222222
 31
0.0
  0
LINE
  5
103F
330
18
100
AcDbEntity
  8
Object
100
AcDbLine
 10
5.973333333333333
 20
10.01222222222222
 30
0.0
 11
5.884444444444444
 21
10.01333333333333
 31
0.0
  0
LINE
  5
1040
330
18
100
AcDbEntity
  8
Object
100
AcDbLine
 10
5.884444444444444
 20
10.01333333333333
 30
0.0
 11
5.793333333333333
 21
10.01444444444444
 31
0.0
  0
LINE
  5
1041
330
18
100
AcDbEntity
  8
Object
100
AcDbLine
 10
5.793333333333333
 20
10.01444444444444
 30
0.0
 11
5.701111111111111
 21
10.01444444444444
 31
0.0
  0
LINE
  5
1042
330
18
100
AcDbEntity
  8
Object
100
AcDbLine
 10
5.701111111111111
 20
10.01444444444444
 30
0.0
 11
5.608888888888889
 21
10.01555555555555
 31
0.0
  0
LINE
  5
1043
330
18
100
AcDbEntity
  8
Object
100
AcDbLine
 10
5.608888888888889
 20
10.01555555555555
 30
0.0
 11
5.515555555555555
 21
10.01555555555555
 31
0.0
  0
LINE
  5
1044
330
18
100
AcDbEntity
  8
Object
100
AcDbLine
 10
5.515555555555555
 20
10.01555555555555
 30
0.0
 11
5.421111111111111
 21
10.01666666666666
 31
0.0
  0
LINE
  5
1045
330
18
100
AcDbEntity
  8
Object
100
AcDbLine
 10
5.421111111111111
 20
10.01666666666666
 30
0.0
 11
5.327777777777777
 21
10.01666666666666
 31
0.0
  0
LINE
  5
1046
330
18
100
AcDbEntity
  8
Object
100
AcDbLine
 10
5.327777777777777
 20
10.01666666666666
 30
0.0
 11
5.235555555555555
 21
10.01666666666666
 31
0.0
  0
LINE
  5
1047
330
18
100
AcDbEntity
  8
Object
100
AcDbLine
 10
4.712222222222222
 20
10.01666666666666
 30
0.0
 11
4.712222222222222
 21
10.01555555555555
 31
0.0
  0
LINE
  5
1048
330
18
100
AcDbEntity
  8
Object
100
AcDbLine
 10
15.60333333333333
 20
10.01555555555555
 30
0.0
 11
15.60333333333333
 21
10.01666666666666
 31
0.0
  0
LINE
  5
1049
330
18
100
AcDbEntity
  8
Object
100
AcDbLine
 10
13.93333333333333
 20
10.00666666666666
 30
0.0
 11
13.86222222222222
 21
10.00555555555555
 31
0.0
  0
LINE
  5
104A
330
18
100
AcDbEntity
  8
Object
100
AcDbLine
 10
13.86222222222222
 20
10.00555555555555
 30
0.0
 11
13.79444444444444
 21
10.00444444444444
 31
0.0
  0
LINE
  5
104B
330
18
100
AcDbEntity
  8
Object
100
AcDbLine
 10
13.79444444444444
 20
10.00444444444444
 30
0.0
 11
13.73111111111111
 21
10.00333333333333
 31
0.0
  0
LINE
  5
104C
330
18
100
AcDbEntity
  8
Object
100
AcDbLine
 10
13.73111111111111
 20
10.00333333333333
 30
0.0
 11
13.67333333333333
 21
10.00111111111111
 31
0.0
  0
LINE
  5
104D
330
18
100
AcDbEntity
  8
Object
100
AcDbLine
 10
15.35666666666666
 20
6.488888888888888
 30
0.0
 11
15.33444444444444
 21
6.283333333333333
 31
0.0
  0
LINE
  5
104E
330
18
100
AcDbEntity
  8
Object
100
AcDbLine
 10
15.33444444444444
 20
6.283333333333333
 30
0.0
 11
15.29555555555555
 21
6.081111111111111
 31
0.0
  0
LINE
  5
104F
330
18
100
AcDbEntity
  8
Object
100
AcDbLine
 10
15.29555555555555
 20
6.081111111111111
 30
0.0
 11
15.24111111111111
 21
5.881111111111111
 31
0.0
  0
LINE
  5
1050
330
18
100
AcDbEntity
  8
Object
100
AcDbLine
 10
15.24111111111111
 20
5.881111111111111
 30
0.0
 11
15.17111111111111
 21
5.687777777777777
 31
0.0
  0
LINE
  5
1051
330
18
100
AcDbEntity
  8
Object
100
AcDbLine
 10
15.17111111111111
 20
5.687777777777777
 30
0.0
 11
15.08555555555555
 21
5.498888888888888
 31
0.0
  0
LINE
  5
1052
330
18
100
AcDbEntity
  8
Object
100
AcDbLine
 10
15.08555555555555
 20
5.498888888888888
 30
0.0
 11
14.98555555555555
 21
5.318888888888888
 31
0.0
  0
LINE
  5
1053
330
18
100
AcDbEntity
  8
Object
100
AcDbLine
 10
14.98555555555555
 20
5.318888888888888
 30
0.0
 11
14.87222222222222
 21
5.145555555555555
 31
0.0
  0
LINE
  5
1054
330
18
100
AcDbEntity
  8
Object
100
AcDbLine
 10
14.87222222222222
 20
5.145555555555555
 30
0.0
 11
14.74555555555555
 21
4.983333333333333
 31
0.0
  0
LINE
  5
1055
330
18
100
AcDbEntity
  8
Object
100
AcDbLine
 10
14.74555555555555
 20
4.983333333333333
 30
0.0
 11
14.60555555555555
 21
4.831111111111111
 31
0.0
  0
LINE
  5
1056
330
18
100
AcDbEntity
  8
Object
100
AcDbLine
 10
14.60555555555555
 20
4.831111111111111
 30
0.0
 11
14.45444444444444
 21
4.69
 31
0.0
  0
LINE
  5
1057
330
18
100
AcDbEntity
  8
Object
100
AcDbLine
 10
14.45444444444444
 20
4.69
 30
0.0
 11
14.29333333333333
 21
4.56111111111111
 31
0.0
  0
LINE
  5
1058
330
18
100
AcDbEntity
  8
Object
100
AcDbLine
 10
14.29333333333333
 20
4.56111111111111
 30
0.0
 11
14.12111111111111
 21
4.445555555555555
 31
0.0
  0
LINE
  5
1059
330
18
100
AcDbEntity
  8
Object
100
AcDbLine
 10
14.12111111111111
 20
4.445555555555555
 30
0.0
 11
13.94111111111111
 21
4.344444444444444
 31
0.0
  0
LINE
  5
105A
330
18
100
AcDbEntity
  8
Object
100
AcDbLine
 10
13.94111111111111
 20
4.344444444444444
 30
0.0
 11
13.75444444444444
 21
4.257777777777778
 31
0.0
  0
LINE
  5
105B
330
18
100
AcDbEntity
  8
Object
100
AcDbLine
 10
13.75444444444444
 20
4.257777777777778
 30
0.0
 11
13.56111111111111
 21
4.185555555555555
 31
0.0
  0
LINE
  5
105C
330
18
100
AcDbEntity
  8
Object
100
AcDbLine
 10
13.56111111111111
 20
4.185555555555555
 30
0.0
 11
13.36222222222222
 21
4.128888888888888
 31
0.0
  0
LINE
  5
105D
330
18
100
AcDbEntity
  8
Object
100
AcDbLine
 10
13.36222222222222
 20
4.128888888888888
 30
0.0
 11
13.16
 21
4.088888888888888
 31
0.0
  0
LINE
  5
105E
330
18
100
AcDbEntity
  8
Object
100
AcDbLine
 10
13.16
 20
4.088888888888888
 30
0.0
 11
12.95444444444444
 21
4.064444444444444
 31
0.0
  0
LINE
  5
105F
330
18
100
AcDbEntity
  8
Object
100
AcDbLine
 10
12.95444444444444
 20
4.064444444444444
 30
0.0
 11
12.74777777777778
 21
4.056666666666666
 31
0.0
  0
LINE
  5
1060
330
18
100
AcDbEntity
  8
Object
100
AcDbLine
 10
4.958888888888888
 20
6.488888888888888
 30
0.0
 11
4.712222222222222
 21
10.01555555555555
 31
0.0
  0
LINE
  5
1061
330
18
100
AcDbEntity
  8
Object
100
AcDbLine
 10
4.712222222222222
 20
10.01555555555555
 30
0.0
 11
4.712222222222222
 21
10.01666666666666
 31
0.0
  0
LINE
  5
1062
330
18
100
AcDbEntity
  8
Object
100
AcDbLine
 10
4.712222222222222
 20
10.01666666666666
 30
0.0
 11
4.958888888888888
 21
6.488888888888888
 31
0.0
  0
LINE
  5
1063
330
18
100
AcDbEntity
  8
Object
100
AcDbLine
 10
7.567777777777777
 20
4.056666666666666
 30
0.0
 11
7.36111111111111
 21
4.064444444444444
 31
0.0
  0
LINE
  5
1064
330
18
100
AcDbEntity
  8
Object
100
AcDbLine
 10
7.36111111111111
 20
4.064444444444444
 30
0.0
 11
7.155555555555555
 21
4.088888888888888
 31
0.0
  0
LINE
  5
1065
330
18
100
AcDbEntity
  8
Object
100
AcDbLine
 10
7.155555555555555
 20
4.088888888888888
 30
0.0
 11
6.953333333333333
 21
4.128888888888888
 31
0.0
  0
LINE
  5
1066
330
18
100
AcDbEntity
  8
Object
100
AcDbLine
 10
6.953333333333333
 20
4.128888888888888
 30
0.0
 11
6.754444444444444
 21
4.185555555555555
 31
0.0
  0
LINE
  5
1067
330
18
100
AcDbEntity
  8
Object
100
AcDbLine
 10
6.754444444444444
 20
4.185555555555555
 30
0.0
 11
6.56111111111111
 21
4.257777777777778
 31
0.0
  0
LINE
  5
1068
330
18
100
AcDbEntity
  8
Object
100
AcDbLine
 10
6.56111111111111
 20
4.257777777777778
 30
0.0
 11
6.373333333333333
 21
4.344444444444444
 31
0.0
  0
LINE
  5
1069
330
18
100
AcDbEntity
  8
Object
100
AcDbLine
 10
6.373333333333333
 20
4.344444444444444
 30
0.0
 11
6.194444444444444
 21
4.445555555555555
 31
0.0
  0
LINE
  5
106A
330
18
100
AcDbEntity
  8
Object
100
AcDbLine
 10
6.194444444444444
 20
4.445555555555555
 30
0.0
 11
6.022222222222222
 21
4.56111111111111
 31
0.0
  0
LINE
  5
106B
330
18
100
AcDbEntity
  8
Object
100
AcDbLine
 10
6.022222222222222
 20
4.56111111111111
 30
0.0
 11
5.86111111111111
 21
4.69
 31
0.0
  0
LINE
  5
106C
330
18
100
AcDbEntity
  8
Object
100
AcDbLine
 10
5.86111111111111
 20
4.69
 30
0.0
 11
5.709999999999999
 21
4.831111111111111
 31
0.0
  0
LINE
  5
106D
330
18
100
AcDbEntity
  8
Object
100
AcDbLine
 10
5.709999999999999
 20
4.831111111111111
 30
0.0
 11
5.57
 21
4.983333333333333
 31
0.0
  0
LINE
  5
106E
330
18
100
AcDbEntity
  8
Object
100
AcDbLine
 10
5.57
 20
4.983333333333333
 30
0.0
 11
5.443333333333333
 21
5.145555555555555
 31
0.0
  0
LINE
  5
106F
330
18
100
AcDbEntity
  8
Object
100
AcDbLine
 10
5.443333333333333
 20
5.145555555555555
 30
0.0
 11
5.33
 21
5.318888888888888
 31
0.0
  0
LINE
  5
1070
330
18
100
AcDbEntity
  8
Object
100
AcDbLine
 10
5.33
 20
5.318888888888888
 30
0.0
 11
5.23
 21
5.498888888888888
 31
0.0
  0
LINE
  5
1071
330
18
100
AcDbEntity
  8
Object
100
AcDbLine
 10
5.23
 20
5.498888888888888
 30
0.0
 11
5.144444444444444
 21
5.687777777777777
 31
0.0
  0
LINE
  5
1072
330
18
100
AcDbEntity
  8
Object
100
AcDbLine
 10
5.144444444444444
 20
5.687777777777777
 30
0.0
 11
5.074444444444444
 21
5.881111111111111
 31
0.0
  0
LINE
  5
1073
330
18
100
AcDbEntity
  8
Object
100
AcDbLine
 10
5.074444444444444
 20
5.881111111111111
 30
0.0
 11
5.019999999999999
 21
6.081111111111111
 31
0.0
  0
LINE
  5
1074
330
18
100
AcDbEntity
  8
Object
100
AcDbLine
 10
5.019999999999999
 20
6.081111111111111
 30
0.0
 11
4.98111111111111
 21
6.283333333333333
 31
0.0
  0
LINE
  5
1075
330
18
100
AcDbEntity
  8
Object
100
AcDbLine
 10
4.98111111111111
 20
6.283333333333333
 30
0.0
 11
4.958888888888888
 21
6.488888888888888
 31
0.0
  0
LINE
  5
1076
330
18
100
AcDbEntity
  8
Object
100
AcDbLine
 10
15.60333333333333
 20
10.01555555555555
 30
0.0
 11
15.60333333333333
 21
10.01666666666666
 31
0.0
  0
LINE
  5
1077
330
18
100
AcDbEntity
  8
Object
100
AcDbLine
 10
15.60333333333333
 20
10.01666666666666
 30
0.0
 11
15.35666666666666
 21
6.488888888888888
 31
0.0
  0
LINE
  5
1078
330
18
100
AcDbEntity
  8
Object
100
AcDbLine
 10
15.35666666666666
 20
6.488888888888888
 30
0.0
 11
15.60333333333333
 21
10.01555555555555
 31
0.0
  0
LINE
  5
1079
330
18
100
AcDbEntity
  8
Object
100
AcDbLine
 10
7.007777777777778
 20
9.947777777777778
 30
0.0
 11
7.238888888888888
 21
6.648888888888889
 31
0.0
  0
LINE
  5
107A
330
18
100
AcDbEntity
  8
Object
100
AcDbLine
 10
7.238888888888888
 20
6.648888888888889
 30
0.0
 11
7.204444444444444
 21
6.645555555555555
 31
0.0
  0
LINE
  5
107B
330
18
100
AcDbEntity
  8
Object
100
AcDbLine
 10
15.35222222222222
 20
10.01666666666666
 30
0.0
 11
15.60333333333333
 21
10.01666666666666
 31
0.0
  0
LINE
  5
107C
330
18
100
AcDbEntity
  8
Object
100
AcDbLine
 10
15.60333333333333
 20
10.01666666666666
 30
0.0
 11
15.35666666666666
 21
6.488888888888888
 31
0.0
  0
LINE
  5
107D
330
18
100
AcDbEntity
  8
Object
100
AcDbLine
 10
15.35666666666666
 20
6.488888888888888
 30
0.0
 11
15.33444444444444
 21
6.283333333333333
 31
0.0
  0
LINE
  5
107E
330
18
100
AcDbEntity
  8
Object
100
AcDbLine
 10
15.35222222222222
 20
10.01666666666666
 30
0.0
 11
15.10666666666667
 21
6.506666666666666
 31
0.0
  0
LINE
  5
107F
330
18
100
AcDbEntity
  8
Object
100
AcDbLine
 10
15.33444444444444
 20
6.283333333333333
 30
0.0
 11
15.29555555555555
 21
6.081111111111111
 31
0.0
  0
LINE
  5
1080
330
18
100
AcDbEntity
  8
Object
100
AcDbLine
 10
15.29555555555555
 20
6.081111111111111
 30
0.0
 11
15.24111111111111
 21
5.881111111111111
 31
0.0
  0
LINE
  5
1081
330
18
100
AcDbEntity
  8
Object
100
AcDbLine
 10
15.24111111111111
 20
5.881111111111111
 30
0.0
 11
15.17111111111111
 21
5.687777777777777
 31
0.0
  0
LINE
  5
1082
330
18
100
AcDbEntity
  8
Object
100
AcDbLine
 10
15.17111111111111
 20
5.687777777777777
 30
0.0
 11
15.08555555555555
 21
5.498888888888888
 31
0.0
  0
LINE
  5
1083
330
18
100
AcDbEntity
  8
Object
100
AcDbLine
 10
15.08555555555555
 20
5.498888888888888
 30
0.0
 11
14.98555555555555
 21
5.318888888888888
 31
0.0
  0
LINE
  5
1084
330
18
100
AcDbEntity
  8
Object
100
AcDbLine
 10
14.98555555555555
 20
5.318888888888888
 30
0.0
 11
14.87222222222222
 21
5.145555555555555
 31
0.0
  0
LINE
  5
1085
330
18
100
AcDbEntity
  8
Object
100
AcDbLine
 10
14.87222222222222
 20
5.145555555555555
 30
0.0
 11
14.74555555555555
 21
4.983333333333333
 31
0.0
  0
LINE
  5
1086
330
18
100
AcDbEntity
  8
Object
100
AcDbLine
 10
14.74555555555555
 20
4.983333333333333
 30
0.0
 11
14.60555555555555
 21
4.831111111111111
 31
0.0
  0
LINE
  5
1087
330
18
100
AcDbEntity
  8
Object
100
AcDbLine
 10
14.60555555555555
 20
4.831111111111111
 30
0.0
 11
14.45444444444444
 21
4.69
 31
0.0
  0
LINE
  5
1088
330
18
100
AcDbEntity
  8
Object
100
AcDbLine
 10
14.45444444444444
 20
4.69
 30
0.0
 11
14.29333333333333
 21
4.56111111111111
 31
0.0
  0
LINE
  5
1089
330
18
100
AcDbEntity
  8
Object
100
AcDbLine
 10
14.36
 20
4.94111111111111
 30
0.0
 11
14.21111111111111
 21
4.813333333333333
 31
0.0
  0
LINE
  5
108A
330
18
100
AcDbEntity
  8
Object
100
AcDbLine
 10
14.29333333333333
 20
4.56111111111111
 30
0.0
 11
14.12111111111111
 21
4.445555555555555
 31
0.0
  0
LINE
  5
108B
330
18
100
AcDbEntity
  8
Object
100
AcDbLine
 10
14.12111111111111
 20
4.445555555555555
 30
0.0
 11
13.94111111111111
 21
4.344444444444444
 31
0.0
  0
LINE
  5
108C
330
18
100
AcDbEntity
  8
Object
100
AcDbLine
 10
14.05111111111111
 20
4.697777777777777
 30
0.0
 11
13.88222222222222
 21
4.596666666666666
 31
0.0
  0
LINE
  5
108D
330
18
100
AcDbEntity
  8
Object
100
AcDbLine
 10
13.88222222222222
 20
4.596666666666666
 30
0.0
 11
13.70555555555555
 21
4.508888888888888
 31
0.0
  0
LINE
  5
108E
330
18
100
AcDbEntity
  8
Object
100
AcDbLine
 10
13.94111111111111
 20
4.344444444444444
 30
0.0
 11
13.75444444444444
 21
4.257777777777778
 31
0.0
  0
LINE
  5
108F
330
18
100
AcDbEntity
  8
Object
100
AcDbLine
 10
13.75444444444444
 20
4.257777777777778
 30
0.0
 11
13.56111111111111
 21
4.185555555555555
 31
0.0
  0
LINE
  5
1090
330
18
100
AcDbEntity
  8
Object
100
AcDbLine
 10
13.52222222222222
 20
4.436666666666666
 30
0.0
 11
13.33333333333333
 21
4.379999999999999
 31
0.0
  0
LINE
  5
1091
330
18
100
AcDbEntity
  8
Object
100
AcDbLine
 10
13.56111111111111
 20
4.185555555555555
 30
0.0
 11
13.36222222222222
 21
4.128888888888888
 31
0.0
  0
LINE
  5
1092
330
18
100
AcDbEntity
  8
Object
100
AcDbLine
 10
13.36222222222222
 20
4.128888888888888
 30
0.0
 11
13.16
 21
4.088888888888888
 31
0.0
  0
LINE
  5
1093
330
18
100
AcDbEntity
  8
Object
100
AcDbLine
 10
13.33333333333333
 20
4.379999999999999
 30
0.0
 11
13.14
 21
4.338888888888888
 31
0.0
  0
LINE
  5
1094
330
18
100
AcDbEntity
  8
Object
100
AcDbLine
 10
13.14
 20
4.338888888888888
 30
0.0
 11
12.94444444444444
 21
4.314444444444444
 31
0.0
  0
LINE
  5
1095
330
18
100
AcDbEntity
  8
Object
100
AcDbLine
 10
13.16
 20
4.088888888888888
 30
0.0
 11
12.95444444444444
 21
4.064444444444444
 31
0.0
  0
LINE
  5
1096
330
18
100
AcDbEntity
  8
Object
100
AcDbLine
 10
12.95444444444444
 20
4.064444444444444
 30
0.0
 11
12.74777777777778
 21
4.056666666666666
 31
0.0
  0
LINE
  5
1097
330
18
100
AcDbEntity
  8
Object
100
AcDbLine
 10
12.94444444444444
 20
4.314444444444444
 30
0.0
 11
12.74777777777778
 21
4.306666666666666
 31
0.0
  0
LINE
  5
1098
330
18
100
AcDbEntity
  8
Object
100
AcDbLine
 10
12.74777777777778
 20
4.306666666666666
 30
0.0
 11
7.567777777777777
 21
4.306666666666666
 31
0.0
  0
LINE
  5
1099
330
18
100
AcDbEntity
  8
Object
100
AcDbLine
 10
12.74777777777778
 20
4.056666666666666
 30
0.0
 11
7.567777777777777
 21
4.056666666666666
 31
0.0
  0
LINE
  5
109A
330
18
100
AcDbEntity
  8
Object
100
AcDbLine
 10
7.567777777777777
 20
4.056666666666666
 30
0.0
 11
7.36111111111111
 21
4.064444444444444
 31
0.0
  0
LINE
  5
109B
330
18
100
AcDbEntity
  8
Object
100
AcDbLine
 10
7.567777777777777
 20
4.306666666666666
 30
0.0
 11
7.371111111111111
 21
4.314444444444444
 31
0.0
  0
LINE
  5
109C
330
18
100
AcDbEntity
  8
Object
100
AcDbLine
 10
7.371111111111111
 20
4.314444444444444
 30
0.0
 11
7.175555555555555
 21
4.338888888888888
 31
0.0
  0
LINE
  5
109D
330
18
100
AcDbEntity
  8
Object
100
AcDbLine
 10
7.36111111111111
 20
4.064444444444444
 30
0.0
 11
7.155555555555555
 21
4.088888888888888
 31
0.0
  0
LINE
  5
109E
330
18
100
AcDbEntity
  8
Object
100
AcDbLine
 10
7.155555555555555
 20
4.088888888888888
 30
0.0
 11
6.953333333333333
 21
4.128888888888888
 31
0.0
  0
LINE
  5
109F
330
18
100
AcDbEntity
  8
Object
100
AcDbLine
 10
7.175555555555555
 20
4.338888888888888
 30
0.0
 11
6.982222222222222
 21
4.379999999999999
 31
0.0
  0
LINE
  5
10A0
330
18
100
AcDbEntity
  8
Object
100
AcDbLine
 10
6.982222222222222
 20
4.379999999999999
 30
0.0
 11
6.793333333333333
 21
4.436666666666666
 31
0.0
  0
LINE
  5
10A1
330
18
100
AcDbEntity
  8
Object
100
AcDbLine
 10
6.754444444444444
 20
4.185555555555555
 30
0.0
 11
6.953333333333333
 21
4.128888888888888
 31
0.0
  0
LINE
  5
10A2
330
18
100
AcDbEntity
  8
Object
100
AcDbLine
 10
6.793333333333333
 20
4.436666666666666
 30
0.0
 11
6.61
 21
4.508888888888888
 31
0.0
  0
LINE
  5
10A3
330
18
100
AcDbEntity
  8
Object
100
AcDbLine
 10
6.56111111111111
 20
4.257777777777778
 30
0.0
 11
6.754444444444444
 21
4.185555555555555
 31
0.0
  0
LINE
  5
10A4
330
18
100
AcDbEntity
  8
Object
100
AcDbLine
 10
6.61
 20
4.508888888888888
 30
0.0
 11
6.433333333333333
 21
4.596666666666666
 31
0.0
  0
LINE
  5
10A5
330
18
100
AcDbEntity
  8
Object
100
AcDbLine
 10
6.56111111111111
 20
4.257777777777778
 30
0.0
 11
6.373333333333333
 21
4.344444444444444
 31
0.0
  0
LINE
  5
10A6
330
18
100
AcDbEntity
  8
Object
100
AcDbLine
 10
6.373333333333333
 20
4.344444444444444
 30
0.0
 11
6.194444444444444
 21
4.445555555555555
 31
0.0
  0
LINE
  5
10A7
330
18
100
AcDbEntity
  8
Object
100
AcDbLine
 10
6.433333333333333
 20
4.596666666666666
 30
0.0
 11
6.264444444444444
 21
4.697777777777777
 31
0.0
  0
LINE
  5
10A8
330
18
100
AcDbEntity
  8
Object
100
AcDbLine
 10
6.264444444444444
 20
4.697777777777777
 30
0.0
 11
6.104444444444444
 21
4.813333333333333
 31
0.0
  0
LINE
  5
10A9
330
18
100
AcDbEntity
  8
Object
100
AcDbLine
 10
6.194444444444444
 20
4.445555555555555
 30
0.0
 11
6.022222222222222
 21
4.56111111111111
 31
0.0
  0
LINE
  5
10AA
330
18
100
AcDbEntity
  8
Object
100
AcDbLine
 10
6.022222222222222
 20
4.56111111111111
 30
0.0
 11
5.86111111111111
 21
4.69
 31
0.0
  0
LINE
  5
10AB
330
18
100
AcDbEntity
  8
Object
100
AcDbLine
 10
6.104444444444444
 20
4.813333333333333
 30
0.0
 11
5.955555555555555
 21
4.94111111111111
 31
0.0
  0
LINE
  5
10AC
330
18
100
AcDbEntity
  8
Object
100
AcDbLine
 10
5.955555555555555
 20
4.94111111111111
 30
0.0
 11
5.816666666666666
 21
5.082222222222222
 31
0.0
  0
LINE
  5
10AD
330
18
100
AcDbEntity
  8
Object
100
AcDbLine
 10
5.709999999999999
 20
4.831111111111111
 30
0.0
 11
5.86111111111111
 21
4.69
 31
0.0
  0
LINE
  5
10AE
330
18
100
AcDbEntity
  8
Object
100
AcDbLine
 10
5.816666666666666
 20
5.082222222222222
 30
0.0
 11
5.69
 21
5.233333333333333
 31
0.0
  0
LINE
  5
10AF
330
18
100
AcDbEntity
  8
Object
100
AcDbLine
 10
5.57
 20
4.983333333333333
 30
0.0
 11
5.709999999999999
 21
4.831111111111111
 31
0.0
  0
LINE
  5
10B0
330
18
100
AcDbEntity
  8
Object
100
AcDbLine
 10
5.69
 20
5.233333333333333
 30
0.0
 11
5.576666666666667
 21
5.394444444444444
 31
0.0
  0
LINE
  5
10B1
330
18
100
AcDbEntity
  8
Object
100
AcDbLine
 10
5.57
 20
4.983333333333333
 30
0.0
 11
5.443333333333333
 21
5.145555555555555
 31
0.0
  0
LINE
  5
10B2
330
18
100
AcDbEntity
  8
Object
100
AcDbLine
 10
5.443333333333333
 20
5.145555555555555
 30
0.0
 11
5.33
 21
5.318888888888888
 31
0.0
  0
LINE
  5
10B3
330
18
100
AcDbEntity
  8
Object
100
AcDbLine
 10
5.576666666666667
 20
5.394444444444444
 30
0.0
 11
5.477777777777777
 21
5.565555555555555
 31
0.0
  0
LINE
  5
10B4
330
18
100
AcDbEntity
  8
Object
100
AcDbLine
 10
5.477777777777777
 20
5.565555555555555
 30
0.0
 11
5.393333333333333
 21
5.743333333333333
 31
0.0
  0
LINE
  5
10B5
330
18
100
AcDbEntity
  8
Object
100
AcDbLine
 10
5.23
 20
5.498888888888888
 30
0.0
 11
5.33
 21
5.318888888888888
 31
0.0
  0
LINE
  5
10B6
330
18
100
AcDbEntity
  8
Object
100
AcDbLine
 10
5.393333333333333
 20
5.743333333333333
 30
0.0
 11
5.323333333333333
 21
5.927777777777778
 31
0.0
  0
LINE
  5
10B7
330
18
100
AcDbEntity
  8
Object
100
AcDbLine
 10
5.144444444444444
 20
5.687777777777777
 30
0.0
 11
5.23
 21
5.498888888888888
 31
0.0
  0
LINE
  5
10B8
330
18
100
AcDbEntity
  8
Object
100
AcDbLine
 10
5.323333333333333
 20
5.927777777777778
 30
0.0
 11
5.268888888888889
 21
6.116666666666666
 31
0.0
  0
LINE
  5
10B9
330
18
100
AcDbEntity
  8
Object
100
AcDbLine
 10
5.144444444444444
 20
5.687777777777777
 30
0.0
 11
5.074444444444444
 21
5.881111111111111
 31
0.0
  0
LINE
  5
10BA
330
18
100
AcDbEntity
  8
Object
100
AcDbLine
 10
5.074444444444444
 20
5.881111111111111
 30
0.0
 11
5.019999999999999
 21
6.081111111111111
 31
0.0
  0
LINE
  5
10BB
330
18
100
AcDbEntity
  8
Object
100
AcDbLine
 10
5.268888888888889
 20
6.116666666666666
 30
0.0
 11
5.23111111111111
 21
6.309999999999999
 31
0.0
  0
LINE
  5
10BC
330
18
100
AcDbEntity
  8
Object
100
AcDbLine
 10
5.23111111111111
 20
6.309999999999999
 30
0.0
 11
5.208888888888888
 21
6.506666666666666
 31
0.0
  0
LINE
  5
10BD
330
18
100
AcDbEntity
  8
Object
100
AcDbLine
 10
5.019999999999999
 20
6.081111111111111
 30
0.0
 11
4.98111111111111
 21
6.283333333333333
 31
0.0
  0
LINE
  5
10BE
330
18
100
AcDbEntity
  8
Object
100
AcDbLine
 10
4.98111111111111
 20
6.283333333333333
 30
0.0
 11
4.958888888888888
 21
6.488888888888888
 31
0.0
  0
LINE
  5
10BF
330
18
100
AcDbEntity
  8
Object
100
AcDbLine
 10
5.208888888888888
 20
6.506666666666666
 30
0.0
 11
4.963333333333332
 21
10.01666666666666
 31
0.0
  0
LINE
  5
10C0
330
18
100
AcDbEntity
  8
Object
100
AcDbLine
 10
4.958888888888888
 20
6.488888888888888
 30
0.0
 11
4.712222222222222
 21
10.01666666666666
 31
0.0
  0
LINE
  5
10C1
330
18
100
AcDbEntity
  8
Object
100
AcDbLine
 10
4.712222222222222
 20
10.01666666666666
 30
0.0
 11
4.963333333333332
 21
10.01666666666666
 31
0.0
  0
LINE
  5
10C2
330
18
100
AcDbEntity
  8
Object
100
AcDbLine
 10
13.30777777777778
 20
9.947777777777778
 30
0.0
 11
13.07666666666666
 21
6.648888888888889
 31
0.0
  0
LINE
  5
10C3
330
18
100
AcDbEntity
  8
Object
100
AcDbLine
 10
13.07666666666666
 20
6.648888888888889
 30
0.0
 11
13.06444444444444
 21
6.578888888888888
 31
0.0
  0
LINE
  5
10C4
330
18
100
AcDbEntity
  8
Object
100
AcDbLine
 10
13.06444444444444
 20
6.578888888888888
 30
0.0
 11
13.03777777777778
 21
6.513333333333333
 31
0.0
  0
LINE
  5
10C5
330
18
100
AcDbEntity
  8
Object
100
AcDbLine
 10
13.03777777777778
 20
6.513333333333333
 30
0.0
 11
12.99666666666666
 21
6.455555555555555
 31
0.0
  0
LINE
  5
10C6
330
18
100
AcDbEntity
  8
Object
100
AcDbLine
 10
12.99666666666666
 20
6.455555555555555
 30
0.0
 11
12.94555555555555
 21
6.407777777777777
 31
0.0
  0
LINE
  5
10C7
330
18
100
AcDbEntity
  8
Object
100
AcDbLine
 10
12.94555555555555
 20
6.407777777777777
 30
0.0
 11
12.88444444444444
 21
6.371111111111111
 31
0.0
  0
LINE
  5
10C8
330
18
100
AcDbEntity
  8
Object
100
AcDbLine
 10
12.88444444444444
 20
6.371111111111111
 30
0.0
 11
12.81777777777778
 21
6.348888888888889
 31
0.0
  0
LINE
  5
10C9
330
18
100
AcDbEntity
  8
Object
100
AcDbLine
 10
12.81777777777778
 20
6.348888888888889
 30
0.0
 11
12.74777777777778
 21
6.341111111111111
 31
0.0
  0
LINE
  5
10CA
330
18
100
AcDbEntity
  8
Object
100
AcDbLine
 10
12.74777777777778
 20
6.341111111111111
 30
0.0
 11
7.567777777777777
 21
6.341111111111111
 31
0.0
  0
LINE
  5
10CB
330
18
100
AcDbEntity
  8
Object
100
AcDbLine
 10
7.567777777777777
 20
6.341111111111111
 30
0.0
 11
7.497777777777777
 21
6.348888888888889
 31
0.0
  0
LINE
  5
10CC
330
18
100
AcDbEntity
  8
Object
100
AcDbLine
 10
7.497777777777777
 20
6.348888888888889
 30
0.0
 11
7.431111111111111
 21
6.371111111111111
 31
0.0
  0
LINE
  5
10CD
330
18
100
AcDbEntity
  8
Object
100
AcDbLine
 10
7.431111111111111
 20
6.371111111111111
 30
0.0
 11
7.37
 21
6.407777777777777
 31
0.0
  0
LINE
  5
10CE
330
18
100
AcDbEntity
  8
Object
100
AcDbLine
 10
7.37
 20
6.407777777777777
 30
0.0
 11
7.318888888888888
 21
6.455555555555555
 31
0.0
  0
LINE
  5
10CF
330
18
100
AcDbEntity
  8
Object
100
AcDbLine
 10
7.318888888888888
 20
6.455555555555555
 30
0.0
 11
7.277777777777777
 21
6.513333333333333
 31
0.0
  0
LINE
  5
10D0
330
18
100
AcDbEntity
  8
Object
100
AcDbLine
 10
7.277777777777777
 20
6.513333333333333
 30
0.0
 11
7.251111111111111
 21
6.578888888888888
 31
0.0
  0
LINE
  5
10D1
330
18
100
AcDbEntity
  8
Object
100
AcDbLine
 10
7.251111111111111
 20
6.578888888888888
 30
0.0
 11
7.238888888888888
 21
6.648888888888889
 31
0.0
  0
LINE
  5
10D2
330
18
100
AcDbEntity
  8
Object
100
AcDbLine
 10
7.195555555555555
 20
6.645555555555555
 30
0.0
 11
7.204444444444444
 21
6.645555555555555
 31
0.0
  0
LINE
  5
10D3
330
18
100
AcDbEntity
  8
Object
100
AcDbLine
 10
7.204444444444444
 20
6.645555555555555
 30
0.0
 11
6.971111111111111
 21
9.982222222222222
 31
0.0
  0
LINE
  5
10D4
330
18
100
AcDbEntity
  8
Object
100
AcDbLine
 10
7.195555555555555
 20
6.645555555555555
 30
0.0
 11
7.169999999999999
 21
6.643333333333333
 31
0.0
  0
LINE
  5
10D5
330
18
100
AcDbEntity
  8
Object
100
AcDbLine
 10
7.169999999999999
 20
6.643333333333333
 30
0.0
 11
7.127777777777778
 21
6.64111111111111
 31
0.0
  0
LINE
  5
10D6
330
18
100
AcDbEntity
  8
Object
100
AcDbLine
 10
7.127777777777778
 20
6.64111111111111
 30
0.0
 11
7.068888888888888
 21
6.636666666666666
 31
0.0
  0
LINE
  5
10D7
330
18
100
AcDbEntity
  8
Object
100
AcDbLine
 10
7.068888888888888
 20
6.636666666666666
 30
0.0
 11
6.994444444444444
 21
6.631111111111111
 31
0.0
  0
LINE
  5
10D8
330
18
100
AcDbEntity
  8
Object
100
AcDbLine
 10
6.828888888888888
 20
9.995555555555554
 30
0.0
 11
6.79
 21
9.996666666666666
 31
0.0
  0
LINE
  5
10D9
330
18
100
AcDbEntity
  8
Object
100
AcDbLine
 10
6.79
 20
9.996666666666666
 30
0.0
 11
6.745555555555555
 21
9.997777777777777
 31
0.0
  0
LINE
  5
10DA
330
18
100
AcDbEntity
  8
Object
100
AcDbLine
 10
6.745555555555555
 20
9.997777777777777
 30
0.0
 11
6.696666666666666
 21
10.0
 31
0.0
  0
LINE
  5
10DB
330
18
100
AcDbEntity
  8
Object
100
AcDbLine
 10
6.994444444444444
 20
6.631111111111111
 30
0.0
 11
6.905555555555555
 21
6.625555555555555
 31
0.0
  0
LINE
  5
10DC
330
18
100
AcDbEntity
  8
Object
100
AcDbLine
 10
6.905555555555555
 20
6.625555555555555
 30
0.0
 11
6.801111111111111
 21
6.617777777777777
 31
0.0
  0
LINE
  5
10DD
330
18
100
AcDbEntity
  8
Object
100
AcDbLine
 10
6.696666666666666
 20
10.0
 30
0.0
 11
6.642222222222222
 21
10.00111111111111
 31
0.0
  0
LINE
  5
10DE
330
18
100
AcDbEntity
  8
Object
100
AcDbLine
 10
6.642222222222222
 20
10.00111111111111
 30
0.0
 11
6.583333333333333
 21
10.00333333333333
 31
0.0
  0
LINE
  5
10DF
330
18
100
AcDbEntity
  8
Object
100
AcDbLine
 10
6.583333333333333
 20
10.00333333333333
 30
0.0
 11
6.52111111111111
 21
10.00444444444444
 31
0.0
  0
LINE
  5
10E0
330
18
100
AcDbEntity
  8
Object
100
AcDbLine
 10
6.683333333333333
 20
6.61
 30
0.0
 11
6.801111111111111
 21
6.617777777777777
 31
0.0
  0
LINE
  5
10E1
330
18
100
AcDbEntity
  8
Object
100
AcDbLine
 10
6.52111111111111
 20
10.00444444444444
 30
0.0
 11
6.453333333333333
 21
10.00555555555555
 31
0.0
  0
LINE
  5
10E2
330
18
100
AcDbEntity
  8
Object
100
AcDbLine
 10
6.553333333333333
 20
6.599999999999999
 30
0.0
 11
6.683333333333333
 21
6.61
 31
0.0
  0
LINE
  5
10E3
330
18
100
AcDbEntity
  8
Object
100
AcDbLine
 10
6.453333333333333
 20
10.00555555555555
 30
0.0
 11
6.382222222222222
 21
10.00666666666666
 31
0.0
  0
LINE
  5
10E4
330
18
100
AcDbEntity
  8
Object
100
AcDbLine
 10
6.553333333333333
 20
6.599999999999999
 30
0.0
 11
6.411111111111111
 21
6.591111111111111
 31
0.0
  0
LINE
  5
10E5
330
18
100
AcDbEntity
  8
Object
100
AcDbLine
 10
6.411111111111111
 20
6.591111111111111
 30
0.0
 11
6.258888888888888
 21
6.58
 31
0.0
  0
LINE
  5
10E6
330
18
100
AcDbEntity
  8
Object
100
AcDbLine
 10
6.258888888888888
 20
6.58
 30
0.0
 11
6.097777777777777
 21
6.568888888888888
 31
0.0
  0
LINE
  5
10E7
330
18
100
AcDbEntity
  8
Object
100
AcDbLine
 10
6.097777777777777
 20
6.568888888888888
 30
0.0
 11
5.929999999999999
 21
6.556666666666666
 31
0.0
  0
LINE
  5
10E8
330
18
100
AcDbEntity
  8
Object
100
AcDbLine
 10
5.929999999999999
 20
6.556666666666666
 30
0.0
 11
5.754444444444444
 21
6.544444444444444
 31
0.0
  0
LINE
  5
10E9
330
18
100
AcDbEntity
  8
Object
100
AcDbLine
 10
5.754444444444444
 20
6.544444444444444
 30
0.0
 11
5.575555555555555
 21
6.532222222222221
 31
0.0
  0
LINE
  5
10EA
330
18
100
AcDbEntity
  8
Object
100
AcDbLine
 10
5.575555555555555
 20
6.532222222222221
 30
0.0
 11
5.393333333333333
 21
6.518888888888889
 31
0.0
  0
LINE
  5
10EB
330
18
100
AcDbEntity
  8
Object
100
AcDbLine
 10
5.393333333333333
 20
6.518888888888889
 30
0.0
 11
5.208888888888888
 21
6.506666666666666
 31
0.0
  0
LINE
  5
10EC
330
18
100
AcDbEntity
  8
Object
100
AcDbLine
 10
5.235555555555555
 20
10.01666666666666
 30
0.0
 11
5.143333333333333
 21
10.01666666666666
 31
0.0
  0
LINE
  5
10ED
330
18
100
AcDbEntity
  8
Object
100
AcDbLine
 10
5.143333333333333
 20
10.01666666666666
 30
0.0
 11
4.963333333333332
 21
10.01666666666666
 31
0.0
  0
LINE
  5
10EE
330
18
100
AcDbEntity
  8
Object
100
AcDbLine
 10
7.567777777777777
 20
4.056666666666666
 30
0.0
 11
12.74777777777778
 21
4.056666666666666
 31
0.0
  0
LINE
  5
10EF
330
18
100
AcDbEntity
  8
Object
100
AcDbLine
 10
13.30777777777778
 20
9.947777777777778
 30
0.0
 11
13.34444444444444
 21
9.982222222222222
 31
0.0
  0
LINE
  5
10F0
330
18
100
AcDbEntity
  8
Object
100
AcDbLine
 10
13.34444444444444
 20
9.982222222222222
 30
0.0
 11
13.11111111111111
 21
6.645555555555555
 31
0.0
  0
LINE
  5
10F1
330
18
100
AcDbEntity
  8
Object
100
AcDbLine
 10
15.35222222222222
 20
10.01666666666666
 30
0.0
 11
15.17222222222222
 21
10.01666666666666
 31
0.0
  0
LINE
  5
10F2
330
18
100
AcDbEntity
  8
Object
100
AcDbLine
 10
15.17222222222222
 20
10.01666666666666
 30
0.0
 11
15.08
 21
10.01666666666666
 31
0.0
  0
LINE
  5
10F3
330
18
100
AcDbEntity
  8
Object
100
AcDbLine
 10
15.10666666666667
 20
6.506666666666666
 30
0.0
 11
14.92222222222222
 21
6.518888888888889
 31
0.0
  0
LINE
  5
10F4
330
18
100
AcDbEntity
  8
Object
100
AcDbLine
 10
14.92222222222222
 20
6.518888888888889
 30
0.0
 11
14.74
 21
6.532222222222221
 31
0.0
  0
LINE
  5
10F5
330
18
100
AcDbEntity
  8
Object
100
AcDbLine
 10
14.89444444444444
 20
10.01666666666666
 30
0.0
 11
14.98777777777777
 21
10.01666666666666
 31
0.0
  0
LINE
  5
10F6
330
18
100
AcDbEntity
  8
Object
100
AcDbLine
 10
14.98777777777777
 20
10.01666666666666
 30
0.0
 11
15.08
 21
10.01666666666666
 31
0.0
  0
LINE
  5
10F7
330
18
100
AcDbEntity
  8
Object
100
AcDbLine
 10
14.70666666666667
 20
10.01555555555555
 30
0.0
 11
14.8
 21
10.01555555555555
 31
0.0
  0
LINE
  5
10F8
330
18
100
AcDbEntity
  8
Object
100
AcDbLine
 10
14.8
 20
10.01555555555555
 30
0.0
 11
14.89444444444444
 21
10.01666666666666
 31
0.0
  0
LINE
  5
10F9
330
18
100
AcDbEntity
  8
Object
100
AcDbLine
 10
14.74
 20
6.532222222222221
 30
0.0
 11
14.56111111111111
 21
6.544444444444444
 31
0.0
  0
LINE
  5
10FA
330
18
100
AcDbEntity
  8
Object
100
AcDbLine
 10
14.56111111111111
 20
6.544444444444444
 30
0.0
 11
14.38555555555555
 21
6.556666666666666
 31
0.0
  0
LINE
  5
10FB
330
18
100
AcDbEntity
  8
Object
100
AcDbLine
 10
14.52222222222222
 20
10.01444444444444
 30
0.0
 11
14.61444444444444
 21
10.01444444444444
 31
0.0
  0
LINE
  5
10FC
330
18
100
AcDbEntity
  8
Object
100
AcDbLine
 10
14.61444444444444
 20
10.01444444444444
 30
0.0
 11
14.70666666666667
 21
10.01555555555555
 31
0.0
  0
LINE
  5
10FD
330
18
100
AcDbEntity
  8
Object
100
AcDbLine
 10
14.34222222222222
 20
10.01222222222222
 30
0.0
 11
14.43111111111111
 21
10.01333333333333
 31
0.0
  0
LINE
  5
10FE
330
18
100
AcDbEntity
  8
Object
100
AcDbLine
 10
14.43111111111111
 20
10.01333333333333
 30
0.0
 11
14.52222222222222
 21
10.01444444444444
 31
0.0
  0
LINE
  5
10FF
330
18
100
AcDbEntity
  8
Object
100
AcDbLine
 10
14.38555555555555
 20
6.556666666666666
 30
0.0
 11
14.21777777777777
 21
6.568888888888888
 31
0.0
  0
LINE
  5
1100
330
18
100
AcDbEntity
  8
Object
100
AcDbLine
 10
14.21777777777777
 20
6.568888888888888
 30
0.0
 11
14.05666666666667
 21
6.58
 31
0.0
  0
LINE
  5
1101
330
18
100
AcDbEntity
  8
Object
100
AcDbLine
 10
14.34222222222222
 20
10.01222222222222
 30
0.0
 11
14.25444444444444
 21
10.01111111111111
 31
0.0
  0
LINE
  5
1102
330
18
100
AcDbEntity
  8
Object
100
AcDbLine
 10
14.08777777777778
 20
10.00888888888889
 30
0.0
 11
14.17
 21
10.01
 31
0.0
  0
LINE
  5
1103
330
18
100
AcDbEntity
  8
Object
100
AcDbLine
 10
14.17
 20
10.01
 30
0.0
 11
14.25444444444444
 21
10.01111111111111
 31
0.0
  0
LINE
  5
1104
330
18
100
AcDbEntity
  8
Object
100
AcDbLine
 10
14.05666666666667
 20
6.58
 30
0.0
 11
13.90444444444444
 21
6.591111111111111
 31
0.0
  0
LINE
  5
1105
330
18
100
AcDbEntity
  8
Object
100
AcDbLine
 10
13.90444444444444
 20
6.591111111111111
 30
0.0
 11
13.76222222222222
 21
6.599999999999999
 31
0.0
  0
LINE
  5
1106
330
18
100
AcDbEntity
  8
Object
100
AcDbLine
 10
13.93333333333333
 20
10.00666666666666
 30
0.0
 11
14.00888888888889
 21
10.00777777777777
 31
0.0
  0
LINE
  5
1107
330
18
100
AcDbEntity
  8
Object
100
AcDbLine
 10
14.00888888888889
 20
10.00777777777777
 30
0.0
 11
14.08777777777778
 21
10.00888888888889
 31
0.0
  0
LINE
  5
1108
330
18
100
AcDbEntity
  8
Object
100
AcDbLine
 10
13.76222222222222
 20
6.599999999999999
 30
0.0
 11
13.63222222222222
 21
6.61
 31
0.0
  0
LINE
  5
1109
330
18
100
AcDbEntity
  8
Object
100
AcDbLine
 10
13.63222222222222
 20
6.61
 30
0.0
 11
13.51444444444444
 21
6.617777777777777
 31
0.0
  0
LINE
  5
110A
330
18
100
AcDbEntity
  8
Object
100
AcDbLine
 10
13.67333333333333
 20
10.00111111111111
 30
0.0
 11
13.61888888888889
 21
10.0
 31
0.0
  0
LINE
  5
110B
330
18
100
AcDbEntity
  8
Object
100
AcDbLine
 10
13.51444444444444
 20
6.617777777777777
 30
0.0
 11
13.41
 21
6.625555555555555
 31
0.0
  0
LINE
  5
110C
330
18
100
AcDbEntity
  8
Object
100
AcDbLine
 10
13.41
 20
6.625555555555555
 30
0.0
 11
13.32111111111111
 21
6.631111111111111
 31
0.0
  0
LINE
  5
110D
330
18
100
AcDbEntity
  8
Object
100
AcDbLine
 10
13.52555555555555
 20
9.996666666666666
 30
0.0
 11
13.57
 21
9.997777777777777
 31
0.0
  0
LINE
  5
110E
330
18
100
AcDbEntity
  8
Object
100
AcDbLine
 10
13.57
 20
9.997777777777777
 30
0.0
 11
13.61888888888889
 21
10.0
 31
0.0
  0
LINE
  5
110F
330
18
100
AcDbEntity
  8
Object
100
AcDbLine
 10
13.45222222222222
 20
9.993333333333334
 30
0.0
 11
13.48666666666666
 21
9.995555555555554
 31
0.0
  0
LINE
  5
1110
330
18
100
AcDbEntity
  8
Object
100
AcDbLine
 10
13.48666666666666
 20
9.995555555555554
 30
0.0
 11
13.52555555555555
 21
9.996666666666666
 31
0.0
  0
LINE
  5
1111
330
18
100
AcDbEntity
  8
Object
100
AcDbLine
 10
13.32111111111111
 20
6.631111111111111
 30
0.0
 11
13.24666666666666
 21
6.636666666666666
 31
0.0
  0
LINE
  5
1112
330
18
100
AcDbEntity
  8
Object
100
AcDbLine
 10
13.24666666666666
 20
6.636666666666666
 30
0.0
 11
13.18777777777778
 21
6.64111111111111
 31
0.0
  0
LINE
  5
1113
330
18
100
AcDbEntity
  8
Object
100
AcDbLine
 10
13.39888888888889
 20
9.99
 30
0.0
 11
13.42333333333333
 21
9.992222222222222
 31
0.0
  0
LINE
  5
1114
330
18
100
AcDbEntity
  8
Object
100
AcDbLine
 10
13.42333333333333
 20
9.992222222222222
 30
0.0
 11
13.45222222222222
 21
9.993333333333334
 31
0.0
  0
LINE
  5
1115
330
18
100
AcDbEntity
  8
Object
100
AcDbLine
 10
13.36333333333333
 20
9.986666666666666
 30
0.0
 11
13.37888888888889
 21
9.988888888888888
 31
0.0
  0
LINE
  5
1116
330
18
100
AcDbEntity
  8
Object
100
AcDbLine
 10
13.37888888888889
 20
9.988888888888888
 30
0.0
 11
13.39888888888889
 21
9.99
 31
0.0
  0
LINE
  5
1117
330
18
100
AcDbEntity
  8
Object
100
AcDbLine
 10
13.18777777777778
 20
6.64111111111111
 30
0.0
 11
13.14555555555555
 21
6.643333333333333
 31
0.0
  0
LINE
  5
1118
330
18
100
AcDbEntity
  8
Object
100
AcDbLine
 10
13.14555555555555
 20
6.643333333333333
 30
0.0
 11
13.12
 21
6.645555555555555
 31
0.0
  0
LINE
  5
1119
330
18
100
AcDbEntity
  8
Object
100
AcDbLine
 10
13.36333333333333
 20
9.986666666666666
 30
0.0
 11
13.35333333333333
 21
9.985555555555555
 31
0.0
  0
LINE
  5
111A
330
18
100
AcDbEntity
  8
Object
100
AcDbLine
 10
13.11111111111111
 20
6.645555555555555
 30
0.0
 11
13.12
 21
6.645555555555555
 31
0.0
  0
LINE
  5
111B
330
18
100
AcDbEntity
  8
Object
100
AcDbLine
 10
13.35333333333333
 20
9.985555555555555
 30
0.0
 11
13.34444444444444
 21
9.982222222222222
 31
0.0
  0
LINE
  5
111C
330
18
100
AcDbEntity
  8
Object
100
AcDbLine
 10
7.567777777777777
 20
6.341111111111111
 30
0.0
 11
7.567777777777777
 21
6.306666666666666
 31
0.0
  0
LINE
  5
111D
330
18
100
AcDbEntity
  8
Object
100
AcDbLine
 10
7.567777777777777
 20
6.306666666666666
 30
0.0
 11
7.49
 21
6.314444444444444
 31
0.0
  0
LINE
  5
111E
330
18
100
AcDbEntity
  8
Object
100
AcDbLine
 10
7.49
 20
6.314444444444444
 30
0.0
 11
7.416666666666666
 21
6.339999999999999
 31
0.0
  0
LINE
  5
111F
330
18
100
AcDbEntity
  8
Object
100
AcDbLine
 10
7.416666666666666
 20
6.339999999999999
 30
0.0
 11
7.348888888888889
 21
6.378888888888888
 31
0.0
  0
LINE
  5
1120
330
18
100
AcDbEntity
  8
Object
100
AcDbLine
 10
7.348888888888889
 20
6.378888888888888
 30
0.0
 11
7.292222222222222
 21
6.432222222222222
 31
0.0
  0
LINE
  5
1121
330
18
100
AcDbEntity
  8
Object
100
AcDbLine
 10
7.292222222222222
 20
6.432222222222222
 30
0.0
 11
7.247777777777777
 21
6.496666666666667
 31
0.0
  0
LINE
  5
1122
330
18
100
AcDbEntity
  8
Object
100
AcDbLine
 10
7.247777777777777
 20
6.496666666666667
 30
0.0
 11
7.217777777777778
 21
6.568888888888888
 31
0.0
  0
LINE
  5
1123
330
18
100
AcDbEntity
  8
Object
100
AcDbLine
 10
10.78222222222222
 20
4.648888888888889
 30
0.0
 11
10.78222222222222
 21
4.549999999999999
 31
0.0
  0
LINE
  5
1124
330
18
100
AcDbEntity
  8
Object
100
AcDbLine
 10
12.74777777777778
 20
4.673333333333332
 30
0.0
 11
12.74777777777778
 21
4.491111111111111
 31
0.0
  0
LINE
  5
1125
330
18
100
AcDbEntity
  8
Object
100
AcDbLine
 10
12.74777777777778
 20
4.491111111111111
 30
0.0
 11
12.74777777777778
 21
4.306666666666666
 31
0.0
  0
LINE
  5
1126
330
18
100
AcDbEntity
  8
Object
100
AcDbLine
 10
10.78222222222222
 20
4.35111111111111
 30
0.0
 11
10.78222222222222
 21
4.451111111111111
 31
0.0
  0
LINE
  5
1127
330
18
100
AcDbEntity
  8
Object
100
AcDbLine
 10
10.78222222222222
 20
4.451111111111111
 30
0.0
 11
10.78222222222222
 21
4.549999999999999
 31
0.0
  0
LINE
  5
1128
330
18
100
AcDbEntity
  8
Object
100
AcDbLine
 10
10.78222222222222
 20
4.35111111111111
 30
0.0
 11
9.532222222222221
 21
4.35111111111111
 31
0.0
  0
LINE
  5
1129
330
18
100
AcDbEntity
  8
Object
100
AcDbLine
 10
12.74777777777778
 20
6.272222222222222
 30
0.0
 11
12.74777777777778
 21
6.297777777777778
 31
0.0
  0
LINE
  5
112A
330
18
100
AcDbEntity
  8
Object
100
AcDbLine
 10
7.567777777777777
 20
6.306666666666666
 30
0.0
 11
12.74777777777778
 21
6.306666666666666
 31
0.0
  0
LINE
  5
112B
330
18
100
AcDbEntity
  8
Object
100
AcDbLine
 10
12.74777777777778
 20
6.306666666666666
 30
0.0
 11
12.74777777777778
 21
6.297777777777778
 31
0.0
  0
LINE
  5
112C
330
18
100
AcDbEntity
  8
Object
100
AcDbLine
 10
12.74777777777778
 20
6.23
 30
0.0
 11
12.74777777777778
 21
6.272222222222222
 31
0.0
  0
LINE
  5
112D
330
18
100
AcDbEntity
  8
Object
100
AcDbLine
 10
12.74777777777778
 20
5.784444444444444
 30
0.0
 11
12.74777777777778
 21
5.902222222222222
 31
0.0
  0
LINE
  5
112E
330
18
100
AcDbEntity
  8
Object
100
AcDbLine
 10
12.74777777777778
 20
6.006666666666666
 30
0.0
 11
12.74777777777778
 21
6.096666666666666
 31
0.0
  0
LINE
  5
112F
330
18
100
AcDbEntity
  8
Object
100
AcDbLine
 10
12.74777777777778
 20
6.23
 30
0.0
 11
12.74777777777778
 21
6.171111111111111
 31
0.0
  0
LINE
  5
1130
330
18
100
AcDbEntity
  8
Object
100
AcDbLine
 10
12.74777777777778
 20
6.171111111111111
 30
0.0
 11
12.74777777777778
 21
6.096666666666666
 31
0.0
  0
LINE
  5
1131
330
18
100
AcDbEntity
  8
Object
100
AcDbLine
 10
12.74777777777778
 20
5.902222222222222
 30
0.0
 11
12.74777777777778
 21
6.006666666666666
 31
0.0
  0
LINE
  5
1132
330
18
100
AcDbEntity
  8
Object
100
AcDbLine
 10
12.74777777777778
 20
5.653333333333333
 30
0.0
 11
12.74777777777778
 21
5.784444444444444
 31
0.0
  0
LINE
  5
1133
330
18
100
AcDbEntity
  8
Object
100
AcDbLine
 10
12.74777777777778
 20
5.197777777777777
 30
0.0
 11
12.74777777777778
 21
5.358888888888889
 31
0.0
  0
LINE
  5
1134
330
18
100
AcDbEntity
  8
Object
100
AcDbLine
 10
12.74777777777778
 20
5.653333333333333
 30
0.0
 11
12.74777777777778
 21
5.511111111111111
 31
0.0
  0
LINE
  5
1135
330
18
100
AcDbEntity
  8
Object
100
AcDbLine
 10
12.74777777777778
 20
5.511111111111111
 30
0.0
 11
12.74777777777778
 21
5.358888888888889
 31
0.0
  0
LINE
  5
1136
330
18
100
AcDbEntity
  8
Object
100
AcDbLine
 10
12.74777777777778
 20
5.028888888888888
 30
0.0
 11
12.74777777777778
 21
5.197777777777777
 31
0.0
  0
LINE
  5
1137
330
18
100
AcDbEntity
  8
Object
100
AcDbLine
 10
9.532222222222221
 20
4.549999999999999
 30
0.0
 11
9.532222222222221
 21
4.648888888888889
 31
0.0
  0
LINE
  5
1138
330
18
100
AcDbEntity
  8
Object
100
AcDbLine
 10
12.74777777777778
 20
5.028888888888888
 30
0.0
 11
12.74777777777778
 21
4.853333333333333
 31
0.0
  0
LINE
  5
1139
330
18
100
AcDbEntity
  8
Object
100
AcDbLine
 10
12.74777777777778
 20
4.853333333333333
 30
0.0
 11
12.74777777777778
 21
4.673333333333332
 31
0.0
  0
LINE
  5
113A
330
18
100
AcDbEntity
  8
Object
100
AcDbLine
 10
9.532222222222221
 20
4.648888888888889
 30
0.0
 11
10.78222222222222
 21
4.648888888888889
 31
0.0
  0
LINE
  5
113B
330
18
100
AcDbEntity
  8
Object
100
AcDbLine
 10
9.532222222222221
 20
4.549999999999999
 30
0.0
 11
9.532222222222221
 21
4.451111111111111
 31
0.0
  0
LINE
  5
113C
330
18
100
AcDbEntity
  8
Object
100
AcDbLine
 10
9.532222222222221
 20
4.451111111111111
 30
0.0
 11
9.532222222222221
 21
4.35111111111111
 31
0.0
  0
LINE
  5
113D
330
18
100
AcDbEntity
  8
Object
100
AcDbLine
 10
15.10666666666667
 20
6.506666666666666
 30
0.0
 11
15.08444444444444
 21
6.309999999999999
 31
0.0
  0
LINE
  5
113E
330
18
100
AcDbEntity
  8
Object
100
AcDbLine
 10
15.08444444444444
 20
6.309999999999999
 30
0.0
 11
15.04666666666667
 21
6.116666666666666
 31
0.0
  0
LINE
  5
113F
330
18
100
AcDbEntity
  8
Object
100
AcDbLine
 10
15.04666666666667
 20
6.116666666666666
 30
0.0
 11
14.99222222222222
 21
5.927777777777778
 31
0.0
  0
LINE
  5
1140
330
18
100
AcDbEntity
  8
Object
100
AcDbLine
 10
14.99222222222222
 20
5.927777777777778
 30
0.0
 11
14.92222222222222
 21
5.743333333333333
 31
0.0
  0
LINE
  5
1141
330
18
100
AcDbEntity
  8
Object
100
AcDbLine
 10
14.92222222222222
 20
5.743333333333333
 30
0.0
 11
14.83777777777778
 21
5.565555555555555
 31
0.0
  0
LINE
  5
1142
330
18
100
AcDbEntity
  8
Object
100
AcDbLine
 10
14.83777777777778
 20
5.565555555555555
 30
0.0
 11
14.73888888888889
 21
5.394444444444444
 31
0.0
  0
LINE
  5
1143
330
18
100
AcDbEntity
  8
Object
100
AcDbLine
 10
14.73888888888889
 20
5.394444444444444
 30
0.0
 11
14.62555555555555
 21
5.233333333333333
 31
0.0
  0
LINE
  5
1144
330
18
100
AcDbEntity
  8
Object
100
AcDbLine
 10
14.62555555555555
 20
5.233333333333333
 30
0.0
 11
14.49888888888889
 21
5.082222222222222
 31
0.0
  0
LINE
  5
1145
330
18
100
AcDbEntity
  8
Object
100
AcDbLine
 10
14.49888888888889
 20
5.082222222222222
 30
0.0
 11
14.36
 21
4.94111111111111
 31
0.0
  0
LINE
  5
1146
330
18
100
AcDbEntity
  8
Object
100
AcDbLine
 10
14.05111111111111
 20
4.697777777777777
 30
0.0
 11
14.21111111111111
 21
4.813333333333333
 31
0.0
  0
LINE
  5
1147
330
18
100
AcDbEntity
  8
Object
100
AcDbLine
 10
13.52222222222222
 20
4.436666666666666
 30
0.0
 11
13.70555555555555
 21
4.508888888888888
 31
0.0
  0
LINE
  5
1148
330
18
100
AcDbEntity
  8
Object
100
AcDbLine
 10
12.82555555555555
 20
6.314444444444444
 30
0.0
 11
12.74777777777778
 21
6.306666666666666
 31
0.0
  0
LINE
  5
1149
330
18
100
AcDbEntity
  8
Object
100
AcDbLine
 10
7.567777777777777
 20
6.306666666666666
 30
0.0
 11
7.567777777777777
 21
6.297777777777778
 31
0.0
  0
LINE
  5
114A
330
18
100
AcDbEntity
  8
Object
100
AcDbLine
 10
7.567777777777777
 20
6.297777777777778
 30
0.0
 11
7.567777777777777
 21
6.272222222222222
 31
0.0
  0
LINE
  5
114B
330
18
100
AcDbEntity
  8
Object
100
AcDbLine
 10
7.567777777777777
 20
6.272222222222222
 30
0.0
 11
7.567777777777777
 21
6.23
 31
0.0
  0
LINE
  5
114C
330
18
100
AcDbEntity
  8
Object
100
AcDbLine
 10
7.567777777777777
 20
6.23
 30
0.0
 11
7.567777777777777
 21
6.171111111111111
 31
0.0
  0
LINE
  5
114D
330
18
100
AcDbEntity
  8
Object
100
AcDbLine
 10
7.567777777777777
 20
6.171111111111111
 30
0.0
 11
7.567777777777777
 21
6.096666666666666
 31
0.0
  0
LINE
  5
114E
330
18
100
AcDbEntity
  8
Object
100
AcDbLine
 10
7.567777777777777
 20
6.096666666666666
 30
0.0
 11
7.567777777777777
 21
6.006666666666666
 31
0.0
  0
LINE
  5
114F
330
18
100
AcDbEntity
  8
Object
100
AcDbLine
 10
7.567777777777777
 20
6.006666666666666
 30
0.0
 11
7.567777777777777
 21
5.902222222222222
 31
0.0
  0
LINE
  5
1150
330
18
100
AcDbEntity
  8
Object
100
AcDbLine
 10
7.567777777777777
 20
5.902222222222222
 30
0.0
 11
7.567777777777777
 21
5.784444444444444
 31
0.0
  0
LINE
  5
1151
330
18
100
AcDbEntity
  8
Object
100
AcDbLine
 10
7.567777777777777
 20
5.784444444444444
 30
0.0
 11
7.567777777777777
 21
5.653333333333333
 31
0.0
  0
LINE
  5
1152
330
18
100
AcDbEntity
  8
Object
100
AcDbLine
 10
7.567777777777777
 20
5.653333333333333
 30
0.0
 11
7.567777777777777
 21
5.511111111111111
 31
0.0
  0
LINE
  5
1153
330
18
100
AcDbEntity
  8
Object
100
AcDbLine
 10
7.567777777777777
 20
5.511111111111111
 30
0.0
 11
7.567777777777777
 21
5.358888888888889
 31
0.0
  0
LINE
  5
1154
330
18
100
AcDbEntity
  8
Object
100
AcDbLine
 10
7.567777777777777
 20
5.358888888888889
 30
0.0
 11
7.567777777777777
 21
5.197777777777777
 31
0.0
  0
LINE
  5
1155
330
18
100
AcDbEntity
  8
Object
100
AcDbLine
 10
7.567777777777777
 20
5.197777777777777
 30
0.0
 11
7.567777777777777
 21
5.028888888888888
 31
0.0
  0
LINE
  5
1156
330
18
100
AcDbEntity
  8
Object
100
AcDbLine
 10
7.567777777777777
 20
5.028888888888888
 30
0.0
 11
7.567777777777777
 21
4.853333333333333
 31
0.0
  0
LINE
  5
1157
330
18
100
AcDbEntity
  8
Object
100
AcDbLine
 10
7.567777777777777
 20
4.853333333333333
 30
0.0
 11
7.567777777777777
 21
4.673333333333332
 31
0.0
  0
LINE
  5
1158
330
18
100
AcDbEntity
  8
Object
100
AcDbLine
 10
7.567777777777777
 20
4.673333333333332
 30
0.0
 11
7.567777777777777
 21
4.491111111111111
 31
0.0
  0
LINE
  5
1159
330
18
100
AcDbEntity
  8
Object
100
AcDbLine
 10
7.567777777777777
 20
4.491111111111111
 30
0.0
 11
7.567777777777777
 21
4.306666666666666
 31
0.0
  0
LINE
  5
115A
330
18
100
AcDbEntity
  8
Object
100
AcDbLine
 10
7.217777777777778
 20
6.568888888888888
 30
0.0
 11
7.204444444444444
 21
6.645555555555555
 31
0.0
  0
LINE
  5
115B
330
18
100
AcDbEntity
  8
Object
100
AcDbLine
 10
12.74777777777778
 20
6.306666666666666
 30
0.0
 11
12.74777777777778
 21
6.341111111111111
 31
0.0
  0
LINE
  5
115C
330
18
100
AcDbEntity
  8
Object
100
AcDbLine
 10
13.07666666666666
 20
6.648888888888889
 30
0.0
 11
13.11111111111111
 21
6.645555555555555
 31
0.0
  0
LINE
  5
115D
330
18
100
AcDbEntity
  8
Object
100
AcDbLine
 10
13.11111111111111
 20
6.645555555555555
 30
0.0
 11
13.09777777777777
 21
6.568888888888888
 31
0.0
  0
LINE
  5
115E
330
18
100
AcDbEntity
  8
Object
100
AcDbLine
 10
13.09777777777777
 20
6.568888888888888
 30
0.0
 11
13.06777777777778
 21
6.496666666666667
 31
0.0
  0
LINE
  5
115F
330
18
100
AcDbEntity
  8
Object
100
AcDbLine
 10
13.06777777777778
 20
6.496666666666667
 30
0.0
 11
13.02333333333333
 21
6.432222222222222
 31
0.0
  0
LINE
  5
1160
330
18
100
AcDbEntity
  8
Object
100
AcDbLine
 10
13.02333333333333
 20
6.432222222222222
 30
0.0
 11
12.96666666666667
 21
6.378888888888888
 31
0.0
  0
LINE
  5
1161
330
18
100
AcDbEntity
  8
Object
100
AcDbLine
 10
12.96666666666667
 20
6.378888888888888
 30
0.0
 11
12.89888888888889
 21
6.339999999999999
 31
0.0
  0
LINE
  5
1162
330
18
100
AcDbEntity
  8
Object
100
AcDbLine
 10
12.89888888888889
 20
6.339999999999999
 30
0.0
 11
12.82555555555555
 21
6.314444444444444
 31
0.0
  0
LINE
  5
1163
330
18
100
AcDbEntity
  8
Object
100
AcDbLine
 10
9.532222222222221
 20
4.35111111111111
 30
0.0
 11
9.532222222222221
 21
4.451111111111111
 31
0.0
  0
LINE
  5
1164
330
18
100
AcDbEntity
  8
Object
100
AcDbLine
 10
9.532222222222221
 20
4.451111111111111
 30
0.0
 11
9.532222222222221
 21
4.549999999999999
 31
0.0
  0
LINE
  5
1165
330
18
100
AcDbEntity
  8
Object
100
AcDbLine
 10
9.532222222222221
 20
4.549999999999999
 30
0.0
 11
9.532222222222221
 21
4.648888888888889
 31
0.0
  0
LINE
  5
1166
330
18
100
AcDbEntity
  8
Object
100
AcDbLine
 10
9.532222222222221
 20
4.65
 30
0.0
 11
9.532222222222221
 21
4.647777777777777
 31
0.0
  0
LINE
  5
1167
330
18
100
AcDbEntity
  8
Object
100
AcDbLine
 10
10.78222222222222
 20
4.648888888888889
 30
0.0
 11
9.532222222222221
 21
4.648888888888889
 31
0.0
  0
LINE
  5
1168
330
18
100
AcDbEntity
  8
Object
100
AcDbLine
 10
10.78222222222222
 20
4.549999999999999
 30
0.0
 11
10.78222222222222
 21
4.451111111111111
 31
0.0
  0
LINE
  5
1169
330
18
100
AcDbEntity
  8
Object
100
AcDbLine
 10
10.78222222222222
 20
4.65
 30
0.0
 11
10.78222222222222
 21
4.647777777777777
 31
0.0
  0
LINE
  5
116A
330
18
100
AcDbEntity
  8
Object
100
AcDbLine
 10
10.78222222222222
 20
4.648888888888889
 30
0.0
 11
10.78222222222222
 21
4.549999999999999
 31
0.0
  0
LINE
  5
116B
330
18
100
AcDbEntity
  8
Object
100
AcDbLine
 10
10.78222222222222
 20
4.451111111111111
 30
0.0
 11
10.78222222222222
 21
4.35111111111111
 31
0.0
  0
LINE
  5
116C
330
18
100
AcDbEntity
  8
Object
100
AcDbLine
 10
10.74666666666666
 20
4.524444444444444
 30
0.0
 11
10.70111111111111
 21
4.524444444444444
 31
0.0
  0
LINE
  5
116D
330
18
100
AcDbEntity
  8
Object
100
AcDbLine
 10
10.70111111111111
 20
4.365555555555555
 30
0.0
 11
10.63888888888889
 21
4.365555555555555
 31
0.0
  0
LINE
  5
116E
330
18
100
AcDbEntity
  8
Object
100
AcDbLine
 10
10.63888888888889
 20
4.524444444444444
 30
0.0
 11
10.59777777777777
 21
4.524444444444444
 31
0.0
  0
LINE
  5
116F
330
18
100
AcDbEntity
  8
Object
100
AcDbLine
 10
10.56333333333333
 20
4.365555555555555
 30
0.0
 11
10.51
 21
4.365555555555555
 31
0.0
  0
LINE
  5
1170
330
18
100
AcDbEntity
  8
Object
100
AcDbLine
 10
10.47444444444444
 20
4.40111111111111
 30
0.0
 11
10.47
 21
4.383333333333333
 31
0.0
  0
LINE
  5
1171
330
18
100
AcDbEntity
  8
Object
100
AcDbLine
 10
10.47
 20
4.383333333333333
 30
0.0
 11
10.45666666666666
 21
4.37
 31
0.0
  0
LINE
  5
1172
330
18
100
AcDbEntity
  8
Object
100
AcDbLine
 10
10.45666666666666
 20
4.37
 30
0.0
 11
10.43888888888889
 21
4.365555555555555
 31
0.0
  0
LINE
  5
1173
330
18
100
AcDbEntity
  8
Object
100
AcDbLine
 10
10.43888888888889
 20
4.365555555555555
 30
0.0
 11
10.36666666666667
 21
4.365555555555555
 31
0.0
  0
LINE
  5
1174
330
18
100
AcDbEntity
  8
Object
100
AcDbLine
 10
10.33555555555555
 20
4.383333333333333
 30
0.0
 11
10.33111111111111
 21
4.40111111111111
 31
0.0
  0
LINE
  5
1175
330
18
100
AcDbEntity
  8
Object
100
AcDbLine
 10
10.29666666666666
 20
4.40111111111111
 30
0.0
 11
10.29111111111111
 21
4.383333333333333
 31
0.0
  0
LINE
  5
1176
330
18
100
AcDbEntity
  8
Object
100
AcDbLine
 10
10.34888888888889
 20
4.37
 30
0.0
 11
10.33555555555555
 21
4.383333333333333
 31
0.0
  0
LINE
  5
1177
330
18
100
AcDbEntity
  8
Object
100
AcDbLine
 10
10.29111111111111
 20
4.383333333333333
 30
0.0
 11
10.27888888888889
 21
4.37
 31
0.0
  0
LINE
  5
1178
330
18
100
AcDbEntity
  8
Object
100
AcDbLine
 10
10.36666666666667
 20
4.365555555555555
 30
0.0
 11
10.34888888888889
 21
4.37
 31
0.0
  0
LINE
  5
1179
330
18
100
AcDbEntity
  8
Object
100
AcDbLine
 10
10.27888888888889
 20
4.37
 30
0.0
 11
10.26
 21
4.365555555555555
 31
0.0
  0
LINE
  5
117A
330
18
100
AcDbEntity
  8
Object
100
AcDbLine
 10
10.26
 20
4.365555555555555
 30
0.0
 11
10.14777777777778
 21
4.365555555555555
 31
0.0
  0
LINE
  5
117B
330
18
100
AcDbEntity
  8
Object
100
AcDbLine
 10
9.834444444444445
 20
4.394444444444444
 30
0.0
 11
9.822222222222222
 21
4.365555555555555
 31
0.0
  0
LINE
  5
117C
330
18
100
AcDbEntity
  8
Object
100
AcDbLine
 10
9.775555555555555
 20
4.447777777777777
 30
0.0
 11
9.788888888888889
 21
4.451111111111111
 31
0.0
  0
LINE
  5
117D
330
18
100
AcDbEntity
  8
Object
100
AcDbLine
 10
9.788888888888889
 20
4.451111111111111
 30
0.0
 11
9.8
 21
4.454444444444444
 31
0.0
  0
LINE
  5
117E
330
18
100
AcDbEntity
  8
Object
100
AcDbLine
 10
9.775555555555555
 20
4.447777777777777
 30
0.0
 11
9.762222222222222
 21
4.446666666666666
 31
0.0
  0
LINE
  5
117F
330
18
100
AcDbEntity
  8
Object
100
AcDbLine
 10
9.762222222222222
 20
4.446666666666666
 30
0.0
 11
9.697777777777778
 21
4.446666666666666
 31
0.0
  0
LINE
  5
1180
330
18
100
AcDbEntity
  8
Object
100
AcDbLine
 10
9.697777777777778
 20
4.365555555555555
 30
0.0
 11
9.58
 21
4.365555555555555
 31
0.0
  0
LINE
  5
1181
330
18
100
AcDbEntity
  8
Object
100
AcDbLine
 10
9.822222222222222
 20
4.365555555555555
 30
0.0
 11
9.763333333333333
 21
4.365555555555555
 31
0.0
  0
LINE
  5
1182
330
18
100
AcDbEntity
  8
Object
100
AcDbLine
 10
10.01555555555555
 20
4.365555555555555
 30
0.0
 11
9.925555555555556
 21
4.365555555555555
 31
0.0
  0
LINE
  5
1183
330
18
100
AcDbEntity
  8
Object
100
AcDbLine
 10
10.11222222222222
 20
4.365555555555555
 30
0.0
 11
10.05222222222222
 21
4.365555555555555
 31
0.0
  0
LINE
  5
1184
330
18
100
AcDbEntity
  8
Object
100
AcDbLine
 10
10.11222222222222
 20
4.566666666666666
 30
0.0
 11
10.11222222222222
 21
4.565555555555555
 31
0.0
  0
LINE
  5
1185
330
18
100
AcDbEntity
  8
Object
100
AcDbLine
 10
10.11222222222222
 20
4.365555555555555
 30
0.0
 11
10.11222222222222
 21
4.366666666666666
 31
0.0
  0
LINE
  5
1186
330
18
100
AcDbEntity
  8
Object
100
AcDbLine
 10
10.11222222222222
 20
4.366666666666666
 30
0.0
 11
10.11222222222222
 21
4.565555555555555
 31
0.0
  0
LINE
  5
1187
330
18
100
AcDbEntity
  8
Object
100
AcDbLine
 10
10.06111111111111
 20
4.484444444444444
 30
0.0
 11
10.02555555555555
 21
4.565555555555555
 31
0.0
  0
LINE
  5
1188
330
18
100
AcDbEntity
  8
Object
100
AcDbLine
 10
10.29666666666666
 20
4.40111111111111
 30
0.0
 11
10.29666666666666
 21
4.402222222222222
 31
0.0
  0
LINE
  5
1189
330
18
100
AcDbEntity
  8
Object
100
AcDbLine
 10
10.43222222222222
 20
4.566666666666666
 30
0.0
 11
10.43222222222222
 21
4.564444444444444
 31
0.0
  0
LINE
  5
118A
330
18
100
AcDbEntity
  8
Object
100
AcDbLine
 10
10.43222222222222
 20
4.565555555555555
 30
0.0
 11
10.43222222222222
 21
4.422222222222222
 31
0.0
  0
LINE
  5
118B
330
18
100
AcDbEntity
  8
Object
100
AcDbLine
 10
9.958888888888889
 20
4.566666666666666
 30
0.0
 11
9.958888888888889
 21
4.564444444444444
 31
0.0
  0
LINE
  5
118C
330
18
100
AcDbEntity
  8
Object
100
AcDbLine
 10
9.958888888888889
 20
4.565555555555555
 30
0.0
 11
9.958888888888889
 21
4.435555555555555
 31
0.0
  0
LINE
  5
118D
330
18
100
AcDbEntity
  8
Object
100
AcDbLine
 10
9.797777777777778
 20
4.62
 30
0.0
 11
9.762222222222222
 21
4.626666666666666
 31
0.0
  0
LINE
  5
118E
330
18
100
AcDbEntity
  8
Object
100
AcDbLine
 10
10.56333333333333
 20
4.566666666666666
 30
0.0
 11
10.56333333333333
 21
4.564444444444444
 31
0.0
  0
LINE
  5
118F
330
18
100
AcDbEntity
  8
Object
100
AcDbLine
 10
10.56333333333333
 20
4.565555555555555
 30
0.0
 11
10.56333333333333
 21
4.366666666666666
 31
0.0
  0
LINE
  5
1190
330
18
100
AcDbEntity
  8
Object
100
AcDbLine
 10
10.56333333333333
 20
4.366666666666666
 30
0.0
 11
10.56333333333333
 21
4.365555555555555
 31
0.0
  0
LINE
  5
1191
330
18
100
AcDbEntity
  8
Object
100
AcDbLine
 10
9.822222222222222
 20
4.365555555555555
 30
0.0
 11
9.822222222222222
 21
4.366666666666666
 31
0.0
  0
LINE
  5
1192
330
18
100
AcDbEntity
  8
Object
100
AcDbLine
 10
9.763333333333333
 20
4.365555555555555
 30
0.0
 11
9.763333333333333
 21
4.366666666666666
 31
0.0
  0
LINE
  5
1193
330
18
100
AcDbEntity
  8
Object
100
AcDbLine
 10
9.763333333333333
 20
4.366666666666666
 30
0.0
 11
9.822222222222222
 21
4.366666666666666
 31
0.0
  0
LINE
  5
1194
330
18
100
AcDbEntity
  8
Object
100
AcDbLine
 10
10.01555555555555
 20
4.452222222222221
 30
0.0
 11
10.01555555555555
 21
4.45
 31
0.0
  0
LINE
  5
1195
330
18
100
AcDbEntity
  8
Object
100
AcDbLine
 10
10.01555555555555
 20
4.451111111111111
 30
0.0
 11
10.01555555555555
 21
4.366666666666666
 31
0.0
  0
LINE
  5
1196
330
18
100
AcDbEntity
  8
Object
100
AcDbLine
 10
10.01555555555555
 20
4.366666666666666
 30
0.0
 11
10.01555555555555
 21
4.365555555555555
 31
0.0
  0
LINE
  5
1197
330
18
100
AcDbEntity
  8
Object
100
AcDbLine
 10
10.06111111111111
 20
4.566666666666666
 30
0.0
 11
10.06111111111111
 21
4.564444444444444
 31
0.0
  0
LINE
  5
1198
330
18
100
AcDbEntity
  8
Object
100
AcDbLine
 10
10.06111111111111
 20
4.565555555555555
 30
0.0
 11
10.06111111111111
 21
4.484444444444444
 31
0.0
  0
LINE
  5
1199
330
18
100
AcDbEntity
  8
Object
100
AcDbLine
 10
10.63888888888889
 20
4.365555555555555
 30
0.0
 11
10.63888888888889
 21
4.366666666666666
 31
0.0
  0
LINE
  5
119A
330
18
100
AcDbEntity
  8
Object
100
AcDbLine
 10
10.63888888888889
 20
4.366666666666666
 30
0.0
 11
10.63888888888889
 21
4.525555555555555
 31
0.0
  0
LINE
  5
119B
330
18
100
AcDbEntity
  8
Object
100
AcDbLine
 10
10.59777777777777
 20
4.524444444444444
 30
0.0
 11
10.59777777777777
 21
4.525555555555555
 31
0.0
  0
LINE
  5
119C
330
18
100
AcDbEntity
  8
Object
100
AcDbLine
 10
10.59777777777777
 20
4.525555555555555
 30
0.0
 11
10.59777777777777
 21
4.565555555555555
 31
0.0
  0
LINE
  5
119D
330
18
100
AcDbEntity
  8
Object
100
AcDbLine
 10
10.59777777777777
 20
4.565555555555555
 30
0.0
 11
10.59777777777777
 21
4.566666666666666
 31
0.0
  0
LINE
  5
119E
330
18
100
AcDbEntity
  8
Object
100
AcDbLine
 10
10.39777777777778
 20
4.566666666666666
 30
0.0
 11
10.39777777777778
 21
4.565555555555555
 31
0.0
  0
LINE
  5
119F
330
18
100
AcDbEntity
  8
Object
100
AcDbLine
 10
10.39777777777778
 20
4.565555555555555
 30
0.0
 11
10.39777777777778
 21
4.422222222222222
 31
0.0
  0
LINE
  5
11A0
330
18
100
AcDbEntity
  8
Object
100
AcDbLine
 10
10.33111111111111
 20
4.402222222222222
 30
0.0
 11
10.33111111111111
 21
4.40111111111111
 31
0.0
  0
LINE
  5
11A1
330
18
100
AcDbEntity
  8
Object
100
AcDbLine
 10
10.33111111111111
 20
4.566666666666666
 30
0.0
 11
10.33111111111111
 21
4.564444444444444
 31
0.0
  0
LINE
  5
11A2
330
18
100
AcDbEntity
  8
Object
100
AcDbLine
 10
10.33111111111111
 20
4.565555555555555
 30
0.0
 11
10.33111111111111
 21
4.402222222222222
 31
0.0
  0
LINE
  5
11A3
330
18
100
AcDbEntity
  8
Object
100
AcDbLine
 10
9.697777777777778
 20
4.365555555555555
 30
0.0
 11
9.697777777777778
 21
4.366666666666666
 31
0.0
  0
LINE
  5
11A4
330
18
100
AcDbEntity
  8
Object
100
AcDbLine
 10
9.58
 20
4.365555555555555
 30
0.0
 11
9.58
 21
4.366666666666666
 31
0.0
  0
LINE
  5
11A5
330
18
100
AcDbEntity
  8
Object
100
AcDbLine
 10
9.58
 20
4.366666666666666
 30
0.0
 11
9.697777777777778
 21
4.366666666666666
 31
0.0
  0
LINE
  5
11A6
330
18
100
AcDbEntity
  8
Object
100
AcDbLine
 10
9.697777777777778
 20
4.447777777777777
 30
0.0
 11
9.762222222222222
 21
4.447777777777777
 31
0.0
  0
LINE
  5
11A7
330
18
100
AcDbEntity
  8
Object
100
AcDbLine
 10
9.762222222222222
 20
4.447777777777777
 30
0.0
 11
9.762222222222222
 21
4.446666666666666
 31
0.0
  0
LINE
  5
11A8
330
18
100
AcDbEntity
  8
Object
100
AcDbLine
 10
9.911111111111111
 20
4.394444444444444
 30
0.0
 11
9.834444444444445
 21
4.394444444444444
 31
0.0
  0
LINE
  5
11A9
330
18
100
AcDbEntity
  8
Object
100
AcDbLine
 10
10.05222222222222
 20
4.366666666666666
 30
0.0
 11
10.11222222222222
 21
4.366666666666666
 31
0.0
  0
LINE
  5
11AA
330
18
100
AcDbEntity
  8
Object
100
AcDbLine
 10
10.11222222222222
 20
4.366666666666666
 30
0.0
 11
10.11222222222222
 21
4.365555555555555
 31
0.0
  0
LINE
  5
11AB
330
18
100
AcDbEntity
  8
Object
100
AcDbLine
 10
10.74666666666666
 20
4.524444444444444
 30
0.0
 11
10.74666666666666
 21
4.525555555555555
 31
0.0
  0
LINE
  5
11AC
330
18
100
AcDbEntity
  8
Object
100
AcDbLine
 10
10.74666666666666
 20
4.525555555555555
 30
0.0
 11
10.70111111111111
 21
4.525555555555555
 31
0.0
  0
LINE
  5
11AD
330
18
100
AcDbEntity
  8
Object
100
AcDbLine
 10
10.47444444444444
 20
4.40111111111111
 30
0.0
 11
10.47444444444444
 21
4.402222222222222
 31
0.0
  0
LINE
  5
11AE
330
18
100
AcDbEntity
  8
Object
100
AcDbLine
 10
10.70111111111111
 20
4.365555555555555
 30
0.0
 11
10.70111111111111
 21
4.366666666666666
 31
0.0
  0
LINE
  5
11AF
330
18
100
AcDbEntity
  8
Object
100
AcDbLine
 10
10.63888888888889
 20
4.365555555555555
 30
0.0
 11
10.63888888888889
 21
4.366666666666666
 31
0.0
  0
LINE
  5
11B0
330
18
100
AcDbEntity
  8
Object
100
AcDbLine
 10
10.63888888888889
 20
4.366666666666666
 30
0.0
 11
10.70111111111111
 21
4.366666666666666
 31
0.0
  0
LINE
  5
11B1
330
18
100
AcDbEntity
  8
Object
100
AcDbLine
 10
9.80111111111111
 20
4.456666666666666
 30
0.0
 11
9.763333333333333
 21
4.366666666666666
 31
0.0
  0
LINE
  5
11B2
330
18
100
AcDbEntity
  8
Object
100
AcDbLine
 10
10.01555555555555
 20
4.365555555555555
 30
0.0
 11
10.01555555555555
 21
4.366666666666666
 31
0.0
  0
LINE
  5
11B3
330
18
100
AcDbEntity
  8
Object
100
AcDbLine
 10
10.01555555555555
 20
4.366666666666666
 30
0.0
 11
9.925555555555556
 21
4.366666666666666
 31
0.0
  0
LINE
  5
11B4
330
18
100
AcDbEntity
  8
Object
100
AcDbLine
 10
10.29666666666666
 20
4.531111111111111
 30
0.0
 11
10.29666666666666
 21
4.53
 31
0.0
  0
LINE
  5
11B5
330
18
100
AcDbEntity
  8
Object
100
AcDbLine
 10
10.29666666666666
 20
4.40111111111111
 30
0.0
 11
10.29666666666666
 21
4.402222222222222
 31
0.0
  0
LINE
  5
11B6
330
18
100
AcDbEntity
  8
Object
100
AcDbLine
 10
10.29666666666666
 20
4.402222222222222
 30
0.0
 11
10.29666666666666
 21
4.53
 31
0.0
  0
LINE
  5
11B7
330
18
100
AcDbEntity
  8
Object
100
AcDbLine
 10
10.51
 20
4.366666666666666
 30
0.0
 11
10.51
 21
4.365555555555555
 31
0.0
  0
LINE
  5
11B8
330
18
100
AcDbEntity
  8
Object
100
AcDbLine
 10
10.51
 20
4.566666666666666
 30
0.0
 11
10.51
 21
4.564444444444444
 31
0.0
  0
LINE
  5
11B9
330
18
100
AcDbEntity
  8
Object
100
AcDbLine
 10
10.51
 20
4.565555555555555
 30
0.0
 11
10.51
 21
4.366666666666666
 31
0.0
  0
LINE
  5
11BA
330
18
100
AcDbEntity
  8
Object
100
AcDbLine
 10
10.56333333333333
 20
4.365555555555555
 30
0.0
 11
10.56333333333333
 21
4.366666666666666
 31
0.0
  0
LINE
  5
11BB
330
18
100
AcDbEntity
  8
Object
100
AcDbLine
 10
10.51
 20
4.365555555555555
 30
0.0
 11
10.51
 21
4.366666666666666
 31
0.0
  0
LINE
  5
11BC
330
18
100
AcDbEntity
  8
Object
100
AcDbLine
 10
10.51
 20
4.366666666666666
 30
0.0
 11
10.56333333333333
 21
4.366666666666666
 31
0.0
  0
LINE
  5
11BD
330
18
100
AcDbEntity
  8
Object
100
AcDbLine
 10
10.01555555555555
 20
4.451111111111111
 30
0.0
 11
10.05222222222222
 21
4.366666666666666
 31
0.0
  0
LINE
  5
11BE
330
18
100
AcDbEntity
  8
Object
100
AcDbLine
 10
10.05222222222222
 20
4.366666666666666
 30
0.0
 11
10.05222222222222
 21
4.365555555555555
 31
0.0
  0
LINE
  5
11BF
330
18
100
AcDbEntity
  8
Object
100
AcDbLine
 10
10.05222222222222
 20
4.365555555555555
 30
0.0
 11
10.01555555555555
 21
4.451111111111111
 31
0.0
  0
LINE
  5
11C0
330
18
100
AcDbEntity
  8
Object
100
AcDbLine
 10
10.14777777777778
 20
4.366666666666666
 30
0.0
 11
10.14777777777778
 21
4.365555555555555
 31
0.0
  0
LINE
  5
11C1
330
18
100
AcDbEntity
  8
Object
100
AcDbLine
 10
10.14777777777778
 20
4.566666666666666
 30
0.0
 11
10.14777777777778
 21
4.564444444444444
 31
0.0
  0
LINE
  5
11C2
330
18
100
AcDbEntity
  8
Object
100
AcDbLine
 10
10.14777777777778
 20
4.565555555555555
 30
0.0
 11
10.14777777777778
 21
4.366666666666666
 31
0.0
  0
LINE
  5
11C3
330
18
100
AcDbEntity
  8
Object
100
AcDbLine
 10
10.74666666666666
 20
4.566666666666666
 30
0.0
 11
10.74666666666666
 21
4.564444444444444
 31
0.0
  0
LINE
  5
11C4
330
18
100
AcDbEntity
  8
Object
100
AcDbLine
 10
10.74666666666666
 20
4.565555555555555
 30
0.0
 11
10.74666666666666
 21
4.525555555555555
 31
0.0
  0
LINE
  5
11C5
330
18
100
AcDbEntity
  8
Object
100
AcDbLine
 10
10.74666666666666
 20
4.525555555555555
 30
0.0
 11
10.74666666666666
 21
4.524444444444444
 31
0.0
  0
LINE
  5
11C6
330
18
100
AcDbEntity
  8
Object
100
AcDbLine
 10
10.36666666666667
 20
4.366666666666666
 30
0.0
 11
10.43888888888889
 21
4.366666666666666
 31
0.0
  0
LINE
  5
11C7
330
18
100
AcDbEntity
  8
Object
100
AcDbLine
 10
10.43888888888889
 20
4.366666666666666
 30
0.0
 11
10.43888888888889
 21
4.365555555555555
 31
0.0
  0
LINE
  5
11C8
330
18
100
AcDbEntity
  8
Object
100
AcDbLine
 10
9.697777777777778
 20
4.365555555555555
 30
0.0
 11
9.697777777777778
 21
4.366666666666666
 31
0.0
  0
LINE
  5
11C9
330
18
100
AcDbEntity
  8
Object
100
AcDbLine
 10
9.697777777777778
 20
4.366666666666666
 30
0.0
 11
9.697777777777778
 21
4.447777777777777
 31
0.0
  0
LINE
  5
11CA
330
18
100
AcDbEntity
  8
Object
100
AcDbLine
 10
10.11222222222222
 20
4.565555555555555
 30
0.0
 11
10.06111111111111
 21
4.565555555555555
 31
0.0
  0
LINE
  5
11CB
330
18
100
AcDbEntity
  8
Object
100
AcDbLine
 10
10.42222222222222
 20
4.412222222222221
 30
0.0
 11
10.40777777777778
 21
4.412222222222221
 31
0.0
  0
LINE
  5
11CC
330
18
100
AcDbEntity
  8
Object
100
AcDbLine
 10
9.911111111111111
 20
4.394444444444444
 30
0.0
 11
9.925555555555556
 21
4.366666666666666
 31
0.0
  0
LINE
  5
11CD
330
18
100
AcDbEntity
  8
Object
100
AcDbLine
 10
9.925555555555556
 20
4.366666666666666
 30
0.0
 11
9.925555555555556
 21
4.365555555555555
 31
0.0
  0
LINE
  5
11CE
330
18
100
AcDbEntity
  8
Object
100
AcDbLine
 10
9.925555555555556
 20
4.365555555555555
 30
0.0
 11
9.911111111111111
 21
4.394444444444444
 31
0.0
  0
LINE
  5
11CF
330
18
100
AcDbEntity
  8
Object
100
AcDbLine
 10
10.70111111111111
 20
4.525555555555555
 30
0.0
 11
10.70111111111111
 21
4.366666666666666
 31
0.0
  0
LINE
  5
11D0
330
18
100
AcDbEntity
  8
Object
100
AcDbLine
 10
10.70111111111111
 20
4.366666666666666
 30
0.0
 11
10.70111111111111
 21
4.365555555555555
 31
0.0
  0
LINE
  5
11D1
330
18
100
AcDbEntity
  8
Object
100
AcDbLine
 10
10.59777777777777
 20
4.524444444444444
 30
0.0
 11
10.59777777777777
 21
4.525555555555555
 31
0.0
  0
LINE
  5
11D2
330
18
100
AcDbEntity
  8
Object
100
AcDbLine
 10
10.59777777777777
 20
4.525555555555555
 30
0.0
 11
10.63888888888889
 21
4.525555555555555
 31
0.0
  0
LINE
  5
11D3
330
18
100
AcDbEntity
  8
Object
100
AcDbLine
 10
10.34888888888889
 20
4.371111111111111
 30
0.0
 11
10.36666666666667
 21
4.366666666666666
 31
0.0
  0
LINE
  5
11D4
330
18
100
AcDbEntity
  8
Object
100
AcDbLine
 10
10.36666666666667
 20
4.366666666666666
 30
0.0
 11
10.36666666666667
 21
4.365555555555555
 31
0.0
  0
LINE
  5
11D5
330
18
100
AcDbEntity
  8
Object
100
AcDbLine
 10
10.34888888888889
 20
4.371111111111111
 30
0.0
 11
10.33555555555555
 21
4.384444444444444
 31
0.0
  0
LINE
  5
11D6
330
18
100
AcDbEntity
  8
Object
100
AcDbLine
 10
10.33555555555555
 20
4.384444444444444
 30
0.0
 11
10.33111111111111
 21
4.402222222222222
 31
0.0
  0
LINE
  5
11D7
330
18
100
AcDbEntity
  8
Object
100
AcDbLine
 10
10.33111111111111
 20
4.402222222222222
 30
0.0
 11
10.33111111111111
 21
4.40111111111111
 31
0.0
  0
LINE
  5
11D8
330
18
100
AcDbEntity
  8
Object
100
AcDbLine
 10
9.58
 20
4.366666666666666
 30
0.0
 11
9.58
 21
4.365555555555555
 31
0.0
  0
LINE
  5
11D9
330
18
100
AcDbEntity
  8
Object
100
AcDbLine
 10
9.58
 20
4.627777777777778
 30
0.0
 11
9.58
 21
4.625555555555555
 31
0.0
  0
LINE
  5
11DA
330
18
100
AcDbEntity
  8
Object
100
AcDbLine
 10
9.58
 20
4.626666666666666
 30
0.0
 11
9.58
 21
4.366666666666666
 31
0.0
  0
LINE
  5
11DB
330
18
100
AcDbEntity
  8
Object
100
AcDbLine
 10
10.26
 20
4.365555555555555
 30
0.0
 11
10.26
 21
4.366666666666666
 31
0.0
  0
LINE
  5
11DC
330
18
100
AcDbEntity
  8
Object
100
AcDbLine
 10
10.14777777777778
 20
4.365555555555555
 30
0.0
 11
10.14777777777778
 21
4.366666666666666
 31
0.0
  0
LINE
  5
11DD
330
18
100
AcDbEntity
  8
Object
100
AcDbLine
 10
10.14777777777778
 20
4.366666666666666
 30
0.0
 11
10.26
 21
4.366666666666666
 31
0.0
  0
LINE
  5
11DE
330
18
100
AcDbEntity
  8
Object
100
AcDbLine
 10
10.47444444444444
 20
4.566666666666666
 30
0.0
 11
10.47444444444444
 21
4.565555555555555
 31
0.0
  0
LINE
  5
11DF
330
18
100
AcDbEntity
  8
Object
100
AcDbLine
 10
10.47444444444444
 20
4.40111111111111
 30
0.0
 11
10.47444444444444
 21
4.402222222222222
 31
0.0
  0
LINE
  5
11E0
330
18
100
AcDbEntity
  8
Object
100
AcDbLine
 10
10.47444444444444
 20
4.402222222222222
 30
0.0
 11
10.47444444444444
 21
4.565555555555555
 31
0.0
  0
LINE
  5
11E1
330
18
100
AcDbEntity
  8
Object
100
AcDbLine
 10
10.42777777777778
 20
4.413333333333333
 30
0.0
 11
10.42222222222222
 21
4.412222222222221
 31
0.0
  0
LINE
  5
11E2
330
18
100
AcDbEntity
  8
Object
100
AcDbLine
 10
10.51
 20
4.366666666666666
 30
0.0
 11
10.51
 21
4.565555555555555
 31
0.0
  0
LINE
  5
11E3
330
18
100
AcDbEntity
  8
Object
100
AcDbLine
 10
10.51
 20
4.565555555555555
 30
0.0
 11
10.56333333333333
 21
4.565555555555555
 31
0.0
  0
LINE
  5
11E4
330
18
100
AcDbEntity
  8
Object
100
AcDbLine
 10
10.56333333333333
 20
4.565555555555555
 30
0.0
 11
10.56333333333333
 21
4.366666666666666
 31
0.0
  0
LINE
  5
11E5
330
18
100
AcDbEntity
  8
Object
100
AcDbLine
 10
10.06111111111111
 20
4.484444444444444
 30
0.0
 11
10.06111111111111
 21
4.565555555555555
 31
0.0
  0
LINE
  5
11E6
330
18
100
AcDbEntity
  8
Object
100
AcDbLine
 10
10.06111111111111
 20
4.565555555555555
 30
0.0
 11
10.11222222222222
 21
4.565555555555555
 31
0.0
  0
LINE
  5
11E7
330
18
100
AcDbEntity
  8
Object
100
AcDbLine
 10
10.11222222222222
 20
4.565555555555555
 30
0.0
 11
10.11222222222222
 21
4.366666666666666
 31
0.0
  0
LINE
  5
11E8
330
18
100
AcDbEntity
  8
Object
100
AcDbLine
 10
10.06111111111111
 20
4.484444444444444
 30
0.0
 11
10.02555555555555
 21
4.565555555555555
 31
0.0
  0
LINE
  5
11E9
330
18
100
AcDbEntity
  8
Object
100
AcDbLine
 10
10.01555555555555
 20
4.366666666666666
 30
0.0
 11
10.01555555555555
 21
4.451111111111111
 31
0.0
  0
LINE
  5
11EA
330
18
100
AcDbEntity
  8
Object
100
AcDbLine
 10
9.958888888888889
 20
4.435555555555555
 30
0.0
 11
9.958888888888889
 21
4.565555555555555
 31
0.0
  0
LINE
  5
11EB
330
18
100
AcDbEntity
  8
Object
100
AcDbLine
 10
9.958888888888889
 20
4.565555555555555
 30
0.0
 11
10.02555555555555
 21
4.565555555555555
 31
0.0
  0
LINE
  5
11EC
330
18
100
AcDbEntity
  8
Object
100
AcDbLine
 10
9.958888888888889
 20
4.435555555555555
 30
0.0
 11
9.9
 21
4.565555555555555
 31
0.0
  0
LINE
  5
11ED
330
18
100
AcDbEntity
  8
Object
100
AcDbLine
 10
9.873333333333333
 20
4.494444444444444
 30
0.0
 11
9.897777777777777
 21
4.437777777777777
 31
0.0
  0
LINE
  5
11EE
330
18
100
AcDbEntity
  8
Object
100
AcDbLine
 10
9.9
 20
4.565555555555555
 30
0.0
 11
9.846666666666665
 21
4.565555555555555
 31
0.0
  0
LINE
  5
11EF
330
18
100
AcDbEntity
  8
Object
100
AcDbLine
 10
9.834444444444445
 20
4.394444444444444
 30
0.0
 11
9.911111111111111
 21
4.394444444444444
 31
0.0
  0
LINE
  5
11F0
330
18
100
AcDbEntity
  8
Object
100
AcDbLine
 10
9.897777777777777
 20
4.437777777777777
 30
0.0
 11
9.847777777777777
 21
4.437777777777777
 31
0.0
  0
LINE
  5
11F1
330
18
100
AcDbEntity
  8
Object
100
AcDbLine
 10
9.847777777777777
 20
4.437777777777777
 30
0.0
 11
9.873333333333333
 21
4.494444444444444
 31
0.0
  0
LINE
  5
11F2
330
18
100
AcDbEntity
  8
Object
100
AcDbLine
 10
9.822222222222222
 20
4.366666666666666
 30
0.0
 11
9.834444444444445
 21
4.394444444444444
 31
0.0
  0
LINE
  5
11F3
330
18
100
AcDbEntity
  8
Object
100
AcDbLine
 10
9.797777777777778
 20
4.62
 30
0.0
 11
9.828888888888888
 21
4.597777777777777
 31
0.0
  0
LINE
  5
11F4
330
18
100
AcDbEntity
  8
Object
100
AcDbLine
 10
9.828888888888888
 20
4.597777777777777
 30
0.0
 11
9.846666666666665
 21
4.565555555555555
 31
0.0
  0
LINE
  5
11F5
330
18
100
AcDbEntity
  8
Object
100
AcDbLine
 10
9.788888888888889
 20
4.452222222222221
 30
0.0
 11
9.80111111111111
 21
4.456666666666666
 31
0.0
  0
LINE
  5
11F6
330
18
100
AcDbEntity
  8
Object
100
AcDbLine
 10
9.735555555555555
 20
4.568888888888888
 30
0.0
 11
9.735555555555555
 21
4.502222222222222
 31
0.0
  0
LINE
  5
11F7
330
18
100
AcDbEntity
  8
Object
100
AcDbLine
 10
9.797777777777778
 20
4.62
 30
0.0
 11
9.762222222222222
 21
4.626666666666666
 31
0.0
  0
LINE
  5
11F8
330
18
100
AcDbEntity
  8
Object
100
AcDbLine
 10
9.788888888888889
 20
4.452222222222221
 30
0.0
 11
9.775555555555555
 21
4.448888888888888
 31
0.0
  0
LINE
  5
11F9
330
18
100
AcDbEntity
  8
Object
100
AcDbLine
 10
9.775555555555555
 20
4.448888888888888
 30
0.0
 11
9.762222222222222
 21
4.447777777777777
 31
0.0
  0
LINE
  5
11FA
330
18
100
AcDbEntity
  8
Object
100
AcDbLine
 10
9.735555555555555
 20
4.502222222222222
 30
0.0
 11
9.734444444444443
 21
4.495555555555555
 31
0.0
  0
LINE
  5
11FB
330
18
100
AcDbEntity
  8
Object
100
AcDbLine
 10
9.735555555555555
 20
4.568888888888888
 30
0.0
 11
9.734444444444443
 21
4.574444444444444
 31
0.0
  0
LINE
  5
11FC
330
18
100
AcDbEntity
  8
Object
100
AcDbLine
 10
9.734444444444443
 20
4.574444444444444
 30
0.0
 11
9.728888888888889
 21
4.58
 31
0.0
  0
LINE
  5
11FD
330
18
100
AcDbEntity
  8
Object
100
AcDbLine
 10
9.734444444444443
 20
4.495555555555555
 30
0.0
 11
9.728888888888889
 21
4.491111111111111
 31
0.0
  0
LINE
  5
11FE
330
18
100
AcDbEntity
  8
Object
100
AcDbLine
 10
9.728888888888889
 20
4.491111111111111
 30
0.0
 11
9.723333333333332
 21
4.488888888888888
 31
0.0
  0
LINE
  5
11FF
330
18
100
AcDbEntity
  8
Object
100
AcDbLine
 10
9.728888888888889
 20
4.58
 30
0.0
 11
9.723333333333332
 21
4.581111111111111
 31
0.0
  0
LINE
  5
1200
330
18
100
AcDbEntity
  8
Object
100
AcDbLine
 10
9.723333333333332
 20
4.581111111111111
 30
0.0
 11
9.697777777777778
 21
4.581111111111111
 31
0.0
  0
LINE
  5
1201
330
18
100
AcDbEntity
  8
Object
100
AcDbLine
 10
9.723333333333332
 20
4.488888888888888
 30
0.0
 11
9.697777777777778
 21
4.488888888888888
 31
0.0
  0
LINE
  5
1202
330
18
100
AcDbEntity
  8
Object
100
AcDbLine
 10
9.697777777777778
 20
4.366666666666666
 30
0.0
 11
9.697777777777778
 21
4.447777777777777
 31
0.0
  0
LINE
  5
1203
330
18
100
AcDbEntity
  8
Object
100
AcDbLine
 10
9.58
 20
4.366666666666666
 30
0.0
 11
9.58
 21
4.626666666666666
 31
0.0
  0
LINE
  5
1204
330
18
100
AcDbEntity
  8
Object
100
AcDbLine
 10
9.58
 20
4.626666666666666
 30
0.0
 11
9.762222222222222
 21
4.626666666666666
 31
0.0
  0
LINE
  5
1205
330
18
100
AcDbEntity
  8
Object
100
AcDbLine
 10
9.697777777777778
 20
4.488888888888888
 30
0.0
 11
9.697777777777778
 21
4.581111111111111
 31
0.0
  0
LINE
  5
1206
330
18
100
AcDbEntity
  8
Object
100
AcDbLine
 10
10.29666666666666
 20
4.402222222222222
 30
0.0
 11
10.29666666666666
 21
4.53
 31
0.0
  0
LINE
  5
1207
330
18
100
AcDbEntity
  8
Object
100
AcDbLine
 10
10.23777777777778
 20
4.514444444444444
 30
0.0
 11
10.23777777777778
 21
4.422222222222222
 31
0.0
  0
LINE
  5
1208
330
18
100
AcDbEntity
  8
Object
100
AcDbLine
 10
10.29666666666666
 20
4.402222222222222
 30
0.0
 11
10.29111111111111
 21
4.384444444444444
 31
0.0
  0
LINE
  5
1209
330
18
100
AcDbEntity
  8
Object
100
AcDbLine
 10
10.29111111111111
 20
4.384444444444444
 30
0.0
 11
10.27888888888889
 21
4.371111111111111
 31
0.0
  0
LINE
  5
120A
330
18
100
AcDbEntity
  8
Object
100
AcDbLine
 10
10.27888888888889
 20
4.371111111111111
 30
0.0
 11
10.26
 21
4.366666666666666
 31
0.0
  0
LINE
  5
120B
330
18
100
AcDbEntity
  8
Object
100
AcDbLine
 10
10.26
 20
4.565555555555555
 30
0.0
 11
10.27888888888889
 21
4.56111111111111
 31
0.0
  0
LINE
  5
120C
330
18
100
AcDbEntity
  8
Object
100
AcDbLine
 10
10.27888888888889
 20
4.56111111111111
 30
0.0
 11
10.29111111111111
 21
4.547777777777778
 31
0.0
  0
LINE
  5
120D
330
18
100
AcDbEntity
  8
Object
100
AcDbLine
 10
10.29111111111111
 20
4.547777777777778
 30
0.0
 11
10.29666666666666
 21
4.53
 31
0.0
  0
LINE
  5
120E
330
18
100
AcDbEntity
  8
Object
100
AcDbLine
 10
10.23666666666666
 20
4.518888888888889
 30
0.0
 11
10.23777777777778
 21
4.514444444444444
 31
0.0
  0
LINE
  5
120F
330
18
100
AcDbEntity
  8
Object
100
AcDbLine
 10
10.23777777777778
 20
4.422222222222222
 30
0.0
 11
10.23666666666666
 21
4.416666666666666
 31
0.0
  0
LINE
  5
1210
330
18
100
AcDbEntity
  8
Object
100
AcDbLine
 10
10.23222222222222
 20
4.523333333333333
 30
0.0
 11
10.23666666666666
 21
4.518888888888889
 31
0.0
  0
LINE
  5
1211
330
18
100
AcDbEntity
  8
Object
100
AcDbLine
 10
10.23666666666666
 20
4.416666666666666
 30
0.0
 11
10.23222222222222
 21
4.413333333333333
 31
0.0
  0
LINE
  5
1212
330
18
100
AcDbEntity
  8
Object
100
AcDbLine
 10
10.22777777777778
 20
4.524444444444444
 30
0.0
 11
10.23222222222222
 21
4.523333333333333
 31
0.0
  0
LINE
  5
1213
330
18
100
AcDbEntity
  8
Object
100
AcDbLine
 10
10.23222222222222
 20
4.413333333333333
 30
0.0
 11
10.22777777777778
 21
4.412222222222221
 31
0.0
  0
LINE
  5
1214
330
18
100
AcDbEntity
  8
Object
100
AcDbLine
 10
10.20666666666667
 20
4.524444444444444
 30
0.0
 11
10.22777777777778
 21
4.524444444444444
 31
0.0
  0
LINE
  5
1215
330
18
100
AcDbEntity
  8
Object
100
AcDbLine
 10
10.22777777777778
 20
4.412222222222221
 30
0.0
 11
10.20666666666667
 21
4.412222222222221
 31
0.0
  0
LINE
  5
1216
330
18
100
AcDbEntity
  8
Object
100
AcDbLine
 10
10.14777777777778
 20
4.366666666666666
 30
0.0
 11
10.14777777777778
 21
4.565555555555555
 31
0.0
  0
LINE
  5
1217
330
18
100
AcDbEntity
  8
Object
100
AcDbLine
 10
10.14777777777778
 20
4.565555555555555
 30
0.0
 11
10.26
 21
4.565555555555555
 31
0.0
  0
LINE
  5
1218
330
18
100
AcDbEntity
  8
Object
100
AcDbLine
 10
10.20666666666667
 20
4.412222222222221
 30
0.0
 11
10.20666666666667
 21
4.524444444444444
 31
0.0
  0
LINE
  5
1219
330
18
100
AcDbEntity
  8
Object
100
AcDbLine
 10
10.43222222222222
 20
4.422222222222222
 30
0.0
 11
10.43222222222222
 21
4.565555555555555
 31
0.0
  0
LINE
  5
121A
330
18
100
AcDbEntity
  8
Object
100
AcDbLine
 10
10.43222222222222
 20
4.565555555555555
 30
0.0
 11
10.47444444444444
 21
4.565555555555555
 31
0.0
  0
LINE
  5
121B
330
18
100
AcDbEntity
  8
Object
100
AcDbLine
 10
10.47444444444444
 20
4.565555555555555
 30
0.0
 11
10.47444444444444
 21
4.402222222222222
 31
0.0
  0
LINE
  5
121C
330
18
100
AcDbEntity
  8
Object
100
AcDbLine
 10
10.47444444444444
 20
4.402222222222222
 30
0.0
 11
10.47
 21
4.384444444444444
 31
0.0
  0
LINE
  5
121D
330
18
100
AcDbEntity
  8
Object
100
AcDbLine
 10
10.43222222222222
 20
4.422222222222222
 30
0.0
 11
10.43111111111111
 21
4.416666666666666
 31
0.0
  0
LINE
  5
121E
330
18
100
AcDbEntity
  8
Object
100
AcDbLine
 10
10.43111111111111
 20
4.416666666666666
 30
0.0
 11
10.42777777777778
 21
4.413333333333333
 31
0.0
  0
LINE
  5
121F
330
18
100
AcDbEntity
  8
Object
100
AcDbLine
 10
10.47
 20
4.384444444444444
 30
0.0
 11
10.45666666666666
 21
4.371111111111111
 31
0.0
  0
LINE
  5
1220
330
18
100
AcDbEntity
  8
Object
100
AcDbLine
 10
10.45666666666666
 20
4.371111111111111
 30
0.0
 11
10.43888888888889
 21
4.366666666666666
 31
0.0
  0
LINE
  5
1221
330
18
100
AcDbEntity
  8
Object
100
AcDbLine
 10
10.39888888888889
 20
4.416666666666666
 30
0.0
 11
10.40222222222222
 21
4.413333333333333
 31
0.0
  0
LINE
  5
1222
330
18
100
AcDbEntity
  8
Object
100
AcDbLine
 10
10.40222222222222
 20
4.413333333333333
 30
0.0
 11
10.40777777777778
 21
4.412222222222221
 31
0.0
  0
LINE
  5
1223
330
18
100
AcDbEntity
  8
Object
100
AcDbLine
 10
10.39888888888889
 20
4.416666666666666
 30
0.0
 11
10.39777777777778
 21
4.422222222222222
 31
0.0
  0
LINE
  5
1224
330
18
100
AcDbEntity
  8
Object
100
AcDbLine
 10
10.33111111111111
 20
4.402222222222222
 30
0.0
 11
10.33111111111111
 21
4.565555555555555
 31
0.0
  0
LINE
  5
1225
330
18
100
AcDbEntity
  8
Object
100
AcDbLine
 10
10.33111111111111
 20
4.565555555555555
 30
0.0
 11
10.39777777777778
 21
4.565555555555555
 31
0.0
  0
LINE
  5
1226
330
18
100
AcDbEntity
  8
Object
100
AcDbLine
 10
10.39777777777778
 20
4.565555555555555
 30
0.0
 11
10.39777777777778
 21
4.422222222222222
 31
0.0
  0
LINE
  5
1227
330
18
100
AcDbEntity
  8
Object
100
AcDbLine
 10
10.74666666666666
 20
4.525555555555555
 30
0.0
 11
10.74666666666666
 21
4.565555555555555
 31
0.0
  0
LINE
  5
1228
330
18
100
AcDbEntity
  8
Object
100
AcDbLine
 10
10.70111111111111
 20
4.366666666666666
 30
0.0
 11
10.70111111111111
 21
4.525555555555555
 31
0.0
  0
LINE
  5
1229
330
18
100
AcDbEntity
  8
Object
100
AcDbLine
 10
10.63888888888889
 20
4.525555555555555
 30
0.0
 11
10.63888888888889
 21
4.366666666666666
 31
0.0
  0
LINE
  5
122A
330
18
100
AcDbEntity
  8
Object
100
AcDbLine
 10
10.74666666666666
 20
4.565555555555555
 30
0.0
 11
10.59777777777777
 21
4.565555555555555
 31
0.0
  0
LINE
  5
122B
330
18
100
AcDbEntity
  8
Object
100
AcDbLine
 10
10.59777777777777
 20
4.565555555555555
 30
0.0
 11
10.59777777777777
 21
4.525555555555555
 31
0.0
  0
LINE
  5
122C
330
18
100
AcDbEntity
  8
Object
100
AcDbLine
 10
9.697777777777778
 20
4.582222222222222
 30
0.0
 11
9.697777777777778
 21
4.58
 31
0.0
  0
LINE
  5
122D
330
18
100
AcDbEntity
  8
Object
100
AcDbLine
 10
9.697777777777778
 20
4.488888888888888
 30
0.0
 11
9.697777777777778
 21
4.581111111111111
 31
0.0
  0
LINE
  5
122E
330
18
100
AcDbEntity
  8
Object
100
AcDbLine
 10
9.735555555555555
 20
4.568888888888888
 30
0.0
 11
9.735555555555555
 21
4.502222222222222
 31
0.0
  0
LINE
  5
122F
330
18
100
AcDbEntity
  8
Object
100
AcDbLine
 10
9.897777777777777
 20
4.437777777777777
 30
0.0
 11
9.847777777777777
 21
4.437777777777777
 31
0.0
  0
LINE
  5
1230
330
18
100
AcDbEntity
  8
Object
100
AcDbLine
 10
9.735555555555555
 20
4.568888888888888
 30
0.0
 11
9.734444444444443
 21
4.574444444444444
 31
0.0
  0
LINE
  5
1231
330
18
100
AcDbEntity
  8
Object
100
AcDbLine
 10
9.734444444444443
 20
4.574444444444444
 30
0.0
 11
9.728888888888889
 21
4.578888888888888
 31
0.0
  0
LINE
  5
1232
330
18
100
AcDbEntity
  8
Object
100
AcDbLine
 10
9.728888888888889
 20
4.578888888888888
 30
0.0
 11
9.723333333333332
 21
4.581111111111111
 31
0.0
  0
LINE
  5
1233
330
18
100
AcDbEntity
  8
Object
100
AcDbLine
 10
9.723333333333332
 20
4.581111111111111
 30
0.0
 11
9.728888888888889
 21
4.58
 31
0.0
  0
LINE
  5
1234
330
18
100
AcDbEntity
  8
Object
100
AcDbLine
 10
10.22777777777778
 20
4.524444444444444
 30
0.0
 11
10.22777777777778
 21
4.523333333333333
 31
0.0
  0
LINE
  5
1235
330
18
100
AcDbEntity
  8
Object
100
AcDbLine
 10
10.22777777777778
 20
4.523333333333333
 30
0.0
 11
10.20666666666667
 21
4.523333333333333
 31
0.0
  0
LINE
  5
1236
330
18
100
AcDbEntity
  8
Object
100
AcDbLine
 10
10.23777777777778
 20
4.514444444444444
 30
0.0
 11
10.23777777777778
 21
4.422222222222222
 31
0.0
  0
LINE
  5
1237
330
18
100
AcDbEntity
  8
Object
100
AcDbLine
 10
10.20666666666667
 20
4.412222222222221
 30
0.0
 11
10.20666666666667
 21
4.524444444444444
 31
0.0
  0
LINE
  5
1238
330
18
100
AcDbEntity
  8
Object
100
AcDbLine
 10
10.23777777777778
 20
4.514444444444444
 30
0.0
 11
10.23666666666666
 21
4.518888888888889
 31
0.0
  0
LINE
  5
1239
330
18
100
AcDbEntity
  8
Object
100
AcDbLine
 10
10.23666666666666
 20
4.518888888888889
 30
0.0
 11
10.23222222222222
 21
4.522222222222222
 31
0.0
  0
LINE
  5
123A
330
18
100
AcDbEntity
  8
Object
100
AcDbLine
 10
10.23222222222222
 20
4.522222222222222
 30
0.0
 11
10.22777777777778
 21
4.523333333333333
 31
0.0
  0
LINE
  5
123B
330
18
100
AcDbEntity
  8
Object
100
AcDbLine
 10
9.735555555555555
 20
4.567777777777777
 30
0.0
 11
9.734444444444443
 21
4.574444444444444
 31
0.0
  0
LINE
  5
123C
330
18
100
AcDbEntity
  8
Object
100
AcDbLine
 10
10.23777777777778
 20
4.513333333333333
 30
0.0
 11
10.23666666666666
 21
4.518888888888889
 31
0.0
  0
LINE
  5
123D
330
18
100
AcDbEntity
  8
Object
100
AcDbLine
 10
15.57333333333333
 20
14.66111111111111
 30
0.0
 11
15.35222222222222
 21
14.66111111111111
 31
0.0
  0
LINE
  5
123E
330
18
100
AcDbEntity
  8
Object
100
AcDbLine
 10
4.963333333333332
 20
14.66111111111111
 30
0.0
 11
4.742222222222221
 21
14.66111111111111
 31
0.0
  0
LINE
  5
123F
330
18
100
AcDbEntity
  8
Object
100
AcDbLine
 10
4.721111111111111
 20
14.65222222222222
 30
0.0
 11
4.714444444444444
 21
14.64222222222222
 31
0.0
  0
LINE
  5
1240
330
18
100
AcDbEntity
  8
Object
100
AcDbLine
 10
4.714444444444444
 20
14.64222222222222
 30
0.0
 11
4.712222222222222
 21
14.63111111111111
 31
0.0
  0
LINE
  5
1241
330
18
100
AcDbEntity
  8
Object
100
AcDbLine
 10
15.35222222222222
 20
14.66111111111111
 30
0.0
 11
15.21666666666666
 21
14.66555555555555
 31
0.0
  0
LINE
  5
1242
330
18
100
AcDbEntity
  8
Object
100
AcDbLine
 10
15.21666666666666
 20
14.66555555555555
 30
0.0
 11
15.08222222222222
 21
14.68111111111111
 31
0.0
  0
LINE
  5
1243
330
18
100
AcDbEntity
  8
Object
100
AcDbLine
 10
13.47555555555555
 20
16.40111111111111
 30
0.0
 11
13.47
 21
16.53666666666666
 31
0.0
  0
LINE
  5
1244
330
18
100
AcDbEntity
  8
Object
100
AcDbLine
 10
15.60333333333333
 20
14.63111111111111
 30
0.0
 11
15.60111111111111
 21
14.64222222222222
 31
0.0
  0
LINE
  5
1245
330
18
100
AcDbEntity
  8
Object
100
AcDbLine
 10
15.60111111111111
 20
14.64222222222222
 30
0.0
 11
15.59444444444444
 21
14.65222222222222
 31
0.0
  0
LINE
  5
1246
330
18
100
AcDbEntity
  8
Object
100
AcDbLine
 10
15.59444444444444
 20
14.65222222222222
 30
0.0
 11
15.58444444444444
 21
14.65888888888889
 31
0.0
  0
LINE
  5
1247
330
18
100
AcDbEntity
  8
Object
100
AcDbLine
 10
15.58444444444444
 20
14.65888888888889
 30
0.0
 11
15.57333333333333
 21
14.66111111111111
 31
0.0
  0
LINE
  5
1248
330
18
100
AcDbEntity
  8
Object
100
AcDbLine
 10
6.845555555555555
 20
16.53666666666666
 30
0.0
 11
6.839999999999999
 21
16.40111111111111
 31
0.0
  0
LINE
  5
1249
330
18
100
AcDbEntity
  8
Object
100
AcDbLine
 10
6.839999999999999
 20
16.40111111111111
 30
0.0
 11
6.825555555555555
 21
16.26666666666666
 31
0.0
  0
LINE
  5
124A
330
18
100
AcDbEntity
  8
Object
100
AcDbLine
 10
5.233333333333333
 20
14.68111111111111
 30
0.0
 11
5.098888888888889
 21
14.66555555555555
 31
0.0
  0
LINE
  5
124B
330
18
100
AcDbEntity
  8
Object
100
AcDbLine
 10
5.098888888888889
 20
14.66555555555555
 30
0.0
 11
4.963333333333332
 21
14.66111111111111
 31
0.0
  0
LINE
  5
124C
330
18
100
AcDbEntity
  8
Object
100
AcDbLine
 10
6.882222222222222
 20
18.53666666666666
 30
0.0
 11
7.007777777777778
 21
18.53666666666666
 31
0.0
  0
LINE
  5
124D
330
18
100
AcDbEntity
  8
Object
100
AcDbLine
 10
7.007777777777778
 20
18.53666666666666
 30
0.0
 11
6.971111111111111
 21
16.53666666666666
 31
0.0
  0
LINE
  5
124E
330
18
100
AcDbEntity
  8
Object
100
AcDbLine
 10
6.882222222222222
 20
18.53666666666666
 30
0.0
 11
6.845555555555555
 21
16.53666666666666
 31
0.0
  0
LINE
  5
124F
330
18
100
AcDbEntity
  8
Object
100
AcDbLine
 10
6.971111111111111
 20
16.53666666666666
 30
0.0
 11
6.962222222222222
 21
16.35666666666666
 31
0.0
  0
LINE
  5
1250
330
18
100
AcDbEntity
  8
Object
100
AcDbLine
 10
6.962222222222222
 20
16.35666666666666
 30
0.0
 11
6.952222222222221
 21
16.26444444444444
 31
0.0
  0
LINE
  5
1251
330
18
100
AcDbEntity
  8
Object
100
AcDbLine
 10
6.952222222222221
 20
16.26444444444444
 30
0.0
 11
6.936666666666666
 21
16.17222222222222
 31
0.0
  0
LINE
  5
1252
330
18
100
AcDbEntity
  8
Object
100
AcDbLine
 10
6.936666666666666
 20
16.17222222222222
 30
0.0
 11
6.916666666666666
 21
16.07888888888889
 31
0.0
  0
LINE
  5
1253
330
18
100
AcDbEntity
  8
Object
100
AcDbLine
 10
6.916666666666666
 20
16.07888888888889
 30
0.0
 11
6.892222222222222
 21
15.98555555555555
 31
0.0
  0
LINE
  5
1254
330
18
100
AcDbEntity
  8
Object
100
AcDbLine
 10
6.892222222222222
 20
15.98555555555555
 30
0.0
 11
6.863333333333333
 21
15.89222222222222
 31
0.0
  0
LINE
  5
1255
330
18
100
AcDbEntity
  8
Object
100
AcDbLine
 10
6.863333333333333
 20
15.89222222222222
 30
0.0
 11
6.828888888888888
 21
15.8
 31
0.0
  0
LINE
  5
1256
330
18
100
AcDbEntity
  8
Object
100
AcDbLine
 10
6.828888888888888
 20
15.8
 30
0.0
 11
6.79
 21
15.70777777777778
 31
0.0
  0
LINE
  5
1257
330
18
100
AcDbEntity
  8
Object
100
AcDbLine
 10
6.79
 20
15.70777777777778
 30
0.0
 11
6.745555555555555
 21
15.61777777777778
 31
0.0
  0
LINE
  5
1258
330
18
100
AcDbEntity
  8
Object
100
AcDbLine
 10
6.745555555555555
 20
15.61777777777778
 30
0.0
 11
6.696666666666666
 21
15.52888888888889
 31
0.0
  0
LINE
  5
1259
330
18
100
AcDbEntity
  8
Object
100
AcDbLine
 10
6.696666666666666
 20
15.52888888888889
 30
0.0
 11
6.642222222222222
 21
15.44222222222222
 31
0.0
  0
LINE
  5
125A
330
18
100
AcDbEntity
  8
Object
100
AcDbLine
 10
6.642222222222222
 20
15.44222222222222
 30
0.0
 11
6.583333333333333
 21
15.35777777777778
 31
0.0
  0
LINE
  5
125B
330
18
100
AcDbEntity
  8
Object
100
AcDbLine
 10
6.583333333333333
 20
15.35777777777778
 30
0.0
 11
6.52111111111111
 21
15.27555555555555
 31
0.0
  0
LINE
  5
125C
330
18
100
AcDbEntity
  8
Object
100
AcDbLine
 10
6.52111111111111
 20
15.27555555555555
 30
0.0
 11
6.453333333333333
 21
15.19666666666666
 31
0.0
  0
LINE
  5
125D
330
18
100
AcDbEntity
  8
Object
100
AcDbLine
 10
6.453333333333333
 20
15.19666666666666
 30
0.0
 11
6.382222222222222
 21
15.12222222222222
 31
0.0
  0
LINE
  5
125E
330
18
100
AcDbEntity
  8
Object
100
AcDbLine
 10
6.825555555555555
 20
16.26666666666666
 30
0.0
 11
5.233333333333333
 21
14.68111111111111
 31
0.0
  0
LINE
  5
125F
330
18
100
AcDbEntity
  8
Object
100
AcDbLine
 10
6.382222222222222
 20
15.12222222222222
 30
0.0
 11
6.306666666666666
 21
15.05111111111111
 31
0.0
  0
LINE
  5
1260
330
18
100
AcDbEntity
  8
Object
100
AcDbLine
 10
6.306666666666666
 20
15.05111111111111
 30
0.0
 11
6.227777777777777
 21
14.98333333333333
 31
0.0
  0
LINE
  5
1261
330
18
100
AcDbEntity
  8
Object
100
AcDbLine
 10
6.227777777777777
 20
14.98333333333333
 30
0.0
 11
6.145555555555555
 21
14.92111111111111
 31
0.0
  0
LINE
  5
1262
330
18
100
AcDbEntity
  8
Object
100
AcDbLine
 10
6.145555555555555
 20
14.92111111111111
 30
0.0
 11
6.06111111111111
 21
14.86222222222222
 31
0.0
  0
LINE
  5
1263
330
18
100
AcDbEntity
  8
Object
100
AcDbLine
 10
6.06111111111111
 20
14.86222222222222
 30
0.0
 11
5.973333333333333
 21
14.80888888888889
 31
0.0
  0
LINE
  5
1264
330
18
100
AcDbEntity
  8
Object
100
AcDbLine
 10
5.973333333333333
 20
14.80888888888889
 30
0.0
 11
5.884444444444444
 21
14.76
 31
0.0
  0
LINE
  5
1265
330
18
100
AcDbEntity
  8
Object
100
AcDbLine
 10
5.884444444444444
 20
14.76
 30
0.0
 11
5.793333333333333
 21
14.71555555555555
 31
0.0
  0
LINE
  5
1266
330
18
100
AcDbEntity
  8
Object
100
AcDbLine
 10
5.793333333333333
 20
14.71555555555555
 30
0.0
 11
5.701111111111111
 21
14.67666666666666
 31
0.0
  0
LINE
  5
1267
330
18
100
AcDbEntity
  8
Object
100
AcDbLine
 10
5.701111111111111
 20
14.67666666666666
 30
0.0
 11
5.608888888888889
 21
14.64222222222222
 31
0.0
  0
LINE
  5
1268
330
18
100
AcDbEntity
  8
Object
100
AcDbLine
 10
5.608888888888889
 20
14.64222222222222
 30
0.0
 11
5.515555555555555
 21
14.61333333333333
 31
0.0
  0
LINE
  5
1269
330
18
100
AcDbEntity
  8
Object
100
AcDbLine
 10
5.515555555555555
 20
14.61333333333333
 30
0.0
 11
5.421111111111111
 21
14.58888888888889
 31
0.0
  0
LINE
  5
126A
330
18
100
AcDbEntity
  8
Object
100
AcDbLine
 10
5.421111111111111
 20
14.58888888888889
 30
0.0
 11
5.327777777777777
 21
14.57
 31
0.0
  0
LINE
  5
126B
330
18
100
AcDbEntity
  8
Object
100
AcDbLine
 10
5.327777777777777
 20
14.57
 30
0.0
 11
5.235555555555555
 21
14.55444444444444
 31
0.0
  0
LINE
  5
126C
330
18
100
AcDbEntity
  8
Object
100
AcDbLine
 10
5.235555555555555
 20
14.55444444444444
 30
0.0
 11
5.143333333333333
 21
14.54444444444444
 31
0.0
  0
LINE
  5
126D
330
18
100
AcDbEntity
  8
Object
100
AcDbLine
 10
5.143333333333333
 20
14.54444444444444
 30
0.0
 11
4.963333333333332
 21
14.53666666666667
 31
0.0
  0
LINE
  5
126E
330
18
100
AcDbEntity
  8
Object
100
AcDbLine
 10
4.963333333333332
 20
14.66111111111111
 30
0.0
 11
4.742222222222221
 21
14.66111111111111
 31
0.0
  0
LINE
  5
126F
330
18
100
AcDbEntity
  8
Object
100
AcDbLine
 10
4.73111111111111
 20
14.65888888888889
 30
0.0
 11
4.721111111111111
 21
14.65222222222222
 31
0.0
  0
LINE
  5
1270
330
18
100
AcDbEntity
  8
Object
100
AcDbLine
 10
4.963333333333332
 20
14.53666666666667
 30
0.0
 11
4.712222222222222
 21
14.53666666666667
 31
0.0
  0
LINE
  5
1271
330
18
100
AcDbEntity
  8
Object
100
AcDbLine
 10
4.712222222222222
 20
14.53666666666667
 30
0.0
 11
4.712222222222222
 21
14.63111111111111
 31
0.0
  0
LINE
  5
1272
330
18
100
AcDbEntity
  8
Object
100
AcDbLine
 10
4.742222222222221
 20
14.66111111111111
 30
0.0
 11
4.73111111111111
 21
14.65888888888889
 31
0.0
  0
LINE
  5
1273
330
18
100
AcDbEntity
  8
Object
100
AcDbLine
 10
15.57333333333333
 20
14.66111111111111
 30
0.0
 11
15.35222222222222
 21
14.66111111111111
 31
0.0
  0
LINE
  5
1274
330
18
100
AcDbEntity
  8
Object
100
AcDbLine
 10
15.35222222222222
 20
14.53666666666667
 30
0.0
 11
15.60333333333333
 21
14.53666666666667
 31
0.0
  0
LINE
  5
1275
330
18
100
AcDbEntity
  8
Object
100
AcDbLine
 10
13.86222222222222
 20
15.19666666666666
 30
0.0
 11
13.79444444444444
 21
15.27555555555555
 31
0.0
  0
LINE
  5
1276
330
18
100
AcDbEntity
  8
Object
100
AcDbLine
 10
13.79444444444444
 20
15.27555555555555
 30
0.0
 11
13.73111111111111
 21
15.35777777777778
 31
0.0
  0
LINE
  5
1277
330
18
100
AcDbEntity
  8
Object
100
AcDbLine
 10
13.73111111111111
 20
15.35777777777778
 30
0.0
 11
13.67333333333333
 21
15.44222222222222
 31
0.0
  0
LINE
  5
1278
330
18
100
AcDbEntity
  8
Object
100
AcDbLine
 10
13.86222222222222
 20
15.19666666666666
 30
0.0
 11
13.93333333333333
 21
15.12222222222222
 31
0.0
  0
LINE
  5
1279
330
18
100
AcDbEntity
  8
Object
100
AcDbLine
 10
15.08222222222222
 20
14.68111111111111
 30
0.0
 11
13.49
 21
16.26666666666666
 31
0.0
  0
LINE
  5
127A
330
18
100
AcDbEntity
  8
Object
100
AcDbLine
 10
13.49
 20
16.26666666666666
 30
0.0
 11
13.47555555555555
 21
16.40111111111111
 31
0.0
  0
LINE
  5
127B
330
18
100
AcDbEntity
  8
Object
100
AcDbLine
 10
13.30777777777778
 20
18.53666666666666
 30
0.0
 11
13.43222222222222
 21
18.53666666666666
 31
0.0
  0
LINE
  5
127C
330
18
100
AcDbEntity
  8
Object
100
AcDbLine
 10
13.43222222222222
 20
18.53666666666666
 30
0.0
 11
13.47
 21
16.53666666666666
 31
0.0
  0
LINE
  5
127D
330
18
100
AcDbEntity
  8
Object
100
AcDbLine
 10
15.60333333333333
 20
14.53666666666667
 30
0.0
 11
15.60333333333333
 21
14.63111111111111
 31
0.0
  0
LINE
  5
127E
330
18
100
AcDbEntity
  8
Object
100
AcDbLine
 10
7.007777777777778
 20
18.53666666666666
 30
0.0
 11
7.238888888888888
 21
18.53666666666666
 31
0.0
  0
LINE
  5
127F
330
18
100
AcDbEntity
  8
Object
100
AcDbLine
 10
7.238888888888888
 20
18.53666666666666
 30
0.0
 11
7.204444444444444
 21
16.53666666666666
 31
0.0
  0
LINE
  5
1280
330
18
100
AcDbEntity
  8
Object
100
AcDbLine
 10
15.60333333333333
 20
14.53666666666667
 30
0.0
 11
15.35222222222222
 21
14.53666666666667
 31
0.0
  0
LINE
  5
1281
330
18
100
AcDbEntity
  8
Object
100
AcDbLine
 10
15.35222222222222
 20
14.53666666666667
 30
0.0
 11
15.10666666666667
 21
14.53666666666667
 31
0.0
  0
LINE
  5
1282
330
18
100
AcDbEntity
  8
Object
100
AcDbLine
 10
15.10666666666667
 20
14.53666666666667
 30
0.0
 11
15.08444444444444
 21
14.53666666666667
 31
0.0
  0
LINE
  5
1283
330
18
100
AcDbEntity
  8
Object
100
AcDbLine
 10
15.08444444444444
 20
14.53666666666667
 30
0.0
 11
15.04666666666667
 21
14.53666666666667
 31
0.0
  0
LINE
  5
1284
330
18
100
AcDbEntity
  8
Object
100
AcDbLine
 10
15.04666666666667
 20
14.53666666666667
 30
0.0
 11
14.99222222222222
 21
14.53666666666667
 31
0.0
  0
LINE
  5
1285
330
18
100
AcDbEntity
  8
Object
100
AcDbLine
 10
14.99222222222222
 20
14.53666666666667
 30
0.0
 11
14.92222222222222
 21
14.53666666666667
 31
0.0
  0
LINE
  5
1286
330
18
100
AcDbEntity
  8
Object
100
AcDbLine
 10
14.92222222222222
 20
14.53666666666667
 30
0.0
 11
14.83777777777778
 21
14.53666666666667
 31
0.0
  0
LINE
  5
1287
330
18
100
AcDbEntity
  8
Object
100
AcDbLine
 10
14.83777777777778
 20
14.53666666666667
 30
0.0
 11
14.73888888888889
 21
14.53666666666667
 31
0.0
  0
LINE
  5
1288
330
18
100
AcDbEntity
  8
Object
100
AcDbLine
 10
14.73888888888889
 20
14.53666666666667
 30
0.0
 11
14.62555555555555
 21
14.53666666666667
 31
0.0
  0
LINE
  5
1289
330
18
100
AcDbEntity
  8
Object
100
AcDbLine
 10
14.62555555555555
 20
14.53666666666667
 30
0.0
 11
14.49888888888889
 21
14.53666666666667
 31
0.0
  0
LINE
  5
128A
330
18
100
AcDbEntity
  8
Object
100
AcDbLine
 10
14.49888888888889
 20
14.53666666666667
 30
0.0
 11
14.36
 21
14.53666666666667
 31
0.0
  0
LINE
  5
128B
330
18
100
AcDbEntity
  8
Object
100
AcDbLine
 10
14.36
 20
14.53666666666667
 30
0.0
 11
14.21111111111111
 21
14.53666666666667
 31
0.0
  0
LINE
  5
128C
330
18
100
AcDbEntity
  8
Object
100
AcDbLine
 10
14.21111111111111
 20
14.53666666666667
 30
0.0
 11
14.05111111111111
 21
14.53666666666667
 31
0.0
  0
LINE
  5
128D
330
18
100
AcDbEntity
  8
Object
100
AcDbLine
 10
14.05111111111111
 20
14.53666666666667
 30
0.0
 11
13.88222222222222
 21
14.53666666666667
 31
0.0
  0
LINE
  5
128E
330
18
100
AcDbEntity
  8
Object
100
AcDbLine
 10
13.88222222222222
 20
14.53666666666667
 30
0.0
 11
13.70555555555555
 21
14.53666666666667
 31
0.0
  0
LINE
  5
128F
330
18
100
AcDbEntity
  8
Object
100
AcDbLine
 10
13.70555555555555
 20
14.53666666666667
 30
0.0
 11
13.52222222222222
 21
14.53666666666667
 31
0.0
  0
LINE
  5
1290
330
18
100
AcDbEntity
  8
Object
100
AcDbLine
 10
13.52222222222222
 20
14.53666666666667
 30
0.0
 11
13.33333333333333
 21
14.53666666666667
 31
0.0
  0
LINE
  5
1291
330
18
100
AcDbEntity
  8
Object
100
AcDbLine
 10
13.33333333333333
 20
14.53666666666667
 30
0.0
 11
13.14
 21
14.53666666666667
 31
0.0
  0
LINE
  5
1292
330
18
100
AcDbEntity
  8
Object
100
AcDbLine
 10
13.14
 20
14.53666666666667
 30
0.0
 11
12.94444444444444
 21
14.53666666666667
 31
0.0
  0
LINE
  5
1293
330
18
100
AcDbEntity
  8
Object
100
AcDbLine
 10
12.94444444444444
 20
14.53666666666667
 30
0.0
 11
12.74777777777778
 21
14.53666666666667
 31
0.0
  0
LINE
  5
1294
330
18
100
AcDbEntity
  8
Object
100
AcDbLine
 10
7.567777777777777
 20
14.53666666666667
 30
0.0
 11
7.371111111111111
 21
14.53666666666667
 31
0.0
  0
LINE
  5
1295
330
18
100
AcDbEntity
  8
Object
100
AcDbLine
 10
7.371111111111111
 20
14.53666666666667
 30
0.0
 11
7.175555555555555
 21
14.53666666666667
 31
0.0
  0
LINE
  5
1296
330
18
100
AcDbEntity
  8
Object
100
AcDbLine
 10
7.175555555555555
 20
14.53666666666667
 30
0.0
 11
6.982222222222222
 21
14.53666666666667
 31
0.0
  0
LINE
  5
1297
330
18
100
AcDbEntity
  8
Object
100
AcDbLine
 10
6.982222222222222
 20
14.53666666666667
 30
0.0
 11
6.793333333333333
 21
14.53666666666667
 31
0.0
  0
LINE
  5
1298
330
18
100
AcDbEntity
  8
Object
100
AcDbLine
 10
6.793333333333333
 20
14.53666666666667
 30
0.0
 11
6.61
 21
14.53666666666667
 31
0.0
  0
LINE
  5
1299
330
18
100
AcDbEntity
  8
Object
100
AcDbLine
 10
6.61
 20
14.53666666666667
 30
0.0
 11
6.433333333333333
 21
14.53666666666667
 31
0.0
  0
LINE
  5
129A
330
18
100
AcDbEntity
  8
Object
100
AcDbLine
 10
6.433333333333333
 20
14.53666666666667
 30
0.0
 11
6.264444444444444
 21
14.53666666666667
 31
0.0
  0
LINE
  5
129B
330
18
100
AcDbEntity
  8
Object
100
AcDbLine
 10
6.264444444444444
 20
14.53666666666667
 30
0.0
 11
6.104444444444444
 21
14.53666666666667
 31
0.0
  0
LINE
  5
129C
330
18
100
AcDbEntity
  8
Object
100
AcDbLine
 10
6.104444444444444
 20
14.53666666666667
 30
0.0
 11
5.955555555555555
 21
14.53666666666667
 31
0.0
  0
LINE
  5
129D
330
18
100
AcDbEntity
  8
Object
100
AcDbLine
 10
5.955555555555555
 20
14.53666666666667
 30
0.0
 11
5.816666666666666
 21
14.53666666666667
 31
0.0
  0
LINE
  5
129E
330
18
100
AcDbEntity
  8
Object
100
AcDbLine
 10
5.816666666666666
 20
14.53666666666667
 30
0.0
 11
5.69
 21
14.53666666666667
 31
0.0
  0
LINE
  5
129F
330
18
100
AcDbEntity
  8
Object
100
AcDbLine
 10
5.69
 20
14.53666666666667
 30
0.0
 11
5.576666666666667
 21
14.53666666666667
 31
0.0
  0
LINE
  5
12A0
330
18
100
AcDbEntity
  8
Object
100
AcDbLine
 10
5.576666666666667
 20
14.53666666666667
 30
0.0
 11
5.477777777777777
 21
14.53666666666667
 31
0.0
  0
LINE
  5
12A1
330
18
100
AcDbEntity
  8
Object
100
AcDbLine
 10
5.477777777777777
 20
14.53666666666667
 30
0.0
 11
5.393333333333333
 21
14.53666666666667
 31
0.0
  0
LINE
  5
12A2
330
18
100
AcDbEntity
  8
Object
100
AcDbLine
 10
5.393333333333333
 20
14.53666666666667
 30
0.0
 11
5.323333333333333
 21
14.53666666666667
 31
0.0
  0
LINE
  5
12A3
330
18
100
AcDbEntity
  8
Object
100
AcDbLine
 10
5.323333333333333
 20
14.53666666666667
 30
0.0
 11
5.268888888888889
 21
14.53666666666667
 31
0.0
  0
LINE
  5
12A4
330
18
100
AcDbEntity
  8
Object
100
AcDbLine
 10
5.268888888888889
 20
14.53666666666667
 30
0.0
 11
5.23111111111111
 21
14.53666666666667
 31
0.0
  0
LINE
  5
12A5
330
18
100
AcDbEntity
  8
Object
100
AcDbLine
 10
5.23111111111111
 20
14.53666666666667
 30
0.0
 11
5.208888888888888
 21
14.53666666666667
 31
0.0
  0
LINE
  5
12A6
330
18
100
AcDbEntity
  8
Object
100
AcDbLine
 10
5.208888888888888
 20
14.53666666666667
 30
0.0
 11
4.963333333333332
 21
14.53666666666667
 31
0.0
  0
LINE
  5
12A7
330
18
100
AcDbEntity
  8
Object
100
AcDbLine
 10
4.963333333333332
 20
14.53666666666667
 30
0.0
 11
4.712222222222222
 21
14.53666666666667
 31
0.0
  0
LINE
  5
12A8
330
18
100
AcDbEntity
  8
Object
100
AcDbLine
 10
13.43222222222222
 20
18.53666666666666
 30
0.0
 11
13.30777777777778
 21
18.53666666666666
 31
0.0
  0
LINE
  5
12A9
330
18
100
AcDbEntity
  8
Object
100
AcDbLine
 10
13.30777777777778
 20
18.53666666666666
 30
0.0
 11
13.07666666666666
 21
18.53666666666666
 31
0.0
  0
LINE
  5
12AA
330
18
100
AcDbEntity
  8
Object
100
AcDbLine
 10
13.07666666666666
 20
18.53666666666666
 30
0.0
 11
13.06444444444444
 21
18.53666666666666
 31
0.0
  0
LINE
  5
12AB
330
18
100
AcDbEntity
  8
Object
100
AcDbLine
 10
13.06444444444444
 20
18.53666666666666
 30
0.0
 11
13.03777777777778
 21
18.53666666666666
 31
0.0
  0
LINE
  5
12AC
330
18
100
AcDbEntity
  8
Object
100
AcDbLine
 10
13.03777777777778
 20
18.53666666666666
 30
0.0
 11
12.99666666666666
 21
18.53666666666666
 31
0.0
  0
LINE
  5
12AD
330
18
100
AcDbEntity
  8
Object
100
AcDbLine
 10
12.99666666666666
 20
18.53666666666666
 30
0.0
 11
12.94555555555555
 21
18.53666666666666
 31
0.0
  0
LINE
  5
12AE
330
18
100
AcDbEntity
  8
Object
100
AcDbLine
 10
12.94555555555555
 20
18.53666666666666
 30
0.0
 11
12.88444444444444
 21
18.53666666666666
 31
0.0
  0
LINE
  5
12AF
330
18
100
AcDbEntity
  8
Object
100
AcDbLine
 10
12.88444444444444
 20
18.53666666666666
 30
0.0
 11
12.81777777777778
 21
18.53666666666666
 31
0.0
  0
LINE
  5
12B0
330
18
100
AcDbEntity
  8
Object
100
AcDbLine
 10
12.81777777777778
 20
18.53666666666666
 30
0.0
 11
12.74777777777778
 21
18.53666666666666
 31
0.0
  0
LINE
  5
12B1
330
18
100
AcDbEntity
  8
Object
100
AcDbLine
 10
12.74777777777778
 20
18.53666666666666
 30
0.0
 11
7.567777777777777
 21
18.53666666666666
 31
0.0
  0
LINE
  5
12B2
330
18
100
AcDbEntity
  8
Object
100
AcDbLine
 10
7.567777777777777
 20
18.53666666666666
 30
0.0
 11
7.497777777777777
 21
18.53666666666666
 31
0.0
  0
LINE
  5
12B3
330
18
100
AcDbEntity
  8
Object
100
AcDbLine
 10
7.497777777777777
 20
18.53666666666666
 30
0.0
 11
7.431111111111111
 21
18.53666666666666
 31
0.0
  0
LINE
  5
12B4
330
18
100
AcDbEntity
  8
Object
100
AcDbLine
 10
7.431111111111111
 20
18.53666666666666
 30
0.0
 11
7.37
 21
18.53666666666666
 31
0.0
  0
LINE
  5
12B5
330
18
100
AcDbEntity
  8
Object
100
AcDbLine
 10
7.37
 20
18.53666666666666
 30
0.0
 11
7.318888888888888
 21
18.53666666666666
 31
0.0
  0
LINE
  5
12B6
330
18
100
AcDbEntity
  8
Object
100
AcDbLine
 10
7.318888888888888
 20
18.53666666666666
 30
0.0
 11
7.277777777777777
 21
18.53666666666666
 31
0.0
  0
LINE
  5
12B7
330
18
100
AcDbEntity
  8
Object
100
AcDbLine
 10
7.277777777777777
 20
18.53666666666666
 30
0.0
 11
7.251111111111111
 21
18.53666666666666
 31
0.0
  0
LINE
  5
12B8
330
18
100
AcDbEntity
  8
Object
100
AcDbLine
 10
7.251111111111111
 20
18.53666666666666
 30
0.0
 11
7.238888888888888
 21
18.53666666666666
 31
0.0
  0
LINE
  5
12B9
330
18
100
AcDbEntity
  8
Object
100
AcDbLine
 10
7.238888888888888
 20
18.53666666666666
 30
0.0
 11
7.007777777777778
 21
18.53666666666666
 31
0.0
  0
LINE
  5
12BA
330
18
100
AcDbEntity
  8
Object
100
AcDbLine
 10
7.007777777777778
 20
18.53666666666666
 30
0.0
 11
6.882222222222222
 21
18.53666666666666
 31
0.0
  0
LINE
  5
12BB
330
18
100
AcDbEntity
  8
Object
100
AcDbLine
 10
7.195555555555555
 20
16.35111111111111
 30
0.0
 11
7.204444444444444
 21
16.53666666666666
 31
0.0
  0
LINE
  5
12BC
330
18
100
AcDbEntity
  8
Object
100
AcDbLine
 10
7.204444444444444
 20
16.53666666666666
 30
0.0
 11
6.971111111111111
 21
16.53666666666666
 31
0.0
  0
LINE
  5
12BD
330
18
100
AcDbEntity
  8
Object
100
AcDbLine
 10
7.195555555555555
 20
16.35111111111111
 30
0.0
 11
7.169999999999999
 21
16.16888888888889
 31
0.0
  0
LINE
  5
12BE
330
18
100
AcDbEntity
  8
Object
100
AcDbLine
 10
7.169999999999999
 20
16.16888888888889
 30
0.0
 11
7.127777777777778
 21
15.98888888888889
 31
0.0
  0
LINE
  5
12BF
330
18
100
AcDbEntity
  8
Object
100
AcDbLine
 10
7.127777777777778
 20
15.98888888888889
 30
0.0
 11
7.068888888888888
 21
15.81333333333333
 31
0.0
  0
LINE
  5
12C0
330
18
100
AcDbEntity
  8
Object
100
AcDbLine
 10
7.068888888888888
 20
15.81333333333333
 30
0.0
 11
6.994444444444444
 21
15.64444444444444
 31
0.0
  0
LINE
  5
12C1
330
18
100
AcDbEntity
  8
Object
100
AcDbLine
 10
6.994444444444444
 20
15.64444444444444
 30
0.0
 11
6.905555555555555
 21
15.48333333333333
 31
0.0
  0
LINE
  5
12C2
330
18
100
AcDbEntity
  8
Object
100
AcDbLine
 10
6.905555555555555
 20
15.48333333333333
 30
0.0
 11
6.801111111111111
 21
15.33111111111111
 31
0.0
  0
LINE
  5
12C3
330
18
100
AcDbEntity
  8
Object
100
AcDbLine
 10
6.801111111111111
 20
15.33111111111111
 30
0.0
 11
6.683333333333333
 21
15.18888888888889
 31
0.0
  0
LINE
  5
12C4
330
18
100
AcDbEntity
  8
Object
100
AcDbLine
 10
6.683333333333333
 20
15.18888888888889
 30
0.0
 11
6.553333333333333
 21
15.05777777777778
 31
0.0
  0
LINE
  5
12C5
330
18
100
AcDbEntity
  8
Object
100
AcDbLine
 10
6.553333333333333
 20
15.05777777777778
 30
0.0
 11
6.411111111111111
 21
14.94
 31
0.0
  0
LINE
  5
12C6
330
18
100
AcDbEntity
  8
Object
100
AcDbLine
 10
6.411111111111111
 20
14.94
 30
0.0
 11
6.258888888888888
 21
14.83555555555555
 31
0.0
  0
LINE
  5
12C7
330
18
100
AcDbEntity
  8
Object
100
AcDbLine
 10
6.258888888888888
 20
14.83555555555555
 30
0.0
 11
6.097777777777777
 21
14.74555555555555
 31
0.0
  0
LINE
  5
12C8
330
18
100
AcDbEntity
  8
Object
100
AcDbLine
 10
6.097777777777777
 20
14.74555555555555
 30
0.0
 11
5.929999999999999
 21
14.67111111111111
 31
0.0
  0
LINE
  5
12C9
330
18
100
AcDbEntity
  8
Object
100
AcDbLine
 10
5.929999999999999
 20
14.67111111111111
 30
0.0
 11
5.754444444444444
 21
14.61222222222222
 31
0.0
  0
LINE
  5
12CA
330
18
100
AcDbEntity
  8
Object
100
AcDbLine
 10
5.754444444444444
 20
14.61222222222222
 30
0.0
 11
5.575555555555555
 21
14.57
 31
0.0
  0
LINE
  5
12CB
330
18
100
AcDbEntity
  8
Object
100
AcDbLine
 10
5.575555555555555
 20
14.57
 30
0.0
 11
5.393333333333333
 21
14.54444444444444
 31
0.0
  0
LINE
  5
12CC
330
18
100
AcDbEntity
  8
Object
100
AcDbLine
 10
5.393333333333333
 20
14.54444444444444
 30
0.0
 11
5.208888888888888
 21
14.53666666666667
 31
0.0
  0
LINE
  5
12CD
330
18
100
AcDbEntity
  8
Object
100
AcDbLine
 10
5.208888888888888
 20
14.53666666666667
 30
0.0
 11
4.963333333333332
 21
14.53666666666667
 31
0.0
  0
LINE
  5
12CE
330
18
100
AcDbEntity
  8
Object
100
AcDbLine
 10
13.34444444444444
 20
16.53666666666666
 30
0.0
 11
13.30777777777778
 21
18.53666666666666
 31
0.0
  0
LINE
  5
12CF
330
18
100
AcDbEntity
  8
Object
100
AcDbLine
 10
13.30777777777778
 20
18.53666666666666
 30
0.0
 11
13.07666666666666
 21
18.53666666666666
 31
0.0
  0
LINE
  5
12D0
330
18
100
AcDbEntity
  8
Object
100
AcDbLine
 10
15.17222222222222
 20
14.54444444444444
 30
0.0
 11
15.35222222222222
 21
14.53666666666667
 31
0.0
  0
LINE
  5
12D1
330
18
100
AcDbEntity
  8
Object
100
AcDbLine
 10
15.35222222222222
 20
14.53666666666667
 30
0.0
 11
15.10666666666667
 21
14.53666666666667
 31
0.0
  0
LINE
  5
12D2
330
18
100
AcDbEntity
  8
Object
100
AcDbLine
 10
15.17222222222222
 20
14.54444444444444
 30
0.0
 11
15.08
 21
14.55444444444444
 31
0.0
  0
LINE
  5
12D3
330
18
100
AcDbEntity
  8
Object
100
AcDbLine
 10
15.10666666666667
 20
14.53666666666667
 30
0.0
 11
14.92222222222222
 21
14.54444444444444
 31
0.0
  0
LINE
  5
12D4
330
18
100
AcDbEntity
  8
Object
100
AcDbLine
 10
14.92222222222222
 20
14.54444444444444
 30
0.0
 11
14.74
 21
14.57
 31
0.0
  0
LINE
  5
12D5
330
18
100
AcDbEntity
  8
Object
100
AcDbLine
 10
14.89444444444444
 20
14.58888888888889
 30
0.0
 11
14.98777777777777
 21
14.57
 31
0.0
  0
LINE
  5
12D6
330
18
100
AcDbEntity
  8
Object
100
AcDbLine
 10
14.98777777777777
 20
14.57
 30
0.0
 11
15.08
 21
14.55444444444444
 31
0.0
  0
LINE
  5
12D7
330
18
100
AcDbEntity
  8
Object
100
AcDbLine
 10
14.70666666666667
 20
14.64222222222222
 30
0.0
 11
14.8
 21
14.61333333333333
 31
0.0
  0
LINE
  5
12D8
330
18
100
AcDbEntity
  8
Object
100
AcDbLine
 10
14.8
 20
14.61333333333333
 30
0.0
 11
14.89444444444444
 21
14.58888888888889
 31
0.0
  0
LINE
  5
12D9
330
18
100
AcDbEntity
  8
Object
100
AcDbLine
 10
14.74
 20
14.57
 30
0.0
 11
14.56111111111111
 21
14.61222222222222
 31
0.0
  0
LINE
  5
12DA
330
18
100
AcDbEntity
  8
Object
100
AcDbLine
 10
14.56111111111111
 20
14.61222222222222
 30
0.0
 11
14.38555555555555
 21
14.67111111111111
 31
0.0
  0
LINE
  5
12DB
330
18
100
AcDbEntity
  8
Object
100
AcDbLine
 10
14.52222222222222
 20
14.71555555555555
 30
0.0
 11
14.61444444444444
 21
14.67666666666666
 31
0.0
  0
LINE
  5
12DC
330
18
100
AcDbEntity
  8
Object
100
AcDbLine
 10
14.61444444444444
 20
14.67666666666666
 30
0.0
 11
14.70666666666667
 21
14.64222222222222
 31
0.0
  0
LINE
  5
12DD
330
18
100
AcDbEntity
  8
Object
100
AcDbLine
 10
14.34222222222222
 20
14.80888888888889
 30
0.0
 11
14.43111111111111
 21
14.76
 31
0.0
  0
LINE
  5
12DE
330
18
100
AcDbEntity
  8
Object
100
AcDbLine
 10
14.43111111111111
 20
14.76
 30
0.0
 11
14.52222222222222
 21
14.71555555555555
 31
0.0
  0
LINE
  5
12DF
330
18
100
AcDbEntity
  8
Object
100
AcDbLine
 10
14.38555555555555
 20
14.67111111111111
 30
0.0
 11
14.21777777777777
 21
14.74555555555555
 31
0.0
  0
LINE
  5
12E0
330
18
100
AcDbEntity
  8
Object
100
AcDbLine
 10
14.21777777777777
 20
14.74555555555555
 30
0.0
 11
14.05666666666667
 21
14.83555555555555
 31
0.0
  0
LINE
  5
12E1
330
18
100
AcDbEntity
  8
Object
100
AcDbLine
 10
14.34222222222222
 20
14.80888888888889
 30
0.0
 11
14.25444444444444
 21
14.86222222222222
 31
0.0
  0
LINE
  5
12E2
330
18
100
AcDbEntity
  8
Object
100
AcDbLine
 10
14.08777777777778
 20
14.98333333333333
 30
0.0
 11
14.17
 21
14.92111111111111
 31
0.0
  0
LINE
  5
12E3
330
18
100
AcDbEntity
  8
Object
100
AcDbLine
 10
14.17
 20
14.92111111111111
 30
0.0
 11
14.25444444444444
 21
14.86222222222222
 31
0.0
  0
LINE
  5
12E4
330
18
100
AcDbEntity
  8
Object
100
AcDbLine
 10
14.05666666666667
 20
14.83555555555555
 30
0.0
 11
13.90444444444444
 21
14.94
 31
0.0
  0
LINE
  5
12E5
330
18
100
AcDbEntity
  8
Object
100
AcDbLine
 10
13.90444444444444
 20
14.94
 30
0.0
 11
13.76222222222222
 21
15.05777777777778
 31
0.0
  0
LINE
  5
12E6
330
18
100
AcDbEntity
  8
Object
100
AcDbLine
 10
13.93333333333333
 20
15.12222222222222
 30
0.0
 11
14.00888888888889
 21
15.05111111111111
 31
0.0
  0
LINE
  5
12E7
330
18
100
AcDbEntity
  8
Object
100
AcDbLine
 10
14.00888888888889
 20
15.05111111111111
 30
0.0
 11
14.08777777777778
 21
14.98333333333333
 31
0.0
  0
LINE
  5
12E8
330
18
100
AcDbEntity
  8
Object
100
AcDbLine
 10
13.76222222222222
 20
15.05777777777778
 30
0.0
 11
13.63222222222222
 21
15.18888888888889
 31
0.0
  0
LINE
  5
12E9
330
18
100
AcDbEntity
  8
Object
100
AcDbLine
 10
13.63222222222222
 20
15.18888888888889
 30
0.0
 11
13.51444444444444
 21
15.33111111111111
 31
0.0
  0
LINE
  5
12EA
330
18
100
AcDbEntity
  8
Object
100
AcDbLine
 10
13.67333333333333
 20
15.44222222222222
 30
0.0
 11
13.61888888888889
 21
15.52888888888889
 31
0.0
  0
LINE
  5
12EB
330
18
100
AcDbEntity
  8
Object
100
AcDbLine
 10
13.41
 20
15.48333333333333
 30
0.0
 11
13.51444444444444
 21
15.33111111111111
 31
0.0
  0
LINE
  5
12EC
330
18
100
AcDbEntity
  8
Object
100
AcDbLine
 10
13.52555555555555
 20
15.70777777777778
 30
0.0
 11
13.57
 21
15.61777777777778
 31
0.0
  0
LINE
  5
12ED
330
18
100
AcDbEntity
  8
Object
100
AcDbLine
 10
13.57
 20
15.61777777777778
 30
0.0
 11
13.61888888888889
 21
15.52888888888889
 31
0.0
  0
LINE
  5
12EE
330
18
100
AcDbEntity
  8
Object
100
AcDbLine
 10
13.32111111111111
 20
15.64444444444444
 30
0.0
 11
13.41
 21
15.48333333333333
 31
0.0
  0
LINE
  5
12EF
330
18
100
AcDbEntity
  8
Object
100
AcDbLine
 10
13.45222222222222
 20
15.89222222222222
 30
0.0
 11
13.48666666666666
 21
15.8
 31
0.0
  0
LINE
  5
12F0
330
18
100
AcDbEntity
  8
Object
100
AcDbLine
 10
13.48666666666666
 20
15.8
 30
0.0
 11
13.52555555555555
 21
15.70777777777778
 31
0.0
  0
LINE
  5
12F1
330
18
100
AcDbEntity
  8
Object
100
AcDbLine
 10
13.24666666666666
 20
15.81333333333333
 30
0.0
 11
13.32111111111111
 21
15.64444444444444
 31
0.0
  0
LINE
  5
12F2
330
18
100
AcDbEntity
  8
Object
100
AcDbLine
 10
13.39888888888889
 20
16.07888888888889
 30
0.0
 11
13.42333333333333
 21
15.98555555555555
 31
0.0
  0
LINE
  5
12F3
330
18
100
AcDbEntity
  8
Object
100
AcDbLine
 10
13.42333333333333
 20
15.98555555555555
 30
0.0
 11
13.45222222222222
 21
15.89222222222222
 31
0.0
  0
LINE
  5
12F4
330
18
100
AcDbEntity
  8
Object
100
AcDbLine
 10
13.18777777777778
 20
15.98888888888889
 30
0.0
 11
13.24666666666666
 21
15.81333333333333
 31
0.0
  0
LINE
  5
12F5
330
18
100
AcDbEntity
  8
Object
100
AcDbLine
 10
13.36333333333333
 20
16.26444444444444
 30
0.0
 11
13.37888888888889
 21
16.17222222222222
 31
0.0
  0
LINE
  5
12F6
330
18
100
AcDbEntity
  8
Object
100
AcDbLine
 10
13.37888888888889
 20
16.17222222222222
 30
0.0
 11
13.39888888888889
 21
16.07888888888889
 31
0.0
  0
LINE
  5
12F7
330
18
100
AcDbEntity
  8
Object
100
AcDbLine
 10
13.14555555555555
 20
16.16888888888889
 30
0.0
 11
13.18777777777778
 21
15.98888888888889
 31
0.0
  0
LINE
  5
12F8
330
18
100
AcDbEntity
  8
Object
100
AcDbLine
 10
13.36333333333333
 20
16.26444444444444
 30
0.0
 11
13.35333333333333
 21
16.35666666666666
 31
0.0
  0
LINE
  5
12F9
330
18
100
AcDbEntity
  8
Object
100
AcDbLine
 10
13.14555555555555
 20
16.16888888888889
 30
0.0
 11
13.12
 21
16.35111111111111
 31
0.0
  0
LINE
  5
12FA
330
18
100
AcDbEntity
  8
Object
100
AcDbLine
 10
13.12
 20
16.35111111111111
 30
0.0
 11
13.11111111111111
 21
16.53666666666666
 31
0.0
  0
LINE
  5
12FB
330
18
100
AcDbEntity
  8
Object
100
AcDbLine
 10
13.11111111111111
 20
16.53666666666666
 30
0.0
 11
13.34444444444444
 21
16.53666666666666
 31
0.0
  0
LINE
  5
12FC
330
18
100
AcDbEntity
  8
Object
100
AcDbLine
 10
13.34444444444444
 20
16.53666666666666
 30
0.0
 11
13.35333333333333
 21
16.35666666666666
 31
0.0
  0
LINE
  5
12FD
330
18
100
AcDbEntity
  8
Object
100
AcDbLine
 10
7.497777777777777
 20
18.53666666666666
 30
0.0
 11
7.567777777777777
 21
18.53666666666666
 31
0.0
  0
LINE
  5
12FE
330
18
100
AcDbEntity
  8
Object
100
AcDbLine
 10
7.567777777777777
 20
18.53666666666666
 30
0.0
 11
7.567777777777777
 21
16.53666666666666
 31
0.0
  0
LINE
  5
12FF
330
18
100
AcDbEntity
  8
Object
100
AcDbLine
 10
7.497777777777777
 20
18.53666666666666
 30
0.0
 11
7.431111111111111
 21
18.53666666666666
 31
0.0
  0
LINE
  5
1300
330
18
100
AcDbEntity
  8
Object
100
AcDbLine
 10
7.431111111111111
 20
18.53666666666666
 30
0.0
 11
7.37
 21
18.53666666666666
 31
0.0
  0
LINE
  5
1301
330
18
100
AcDbEntity
  8
Object
100
AcDbLine
 10
7.37
 20
18.53666666666666
 30
0.0
 11
7.318888888888888
 21
18.53666666666666
 31
0.0
  0
LINE
  5
1302
330
18
100
AcDbEntity
  8
Object
100
AcDbLine
 10
7.318888888888888
 20
18.53666666666666
 30
0.0
 11
7.277777777777777
 21
18.53666666666666
 31
0.0
  0
LINE
  5
1303
330
18
100
AcDbEntity
  8
Object
100
AcDbLine
 10
7.277777777777777
 20
18.53666666666666
 30
0.0
 11
7.251111111111111
 21
18.53666666666666
 31
0.0
  0
LINE
  5
1304
330
18
100
AcDbEntity
  8
Object
100
AcDbLine
 10
7.251111111111111
 20
18.53666666666666
 30
0.0
 11
7.238888888888888
 21
18.53666666666666
 31
0.0
  0
LINE
  5
1305
330
18
100
AcDbEntity
  8
Object
100
AcDbLine
 10
10.78222222222222
 20
14.56555555555555
 30
0.0
 11
10.78222222222222
 21
14.55111111111111
 31
0.0
  0
LINE
  5
1306
330
18
100
AcDbEntity
  8
Object
100
AcDbLine
 10
12.74777777777778
 20
14.57
 30
0.0
 11
12.74777777777778
 21
14.54444444444444
 31
0.0
  0
LINE
  5
1307
330
18
100
AcDbEntity
  8
Object
100
AcDbLine
 10
12.74777777777778
 20
14.54444444444444
 30
0.0
 11
12.74777777777778
 21
14.53666666666667
 31
0.0
  0
LINE
  5
1308
330
18
100
AcDbEntity
  8
Object
100
AcDbLine
 10
10.78222222222222
 20
14.53666666666667
 30
0.0
 11
10.78222222222222
 21
14.54111111111111
 31
0.0
  0
LINE
  5
1309
330
18
100
AcDbEntity
  8
Object
100
AcDbLine
 10
10.78222222222222
 20
14.54111111111111
 30
0.0
 11
10.78222222222222
 21
14.55111111111111
 31
0.0
  0
LINE
  5
130A
330
18
100
AcDbEntity
  8
Object
100
AcDbLine
 10
10.78222222222222
 20
14.53666666666667
 30
0.0
 11
9.532222222222221
 21
14.53666666666667
 31
0.0
  0
LINE
  5
130B
330
18
100
AcDbEntity
  8
Object
100
AcDbLine
 10
7.567777777777777
 20
16.53666666666666
 30
0.0
 11
12.74777777777778
 21
16.53666666666666
 31
0.0
  0
LINE
  5
130C
330
18
100
AcDbEntity
  8
Object
100
AcDbLine
 10
12.74777777777778
 20
16.53666666666666
 30
0.0
 11
12.74777777777778
 21
16.35111111111111
 31
0.0
  0
LINE
  5
130D
330
18
100
AcDbEntity
  8
Object
100
AcDbLine
 10
12.74777777777778
 20
16.35111111111111
 30
0.0
 11
12.74777777777778
 21
16.16888888888889
 31
0.0
  0
LINE
  5
130E
330
18
100
AcDbEntity
  8
Object
100
AcDbLine
 10
12.74777777777778
 20
16.16888888888889
 30
0.0
 11
12.74777777777778
 21
15.98888888888889
 31
0.0
  0
LINE
  5
130F
330
18
100
AcDbEntity
  8
Object
100
AcDbLine
 10
12.74777777777778
 20
15.98888888888889
 30
0.0
 11
12.74777777777778
 21
15.81333333333333
 31
0.0
  0
LINE
  5
1310
330
18
100
AcDbEntity
  8
Object
100
AcDbLine
 10
12.74777777777778
 20
15.81333333333333
 30
0.0
 11
12.74777777777778
 21
15.64444444444444
 31
0.0
  0
LINE
  5
1311
330
18
100
AcDbEntity
  8
Object
100
AcDbLine
 10
12.74777777777778
 20
15.18888888888889
 30
0.0
 11
12.74777777777778
 21
15.33111111111111
 31
0.0
  0
LINE
  5
1312
330
18
100
AcDbEntity
  8
Object
100
AcDbLine
 10
12.74777777777778
 20
15.64444444444444
 30
0.0
 11
12.74777777777778
 21
15.48333333333333
 31
0.0
  0
LINE
  5
1313
330
18
100
AcDbEntity
  8
Object
100
AcDbLine
 10
12.74777777777778
 20
15.48333333333333
 30
0.0
 11
12.74777777777778
 21
15.33111111111111
 31
0.0
  0
LINE
  5
1314
330
18
100
AcDbEntity
  8
Object
100
AcDbLine
 10
12.74777777777778
 20
14.94
 30
0.0
 11
12.74777777777778
 21
15.05777777777778
 31
0.0
  0
LINE
  5
1315
330
18
100
AcDbEntity
  8
Object
100
AcDbLine
 10
12.74777777777778
 20
15.05777777777778
 30
0.0
 11
12.74777777777778
 21
15.18888888888889
 31
0.0
  0
LINE
  5
1316
330
18
100
AcDbEntity
  8
Object
100
AcDbLine
 10
12.74777777777778
 20
14.83555555555555
 30
0.0
 11
12.74777777777778
 21
14.94
 31
0.0
  0
LINE
  5
1317
330
18
100
AcDbEntity
  8
Object
100
AcDbLine
 10
9.532222222222221
 20
14.55111111111111
 30
0.0
 11
9.532222222222221
 21
14.56555555555555
 31
0.0
  0
LINE
  5
1318
330
18
100
AcDbEntity
  8
Object
100
AcDbLine
 10
12.74777777777778
 20
14.83555555555555
 30
0.0
 11
12.74777777777778
 21
14.74555555555555
 31
0.0
  0
LINE
  5
1319
330
18
100
AcDbEntity
  8
Object
100
AcDbLine
 10
12.74777777777778
 20
14.74555555555555
 30
0.0
 11
12.74777777777778
 21
14.67111111111111
 31
0.0
  0
LINE
  5
131A
330
18
100
AcDbEntity
  8
Object
100
AcDbLine
 10
12.74777777777778
 20
14.67111111111111
 30
0.0
 11
12.74777777777778
 21
14.61222222222222
 31
0.0
  0
LINE
  5
131B
330
18
100
AcDbEntity
  8
Object
100
AcDbLine
 10
12.74777777777778
 20
14.61222222222222
 30
0.0
 11
12.74777777777778
 21
14.57
 31
0.0
  0
LINE
  5
131C
330
18
100
AcDbEntity
  8
Object
100
AcDbLine
 10
9.532222222222221
 20
14.56555555555555
 30
0.0
 11
10.78222222222222
 21
14.56555555555555
 31
0.0
  0
LINE
  5
131D
330
18
100
AcDbEntity
  8
Object
100
AcDbLine
 10
9.532222222222221
 20
14.55111111111111
 30
0.0
 11
9.532222222222221
 21
14.54111111111111
 31
0.0
  0
LINE
  5
131E
330
18
100
AcDbEntity
  8
Object
100
AcDbLine
 10
9.532222222222221
 20
14.54111111111111
 30
0.0
 11
9.532222222222221
 21
14.53666666666667
 31
0.0
  0
LINE
  5
131F
330
18
100
AcDbEntity
  8
Object
100
AcDbLine
 10
15.10666666666667
 20
14.53666666666667
 30
0.0
 11
15.08444444444444
 21
14.53666666666667
 31
0.0
  0
LINE
  5
1320
330
18
100
AcDbEntity
  8
Object
100
AcDbLine
 10
15.08444444444444
 20
14.53666666666667
 30
0.0
 11
15.04666666666667
 21
14.53666666666667
 31
0.0
  0
LINE
  5
1321
330
18
100
AcDbEntity
  8
Object
100
AcDbLine
 10
15.04666666666667
 20
14.53666666666667
 30
0.0
 11
14.99222222222222
 21
14.53666666666667
 31
0.0
  0
LINE
  5
1322
330
18
100
AcDbEntity
  8
Object
100
AcDbLine
 10
14.99222222222222
 20
14.53666666666667
 30
0.0
 11
14.92222222222222
 21
14.53666666666667
 31
0.0
  0
LINE
  5
1323
330
18
100
AcDbEntity
  8
Object
100
AcDbLine
 10
14.92222222222222
 20
14.53666666666667
 30
0.0
 11
14.83777777777778
 21
14.53666666666667
 31
0.0
  0
LINE
  5
1324
330
18
100
AcDbEntity
  8
Object
100
AcDbLine
 10
14.83777777777778
 20
14.53666666666667
 30
0.0
 11
14.73888888888889
 21
14.53666666666667
 31
0.0
  0
LINE
  5
1325
330
18
100
AcDbEntity
  8
Object
100
AcDbLine
 10
14.73888888888889
 20
14.53666666666667
 30
0.0
 11
14.62555555555555
 21
14.53666666666667
 31
0.0
  0
LINE
  5
1326
330
18
100
AcDbEntity
  8
Object
100
AcDbLine
 10
14.62555555555555
 20
14.53666666666667
 30
0.0
 11
14.49888888888889
 21
14.53666666666667
 31
0.0
  0
LINE
  5
1327
330
18
100
AcDbEntity
  8
Object
100
AcDbLine
 10
14.59666666666666
 20
14.60222222222222
 30
0.0
 11
14.56111111111111
 21
14.61222222222222
 31
0.0
  0
LINE
  5
1328
330
18
100
AcDbEntity
  8
Object
100
AcDbLine
 10
14.56111111111111
 20
14.61222222222222
 30
0.0
 11
14.41777777777778
 21
14.65888888888889
 31
0.0
  0
LINE
  5
1329
330
18
100
AcDbEntity
  8
Object
100
AcDbLine
 10
14.36
 20
14.53666666666667
 30
0.0
 11
14.49888888888889
 21
14.53666666666667
 31
0.0
  0
LINE
  5
132A
330
18
100
AcDbEntity
  8
Object
100
AcDbLine
 10
14.41777777777778
 20
14.65888888888889
 30
0.0
 11
14.38555555555555
 21
14.67111111111111
 31
0.0
  0
LINE
  5
132B
330
18
100
AcDbEntity
  8
Object
100
AcDbLine
 10
14.38555555555555
 20
14.67111111111111
 30
0.0
 11
14.24555555555555
 21
14.73111111111111
 31
0.0
  0
LINE
  5
132C
330
18
100
AcDbEntity
  8
Object
100
AcDbLine
 10
14.21111111111111
 20
14.53666666666667
 30
0.0
 11
14.36
 21
14.53666666666667
 31
0.0
  0
LINE
  5
132D
330
18
100
AcDbEntity
  8
Object
100
AcDbLine
 10
14.24555555555555
 20
14.73111111111111
 30
0.0
 11
14.21777777777777
 21
14.74555555555555
 31
0.0
  0
LINE
  5
132E
330
18
100
AcDbEntity
  8
Object
100
AcDbLine
 10
14.21777777777777
 20
14.74555555555555
 30
0.0
 11
14.08111111111111
 21
14.82
 31
0.0
  0
LINE
  5
132F
330
18
100
AcDbEntity
  8
Object
100
AcDbLine
 10
14.05111111111111
 20
14.53666666666667
 30
0.0
 11
14.21111111111111
 21
14.53666666666667
 31
0.0
  0
LINE
  5
1330
330
18
100
AcDbEntity
  8
Object
100
AcDbLine
 10
14.08111111111111
 20
14.82
 30
0.0
 11
14.05666666666667
 21
14.83555555555555
 31
0.0
  0
LINE
  5
1331
330
18
100
AcDbEntity
  8
Object
100
AcDbLine
 10
14.05666666666667
 20
14.83555555555555
 30
0.0
 11
13.92555555555555
 21
14.92333333333333
 31
0.0
  0
LINE
  5
1332
330
18
100
AcDbEntity
  8
Object
100
AcDbLine
 10
13.88222222222222
 20
14.53666666666667
 30
0.0
 11
14.05111111111111
 21
14.53666666666667
 31
0.0
  0
LINE
  5
1333
330
18
100
AcDbEntity
  8
Object
100
AcDbLine
 10
13.92555555555555
 20
14.92333333333333
 30
0.0
 11
13.90444444444444
 21
14.94
 31
0.0
  0
LINE
  5
1334
330
18
100
AcDbEntity
  8
Object
100
AcDbLine
 10
13.90444444444444
 20
14.94
 30
0.0
 11
13.78
 21
15.04111111111111
 31
0.0
  0
LINE
  5
1335
330
18
100
AcDbEntity
  8
Object
100
AcDbLine
 10
13.70555555555555
 20
14.53666666666667
 30
0.0
 11
13.88222222222222
 21
14.53666666666667
 31
0.0
  0
LINE
  5
1336
330
18
100
AcDbEntity
  8
Object
100
AcDbLine
 10
13.78
 20
15.04111111111111
 30
0.0
 11
13.76222222222222
 21
15.05777777777778
 31
0.0
  0
LINE
  5
1337
330
18
100
AcDbEntity
  8
Object
100
AcDbLine
 10
13.76222222222222
 20
15.05777777777778
 30
0.0
 11
13.64666666666666
 21
15.17222222222222
 31
0.0
  0
LINE
  5
1338
330
18
100
AcDbEntity
  8
Object
100
AcDbLine
 10
13.64666666666666
 20
15.17222222222222
 30
0.0
 11
13.63222222222222
 21
15.18888888888889
 31
0.0
  0
LINE
  5
1339
330
18
100
AcDbEntity
  8
Object
100
AcDbLine
 10
13.63222222222222
 20
15.18888888888889
 30
0.0
 11
13.52555555555555
 21
15.31555555555555
 31
0.0
  0
LINE
  5
133A
330
18
100
AcDbEntity
  8
Object
100
AcDbLine
 10
13.52222222222222
 20
14.53666666666667
 30
0.0
 11
13.70555555555555
 21
14.53666666666667
 31
0.0
  0
LINE
  5
133B
330
18
100
AcDbEntity
  8
Object
100
AcDbLine
 10
13.52555555555555
 20
15.31555555555555
 30
0.0
 11
13.51444444444444
 21
15.33111111111111
 31
0.0
  0
LINE
  5
133C
330
18
100
AcDbEntity
  8
Object
100
AcDbLine
 10
13.51444444444444
 20
15.33111111111111
 30
0.0
 11
13.41888888888889
 21
15.46888888888889
 31
0.0
  0
LINE
  5
133D
330
18
100
AcDbEntity
  8
Object
100
AcDbLine
 10
13.33333333333333
 20
14.53666666666667
 30
0.0
 11
13.52222222222222
 21
14.53666666666667
 31
0.0
  0
LINE
  5
133E
330
18
100
AcDbEntity
  8
Object
100
AcDbLine
 10
13.41888888888889
 20
15.46888888888889
 30
0.0
 11
13.41
 21
15.48333333333333
 31
0.0
  0
LINE
  5
133F
330
18
100
AcDbEntity
  8
Object
100
AcDbLine
 10
13.41
 20
15.48333333333333
 30
0.0
 11
13.32666666666666
 21
15.63222222222222
 31
0.0
  0
LINE
  5
1340
330
18
100
AcDbEntity
  8
Object
100
AcDbLine
 10
13.32666666666666
 20
15.63222222222222
 30
0.0
 11
13.32111111111111
 21
15.64444444444444
 31
0.0
  0
LINE
  5
1341
330
18
100
AcDbEntity
  8
Object
100
AcDbLine
 10
13.32111111111111
 20
15.64444444444444
 30
0.0
 11
13.25
 21
15.80333333333333
 31
0.0
  0
LINE
  5
1342
330
18
100
AcDbEntity
  8
Object
100
AcDbLine
 10
13.19
 20
15.98111111111111
 30
0.0
 11
13.18777777777778
 21
15.98888888888889
 31
0.0
  0
LINE
  5
1343
330
18
100
AcDbEntity
  8
Object
100
AcDbLine
 10
13.18777777777778
 20
15.98888888888889
 30
0.0
 11
13.14666666666666
 21
16.16333333333333
 31
0.0
  0
LINE
  5
1344
330
18
100
AcDbEntity
  8
Object
100
AcDbLine
 10
13.14
 20
14.53666666666667
 30
0.0
 11
13.33333333333333
 21
14.53666666666667
 31
0.0
  0
LINE
  5
1345
330
18
100
AcDbEntity
  8
Object
100
AcDbLine
 10
13.14666666666666
 20
16.16333333333333
 30
0.0
 11
13.14555555555555
 21
16.16888888888889
 31
0.0
  0
LINE
  5
1346
330
18
100
AcDbEntity
  8
Object
100
AcDbLine
 10
13.14555555555555
 20
16.16888888888889
 30
0.0
 11
13.12
 21
16.34888888888889
 31
0.0
  0
LINE
  5
1347
330
18
100
AcDbEntity
  8
Object
100
AcDbLine
 10
13.12
 20
16.34888888888889
 30
0.0
 11
13.13222222222222
 21
16.25888888888889
 31
0.0
  0
LINE
  5
1348
330
18
100
AcDbEntity
  8
Object
100
AcDbLine
 10
13.14666666666666
 20
16.16333333333333
 30
0.0
 11
13.14555555555555
 21
16.16444444444444
 31
0.0
  0
LINE
  5
1349
330
18
100
AcDbEntity
  8
Object
100
AcDbLine
 10
12.94444444444444
 20
14.53666666666667
 30
0.0
 11
13.14
 21
14.53666666666667
 31
0.0
  0
LINE
  5
134A
330
18
100
AcDbEntity
  8
Object
100
AcDbLine
 10
12.82555555555555
 20
16.53666666666666
 30
0.0
 11
12.74777777777778
 21
16.53666666666666
 31
0.0
  0
LINE
  5
134B
330
18
100
AcDbEntity
  8
Object
100
AcDbLine
 10
12.74777777777778
 20
14.53666666666667
 30
0.0
 11
12.94444444444444
 21
14.53666666666667
 31
0.0
  0
LINE
  5
134C
330
18
100
AcDbEntity
  8
Object
100
AcDbLine
 10
7.567777777777777
 20
16.53666666666666
 30
0.0
 11
7.567777777777777
 21
16.35111111111111
 31
0.0
  0
LINE
  5
134D
330
18
100
AcDbEntity
  8
Object
100
AcDbLine
 10
7.567777777777777
 20
16.35111111111111
 30
0.0
 11
7.567777777777777
 21
16.16888888888889
 31
0.0
  0
LINE
  5
134E
330
18
100
AcDbEntity
  8
Object
100
AcDbLine
 10
7.567777777777777
 20
16.16888888888889
 30
0.0
 11
7.567777777777777
 21
15.98888888888889
 31
0.0
  0
LINE
  5
134F
330
18
100
AcDbEntity
  8
Object
100
AcDbLine
 10
7.567777777777777
 20
15.98888888888889
 30
0.0
 11
7.567777777777777
 21
15.81333333333333
 31
0.0
  0
LINE
  5
1350
330
18
100
AcDbEntity
  8
Object
100
AcDbLine
 10
7.567777777777777
 20
15.81333333333333
 30
0.0
 11
7.567777777777777
 21
15.64444444444444
 31
0.0
  0
LINE
  5
1351
330
18
100
AcDbEntity
  8
Object
100
AcDbLine
 10
7.567777777777777
 20
15.64444444444444
 30
0.0
 11
7.567777777777777
 21
15.48333333333333
 31
0.0
  0
LINE
  5
1352
330
18
100
AcDbEntity
  8
Object
100
AcDbLine
 10
7.567777777777777
 20
15.48333333333333
 30
0.0
 11
7.567777777777777
 21
15.33111111111111
 31
0.0
  0
LINE
  5
1353
330
18
100
AcDbEntity
  8
Object
100
AcDbLine
 10
7.567777777777777
 20
15.33111111111111
 30
0.0
 11
7.567777777777777
 21
15.18888888888889
 31
0.0
  0
LINE
  5
1354
330
18
100
AcDbEntity
  8
Object
100
AcDbLine
 10
7.567777777777777
 20
15.18888888888889
 30
0.0
 11
7.567777777777777
 21
15.05777777777778
 31
0.0
  0
LINE
  5
1355
330
18
100
AcDbEntity
  8
Object
100
AcDbLine
 10
7.567777777777777
 20
15.05777777777778
 30
0.0
 11
7.567777777777777
 21
14.94
 31
0.0
  0
LINE
  5
1356
330
18
100
AcDbEntity
  8
Object
100
AcDbLine
 10
7.567777777777777
 20
14.94
 30
0.0
 11
7.567777777777777
 21
14.83555555555555
 31
0.0
  0
LINE
  5
1357
330
18
100
AcDbEntity
  8
Object
100
AcDbLine
 10
7.567777777777777
 20
14.83555555555555
 30
0.0
 11
7.567777777777777
 21
14.74555555555555
 31
0.0
  0
LINE
  5
1358
330
18
100
AcDbEntity
  8
Object
100
AcDbLine
 10
7.567777777777777
 20
14.74555555555555
 30
0.0
 11
7.567777777777777
 21
14.67111111111111
 31
0.0
  0
LINE
  5
1359
330
18
100
AcDbEntity
  8
Object
100
AcDbLine
 10
7.567777777777777
 20
14.67111111111111
 30
0.0
 11
7.567777777777777
 21
14.61222222222222
 31
0.0
  0
LINE
  5
135A
330
18
100
AcDbEntity
  8
Object
100
AcDbLine
 10
7.567777777777777
 20
14.61222222222222
 30
0.0
 11
7.567777777777777
 21
14.57
 31
0.0
  0
LINE
  5
135B
330
18
100
AcDbEntity
  8
Object
100
AcDbLine
 10
7.567777777777777
 20
14.57
 30
0.0
 11
7.567777777777777
 21
14.54444444444444
 31
0.0
  0
LINE
  5
135C
330
18
100
AcDbEntity
  8
Object
100
AcDbLine
 10
7.567777777777777
 20
14.54444444444444
 30
0.0
 11
7.567777777777777
 21
14.53666666666667
 31
0.0
  0
LINE
  5
135D
330
18
100
AcDbEntity
  8
Object
100
AcDbLine
 10
7.567777777777777
 20
16.53666666666666
 30
0.0
 11
7.49
 21
16.53666666666666
 31
0.0
  0
LINE
  5
135E
330
18
100
AcDbEntity
  8
Object
100
AcDbLine
 10
7.49
 20
16.53666666666666
 30
0.0
 11
7.416666666666666
 21
16.53666666666666
 31
0.0
  0
LINE
  5
135F
330
18
100
AcDbEntity
  8
Object
100
AcDbLine
 10
7.371111111111111
 20
14.53666666666667
 30
0.0
 11
7.567777777777777
 21
14.53666666666667
 31
0.0
  0
LINE
  5
1360
330
18
100
AcDbEntity
  8
Object
100
AcDbLine
 10
7.416666666666666
 20
16.53666666666666
 30
0.0
 11
7.348888888888889
 21
16.53666666666666
 31
0.0
  0
LINE
  5
1361
330
18
100
AcDbEntity
  8
Object
100
AcDbLine
 10
7.348888888888889
 20
16.53666666666666
 30
0.0
 11
7.292222222222222
 21
16.53666666666666
 31
0.0
  0
LINE
  5
1362
330
18
100
AcDbEntity
  8
Object
100
AcDbLine
 10
7.292222222222222
 20
16.53666666666666
 30
0.0
 11
7.247777777777777
 21
16.53666666666666
 31
0.0
  0
LINE
  5
1363
330
18
100
AcDbEntity
  8
Object
100
AcDbLine
 10
7.247777777777777
 20
16.53666666666666
 30
0.0
 11
7.217777777777778
 21
16.53666666666666
 31
0.0
  0
LINE
  5
1364
330
18
100
AcDbEntity
  8
Object
100
AcDbLine
 10
7.217777777777778
 20
16.53666666666666
 30
0.0
 11
7.204444444444444
 21
16.53666666666666
 31
0.0
  0
LINE
  5
1365
330
18
100
AcDbEntity
  8
Object
100
AcDbLine
 10
7.175555555555555
 20
14.53666666666667
 30
0.0
 11
7.371111111111111
 21
14.53666666666667
 31
0.0
  0
LINE
  5
1366
330
18
100
AcDbEntity
  8
Object
100
AcDbLine
 10
7.169999999999999
 20
16.16888888888889
 30
0.0
 11
7.195555555555555
 21
16.34888888888889
 31
0.0
  0
LINE
  5
1367
330
18
100
AcDbEntity
  8
Object
100
AcDbLine
 10
7.168888888888888
 20
16.16444444444444
 30
0.0
 11
7.168888888888888
 21
16.16333333333333
 31
0.0
  0
LINE
  5
1368
330
18
100
AcDbEntity
  8
Object
100
AcDbLine
 10
7.195555555555555
 20
16.34888888888889
 30
0.0
 11
7.182222222222222
 21
16.25888888888889
 31
0.0
  0
LINE
  5
1369
330
18
100
AcDbEntity
  8
Object
100
AcDbLine
 10
7.169999999999999
 20
16.16888888888889
 30
0.0
 11
7.168888888888888
 21
16.16333333333333
 31
0.0
  0
LINE
  5
136A
330
18
100
AcDbEntity
  8
Object
100
AcDbLine
 10
7.168888888888888
 20
16.16333333333333
 30
0.0
 11
7.127777777777778
 21
15.98888888888889
 31
0.0
  0
LINE
  5
136B
330
18
100
AcDbEntity
  8
Object
100
AcDbLine
 10
7.127777777777778
 20
15.98888888888889
 30
0.0
 11
7.125555555555555
 21
15.98111111111111
 31
0.0
  0
LINE
  5
136C
330
18
100
AcDbEntity
  8
Object
100
AcDbLine
 10
6.994444444444444
 20
15.64444444444444
 30
0.0
 11
7.065555555555555
 21
15.80333333333333
 31
0.0
  0
LINE
  5
136D
330
18
100
AcDbEntity
  8
Object
100
AcDbLine
 10
6.982222222222222
 20
14.53666666666667
 30
0.0
 11
7.175555555555555
 21
14.53666666666667
 31
0.0
  0
LINE
  5
136E
330
18
100
AcDbEntity
  8
Object
100
AcDbLine
 10
6.994444444444444
 20
15.64444444444444
 30
0.0
 11
6.988888888888888
 21
15.63222222222222
 31
0.0
  0
LINE
  5
136F
330
18
100
AcDbEntity
  8
Object
100
AcDbLine
 10
6.988888888888888
 20
15.63222222222222
 30
0.0
 11
6.905555555555555
 21
15.48333333333333
 31
0.0
  0
LINE
  5
1370
330
18
100
AcDbEntity
  8
Object
100
AcDbLine
 10
6.905555555555555
 20
15.48333333333333
 30
0.0
 11
6.896666666666666
 21
15.46888888888889
 31
0.0
  0
LINE
  5
1371
330
18
100
AcDbEntity
  8
Object
100
AcDbLine
 10
6.793333333333333
 20
14.53666666666667
 30
0.0
 11
6.982222222222222
 21
14.53666666666667
 31
0.0
  0
LINE
  5
1372
330
18
100
AcDbEntity
  8
Object
100
AcDbLine
 10
6.896666666666666
 20
15.46888888888889
 30
0.0
 11
6.801111111111111
 21
15.33111111111111
 31
0.0
  0
LINE
  5
1373
330
18
100
AcDbEntity
  8
Object
100
AcDbLine
 10
6.801111111111111
 20
15.33111111111111
 30
0.0
 11
6.79
 21
15.31555555555555
 31
0.0
  0
LINE
  5
1374
330
18
100
AcDbEntity
  8
Object
100
AcDbLine
 10
6.79
 20
15.31555555555555
 30
0.0
 11
6.683333333333333
 21
15.18888888888889
 31
0.0
  0
LINE
  5
1375
330
18
100
AcDbEntity
  8
Object
100
AcDbLine
 10
6.61
 20
14.53666666666667
 30
0.0
 11
6.793333333333333
 21
14.53666666666667
 31
0.0
  0
LINE
  5
1376
330
18
100
AcDbEntity
  8
Object
100
AcDbLine
 10
6.683333333333333
 20
15.18888888888889
 30
0.0
 11
6.668888888888888
 21
15.17222222222222
 31
0.0
  0
LINE
  5
1377
330
18
100
AcDbEntity
  8
Object
100
AcDbLine
 10
6.668888888888888
 20
15.17222222222222
 30
0.0
 11
6.553333333333333
 21
15.05777777777778
 31
0.0
  0
LINE
  5
1378
330
18
100
AcDbEntity
  8
Object
100
AcDbLine
 10
6.433333333333333
 20
14.53666666666667
 30
0.0
 11
6.61
 21
14.53666666666667
 31
0.0
  0
LINE
  5
1379
330
18
100
AcDbEntity
  8
Object
100
AcDbLine
 10
6.553333333333333
 20
15.05777777777778
 30
0.0
 11
6.535555555555555
 21
15.04111111111111
 31
0.0
  0
LINE
  5
137A
330
18
100
AcDbEntity
  8
Object
100
AcDbLine
 10
6.535555555555555
 20
15.04111111111111
 30
0.0
 11
6.411111111111111
 21
14.94
 31
0.0
  0
LINE
  5
137B
330
18
100
AcDbEntity
  8
Object
100
AcDbLine
 10
6.264444444444444
 20
14.53666666666667
 30
0.0
 11
6.433333333333333
 21
14.53666666666667
 31
0.0
  0
LINE
  5
137C
330
18
100
AcDbEntity
  8
Object
100
AcDbLine
 10
6.411111111111111
 20
14.94
 30
0.0
 11
6.389999999999999
 21
14.92333333333333
 31
0.0
  0
LINE
  5
137D
330
18
100
AcDbEntity
  8
Object
100
AcDbLine
 10
6.389999999999999
 20
14.92333333333333
 30
0.0
 11
6.258888888888888
 21
14.83555555555555
 31
0.0
  0
LINE
  5
137E
330
18
100
AcDbEntity
  8
Object
100
AcDbLine
 10
6.104444444444444
 20
14.53666666666667
 30
0.0
 11
6.264444444444444
 21
14.53666666666667
 31
0.0
  0
LINE
  5
137F
330
18
100
AcDbEntity
  8
Object
100
AcDbLine
 10
6.258888888888888
 20
14.83555555555555
 30
0.0
 11
6.234444444444444
 21
14.82
 31
0.0
  0
LINE
  5
1380
330
18
100
AcDbEntity
  8
Object
100
AcDbLine
 10
6.234444444444444
 20
14.82
 30
0.0
 11
6.097777777777777
 21
14.74555555555555
 31
0.0
  0
LINE
  5
1381
330
18
100
AcDbEntity
  8
Object
100
AcDbLine
 10
5.955555555555555
 20
14.53666666666667
 30
0.0
 11
6.104444444444444
 21
14.53666666666667
 31
0.0
  0
LINE
  5
1382
330
18
100
AcDbEntity
  8
Object
100
AcDbLine
 10
6.097777777777777
 20
14.74555555555555
 30
0.0
 11
6.07
 21
14.73111111111111
 31
0.0
  0
LINE
  5
1383
330
18
100
AcDbEntity
  8
Object
100
AcDbLine
 10
6.07
 20
14.73111111111111
 30
0.0
 11
5.929999999999999
 21
14.67111111111111
 31
0.0
  0
LINE
  5
1384
330
18
100
AcDbEntity
  8
Object
100
AcDbLine
 10
5.816666666666666
 20
14.53666666666667
 30
0.0
 11
5.955555555555555
 21
14.53666666666667
 31
0.0
  0
LINE
  5
1385
330
18
100
AcDbEntity
  8
Object
100
AcDbLine
 10
5.896666666666666
 20
14.65888888888889
 30
0.0
 11
5.929999999999999
 21
14.67111111111111
 31
0.0
  0
LINE
  5
1386
330
18
100
AcDbEntity
  8
Object
100
AcDbLine
 10
5.754444444444444
 20
14.61222222222222
 30
0.0
 11
5.908888888888888
 21
14.65888888888889
 31
0.0
  0
LINE
  5
1387
330
18
100
AcDbEntity
  8
Object
100
AcDbLine
 10
5.816666666666666
 20
14.53666666666667
 30
0.0
 11
5.69
 21
14.53666666666667
 31
0.0
  0
LINE
  5
1388
330
18
100
AcDbEntity
  8
Object
100
AcDbLine
 10
5.69
 20
14.53666666666667
 30
0.0
 11
5.576666666666667
 21
14.53666666666667
 31
0.0
  0
LINE
  5
1389
330
18
100
AcDbEntity
  8
Object
100
AcDbLine
 10
5.718888888888888
 20
14.60222222222222
 30
0.0
 11
5.754444444444444
 21
14.61222222222222
 31
0.0
  0
LINE
  5
138A
330
18
100
AcDbEntity
  8
Object
100
AcDbLine
 10
5.575555555555555
 20
14.57
 30
0.0
 11
5.732222222222222
 21
14.60222222222222
 31
0.0
  0
LINE
  5
138B
330
18
100
AcDbEntity
  8
Object
100
AcDbLine
 10
5.576666666666667
 20
14.53666666666667
 30
0.0
 11
5.477777777777777
 21
14.53666666666667
 31
0.0
  0
LINE
  5
138C
330
18
100
AcDbEntity
  8
Object
100
AcDbLine
 10
5.477777777777777
 20
14.53666666666667
 30
0.0
 11
5.393333333333333
 21
14.53666666666667
 31
0.0
  0
LINE
  5
138D
330
18
100
AcDbEntity
  8
Object
100
AcDbLine
 10
5.536666666666667
 20
14.56333333333333
 30
0.0
 11
5.575555555555555
 21
14.57
 31
0.0
  0
LINE
  5
138E
330
18
100
AcDbEntity
  8
Object
100
AcDbLine
 10
5.393333333333333
 20
14.54444444444444
 30
0.0
 11
5.549999999999999
 21
14.56333333333333
 31
0.0
  0
LINE
  5
138F
330
18
100
AcDbEntity
  8
Object
100
AcDbLine
 10
5.393333333333333
 20
14.53666666666667
 30
0.0
 11
5.323333333333333
 21
14.53666666666667
 31
0.0
  0
LINE
  5
1390
330
18
100
AcDbEntity
  8
Object
100
AcDbLine
 10
5.323333333333333
 20
14.53666666666667
 30
0.0
 11
5.268888888888889
 21
14.53666666666667
 31
0.0
  0
LINE
  5
1391
330
18
100
AcDbEntity
  8
Object
100
AcDbLine
 10
5.268888888888889
 20
14.53666666666667
 30
0.0
 11
5.23111111111111
 21
14.53666666666667
 31
0.0
  0
LINE
  5
1392
330
18
100
AcDbEntity
  8
Object
100
AcDbLine
 10
5.23111111111111
 20
14.53666666666667
 30
0.0
 11
5.208888888888888
 21
14.53666666666667
 31
0.0
  0
LINE
  5
1393
330
18
100
AcDbEntity
  8
Object
100
AcDbLine
 10
5.349999999999999
 20
14.54111111111111
 30
0.0
 11
5.393333333333333
 21
14.54444444444444
 31
0.0
  0
LINE
  5
1394
330
18
100
AcDbEntity
  8
Object
100
AcDbLine
 10
12.74777777777778
 20
16.53666666666666
 30
0.0
 11
12.74777777777778
 21
18.53666666666666
 31
0.0
  0
LINE
  5
1395
330
18
100
AcDbEntity
  8
Object
100
AcDbLine
 10
12.74777777777778
 20
18.53666666666666
 30
0.0
 11
7.567777777777777
 21
18.53666666666666
 31
0.0
  0
LINE
  5
1396
330
18
100
AcDbEntity
  8
Object
100
AcDbLine
 10
13.06444444444444
 20
18.53666666666666
 30
0.0
 11
13.07666666666666
 21
18.53666666666666
 31
0.0
  0
LINE
  5
1397
330
18
100
AcDbEntity
  8
Object
100
AcDbLine
 10
13.07666666666666
 20
18.53666666666666
 30
0.0
 11
13.11111111111111
 21
16.53666666666666
 31
0.0
  0
LINE
  5
1398
330
18
100
AcDbEntity
  8
Object
100
AcDbLine
 10
13.11111111111111
 20
16.53666666666666
 30
0.0
 11
13.09777777777777
 21
16.53666666666666
 31
0.0
  0
LINE
  5
1399
330
18
100
AcDbEntity
  8
Object
100
AcDbLine
 10
13.09777777777777
 20
16.53666666666666
 30
0.0
 11
13.06777777777778
 21
16.53666666666666
 31
0.0
  0
LINE
  5
139A
330
18
100
AcDbEntity
  8
Object
100
AcDbLine
 10
13.06444444444444
 20
18.53666666666666
 30
0.0
 11
13.03777777777778
 21
18.53666666666666
 31
0.0
  0
LINE
  5
139B
330
18
100
AcDbEntity
  8
Object
100
AcDbLine
 10
13.03777777777778
 20
18.53666666666666
 30
0.0
 11
12.99666666666666
 21
18.53666666666666
 31
0.0
  0
LINE
  5
139C
330
18
100
AcDbEntity
  8
Object
100
AcDbLine
 10
13.06777777777778
 20
16.53666666666666
 30
0.0
 11
13.02333333333333
 21
16.53666666666666
 31
0.0
  0
LINE
  5
139D
330
18
100
AcDbEntity
  8
Object
100
AcDbLine
 10
13.02333333333333
 20
16.53666666666666
 30
0.0
 11
12.96666666666667
 21
16.53666666666666
 31
0.0
  0
LINE
  5
139E
330
18
100
AcDbEntity
  8
Object
100
AcDbLine
 10
12.99666666666666
 20
18.53666666666666
 30
0.0
 11
12.94555555555555
 21
18.53666666666666
 31
0.0
  0
LINE
  5
139F
330
18
100
AcDbEntity
  8
Object
100
AcDbLine
 10
12.94555555555555
 20
18.53666666666666
 30
0.0
 11
12.88444444444444
 21
18.53666666666666
 31
0.0
  0
LINE
  5
13A0
330
18
100
AcDbEntity
  8
Object
100
AcDbLine
 10
12.96666666666667
 20
16.53666666666666
 30
0.0
 11
12.89888888888889
 21
16.53666666666666
 31
0.0
  0
LINE
  5
13A1
330
18
100
AcDbEntity
  8
Object
100
AcDbLine
 10
12.89888888888889
 20
16.53666666666666
 30
0.0
 11
12.82555555555555
 21
16.53666666666666
 31
0.0
  0
LINE
  5
13A2
330
18
100
AcDbEntity
  8
Object
100
AcDbLine
 10
12.88444444444444
 20
18.53666666666666
 30
0.0
 11
12.81777777777778
 21
18.53666666666666
 31
0.0
  0
LINE
  5
13A3
330
18
100
AcDbEntity
  8
Object
100
AcDbLine
 10
12.81777777777778
 20
18.53666666666666
 30
0.0
 11
12.74777777777778
 21
18.53666666666666
 31
0.0
  0
LINE
  5
13A4
330
18
100
AcDbEntity
  8
Object
100
AcDbLine
 10
9.532222222222221
 20
14.53666666666667
 30
0.0
 11
9.532222222222221
 21
14.54111111111111
 31
0.0
  0
LINE
  5
13A5
330
18
100
AcDbEntity
  8
Object
100
AcDbLine
 10
9.532222222222221
 20
14.54111111111111
 30
0.0
 11
9.532222222222221
 21
14.55111111111111
 31
0.0
  0
LINE
  5
13A6
330
18
100
AcDbEntity
  8
Object
100
AcDbLine
 10
9.532222222222221
 20
14.55111111111111
 30
0.0
 11
9.532222222222221
 21
14.56555555555555
 31
0.0
  0
LINE
  5
13A7
330
18
100
AcDbEntity
  8
Object
100
AcDbLine
 10
9.58
 20
14.54222222222222
 30
0.0
 11
9.532222222222221
 21
14.54222222222222
 31
0.0
  0
LINE
  5
13A8
330
18
100
AcDbEntity
  8
Object
100
AcDbLine
 10
9.763333333333333
 20
14.54222222222222
 30
0.0
 11
9.697777777777778
 21
14.54222222222222
 31
0.0
  0
LINE
  5
13A9
330
18
100
AcDbEntity
  8
Object
100
AcDbLine
 10
10.03555555555555
 20
14.54222222222222
 30
0.0
 11
10.01555555555555
 21
14.54222222222222
 31
0.0
  0
LINE
  5
13AA
330
18
100
AcDbEntity
  8
Object
100
AcDbLine
 10
10.14777777777778
 20
14.54222222222222
 30
0.0
 11
10.11222222222222
 21
14.54222222222222
 31
0.0
  0
LINE
  5
13AB
330
18
100
AcDbEntity
  8
Object
100
AcDbLine
 10
10.33111111111111
 20
14.54222222222222
 30
0.0
 11
10.29666666666666
 21
14.54222222222222
 31
0.0
  0
LINE
  5
13AC
330
18
100
AcDbEntity
  8
Object
100
AcDbLine
 10
10.51
 20
14.54222222222222
 30
0.0
 11
10.47444444444444
 21
14.54222222222222
 31
0.0
  0
LINE
  5
13AD
330
18
100
AcDbEntity
  8
Object
100
AcDbLine
 10
10.63888888888889
 20
14.54222222222222
 30
0.0
 11
10.56333333333333
 21
14.54222222222222
 31
0.0
  0
LINE
  5
13AE
330
18
100
AcDbEntity
  8
Object
100
AcDbLine
 10
10.78222222222222
 20
14.54222222222222
 30
0.0
 11
10.70111111111111
 21
14.54222222222222
 31
0.0
  0
LINE
  5
13AF
330
18
100
AcDbEntity
  8
Object
100
AcDbLine
 10
10.78222222222222
 20
14.54111111111111
 30
0.0
 11
10.78222222222222
 21
14.55111111111111
 31
0.0
  0
LINE
  5
13B0
330
18
100
AcDbEntity
  8
Object
100
AcDbLine
 10
10.78222222222222
 20
14.55111111111111
 30
0.0
 11
10.78222222222222
 21
14.56555555555555
 31
0.0
  0
LINE
  5
13B1
330
18
100
AcDbEntity
  8
Object
100
AcDbLine
 10
10.78222222222222
 20
14.54111111111111
 30
0.0
 11
10.78222222222222
 21
14.53666666666667
 31
0.0
  0
LINE
  5
13B2
330
18
100
AcDbEntity
  8
Object
100
AcDbLine
 10
10.59777777777777
 20
14.56555555555555
 30
0.0
 11
10.74666666666666
 21
14.56555555555555
 31
0.0
  0
LINE
  5
13B3
330
18
100
AcDbEntity
  8
Object
100
AcDbLine
 10
10.51
 20
14.56555555555555
 30
0.0
 11
10.56333333333333
 21
14.56555555555555
 31
0.0
  0
LINE
  5
13B4
330
18
100
AcDbEntity
  8
Object
100
AcDbLine
 10
10.43222222222222
 20
14.56555555555555
 30
0.0
 11
10.47444444444444
 21
14.56555555555555
 31
0.0
  0
LINE
  5
13B5
330
18
100
AcDbEntity
  8
Object
100
AcDbLine
 10
10.43222222222222
 20
14.55
 30
0.0
 11
10.43111111111111
 21
14.55
 31
0.0
  0
LINE
  5
13B6
330
18
100
AcDbEntity
  8
Object
100
AcDbLine
 10
10.43111111111111
 20
14.55
 30
0.0
 11
10.42777777777778
 21
14.54888888888889
 31
0.0
  0
LINE
  5
13B7
330
18
100
AcDbEntity
  8
Object
100
AcDbLine
 10
10.42777777777778
 20
14.54888888888889
 30
0.0
 11
10.42222222222222
 21
14.54888888888889
 31
0.0
  0
LINE
  5
13B8
330
18
100
AcDbEntity
  8
Object
100
AcDbLine
 10
10.40777777777778
 20
14.54888888888889
 30
0.0
 11
10.40222222222222
 21
14.54888888888889
 31
0.0
  0
LINE
  5
13B9
330
18
100
AcDbEntity
  8
Object
100
AcDbLine
 10
10.40222222222222
 20
14.54888888888889
 30
0.0
 11
10.39888888888889
 21
14.55
 31
0.0
  0
LINE
  5
13BA
330
18
100
AcDbEntity
  8
Object
100
AcDbLine
 10
10.40777777777778
 20
14.54888888888889
 30
0.0
 11
10.42222222222222
 21
14.54888888888889
 31
0.0
  0
LINE
  5
13BB
330
18
100
AcDbEntity
  8
Object
100
AcDbLine
 10
10.39777777777778
 20
14.55
 30
0.0
 11
10.39888888888889
 21
14.55
 31
0.0
  0
LINE
  5
13BC
330
18
100
AcDbEntity
  8
Object
100
AcDbLine
 10
10.33111111111111
 20
14.56555555555555
 30
0.0
 11
10.39777777777778
 21
14.56555555555555
 31
0.0
  0
LINE
  5
13BD
330
18
100
AcDbEntity
  8
Object
100
AcDbLine
 10
10.29666666666666
 20
14.56111111111111
 30
0.0
 11
10.29111111111111
 21
14.56333333333333
 31
0.0
  0
LINE
  5
13BE
330
18
100
AcDbEntity
  8
Object
100
AcDbLine
 10
10.29111111111111
 20
14.56333333333333
 30
0.0
 11
10.27888888888889
 21
14.56444444444444
 31
0.0
  0
LINE
  5
13BF
330
18
100
AcDbEntity
  8
Object
100
AcDbLine
 10
10.27888888888889
 20
14.56444444444444
 30
0.0
 11
10.26
 21
14.56555555555555
 31
0.0
  0
LINE
  5
13C0
330
18
100
AcDbEntity
  8
Object
100
AcDbLine
 10
10.02555555555555
 20
14.56555555555555
 30
0.0
 11
10.06111111111111
 21
14.55666666666666
 31
0.0
  0
LINE
  5
13C1
330
18
100
AcDbEntity
  8
Object
100
AcDbLine
 10
9.958888888888889
 20
14.55222222222222
 30
0.0
 11
9.9
 21
14.56555555555555
 31
0.0
  0
LINE
  5
13C2
330
18
100
AcDbEntity
  8
Object
100
AcDbLine
 10
9.9
 20
14.56555555555555
 30
0.0
 11
9.846666666666665
 21
14.56555555555555
 31
0.0
  0
LINE
  5
13C3
330
18
100
AcDbEntity
  8
Object
100
AcDbLine
 10
9.846666666666665
 20
14.56555555555555
 30
0.0
 11
9.843333333333333
 21
14.56555555555555
 31
0.0
  0
LINE
  5
13C4
330
18
100
AcDbEntity
  8
Object
100
AcDbLine
 10
10.06111111111111
 20
14.56555555555555
 30
0.0
 11
10.11222222222222
 21
14.56555555555555
 31
0.0
  0
LINE
  5
13C5
330
18
100
AcDbEntity
  8
Object
100
AcDbLine
 10
9.958888888888889
 20
14.56555555555555
 30
0.0
 11
10.02555555555555
 21
14.56555555555555
 31
0.0
  0
LINE
  5
13C6
330
18
100
AcDbEntity
  8
Object
100
AcDbLine
 10
10.14777777777778
 20
14.56555555555555
 30
0.0
 11
10.26
 21
14.56555555555555
 31
0.0
  0
LINE
  5
13C7
330
18
100
AcDbEntity
  8
Object
100
AcDbLine
 10
9.763333333333333
 20
14.54444444444444
 30
0.0
 11
9.775555555555555
 21
14.54777777777778
 31
0.0
  0
LINE
  5
13C8
330
18
100
AcDbEntity
  8
Object
100
AcDbLine
 10
10.51
 20
14.56555555555555
 30
0.0
 11
10.51
 21
14.56
 31
0.0
  0
LINE
  5
13C9
330
18
100
AcDbEntity
  8
Object
100
AcDbLine
 10
10.56333333333333
 20
14.56555555555555
 30
0.0
 11
10.56333333333333
 21
14.56
 31
0.0
  0
LINE
  5
13CA
330
18
100
AcDbEntity
  8
Object
100
AcDbLine
 10
10.56333333333333
 20
14.56
 30
0.0
 11
10.51
 21
14.56
 31
0.0
  0
LINE
  5
13CB
330
18
100
AcDbEntity
  8
Object
100
AcDbLine
 10
10.11222222222222
 20
14.56555555555555
 30
0.0
 11
10.11222222222222
 21
14.56
 31
0.0
  0
LINE
  5
13CC
330
18
100
AcDbEntity
  8
Object
100
AcDbLine
 10
10.11222222222222
 20
14.56
 30
0.0
 11
10.11222222222222
 21
14.53888888888889
 31
0.0
  0
LINE
  5
13CD
330
18
100
AcDbEntity
  8
Object
100
AcDbLine
 10
10.14777777777778
 20
14.56555555555555
 30
0.0
 11
10.14777777777778
 21
14.56
 31
0.0
  0
LINE
  5
13CE
330
18
100
AcDbEntity
  8
Object
100
AcDbLine
 10
10.26
 20
14.56555555555555
 30
0.0
 11
10.26
 21
14.56
 31
0.0
  0
LINE
  5
13CF
330
18
100
AcDbEntity
  8
Object
100
AcDbLine
 10
10.26
 20
14.56
 30
0.0
 11
10.14777777777778
 21
14.56
 31
0.0
  0
LINE
  5
13D0
330
18
100
AcDbEntity
  8
Object
100
AcDbLine
 10
10.43222222222222
 20
14.56555555555555
 30
0.0
 11
10.43222222222222
 21
14.56
 31
0.0
  0
LINE
  5
13D1
330
18
100
AcDbEntity
  8
Object
100
AcDbLine
 10
10.43222222222222
 20
14.56
 30
0.0
 11
10.43222222222222
 21
14.54444444444444
 31
0.0
  0
LINE
  5
13D2
330
18
100
AcDbEntity
  8
Object
100
AcDbLine
 10
10.40777777777778
 20
14.54333333333333
 30
0.0
 11
10.40777777777778
 21
14.54888888888889
 31
0.0
  0
LINE
  5
13D3
330
18
100
AcDbEntity
  8
Object
100
AcDbLine
 10
9.958888888888889
 20
14.56555555555555
 30
0.0
 11
9.958888888888889
 21
14.56
 31
0.0
  0
LINE
  5
13D4
330
18
100
AcDbEntity
  8
Object
100
AcDbLine
 10
9.958888888888889
 20
14.56
 30
0.0
 11
9.958888888888889
 21
14.54555555555555
 31
0.0
  0
LINE
  5
13D5
330
18
100
AcDbEntity
  8
Object
100
AcDbLine
 10
9.846666666666665
 20
14.56
 30
0.0
 11
9.846666666666665
 21
14.56555555555555
 31
0.0
  0
LINE
  5
13D6
330
18
100
AcDbEntity
  8
Object
100
AcDbLine
 10
10.29666666666666
 20
14.55555555555555
 30
0.0
 11
10.29666666666666
 21
14.56111111111111
 31
0.0
  0
LINE
  5
13D7
330
18
100
AcDbEntity
  8
Object
100
AcDbLine
 10
10.56333333333333
 20
14.56555555555555
 30
0.0
 11
10.56333333333333
 21
14.56
 31
0.0
  0
LINE
  5
13D8
330
18
100
AcDbEntity
  8
Object
100
AcDbLine
 10
10.56333333333333
 20
14.56
 30
0.0
 11
10.56333333333333
 21
14.53888888888889
 31
0.0
  0
LINE
  5
13D9
330
18
100
AcDbEntity
  8
Object
100
AcDbLine
 10
9.763333333333333
 20
14.54444444444444
 30
0.0
 11
9.763333333333333
 21
14.53888888888889
 31
0.0
  0
LINE
  5
13DA
330
18
100
AcDbEntity
  8
Object
100
AcDbLine
 10
9.763333333333333
 20
14.53888888888889
 30
0.0
 11
9.822222222222222
 21
14.53888888888889
 31
0.0
  0
LINE
  5
13DB
330
18
100
AcDbEntity
  8
Object
100
AcDbLine
 10
10.01555555555555
 20
14.53888888888889
 30
0.0
 11
10.01555555555555
 21
14.54777777777778
 31
0.0
  0
LINE
  5
13DC
330
18
100
AcDbEntity
  8
Object
100
AcDbLine
 10
10.06111111111111
 20
14.56555555555555
 30
0.0
 11
10.06111111111111
 21
14.56
 31
0.0
  0
LINE
  5
13DD
330
18
100
AcDbEntity
  8
Object
100
AcDbLine
 10
10.06111111111111
 20
14.56
 30
0.0
 11
10.06111111111111
 21
14.55111111111111
 31
0.0
  0
LINE
  5
13DE
330
18
100
AcDbEntity
  8
Object
100
AcDbLine
 10
10.63888888888889
 20
14.55555555555555
 30
0.0
 11
10.63888888888889
 21
14.53888888888889
 31
0.0
  0
LINE
  5
13DF
330
18
100
AcDbEntity
  8
Object
100
AcDbLine
 10
10.59777777777777
 20
14.56555555555555
 30
0.0
 11
10.59777777777777
 21
14.56
 31
0.0
  0
LINE
  5
13E0
330
18
100
AcDbEntity
  8
Object
100
AcDbLine
 10
10.74666666666666
 20
14.56555555555555
 30
0.0
 11
10.74666666666666
 21
14.56
 31
0.0
  0
LINE
  5
13E1
330
18
100
AcDbEntity
  8
Object
100
AcDbLine
 10
10.74666666666666
 20
14.56
 30
0.0
 11
10.59777777777777
 21
14.56
 31
0.0
  0
LINE
  5
13E2
330
18
100
AcDbEntity
  8
Object
100
AcDbLine
 10
10.59777777777777
 20
14.56
 30
0.0
 11
10.59777777777777
 21
14.55555555555555
 31
0.0
  0
LINE
  5
13E3
330
18
100
AcDbEntity
  8
Object
100
AcDbLine
 10
10.59777777777777
 20
14.56555555555555
 30
0.0
 11
10.59777777777777
 21
14.56
 31
0.0
  0
LINE
  5
13E4
330
18
100
AcDbEntity
  8
Object
100
AcDbLine
 10
10.39777777777778
 20
14.56555555555555
 30
0.0
 11
10.39777777777778
 21
14.56
 31
0.0
  0
LINE
  5
13E5
330
18
100
AcDbEntity
  8
Object
100
AcDbLine
 10
10.39777777777778
 20
14.56
 30
0.0
 11
10.39777777777778
 21
14.54444444444444
 31
0.0
  0
LINE
  5
13E6
330
18
100
AcDbEntity
  8
Object
100
AcDbLine
 10
10.33111111111111
 20
14.56555555555555
 30
0.0
 11
10.33111111111111
 21
14.56
 31
0.0
  0
LINE
  5
13E7
330
18
100
AcDbEntity
  8
Object
100
AcDbLine
 10
10.33111111111111
 20
14.56
 30
0.0
 11
10.33111111111111
 21
14.54222222222222
 31
0.0
  0
LINE
  5
13E8
330
18
100
AcDbEntity
  8
Object
100
AcDbLine
 10
9.58
 20
14.53888888888889
 30
0.0
 11
9.697777777777778
 21
14.53888888888889
 31
0.0
  0
LINE
  5
13E9
330
18
100
AcDbEntity
  8
Object
100
AcDbLine
 10
9.697777777777778
 20
14.54666666666667
 30
0.0
 11
9.762222222222222
 21
14.54666666666667
 31
0.0
  0
LINE
  5
13EA
330
18
100
AcDbEntity
  8
Object
100
AcDbLine
 10
9.834444444444445
 20
14.54111111111111
 30
0.0
 11
9.911111111111111
 21
14.54111111111111
 31
0.0
  0
LINE
  5
13EB
330
18
100
AcDbEntity
  8
Object
100
AcDbLine
 10
10.05222222222222
 20
14.53888888888889
 30
0.0
 11
10.11222222222222
 21
14.53888888888889
 31
0.0
  0
LINE
  5
13EC
330
18
100
AcDbEntity
  8
Object
100
AcDbLine
 10
10.70111111111111
 20
14.55555555555555
 30
0.0
 11
10.74666666666666
 21
14.55555555555555
 31
0.0
  0
LINE
  5
13ED
330
18
100
AcDbEntity
  8
Object
100
AcDbLine
 10
10.63888888888889
 20
14.53888888888889
 30
0.0
 11
10.70111111111111
 21
14.53888888888889
 31
0.0
  0
LINE
  5
13EE
330
18
100
AcDbEntity
  8
Object
100
AcDbLine
 10
9.763333333333333
 20
14.53888888888889
 30
0.0
 11
9.80111111111111
 21
14.54777777777778
 31
0.0
  0
LINE
  5
13EF
330
18
100
AcDbEntity
  8
Object
100
AcDbLine
 10
9.925555555555556
 20
14.53888888888889
 30
0.0
 11
10.01555555555555
 21
14.53888888888889
 31
0.0
  0
LINE
  5
13F0
330
18
100
AcDbEntity
  8
Object
100
AcDbLine
 10
10.29666666666666
 20
14.56111111111111
 30
0.0
 11
10.29666666666666
 21
14.55555555555555
 31
0.0
  0
LINE
  5
13F1
330
18
100
AcDbEntity
  8
Object
100
AcDbLine
 10
10.29666666666666
 20
14.55555555555555
 30
0.0
 11
10.29666666666666
 21
14.54222222222222
 31
0.0
  0
LINE
  5
13F2
330
18
100
AcDbEntity
  8
Object
100
AcDbLine
 10
10.51
 20
14.56555555555555
 30
0.0
 11
10.51
 21
14.56
 31
0.0
  0
LINE
  5
13F3
330
18
100
AcDbEntity
  8
Object
100
AcDbLine
 10
10.51
 20
14.56
 30
0.0
 11
10.51
 21
14.53888888888889
 31
0.0
  0
LINE
  5
13F4
330
18
100
AcDbEntity
  8
Object
100
AcDbLine
 10
10.51
 20
14.53888888888889
 30
0.0
 11
10.56333333333333
 21
14.53888888888889
 31
0.0
  0
LINE
  5
13F5
330
18
100
AcDbEntity
  8
Object
100
AcDbLine
 10
10.01555555555555
 20
14.54777777777778
 30
0.0
 11
10.05222222222222
 21
14.53888888888889
 31
0.0
  0
LINE
  5
13F6
330
18
100
AcDbEntity
  8
Object
100
AcDbLine
 10
10.14777777777778
 20
14.56555555555555
 30
0.0
 11
10.14777777777778
 21
14.56
 31
0.0
  0
LINE
  5
13F7
330
18
100
AcDbEntity
  8
Object
100
AcDbLine
 10
10.14777777777778
 20
14.56
 30
0.0
 11
10.14777777777778
 21
14.53888888888889
 31
0.0
  0
LINE
  5
13F8
330
18
100
AcDbEntity
  8
Object
100
AcDbLine
 10
10.74666666666666
 20
14.56555555555555
 30
0.0
 11
10.74666666666666
 21
14.56
 31
0.0
  0
LINE
  5
13F9
330
18
100
AcDbEntity
  8
Object
100
AcDbLine
 10
10.74666666666666
 20
14.56
 30
0.0
 11
10.74666666666666
 21
14.55555555555555
 31
0.0
  0
LINE
  5
13FA
330
18
100
AcDbEntity
  8
Object
100
AcDbLine
 10
10.36666666666667
 20
14.53888888888889
 30
0.0
 11
10.43888888888889
 21
14.53888888888889
 31
0.0
  0
LINE
  5
13FB
330
18
100
AcDbEntity
  8
Object
100
AcDbLine
 10
10.43222222222222
 20
14.56555555555555
 30
0.0
 11
10.43222222222222
 21
14.56
 31
0.0
  0
LINE
  5
13FC
330
18
100
AcDbEntity
  8
Object
100
AcDbLine
 10
10.47444444444444
 20
14.56555555555555
 30
0.0
 11
10.47444444444444
 21
14.56
 31
0.0
  0
LINE
  5
13FD
330
18
100
AcDbEntity
  8
Object
100
AcDbLine
 10
10.47444444444444
 20
14.56
 30
0.0
 11
10.43222222222222
 21
14.56
 31
0.0
  0
LINE
  5
13FE
330
18
100
AcDbEntity
  8
Object
100
AcDbLine
 10
9.697777777777778
 20
14.53888888888889
 30
0.0
 11
9.697777777777778
 21
14.54666666666667
 31
0.0
  0
LINE
  5
13FF
330
18
100
AcDbEntity
  8
Object
100
AcDbLine
 10
10.11222222222222
 20
14.56
 30
0.0
 11
10.06111111111111
 21
14.56
 31
0.0
  0
LINE
  5
1400
330
18
100
AcDbEntity
  8
Object
100
AcDbLine
 10
10.06111111111111
 20
14.56
 30
0.0
 11
10.06111111111111
 21
14.56555555555555
 31
0.0
  0
LINE
  5
1401
330
18
100
AcDbEntity
  8
Object
100
AcDbLine
 10
10.11222222222222
 20
14.56
 30
0.0
 11
10.11222222222222
 21
14.56555555555555
 31
0.0
  0
LINE
  5
1402
330
18
100
AcDbEntity
  8
Object
100
AcDbLine
 10
10.42222222222222
 20
14.54888888888889
 30
0.0
 11
10.42222222222222
 21
14.54333333333333
 31
0.0
  0
LINE
  5
1403
330
18
100
AcDbEntity
  8
Object
100
AcDbLine
 10
10.42222222222222
 20
14.54333333333333
 30
0.0
 11
10.40777777777778
 21
14.54333333333333
 31
0.0
  0
LINE
  5
1404
330
18
100
AcDbEntity
  8
Object
100
AcDbLine
 10
9.911111111111111
 20
14.54111111111111
 30
0.0
 11
9.925555555555556
 21
14.53888888888889
 31
0.0
  0
LINE
  5
1405
330
18
100
AcDbEntity
  8
Object
100
AcDbLine
 10
9.958888888888889
 20
14.56555555555555
 30
0.0
 11
9.958888888888889
 21
14.56
 31
0.0
  0
LINE
  5
1406
330
18
100
AcDbEntity
  8
Object
100
AcDbLine
 10
10.02555555555555
 20
14.56555555555555
 30
0.0
 11
10.02555555555555
 21
14.56
 31
0.0
  0
LINE
  5
1407
330
18
100
AcDbEntity
  8
Object
100
AcDbLine
 10
10.02555555555555
 20
14.56
 30
0.0
 11
9.958888888888889
 21
14.56
 31
0.0
  0
LINE
  5
1408
330
18
100
AcDbEntity
  8
Object
100
AcDbLine
 10
10.70111111111111
 20
14.53888888888889
 30
0.0
 11
10.70111111111111
 21
14.55555555555555
 31
0.0
  0
LINE
  5
1409
330
18
100
AcDbEntity
  8
Object
100
AcDbLine
 10
10.59777777777777
 20
14.55555555555555
 30
0.0
 11
10.63888888888889
 21
14.55555555555555
 31
0.0
  0
LINE
  5
140A
330
18
100
AcDbEntity
  8
Object
100
AcDbLine
 10
10.33111111111111
 20
14.56555555555555
 30
0.0
 11
10.33111111111111
 21
14.56
 31
0.0
  0
LINE
  5
140B
330
18
100
AcDbEntity
  8
Object
100
AcDbLine
 10
10.39777777777778
 20
14.56555555555555
 30
0.0
 11
10.39777777777778
 21
14.56
 31
0.0
  0
LINE
  5
140C
330
18
100
AcDbEntity
  8
Object
100
AcDbLine
 10
10.39777777777778
 20
14.56
 30
0.0
 11
10.33111111111111
 21
14.56
 31
0.0
  0
LINE
  5
140D
330
18
100
AcDbEntity
  8
Object
100
AcDbLine
 10
10.36666666666667
 20
14.53888888888889
 30
0.0
 11
10.34888888888889
 21
14.53888888888889
 31
0.0
  0
LINE
  5
140E
330
18
100
AcDbEntity
  8
Object
100
AcDbLine
 10
10.34888888888889
 20
14.53888888888889
 30
0.0
 11
10.33555555555555
 21
14.54
 31
0.0
  0
LINE
  5
140F
330
18
100
AcDbEntity
  8
Object
100
AcDbLine
 10
10.33555555555555
 20
14.54
 30
0.0
 11
10.33111111111111
 21
14.54222222222222
 31
0.0
  0
LINE
  5
1410
330
18
100
AcDbEntity
  8
Object
100
AcDbLine
 10
9.9
 20
14.56555555555555
 30
0.0
 11
9.9
 21
14.56
 31
0.0
  0
LINE
  5
1411
330
18
100
AcDbEntity
  8
Object
100
AcDbLine
 10
9.9
 20
14.56
 30
0.0
 11
9.846666666666665
 21
14.56
 31
0.0
  0
LINE
  5
1412
330
18
100
AcDbEntity
  8
Object
100
AcDbLine
 10
9.58
 20
14.56555555555555
 30
0.0
 11
9.58
 21
14.53888888888889
 31
0.0
  0
LINE
  5
1413
330
18
100
AcDbEntity
  8
Object
100
AcDbLine
 10
10.14777777777778
 20
14.53888888888889
 30
0.0
 11
10.26
 21
14.53888888888889
 31
0.0
  0
LINE
  5
1414
330
18
100
AcDbEntity
  8
Object
100
AcDbLine
 10
10.47444444444444
 20
14.56555555555555
 30
0.0
 11
10.47444444444444
 21
14.56
 31
0.0
  0
LINE
  5
1415
330
18
100
AcDbEntity
  8
Object
100
AcDbLine
 10
10.47444444444444
 20
14.56
 30
0.0
 11
10.47444444444444
 21
14.54222222222222
 31
0.0
  0
LINE
  5
1416
330
18
100
AcDbEntity
  8
Object
100
AcDbLine
 10
10.43222222222222
 20
14.54444444444444
 30
0.0
 11
10.43111111111111
 21
14.54444444444444
 31
0.0
  0
LINE
  5
1417
330
18
100
AcDbEntity
  8
Object
100
AcDbLine
 10
10.43111111111111
 20
14.54444444444444
 30
0.0
 11
10.42777777777778
 21
14.54333333333333
 31
0.0
  0
LINE
  5
1418
330
18
100
AcDbEntity
  8
Object
100
AcDbLine
 10
10.42777777777778
 20
14.54333333333333
 30
0.0
 11
10.42222222222222
 21
14.54333333333333
 31
0.0
  0
LINE
  5
1419
330
18
100
AcDbEntity
  8
Object
100
AcDbLine
 10
10.51
 20
14.56
 30
0.0
 11
10.51
 21
14.53888888888889
 31
0.0
  0
LINE
  5
141A
330
18
100
AcDbEntity
  8
Object
100
AcDbLine
 10
10.56333333333333
 20
14.53888888888889
 30
0.0
 11
10.56333333333333
 21
14.56
 31
0.0
  0
LINE
  5
141B
330
18
100
AcDbEntity
  8
Object
100
AcDbLine
 10
10.06111111111111
 20
14.56
 30
0.0
 11
10.06111111111111
 21
14.55111111111111
 31
0.0
  0
LINE
  5
141C
330
18
100
AcDbEntity
  8
Object
100
AcDbLine
 10
10.11222222222222
 20
14.53888888888889
 30
0.0
 11
10.11222222222222
 21
14.56
 31
0.0
  0
LINE
  5
141D
330
18
100
AcDbEntity
  8
Object
100
AcDbLine
 10
10.06111111111111
 20
14.55111111111111
 30
0.0
 11
10.02555555555555
 21
14.56
 31
0.0
  0
LINE
  5
141E
330
18
100
AcDbEntity
  8
Object
100
AcDbLine
 10
10.01555555555555
 20
14.53888888888889
 30
0.0
 11
10.01555555555555
 21
14.54777777777778
 31
0.0
  0
LINE
  5
141F
330
18
100
AcDbEntity
  8
Object
100
AcDbLine
 10
9.958888888888889
 20
14.56
 30
0.0
 11
9.958888888888889
 21
14.54555555555555
 31
0.0
  0
LINE
  5
1420
330
18
100
AcDbEntity
  8
Object
100
AcDbLine
 10
9.958888888888889
 20
14.54555555555555
 30
0.0
 11
9.9
 21
14.56
 31
0.0
  0
LINE
  5
1421
330
18
100
AcDbEntity
  8
Object
100
AcDbLine
 10
9.873333333333333
 20
14.55222222222222
 30
0.0
 11
9.897777777777777
 21
14.54666666666667
 31
0.0
  0
LINE
  5
1422
330
18
100
AcDbEntity
  8
Object
100
AcDbLine
 10
9.897777777777777
 20
14.54666666666667
 30
0.0
 11
9.847777777777777
 21
14.54666666666667
 31
0.0
  0
LINE
  5
1423
330
18
100
AcDbEntity
  8
Object
100
AcDbLine
 10
9.847777777777777
 20
14.54666666666667
 30
0.0
 11
9.873333333333333
 21
14.55222222222222
 31
0.0
  0
LINE
  5
1424
330
18
100
AcDbEntity
  8
Object
100
AcDbLine
 10
9.822222222222222
 20
14.53888888888889
 30
0.0
 11
9.834444444444445
 21
14.54111111111111
 31
0.0
  0
LINE
  5
1425
330
18
100
AcDbEntity
  8
Object
100
AcDbLine
 10
9.797777777777778
 20
14.56555555555555
 30
0.0
 11
9.828888888888888
 21
14.56333333333333
 31
0.0
  0
LINE
  5
1426
330
18
100
AcDbEntity
  8
Object
100
AcDbLine
 10
9.828888888888888
 20
14.56333333333333
 30
0.0
 11
9.846666666666665
 21
14.56
 31
0.0
  0
LINE
  5
1427
330
18
100
AcDbEntity
  8
Object
100
AcDbLine
 10
9.788888888888889
 20
14.54777777777778
 30
0.0
 11
9.80111111111111
 21
14.54777777777778
 31
0.0
  0
LINE
  5
1428
330
18
100
AcDbEntity
  8
Object
100
AcDbLine
 10
9.735555555555555
 20
14.56
 30
0.0
 11
9.735555555555555
 21
14.55333333333333
 31
0.0
  0
LINE
  5
1429
330
18
100
AcDbEntity
  8
Object
100
AcDbLine
 10
9.797777777777778
 20
14.56555555555555
 30
0.0
 11
9.762222222222222
 21
14.56555555555555
 31
0.0
  0
LINE
  5
142A
330
18
100
AcDbEntity
  8
Object
100
AcDbLine
 10
9.788888888888889
 20
14.54777777777778
 30
0.0
 11
9.775555555555555
 21
14.54777777777778
 31
0.0
  0
LINE
  5
142B
330
18
100
AcDbEntity
  8
Object
100
AcDbLine
 10
9.775555555555555
 20
14.54777777777778
 30
0.0
 11
9.762222222222222
 21
14.54666666666667
 31
0.0
  0
LINE
  5
142C
330
18
100
AcDbEntity
  8
Object
100
AcDbLine
 10
9.735555555555555
 20
14.55333333333333
 30
0.0
 11
9.734444444444443
 21
14.55222222222222
 31
0.0
  0
LINE
  5
142D
330
18
100
AcDbEntity
  8
Object
100
AcDbLine
 10
9.735555555555555
 20
14.56
 30
0.0
 11
9.734444444444443
 21
14.56
 31
0.0
  0
LINE
  5
142E
330
18
100
AcDbEntity
  8
Object
100
AcDbLine
 10
9.734444444444443
 20
14.56
 30
0.0
 11
9.728888888888889
 21
14.56111111111111
 31
0.0
  0
LINE
  5
142F
330
18
100
AcDbEntity
  8
Object
100
AcDbLine
 10
9.734444444444443
 20
14.55222222222222
 30
0.0
 11
9.728888888888889
 21
14.55222222222222
 31
0.0
  0
LINE
  5
1430
330
18
100
AcDbEntity
  8
Object
100
AcDbLine
 10
9.728888888888889
 20
14.55222222222222
 30
0.0
 11
9.723333333333332
 21
14.55111111111111
 31
0.0
  0
LINE
  5
1431
330
18
100
AcDbEntity
  8
Object
100
AcDbLine
 10
9.728888888888889
 20
14.56111111111111
 30
0.0
 11
9.723333333333332
 21
14.56111111111111
 31
0.0
  0
LINE
  5
1432
330
18
100
AcDbEntity
  8
Object
100
AcDbLine
 10
9.723333333333332
 20
14.56111111111111
 30
0.0
 11
9.697777777777778
 21
14.56111111111111
 31
0.0
  0
LINE
  5
1433
330
18
100
AcDbEntity
  8
Object
100
AcDbLine
 10
9.723333333333332
 20
14.55111111111111
 30
0.0
 11
9.697777777777778
 21
14.55111111111111
 31
0.0
  0
LINE
  5
1434
330
18
100
AcDbEntity
  8
Object
100
AcDbLine
 10
9.697777777777778
 20
14.53888888888889
 30
0.0
 11
9.697777777777778
 21
14.54666666666667
 31
0.0
  0
LINE
  5
1435
330
18
100
AcDbEntity
  8
Object
100
AcDbLine
 10
9.58
 20
14.56555555555555
 30
0.0
 11
9.58
 21
14.53888888888889
 31
0.0
  0
LINE
  5
1436
330
18
100
AcDbEntity
  8
Object
100
AcDbLine
 10
9.697777777777778
 20
14.55111111111111
 30
0.0
 11
9.697777777777778
 21
14.56111111111111
 31
0.0
  0
LINE
  5
1437
330
18
100
AcDbEntity
  8
Object
100
AcDbLine
 10
10.29666666666666
 20
14.54222222222222
 30
0.0
 11
10.29666666666666
 21
14.55555555555555
 31
0.0
  0
LINE
  5
1438
330
18
100
AcDbEntity
  8
Object
100
AcDbLine
 10
10.23777777777778
 20
14.55444444444444
 30
0.0
 11
10.23777777777778
 21
14.54444444444444
 31
0.0
  0
LINE
  5
1439
330
18
100
AcDbEntity
  8
Object
100
AcDbLine
 10
10.29666666666666
 20
14.54222222222222
 30
0.0
 11
10.29111111111111
 21
14.54
 31
0.0
  0
LINE
  5
143A
330
18
100
AcDbEntity
  8
Object
100
AcDbLine
 10
10.29111111111111
 20
14.54
 30
0.0
 11
10.27888888888889
 21
14.53888888888889
 31
0.0
  0
LINE
  5
143B
330
18
100
AcDbEntity
  8
Object
100
AcDbLine
 10
10.27888888888889
 20
14.53888888888889
 30
0.0
 11
10.26
 21
14.53888888888889
 31
0.0
  0
LINE
  5
143C
330
18
100
AcDbEntity
  8
Object
100
AcDbLine
 10
10.26
 20
14.56
 30
0.0
 11
10.27888888888889
 21
14.55888888888889
 31
0.0
  0
LINE
  5
143D
330
18
100
AcDbEntity
  8
Object
100
AcDbLine
 10
10.27888888888889
 20
14.55888888888889
 30
0.0
 11
10.29111111111111
 21
14.55777777777778
 31
0.0
  0
LINE
  5
143E
330
18
100
AcDbEntity
  8
Object
100
AcDbLine
 10
10.29111111111111
 20
14.55777777777778
 30
0.0
 11
10.29666666666666
 21
14.55555555555555
 31
0.0
  0
LINE
  5
143F
330
18
100
AcDbEntity
  8
Object
100
AcDbLine
 10
10.23666666666666
 20
14.55444444444444
 30
0.0
 11
10.23777777777778
 21
14.55444444444444
 31
0.0
  0
LINE
  5
1440
330
18
100
AcDbEntity
  8
Object
100
AcDbLine
 10
10.23777777777778
 20
14.54444444444444
 30
0.0
 11
10.23666666666666
 21
14.54444444444444
 31
0.0
  0
LINE
  5
1441
330
18
100
AcDbEntity
  8
Object
100
AcDbLine
 10
10.23222222222222
 20
14.55555555555555
 30
0.0
 11
10.23666666666666
 21
14.55444444444444
 31
0.0
  0
LINE
  5
1442
330
18
100
AcDbEntity
  8
Object
100
AcDbLine
 10
10.23666666666666
 20
14.54444444444444
 30
0.0
 11
10.23222222222222
 21
14.54333333333333
 31
0.0
  0
LINE
  5
1443
330
18
100
AcDbEntity
  8
Object
100
AcDbLine
 10
10.22777777777778
 20
14.55555555555555
 30
0.0
 11
10.23222222222222
 21
14.55555555555555
 31
0.0
  0
LINE
  5
1444
330
18
100
AcDbEntity
  8
Object
100
AcDbLine
 10
10.23222222222222
 20
14.54333333333333
 30
0.0
 11
10.22777777777778
 21
14.54333333333333
 31
0.0
  0
LINE
  5
1445
330
18
100
AcDbEntity
  8
Object
100
AcDbLine
 10
10.20666666666667
 20
14.55555555555555
 30
0.0
 11
10.22777777777778
 21
14.55555555555555
 31
0.0
  0
LINE
  5
1446
330
18
100
AcDbEntity
  8
Object
100
AcDbLine
 10
10.22777777777778
 20
14.54333333333333
 30
0.0
 11
10.20666666666667
 21
14.54333333333333
 31
0.0
  0
LINE
  5
1447
330
18
100
AcDbEntity
  8
Object
100
AcDbLine
 10
10.14777777777778
 20
14.56
 30
0.0
 11
10.14777777777778
 21
14.53888888888889
 31
0.0
  0
LINE
  5
1448
330
18
100
AcDbEntity
  8
Object
100
AcDbLine
 10
10.20666666666667
 20
14.54333333333333
 30
0.0
 11
10.20666666666667
 21
14.55555555555555
 31
0.0
  0
LINE
  5
1449
330
18
100
AcDbEntity
  8
Object
100
AcDbLine
 10
10.43222222222222
 20
14.56
 30
0.0
 11
10.43222222222222
 21
14.54444444444444
 31
0.0
  0
LINE
  5
144A
330
18
100
AcDbEntity
  8
Object
100
AcDbLine
 10
10.47444444444444
 20
14.56
 30
0.0
 11
10.47444444444444
 21
14.54222222222222
 31
0.0
  0
LINE
  5
144B
330
18
100
AcDbEntity
  8
Object
100
AcDbLine
 10
10.47444444444444
 20
14.54222222222222
 30
0.0
 11
10.47
 21
14.54
 31
0.0
  0
LINE
  5
144C
330
18
100
AcDbEntity
  8
Object
100
AcDbLine
 10
10.47
 20
14.54
 30
0.0
 11
10.45666666666666
 21
14.53888888888889
 31
0.0
  0
LINE
  5
144D
330
18
100
AcDbEntity
  8
Object
100
AcDbLine
 10
10.45666666666666
 20
14.53888888888889
 30
0.0
 11
10.43888888888889
 21
14.53888888888889
 31
0.0
  0
LINE
  5
144E
330
18
100
AcDbEntity
  8
Object
100
AcDbLine
 10
10.39888888888889
 20
14.54444444444444
 30
0.0
 11
10.40222222222222
 21
14.54333333333333
 31
0.0
  0
LINE
  5
144F
330
18
100
AcDbEntity
  8
Object
100
AcDbLine
 10
10.40222222222222
 20
14.54333333333333
 30
0.0
 11
10.40777777777778
 21
14.54333333333333
 31
0.0
  0
LINE
  5
1450
330
18
100
AcDbEntity
  8
Object
100
AcDbLine
 10
10.39888888888889
 20
14.54444444444444
 30
0.0
 11
10.39777777777778
 21
14.54444444444444
 31
0.0
  0
LINE
  5
1451
330
18
100
AcDbEntity
  8
Object
100
AcDbLine
 10
10.33111111111111
 20
14.56
 30
0.0
 11
10.33111111111111
 21
14.54222222222222
 31
0.0
  0
LINE
  5
1452
330
18
100
AcDbEntity
  8
Object
100
AcDbLine
 10
10.39777777777778
 20
14.54444444444444
 30
0.0
 11
10.39777777777778
 21
14.56
 31
0.0
  0
LINE
  5
1453
330
18
100
AcDbEntity
  8
Object
100
AcDbLine
 10
10.74666666666666
 20
14.55555555555555
 30
0.0
 11
10.74666666666666
 21
14.56
 31
0.0
  0
LINE
  5
1454
330
18
100
AcDbEntity
  8
Object
100
AcDbLine
 10
10.70111111111111
 20
14.53888888888889
 30
0.0
 11
10.70111111111111
 21
14.55555555555555
 31
0.0
  0
LINE
  5
1455
330
18
100
AcDbEntity
  8
Object
100
AcDbLine
 10
10.63888888888889
 20
14.55555555555555
 30
0.0
 11
10.63888888888889
 21
14.53888888888889
 31
0.0
  0
LINE
  5
1456
330
18
100
AcDbEntity
  8
Object
100
AcDbLine
 10
10.59777777777777
 20
14.56
 30
0.0
 11
10.59777777777777
 21
14.55555555555555
 31
0.0
  0
LINE
  5
1457
330
18
100
AcDbEntity
  8
Object
100
AcDbLine
 10
9.697777777777778
 20
14.55777777777778
 30
0.0
 11
9.723333333333332
 21
14.55777777777778
 31
0.0
  0
LINE
  5
1458
330
18
100
AcDbEntity
  8
Object
100
AcDbLine
 10
9.723333333333332
 20
14.55777777777778
 30
0.0
 11
9.723333333333332
 21
14.55111111111111
 31
0.0
  0
LINE
  5
1459
330
18
100
AcDbEntity
  8
Object
100
AcDbLine
 10
9.697777777777778
 20
14.55111111111111
 30
0.0
 11
9.697777777777778
 21
14.56111111111111
 31
0.0
  0
LINE
  5
145A
330
18
100
AcDbEntity
  8
Object
100
AcDbLine
 10
9.735555555555555
 20
14.56
 30
0.0
 11
9.735555555555555
 21
14.55333333333333
 31
0.0
  0
LINE
  5
145B
330
18
100
AcDbEntity
  8
Object
100
AcDbLine
 10
9.734444444444443
 20
14.55777777777778
 30
0.0
 11
9.728888888888889
 21
14.55777777777778
 31
0.0
  0
LINE
  5
145C
330
18
100
AcDbEntity
  8
Object
100
AcDbLine
 10
9.728888888888889
 20
14.55777777777778
 30
0.0
 11
9.723333333333332
 21
14.55777777777778
 31
0.0
  0
LINE
  5
145D
330
18
100
AcDbEntity
  8
Object
100
AcDbLine
 10
10.23666666666666
 20
14.55
 30
0.0
 11
10.23222222222222
 21
14.55
 31
0.0
  0
LINE
  5
145E
330
18
100
AcDbEntity
  8
Object
100
AcDbLine
 10
10.23222222222222
 20
14.55
 30
0.0
 11
10.22777777777778
 21
14.54888888888889
 31
0.0
  0
LINE
  5
145F
330
18
100
AcDbEntity
  8
Object
100
AcDbLine
 10
10.23777777777778
 20
14.55444444444444
 30
0.0
 11
10.23777777777778
 21
14.54444444444444
 31
0.0
  0
LINE
  5
1460
330
18
100
AcDbEntity
  8
Object
100
AcDbLine
 10
10.20666666666667
 20
14.54333333333333
 30
0.0
 11
10.20666666666667
 21
14.55555555555555
 31
0.0
  0
LINE
  5
1461
330
18
100
AcDbEntity
  8
Object
100
AcDbLine
 10
10.20666666666667
 20
14.54888888888889
 30
0.0
 11
10.22777777777778
 21
14.54888888888889
 31
0.0
  0
LINE
  5
1462
330
18
100
AcDbEntity
  8
Object
100
AcDbLine
 10
10.22777777777778
 20
14.54888888888889
 30
0.0
 11
10.22777777777778
 21
14.54333333333333
 31
0.0
  0
LINE
  5
1463
330
18
100
AcDbEntity
  8
Object
100
AcDbLine
 10
9.734444444444443
 20
14.55777777777778
 30
0.0
 11
9.735555555555555
 21
14.55888888888889
 31
0.0
  0
LINE
  5
1464
330
18
100
AcDbEntity
  8
Object
100
AcDbLine
 10
10.23666666666666
 20
14.55
 30
0.0
 11
10.23777777777778
 21
14.55
 31
0.0
  0
LINE
  5
1465
330
18
100
AcDbEntity
  8
Object
100
AcDbLine
 10
7.567777777777777
 20
14.53666666666667
 30
0.0
 11
12.74777777777778
 21
14.53666666666667
 31
0.0
  0
DIMENSION
  5
1466
330
18
100
AcDbEntity
  8
Dimension
100
AcDbDimension
  2
*D0
 10
16.71196563558361
 20
18.53666666666666
 30
0.0
 11
16.7119656355836
 21
16.53666666666667
 31
0.0
 70
    32
 71
     5
 42
3.999999999999998
  3
STANDARD
100
AcDbAlignedDimension
 13
15.60333333333333
 23
14.53666666666667
 33
0.0
 14
13.43222222222222
 24
18.53666666666666
 34
0.0
 50
90.0
100
AcDbRotatedDimension
  0
DIMENSION
  5
1474
330
18
100
AcDbEntity
  8
Dimension
100
AcDbDimension
  2
*D1
 10
15.60333333333333
 20
11.12632503697779
 30
0.0
 11
10.15777777777778
 21
11.12632503697779
 31
0.0
 70
    32
 71
     5
 42
10.89111111111111
  3
STANDARD
100
AcDbAlignedDimension
 13
4.712222222222222
 23
10.01666666666666
 33
0.0
 14
15.60333333333333
 24
10.01666666666666
 34
0.0
100
AcDbRotatedDimension
  0
DIMENSION
  5
1482
330
18
100
AcDbEntity
  8
Dimension
100
AcDbDimension
  2
*D2
 10
23.34412041913539
 20
4.056666666666666
 30
0.0
 11
23.34412041913539
 21
7.03666666666667
 31
0.0
 70
    32
 71
     5
 42
5.96
  3
STANDARD
100
AcDbAlignedDimension
 13
24.90666666666667
 23
10.01666666666666
 33
0.0
 14
24.90666666666667
 24
4.056666666666666
 34
0.0
 50
90.0
100
AcDbRotatedDimension
  0
ENDSEC
  0
SECTION
  2
OBJECTS
  0
DICTIONARY
  5
C
330
0
100
AcDbDictionary
281
     1
  3
ACAD_COLOR
350
126
  3
ACAD_GROUP
350
D
  3
ACAD_LAYOUT
350
129
  3
ACAD_MATERIAL
350
125
  3
ACAD_MLINESTYLE
350
1B
  3
ACAD_PLOTSETTINGS
350
12A
  3
ACAD_PLOTSTYLENAME
350
123
  3
ACAD_TABLESTYLE
350
127
  3
ACDBHEADERROUNDTRIPXREC
350
14A2
  3
AcDbVariableDictionary
350
156
  3
ASE_INDEX_DICTIONARY
350
160
  0
DICTIONARY
  5
16C
330
2
100
AcDbDictionary
280
     1
281
     1
  3
ACAD_LAYERFILTERS
360
170
  3
ACLYDICTIONARY
360
16F
  0
DICTIONARY
  5
126
102
{ACAD_REACTORS
330
C
102
}
330
C
100
AcDbDictionary
281
     1
  0
DICTIONARY
  5
D
102
{ACAD_REACTORS
330
C
102
}
330
C
100
AcDbDictionary
281
     1
  0
DICTIONARY
  5
129
102
{ACAD_REACTORS
330
C
102
}
330
C
100
AcDbDictionary
281
     1
  3
Layout1
350
12C
  3
Model
350
12B
  0
DICTIONARY
  5
125
102
{ACAD_REACTORS
330
C
102
}
330
C
100
AcDbDictionary
281
     1
  0
DICTIONARY
  5
1B
102
{ACAD_REACTORS
330
C
102
}
330
C
100
AcDbDictionary
281
     1
  3
STANDARD
350
1C
  0
DICTIONARY
  5
12A
102
{ACAD_REACTORS
330
C
102
}
330
C
100
AcDbDictionary
281
     1
  0
ACDBDICTIONARYWDFLT
  5
123
102
{ACAD_REACTORS
330
C
102
}
330
C
100
AcDbDictionary
281
     1
  3
Normal
350
124
100
AcDbDictionaryWithDefault
340
124
  0
DICTIONARY
  5
127
102
{ACAD_REACTORS
330
C
102
}
330
C
100
AcDbDictionary
281
     1
  3
Standard
350
128
  0
DICTIONARY
  5
14A2
102
{ACAD_REACTORS
330
C
102
}
330
C
100
AcDbDictionary
281
     1
  0
DICTIONARY
  5
156
102
{ACAD_REACTORS
330
C
102
}
330
C
100
AcDbDictionary
281
     1
  3
CTABLESTYLE
350
157
  3
DIMASSOC
350
149F
  3
PROJECTNAME
350
14A0
  0
DICTIONARY
  5
160
102
{ACAD_REACTORS
330
C
102
}
330
C
100
AcDbDictionary
281
     1
  3
ASEBlockHierarchyIndexRecord
350
162
1001
DCO15
1040
1529148088.992
  0
DICTIONARY
  5
170
102
{ACAD_REACTORS
330
16C
102
}
330
16C
100
AcDbDictionary
281
     1
  0
DICTIONARY
  5
16F
102
{ACAD_REACTORS
330
16C
102
}
330
16C
100
AcDbDictionary
281
     1
1001
ACAD
1000
<All
  0
LAYOUT
  5
12C
102
{ACAD_XDICTIONARY
360
14A5
102
}
102
{ACAD_REACTORS
330
129
102
}
330
129
100
AcDbPlotSettings
  1

  2
\\RSENG\RSplotter4NT
  4

  6

 40
0.0
 41
0.0
 42
0.0
 43
0.0
 44
0.0
 45
0.0
 46
0.0
 47
0.0
 48
0.0
 49
0.0
140
0.0
141
0.0
142
1.0
143
1.0
 70
   688
 72
     0
 73
     0
 74
     5
  7
Symantec Fax Starter Edition
 75
    16
147
1.0
148
0.0
149
0.0
100
AcDbLayout
  1
Layout1
 70
     1
 71
     1
 10
0.0
 20
0.0
 11
12.0
 21
9.0
 12
0.0
 22
0.0
 32
0.0
 14
1.000000000000000E+20
 24
1.000000000000000E+20
 34
1.000000000000000E+20
 15
-1.000000000000000E+20
 25
-1.000000000000000E+20
 35
-1.000000000000000E+20
146
0.0
 13
0.0
 23
0.0
 33
0.0
 16
1.0
 26
0.0
 36
0.0
 17
0.0
 27
1.0
 37
0.0
 76
     0
330
15
  0
LAYOUT
  5
12B
102
{ACAD_XDICTIONARY
360
14A3
102
}
102
{ACAD_REACTORS
330
129
102
}
330
129
100
AcDbPlotSettings
  1

  2
\\RSENG\RSplotter4NT
  4

  6

 40
0.0
 41
0.0
 42
0.0
 43
0.0
 44
0.0
 45
0.0
 46
0.0
 47
0.0
 48
0.0
 49
0.0
140
0.0
141
0.0
142
1.0
143
1.0
 70
  1712
 72
     0
 73
     0
 74
     0
  7
Symantec Fax Starter Edition
 75
     0
147
1.0
148
0.0
149
0.0
100
AcDbLayout
  1
Model
 70
     1
 71
     0
 10
0.0
 20
0.0
 11
12.0
 21
9.0
 12
0.0
 22
0.0
 32
0.0
 14
0.0
 24
0.0
 34
0.0
 15
0.0
 25
0.0
 35
0.0
146
0.0
 13
0.0
 23
0.0
 33
0.0
 16
1.0
 26
0.0
 36
0.0
 17
0.0
 27
1.0
 37
0.0
 76
     0
330
18
  0
MLINESTYLE
  5
1C
102
{ACAD_REACTORS
330
1B
102
}
330
1B
100
AcDbMlineStyle
  2
STANDARD
 70
     0
  3

 62
   256
 51
90.0
 52
90.0
 71
     2
 49
0.5
 62
   256
  6
BYLAYER
 49
-0.5
 62
   256
  6
BYLAYER
  0
ACDBPLACEHOLDER
  5
124
102
{ACAD_REACTORS
330
123
102
}
330
123
  0
TABLESTYLE
  5
128
102
{ACAD_REACTORS
330
127
102
}
330
127
100
AcDbTableStyle
  3
Standard
 70
     0
 71
     0
 40
0.06
 41
0.06
280
     0
281
     0
  7
STANDARD
140
0.18
170
     2
 62
     0
 63
     7
283
     0
274
    -2
284
     1
 64
     0
275
    -2
285
     1
 65
     0
276
    -2
286
     1
 66
     0
277
    -2
287
     1
 67
     0
278
    -2
288
     1
 68
     0
279
    -2
289
     1
 69
     0
  7
STANDARD
140
0.25
170
     5
 62
     0
 63
     7
283
     0
274
    -2
284
     1
 64
     0
275
    -2
285
     1
 65
     0
276
    -2
286
     1
 66
     0
277
    -2
287
     1
 67
     0
278
    -2
288
     1
 68
     0
279
    -2
289
     1
 69
     0
  7
STANDARD
140
0.18
170
     5
 62
     0
 63
     7
283
     0
274
    -2
284
     1
 64
     0
275
    -2
285
     1
 65
     0
276
    -2
286
     1
 66
     0
277
    -2
287
     1
 67
     0
278
    -2
288
     1
 68
     0
279
    -2
289
     1
 69
     0
  0
DICTIONARYVAR
  5
157
102
{ACAD_REACTORS
330
156
102
}
330
156
100
DictionaryVariables
280
     0
  1
STANDARD
  0
DICTIONARYVAR
  5
149F
102
{ACAD_REACTORS
330
156
102
}
330
156
100
DictionaryVariables
280
     0
  1
1
  0
DICTIONARYVAR
  5
14A0
102
{ACAD_REACTORS
330
156
102
}
330
156
100
DictionaryVariables
280
     0
  1

  0
XRECORD
  5
162
102
{ACAD_REACTORS
330
160
102
}
330
160
100
AcDbXrecord
280
     1
  0
DICTIONARY
  5
14A5
330
12C
100
AcDbDictionary
280
     1
281
     1
  3
ACAD_XREC_ROUNDTRIP
360
14A6
  0
DICTIONARY
  5
14A3
330
12B
100
AcDbDictionary
280
     1
281
     1
  3
ACAD_XREC_ROUNDTRIP
360
14A4
  0
XRECORD
  5
14A6
102
{ACAD_REACTORS
330
14A5
102
}
330
14A5
100
AcDbXrecord
280
     1
102
SHADEPLOT
 70
     0
102
SHADEPLOTRESLEVEL
 70
     2
102
SHADEPLOTCUSTOMDPI
 70
   300
  0
XRECORD
  5
14A4
102
{ACAD_REACTORS
330
14A3
102
}
330
14A3
100
AcDbXrecord
280
     1
102
SHADEPLOT
 70
     0
102
SHADEPLOTRESLEVEL
 70
     2
102
SHADEPLOTCUSTOMDPI
 70
   300
  0
ENDSEC
  0
EOF
