  0
SECTION
  2
HEADER
  9
$ACADVER
  1
AC1015
  9
$ACADMAINTVER
 70
    20
  9
$DWGCODEPAGE
  3
ANSI_1252
  9
$INSBASE
 10
0.0
 20
0.0
 30
0.0
  9
$EXTMIN
 10
-0.075
 20
-0.075
 30
0.0
  9
$EXTMAX
 10
11.075
 20
8.575000000000001
 30
0.0
  9
$LIMMIN
 10
0.0
 20
0.0
  9
$LIMMAX
 10
12.0
 20
9.0
  9
$ORTHOMODE
 70
     0
  9
$REGENMODE
 70
     1
  9
$FILLMODE
 70
     1
  9
$QTEXTMODE
 70
     0
  9
$MIRRTEXT
 70
     1
  9
$LTSCALE
 40
1.0
  9
$ATTMODE
 70
     1
  9
$TEXTSIZE
 40
0.09
  9
$TRACEWID
 40
0.05
  9
$TEXTSTYLE
  7
STANDARD
  9
$CLAYER
  8
0
  9
$CELTYPE
  6
BYLAYER
  9
$CECOLOR
 62
   256
  9
$CELTSCALE
 40
1.0
  9
$DISPSILH
 70
     0
  9
$DIMSCALE
 40
1.0
  9
$DIMASZ
 40
0.125
  9
$DIMEXO
 40
0.0625
  9
$DIMDLI
 40
0.38
  9
$DIMRND
 40
0.0
  9
$DIMDLE
 40
0.0
  9
$DIMEXE
 40
0.125
  9
$DIMTP
 40
0.0
  9
$DIMTM
 40
0.0
  9
$DIMTXT
 40
0.09
  9
$DIMCEN
 40
0.09
  9
$DIMTSZ
 40
0.0
  9
$DIMTOL
 70
     0
  9
$DIMLIM
 70
     0
  9
$DIMTIH
 70
     1
  9
$DIMTOH
 70
     1
  9
$DIMSE1
 70
     0
  9
$DIMSE2
 70
     0
  9
$DIMTAD
 70
     0
  9
$DIMZIN
 70
     0
  9
$DIMBLK
  1

  9
$DIMASO
 70
     1
  9
$DIMSHO
 70
     1
  9
$DIMPOST
  1

  9
$DIMAPOST
  1
mm
  9
$DIMALT
 70
     1
  9
$DIMALTD
 70
     1
  9
$DIMALTF
 40
25.4
  9
$DIMLFAC
 40
1.0
  9
$DIMTOFL
 70
     0
  9
$DIMTVP
 40
0.0
  9
$DIMTIX
 70
     0
  9
$DIMSOXD
 70
     0
  9
$DIMSAH
 70
     0
  9
$DIMBLK1
  1

  9
$DIMBLK2
  1

  9
$DIMSTYLE
  2
STANDARD
  9
$DIMCLRD
 70
     0
  9
$DIMCLRE
 70
     0
  9
$DIMCLRT
 70
     0
  9
$DIMTFAC
 40
1.0
  9
$DIMGAP
 40
0.09
  9
$DIMJUST
 70
     0
  9
$DIMSD1
 70
     0
  9
$DIMSD2
 70
     0
  9
$DIMTOLJ
 70
     1
  9
$DIMTZIN
 70
     0
  9
$DIMALTZ
 70
     0
  9
$DIMALTTZ
 70
     0
  9
$DIMUPT
 70
     0
  9
$DIMDEC
 70
     2
  9
$DIMTDEC
 70
     2
  9
$DIMALTU
 70
     2
  9
$DIMALTTD
 70
     1
  9
$DIMTXSTY
  7
STANDARD
  9
$DIMAUNIT
 70
     0
  9
$DIMADEC
 70
     0
  9
$DIMALTRND
 40
0.0
  9
$DIMAZIN
 70
     0
  9
$DIMDSEP
 70
    46
  9
$DIMATFIT
 70
     3
  9
$DIMFRAC
 70
     0
  9
$DIMLDRBLK
  1

  9
$DIMLUNIT
 70
     2
  9
$DIMLWD
 70
    -2
  9
$DIMLWE
 70
    -2
  9
$DIMTMOVE
 70
     0
  9
$LUNITS
 70
     2
  9
$LUPREC
 70
     2
  9
$SKETCHINC
 40
0.1
  9
$FILLETRAD
 40
0.5
  9
$AUNITS
 70
     0
  9
$AUPREC
 70
     0
  9
$MENU
  1
.
  9
$ELEVATION
 40
0.0
  9
$PELEVATION
 40
0.0
  9
$THICKNESS
 40
0.0
  9
$LIMCHECK
 70
     0
  9
$CHAMFERA
 40
0.5
  9
$CHAMFERB
 40
0.5
  9
$CHAMFERC
 40
1.0
  9
$CHAMFERD
 40
0.0
  9
$SKPOLY
 70
     0
  9
$TDCREATE
 40
2451681.555436007
  9
$TDUCREATE
 40
2451681.763769340
  9
$TDUPDATE
 40
2454294.665131238
  9
$TDUUPDATE
 40
2454294.873464572
  9
$TDINDWG
 40
0.2376403356
  9
$TDUSRTIMER
 40
0.2376403356
  9
$USRTIMER
 70
     1
  9
$ANGBASE
 50
0.0
  9
$ANGDIR
 70
     0
  9
$PDMODE
 70
     2
  9
$PDSIZE
 40
0.075
  9
$PLINEWID
 40
0.0
  9
$SPLFRAME
 70
     0
  9
$SPLINETYPE
 70
     6
  9
$SPLINESEGS
 70
     8
  9
$HANDSEED
  5
714
  9
$SURFTAB1
 70
     6
  9
$SURFTAB2
 70
     6
  9
$SURFTYPE
 70
     6
  9
$SURFU
 70
     6
  9
$SURFV
 70
     6
  9
$UCSBASE
  2

  9
$UCSNAME
  2

  9
$UCSORG
 10
0.0
 20
0.0
 30
0.0
  9
$UCSXDIR
 10
1.0
 20
0.0
 30
0.0
  9
$UCSYDIR
 10
0.0
 20
1.0
 30
0.0
  9
$UCSORTHOREF
  2

  9
$UCSORTHOVIEW
 70
     0
  9
$UCSORGTOP
 10
0.0
 20
0.0
 30
0.0
  9
$UCSORGBOTTOM
 10
0.0
 20
0.0
 30
0.0
  9
$UCSORGLEFT
 10
0.0
 20
0.0
 30
0.0
  9
$UCSORGRIGHT
 10
0.0
 20
0.0
 30
0.0
  9
$UCSORGFRONT
 10
0.0
 20
0.0
 30
0.0
  9
$UCSORGBACK
 10
0.0
 20
0.0
 30
0.0
  9
$PUCSBASE
  2

  9
$PUCSNAME
  2

  9
$PUCSORG
 10
0.0
 20
0.0
 30
0.0
  9
$PUCSXDIR
 10
1.0
 20
0.0
 30
0.0
  9
$PUCSYDIR
 10
0.0
 20
1.0
 30
0.0
  9
$PUCSORTHOREF
  2

  9
$PUCSORTHOVIEW
 70
     0
  9
$PUCSORGTOP
 10
0.0
 20
0.0
 30
0.0
  9
$PUCSORGBOTTOM
 10
0.0
 20
0.0
 30
0.0
  9
$PUCSORGLEFT
 10
0.0
 20
0.0
 30
0.0
  9
$PUCSORGRIGHT
 10
0.0
 20
0.0
 30
0.0
  9
$PUCSORGFRONT
 10
0.0
 20
0.0
 30
0.0
  9
$PUCSORGBACK
 10
0.0
 20
0.0
 30
0.0
  9
$USERI1
 70
     0
  9
$USERI2
 70
     0
  9
$USERI3
 70
     0
  9
$USERI4
 70
     0
  9
$USERI5
 70
     0
  9
$USERR1
 40
0.0
  9
$USERR2
 40
0.0
  9
$USERR3
 40
0.0
  9
$USERR4
 40
0.0
  9
$USERR5
 40
0.0
  9
$WORLDVIEW
 70
     1
  9
$SHADEDGE
 70
     3
  9
$SHADEDIF
 70
    70
  9
$TILEMODE
 70
     1
  9
$MAXACTVP
 70
    48
  9
$PINSBASE
 10
0.0
 20
0.0
 30
0.0
  9
$PLIMCHECK
 70
     0
  9
$PEXTMIN
 10
1.000000000000000E+20
 20
1.000000000000000E+20
 30
1.000000000000000E+20
  9
$PEXTMAX
 10
-1.000000000000000E+20
 20
-1.000000000000000E+20
 30
-1.000000000000000E+20
  9
$PLIMMIN
 10
0.0
 20
0.0
  9
$PLIMMAX
 10
12.0
 20
9.0
  9
$UNITMODE
 70
     0
  9
$VISRETAIN
 70
     1
  9
$PLINEGEN
 70
     0
  9
$PSLTSCALE
 70
     1
  9
$TREEDEPTH
 70
  3020
  9
$CMLSTYLE
  2
STANDARD
  9
$CMLJUST
 70
     0
  9
$CMLSCALE
 40
1.0
  9
$PROXYGRAPHICS
 70
     1
  9
$MEASUREMENT
 70
     0
  9
$CELWEIGHT
370
    -1
  9
$ENDCAPS
280
     0
  9
$JOINSTYLE
280
     0
  9
$LWDISPLAY
290
     0
  9
$INSUNITS
 70
     0
  9
$HYPERLINKBASE
  1

  9
$STYLESHEET
  1

  9
$XEDIT
290
     1
  9
$CEPSNTYPE
380
     0
  9
$PSTYLEMODE
290
     1
  9
$FINGERPRINTGUID
  2
{0DBA2F4B-C1BF-4E7E-99F6-24CB8BD685C4}
  9
$VERSIONGUID
  2
{3A72BAD5-8322-4FF4-97AF-7359522EBE99}
  9
$EXTNAMES
290
     1
  9
$PSVPSCALE
 40
0.0
  9
$OLESTARTUP
290
     0
  0
ENDSEC
  0
SECTION
  2
CLASSES
  0
CLASS
  1
ACDBDICTIONARYWDFLT
  2
AcDbDictionaryWithDefault
  3
ObjectDBX Classes
 90
        0
280
     0
281
     0
  0
CLASS
  1
TABLESTYLE
  2
AcDbTableStyle
  3
ObjectDBX Classes
 90
     2047
280
     0
281
     0
  0
CLASS
  1
DICTIONARYVAR
  2
AcDbDictionaryVar
  3
ObjectDBX Classes
 90
        0
280
     0
281
     0
  0
CLASS
  1
ACDBPLACEHOLDER
  2
AcDbPlaceHolder
  3
ObjectDBX Classes
 90
        0
280
     0
281
     0
  0
CLASS
  1
LAYOUT
  2
AcDbLayout
  3
ObjectDBX Classes
 90
        0
280
     0
281
     0
  0
ENDSEC
  0
SECTION
  2
TABLES
  0
TABLE
  2
VPORT
  5
8
330
0
100
AcDbSymbolTable
 70
     2
  0
VPORT
  5
70E
330
8
100
AcDbSymbolTableRecord
100
AcDbViewportTableRecord
  2
*Active
 70
     0
 10
0.0
 20
0.0
 11
1.0
 21
1.0
 12
5.499834485850286
 22
4.554391431607214
 13
0.0
 23
0.0
 14
0.5
 24
0.5
 15
0.5
 25
0.5
 16
0.0
 26
0.0
 36
1.0
 17
0.0
 27
0.0
 37
0.0
 40
9.315343815646048
 41
1.499364675984752
 42
50.0
 43
0.0
 44
0.0
 50
0.0
 51
0.0
 71
     0
 72
   100
 73
     1
 74
     1
 75
     0
 76
     0
 77
     0
 78
     0
281
     0
 65
     1
110
0.0
120
0.0
130
0.0
111
1.0
121
0.0
131
0.0
112
0.0
122
1.0
132
0.0
 79
     0
146
0.0
  0
ENDTAB
  0
TABLE
  2
LTYPE
  5
5
330
0
100
AcDbSymbolTable
 70
     1
  0
LTYPE
  5
12
330
5
100
AcDbSymbolTableRecord
100
AcDbLinetypeTableRecord
  2
BYBLOCK
 70
     0
  3

 72
    65
 73
     0
 40
0.0
  0
LTYPE
  5
13
330
5
100
AcDbSymbolTableRecord
100
AcDbLinetypeTableRecord
  2
BYLAYER
 70
     0
  3

 72
    65
 73
     0
 40
0.0
  0
LTYPE
  5
14
330
5
100
AcDbSymbolTableRecord
100
AcDbLinetypeTableRecord
  2
CONTINUOUS
 70
     0
  3
Solid line
 72
    65
 73
     0
 40
0.0
  0
ENDTAB
  0
TABLE
  2
LAYER
  5
2
102
{ACAD_XDICTIONARY
360
126
102
}
330
0
100
AcDbSymbolTable
 70
     6
  0
LAYER
  5
E
330
2
100
AcDbSymbolTableRecord
100
AcDbLayerTableRecord
  2
0
 70
     0
 62
     7
  6
CONTINUOUS
370
    -3
390
DE
  0
LAYER
  5
20
330
2
100
AcDbSymbolTableRecord
100
AcDbLayerTableRecord
  2
Title Block
 70
     0
 62
     3
  6
CONTINUOUS
370
    -3
390
DE
  0
LAYER
  5
21
330
2
100
AcDbSymbolTableRecord
100
AcDbLayerTableRecord
  2
Dimension
 70
     0
 62
     6
  6
CONTINUOUS
370
    -3
390
DE
  0
LAYER
  5
22
330
2
100
AcDbSymbolTableRecord
100
AcDbLayerTableRecord
  2
Text
 70
     0
 62
     1
  6
CONTINUOUS
370
    -3
390
DE
  0
LAYER
  5
23D
330
2
100
AcDbSymbolTableRecord
100
AcDbLayerTableRecord
  2
Defpoints
 70
     0
 62
     7
  6
CONTINUOUS
290
     0
370
    -3
390
DE
  0
LAYER
  5
258
330
2
100
AcDbSymbolTableRecord
100
AcDbLayerTableRecord
  2
Object
 70
     0
 62
     5
  6
CONTINUOUS
370
    -3
390
DE
1001
AcAecLayerStandard
1000

1000

  0
ENDTAB
  0
TABLE
  2
STYLE
  5
3
330
0
100
AcDbSymbolTable
 70
     1
  0
STYLE
  5
F
330
3
100
AcDbSymbolTableRecord
100
AcDbTextStyleTableRecord
  2
STANDARD
 70
     0
 40
0.0
 41
1.0
 50
0.0
 71
     0
 42
0.09
  3
technic_.ttf
  4

1001
ACAD
1000
Technic
1071
      514
  0
ENDTAB
  0
TABLE
  2
VIEW
  5
6
330
0
100
AcDbSymbolTable
 70
     0
  0
ENDTAB
  0
TABLE
  2
UCS
  5
7
330
0
100
AcDbSymbolTable
 70
     0
  0
ENDTAB
  0
TABLE
  2
APPID
  5
9
330
0
100
AcDbSymbolTable
 70
     4
  0
APPID
  5
10
330
9
100
AcDbSymbolTableRecord
100
AcDbRegAppTableRecord
  2
ACAD
 70
     0
  0
APPID
  5
FA
330
9
100
AcDbSymbolTableRecord
100
AcDbRegAppTableRecord
  2
DCO15
 70
     0
  0
APPID
  5
125
330
9
100
AcDbSymbolTableRecord
100
AcDbRegAppTableRecord
  2
AcAecLayerStandard
 70
     0
  0
APPID
  5
14B
330
9
100
AcDbSymbolTableRecord
100
AcDbRegAppTableRecord
  2
ACAD_DSTYLE_DIMTEXT_FILL
 70
     0
  0
ENDTAB
  0
TABLE
  2
DIMSTYLE
  5
A
330
0
100
AcDbSymbolTable
 70
     1
100
AcDbDimStyleTable
 71
     1
340
1D
  0
DIMSTYLE
105
1D
102
{ACAD_REACTORS
330
69A
330
6A8
330
6C5
102
}
330
A
100
AcDbSymbolTableRecord
100
AcDbDimStyleTableRecord
  2
STANDARD
 70
     0
  4
mm
 41
0.125
 44
0.125
140
0.09
170
     1
171
     1
271
     2
272
     2
274
     1
340
F
  0
ENDTAB
  0
TABLE
  2
BLOCK_RECORD
  5
1
330
0
100
AcDbSymbolTable
 70
     3
  0
BLOCK_RECORD
  5
18
330
1
100
AcDbSymbolTableRecord
100
AcDbBlockTableRecord
  2
*MODEL_SPACE
340
E5
  0
BLOCK_RECORD
  5
15
330
1
100
AcDbSymbolTableRecord
100
AcDbBlockTableRecord
  2
*PAPER_SPACE
340
E6
  0
BLOCK_RECORD
  5
69B
330
1
100
AcDbSymbolTableRecord
100
AcDbBlockTableRecord
  2
*D0
340
0
  0
BLOCK_RECORD
  5
6A9
330
1
100
AcDbSymbolTableRecord
100
AcDbBlockTableRecord
  2
*D1
340
0
  0
BLOCK_RECORD
  5
6C6
330
1
100
AcDbSymbolTableRecord
100
AcDbBlockTableRecord
  2
*D2
340
0
  0
ENDTAB
  0
ENDSEC
  0
SECTION
  2
BLOCKS
  0
BLOCK
  5
19
330
18
100
AcDbEntity
  8
0
100
AcDbBlockBegin
  2
*MODEL_SPACE
 70
     0
 10
0.0
 20
0.0
 30
0.0
  3
*MODEL_SPACE
  1

  0
ENDBLK
  5
1A
330
18
100
AcDbEntity
  8
0
100
AcDbBlockEnd
  0
BLOCK
  5
16
330
15
100
AcDbEntity
 67
     1
  8
0
100
AcDbBlockBegin
  2
*PAPER_SPACE
 70
     0
 10
0.0
 20
0.0
 30
0.0
  3
*PAPER_SPACE
  1

  0
ENDBLK
  5
17
330
15
100
AcDbEntity
 67
     1
  8
0
100
AcDbBlockEnd
  0
BLOCK
  5
6A6
330
69B
100
AcDbEntity
  8
0
100
AcDbBlockBegin
  2
*D0
 70
     1
 10
0.0
 20
0.0
 30
0.0
  3
*D0
  1

  0
LINE
  5
69C
330
69B
100
AcDbEntity
  8
Dimension
 62
     0
370
    -2
100
AcDbLine
 10
4.1065
 20
7.532555665154769
 30
0.0
 11
5.420052333833137
 21
7.532555665154769
 31
0.0
  0
LINE
  5
69D
330
69B
100
AcDbEntity
  8
Dimension
 62
     0
370
    -2
100
AcDbLine
 10
4.1065
 20
5.68255566515477
 30
0.0
 11
5.420052333833136
 21
5.68255566515477
 31
0.0
  0
LINE
  5
69E
330
69B
100
AcDbEntity
  8
Dimension
 62
     0
370
    -2
100
AcDbLine
 10
5.295052333833137
 20
7.407555665154769
 30
0.0
 11
5.295052333833137
 21
6.760581980944243
 31
0.0
  0
LINE
  5
69F
330
69B
100
AcDbEntity
  8
Dimension
 62
     0
370
    -2
100
AcDbLine
 10
5.295052333833136
 20
5.80755566515477
 30
0.0
 11
5.295052333833137
 21
6.454529349365296
 31
0.0
  0
SOLID
  5
6A0
330
69B
100
AcDbEntity
  8
Dimension
 62
     0
100
AcDbTrace
 10
5.274219000499804
 20
7.407555665154769
 30
0.0
 11
5.31588566716647
 21
7.407555665154769
 31
0.0
 12
5.295052333833137
 22
7.532555665154769
 32
0.0
 13
5.295052333833137
 23
7.532555665154769
 33
0.0
  0
SOLID
  5
6A1
330
69B
100
AcDbEntity
  8
Dimension
 62
     0
100
AcDbTrace
 10
5.274219000499803
 20
5.80755566515477
 30
0.0
 11
5.315885667166469
 21
5.80755566515477
 31
0.0
 12
5.295052333833136
 22
5.68255566515477
 32
0.0
 13
5.295052333833136
 23
5.68255566515477
 33
0.0
  0
MTEXT
  5
6A2
330
69B
100
AcDbEntity
  8
Dimension
 62
     0
100
AcDbMText
 10
5.295052333833135
 20
6.60755566515477
 30
0.0
 40
0.09
 41
0.0
 71
     5
 72
     1
  1
\A1;1.85 [47.0mm]
 73
     1
 44
1.0
1001
ACAD
1000
MTEXTBEGIN
1070
    73
1070
     1
1070
    44
1040
1.0
1070
    74
1070
     0
1000
MTEXTEND
  0
POINT
  5
6A3
330
69B
100
AcDbEntity
  8
Defpoints
 62
     0
100
AcDbPoint
 10
4.044
 20
7.532555665154769
 30
0.0
  0
POINT
  5
6A4
330
69B
100
AcDbEntity
  8
Defpoints
 62
     0
100
AcDbPoint
 10
4.044
 20
5.68255566515477
 30
0.0
  0
POINT
  5
6A5
330
69B
100
AcDbEntity
  8
Defpoints
 62
     0
100
AcDbPoint
 10
5.295052333833136
 20
5.68255566515477
 30
0.0
  0
ENDBLK
  5
6A7
330
69B
100
AcDbEntity
  8
0
100
AcDbBlockEnd
  0
BLOCK
  5
6B4
330
6A9
100
AcDbEntity
  8
0
100
AcDbBlockBegin
  2
*D1
 70
     1
 10
0.0
 20
0.0
 30
0.0
  3
*D1
  1

  0
LINE
  5
6DE
330
6A9
100
AcDbEntity
  8
Dimension
 62
     0
370
    -2
100
AcDbLine
 10
1.789999999999999
 20
4.21105566515477
 30
0.0
 11
1.789999999999999
 21
4.829058052964676
 31
0.0
  0
LINE
  5
6DF
330
6A9
100
AcDbEntity
  8
Dimension
 62
     0
370
    -2
100
AcDbLine
 10
4.376
 20
4.12805566515477
 30
0.0
 11
4.376
 21
4.829058052964676
 31
0.0
  0
LINE
  5
6E0
330
6A9
100
AcDbEntity
  8
Dimension
 62
     0
370
    -2
100
AcDbLine
 10
1.914999999999999
 20
4.704058052964676
 30
0.0
 11
2.578
 21
4.704058052964676
 31
0.0
  0
LINE
  5
6E1
330
6A9
100
AcDbEntity
  8
Dimension
 62
     0
370
    -2
100
AcDbLine
 10
4.251
 20
4.704058052964676
 30
0.0
 11
3.588
 21
4.704058052964676
 31
0.0
  0
SOLID
  5
6E2
330
6A9
100
AcDbEntity
  8
Dimension
 62
     0
100
AcDbTrace
 10
1.914999999999999
 20
4.724891386298009
 30
0.0
 11
1.914999999999999
 21
4.683224719631343
 31
0.0
 12
1.789999999999999
 22
4.704058052964676
 32
0.0
 13
1.789999999999999
 23
4.704058052964676
 33
0.0
  0
SOLID
  5
6E3
330
6A9
100
AcDbEntity
  8
Dimension
 62
     0
100
AcDbTrace
 10
4.251
 20
4.724891386298009
 30
0.0
 11
4.251
 21
4.683224719631343
 31
0.0
 12
4.376
 22
4.704058052964676
 32
0.0
 13
4.376
 23
4.704058052964676
 33
0.0
  0
MTEXT
  5
6E4
330
6A9
100
AcDbEntity
  8
Dimension
 62
     0
100
AcDbMText
 10
3.083
 20
4.704058052964676
 30
0.0
 40
0.09
 41
0.0
 71
     5
 72
     1
  1
\A1;2.59 [65.7mm]
 73
     1
 44
1.0
1001
ACAD
1000
MTEXTBEGIN
1070
    73
1070
     1
1070
    44
1040
1.0
1070
    74
1070
     0
1000
MTEXTEND
  0
POINT
  5
6E5
330
6A9
100
AcDbEntity
  8
Defpoints
 62
     0
100
AcDbPoint
 10
1.789999999999999
 20
4.14855566515477
 30
0.0
  0
POINT
  5
6E6
330
6A9
100
AcDbEntity
  8
Defpoints
 62
     0
100
AcDbPoint
 10
4.376
 20
4.06555566515477
 30
0.0
  0
POINT
  5
6E7
330
6A9
100
AcDbEntity
  8
Defpoints
 62
     0
100
AcDbPoint
 10
4.376
 20
4.704058052964676
 30
0.0
  0
ENDBLK
  5
6B5
330
6A9
100
AcDbEntity
  8
0
100
AcDbBlockEnd
  0
BLOCK
  5
6D2
330
6C6
100
AcDbEntity
  8
0
100
AcDbBlockBegin
  2
*D2
 70
     1
 10
0.0
 20
0.0
 30
0.0
  3
*D2
  1

  0
LINE
  5
6F3
330
6C6
100
AcDbEntity
  8
Dimension
 62
     0
370
    -2
100
AcDbLine
 10
7.3475
 20
3.56655566515477
 30
0.0
 11
6.449643413023206
 21
3.56655566515477
 31
0.0
  0
LINE
  5
6F4
330
6C6
100
AcDbEntity
  8
Dimension
 62
     0
370
    -2
100
AcDbLine
 10
7.6825
 20
4.146555665154769
 30
0.0
 11
6.449643413023206
 21
4.146555665154769
 31
0.0
  0
LINE
  5
6F5
330
6C6
100
AcDbEntity
  8
Dimension
 62
     0
370
    -2
100
AcDbLine
 10
6.574643413023206
 20
3.69155566515477
 30
0.0
 11
6.574643413023206
 21
4.021555665154769
 31
0.0
  0
LINE
  5
6F6
330
6C6
100
AcDbEntity
  8
Dimension
 62
     0
370
    -2
100
AcDbLine
 10
6.574643413023206
 20
4.146555665154769
 30
0.0
 11
6.574643413023206
 21
4.271555665154769
 31
0.0
  0
LINE
  5
6F7
330
6C6
100
AcDbEntity
  8
Dimension
 62
     0
370
    -2
100
AcDbLine
 10
6.574643413023206
 20
4.271555665154769
 30
0.0
 11
6.699643413023206
 21
4.271555665154769
 31
0.0
  0
SOLID
  5
6F8
330
6C6
100
AcDbEntity
  8
Dimension
 62
     0
100
AcDbTrace
 10
6.553810079689873
 20
3.69155566515477
 30
0.0
 11
6.595476746356539
 21
3.69155566515477
 31
0.0
 12
6.574643413023206
 22
3.56655566515477
 32
0.0
 13
6.574643413023206
 23
3.56655566515477
 33
0.0
  0
SOLID
  5
6F9
330
6C6
100
AcDbEntity
  8
Dimension
 62
     0
100
AcDbTrace
 10
6.553810079689873
 20
4.021555665154769
 30
0.0
 11
6.595476746356539
 21
4.021555665154769
 31
0.0
 12
6.574643413023206
 22
4.146555665154769
 32
0.0
 13
6.574643413023206
 23
4.146555665154769
 33
0.0
  0
MTEXT
  5
6FA
330
6C6
100
AcDbEntity
  8
Dimension
 62
     0
100
AcDbMText
 10
7.181024991970573
 20
4.271555665154771
 30
0.0
 40
0.09
 41
0.0
 71
     5
 72
     1
  1
\A1;0.58 [14.7mm]
 73
     1
 44
1.0
1001
ACAD
1000
MTEXTBEGIN
1070
    73
1070
     1
1070
    44
1040
1.0
1070
    74
1070
     0
1000
MTEXTEND
  0
POINT
  5
6FB
330
6C6
100
AcDbEntity
  8
Defpoints
 62
     0
100
AcDbPoint
 10
7.41
 20
3.56655566515477
 30
0.0
  0
POINT
  5
6FC
330
6C6
100
AcDbEntity
  8
Defpoints
 62
     0
100
AcDbPoint
 10
7.745
 20
4.146555665154769
 30
0.0
  0
POINT
  5
6FD
330
6C6
100
AcDbEntity
  8
Defpoints
 62
     0
100
AcDbPoint
 10
6.574643413023206
 20
4.146555665154769
 30
0.0
  0
ENDBLK
  5
6D3
330
6C6
100
AcDbEntity
  8
0
100
AcDbBlockEnd
  0
ENDSEC
  0
SECTION
  2
ENTITIES
  0
TEXT
  5
51
330
18
100
AcDbEntity
  8
Title Block
100
AcDbText
 10
6.776695012655547
 20
2.672489851525508
 30
0.0
 40
0.05
  1
FILENAME:
100
AcDbText
  0
TEXT
  5
52
330
18
100
AcDbEntity
  8
Title Block
100
AcDbText
 10
6.769285028728251
 20
2.076224967549325
 30
0.0
 40
0.35
  1
PANDUIT
100
AcDbText
  0
TEXT
  5
53
330
18
100
AcDbEntity
  8
Title Block
100
AcDbText
 10
8.721820398821382
 20
2.061410940562986
 30
0.0
 40
0.125
  1
CORP. TINLEY PARK, IL
100
AcDbText
  0
TEXT
  5
54
330
18
100
AcDbEntity
  8
Title Block
100
AcDbText
 10
6.780399976708615
 20
1.91697409709392
 30
0.0
 40
0.05
  1
TITLE:
100
AcDbText
  0
MTEXT
  5
57
330
18
100
AcDbEntity
  8
Title Block
100
AcDbMText
 10
8.0
 20
1.372215793536348
 30
0.0
 40
0.075
 41
2.5
 71
     5
 72
     5
  1
UNLESS OTHERWISE SPECIFIED,\PDIMENSIONAL TOLERANCES ARE:       
 73
     1
 44
1.0
1001
ACAD
1000
MTEXTBEGIN
1070
    73
1070
     1
1070
    44
1040
1.0
1070
    74
1070
     0
1000
MTEXTEND
  0
MTEXT
  5
58
330
18
100
AcDbEntity
  8
Title Block
100
AcDbMText
 10
7.392379866610014
 20
1.131487708483632
 30
0.0
 40
0.075
 41
2.5
 71
     5
 72
     5
  1
(.X)\P(.XX)
 73
     1
 44
1.0
1001
ACAD
1000
MTEXTBEGIN
1070
    73
1070
     1
1070
    44
1040
1.0
1070
    74
1070
     0
1000
MTEXTEND
  0
MTEXT
  5
59
330
18
100
AcDbEntity
  8
Title Block
100
AcDbMText
 10
8.400140053124118
 20
1.131487708483632
 30
0.0
 40
0.075
 41
2.5
 71
     5
 72
     5
  1
(.XXX)\PANGLES:
 73
     1
 44
1.0
1001
ACAD
1000
MTEXTBEGIN
1070
    73
1070
     1
1070
    44
1040
1.0
1070
    74
1070
     0
1000
MTEXTEND
  0
MTEXT
  5
5A
330
18
100
AcDbEntity
  8
Title Block
100
AcDbMText
 10
10.0
 20
1.25
 30
0.0
 40
0.06
 41
1.5
 71
     5
 72
     5
  1
UNLESS OTHERWISE SPECIFIED,\PALL DIMENSIONS ARE GIVEN IN INCHES, THIRD ANGLE PROJECTION
 73
     1
 44
1.0
1001
ACAD
1000
MTEXTBEGIN
1070
    73
1070
     1
1070
    44
1040
1.0
1070
    74
1070
     0
1000
MTEXTEND
  0
TEXT
  5
5E
330
18
100
AcDbEntity
  8
Title Block
100
AcDbText
 10
6.760764454306187
 20
0.9281373372752312
 30
0.0
 40
0.05
  1
DRAWN BY:
100
AcDbText
  0
TEXT
  5
5F
330
18
100
AcDbEntity
  8
Title Block
100
AcDbText
 10
6.764469474180437
 20
0.6811431865635028
 30
0.0
 40
0.05
  1
DATE:
100
AcDbText
  0
TEXT
  5
60
330
18
100
AcDbEntity
  8
Title Block
100
AcDbText
 10
6.768174438233497
 20
0.4304455338317968
 30
0.0
 40
0.05
  1
CHECKED BY:
100
AcDbText
  0
TEXT
  5
62
330
18
100
AcDbEntity
  8
Title Block
100
AcDbText
 10
7.520289593133067
 20
0.9281373372752312
 30
0.0
 40
0.05
  1
MATERIAL:
100
AcDbText
  0
TEXT
  5
63
330
18
100
AcDbEntity
  8
Title Block
100
AcDbText
 10
9.265344938781542
 20
0.9281373372752312
 30
0.0
 40
0.05
  1
SCALE:
100
AcDbText
  0
TEXT
  5
64
330
18
100
AcDbEntity
  8
Title Block
100
AcDbText
 10
9.265344938781542
 20
0.6725952630490007
 30
0.0
 40
0.05
  1
DRAWING NUMBER:
100
AcDbText
  0
TEXT
  5
65
330
18
100
AcDbEntity
  8
Title Block
100
AcDbText
 10
10.34942622928998
 20
0.6762987650689816
 30
0.0
 40
0.05
  1
DRAWING
100
AcDbText
  0
TEXT
  5
66
330
18
100
AcDbEntity
  8
Title Block
100
AcDbText
 10
10.42723125590085
 20
0.2811642688682026
 30
0.0
 40
0.05
  1
SIZE
100
AcDbText
  0
TEXT
  5
67
330
18
100
AcDbEntity
  8
Title Block
100
AcDbText
 10
10.38647626056889
 20
0.3911285990572359
 30
0.0
 40
0.25
  1
A
100
AcDbText
  0
MTEXT
  5
68
330
18
100
AcDbEntity
  8
Title Block
100
AcDbMText
 10
0.375
 20
0.375
 30
0.0
 40
0.05
 41
0.25
 71
     5
 72
     5
  1
REV
 73
     1
 44
1.0
1001
ACAD
1000
MTEXTBEGIN
1070
    73
1070
     1
1070
    44
1040
1.0
1070
    74
1070
     0
1000
MTEXTEND
  0
MTEXT
  5
69
330
18
100
AcDbEntity
  8
Title Block
100
AcDbMText
 10
0.75
 20
0.375
 30
0.0
 40
0.05
 41
0.5
 71
     5
 72
     5
  1
DATE
 73
     1
 44
1.0
1001
ACAD
1000
MTEXTBEGIN
1070
    73
1070
     1
1070
    44
1040
1.0
1070
    74
1070
     0
1000
MTEXTEND
  0
MTEXT
  5
6A
330
18
100
AcDbEntity
  8
Title Block
100
AcDbMText
 10
1.189999999999999
 20
0.375
 30
0.0
 40
0.05
 41
0.38
 71
     5
 72
     5
  1
BY
 73
     1
 44
1.0
1001
ACAD
1000
MTEXTBEGIN
1070
    73
1070
     1
1070
    44
1040
1.0
1070
    74
1070
     0
1000
MTEXTEND
  0
MTEXT
  5
6B
330
18
100
AcDbEntity
  8
Title Block
100
AcDbMText
 10
1.564999999999999
 20
0.375
 30
0.0
 40
0.05
 41
0.38
 71
     5
 72
     5
  1
CHK
 73
     1
 44
1.0
1001
ACAD
1000
MTEXTBEGIN
1070
    73
1070
     1
1070
    44
1040
1.0
1070
    74
1070
     0
1000
MTEXTEND
  0
MTEXT
  5
6C
330
18
100
AcDbEntity
  8
Title Block
100
AcDbMText
 10
3.125
 20
0.375
 30
0.0
 40
0.05
 41
2.75
 71
     5
 72
     5
  1
DESCRIPTION
 73
     1
 44
1.0
1001
ACAD
1000
MTEXTBEGIN
1070
    73
1070
     1
1070
    44
1040
1.0
1070
    74
1070
     0
1000
MTEXTEND
  0
MTEXT
  5
6D
330
18
100
AcDbEntity
  8
Title Block
100
AcDbMText
 10
5.064999999999999
 20
0.375
 30
0.0
 40
0.05
 41
1.129999999999999
 71
     5
 72
     5
  1
ECN   -   R
 73
     1
 44
1.0
1001
ACAD
1000
MTEXTBEGIN
1070
    73
1070
     1
1070
    44
1040
1.0
1070
    74
1070
     0
1000
MTEXTEND
  0
MTEXT
  5
6E
330
18
100
AcDbEntity
  8
Title Block
100
AcDbMText
 10
5.815
 20
0.375
 30
0.0
 40
0.05
 41
0.38
 71
     5
 72
     5
  1
CUST
 73
     1
 44
1.0
1001
ACAD
1000
MTEXTBEGIN
1070
    73
1070
     1
1070
    44
1040
1.0
1070
    74
1070
     0
1000
MTEXTEND
  0
MTEXT
  5
6F
330
18
100
AcDbEntity
  8
Title Block
100
AcDbMText
 10
6.19
 20
0.375
 30
0.0
 40
0.05
 41
0.38
 71
     5
 72
     5
  1
SUP
 73
     1
 44
1.0
1001
ACAD
1000
MTEXTBEGIN
1070
    73
1070
     1
1070
    44
1040
1.0
1070
    74
1070
     0
1000
MTEXTEND
  0
LWPOLYLINE
  5
71
330
18
100
AcDbEntity
  8
Title Block
100
AcDbPolyline
 90
        4
 70
     1
 43
0.01
 10
0.25
 20
8.250000000000001
 10
0.25
 20
0.25
 10
10.75
 20
0.25
 10
10.75
 20
8.25
  0
LINE
  5
A5
330
18
100
AcDbEntity
  8
Title Block
100
AcDbLine
 10
10.75
 20
2.749999999999999
 30
0.0
 11
0.25
 21
2.75
 31
0.0
  0
LINE
  5
A6
330
18
100
AcDbEntity
  8
Title Block
100
AcDbLine
 10
6.75
 20
2.75
 30
0.0
 11
6.75
 21
0.25
 31
0.0
  0
LINE
  5
A7
330
18
100
AcDbEntity
  8
Title Block
100
AcDbLine
 10
10.75
 20
2.499999999999999
 30
0.0
 11
0.25
 21
2.5
 31
0.0
  0
LINE
  5
A8
330
18
100
AcDbEntity
  8
Title Block
100
AcDbLine
 10
6.75
 20
2.25
 30
0.0
 11
0.25
 21
2.25
 31
0.0
  0
LINE
  5
A9
330
18
100
AcDbEntity
  8
Title Block
100
AcDbLine
 10
10.75
 20
1.999999999999999
 30
0.0
 11
0.25
 21
2.0
 31
0.0
  0
LINE
  5
AA
330
18
100
AcDbEntity
  8
Title Block
100
AcDbLine
 10
6.75
 20
1.75
 30
0.0
 11
0.25
 21
1.75
 31
0.0
  0
LINE
  5
AB
330
18
100
AcDbEntity
  8
Title Block
100
AcDbLine
 10
10.75
 20
1.499999999999999
 30
0.0
 11
0.25
 21
1.5
 31
0.0
  0
LINE
  5
AC
330
18
100
AcDbEntity
  8
Title Block
100
AcDbLine
 10
6.75
 20
1.25
 30
0.0
 11
0.25
 21
1.25
 31
0.0
  0
LINE
  5
AD
330
18
100
AcDbEntity
  8
Title Block
100
AcDbLine
 10
10.75
 20
0.9999999999999996
 30
0.0
 11
0.25
 21
1.0
 31
0.0
  0
LINE
  5
AE
330
18
100
AcDbEntity
  8
Title Block
100
AcDbLine
 10
7.5
 20
0.75
 30
0.0
 11
0.25
 21
0.7500000000000009
 31
0.0
  0
LINE
  5
AF
330
18
100
AcDbEntity
  8
Title Block
100
AcDbLine
 10
7.5
 20
0.5
 30
0.0
 11
0.25
 21
0.5000000000000009
 31
0.0
  0
LINE
  5
B6
330
18
100
AcDbEntity
  8
Title Block
100
AcDbLine
 10
0.25
 20
0.25
 30
0.0
 11
0.25
 21
2.75
 31
0.0
  0
LINE
  5
BC
330
18
100
AcDbEntity
  8
Title Block
100
AcDbLine
 10
0.5
 20
0.25
 30
0.0
 11
0.5
 21
2.750000000000001
 31
0.0
  0
LINE
  5
BD
330
18
100
AcDbEntity
  8
Title Block
100
AcDbLine
 10
1.0
 20
0.25
 30
0.0
 11
1.0
 21
2.750000000000001
 31
0.0
  0
LINE
  5
C0
330
18
100
AcDbEntity
  8
Title Block
100
AcDbLine
 10
1.375
 20
0.25
 30
0.0
 11
1.375
 21
2.750000000000001
 31
0.0
  0
LINE
  5
C1
330
18
100
AcDbEntity
  8
Title Block
100
AcDbLine
 10
1.75
 20
0.25
 30
0.0
 11
1.75
 21
2.750000000000001
 31
0.0
  0
LINE
  5
C2
330
18
100
AcDbEntity
  8
Title Block
100
AcDbLine
 10
6.375
 20
2.75
 30
0.0
 11
6.375
 21
0.25
 31
0.0
  0
LINE
  5
C3
330
18
100
AcDbEntity
  8
Title Block
100
AcDbLine
 10
6.0
 20
2.75
 30
0.0
 11
6.0
 21
0.25
 31
0.0
  0
LINE
  5
C4
330
18
100
AcDbEntity
  8
Title Block
100
AcDbLine
 10
5.625
 20
2.75
 30
0.0
 11
5.625
 21
0.25
 31
0.0
  0
LINE
  5
C5
330
18
100
AcDbEntity
  8
Title Block
100
AcDbLine
 10
5.25
 20
2.75
 30
0.0
 11
5.25
 21
0.5000000000000002
 31
0.0
  0
LINE
  5
C6
330
18
100
AcDbEntity
  8
Title Block
100
AcDbLine
 10
4.5
 20
2.75
 30
0.0
 11
4.5
 21
0.25
 31
0.0
  0
LINE
  5
C7
330
18
100
AcDbEntity
  8
Title Block
100
AcDbLine
 10
9.25
 20
0.75
 30
0.0
 11
9.25
 21
1.499999999999999
 31
0.0
  0
LINE
  5
C8
330
18
100
AcDbEntity
  8
Title Block
100
AcDbLine
 10
9.25
 20
0.75
 30
0.0
 11
9.25
 21
0.25
 31
0.0
  0
LINE
  5
C9
330
18
100
AcDbEntity
  8
Title Block
100
AcDbLine
 10
9.25
 20
0.75
 30
0.0
 11
10.75
 21
0.75
 31
0.0
  0
LINE
  5
CA
330
18
100
AcDbEntity
  8
Title Block
100
AcDbLine
 10
7.5
 20
0.5
 30
0.0
 11
7.5
 21
0.25
 31
0.0
  0
LINE
  5
CB
330
18
100
AcDbEntity
  8
Title Block
100
AcDbLine
 10
7.5
 20
0.5
 30
0.0
 11
7.5
 21
1.0
 31
0.0
  0
LINE
  5
CD
330
18
100
AcDbEntity
  8
Title Block
100
AcDbLine
 10
10.25
 20
0.75
 30
0.0
 11
10.25
 21
0.25
 31
0.0
  0
POINT
  5
D0
330
18
100
AcDbEntity
  8
Title Block
100
AcDbPoint
 10
11.0
 20
8.5
 30
0.0
  0
POINT
  5
D2
330
18
100
AcDbEntity
  8
Title Block
100
AcDbPoint
 10
11.0
 20
0.0
 30
0.0
  0
POINT
  5
D4
330
18
100
AcDbEntity
  8
Title Block
100
AcDbPoint
 10
0.0
 20
0.0
 30
0.0
  0
POINT
  5
D6
330
18
100
AcDbEntity
  8
Title Block
100
AcDbPoint
 10
0.0
 20
8.500000000000001
 30
0.0
  0
MTEXT
  5
EC
330
18
100
AcDbEntity
  8
Text
100
AcDbMText
 10
0.375
 20
0.6250000000000009
 30
0.0
 40
0.09
 41
0.25
 71
     5
 72
     5
  1
R
 73
     1
 44
1.0
1001
ACAD
1000
MTEXTBEGIN
1070
    73
1070
     1
1070
    44
1040
1.0
1070
    74
1070
     0
1000
MTEXTEND
  0
MTEXT
  5
ED
330
18
100
AcDbEntity
  8
Text
100
AcDbMText
 10
0.75
 20
0.6250000000000009
 30
0.0
 40
0.07
 41
0.5
 71
     5
 72
     5
  1
6-22-07
 73
     1
 44
1.0
1001
ACAD
1000
MTEXTBEGIN
1070
    73
1070
     1
1070
    44
1040
1.0
1070
    74
1070
     0
1000
MTEXTEND
  0
MTEXT
  5
EE
330
18
100
AcDbEntity
  8
Text
100
AcDbMText
 10
1.1875
 20
0.6250000000000009
 30
0.0
 40
0.09
 41
0.375
 71
     5
 72
     5
  1
DTP
 73
     1
 44
1.0
1001
ACAD
1000
MTEXTBEGIN
1070
    73
1070
     1
1070
    44
1040
1.0
1070
    74
1070
     0
1000
MTEXTEND
  0
MTEXT
  5
F0
330
18
100
AcDbEntity
  8
Text
100
AcDbMText
 10
3.125
 20
0.6250000000000005
 30
0.0
 40
0.09
 41
2.75
 71
     5
 72
     5
  1
DRAWING RELEASED
 73
     1
 44
1.0
1001
ACAD
1000
MTEXTBEGIN
1070
    73
1070
     1
1070
    44
1040
1.0
1070
    74
1070
     0
1000
MTEXTEND
  0
MTEXT
  5
F6
330
18
100
AcDbEntity
  8
Text
100
AcDbMText
 10
7.474999999999999
 20
0.85
 30
0.0
 40
0.09
 41
0.75
 71
     6
 72
     5
  1
DTP
 73
     1
 44
1.0
1001
ACAD
1000
MTEXTBEGIN
1070
    73
1070
     1
1070
    44
1040
1.0
1070
    74
1070
     0
1000
MTEXTEND
  0
MTEXT
  5
F7
330
18
100
AcDbEntity
  8
Text
100
AcDbMText
 10
7.474999999999999
 20
0.5999999999999999
 30
0.0
 40
0.09
 41
0.75
 71
     6
 72
     5
  1
6-22-07
 73
     1
 44
1.0
1001
ACAD
1000
MTEXTBEGIN
1070
    73
1070
     1
1070
    44
1040
1.0
1070
    74
1070
     0
1000
MTEXTEND
  0
MTEXT
  5
FF
330
18
100
AcDbEntity
  8
Text
100
AcDbMText
 10
7.474999999999999
 20
0.3500000000000001
 30
0.0
 40
0.09
 41
0.75
 71
     6
 72
     5
  1
DJWA
 73
     1
 44
1.0
1001
ACAD
1000
MTEXTBEGIN
1070
    73
1070
     1
1070
    44
1040
1.0
1070
    74
1070
     0
1000
MTEXTEND
  0
MTEXT
  5
102
330
18
100
AcDbEntity
  8
Text
100
AcDbMText
 10
8.75
 20
2.625
 30
0.0
 40
0.09
 41
4.0
 71
     5
 72
     5
  1
FRSTRCLIP.dwg
 73
     1
 44
1.0
1001
ACAD
1000
MTEXTBEGIN
1070
    73
1070
     1
1070
    44
1040
1.0
1070
    74
1070
     0
1000
MTEXTEND
  0
MTEXT
  5
103
330
18
100
AcDbEntity
  8
Text
100
AcDbMText
 10
8.75
 20
1.75
 30
0.0
 40
0.09
 41
4.0
 71
     5
 72
     5
  1
FIBERRUNNER 4x4, 6x4 AND 12x4\PSTRUT CLIP KIT (FRSTRCLIP)\PMARKETING DRAWING
 73
     1
 44
1.0
1001
ACAD
1000
MTEXTBEGIN
1070
    73
1070
     1
1070
    44
1040
1.0
1070
    74
1070
     0
1000
MTEXTEND
  0
MTEXT
  5
104
330
18
100
AcDbEntity
  8
Text
100
AcDbMText
 10
10.0
 20
0.8749999999999998
 30
0.0
 40
0.12
 41
1.5
 71
     5
 72
     5
  1
FULL
 73
     1
 44
1.0
1001
ACAD
1000
MTEXTBEGIN
1070
    73
1070
     1
1070
    44
1040
1.0
1070
    74
1070
     0
1000
MTEXTEND
  0
MTEXT
  5
105
330
18
100
AcDbEntity
  8
Text
100
AcDbMText
 10
9.75
 20
0.5
 30
0.0
 40
0.12
 41
1.0
 71
     5
 72
     5
  1
36897-1184
 73
     1
 44
1.0
1001
ACAD
1000
MTEXTBEGIN
1070
    73
1070
     1
1070
    44
1040
1.0
1070
    74
1070
     0
1000
MTEXTEND
  0
MTEXT
  5
2C6
330
18
100
AcDbEntity
  8
Text
100
AcDbMText
 10
8.358774550634162
 20
7.903701582045286
 30
0.0
 40
0.09
 41
2.261093369285816
 71
     1
 72
     5
  3
{\LNOTES:}\P\P1. THE FIBERRUNNER 4x4, 6x4 AND \P   12x4 STRUT CLIP KIT INCLUDES:\P   TWO (2) CLIPS,\P   TWO (2) {\H0.7x;\S1#4;}-20 CHANNEL NUTS \P              WITHOUT SPRINGS,\P   TWO (2) {\H0.7x;\S1#4;}-20x{\H0.7x;\S7#8;} HEX HEAD CAP \P           
  1
    SCREWS,\P   TWO (2) {\H0.7x;\S1#4;} HELICAL SPRING\P               LOCKWASHERS.
 73
     1
 44
1.0
1001
ACAD
1000
MTEXTBEGIN
1070
    73
1070
     1
1070
    44
1040
1.0
1070
    74
1070
     1
1000
MTEXTEND
  0
TEXT
  5
2C7
330
18
100
AcDbEntity
  8
Text
100
AcDbText
 10
2.680606497316146
 20
5.280821232151076
 30
0.0
 40
0.125
  1
TOP VIEW
100
AcDbText
  0
TEXT
  5
2C8
330
18
100
AcDbEntity
  8
Text
100
AcDbText
 10
2.545152390803593
 20
3.21167763809536
 30
0.0
 40
0.125
  1
FRONT VIEW
100
AcDbText
  0
TEXT
  5
2C9
330
18
100
AcDbEntity
  8
Text
100
AcDbText
 10
7.61555627515727
 20
3.246980184214809
 30
0.0
 40
0.125
  1
RIGHT SIDE VIEW
100
AcDbText
  0
MTEXT
  5
2DB
330
18
100
AcDbEntity
  8
Text
100
AcDbMText
 10
1.560400281422708
 20
0.626249074032665
 30
0.0
 40
0.07
 41
0.375
 71
     5
 72
     5
  1
DJWA
 73
     1
 44
1.0
1001
ACAD
1000
MTEXTBEGIN
1070
    73
1070
     1
1070
    44
1040
1.0
1070
    74
1070
     0
1000
MTEXTEND
  0
LINE
  5
2EB
330
18
100
AcDbEntity
  8
Object
100
AcDbLine
 10
9.13
 20
3.96255566515477
 30
0.0
 11
9.13
 21
3.964555665154769
 31
0.0
  0
LINE
  5
2EC
330
18
100
AcDbEntity
  8
Object
100
AcDbLine
 10
9.13
 20
3.95355566515477
 30
0.0
 11
9.13
 21
3.958555665154769
 31
0.0
  0
LINE
  5
2ED
330
18
100
AcDbEntity
  8
Object
100
AcDbLine
 10
9.13
 20
3.899555665154769
 30
0.0
 11
9.13
 21
3.923555665154769
 31
0.0
  0
LINE
  5
2EE
330
18
100
AcDbEntity
  8
Object
100
AcDbLine
 10
9.13
 20
3.878555665154769
 30
0.0
 11
9.13
 21
3.88455566515477
 31
0.0
  0
LINE
  5
2EF
330
18
100
AcDbEntity
  8
Object
100
AcDbLine
 10
9.13
 20
3.88455566515477
 30
0.0
 11
9.13
 21
3.899555665154769
 31
0.0
  0
LINE
  5
2F0
330
18
100
AcDbEntity
  8
Object
100
AcDbLine
 10
9.13
 20
3.923555665154769
 30
0.0
 11
9.13
 21
3.95355566515477
 31
0.0
  0
LINE
  5
2F1
330
18
100
AcDbEntity
  8
Object
100
AcDbLine
 10
9.13
 20
3.958555665154769
 30
0.0
 11
9.13
 21
3.96255566515477
 31
0.0
  0
LINE
  5
2F2
330
18
100
AcDbEntity
  8
Object
100
AcDbLine
 10
9.13
 20
3.964555665154769
 30
0.0
 11
9.13
 21
3.975555665154769
 31
0.0
  0
LINE
  5
2F3
330
18
100
AcDbEntity
  8
Object
100
AcDbLine
 10
9.13
 20
3.975555665154769
 30
0.0
 11
9.13
 21
4.06555566515477
 31
0.0
  0
LINE
  5
2F4
330
18
100
AcDbEntity
  8
Object
100
AcDbLine
 10
7.54
 20
3.964555665154769
 30
0.0
 11
7.54
 21
3.96255566515477
 31
0.0
  0
LINE
  5
2F5
330
18
100
AcDbEntity
  8
Object
100
AcDbLine
 10
7.54
 20
3.958555665154769
 30
0.0
 11
7.54
 21
3.95355566515477
 31
0.0
  0
LINE
  5
2F6
330
18
100
AcDbEntity
  8
Object
100
AcDbLine
 10
7.54
 20
3.923555665154769
 30
0.0
 11
7.54
 21
3.899555665154769
 31
0.0
  0
LINE
  5
2F7
330
18
100
AcDbEntity
  8
Object
100
AcDbLine
 10
7.54
 20
3.878555665154769
 30
0.0
 11
7.54
 21
3.88455566515477
 31
0.0
  0
LINE
  5
2F8
330
18
100
AcDbEntity
  8
Object
100
AcDbLine
 10
7.54
 20
3.88455566515477
 30
0.0
 11
7.54
 21
3.899555665154769
 31
0.0
  0
LINE
  5
2F9
330
18
100
AcDbEntity
  8
Object
100
AcDbLine
 10
7.54
 20
3.95355566515477
 30
0.0
 11
7.54
 21
3.923555665154769
 31
0.0
  0
LINE
  5
2FA
330
18
100
AcDbEntity
  8
Object
100
AcDbLine
 10
7.54
 20
3.96255566515477
 30
0.0
 11
7.54
 21
3.958555665154769
 31
0.0
  0
LINE
  5
2FB
330
18
100
AcDbEntity
  8
Object
100
AcDbLine
 10
7.54
 20
3.964555665154769
 30
0.0
 11
7.54
 21
3.975555665154769
 31
0.0
  0
LINE
  5
2FC
330
18
100
AcDbEntity
  8
Object
100
AcDbLine
 10
7.54
 20
3.975555665154769
 30
0.0
 11
7.54
 21
4.06555566515477
 31
0.0
  0
LINE
  5
2FD
330
18
100
AcDbEntity
  8
Object
100
AcDbLine
 10
9.259999999999999
 20
3.838555665154769
 30
0.0
 11
9.253999999999999
 21
3.878555665154769
 31
0.0
  0
LINE
  5
2FE
330
18
100
AcDbEntity
  8
Object
100
AcDbLine
 10
9.253999999999999
 20
3.878555665154769
 30
0.0
 11
9.234999999999999
 21
3.915555665154769
 31
0.0
  0
LINE
  5
2FF
330
18
100
AcDbEntity
  8
Object
100
AcDbLine
 10
9.234999999999999
 20
3.915555665154769
 30
0.0
 11
9.205999999999999
 21
3.943555665154769
 31
0.0
  0
LINE
  5
300
330
18
100
AcDbEntity
  8
Object
100
AcDbLine
 10
9.205999999999999
 20
3.943555665154769
 30
0.0
 11
9.169999999999999
 21
3.96255566515477
 31
0.0
  0
LINE
  5
301
330
18
100
AcDbEntity
  8
Object
100
AcDbLine
 10
9.169999999999999
 20
3.96255566515477
 30
0.0
 11
9.13
 21
3.968555665154769
 31
0.0
  0
LINE
  5
302
330
18
100
AcDbEntity
  8
Object
100
AcDbLine
 10
7.54
 20
3.968555665154769
 30
0.0
 11
7.5
 21
3.96255566515477
 31
0.0
  0
LINE
  5
303
330
18
100
AcDbEntity
  8
Object
100
AcDbLine
 10
7.5
 20
3.96255566515477
 30
0.0
 11
7.463
 21
3.943555665154769
 31
0.0
  0
LINE
  5
304
330
18
100
AcDbEntity
  8
Object
100
AcDbLine
 10
7.463
 20
3.943555665154769
 30
0.0
 11
7.435
 21
3.915555665154769
 31
0.0
  0
LINE
  5
305
330
18
100
AcDbEntity
  8
Object
100
AcDbLine
 10
7.435
 20
3.915555665154769
 30
0.0
 11
7.416
 21
3.878555665154769
 31
0.0
  0
LINE
  5
306
330
18
100
AcDbEntity
  8
Object
100
AcDbLine
 10
7.416
 20
3.878555665154769
 30
0.0
 11
7.41
 21
3.838555665154769
 31
0.0
  0
LINE
  5
307
330
18
100
AcDbEntity
  8
Object
100
AcDbLine
 10
7.54
 20
3.878555665154769
 30
0.0
 11
9.13
 21
3.878555665154769
 31
0.0
  0
LINE
  5
308
330
18
100
AcDbEntity
  8
Object
100
AcDbLine
 10
9.13
 20
3.88455566515477
 30
0.0
 11
9.13
 21
3.899555665154769
 31
0.0
  0
LINE
  5
309
330
18
100
AcDbEntity
  8
Object
100
AcDbLine
 10
7.54
 20
3.88455566515477
 30
0.0
 11
7.54
 21
3.899555665154769
 31
0.0
  0
LINE
  5
30A
330
18
100
AcDbEntity
  8
Object
100
AcDbLine
 10
7.54
 20
3.899555665154769
 30
0.0
 11
7.54
 21
3.923555665154769
 31
0.0
  0
LINE
  5
30B
330
18
100
AcDbEntity
  8
Object
100
AcDbLine
 10
7.54
 20
3.923555665154769
 30
0.0
 11
7.54
 21
3.95355566515477
 31
0.0
  0
LINE
  5
30C
330
18
100
AcDbEntity
  8
Object
100
AcDbLine
 10
7.54
 20
3.95355566515477
 30
0.0
 11
9.13
 21
3.95355566515477
 31
0.0
  0
LINE
  5
30D
330
18
100
AcDbEntity
  8
Object
100
AcDbLine
 10
9.13
 20
3.95355566515477
 30
0.0
 11
9.13
 21
3.923555665154769
 31
0.0
  0
LINE
  5
30E
330
18
100
AcDbEntity
  8
Object
100
AcDbLine
 10
9.13
 20
3.923555665154769
 30
0.0
 11
9.13
 21
3.899555665154769
 31
0.0
  0
LINE
  5
30F
330
18
100
AcDbEntity
  8
Object
100
AcDbLine
 10
7.54
 20
3.88455566515477
 30
0.0
 11
7.54
 21
3.878555665154769
 31
0.0
  0
LINE
  5
310
330
18
100
AcDbEntity
  8
Object
100
AcDbLine
 10
9.13
 20
3.88455566515477
 30
0.0
 11
9.13
 21
3.878555665154769
 31
0.0
  0
LINE
  5
311
330
18
100
AcDbEntity
  8
Object
100
AcDbLine
 10
9.13
 20
3.878555665154769
 30
0.0
 11
7.54
 21
3.878555665154769
 31
0.0
  0
LINE
  5
312
330
18
100
AcDbEntity
  8
Object
100
AcDbLine
 10
7.54
 20
3.975555665154769
 30
0.0
 11
7.54
 21
4.06555566515477
 31
0.0
  0
LINE
  5
313
330
18
100
AcDbEntity
  8
Object
100
AcDbLine
 10
7.54
 20
4.06555566515477
 30
0.0
 11
9.13
 21
4.06555566515477
 31
0.0
  0
LINE
  5
314
330
18
100
AcDbEntity
  8
Object
100
AcDbLine
 10
9.13
 20
4.06555566515477
 30
0.0
 11
9.13
 21
3.975555665154769
 31
0.0
  0
LINE
  5
315
330
18
100
AcDbEntity
  8
Object
100
AcDbLine
 10
9.13
 20
3.975555665154769
 30
0.0
 11
7.54
 21
3.975555665154769
 31
0.0
  0
LINE
  5
316
330
18
100
AcDbEntity
  8
Object
100
AcDbLine
 10
9.13
 20
3.96255566515477
 30
0.0
 11
9.13
 21
3.964555665154769
 31
0.0
  0
LINE
  5
317
330
18
100
AcDbEntity
  8
Object
100
AcDbLine
 10
7.54
 20
3.96255566515477
 30
0.0
 11
7.54
 21
3.964555665154769
 31
0.0
  0
LINE
  5
318
330
18
100
AcDbEntity
  8
Object
100
AcDbLine
 10
7.54
 20
3.964555665154769
 30
0.0
 11
9.13
 21
3.964555665154769
 31
0.0
  0
LINE
  5
319
330
18
100
AcDbEntity
  8
Object
100
AcDbLine
 10
7.54
 20
3.96255566515477
 30
0.0
 11
7.54
 21
3.958555665154769
 31
0.0
  0
LINE
  5
31A
330
18
100
AcDbEntity
  8
Object
100
AcDbLine
 10
9.13
 20
3.96255566515477
 30
0.0
 11
9.13
 21
3.958555665154769
 31
0.0
  0
LINE
  5
31B
330
18
100
AcDbEntity
  8
Object
100
AcDbLine
 10
9.13
 20
3.958555665154769
 30
0.0
 11
9.13
 21
3.95355566515477
 31
0.0
  0
LINE
  5
31C
330
18
100
AcDbEntity
  8
Object
100
AcDbLine
 10
7.54
 20
3.958555665154769
 30
0.0
 11
7.54
 21
3.95355566515477
 31
0.0
  0
LINE
  5
31D
330
18
100
AcDbEntity
  8
Object
100
AcDbLine
 10
9.259999999999999
 20
3.838555665154769
 30
0.0
 11
9.253999999999999
 21
3.878555665154769
 31
0.0
  0
LINE
  5
31E
330
18
100
AcDbEntity
  8
Object
100
AcDbLine
 10
9.205999999999999
 20
3.943555665154769
 30
0.0
 11
9.234999999999999
 21
3.915555665154769
 31
0.0
  0
LINE
  5
31F
330
18
100
AcDbEntity
  8
Object
100
AcDbLine
 10
9.234999999999999
 20
3.915555665154769
 30
0.0
 11
9.253999999999999
 21
3.878555665154769
 31
0.0
  0
LINE
  5
320
330
18
100
AcDbEntity
  8
Object
100
AcDbLine
 10
9.169999999999999
 20
3.838555665154769
 30
0.0
 11
9.165
 21
3.858555665154769
 31
0.0
  0
LINE
  5
321
330
18
100
AcDbEntity
  8
Object
100
AcDbLine
 10
9.165
 20
3.858555665154769
 30
0.0
 11
9.15
 21
3.87355566515477
 31
0.0
  0
LINE
  5
322
330
18
100
AcDbEntity
  8
Object
100
AcDbLine
 10
9.205999999999999
 20
3.943555665154769
 30
0.0
 11
9.169999999999999
 21
3.96255566515477
 31
0.0
  0
LINE
  5
323
330
18
100
AcDbEntity
  8
Object
100
AcDbLine
 10
9.13
 20
3.878555665154769
 30
0.0
 11
9.15
 21
3.87355566515477
 31
0.0
  0
LINE
  5
324
330
18
100
AcDbEntity
  8
Object
100
AcDbLine
 10
9.169999999999999
 20
3.96255566515477
 30
0.0
 11
9.13
 21
3.968555665154769
 31
0.0
  0
LINE
  5
325
330
18
100
AcDbEntity
  8
Object
100
AcDbLine
 10
7.54
 20
3.975555665154769
 30
0.0
 11
7.54
 21
3.964555665154769
 31
0.0
  0
LINE
  5
326
330
18
100
AcDbEntity
  8
Object
100
AcDbLine
 10
9.13
 20
3.964555665154769
 30
0.0
 11
9.13
 21
3.975555665154769
 31
0.0
  0
LINE
  5
327
330
18
100
AcDbEntity
  8
Object
100
AcDbLine
 10
7.52
 20
3.87355566515477
 30
0.0
 11
7.54
 21
3.878555665154769
 31
0.0
  0
LINE
  5
328
330
18
100
AcDbEntity
  8
Object
100
AcDbLine
 10
7.54
 20
3.968555665154769
 30
0.0
 11
7.5
 21
3.96255566515477
 31
0.0
  0
LINE
  5
329
330
18
100
AcDbEntity
  8
Object
100
AcDbLine
 10
7.5
 20
3.96255566515477
 30
0.0
 11
7.463
 21
3.943555665154769
 31
0.0
  0
LINE
  5
32A
330
18
100
AcDbEntity
  8
Object
100
AcDbLine
 10
7.463
 20
3.943555665154769
 30
0.0
 11
7.435
 21
3.915555665154769
 31
0.0
  0
LINE
  5
32B
330
18
100
AcDbEntity
  8
Object
100
AcDbLine
 10
7.52
 20
3.87355566515477
 30
0.0
 11
7.504999999999999
 21
3.858555665154769
 31
0.0
  0
LINE
  5
32C
330
18
100
AcDbEntity
  8
Object
100
AcDbLine
 10
7.504999999999999
 20
3.858555665154769
 30
0.0
 11
7.5
 21
3.838555665154769
 31
0.0
  0
LINE
  5
32D
330
18
100
AcDbEntity
  8
Object
100
AcDbLine
 10
7.435
 20
3.915555665154769
 30
0.0
 11
7.416
 21
3.878555665154769
 31
0.0
  0
LINE
  5
32E
330
18
100
AcDbEntity
  8
Object
100
AcDbLine
 10
7.416
 20
3.878555665154769
 30
0.0
 11
7.41
 21
3.838555665154769
 31
0.0
  0
LINE
  5
32F
330
18
100
AcDbEntity
  8
Object
100
AcDbLine
 10
9.259999999999999
 20
3.59055566515477
 30
0.0
 11
9.259999999999999
 21
3.572555665154769
 31
0.0
  0
LINE
  5
330
330
18
100
AcDbEntity
  8
Object
100
AcDbLine
 10
9.259999999999999
 20
3.572555665154769
 30
0.0
 11
9.259999999999999
 21
3.56655566515477
 31
0.0
  0
LINE
  5
331
330
18
100
AcDbEntity
  8
Object
100
AcDbLine
 10
9.259999999999999
 20
3.59055566515477
 30
0.0
 11
9.259999999999999
 21
3.61855566515477
 31
0.0
  0
LINE
  5
332
330
18
100
AcDbEntity
  8
Object
100
AcDbLine
 10
9.259999999999999
 20
3.61855566515477
 30
0.0
 11
9.259999999999999
 21
3.653555665154769
 31
0.0
  0
LINE
  5
333
330
18
100
AcDbEntity
  8
Object
100
AcDbLine
 10
9.259999999999999
 20
3.653555665154769
 30
0.0
 11
9.259999999999999
 21
3.69155566515477
 31
0.0
  0
LINE
  5
334
330
18
100
AcDbEntity
  8
Object
100
AcDbLine
 10
9.259999999999999
 20
3.69155566515477
 30
0.0
 11
9.259999999999999
 21
3.838555665154769
 31
0.0
  0
LINE
  5
335
330
18
100
AcDbEntity
  8
Object
100
AcDbLine
 10
9.067
 20
4.06555566515477
 30
0.0
 11
8.929
 21
4.144555665154769
 31
0.0
  0
LINE
  5
336
330
18
100
AcDbEntity
  8
Object
100
AcDbLine
 10
8.929
 20
4.144555665154769
 30
0.0
 11
8.923999999999999
 21
4.146555665154769
 31
0.0
  0
LINE
  5
337
330
18
100
AcDbEntity
  8
Object
100
AcDbLine
 10
8.913999999999999
 20
4.14855566515477
 30
0.0
 11
8.919
 21
4.14855566515477
 31
0.0
  0
LINE
  5
338
330
18
100
AcDbEntity
  8
Object
100
AcDbLine
 10
8.919
 20
4.14855566515477
 30
0.0
 11
8.923999999999999
 21
4.146555665154769
 31
0.0
  0
LINE
  5
339
330
18
100
AcDbEntity
  8
Object
100
AcDbLine
 10
7.745
 20
4.146555665154769
 30
0.0
 11
7.751
 21
4.14855566515477
 31
0.0
  0
LINE
  5
33A
330
18
100
AcDbEntity
  8
Object
100
AcDbLine
 10
7.751
 20
4.14855566515477
 30
0.0
 11
7.756
 21
4.14855566515477
 31
0.0
  0
LINE
  5
33B
330
18
100
AcDbEntity
  8
Object
100
AcDbLine
 10
7.745
 20
4.146555665154769
 30
0.0
 11
7.741
 21
4.144555665154769
 31
0.0
  0
LINE
  5
33C
330
18
100
AcDbEntity
  8
Object
100
AcDbLine
 10
7.741
 20
4.144555665154769
 30
0.0
 11
7.602999999999999
 21
4.06555566515477
 31
0.0
  0
LINE
  5
33D
330
18
100
AcDbEntity
  8
Object
100
AcDbLine
 10
8.913999999999999
 20
4.14855566515477
 30
0.0
 11
7.756
 21
4.14855566515477
 31
0.0
  0
LINE
  5
33E
330
18
100
AcDbEntity
  8
Object
100
AcDbLine
 10
7.41
 20
3.61855566515477
 30
0.0
 11
7.41
 21
3.653555665154769
 31
0.0
  0
LINE
  5
33F
330
18
100
AcDbEntity
  8
Object
100
AcDbLine
 10
7.41
 20
3.653555665154769
 30
0.0
 11
7.41
 21
3.69155566515477
 31
0.0
  0
LINE
  5
340
330
18
100
AcDbEntity
  8
Object
100
AcDbLine
 10
7.41
 20
3.61855566515477
 30
0.0
 11
7.41
 21
3.59055566515477
 31
0.0
  0
LINE
  5
341
330
18
100
AcDbEntity
  8
Object
100
AcDbLine
 10
7.41
 20
3.59055566515477
 30
0.0
 11
7.41
 21
3.572555665154769
 31
0.0
  0
LINE
  5
342
330
18
100
AcDbEntity
  8
Object
100
AcDbLine
 10
7.41
 20
3.572555665154769
 30
0.0
 11
7.41
 21
3.56655566515477
 31
0.0
  0
LINE
  5
343
330
18
100
AcDbEntity
  8
Object
100
AcDbLine
 10
7.41
 20
3.838555665154769
 30
0.0
 11
7.41
 21
3.69155566515477
 31
0.0
  0
LINE
  5
344
330
18
100
AcDbEntity
  8
Object
100
AcDbLine
 10
9.169999999999999
 20
3.838555665154769
 30
0.0
 11
9.165
 21
3.858555665154769
 31
0.0
  0
LINE
  5
345
330
18
100
AcDbEntity
  8
Object
100
AcDbLine
 10
9.165
 20
3.858555665154769
 30
0.0
 11
9.15
 21
3.87355566515477
 31
0.0
  0
LINE
  5
346
330
18
100
AcDbEntity
  8
Object
100
AcDbLine
 10
9.15
 20
3.87355566515477
 30
0.0
 11
9.13
 21
3.878555665154769
 31
0.0
  0
LINE
  5
347
330
18
100
AcDbEntity
  8
Object
100
AcDbLine
 10
7.54
 20
3.878555665154769
 30
0.0
 11
7.52
 21
3.87355566515477
 31
0.0
  0
LINE
  5
348
330
18
100
AcDbEntity
  8
Object
100
AcDbLine
 10
7.52
 20
3.87355566515477
 30
0.0
 11
7.504999999999999
 21
3.858555665154769
 31
0.0
  0
LINE
  5
349
330
18
100
AcDbEntity
  8
Object
100
AcDbLine
 10
7.504999999999999
 20
3.858555665154769
 30
0.0
 11
7.5
 21
3.838555665154769
 31
0.0
  0
LINE
  5
34A
330
18
100
AcDbEntity
  8
Object
100
AcDbLine
 10
9.259999999999999
 20
3.69155566515477
 30
0.0
 11
9.169999999999999
 21
3.69155566515477
 31
0.0
  0
LINE
  5
34B
330
18
100
AcDbEntity
  8
Object
100
AcDbLine
 10
9.169999999999999
 20
3.69155566515477
 30
0.0
 11
9.169999999999999
 21
3.838555665154769
 31
0.0
  0
LINE
  5
34C
330
18
100
AcDbEntity
  8
Object
100
AcDbLine
 10
9.169999999999999
 20
3.838555665154769
 30
0.0
 11
9.259999999999999
 21
3.838555665154769
 31
0.0
  0
LINE
  5
34D
330
18
100
AcDbEntity
  8
Object
100
AcDbLine
 10
9.259999999999999
 20
3.838555665154769
 30
0.0
 11
9.259999999999999
 21
3.69155566515477
 31
0.0
  0
LINE
  5
34E
330
18
100
AcDbEntity
  8
Object
100
AcDbLine
 10
7.41
 20
3.838555665154769
 30
0.0
 11
7.5
 21
3.838555665154769
 31
0.0
  0
LINE
  5
34F
330
18
100
AcDbEntity
  8
Object
100
AcDbLine
 10
7.5
 20
3.838555665154769
 30
0.0
 11
7.5
 21
3.69155566515477
 31
0.0
  0
LINE
  5
350
330
18
100
AcDbEntity
  8
Object
100
AcDbLine
 10
7.5
 20
3.69155566515477
 30
0.0
 11
7.41
 21
3.69155566515477
 31
0.0
  0
LINE
  5
351
330
18
100
AcDbEntity
  8
Object
100
AcDbLine
 10
7.41
 20
3.69155566515477
 30
0.0
 11
7.41
 21
3.838555665154769
 31
0.0
  0
LINE
  5
352
330
18
100
AcDbEntity
  8
Object
100
AcDbLine
 10
9.169999999999999
 20
3.56655566515477
 30
0.0
 11
9.259999999999999
 21
3.56655566515477
 31
0.0
  0
LINE
  5
353
330
18
100
AcDbEntity
  8
Object
100
AcDbLine
 10
9.259999999999999
 20
3.572555665154769
 30
0.0
 11
9.259999999999999
 21
3.59055566515477
 31
0.0
  0
LINE
  5
354
330
18
100
AcDbEntity
  8
Object
100
AcDbLine
 10
9.169999999999999
 20
3.59055566515477
 30
0.0
 11
9.169999999999999
 21
3.572555665154769
 31
0.0
  0
LINE
  5
355
330
18
100
AcDbEntity
  8
Object
100
AcDbLine
 10
9.259999999999999
 20
3.61855566515477
 30
0.0
 11
9.259999999999999
 21
3.653555665154769
 31
0.0
  0
LINE
  5
356
330
18
100
AcDbEntity
  8
Object
100
AcDbLine
 10
9.169999999999999
 20
3.61855566515477
 30
0.0
 11
9.169999999999999
 21
3.653555665154769
 31
0.0
  0
LINE
  5
357
330
18
100
AcDbEntity
  8
Object
100
AcDbLine
 10
9.169999999999999
 20
3.653555665154769
 30
0.0
 11
9.169999999999999
 21
3.69155566515477
 31
0.0
  0
LINE
  5
358
330
18
100
AcDbEntity
  8
Object
100
AcDbLine
 10
9.259999999999999
 20
3.653555665154769
 30
0.0
 11
9.259999999999999
 21
3.69155566515477
 31
0.0
  0
LINE
  5
359
330
18
100
AcDbEntity
  8
Object
100
AcDbLine
 10
9.169999999999999
 20
3.61855566515477
 30
0.0
 11
9.169999999999999
 21
3.59055566515477
 31
0.0
  0
LINE
  5
35A
330
18
100
AcDbEntity
  8
Object
100
AcDbLine
 10
9.259999999999999
 20
3.59055566515477
 30
0.0
 11
9.259999999999999
 21
3.61855566515477
 31
0.0
  0
LINE
  5
35B
330
18
100
AcDbEntity
  8
Object
100
AcDbLine
 10
9.259999999999999
 20
3.572555665154769
 30
0.0
 11
9.259999999999999
 21
3.56655566515477
 31
0.0
  0
LINE
  5
35C
330
18
100
AcDbEntity
  8
Object
100
AcDbLine
 10
9.259999999999999
 20
3.56655566515477
 30
0.0
 11
9.169999999999999
 21
3.56655566515477
 31
0.0
  0
LINE
  5
35D
330
18
100
AcDbEntity
  8
Object
100
AcDbLine
 10
9.169999999999999
 20
3.56655566515477
 30
0.0
 11
9.169999999999999
 21
3.572555665154769
 31
0.0
  0
LINE
  5
35E
330
18
100
AcDbEntity
  8
Object
100
AcDbLine
 10
7.741
 20
4.144555665154769
 30
0.0
 11
7.602999999999999
 21
4.06555566515477
 31
0.0
  0
LINE
  5
35F
330
18
100
AcDbEntity
  8
Object
100
AcDbLine
 10
8.929
 20
4.144555665154769
 30
0.0
 11
8.923999999999999
 21
4.146555665154769
 31
0.0
  0
LINE
  5
360
330
18
100
AcDbEntity
  8
Object
100
AcDbLine
 10
8.923999999999999
 20
4.146555665154769
 30
0.0
 11
8.919
 21
4.14855566515477
 31
0.0
  0
LINE
  5
361
330
18
100
AcDbEntity
  8
Object
100
AcDbLine
 10
8.919
 20
4.14855566515477
 30
0.0
 11
8.913999999999999
 21
4.14855566515477
 31
0.0
  0
LINE
  5
362
330
18
100
AcDbEntity
  8
Object
100
AcDbLine
 10
7.756
 20
4.14855566515477
 30
0.0
 11
7.751
 21
4.14855566515477
 31
0.0
  0
LINE
  5
363
330
18
100
AcDbEntity
  8
Object
100
AcDbLine
 10
7.751
 20
4.14855566515477
 30
0.0
 11
7.745
 21
4.146555665154769
 31
0.0
  0
LINE
  5
364
330
18
100
AcDbEntity
  8
Object
100
AcDbLine
 10
7.745
 20
4.146555665154769
 30
0.0
 11
7.741
 21
4.144555665154769
 31
0.0
  0
LINE
  5
365
330
18
100
AcDbEntity
  8
Object
100
AcDbLine
 10
8.913999999999999
 20
4.14855566515477
 30
0.0
 11
7.756
 21
4.14855566515477
 31
0.0
  0
LINE
  5
366
330
18
100
AcDbEntity
  8
Object
100
AcDbLine
 10
9.067
 20
4.06555566515477
 30
0.0
 11
8.929
 21
4.144555665154769
 31
0.0
  0
LINE
  5
367
330
18
100
AcDbEntity
  8
Object
100
AcDbLine
 10
7.41
 20
3.56655566515477
 30
0.0
 11
7.5
 21
3.56655566515477
 31
0.0
  0
LINE
  5
368
330
18
100
AcDbEntity
  8
Object
100
AcDbLine
 10
7.41
 20
3.69155566515477
 30
0.0
 11
7.41
 21
3.653555665154769
 31
0.0
  0
LINE
  5
369
330
18
100
AcDbEntity
  8
Object
100
AcDbLine
 10
7.5
 20
3.61855566515477
 30
0.0
 11
7.5
 21
3.653555665154769
 31
0.0
  0
LINE
  5
36A
330
18
100
AcDbEntity
  8
Object
100
AcDbLine
 10
7.41
 20
3.61855566515477
 30
0.0
 11
7.41
 21
3.59055566515477
 31
0.0
  0
LINE
  5
36B
330
18
100
AcDbEntity
  8
Object
100
AcDbLine
 10
7.5
 20
3.59055566515477
 30
0.0
 11
7.5
 21
3.572555665154769
 31
0.0
  0
LINE
  5
36C
330
18
100
AcDbEntity
  8
Object
100
AcDbLine
 10
7.5
 20
3.572555665154769
 30
0.0
 11
7.5
 21
3.56655566515477
 31
0.0
  0
LINE
  5
36D
330
18
100
AcDbEntity
  8
Object
100
AcDbLine
 10
7.5
 20
3.56655566515477
 30
0.0
 11
7.41
 21
3.56655566515477
 31
0.0
  0
LINE
  5
36E
330
18
100
AcDbEntity
  8
Object
100
AcDbLine
 10
7.41
 20
3.56655566515477
 30
0.0
 11
7.41
 21
3.572555665154769
 31
0.0
  0
LINE
  5
36F
330
18
100
AcDbEntity
  8
Object
100
AcDbLine
 10
7.41
 20
3.572555665154769
 30
0.0
 11
7.41
 21
3.59055566515477
 31
0.0
  0
LINE
  5
370
330
18
100
AcDbEntity
  8
Object
100
AcDbLine
 10
7.5
 20
3.59055566515477
 30
0.0
 11
7.5
 21
3.61855566515477
 31
0.0
  0
LINE
  5
371
330
18
100
AcDbEntity
  8
Object
100
AcDbLine
 10
7.41
 20
3.653555665154769
 30
0.0
 11
7.41
 21
3.61855566515477
 31
0.0
  0
LINE
  5
372
330
18
100
AcDbEntity
  8
Object
100
AcDbLine
 10
7.5
 20
3.653555665154769
 30
0.0
 11
7.5
 21
3.69155566515477
 31
0.0
  0
LINE
  5
373
330
18
100
AcDbEntity
  8
Object
100
AcDbLine
 10
9.169999999999999
 20
3.838555665154769
 30
0.0
 11
9.169999999999999
 21
3.69155566515477
 31
0.0
  0
LINE
  5
374
330
18
100
AcDbEntity
  8
Object
100
AcDbLine
 10
9.169999999999999
 20
3.61855566515477
 30
0.0
 11
9.169999999999999
 21
3.653555665154769
 31
0.0
  0
LINE
  5
375
330
18
100
AcDbEntity
  8
Object
100
AcDbLine
 10
9.169999999999999
 20
3.653555665154769
 30
0.0
 11
9.169999999999999
 21
3.69155566515477
 31
0.0
  0
LINE
  5
376
330
18
100
AcDbEntity
  8
Object
100
AcDbLine
 10
9.169999999999999
 20
3.61855566515477
 30
0.0
 11
9.169999999999999
 21
3.59055566515477
 31
0.0
  0
LINE
  5
377
330
18
100
AcDbEntity
  8
Object
100
AcDbLine
 10
9.169999999999999
 20
3.59055566515477
 30
0.0
 11
9.169999999999999
 21
3.572555665154769
 31
0.0
  0
LINE
  5
378
330
18
100
AcDbEntity
  8
Object
100
AcDbLine
 10
9.169999999999999
 20
3.572555665154769
 30
0.0
 11
9.169999999999999
 21
3.56655566515477
 31
0.0
  0
LINE
  5
379
330
18
100
AcDbEntity
  8
Object
100
AcDbLine
 10
7.5
 20
3.59055566515477
 30
0.0
 11
7.5
 21
3.572555665154769
 31
0.0
  0
LINE
  5
37A
330
18
100
AcDbEntity
  8
Object
100
AcDbLine
 10
7.5
 20
3.572555665154769
 30
0.0
 11
7.5
 21
3.56655566515477
 31
0.0
  0
LINE
  5
37B
330
18
100
AcDbEntity
  8
Object
100
AcDbLine
 10
7.5
 20
3.59055566515477
 30
0.0
 11
7.5
 21
3.61855566515477
 31
0.0
  0
LINE
  5
37C
330
18
100
AcDbEntity
  8
Object
100
AcDbLine
 10
7.5
 20
3.61855566515477
 30
0.0
 11
7.5
 21
3.653555665154769
 31
0.0
  0
LINE
  5
37D
330
18
100
AcDbEntity
  8
Object
100
AcDbLine
 10
7.5
 20
3.653555665154769
 30
0.0
 11
7.5
 21
3.69155566515477
 31
0.0
  0
LINE
  5
37E
330
18
100
AcDbEntity
  8
Object
100
AcDbLine
 10
7.5
 20
3.69155566515477
 30
0.0
 11
7.5
 21
3.838555665154769
 31
0.0
  0
LINE
  5
37F
330
18
100
AcDbEntity
  8
Object
100
AcDbLine
 10
4.062999999999999
 20
3.968555665154769
 30
0.0
 11
4.044
 21
3.968555665154769
 31
0.0
  0
LINE
  5
380
330
18
100
AcDbEntity
  8
Object
100
AcDbLine
 10
4.044
 20
3.968555665154769
 30
0.0
 11
1.919999999999999
 21
3.968555665154769
 31
0.0
  0
LINE
  5
381
330
18
100
AcDbEntity
  8
Object
100
AcDbLine
 10
4.171999999999999
 20
3.964555665154769
 30
0.0
 11
4.379999999999999
 21
3.975555665154769
 31
0.0
  0
LINE
  5
382
330
18
100
AcDbEntity
  8
Object
100
AcDbLine
 10
4.171999999999999
 20
4.05455566515477
 30
0.0
 11
4.376
 21
4.06555566515477
 31
0.0
  0
LINE
  5
383
330
18
100
AcDbEntity
  8
Object
100
AcDbLine
 10
4.376
 20
4.06555566515477
 30
0.0
 11
4.379999999999999
 21
3.975555665154769
 31
0.0
  0
LINE
  5
384
330
18
100
AcDbEntity
  8
Object
100
AcDbLine
 10
4.171999999999999
 20
4.05455566515477
 30
0.0
 11
4.141
 21
4.047555665154769
 31
0.0
  0
LINE
  5
385
330
18
100
AcDbEntity
  8
Object
100
AcDbLine
 10
4.171999999999999
 20
3.964555665154769
 30
0.0
 11
4.166
 21
3.96255566515477
 31
0.0
  0
LINE
  5
386
330
18
100
AcDbEntity
  8
Object
100
AcDbLine
 10
4.166
 20
3.96255566515477
 30
0.0
 11
4.161
 21
3.958555665154769
 31
0.0
  0
LINE
  5
387
330
18
100
AcDbEntity
  8
Object
100
AcDbLine
 10
4.141
 20
4.047555665154769
 30
0.0
 11
4.113
 21
4.032555665154769
 31
0.0
  0
LINE
  5
388
330
18
100
AcDbEntity
  8
Object
100
AcDbLine
 10
4.113
 20
4.032555665154769
 30
0.0
 11
4.091
 21
4.008555665154769
 31
0.0
  0
LINE
  5
389
330
18
100
AcDbEntity
  8
Object
100
AcDbLine
 10
4.161
 20
3.958555665154769
 30
0.0
 11
4.158
 21
3.95355566515477
 31
0.0
  0
LINE
  5
38A
330
18
100
AcDbEntity
  8
Object
100
AcDbLine
 10
4.158
 20
3.95355566515477
 30
0.0
 11
4.144
 21
3.923555665154769
 31
0.0
  0
LINE
  5
38B
330
18
100
AcDbEntity
  8
Object
100
AcDbLine
 10
4.091
 20
4.008555665154769
 30
0.0
 11
4.076999999999999
 21
3.979555665154769
 31
0.0
  0
LINE
  5
38C
330
18
100
AcDbEntity
  8
Object
100
AcDbLine
 10
4.076999999999999
 20
3.979555665154769
 30
0.0
 11
4.073999999999999
 21
3.97355566515477
 31
0.0
  0
LINE
  5
38D
330
18
100
AcDbEntity
  8
Object
100
AcDbLine
 10
4.144
 20
3.923555665154769
 30
0.0
 11
4.12
 21
3.899555665154769
 31
0.0
  0
LINE
  5
38E
330
18
100
AcDbEntity
  8
Object
100
AcDbLine
 10
4.12
 20
3.899555665154769
 30
0.0
 11
4.091
 21
3.88455566515477
 31
0.0
  0
LINE
  5
38F
330
18
100
AcDbEntity
  8
Object
100
AcDbLine
 10
4.073999999999999
 20
3.97355566515477
 30
0.0
 11
4.068999999999999
 21
3.970555665154769
 31
0.0
  0
LINE
  5
390
330
18
100
AcDbEntity
  8
Object
100
AcDbLine
 10
4.068999999999999
 20
3.970555665154769
 30
0.0
 11
4.062999999999999
 21
3.968555665154769
 31
0.0
  0
LINE
  5
391
330
18
100
AcDbEntity
  8
Object
100
AcDbLine
 10
4.091
 20
3.88455566515477
 30
0.0
 11
4.057999999999999
 21
3.878555665154769
 31
0.0
  0
LINE
  5
392
330
18
100
AcDbEntity
  8
Object
100
AcDbLine
 10
4.057999999999999
 20
3.878555665154769
 30
0.0
 11
4.044
 21
3.878555665154769
 31
0.0
  0
LINE
  5
393
330
18
100
AcDbEntity
  8
Object
100
AcDbLine
 10
4.062999999999999
 20
3.968555665154769
 30
0.0
 11
4.044
 21
3.968555665154769
 31
0.0
  0
LINE
  5
394
330
18
100
AcDbEntity
  8
Object
100
AcDbLine
 10
1.919999999999999
 20
3.968555665154769
 30
0.0
 11
1.9
 21
3.974555665154769
 31
0.0
  0
LINE
  5
395
330
18
100
AcDbEntity
  8
Object
100
AcDbLine
 10
1.9
 20
3.974555665154769
 30
0.0
 11
1.886
 21
3.988555665154769
 31
0.0
  0
LINE
  5
396
330
18
100
AcDbEntity
  8
Object
100
AcDbLine
 10
1.886
 20
3.988555665154769
 30
0.0
 11
1.879999999999999
 21
4.008555665154769
 31
0.0
  0
LINE
  5
397
330
18
100
AcDbEntity
  8
Object
100
AcDbLine
 10
1.919999999999999
 20
3.96255566515477
 30
0.0
 11
1.919999999999999
 21
3.943555665154769
 31
0.0
  0
LINE
  5
398
330
18
100
AcDbEntity
  8
Object
100
AcDbLine
 10
4.044
 20
3.943555665154769
 30
0.0
 11
4.044
 21
3.96255566515477
 31
0.0
  0
LINE
  5
399
330
18
100
AcDbEntity
  8
Object
100
AcDbLine
 10
1.919999999999999
 20
3.96255566515477
 30
0.0
 11
1.919999999999999
 21
3.968555665154769
 31
0.0
  0
LINE
  5
39A
330
18
100
AcDbEntity
  8
Object
100
AcDbLine
 10
1.919999999999999
 20
3.968555665154769
 30
0.0
 11
4.044
 21
3.968555665154769
 31
0.0
  0
LINE
  5
39B
330
18
100
AcDbEntity
  8
Object
100
AcDbLine
 10
4.044
 20
3.968555665154769
 30
0.0
 11
4.044
 21
3.96255566515477
 31
0.0
  0
LINE
  5
39C
330
18
100
AcDbEntity
  8
Object
100
AcDbLine
 10
1.919999999999999
 20
3.943555665154769
 30
0.0
 11
1.919999999999999
 21
3.915555665154769
 31
0.0
  0
LINE
  5
39D
330
18
100
AcDbEntity
  8
Object
100
AcDbLine
 10
4.044
 20
3.943555665154769
 30
0.0
 11
4.044
 21
3.915555665154769
 31
0.0
  0
LINE
  5
39E
330
18
100
AcDbEntity
  8
Object
100
AcDbLine
 10
4.044
 20
3.915555665154769
 30
0.0
 11
4.044
 21
3.878555665154769
 31
0.0
  0
LINE
  5
39F
330
18
100
AcDbEntity
  8
Object
100
AcDbLine
 10
4.044
 20
3.878555665154769
 30
0.0
 11
4.044
 21
3.838555665154769
 31
0.0
  0
LINE
  5
3A0
330
18
100
AcDbEntity
  8
Object
100
AcDbLine
 10
1.919999999999999
 20
3.838555665154769
 30
0.0
 11
1.919999999999999
 21
3.878555665154769
 31
0.0
  0
LINE
  5
3A1
330
18
100
AcDbEntity
  8
Object
100
AcDbLine
 10
1.919999999999999
 20
3.878555665154769
 30
0.0
 11
1.919999999999999
 21
3.915555665154769
 31
0.0
  0
LINE
  5
3A2
330
18
100
AcDbEntity
  8
Object
100
AcDbLine
 10
4.076999999999999
 20
3.979555665154769
 30
0.0
 11
4.073999999999999
 21
3.97355566515477
 31
0.0
  0
LINE
  5
3A3
330
18
100
AcDbEntity
  8
Object
100
AcDbLine
 10
4.073999999999999
 20
3.97355566515477
 30
0.0
 11
4.068999999999999
 21
3.970555665154769
 31
0.0
  0
LINE
  5
3A4
330
18
100
AcDbEntity
  8
Object
100
AcDbLine
 10
4.068999999999999
 20
3.970555665154769
 30
0.0
 11
4.062999999999999
 21
3.968555665154769
 31
0.0
  0
LINE
  5
3A5
330
18
100
AcDbEntity
  8
Object
100
AcDbLine
 10
4.044
 20
3.878555665154769
 30
0.0
 11
4.057999999999999
 21
3.878555665154769
 31
0.0
  0
LINE
  5
3A6
330
18
100
AcDbEntity
  8
Object
100
AcDbLine
 10
4.158
 20
3.95355566515477
 30
0.0
 11
4.144
 21
3.923555665154769
 31
0.0
  0
LINE
  5
3A7
330
18
100
AcDbEntity
  8
Object
100
AcDbLine
 10
4.144
 20
3.923555665154769
 30
0.0
 11
4.12
 21
3.899555665154769
 31
0.0
  0
LINE
  5
3A8
330
18
100
AcDbEntity
  8
Object
100
AcDbLine
 10
4.12
 20
3.899555665154769
 30
0.0
 11
4.091
 21
3.88455566515477
 31
0.0
  0
LINE
  5
3A9
330
18
100
AcDbEntity
  8
Object
100
AcDbLine
 10
4.091
 20
3.88455566515477
 30
0.0
 11
4.057999999999999
 21
3.878555665154769
 31
0.0
  0
LINE
  5
3AA
330
18
100
AcDbEntity
  8
Object
100
AcDbLine
 10
4.379999999999999
 20
3.975555665154769
 30
0.0
 11
4.376
 21
4.06555566515477
 31
0.0
  0
LINE
  5
3AB
330
18
100
AcDbEntity
  8
Object
100
AcDbLine
 10
4.376
 20
4.06555566515477
 30
0.0
 11
4.171999999999999
 21
4.05455566515477
 31
0.0
  0
LINE
  5
3AC
330
18
100
AcDbEntity
  8
Object
100
AcDbLine
 10
4.171999999999999
 20
4.05455566515477
 30
0.0
 11
4.141
 21
4.047555665154769
 31
0.0
  0
LINE
  5
3AD
330
18
100
AcDbEntity
  8
Object
100
AcDbLine
 10
4.141
 20
4.047555665154769
 30
0.0
 11
4.113
 21
4.032555665154769
 31
0.0
  0
LINE
  5
3AE
330
18
100
AcDbEntity
  8
Object
100
AcDbLine
 10
4.113
 20
4.032555665154769
 30
0.0
 11
4.091
 21
4.008555665154769
 31
0.0
  0
LINE
  5
3AF
330
18
100
AcDbEntity
  8
Object
100
AcDbLine
 10
4.091
 20
4.008555665154769
 30
0.0
 11
4.076999999999999
 21
3.979555665154769
 31
0.0
  0
LINE
  5
3B0
330
18
100
AcDbEntity
  8
Object
100
AcDbLine
 10
4.171999999999999
 20
3.964555665154769
 30
0.0
 11
4.166
 21
3.96255566515477
 31
0.0
  0
LINE
  5
3B1
330
18
100
AcDbEntity
  8
Object
100
AcDbLine
 10
4.166
 20
3.96255566515477
 30
0.0
 11
4.161
 21
3.958555665154769
 31
0.0
  0
LINE
  5
3B2
330
18
100
AcDbEntity
  8
Object
100
AcDbLine
 10
4.161
 20
3.958555665154769
 30
0.0
 11
4.158
 21
3.95355566515477
 31
0.0
  0
LINE
  5
3B3
330
18
100
AcDbEntity
  8
Object
100
AcDbLine
 10
4.171999999999999
 20
3.964555665154769
 30
0.0
 11
4.379999999999999
 21
3.975555665154769
 31
0.0
  0
LINE
  5
3B4
330
18
100
AcDbEntity
  8
Object
100
AcDbLine
 10
4.044
 20
3.915555665154769
 30
0.0
 11
4.044
 21
3.943555665154769
 31
0.0
  0
LINE
  5
3B5
330
18
100
AcDbEntity
  8
Object
100
AcDbLine
 10
4.044
 20
3.838555665154769
 30
0.0
 11
4.044
 21
3.878555665154769
 31
0.0
  0
LINE
  5
3B6
330
18
100
AcDbEntity
  8
Object
100
AcDbLine
 10
4.044
 20
3.878555665154769
 30
0.0
 11
4.044
 21
3.915555665154769
 31
0.0
  0
LINE
  5
3B7
330
18
100
AcDbEntity
  8
Object
100
AcDbLine
 10
4.044
 20
3.943555665154769
 30
0.0
 11
4.044
 21
3.96255566515477
 31
0.0
  0
LINE
  5
3B8
330
18
100
AcDbEntity
  8
Object
100
AcDbLine
 10
4.044
 20
3.96255566515477
 30
0.0
 11
4.044
 21
3.968555665154769
 31
0.0
  0
LINE
  5
3B9
330
18
100
AcDbEntity
  8
Object
100
AcDbLine
 10
1.879999999999999
 20
4.037555665154769
 30
0.0
 11
1.879999999999999
 21
4.144555665154769
 31
0.0
  0
LINE
  5
3BA
330
18
100
AcDbEntity
  8
Object
100
AcDbLine
 10
1.879999999999999
 20
4.008555665154769
 30
0.0
 11
1.879999999999999
 21
4.011555665154769
 31
0.0
  0
LINE
  5
3BB
330
18
100
AcDbEntity
  8
Object
100
AcDbLine
 10
1.879999999999999
 20
4.011555665154769
 30
0.0
 11
1.879999999999999
 21
4.021555665154769
 31
0.0
  0
LINE
  5
3BC
330
18
100
AcDbEntity
  8
Object
100
AcDbLine
 10
1.879999999999999
 20
4.021555665154769
 30
0.0
 11
1.879999999999999
 21
4.03055566515477
 31
0.0
  0
LINE
  5
3BD
330
18
100
AcDbEntity
  8
Object
100
AcDbLine
 10
1.879999999999999
 20
4.03055566515477
 30
0.0
 11
1.879999999999999
 21
4.037555665154769
 31
0.0
  0
LINE
  5
3BE
330
18
100
AcDbEntity
  8
Object
100
AcDbLine
 10
1.879999999999999
 20
4.144555665154769
 30
0.0
 11
1.879999999999999
 21
4.146555665154769
 31
0.0
  0
LINE
  5
3BF
330
18
100
AcDbEntity
  8
Object
100
AcDbLine
 10
1.879999999999999
 20
4.146555665154769
 30
0.0
 11
1.879999999999999
 21
4.14855566515477
 31
0.0
  0
LINE
  5
3C0
330
18
100
AcDbEntity
  8
Object
100
AcDbLine
 10
1.919999999999999
 20
3.968555665154769
 30
0.0
 11
1.9
 21
3.974555665154769
 31
0.0
  0
LINE
  5
3C1
330
18
100
AcDbEntity
  8
Object
100
AcDbLine
 10
1.919999999999999
 20
3.878555665154769
 30
0.0
 11
1.879999999999999
 21
3.88555566515477
 31
0.0
  0
LINE
  5
3C2
330
18
100
AcDbEntity
  8
Object
100
AcDbLine
 10
1.879999999999999
 20
3.88555566515477
 30
0.0
 11
1.844
 21
3.903555665154769
 31
0.0
  0
LINE
  5
3C3
330
18
100
AcDbEntity
  8
Object
100
AcDbLine
 10
1.9
 20
3.974555665154769
 30
0.0
 11
1.886
 21
3.988555665154769
 31
0.0
  0
LINE
  5
3C4
330
18
100
AcDbEntity
  8
Object
100
AcDbLine
 10
1.814999999999999
 20
3.93255566515477
 30
0.0
 11
1.844
 21
3.903555665154769
 31
0.0
  0
LINE
  5
3C5
330
18
100
AcDbEntity
  8
Object
100
AcDbLine
 10
1.886
 20
3.988555665154769
 30
0.0
 11
1.879999999999999
 21
4.008555665154769
 31
0.0
  0
LINE
  5
3C6
330
18
100
AcDbEntity
  8
Object
100
AcDbLine
 10
1.814999999999999
 20
3.93255566515477
 30
0.0
 11
1.796999999999999
 21
3.968555665154769
 31
0.0
  0
LINE
  5
3C7
330
18
100
AcDbEntity
  8
Object
100
AcDbLine
 10
1.796999999999999
 20
3.968555665154769
 30
0.0
 11
1.79
 21
4.008555665154769
 31
0.0
  0
LINE
  5
3C8
330
18
100
AcDbEntity
  8
Object
100
AcDbLine
 10
1.79
 20
4.008555665154769
 30
0.0
 11
1.879999999999999
 21
4.008555665154769
 31
0.0
  0
LINE
  5
3C9
330
18
100
AcDbEntity
  8
Object
100
AcDbLine
 10
4.044
 20
3.69155566515477
 30
0.0
 11
4.038
 21
3.653555665154769
 31
0.0
  0
LINE
  5
3CA
330
18
100
AcDbEntity
  8
Object
100
AcDbLine
 10
4.038
 20
3.653555665154769
 30
0.0
 11
4.020999999999999
 21
3.61855566515477
 31
0.0
  0
LINE
  5
3CB
330
18
100
AcDbEntity
  8
Object
100
AcDbLine
 10
4.020999999999999
 20
3.61855566515477
 30
0.0
 11
3.992999999999999
 21
3.59055566515477
 31
0.0
  0
LINE
  5
3CC
330
18
100
AcDbEntity
  8
Object
100
AcDbLine
 10
3.992999999999999
 20
3.59055566515477
 30
0.0
 11
3.958
 21
3.572555665154769
 31
0.0
  0
LINE
  5
3CD
330
18
100
AcDbEntity
  8
Object
100
AcDbLine
 10
3.958
 20
3.572555665154769
 30
0.0
 11
3.919
 21
3.56655566515477
 31
0.0
  0
LINE
  5
3CE
330
18
100
AcDbEntity
  8
Object
100
AcDbLine
 10
4.044
 20
3.69155566515477
 30
0.0
 11
4.044
 21
3.838555665154769
 31
0.0
  0
LINE
  5
3CF
330
18
100
AcDbEntity
  8
Object
100
AcDbLine
 10
3.919
 20
3.56655566515477
 30
0.0
 11
2.044999999999999
 21
3.56655566515477
 31
0.0
  0
LINE
  5
3D0
330
18
100
AcDbEntity
  8
Object
100
AcDbLine
 10
2.044999999999999
 20
3.56655566515477
 30
0.0
 11
2.007
 21
3.572555665154769
 31
0.0
  0
LINE
  5
3D1
330
18
100
AcDbEntity
  8
Object
100
AcDbLine
 10
2.007
 20
3.572555665154769
 30
0.0
 11
1.971999999999999
 21
3.59055566515477
 31
0.0
  0
LINE
  5
3D2
330
18
100
AcDbEntity
  8
Object
100
AcDbLine
 10
1.971999999999999
 20
3.59055566515477
 30
0.0
 11
1.943999999999999
 21
3.61855566515477
 31
0.0
  0
LINE
  5
3D3
330
18
100
AcDbEntity
  8
Object
100
AcDbLine
 10
1.943999999999999
 20
3.61855566515477
 30
0.0
 11
1.926
 21
3.653555665154769
 31
0.0
  0
LINE
  5
3D4
330
18
100
AcDbEntity
  8
Object
100
AcDbLine
 10
1.926
 20
3.653555665154769
 30
0.0
 11
1.919999999999999
 21
3.69155566515477
 31
0.0
  0
LINE
  5
3D5
330
18
100
AcDbEntity
  8
Object
100
AcDbLine
 10
1.919999999999999
 20
3.69155566515477
 30
0.0
 11
1.919999999999999
 21
3.838555665154769
 31
0.0
  0
LINE
  5
3D6
330
18
100
AcDbEntity
  8
Object
100
AcDbLine
 10
1.919999999999999
 20
3.838555665154769
 30
0.0
 11
4.044
 21
3.838555665154769
 31
0.0
  0
LINE
  5
3D7
330
18
100
AcDbEntity
  8
Object
100
AcDbLine
 10
1.919999999999999
 20
3.96255566515477
 30
0.0
 11
1.919999999999999
 21
3.943555665154769
 31
0.0
  0
LINE
  5
3D8
330
18
100
AcDbEntity
  8
Object
100
AcDbLine
 10
1.919999999999999
 20
3.943555665154769
 30
0.0
 11
1.919999999999999
 21
3.915555665154769
 31
0.0
  0
LINE
  5
3D9
330
18
100
AcDbEntity
  8
Object
100
AcDbLine
 10
1.919999999999999
 20
3.838555665154769
 30
0.0
 11
1.919999999999999
 21
3.878555665154769
 31
0.0
  0
LINE
  5
3DA
330
18
100
AcDbEntity
  8
Object
100
AcDbLine
 10
1.919999999999999
 20
3.878555665154769
 30
0.0
 11
1.919999999999999
 21
3.915555665154769
 31
0.0
  0
LINE
  5
3DB
330
18
100
AcDbEntity
  8
Object
100
AcDbLine
 10
1.919999999999999
 20
3.968555665154769
 30
0.0
 11
1.919999999999999
 21
3.96255566515477
 31
0.0
  0
LINE
  5
3DC
330
18
100
AcDbEntity
  8
Object
100
AcDbLine
 10
1.919999999999999
 20
3.878555665154769
 30
0.0
 11
1.879999999999999
 21
3.88555566515477
 31
0.0
  0
LINE
  5
3DD
330
18
100
AcDbEntity
  8
Object
100
AcDbLine
 10
1.879999999999999
 20
3.88555566515477
 30
0.0
 11
1.844
 21
3.903555665154769
 31
0.0
  0
LINE
  5
3DE
330
18
100
AcDbEntity
  8
Object
100
AcDbLine
 10
1.844
 20
3.903555665154769
 30
0.0
 11
1.814999999999999
 21
3.93255566515477
 31
0.0
  0
LINE
  5
3DF
330
18
100
AcDbEntity
  8
Object
100
AcDbLine
 10
1.814999999999999
 20
3.93255566515477
 30
0.0
 11
1.796999999999999
 21
3.968555665154769
 31
0.0
  0
LINE
  5
3E0
330
18
100
AcDbEntity
  8
Object
100
AcDbLine
 10
1.796999999999999
 20
3.968555665154769
 30
0.0
 11
1.79
 21
4.008555665154769
 31
0.0
  0
LINE
  5
3E1
330
18
100
AcDbEntity
  8
Object
100
AcDbLine
 10
4.044
 20
3.69155566515477
 30
0.0
 11
4.044
 21
3.838555665154769
 31
0.0
  0
LINE
  5
3E2
330
18
100
AcDbEntity
  8
Object
100
AcDbLine
 10
1.879999999999999
 20
4.021555665154769
 30
0.0
 11
1.879999999999999
 21
4.03055566515477
 31
0.0
  0
LINE
  5
3E3
330
18
100
AcDbEntity
  8
Object
100
AcDbLine
 10
1.79
 20
4.021555665154769
 30
0.0
 11
1.79
 21
4.03055566515477
 31
0.0
  0
LINE
  5
3E4
330
18
100
AcDbEntity
  8
Object
100
AcDbLine
 10
1.79
 20
4.03055566515477
 30
0.0
 11
1.79
 21
4.037555665154769
 31
0.0
  0
LINE
  5
3E5
330
18
100
AcDbEntity
  8
Object
100
AcDbLine
 10
1.79
 20
4.037555665154769
 30
0.0
 11
1.879999999999999
 21
4.037555665154769
 31
0.0
  0
LINE
  5
3E6
330
18
100
AcDbEntity
  8
Object
100
AcDbLine
 10
1.879999999999999
 20
4.037555665154769
 30
0.0
 11
1.879999999999999
 21
4.03055566515477
 31
0.0
  0
LINE
  5
3E7
330
18
100
AcDbEntity
  8
Object
100
AcDbLine
 10
1.879999999999999
 20
4.021555665154769
 30
0.0
 11
1.879999999999999
 21
4.011555665154769
 31
0.0
  0
LINE
  5
3E8
330
18
100
AcDbEntity
  8
Object
100
AcDbLine
 10
1.879999999999999
 20
4.011555665154769
 30
0.0
 11
1.79
 21
4.011555665154769
 31
0.0
  0
LINE
  5
3E9
330
18
100
AcDbEntity
  8
Object
100
AcDbLine
 10
1.79
 20
4.011555665154769
 30
0.0
 11
1.79
 21
4.021555665154769
 31
0.0
  0
LINE
  5
3EA
330
18
100
AcDbEntity
  8
Object
100
AcDbLine
 10
1.79
 20
4.037555665154769
 30
0.0
 11
1.79
 21
4.144555665154769
 31
0.0
  0
LINE
  5
3EB
330
18
100
AcDbEntity
  8
Object
100
AcDbLine
 10
1.79
 20
4.144555665154769
 30
0.0
 11
1.879999999999999
 21
4.144555665154769
 31
0.0
  0
LINE
  5
3EC
330
18
100
AcDbEntity
  8
Object
100
AcDbLine
 10
1.879999999999999
 20
4.144555665154769
 30
0.0
 11
1.879999999999999
 21
4.037555665154769
 31
0.0
  0
LINE
  5
3ED
330
18
100
AcDbEntity
  8
Object
100
AcDbLine
 10
1.785999999999999
 20
4.14855566515477
 30
0.0
 11
1.794999999999999
 21
4.14855566515477
 31
0.0
  0
LINE
  5
3EE
330
18
100
AcDbEntity
  8
Object
100
AcDbLine
 10
1.879999999999999
 20
4.14855566515477
 30
0.0
 11
1.879999999999999
 21
4.146555665154769
 31
0.0
  0
LINE
  5
3EF
330
18
100
AcDbEntity
  8
Object
100
AcDbLine
 10
1.879999999999999
 20
4.146555665154769
 30
0.0
 11
1.879999999999999
 21
4.144555665154769
 31
0.0
  0
LINE
  5
3F0
330
18
100
AcDbEntity
  8
Object
100
AcDbLine
 10
1.79
 20
4.144555665154769
 30
0.0
 11
1.79
 21
4.146555665154769
 31
0.0
  0
LINE
  5
3F1
330
18
100
AcDbEntity
  8
Object
100
AcDbLine
 10
1.79
 20
4.146555665154769
 30
0.0
 11
1.79
 21
4.14855566515477
 31
0.0
  0
LINE
  5
3F2
330
18
100
AcDbEntity
  8
Object
100
AcDbLine
 10
1.79
 20
4.14855566515477
 30
0.0
 11
1.879999999999999
 21
4.14855566515477
 31
0.0
  0
LINE
  5
3F3
330
18
100
AcDbEntity
  8
Object
100
AcDbLine
 10
1.79
 20
4.011555665154769
 30
0.0
 11
1.79
 21
4.008555665154769
 31
0.0
  0
LINE
  5
3F4
330
18
100
AcDbEntity
  8
Object
100
AcDbLine
 10
1.879999999999999
 20
4.008555665154769
 30
0.0
 11
1.879999999999999
 21
4.011555665154769
 31
0.0
  0
LINE
  5
3F5
330
18
100
AcDbEntity
  8
Object
100
AcDbLine
 10
1.879999999999999
 20
4.14855566515477
 30
0.0
 11
1.79
 21
4.14855566515477
 31
0.0
  0
LINE
  5
3F6
330
18
100
AcDbEntity
  8
Object
100
AcDbLine
 10
3.919
 20
3.56655566515477
 30
0.0
 11
2.044999999999999
 21
3.56655566515477
 31
0.0
  0
LINE
  5
3F7
330
18
100
AcDbEntity
  8
Object
100
AcDbLine
 10
2.044999999999999
 20
3.56655566515477
 30
0.0
 11
2.007
 21
3.572555665154769
 31
0.0
  0
LINE
  5
3F8
330
18
100
AcDbEntity
  8
Object
100
AcDbLine
 10
2.007
 20
3.572555665154769
 30
0.0
 11
1.971999999999999
 21
3.59055566515477
 31
0.0
  0
LINE
  5
3F9
330
18
100
AcDbEntity
  8
Object
100
AcDbLine
 10
1.971999999999999
 20
3.59055566515477
 30
0.0
 11
1.943999999999999
 21
3.61855566515477
 31
0.0
  0
LINE
  5
3FA
330
18
100
AcDbEntity
  8
Object
100
AcDbLine
 10
1.943999999999999
 20
3.61855566515477
 30
0.0
 11
1.926
 21
3.653555665154769
 31
0.0
  0
LINE
  5
3FB
330
18
100
AcDbEntity
  8
Object
100
AcDbLine
 10
1.926
 20
3.653555665154769
 30
0.0
 11
1.919999999999999
 21
3.69155566515477
 31
0.0
  0
LINE
  5
3FC
330
18
100
AcDbEntity
  8
Object
100
AcDbLine
 10
4.044
 20
3.69155566515477
 30
0.0
 11
4.038
 21
3.653555665154769
 31
0.0
  0
LINE
  5
3FD
330
18
100
AcDbEntity
  8
Object
100
AcDbLine
 10
4.038
 20
3.653555665154769
 30
0.0
 11
4.020999999999999
 21
3.61855566515477
 31
0.0
  0
LINE
  5
3FE
330
18
100
AcDbEntity
  8
Object
100
AcDbLine
 10
4.020999999999999
 20
3.61855566515477
 30
0.0
 11
3.992999999999999
 21
3.59055566515477
 31
0.0
  0
LINE
  5
3FF
330
18
100
AcDbEntity
  8
Object
100
AcDbLine
 10
3.992999999999999
 20
3.59055566515477
 30
0.0
 11
3.958
 21
3.572555665154769
 31
0.0
  0
LINE
  5
400
330
18
100
AcDbEntity
  8
Object
100
AcDbLine
 10
3.958
 20
3.572555665154769
 30
0.0
 11
3.919
 21
3.56655566515477
 31
0.0
  0
LINE
  5
401
330
18
100
AcDbEntity
  8
Object
100
AcDbLine
 10
1.919999999999999
 20
3.838555665154769
 30
0.0
 11
1.919999999999999
 21
3.69155566515477
 31
0.0
  0
LINE
  5
402
330
18
100
AcDbEntity
  8
Object
100
AcDbLine
 10
1.79
 20
4.037555665154769
 30
0.0
 11
1.79
 21
4.03055566515477
 31
0.0
  0
LINE
  5
403
330
18
100
AcDbEntity
  8
Object
100
AcDbLine
 10
1.79
 20
4.03055566515477
 30
0.0
 11
1.79
 21
4.021555665154769
 31
0.0
  0
LINE
  5
404
330
18
100
AcDbEntity
  8
Object
100
AcDbLine
 10
1.79
 20
4.021555665154769
 30
0.0
 11
1.79
 21
4.011555665154769
 31
0.0
  0
LINE
  5
405
330
18
100
AcDbEntity
  8
Object
100
AcDbLine
 10
1.79
 20
4.011555665154769
 30
0.0
 11
1.79
 21
4.008555665154769
 31
0.0
  0
LINE
  5
406
330
18
100
AcDbEntity
  8
Object
100
AcDbLine
 10
1.79
 20
4.14855566515477
 30
0.0
 11
1.79
 21
4.146555665154769
 31
0.0
  0
LINE
  5
407
330
18
100
AcDbEntity
  8
Object
100
AcDbLine
 10
1.79
 20
4.146555665154769
 30
0.0
 11
1.79
 21
4.144555665154769
 31
0.0
  0
LINE
  5
408
330
18
100
AcDbEntity
  8
Object
100
AcDbLine
 10
1.79
 20
4.144555665154769
 30
0.0
 11
1.79
 21
4.037555665154769
 31
0.0
  0
LINE
  5
409
330
18
100
AcDbEntity
  8
Object
100
AcDbLine
 10
3.141999999999999
 20
6.811555665154769
 30
0.0
 11
3.155
 21
6.83755566515477
 31
0.0
  0
LINE
  5
40A
330
18
100
AcDbEntity
  8
Object
100
AcDbLine
 10
3.155
 20
6.83755566515477
 30
0.0
 11
3.165999999999999
 21
6.83755566515477
 31
0.0
  0
LINE
  5
40B
330
18
100
AcDbEntity
  8
Object
100
AcDbLine
 10
3.141999999999999
 20
6.811555665154769
 30
0.0
 11
3.141999999999999
 21
6.78855566515477
 31
0.0
  0
LINE
  5
40C
330
18
100
AcDbEntity
  8
Object
100
AcDbLine
 10
3.544
 20
7.05255566515477
 30
0.0
 11
3.544
 21
6.92755566515477
 31
0.0
  0
LINE
  5
40D
330
18
100
AcDbEntity
  8
Object
100
AcDbLine
 10
4.062999999999999
 20
7.402555665154769
 30
0.0
 11
4.044
 21
7.402555665154769
 31
0.0
  0
LINE
  5
40E
330
18
100
AcDbEntity
  8
Object
100
AcDbLine
 10
3.544
 20
6.92755566515477
 30
0.0
 11
3.539
 21
6.902555665154769
 31
0.0
  0
LINE
  5
40F
330
18
100
AcDbEntity
  8
Object
100
AcDbLine
 10
3.502
 20
6.721555665154769
 30
0.0
 11
3.502
 21
6.686555665154769
 31
0.0
  0
LINE
  5
410
330
18
100
AcDbEntity
  8
Object
100
AcDbLine
 10
3.502
 20
6.79155566515477
 30
0.0
 11
3.502
 21
6.745555665154769
 31
0.0
  0
LINE
  5
411
330
18
100
AcDbEntity
  8
Object
100
AcDbLine
 10
3.502
 20
6.832555665154769
 30
0.0
 11
3.502
 21
6.86855566515477
 31
0.0
  0
LINE
  5
412
330
18
100
AcDbEntity
  8
Object
100
AcDbLine
 10
3.502
 20
6.86855566515477
 30
0.0
 11
3.524
 21
6.88155566515477
 31
0.0
  0
LINE
  5
413
330
18
100
AcDbEntity
  8
Object
100
AcDbLine
 10
3.524
 20
6.88155566515477
 30
0.0
 11
3.539
 21
6.902555665154769
 31
0.0
  0
LINE
  5
414
330
18
100
AcDbEntity
  8
Object
100
AcDbLine
 10
3.502
 20
6.662555665154769
 30
0.0
 11
3.502
 21
6.58455566515477
 31
0.0
  0
LINE
  5
415
330
18
100
AcDbEntity
  8
Object
100
AcDbLine
 10
3.502
 20
6.41355566515477
 30
0.0
 11
3.502
 21
6.37755566515477
 31
0.0
  0
LINE
  5
416
330
18
100
AcDbEntity
  8
Object
100
AcDbLine
 10
3.502
 20
6.466555665154769
 30
0.0
 11
3.502
 21
6.43755566515477
 31
0.0
  0
LINE
  5
417
330
18
100
AcDbEntity
  8
Object
100
AcDbLine
 10
3.502
 20
6.35355566515477
 30
0.0
 11
3.502
 21
6.25155566515477
 31
0.0
  0
LINE
  5
418
330
18
100
AcDbEntity
  8
Object
100
AcDbLine
 10
4.044
 20
5.81255566515477
 30
0.0
 11
4.062999999999999
 21
5.81255566515477
 31
0.0
  0
LINE
  5
419
330
18
100
AcDbEntity
  8
Object
100
AcDbLine
 10
3.502
 20
6.53655566515477
 30
0.0
 11
3.502
 21
6.49055566515477
 31
0.0
  0
LINE
  5
41A
330
18
100
AcDbEntity
  8
Object
100
AcDbLine
 10
4.062999999999999
 20
5.81255566515477
 30
0.0
 11
4.062999999999999
 21
7.402555665154769
 31
0.0
  0
LINE
  5
41B
330
18
100
AcDbEntity
  8
Object
100
AcDbLine
 10
3.502
 20
6.58455566515477
 30
0.0
 11
3.499
 21
6.572555665154769
 31
0.0
  0
LINE
  5
41C
330
18
100
AcDbEntity
  8
Object
100
AcDbLine
 10
3.499
 20
6.572555665154769
 30
0.0
 11
3.49
 21
6.56355566515477
 31
0.0
  0
LINE
  5
41D
330
18
100
AcDbEntity
  8
Object
100
AcDbLine
 10
3.49
 20
6.56355566515477
 30
0.0
 11
3.478
 21
6.56055566515477
 31
0.0
  0
LINE
  5
41E
330
18
100
AcDbEntity
  8
Object
100
AcDbLine
 10
3.474
 20
6.35355566515477
 30
0.0
 11
3.502
 21
6.35355566515477
 31
0.0
  0
LINE
  5
41F
330
18
100
AcDbEntity
  8
Object
100
AcDbLine
 10
3.502
 20
6.721555665154769
 30
0.0
 11
3.446
 21
6.721555665154769
 31
0.0
  0
LINE
  5
420
330
18
100
AcDbEntity
  8
Object
100
AcDbLine
 10
3.446
 20
6.721555665154769
 30
0.0
 11
3.502
 21
6.745555665154769
 31
0.0
  0
LINE
  5
421
330
18
100
AcDbEntity
  8
Object
100
AcDbLine
 10
3.502
 20
6.79155566515477
 30
0.0
 11
3.411999999999999
 21
6.79155566515477
 31
0.0
  0
LINE
  5
422
330
18
100
AcDbEntity
  8
Object
100
AcDbLine
 10
3.411999999999999
 20
6.79155566515477
 30
0.0
 11
3.502
 21
6.832555665154769
 31
0.0
  0
LINE
  5
423
330
18
100
AcDbEntity
  8
Object
100
AcDbLine
 10
3.403
 20
6.466555665154769
 30
0.0
 11
3.502
 21
6.466555665154769
 31
0.0
  0
LINE
  5
424
330
18
100
AcDbEntity
  8
Object
100
AcDbLine
 10
3.502
 20
6.49055566515477
 30
0.0
 11
3.403
 21
6.49055566515477
 31
0.0
  0
LINE
  5
425
330
18
100
AcDbEntity
  8
Object
100
AcDbLine
 10
3.403
 20
6.466555665154769
 30
0.0
 11
3.399999999999999
 21
6.46755566515477
 31
0.0
  0
LINE
  5
426
330
18
100
AcDbEntity
  8
Object
100
AcDbLine
 10
3.399999999999999
 20
6.46755566515477
 30
0.0
 11
3.397
 21
6.47055566515477
 31
0.0
  0
LINE
  5
427
330
18
100
AcDbEntity
  8
Object
100
AcDbLine
 10
3.397
 20
6.487555665154769
 30
0.0
 11
3.399999999999999
 21
6.489555665154769
 31
0.0
  0
LINE
  5
428
330
18
100
AcDbEntity
  8
Object
100
AcDbLine
 10
3.399999999999999
 20
6.489555665154769
 30
0.0
 11
3.403
 21
6.49055566515477
 31
0.0
  0
LINE
  5
429
330
18
100
AcDbEntity
  8
Object
100
AcDbLine
 10
3.397
 20
6.47055566515477
 30
0.0
 11
3.395999999999999
 21
6.473555665154769
 31
0.0
  0
LINE
  5
42A
330
18
100
AcDbEntity
  8
Object
100
AcDbLine
 10
3.395999999999999
 20
6.473555665154769
 30
0.0
 11
3.395999999999999
 21
6.48355566515477
 31
0.0
  0
LINE
  5
42B
330
18
100
AcDbEntity
  8
Object
100
AcDbLine
 10
3.395999999999999
 20
6.48355566515477
 30
0.0
 11
3.397
 21
6.487555665154769
 31
0.0
  0
LINE
  5
42C
330
18
100
AcDbEntity
  8
Object
100
AcDbLine
 10
3.502
 20
6.43755566515477
 30
0.0
 11
3.389
 21
6.43755566515477
 31
0.0
  0
LINE
  5
42D
330
18
100
AcDbEntity
  8
Object
100
AcDbLine
 10
3.389
 20
6.53655566515477
 30
0.0
 11
3.502
 21
6.53655566515477
 31
0.0
  0
LINE
  5
42E
330
18
100
AcDbEntity
  8
Object
100
AcDbLine
 10
3.478
 20
6.56055566515477
 30
0.0
 11
3.389
 21
6.56055566515477
 31
0.0
  0
LINE
  5
42F
330
18
100
AcDbEntity
  8
Object
100
AcDbLine
 10
3.389
 20
6.56055566515477
 30
0.0
 11
3.377
 21
6.56355566515477
 31
0.0
  0
LINE
  5
430
330
18
100
AcDbEntity
  8
Object
100
AcDbLine
 10
3.389
 20
6.53655566515477
 30
0.0
 11
3.377
 21
6.532555665154769
 31
0.0
  0
LINE
  5
431
330
18
100
AcDbEntity
  8
Object
100
AcDbLine
 10
3.377
 20
6.532555665154769
 30
0.0
 11
3.367999999999999
 21
6.52355566515477
 31
0.0
  0
LINE
  5
432
330
18
100
AcDbEntity
  8
Object
100
AcDbLine
 10
3.377
 20
6.56355566515477
 30
0.0
 11
3.367999999999999
 21
6.572555665154769
 31
0.0
  0
LINE
  5
433
330
18
100
AcDbEntity
  8
Object
100
AcDbLine
 10
3.363999999999999
 20
6.971555665154769
 30
0.0
 11
3.421
 21
6.971555665154769
 31
0.0
  0
LINE
  5
434
330
18
100
AcDbEntity
  8
Object
100
AcDbLine
 10
3.421
 20
6.971555665154769
 30
0.0
 11
3.421
 21
6.92755566515477
 31
0.0
  0
LINE
  5
435
330
18
100
AcDbEntity
  8
Object
100
AcDbLine
 10
3.421
 20
6.92755566515477
 30
0.0
 11
3.421
 21
6.917555665154769
 31
0.0
  0
LINE
  5
436
330
18
100
AcDbEntity
  8
Object
100
AcDbLine
 10
3.421
 20
6.917555665154769
 30
0.0
 11
3.423
 21
6.90855566515477
 31
0.0
  0
LINE
  5
437
330
18
100
AcDbEntity
  8
Object
100
AcDbLine
 10
3.423
 20
6.90855566515477
 30
0.0
 11
3.427
 21
6.899555665154769
 31
0.0
  0
LINE
  5
438
330
18
100
AcDbEntity
  8
Object
100
AcDbLine
 10
3.427
 20
6.899555665154769
 30
0.0
 11
3.363999999999999
 21
6.925555665154769
 31
0.0
  0
LINE
  5
439
330
18
100
AcDbEntity
  8
Object
100
AcDbLine
 10
3.363999999999999
 20
6.662555665154769
 30
0.0
 11
3.502
 21
6.662555665154769
 31
0.0
  0
LINE
  5
43A
330
18
100
AcDbEntity
  8
Object
100
AcDbLine
 10
3.363999999999999
 20
6.753555665154769
 30
0.0
 11
3.423
 21
6.753555665154769
 31
0.0
  0
LINE
  5
43B
330
18
100
AcDbEntity
  8
Object
100
AcDbLine
 10
3.423
 20
6.753555665154769
 30
0.0
 11
3.363999999999999
 21
6.72755566515477
 31
0.0
  0
LINE
  5
43C
330
18
100
AcDbEntity
  8
Object
100
AcDbLine
 10
3.502
 20
6.686555665154769
 30
0.0
 11
3.363999999999999
 21
6.686555665154769
 31
0.0
  0
LINE
  5
43D
330
18
100
AcDbEntity
  8
Object
100
AcDbLine
 10
3.383999999999999
 20
6.824555665154769
 30
0.0
 11
3.383999999999999
 21
6.87655566515477
 31
0.0
  0
LINE
  5
43E
330
18
100
AcDbEntity
  8
Object
100
AcDbLine
 10
3.383999999999999
 20
6.87655566515477
 30
0.0
 11
3.363999999999999
 21
6.88555566515477
 31
0.0
  0
LINE
  5
43F
330
18
100
AcDbEntity
  8
Object
100
AcDbLine
 10
3.363999999999999
 20
6.814555665154769
 30
0.0
 11
3.383999999999999
 21
6.824555665154769
 31
0.0
  0
LINE
  5
440
330
18
100
AcDbEntity
  8
Object
100
AcDbLine
 10
3.377
 20
6.441555665154769
 30
0.0
 11
3.367999999999999
 21
6.450555665154769
 31
0.0
  0
LINE
  5
441
330
18
100
AcDbEntity
  8
Object
100
AcDbLine
 10
3.502
 20
6.37755566515477
 30
0.0
 11
3.363999999999999
 21
6.37755566515477
 31
0.0
  0
LINE
  5
442
330
18
100
AcDbEntity
  8
Object
100
AcDbLine
 10
3.474
 20
6.35355566515477
 30
0.0
 11
3.474
 21
6.324555665154769
 31
0.0
  0
LINE
  5
443
330
18
100
AcDbEntity
  8
Object
100
AcDbLine
 10
3.474
 20
6.324555665154769
 30
0.0
 11
3.363999999999999
 21
6.324555665154769
 31
0.0
  0
LINE
  5
444
330
18
100
AcDbEntity
  8
Object
100
AcDbLine
 10
3.389
 20
6.43755566515477
 30
0.0
 11
3.377
 21
6.441555665154769
 31
0.0
  0
LINE
  5
445
330
18
100
AcDbEntity
  8
Object
100
AcDbLine
 10
3.363999999999999
 20
6.41355566515477
 30
0.0
 11
3.502
 21
6.41355566515477
 31
0.0
  0
LINE
  5
446
330
18
100
AcDbEntity
  8
Object
100
AcDbLine
 10
3.363999999999999
 20
6.282555665154769
 30
0.0
 11
3.474
 21
6.282555665154769
 31
0.0
  0
LINE
  5
447
330
18
100
AcDbEntity
  8
Object
100
AcDbLine
 10
3.474
 20
6.282555665154769
 30
0.0
 11
3.474
 21
6.25155566515477
 31
0.0
  0
LINE
  5
448
330
18
100
AcDbEntity
  8
Object
100
AcDbLine
 10
3.256
 20
7.136555665154769
 30
0.0
 11
3.256
 21
7.045555665154769
 31
0.0
  0
LINE
  5
449
330
18
100
AcDbEntity
  8
Object
100
AcDbLine
 10
3.363999999999999
 20
6.971555665154769
 30
0.0
 11
3.363999999999999
 21
7.05255566515477
 31
0.0
  0
LINE
  5
44A
330
18
100
AcDbEntity
  8
Object
100
AcDbLine
 10
3.363999999999999
 20
6.88555566515477
 30
0.0
 11
3.363999999999999
 21
6.925555665154769
 31
0.0
  0
LINE
  5
44B
330
18
100
AcDbEntity
  8
Object
100
AcDbLine
 10
3.363999999999999
 20
7.05255566515477
 30
0.0
 11
3.544
 21
7.05255566515477
 31
0.0
  0
LINE
  5
44C
330
18
100
AcDbEntity
  8
Object
100
AcDbLine
 10
3.256
 20
6.99855566515477
 30
0.0
 11
3.256
 21
6.92155566515477
 31
0.0
  0
LINE
  5
44D
330
18
100
AcDbEntity
  8
Object
100
AcDbLine
 10
3.256
 20
6.82655566515477
 30
0.0
 11
3.256
 21
6.774555665154769
 31
0.0
  0
LINE
  5
44E
330
18
100
AcDbEntity
  8
Object
100
AcDbLine
 10
3.363999999999999
 20
6.753555665154769
 30
0.0
 11
3.363999999999999
 21
6.814555665154769
 31
0.0
  0
LINE
  5
44F
330
18
100
AcDbEntity
  8
Object
100
AcDbLine
 10
3.363999999999999
 20
6.686555665154769
 30
0.0
 11
3.363999999999999
 21
6.72755566515477
 31
0.0
  0
LINE
  5
450
330
18
100
AcDbEntity
  8
Object
100
AcDbLine
 10
3.256
 20
6.72255566515477
 30
0.0
 11
3.256
 21
6.646555665154769
 31
0.0
  0
LINE
  5
451
330
18
100
AcDbEntity
  8
Object
100
AcDbLine
 10
3.363999999999999
 20
6.511555665154769
 30
0.0
 11
3.367999999999999
 21
6.52355566515477
 31
0.0
  0
LINE
  5
452
330
18
100
AcDbEntity
  8
Object
100
AcDbLine
 10
3.363999999999999
 20
6.58455566515477
 30
0.0
 11
3.363999999999999
 21
6.662555665154769
 31
0.0
  0
LINE
  5
453
330
18
100
AcDbEntity
  8
Object
100
AcDbLine
 10
3.363999999999999
 20
6.37755566515477
 30
0.0
 11
3.363999999999999
 21
6.41355566515477
 31
0.0
  0
LINE
  5
454
330
18
100
AcDbEntity
  8
Object
100
AcDbLine
 10
3.367999999999999
 20
6.450555665154769
 30
0.0
 11
3.363999999999999
 21
6.46255566515477
 31
0.0
  0
LINE
  5
455
330
18
100
AcDbEntity
  8
Object
100
AcDbLine
 10
3.363999999999999
 20
6.46255566515477
 30
0.0
 11
3.363999999999999
 21
6.511555665154769
 31
0.0
  0
LINE
  5
456
330
18
100
AcDbEntity
  8
Object
100
AcDbLine
 10
3.256
 20
6.606555665154769
 30
0.0
 11
3.256
 21
6.52855566515477
 31
0.0
  0
LINE
  5
457
330
18
100
AcDbEntity
  8
Object
100
AcDbLine
 10
3.367999999999999
 20
6.572555665154769
 30
0.0
 11
3.363999999999999
 21
6.58455566515477
 31
0.0
  0
LINE
  5
458
330
18
100
AcDbEntity
  8
Object
100
AcDbLine
 10
3.256
 20
6.43855566515477
 30
0.0
 11
3.256
 21
6.38255566515477
 31
0.0
  0
LINE
  5
459
330
18
100
AcDbEntity
  8
Object
100
AcDbLine
 10
3.256
 20
6.176555665154769
 30
0.0
 11
3.256
 21
6.16455566515477
 31
0.0
  0
LINE
  5
45A
330
18
100
AcDbEntity
  8
Object
100
AcDbLine
 10
3.256
 20
6.314555665154769
 30
0.0
 11
3.256
 21
6.29955566515477
 31
0.0
  0
LINE
  5
45B
330
18
100
AcDbEntity
  8
Object
100
AcDbLine
 10
3.363999999999999
 20
6.282555665154769
 30
0.0
 11
3.363999999999999
 21
6.324555665154769
 31
0.0
  0
LINE
  5
45C
330
18
100
AcDbEntity
  8
Object
100
AcDbLine
 10
3.256
 20
6.117555665154769
 30
0.0
 11
3.256
 21
6.040555665154769
 31
0.0
  0
LINE
  5
45D
330
18
100
AcDbEntity
  8
Object
100
AcDbLine
 10
3.502
 20
6.25155566515477
 30
0.0
 11
3.474
 21
6.25155566515477
 31
0.0
  0
LINE
  5
45E
330
18
100
AcDbEntity
  8
Object
100
AcDbLine
 10
3.256
 20
7.045555665154769
 30
0.0
 11
3.244
 21
7.045555665154769
 31
0.0
  0
LINE
  5
45F
330
18
100
AcDbEntity
  8
Object
100
AcDbLine
 10
3.256
 20
6.646555665154769
 30
0.0
 11
3.244
 21
6.646555665154769
 31
0.0
  0
LINE
  5
460
330
18
100
AcDbEntity
  8
Object
100
AcDbLine
 10
3.256
 20
6.16455566515477
 30
0.0
 11
3.244
 21
6.16455566515477
 31
0.0
  0
LINE
  5
461
330
18
100
AcDbEntity
  8
Object
100
AcDbLine
 10
3.244
 20
6.176555665154769
 30
0.0
 11
3.256
 21
6.176555665154769
 31
0.0
  0
LINE
  5
462
330
18
100
AcDbEntity
  8
Object
100
AcDbLine
 10
3.256
 20
6.774555665154769
 30
0.0
 11
3.242999999999999
 21
6.74855566515477
 31
0.0
  0
LINE
  5
463
330
18
100
AcDbEntity
  8
Object
100
AcDbLine
 10
3.244
 20
6.72255566515477
 30
0.0
 11
3.256
 21
6.72255566515477
 31
0.0
  0
LINE
  5
464
330
18
100
AcDbEntity
  8
Object
100
AcDbLine
 10
3.242999999999999
 20
6.85355566515477
 30
0.0
 11
3.256
 21
6.82655566515477
 31
0.0
  0
LINE
  5
465
330
18
100
AcDbEntity
  8
Object
100
AcDbLine
 10
3.256
 20
6.92155566515477
 30
0.0
 11
3.241
 21
6.89355566515477
 31
0.0
  0
LINE
  5
466
330
18
100
AcDbEntity
  8
Object
100
AcDbLine
 10
3.256
 20
6.52855566515477
 30
0.0
 11
3.241
 21
6.50155566515477
 31
0.0
  0
LINE
  5
467
330
18
100
AcDbEntity
  8
Object
100
AcDbLine
 10
3.256
 20
6.040555665154769
 30
0.0
 11
3.241
 21
6.01255566515477
 31
0.0
  0
LINE
  5
468
330
18
100
AcDbEntity
  8
Object
100
AcDbLine
 10
3.256
 20
6.38255566515477
 30
0.0
 11
3.232
 21
6.36155566515477
 31
0.0
  0
LINE
  5
469
330
18
100
AcDbEntity
  8
Object
100
AcDbLine
 10
3.229
 20
6.46155566515477
 30
0.0
 11
3.256
 21
6.43855566515477
 31
0.0
  0
LINE
  5
46A
330
18
100
AcDbEntity
  8
Object
100
AcDbLine
 10
3.244
 20
6.78855566515477
 30
0.0
 11
3.230999999999999
 21
6.763555665154769
 31
0.0
  0
LINE
  5
46B
330
18
100
AcDbEntity
  8
Object
100
AcDbLine
 10
3.230999999999999
 20
6.763555665154769
 30
0.0
 11
3.22
 21
6.763555665154769
 31
0.0
  0
LINE
  5
46C
330
18
100
AcDbEntity
  8
Object
100
AcDbLine
 10
3.242999999999999
 20
6.74855566515477
 30
0.0
 11
3.22
 21
6.74855566515477
 31
0.0
  0
LINE
  5
46D
330
18
100
AcDbEntity
  8
Object
100
AcDbLine
 10
3.221999999999999
 20
6.44655566515477
 30
0.0
 11
3.244
 21
6.426555665154769
 31
0.0
  0
LINE
  5
46E
330
18
100
AcDbEntity
  8
Object
100
AcDbLine
 10
3.244
 20
6.426555665154769
 30
0.0
 11
3.244
 21
6.393555665154769
 31
0.0
  0
LINE
  5
46F
330
18
100
AcDbEntity
  8
Object
100
AcDbLine
 10
3.244
 20
6.393555665154769
 30
0.0
 11
3.218999999999999
 21
6.37155566515477
 31
0.0
  0
LINE
  5
470
330
18
100
AcDbEntity
  8
Object
100
AcDbLine
 10
3.241
 20
6.89355566515477
 30
0.0
 11
3.201
 21
6.89355566515477
 31
0.0
  0
LINE
  5
471
330
18
100
AcDbEntity
  8
Object
100
AcDbLine
 10
3.241
 20
6.50155566515477
 30
0.0
 11
3.201
 21
6.50155566515477
 31
0.0
  0
LINE
  5
472
330
18
100
AcDbEntity
  8
Object
100
AcDbLine
 10
3.241
 20
6.01255566515477
 30
0.0
 11
3.201
 21
6.01255566515477
 31
0.0
  0
LINE
  5
473
330
18
100
AcDbEntity
  8
Object
100
AcDbLine
 10
3.244
 20
7.045555665154769
 30
0.0
 11
3.244
 21
7.122555665154769
 31
0.0
  0
LINE
  5
474
330
18
100
AcDbEntity
  8
Object
100
AcDbLine
 10
3.197999999999999
 20
7.066555665154769
 30
0.0
 11
3.197999999999999
 21
7.122555665154769
 31
0.0
  0
LINE
  5
475
330
18
100
AcDbEntity
  8
Object
100
AcDbLine
 10
3.197999999999999
 20
7.122555665154769
 30
0.0
 11
3.244
 21
7.122555665154769
 31
0.0
  0
LINE
  5
476
330
18
100
AcDbEntity
  8
Object
100
AcDbLine
 10
3.244
 20
6.811555665154769
 30
0.0
 11
3.230999999999999
 21
6.83755566515477
 31
0.0
  0
LINE
  5
477
330
18
100
AcDbEntity
  8
Object
100
AcDbLine
 10
3.197999999999999
 20
6.816555665154769
 30
0.0
 11
3.209999999999999
 21
6.83755566515477
 31
0.0
  0
LINE
  5
478
330
18
100
AcDbEntity
  8
Object
100
AcDbLine
 10
3.209999999999999
 20
6.83755566515477
 30
0.0
 11
3.230999999999999
 21
6.83755566515477
 31
0.0
  0
LINE
  5
479
330
18
100
AcDbEntity
  8
Object
100
AcDbLine
 10
3.244
 20
6.78855566515477
 30
0.0
 11
3.244
 21
6.811555665154769
 31
0.0
  0
LINE
  5
47A
330
18
100
AcDbEntity
  8
Object
100
AcDbLine
 10
3.197999999999999
 20
6.816555665154769
 30
0.0
 11
3.197999999999999
 21
6.769555665154769
 31
0.0
  0
LINE
  5
47B
330
18
100
AcDbEntity
  8
Object
100
AcDbLine
 10
3.22
 20
6.74855566515477
 30
0.0
 11
3.22
 21
6.763555665154769
 31
0.0
  0
LINE
  5
47C
330
18
100
AcDbEntity
  8
Object
100
AcDbLine
 10
3.197999999999999
 20
6.85355566515477
 30
0.0
 11
3.242999999999999
 21
6.85355566515477
 31
0.0
  0
LINE
  5
47D
330
18
100
AcDbEntity
  8
Object
100
AcDbLine
 10
3.197999999999999
 20
6.769555665154769
 30
0.0
 11
3.188
 21
6.74855566515477
 31
0.0
  0
LINE
  5
47E
330
18
100
AcDbEntity
  8
Object
100
AcDbLine
 10
3.244
 20
6.691555665154769
 30
0.0
 11
3.244
 21
6.72255566515477
 31
0.0
  0
LINE
  5
47F
330
18
100
AcDbEntity
  8
Object
100
AcDbLine
 10
3.188
 20
6.83155566515477
 30
0.0
 11
3.197999999999999
 21
6.85355566515477
 31
0.0
  0
LINE
  5
480
330
18
100
AcDbEntity
  8
Object
100
AcDbLine
 10
3.165999999999999
 20
6.85355566515477
 30
0.0
 11
3.165999999999999
 21
6.83755566515477
 31
0.0
  0
LINE
  5
481
330
18
100
AcDbEntity
  8
Object
100
AcDbLine
 10
3.221999999999999
 20
6.44655566515477
 30
0.0
 11
3.164
 21
6.44655566515477
 31
0.0
  0
LINE
  5
482
330
18
100
AcDbEntity
  8
Object
100
AcDbLine
 10
3.157
 20
6.46155566515477
 30
0.0
 11
3.229
 21
6.46155566515477
 31
0.0
  0
LINE
  5
483
330
18
100
AcDbEntity
  8
Object
100
AcDbLine
 10
3.167
 20
6.37155566515477
 30
0.0
 11
3.153999999999999
 21
6.36155566515477
 31
0.0
  0
LINE
  5
484
330
18
100
AcDbEntity
  8
Object
100
AcDbLine
 10
3.232
 20
6.36155566515477
 30
0.0
 11
3.218999999999999
 21
6.37155566515477
 31
0.0
  0
LINE
  5
485
330
18
100
AcDbEntity
  8
Object
100
AcDbLine
 10
3.188
 20
6.83155566515477
 30
0.0
 11
3.188
 21
6.78355566515477
 31
0.0
  0
LINE
  5
486
330
18
100
AcDbEntity
  8
Object
100
AcDbLine
 10
3.188
 20
6.78355566515477
 30
0.0
 11
3.176
 21
6.763555665154769
 31
0.0
  0
LINE
  5
487
330
18
100
AcDbEntity
  8
Object
100
AcDbLine
 10
3.176
 20
6.763555665154769
 30
0.0
 11
3.155
 21
6.763555665154769
 31
0.0
  0
LINE
  5
488
330
18
100
AcDbEntity
  8
Object
100
AcDbLine
 10
3.155
 20
6.763555665154769
 30
0.0
 11
3.141999999999999
 21
6.78855566515477
 31
0.0
  0
LINE
  5
489
330
18
100
AcDbEntity
  8
Object
100
AcDbLine
 10
3.141999999999999
 20
6.78855566515477
 30
0.0
 11
3.141999999999999
 21
6.811555665154769
 31
0.0
  0
LINE
  5
48A
330
18
100
AcDbEntity
  8
Object
100
AcDbLine
 10
3.141999999999999
 20
6.811555665154769
 30
0.0
 11
3.155
 21
6.83755566515477
 31
0.0
  0
LINE
  5
48B
330
18
100
AcDbEntity
  8
Object
100
AcDbLine
 10
3.155
 20
6.83755566515477
 30
0.0
 11
3.165999999999999
 21
6.83755566515477
 31
0.0
  0
LINE
  5
48C
330
18
100
AcDbEntity
  8
Object
100
AcDbLine
 10
3.167
 20
6.37155566515477
 30
0.0
 11
3.141999999999999
 21
6.393555665154769
 31
0.0
  0
LINE
  5
48D
330
18
100
AcDbEntity
  8
Object
100
AcDbLine
 10
3.141999999999999
 20
6.393555665154769
 30
0.0
 11
3.141999999999999
 21
6.426555665154769
 31
0.0
  0
LINE
  5
48E
330
18
100
AcDbEntity
  8
Object
100
AcDbLine
 10
3.141999999999999
 20
6.426555665154769
 30
0.0
 11
3.164
 21
6.44655566515477
 31
0.0
  0
LINE
  5
48F
330
18
100
AcDbEntity
  8
Object
100
AcDbLine
 10
3.141999999999999
 20
6.176555665154769
 30
0.0
 11
3.141999999999999
 21
6.17455566515477
 31
0.0
  0
LINE
  5
490
330
18
100
AcDbEntity
  8
Object
100
AcDbLine
 10
3.244
 20
6.16455566515477
 30
0.0
 11
3.244
 21
6.167555665154769
 31
0.0
  0
LINE
  5
491
330
18
100
AcDbEntity
  8
Object
100
AcDbLine
 10
3.141999999999999
 20
6.16455566515477
 30
0.0
 11
3.141999999999999
 21
6.167555665154769
 31
0.0
  0
LINE
  5
492
330
18
100
AcDbEntity
  8
Object
100
AcDbLine
 10
3.141999999999999
 20
6.167555665154769
 30
0.0
 11
3.244
 21
6.167555665154769
 31
0.0
  0
LINE
  5
493
330
18
100
AcDbEntity
  8
Object
100
AcDbLine
 10
3.244
 20
6.176555665154769
 30
0.0
 11
3.244
 21
6.17455566515477
 31
0.0
  0
LINE
  5
494
330
18
100
AcDbEntity
  8
Object
100
AcDbLine
 10
3.244
 20
6.17455566515477
 30
0.0
 11
3.141999999999999
 21
6.17455566515477
 31
0.0
  0
LINE
  5
495
330
18
100
AcDbEntity
  8
Object
100
AcDbLine
 10
3.256
 20
6.29955566515477
 30
0.0
 11
3.141999999999999
 21
6.29955566515477
 31
0.0
  0
LINE
  5
496
330
18
100
AcDbEntity
  8
Object
100
AcDbLine
 10
3.141999999999999
 20
6.29955566515477
 30
0.0
 11
3.141999999999999
 21
6.223555665154769
 31
0.0
  0
LINE
  5
497
330
18
100
AcDbEntity
  8
Object
100
AcDbLine
 10
3.131
 20
6.910555665154769
 30
0.0
 11
3.188
 21
6.93055566515477
 31
0.0
  0
LINE
  5
498
330
18
100
AcDbEntity
  8
Object
100
AcDbLine
 10
3.197999999999999
 20
7.066555665154769
 30
0.0
 11
3.188
 21
7.066555665154769
 31
0.0
  0
LINE
  5
499
330
18
100
AcDbEntity
  8
Object
100
AcDbLine
 10
3.131
 20
7.122555665154769
 30
0.0
 11
3.188
 21
7.122555665154769
 31
0.0
  0
LINE
  5
49A
330
18
100
AcDbEntity
  8
Object
100
AcDbLine
 10
3.188
 20
7.122555665154769
 30
0.0
 11
3.188
 21
7.066555665154769
 31
0.0
  0
LINE
  5
49B
330
18
100
AcDbEntity
  8
Object
100
AcDbLine
 10
3.131
 20
7.136555665154769
 30
0.0
 11
3.256
 21
7.136555665154769
 31
0.0
  0
LINE
  5
49C
330
18
100
AcDbEntity
  8
Object
100
AcDbLine
 10
3.131
 20
6.98355566515477
 30
0.0
 11
3.188
 21
6.98355566515477
 31
0.0
  0
LINE
  5
49D
330
18
100
AcDbEntity
  8
Object
100
AcDbLine
 10
3.188
 20
6.98355566515477
 30
0.0
 11
3.188
 21
6.93055566515477
 31
0.0
  0
LINE
  5
49E
330
18
100
AcDbEntity
  8
Object
100
AcDbLine
 10
3.131
 20
6.89355566515477
 30
0.0
 11
3.189999999999999
 21
6.915555665154769
 31
0.0
  0
LINE
  5
49F
330
18
100
AcDbEntity
  8
Object
100
AcDbLine
 10
3.189999999999999
 20
6.915555665154769
 30
0.0
 11
3.201
 21
6.89355566515477
 31
0.0
  0
LINE
  5
4A0
330
18
100
AcDbEntity
  8
Object
100
AcDbLine
 10
3.131
 20
6.99855566515477
 30
0.0
 11
3.256
 21
6.99855566515477
 31
0.0
  0
LINE
  5
4A1
330
18
100
AcDbEntity
  8
Object
100
AcDbLine
 10
3.165999999999999
 20
6.85355566515477
 30
0.0
 11
3.144
 21
6.85355566515477
 31
0.0
  0
LINE
  5
4A2
330
18
100
AcDbEntity
  8
Object
100
AcDbLine
 10
3.144
 20
6.85355566515477
 30
0.0
 11
3.131
 21
6.82655566515477
 31
0.0
  0
LINE
  5
4A3
330
18
100
AcDbEntity
  8
Object
100
AcDbLine
 10
3.131
 20
6.774555665154769
 30
0.0
 11
3.144
 21
6.74855566515477
 31
0.0
  0
LINE
  5
4A4
330
18
100
AcDbEntity
  8
Object
100
AcDbLine
 10
3.144
 20
6.74855566515477
 30
0.0
 11
3.188
 21
6.74855566515477
 31
0.0
  0
LINE
  5
4A5
330
18
100
AcDbEntity
  8
Object
100
AcDbLine
 10
3.131
 20
6.606555665154769
 30
0.0
 11
3.256
 21
6.606555665154769
 31
0.0
  0
LINE
  5
4A6
330
18
100
AcDbEntity
  8
Object
100
AcDbLine
 10
3.131
 20
6.678555665154769
 30
0.0
 11
3.244
 21
6.678555665154769
 31
0.0
  0
LINE
  5
4A7
330
18
100
AcDbEntity
  8
Object
100
AcDbLine
 10
3.244
 20
6.678555665154769
 30
0.0
 11
3.244
 21
6.646555665154769
 31
0.0
  0
LINE
  5
4A8
330
18
100
AcDbEntity
  8
Object
100
AcDbLine
 10
3.131
 20
6.691555665154769
 30
0.0
 11
3.244
 21
6.691555665154769
 31
0.0
  0
LINE
  5
4A9
330
18
100
AcDbEntity
  8
Object
100
AcDbLine
 10
3.131
 20
6.590555665154769
 30
0.0
 11
3.188
 21
6.590555665154769
 31
0.0
  0
LINE
  5
4AA
330
18
100
AcDbEntity
  8
Object
100
AcDbLine
 10
3.188
 20
6.590555665154769
 30
0.0
 11
3.188
 21
6.53855566515477
 31
0.0
  0
LINE
  5
4AB
330
18
100
AcDbEntity
  8
Object
100
AcDbLine
 10
3.188
 20
6.53855566515477
 30
0.0
 11
3.131
 21
6.518555665154769
 31
0.0
  0
LINE
  5
4AC
330
18
100
AcDbEntity
  8
Object
100
AcDbLine
 10
3.201
 20
6.50155566515477
 30
0.0
 11
3.189999999999999
 21
6.52255566515477
 31
0.0
  0
LINE
  5
4AD
330
18
100
AcDbEntity
  8
Object
100
AcDbLine
 10
3.189999999999999
 20
6.52255566515477
 30
0.0
 11
3.131
 21
6.50155566515477
 31
0.0
  0
LINE
  5
4AE
330
18
100
AcDbEntity
  8
Object
100
AcDbLine
 10
3.131
 20
6.43855566515477
 30
0.0
 11
3.157
 21
6.46155566515477
 31
0.0
  0
LINE
  5
4AF
330
18
100
AcDbEntity
  8
Object
100
AcDbLine
 10
3.131
 20
6.314555665154769
 30
0.0
 11
3.256
 21
6.314555665154769
 31
0.0
  0
LINE
  5
4B0
330
18
100
AcDbEntity
  8
Object
100
AcDbLine
 10
3.141999999999999
 20
6.223555665154769
 30
0.0
 11
3.131
 21
6.223555665154769
 31
0.0
  0
LINE
  5
4B1
330
18
100
AcDbEntity
  8
Object
100
AcDbLine
 10
3.141999999999999
 20
6.16455566515477
 30
0.0
 11
3.131
 21
6.16455566515477
 31
0.0
  0
LINE
  5
4B2
330
18
100
AcDbEntity
  8
Object
100
AcDbLine
 10
3.131
 20
6.117555665154769
 30
0.0
 11
3.256
 21
6.117555665154769
 31
0.0
  0
LINE
  5
4B3
330
18
100
AcDbEntity
  8
Object
100
AcDbLine
 10
3.131
 20
6.176555665154769
 30
0.0
 11
3.141999999999999
 21
6.176555665154769
 31
0.0
  0
LINE
  5
4B4
330
18
100
AcDbEntity
  8
Object
100
AcDbLine
 10
3.153999999999999
 20
6.36155566515477
 30
0.0
 11
3.131
 21
6.38255566515477
 31
0.0
  0
LINE
  5
4B5
330
18
100
AcDbEntity
  8
Object
100
AcDbLine
 10
3.201
 20
6.01255566515477
 30
0.0
 11
3.188
 21
6.040555665154769
 31
0.0
  0
LINE
  5
4B6
330
18
100
AcDbEntity
  8
Object
100
AcDbLine
 10
3.131
 20
6.10255566515477
 30
0.0
 11
3.188
 21
6.10255566515477
 31
0.0
  0
LINE
  5
4B7
330
18
100
AcDbEntity
  8
Object
100
AcDbLine
 10
3.188
 20
6.10255566515477
 30
0.0
 11
3.188
 21
6.040555665154769
 31
0.0
  0
LINE
  5
4B8
330
18
100
AcDbEntity
  8
Object
100
AcDbLine
 10
3.131
 20
6.590555665154769
 30
0.0
 11
3.131
 21
6.606555665154769
 31
0.0
  0
LINE
  5
4B9
330
18
100
AcDbEntity
  8
Object
100
AcDbLine
 10
2.769
 20
6.649555665154769
 30
0.0
 11
2.774999999999999
 21
6.607555665154769
 31
0.0
  0
LINE
  5
4BA
330
18
100
AcDbEntity
  8
Object
100
AcDbLine
 10
3.131
 20
6.678555665154769
 30
0.0
 11
3.131
 21
6.691555665154769
 31
0.0
  0
LINE
  5
4BB
330
18
100
AcDbEntity
  8
Object
100
AcDbLine
 10
3.131
 20
6.50155566515477
 30
0.0
 11
3.131
 21
6.518555665154769
 31
0.0
  0
LINE
  5
4BC
330
18
100
AcDbEntity
  8
Object
100
AcDbLine
 10
2.774999999999999
 20
6.607555665154769
 30
0.0
 11
2.769
 21
6.564555665154769
 31
0.0
  0
LINE
  5
4BD
330
18
100
AcDbEntity
  8
Object
100
AcDbLine
 10
3.131
 20
6.774555665154769
 30
0.0
 11
3.131
 21
6.82655566515477
 31
0.0
  0
LINE
  5
4BE
330
18
100
AcDbEntity
  8
Object
100
AcDbLine
 10
2.749
 20
6.68755566515477
 30
0.0
 11
2.769
 21
6.649555665154769
 31
0.0
  0
LINE
  5
4BF
330
18
100
AcDbEntity
  8
Object
100
AcDbLine
 10
2.769
 20
6.564555665154769
 30
0.0
 11
2.749
 21
6.526555665154769
 31
0.0
  0
LINE
  5
4C0
330
18
100
AcDbEntity
  8
Object
100
AcDbLine
 10
3.131
 20
6.38255566515477
 30
0.0
 11
3.131
 21
6.43855566515477
 31
0.0
  0
LINE
  5
4C1
330
18
100
AcDbEntity
  8
Object
100
AcDbLine
 10
2.718999999999999
 20
6.71755566515477
 30
0.0
 11
2.749
 21
6.68755566515477
 31
0.0
  0
LINE
  5
4C2
330
18
100
AcDbEntity
  8
Object
100
AcDbLine
 10
3.131
 20
6.89355566515477
 30
0.0
 11
3.131
 21
6.910555665154769
 31
0.0
  0
LINE
  5
4C3
330
18
100
AcDbEntity
  8
Object
100
AcDbLine
 10
2.749
 20
6.526555665154769
 30
0.0
 11
2.718999999999999
 21
6.49655566515477
 31
0.0
  0
LINE
  5
4C4
330
18
100
AcDbEntity
  8
Object
100
AcDbLine
 10
3.131
 20
6.223555665154769
 30
0.0
 11
3.131
 21
6.314555665154769
 31
0.0
  0
LINE
  5
4C5
330
18
100
AcDbEntity
  8
Object
100
AcDbLine
 10
3.131
 20
7.122555665154769
 30
0.0
 11
3.131
 21
7.136555665154769
 31
0.0
  0
LINE
  5
4C6
330
18
100
AcDbEntity
  8
Object
100
AcDbLine
 10
3.131
 20
6.98355566515477
 30
0.0
 11
3.131
 21
6.99855566515477
 31
0.0
  0
LINE
  5
4C7
330
18
100
AcDbEntity
  8
Object
100
AcDbLine
 10
2.681
 20
6.737555665154769
 30
0.0
 11
2.718999999999999
 21
6.71755566515477
 31
0.0
  0
LINE
  5
4C8
330
18
100
AcDbEntity
  8
Object
100
AcDbLine
 10
3.131
 20
6.16455566515477
 30
0.0
 11
3.131
 21
6.176555665154769
 31
0.0
  0
LINE
  5
4C9
330
18
100
AcDbEntity
  8
Object
100
AcDbLine
 10
2.718999999999999
 20
6.49655566515477
 30
0.0
 11
2.681
 21
6.476555665154769
 31
0.0
  0
LINE
  5
4CA
330
18
100
AcDbEntity
  8
Object
100
AcDbLine
 10
3.131
 20
6.10255566515477
 30
0.0
 11
3.131
 21
6.117555665154769
 31
0.0
  0
LINE
  5
4CB
330
18
100
AcDbEntity
  8
Object
100
AcDbLine
 10
2.637999999999999
 20
6.74455566515477
 30
0.0
 11
2.681
 21
6.737555665154769
 31
0.0
  0
LINE
  5
4CC
330
18
100
AcDbEntity
  8
Object
100
AcDbLine
 10
2.681
 20
6.476555665154769
 30
0.0
 11
2.637999999999999
 21
6.47055566515477
 31
0.0
  0
LINE
  5
4CD
330
18
100
AcDbEntity
  8
Object
100
AcDbLine
 10
4.044
 20
7.402555665154769
 30
0.0
 11
1.919999999999999
 21
7.402555665154769
 31
0.0
  0
LINE
  5
4CE
330
18
100
AcDbEntity
  8
Object
100
AcDbLine
 10
2.637999999999999
 20
6.74455566515477
 30
0.0
 11
2.596
 21
6.737555665154769
 31
0.0
  0
LINE
  5
4CF
330
18
100
AcDbEntity
  8
Object
100
AcDbLine
 10
2.596
 20
6.737555665154769
 30
0.0
 11
2.558
 21
6.71755566515477
 31
0.0
  0
LINE
  5
4D0
330
18
100
AcDbEntity
  8
Object
100
AcDbLine
 10
2.558
 20
6.71755566515477
 30
0.0
 11
2.528
 21
6.68755566515477
 31
0.0
  0
LINE
  5
4D1
330
18
100
AcDbEntity
  8
Object
100
AcDbLine
 10
2.528
 20
6.68755566515477
 30
0.0
 11
2.508
 21
6.649555665154769
 31
0.0
  0
LINE
  5
4D2
330
18
100
AcDbEntity
  8
Object
100
AcDbLine
 10
2.508
 20
6.649555665154769
 30
0.0
 11
2.500999999999999
 21
6.607555665154769
 31
0.0
  0
LINE
  5
4D3
330
18
100
AcDbEntity
  8
Object
100
AcDbLine
 10
2.500999999999999
 20
6.607555665154769
 30
0.0
 11
2.508
 21
6.564555665154769
 31
0.0
  0
LINE
  5
4D4
330
18
100
AcDbEntity
  8
Object
100
AcDbLine
 10
2.508
 20
6.564555665154769
 30
0.0
 11
2.528
 21
6.526555665154769
 31
0.0
  0
LINE
  5
4D5
330
18
100
AcDbEntity
  8
Object
100
AcDbLine
 10
2.528
 20
6.526555665154769
 30
0.0
 11
2.558
 21
6.49655566515477
 31
0.0
  0
LINE
  5
4D6
330
18
100
AcDbEntity
  8
Object
100
AcDbLine
 10
2.558
 20
6.49655566515477
 30
0.0
 11
2.596
 21
6.476555665154769
 31
0.0
  0
LINE
  5
4D7
330
18
100
AcDbEntity
  8
Object
100
AcDbLine
 10
2.596
 20
6.476555665154769
 30
0.0
 11
2.637999999999999
 21
6.47055566515477
 31
0.0
  0
LINE
  5
4D8
330
18
100
AcDbEntity
  8
Object
100
AcDbLine
 10
3.165999999999999
 20
6.85355566515477
 30
0.0
 11
3.165999999999999
 21
6.83755566515477
 31
0.0
  0
LINE
  5
4D9
330
18
100
AcDbEntity
  8
Object
100
AcDbLine
 10
3.141999999999999
 20
6.78855566515477
 30
0.0
 11
3.155
 21
6.763555665154769
 31
0.0
  0
LINE
  5
4DA
330
18
100
AcDbEntity
  8
Object
100
AcDbLine
 10
3.197999999999999
 20
6.816555665154769
 30
0.0
 11
3.197999999999999
 21
6.769555665154769
 31
0.0
  0
LINE
  5
4DB
330
18
100
AcDbEntity
  8
Object
100
AcDbLine
 10
3.244
 20
6.811555665154769
 30
0.0
 11
3.230999999999999
 21
6.83755566515477
 31
0.0
  0
LINE
  5
4DC
330
18
100
AcDbEntity
  8
Object
100
AcDbLine
 10
3.230999999999999
 20
6.763555665154769
 30
0.0
 11
3.244
 21
6.78855566515477
 31
0.0
  0
LINE
  5
4DD
330
18
100
AcDbEntity
  8
Object
100
AcDbLine
 10
3.188
 20
6.590555665154769
 30
0.0
 11
3.131
 21
6.590555665154769
 31
0.0
  0
LINE
  5
4DE
330
18
100
AcDbEntity
  8
Object
100
AcDbLine
 10
3.256
 20
6.52855566515477
 30
0.0
 11
3.241
 21
6.50155566515477
 31
0.0
  0
LINE
  5
4DF
330
18
100
AcDbEntity
  8
Object
100
AcDbLine
 10
4.379999999999999
 20
7.402555665154769
 30
0.0
 11
4.376
 21
7.402555665154769
 31
0.0
  0
LINE
  5
4E0
330
18
100
AcDbEntity
  8
Object
100
AcDbLine
 10
4.376
 20
7.402555665154769
 30
0.0
 11
4.171999999999999
 21
7.402555665154769
 31
0.0
  0
LINE
  5
4E1
330
18
100
AcDbEntity
  8
Object
100
AcDbLine
 10
4.171999999999999
 20
7.402555665154769
 30
0.0
 11
4.141
 21
7.402555665154769
 31
0.0
  0
LINE
  5
4E2
330
18
100
AcDbEntity
  8
Object
100
AcDbLine
 10
4.141
 20
7.402555665154769
 30
0.0
 11
4.113
 21
7.402555665154769
 31
0.0
  0
LINE
  5
4E3
330
18
100
AcDbEntity
  8
Object
100
AcDbLine
 10
4.113
 20
7.402555665154769
 30
0.0
 11
4.091
 21
7.402555665154769
 31
0.0
  0
LINE
  5
4E4
330
18
100
AcDbEntity
  8
Object
100
AcDbLine
 10
4.091
 20
7.402555665154769
 30
0.0
 11
4.076999999999999
 21
7.402555665154769
 31
0.0
  0
LINE
  5
4E5
330
18
100
AcDbEntity
  8
Object
100
AcDbLine
 10
4.076999999999999
 20
7.402555665154769
 30
0.0
 11
4.073999999999999
 21
7.402555665154769
 31
0.0
  0
LINE
  5
4E6
330
18
100
AcDbEntity
  8
Object
100
AcDbLine
 10
4.073999999999999
 20
7.402555665154769
 30
0.0
 11
4.068999999999999
 21
7.402555665154769
 31
0.0
  0
LINE
  5
4E7
330
18
100
AcDbEntity
  8
Object
100
AcDbLine
 10
4.068999999999999
 20
7.402555665154769
 30
0.0
 11
4.062999999999999
 21
7.402555665154769
 31
0.0
  0
LINE
  5
4E8
330
18
100
AcDbEntity
  8
Object
100
AcDbLine
 10
4.062999999999999
 20
7.402555665154769
 30
0.0
 11
4.044
 21
7.402555665154769
 31
0.0
  0
LINE
  5
4E9
330
18
100
AcDbEntity
  8
Object
100
AcDbLine
 10
3.502
 20
6.466555665154769
 30
0.0
 11
3.502
 21
6.43755566515477
 31
0.0
  0
LINE
  5
4EA
330
18
100
AcDbEntity
  8
Object
100
AcDbLine
 10
3.363999999999999
 20
6.971555665154769
 30
0.0
 11
3.363999999999999
 21
7.05255566515477
 31
0.0
  0
LINE
  5
4EB
330
18
100
AcDbEntity
  8
Object
100
AcDbLine
 10
3.383999999999999
 20
6.824555665154769
 30
0.0
 11
3.363999999999999
 21
6.814555665154769
 31
0.0
  0
LINE
  5
4EC
330
18
100
AcDbEntity
  8
Object
100
AcDbLine
 10
3.363999999999999
 20
6.814555665154769
 30
0.0
 11
3.363999999999999
 21
6.753555665154769
 31
0.0
  0
LINE
  5
4ED
330
18
100
AcDbEntity
  8
Object
100
AcDbLine
 10
3.256
 20
6.43855566515477
 30
0.0
 11
3.256
 21
6.38255566515477
 31
0.0
  0
LINE
  5
4EE
330
18
100
AcDbEntity
  8
Object
100
AcDbLine
 10
3.197999999999999
 20
7.066555665154769
 30
0.0
 11
3.188
 21
7.066555665154769
 31
0.0
  0
LINE
  5
4EF
330
18
100
AcDbEntity
  8
Object
100
AcDbLine
 10
3.144
 20
6.74855566515477
 30
0.0
 11
3.131
 21
6.774555665154769
 31
0.0
  0
LINE
  5
4F0
330
18
100
AcDbEntity
  8
Object
100
AcDbLine
 10
3.131
 20
6.223555665154769
 30
0.0
 11
3.131
 21
6.314555665154769
 31
0.0
  0
LINE
  5
4F1
330
18
100
AcDbEntity
  8
Object
100
AcDbLine
 10
3.188
 20
6.10255566515477
 30
0.0
 11
3.131
 21
6.10255566515477
 31
0.0
  0
LINE
  5
4F2
330
18
100
AcDbEntity
  8
Object
100
AcDbLine
 10
3.363999999999999
 20
6.282555665154769
 30
0.0
 11
3.363999999999999
 21
6.324555665154769
 31
0.0
  0
LINE
  5
4F3
330
18
100
AcDbEntity
  8
Object
100
AcDbLine
 10
4.379999999999999
 20
5.81255566515477
 30
0.0
 11
4.376
 21
5.81255566515477
 31
0.0
  0
LINE
  5
4F4
330
18
100
AcDbEntity
  8
Object
100
AcDbLine
 10
4.376
 20
5.81255566515477
 30
0.0
 11
4.171999999999999
 21
5.81255566515477
 31
0.0
  0
LINE
  5
4F5
330
18
100
AcDbEntity
  8
Object
100
AcDbLine
 10
4.171999999999999
 20
5.81255566515477
 30
0.0
 11
4.141
 21
5.81255566515477
 31
0.0
  0
LINE
  5
4F6
330
18
100
AcDbEntity
  8
Object
100
AcDbLine
 10
4.141
 20
5.81255566515477
 30
0.0
 11
4.113
 21
5.81255566515477
 31
0.0
  0
LINE
  5
4F7
330
18
100
AcDbEntity
  8
Object
100
AcDbLine
 10
4.113
 20
5.81255566515477
 30
0.0
 11
4.091
 21
5.81255566515477
 31
0.0
  0
LINE
  5
4F8
330
18
100
AcDbEntity
  8
Object
100
AcDbLine
 10
4.091
 20
5.81255566515477
 30
0.0
 11
4.076999999999999
 21
5.81255566515477
 31
0.0
  0
LINE
  5
4F9
330
18
100
AcDbEntity
  8
Object
100
AcDbLine
 10
4.076999999999999
 20
5.81255566515477
 30
0.0
 11
4.073999999999999
 21
5.81255566515477
 31
0.0
  0
LINE
  5
4FA
330
18
100
AcDbEntity
  8
Object
100
AcDbLine
 10
4.073999999999999
 20
5.81255566515477
 30
0.0
 11
4.068999999999999
 21
5.81255566515477
 31
0.0
  0
LINE
  5
4FB
330
18
100
AcDbEntity
  8
Object
100
AcDbLine
 10
4.068999999999999
 20
5.81255566515477
 30
0.0
 11
4.062999999999999
 21
5.81255566515477
 31
0.0
  0
LINE
  5
4FC
330
18
100
AcDbEntity
  8
Object
100
AcDbLine
 10
4.062999999999999
 20
5.81255566515477
 30
0.0
 11
4.044
 21
5.81255566515477
 31
0.0
  0
LINE
  5
4FD
330
18
100
AcDbEntity
  8
Object
100
AcDbLine
 10
3.389
 20
6.43755566515477
 30
0.0
 11
3.377
 21
6.441555665154769
 31
0.0
  0
LINE
  5
4FE
330
18
100
AcDbEntity
  8
Object
100
AcDbLine
 10
3.377
 20
6.441555665154769
 30
0.0
 11
3.367999999999999
 21
6.450555665154769
 31
0.0
  0
LINE
  5
4FF
330
18
100
AcDbEntity
  8
Object
100
AcDbLine
 10
3.367999999999999
 20
6.450555665154769
 30
0.0
 11
3.363999999999999
 21
6.46255566515477
 31
0.0
  0
LINE
  5
500
330
18
100
AcDbEntity
  8
Object
100
AcDbLine
 10
3.363999999999999
 20
7.05255566515477
 30
0.0
 11
3.544
 21
7.05255566515477
 31
0.0
  0
LINE
  5
501
330
18
100
AcDbEntity
  8
Object
100
AcDbLine
 10
3.244
 20
6.426555665154769
 30
0.0
 11
3.221999999999999
 21
6.44655566515477
 31
0.0
  0
LINE
  5
502
330
18
100
AcDbEntity
  8
Object
100
AcDbLine
 10
3.22
 20
6.763555665154769
 30
0.0
 11
3.230999999999999
 21
6.763555665154769
 31
0.0
  0
LINE
  5
503
330
18
100
AcDbEntity
  8
Object
100
AcDbLine
 10
3.242999999999999
 20
6.74855566515477
 30
0.0
 11
3.22
 21
6.74855566515477
 31
0.0
  0
LINE
  5
504
330
18
100
AcDbEntity
  8
Object
100
AcDbLine
 10
3.256
 20
6.606555665154769
 30
0.0
 11
3.256
 21
6.52855566515477
 31
0.0
  0
LINE
  5
505
330
18
100
AcDbEntity
  8
Object
100
AcDbLine
 10
3.256
 20
6.314555665154769
 30
0.0
 11
3.256
 21
6.29955566515477
 31
0.0
  0
LINE
  5
506
330
18
100
AcDbEntity
  8
Object
100
AcDbLine
 10
3.421
 20
6.92755566515477
 30
0.0
 11
3.421
 21
6.971555665154769
 31
0.0
  0
LINE
  5
507
330
18
100
AcDbEntity
  8
Object
100
AcDbLine
 10
3.544
 20
6.92755566515477
 30
0.0
 11
3.539
 21
6.902555665154769
 31
0.0
  0
LINE
  5
508
330
18
100
AcDbEntity
  8
Object
100
AcDbLine
 10
3.539
 20
6.902555665154769
 30
0.0
 11
3.524
 21
6.88155566515477
 31
0.0
  0
LINE
  5
509
330
18
100
AcDbEntity
  8
Object
100
AcDbLine
 10
3.524
 20
6.88155566515477
 30
0.0
 11
3.502
 21
6.86855566515477
 31
0.0
  0
LINE
  5
50A
330
18
100
AcDbEntity
  8
Object
100
AcDbLine
 10
3.131
 20
6.176555665154769
 30
0.0
 11
3.141999999999999
 21
6.176555665154769
 31
0.0
  0
LINE
  5
50B
330
18
100
AcDbEntity
  8
Object
100
AcDbLine
 10
3.221999999999999
 20
6.44655566515477
 30
0.0
 11
3.164
 21
6.44655566515477
 31
0.0
  0
LINE
  5
50C
330
18
100
AcDbEntity
  8
Object
100
AcDbLine
 10
3.131
 20
7.136555665154769
 30
0.0
 11
3.256
 21
7.136555665154769
 31
0.0
  0
LINE
  5
50D
330
18
100
AcDbEntity
  8
Object
100
AcDbLine
 10
3.244
 20
6.78855566515477
 30
0.0
 11
3.244
 21
6.811555665154769
 31
0.0
  0
LINE
  5
50E
330
18
100
AcDbEntity
  8
Object
100
AcDbLine
 10
3.242999999999999
 20
6.85355566515477
 30
0.0
 11
3.256
 21
6.82655566515477
 31
0.0
  0
LINE
  5
50F
330
18
100
AcDbEntity
  8
Object
100
AcDbLine
 10
3.363999999999999
 20
6.37755566515477
 30
0.0
 11
3.363999999999999
 21
6.41355566515477
 31
0.0
  0
LINE
  5
510
330
18
100
AcDbEntity
  8
Object
100
AcDbLine
 10
3.502
 20
6.35355566515477
 30
0.0
 11
3.502
 21
6.25155566515477
 31
0.0
  0
LINE
  5
511
330
18
100
AcDbEntity
  8
Object
100
AcDbLine
 10
2.769
 20
6.649555665154769
 30
0.0
 11
2.774999999999999
 21
6.607555665154769
 31
0.0
  0
LINE
  5
512
330
18
100
AcDbEntity
  8
Object
100
AcDbLine
 10
2.774999999999999
 20
6.607555665154769
 30
0.0
 11
2.769
 21
6.564555665154769
 31
0.0
  0
LINE
  5
513
330
18
100
AcDbEntity
  8
Object
100
AcDbLine
 10
2.769
 20
6.564555665154769
 30
0.0
 11
2.749
 21
6.526555665154769
 31
0.0
  0
LINE
  5
514
330
18
100
AcDbEntity
  8
Object
100
AcDbLine
 10
2.769
 20
6.649555665154769
 30
0.0
 11
2.749
 21
6.68755566515477
 31
0.0
  0
LINE
  5
515
330
18
100
AcDbEntity
  8
Object
100
AcDbLine
 10
2.749
 20
6.68755566515477
 30
0.0
 11
2.718999999999999
 21
6.71755566515477
 31
0.0
  0
LINE
  5
516
330
18
100
AcDbEntity
  8
Object
100
AcDbLine
 10
2.749
 20
6.526555665154769
 30
0.0
 11
2.718999999999999
 21
6.49655566515477
 31
0.0
  0
LINE
  5
517
330
18
100
AcDbEntity
  8
Object
100
AcDbLine
 10
2.718999999999999
 20
6.49655566515477
 30
0.0
 11
2.681
 21
6.476555665154769
 31
0.0
  0
LINE
  5
518
330
18
100
AcDbEntity
  8
Object
100
AcDbLine
 10
2.718999999999999
 20
6.71755566515477
 30
0.0
 11
2.681
 21
6.737555665154769
 31
0.0
  0
LINE
  5
519
330
18
100
AcDbEntity
  8
Object
100
AcDbLine
 10
2.681
 20
6.737555665154769
 30
0.0
 11
2.637999999999999
 21
6.74455566515477
 31
0.0
  0
LINE
  5
51A
330
18
100
AcDbEntity
  8
Object
100
AcDbLine
 10
2.681
 20
6.476555665154769
 30
0.0
 11
2.637999999999999
 21
6.47055566515477
 31
0.0
  0
LINE
  5
51B
330
18
100
AcDbEntity
  8
Object
100
AcDbLine
 10
3.389
 20
6.53655566515477
 30
0.0
 11
3.377
 21
6.532555665154769
 31
0.0
  0
LINE
  5
51C
330
18
100
AcDbEntity
  8
Object
100
AcDbLine
 10
3.377
 20
6.532555665154769
 30
0.0
 11
3.367999999999999
 21
6.52355566515477
 31
0.0
  0
LINE
  5
51D
330
18
100
AcDbEntity
  8
Object
100
AcDbLine
 10
3.367999999999999
 20
6.52355566515477
 30
0.0
 11
3.363999999999999
 21
6.511555665154769
 31
0.0
  0
LINE
  5
51E
330
18
100
AcDbEntity
  8
Object
100
AcDbLine
 10
3.383999999999999
 20
6.824555665154769
 30
0.0
 11
3.383999999999999
 21
6.87655566515477
 31
0.0
  0
LINE
  5
51F
330
18
100
AcDbEntity
  8
Object
100
AcDbLine
 10
3.363999999999999
 20
6.72755566515477
 30
0.0
 11
3.363999999999999
 21
6.686555665154769
 31
0.0
  0
LINE
  5
520
330
18
100
AcDbEntity
  8
Object
100
AcDbLine
 10
3.363999999999999
 20
6.686555665154769
 30
0.0
 11
3.502
 21
6.686555665154769
 31
0.0
  0
LINE
  5
521
330
18
100
AcDbEntity
  8
Object
100
AcDbLine
 10
3.141999999999999
 20
6.16455566515477
 30
0.0
 11
3.131
 21
6.16455566515477
 31
0.0
  0
LINE
  5
522
330
18
100
AcDbEntity
  8
Object
100
AcDbLine
 10
3.256
 20
6.16455566515477
 30
0.0
 11
3.244
 21
6.16455566515477
 31
0.0
  0
LINE
  5
523
330
18
100
AcDbEntity
  8
Object
100
AcDbLine
 10
3.218999999999999
 20
6.37155566515477
 30
0.0
 11
3.244
 21
6.393555665154769
 31
0.0
  0
LINE
  5
524
330
18
100
AcDbEntity
  8
Object
100
AcDbLine
 10
3.141999999999999
 20
6.393555665154769
 30
0.0
 11
3.167
 21
6.37155566515477
 31
0.0
  0
LINE
  5
525
330
18
100
AcDbEntity
  8
Object
100
AcDbLine
 10
3.256
 20
6.92155566515477
 30
0.0
 11
3.241
 21
6.89355566515477
 31
0.0
  0
LINE
  5
526
330
18
100
AcDbEntity
  8
Object
100
AcDbLine
 10
3.131
 20
7.122555665154769
 30
0.0
 11
3.188
 21
7.122555665154769
 31
0.0
  0
LINE
  5
527
330
18
100
AcDbEntity
  8
Object
100
AcDbLine
 10
3.188
 20
7.122555665154769
 30
0.0
 11
3.188
 21
7.066555665154769
 31
0.0
  0
LINE
  5
528
330
18
100
AcDbEntity
  8
Object
100
AcDbLine
 10
3.144
 20
6.85355566515477
 30
0.0
 11
3.165999999999999
 21
6.85355566515477
 31
0.0
  0
LINE
  5
529
330
18
100
AcDbEntity
  8
Object
100
AcDbLine
 10
3.197999999999999
 20
6.769555665154769
 30
0.0
 11
3.188
 21
6.74855566515477
 31
0.0
  0
LINE
  5
52A
330
18
100
AcDbEntity
  8
Object
100
AcDbLine
 10
3.256
 20
6.117555665154769
 30
0.0
 11
3.256
 21
6.040555665154769
 31
0.0
  0
LINE
  5
52B
330
18
100
AcDbEntity
  8
Object
100
AcDbLine
 10
3.363999999999999
 20
6.41355566515477
 30
0.0
 11
3.502
 21
6.41355566515477
 31
0.0
  0
LINE
  5
52C
330
18
100
AcDbEntity
  8
Object
100
AcDbLine
 10
3.363999999999999
 20
6.662555665154769
 30
0.0
 11
3.502
 21
6.662555665154769
 31
0.0
  0
LINE
  5
52D
330
18
100
AcDbEntity
  8
Object
100
AcDbLine
 10
3.363999999999999
 20
6.72755566515477
 30
0.0
 11
3.423
 21
6.753555665154769
 31
0.0
  0
LINE
  5
52E
330
18
100
AcDbEntity
  8
Object
100
AcDbLine
 10
3.244
 20
6.167555665154769
 30
0.0
 11
3.141999999999999
 21
6.167555665154769
 31
0.0
  0
LINE
  5
52F
330
18
100
AcDbEntity
  8
Object
100
AcDbLine
 10
3.244
 20
6.17455566515477
 30
0.0
 11
3.141999999999999
 21
6.17455566515477
 31
0.0
  0
LINE
  5
530
330
18
100
AcDbEntity
  8
Object
100
AcDbLine
 10
3.141999999999999
 20
6.17455566515477
 30
0.0
 11
3.141999999999999
 21
6.176555665154769
 31
0.0
  0
LINE
  5
531
330
18
100
AcDbEntity
  8
Object
100
AcDbLine
 10
3.244
 20
6.691555665154769
 30
0.0
 11
3.244
 21
6.72255566515477
 31
0.0
  0
LINE
  5
532
330
18
100
AcDbEntity
  8
Object
100
AcDbLine
 10
3.244
 20
7.045555665154769
 30
0.0
 11
3.244
 21
7.122555665154769
 31
0.0
  0
LINE
  5
533
330
18
100
AcDbEntity
  8
Object
100
AcDbLine
 10
3.22
 20
6.74855566515477
 30
0.0
 11
3.22
 21
6.763555665154769
 31
0.0
  0
LINE
  5
534
330
18
100
AcDbEntity
  8
Object
100
AcDbLine
 10
3.141999999999999
 20
6.223555665154769
 30
0.0
 11
3.131
 21
6.223555665154769
 31
0.0
  0
LINE
  5
535
330
18
100
AcDbEntity
  8
Object
100
AcDbLine
 10
3.256
 20
6.29955566515477
 30
0.0
 11
3.141999999999999
 21
6.29955566515477
 31
0.0
  0
LINE
  5
536
330
18
100
AcDbEntity
  8
Object
100
AcDbLine
 10
3.131
 20
6.314555665154769
 30
0.0
 11
3.256
 21
6.314555665154769
 31
0.0
  0
LINE
  5
537
330
18
100
AcDbEntity
  8
Object
100
AcDbLine
 10
3.256
 20
6.040555665154769
 30
0.0
 11
3.241
 21
6.01255566515477
 31
0.0
  0
LINE
  5
538
330
18
100
AcDbEntity
  8
Object
100
AcDbLine
 10
3.502
 20
6.86855566515477
 30
0.0
 11
3.502
 21
6.832555665154769
 31
0.0
  0
LINE
  5
539
330
18
100
AcDbEntity
  8
Object
100
AcDbLine
 10
3.131
 20
6.99855566515477
 30
0.0
 11
3.256
 21
6.99855566515477
 31
0.0
  0
LINE
  5
53A
330
18
100
AcDbEntity
  8
Object
100
AcDbLine
 10
3.256
 20
6.82655566515477
 30
0.0
 11
3.256
 21
6.774555665154769
 31
0.0
  0
LINE
  5
53B
330
18
100
AcDbEntity
  8
Object
100
AcDbLine
 10
3.131
 20
6.518555665154769
 30
0.0
 11
3.188
 21
6.53855566515477
 31
0.0
  0
LINE
  5
53C
330
18
100
AcDbEntity
  8
Object
100
AcDbLine
 10
3.502
 20
6.25155566515477
 30
0.0
 11
3.474
 21
6.25155566515477
 31
0.0
  0
LINE
  5
53D
330
18
100
AcDbEntity
  8
Object
100
AcDbLine
 10
3.502
 20
6.43755566515477
 30
0.0
 11
3.389
 21
6.43755566515477
 31
0.0
  0
LINE
  5
53E
330
18
100
AcDbEntity
  8
Object
100
AcDbLine
 10
3.502
 20
6.49055566515477
 30
0.0
 11
3.403
 21
6.49055566515477
 31
0.0
  0
LINE
  5
53F
330
18
100
AcDbEntity
  8
Object
100
AcDbLine
 10
3.502
 20
6.832555665154769
 30
0.0
 11
3.411999999999999
 21
6.79155566515477
 31
0.0
  0
LINE
  5
540
330
18
100
AcDbEntity
  8
Object
100
AcDbLine
 10
3.256
 20
6.38255566515477
 30
0.0
 11
3.232
 21
6.36155566515477
 31
0.0
  0
LINE
  5
541
330
18
100
AcDbEntity
  8
Object
100
AcDbLine
 10
3.229
 20
6.46155566515477
 30
0.0
 11
3.256
 21
6.43855566515477
 31
0.0
  0
LINE
  5
542
330
18
100
AcDbEntity
  8
Object
100
AcDbLine
 10
3.167
 20
6.37155566515477
 30
0.0
 11
3.153999999999999
 21
6.36155566515477
 31
0.0
  0
LINE
  5
543
330
18
100
AcDbEntity
  8
Object
100
AcDbLine
 10
3.241
 20
6.50155566515477
 30
0.0
 11
3.201
 21
6.50155566515477
 31
0.0
  0
LINE
  5
544
330
18
100
AcDbEntity
  8
Object
100
AcDbLine
 10
3.141999999999999
 20
6.29955566515477
 30
0.0
 11
3.141999999999999
 21
6.223555665154769
 31
0.0
  0
LINE
  5
545
330
18
100
AcDbEntity
  8
Object
100
AcDbLine
 10
3.241
 20
6.01255566515477
 30
0.0
 11
3.201
 21
6.01255566515477
 31
0.0
  0
LINE
  5
546
330
18
100
AcDbEntity
  8
Object
100
AcDbLine
 10
3.389
 20
6.56055566515477
 30
0.0
 11
3.377
 21
6.56355566515477
 31
0.0
  0
LINE
  5
547
330
18
100
AcDbEntity
  8
Object
100
AcDbLine
 10
3.377
 20
6.56355566515477
 30
0.0
 11
3.367999999999999
 21
6.572555665154769
 31
0.0
  0
LINE
  5
548
330
18
100
AcDbEntity
  8
Object
100
AcDbLine
 10
3.367999999999999
 20
6.572555665154769
 30
0.0
 11
3.363999999999999
 21
6.58455566515477
 31
0.0
  0
LINE
  5
549
330
18
100
AcDbEntity
  8
Object
100
AcDbLine
 10
3.383999999999999
 20
6.87655566515477
 30
0.0
 11
3.363999999999999
 21
6.88555566515477
 31
0.0
  0
LINE
  5
54A
330
18
100
AcDbEntity
  8
Object
100
AcDbLine
 10
3.256
 20
6.774555665154769
 30
0.0
 11
3.242999999999999
 21
6.74855566515477
 31
0.0
  0
LINE
  5
54B
330
18
100
AcDbEntity
  8
Object
100
AcDbLine
 10
3.201
 20
6.50155566515477
 30
0.0
 11
3.189999999999999
 21
6.52255566515477
 31
0.0
  0
LINE
  5
54C
330
18
100
AcDbEntity
  8
Object
100
AcDbLine
 10
3.427
 20
6.899555665154769
 30
0.0
 11
3.423
 21
6.90855566515477
 31
0.0
  0
LINE
  5
54D
330
18
100
AcDbEntity
  8
Object
100
AcDbLine
 10
3.423
 20
6.90855566515477
 30
0.0
 11
3.421
 21
6.917555665154769
 31
0.0
  0
LINE
  5
54E
330
18
100
AcDbEntity
  8
Object
100
AcDbLine
 10
3.421
 20
6.917555665154769
 30
0.0
 11
3.421
 21
6.92755566515477
 31
0.0
  0
LINE
  5
54F
330
18
100
AcDbEntity
  8
Object
100
AcDbLine
 10
3.164
 20
6.44655566515477
 30
0.0
 11
3.141999999999999
 21
6.426555665154769
 31
0.0
  0
LINE
  5
550
330
18
100
AcDbEntity
  8
Object
100
AcDbLine
 10
3.256
 20
6.646555665154769
 30
0.0
 11
3.244
 21
6.646555665154769
 31
0.0
  0
LINE
  5
551
330
18
100
AcDbEntity
  8
Object
100
AcDbLine
 10
3.131
 20
6.89355566515477
 30
0.0
 11
3.131
 21
6.910555665154769
 31
0.0
  0
LINE
  5
552
330
18
100
AcDbEntity
  8
Object
100
AcDbLine
 10
3.201
 20
6.89355566515477
 30
0.0
 11
3.189999999999999
 21
6.915555665154769
 31
0.0
  0
LINE
  5
553
330
18
100
AcDbEntity
  8
Object
100
AcDbLine
 10
3.188
 20
6.78355566515477
 30
0.0
 11
3.188
 21
6.83155566515477
 31
0.0
  0
LINE
  5
554
330
18
100
AcDbEntity
  8
Object
100
AcDbLine
 10
3.188
 20
6.53855566515477
 30
0.0
 11
3.188
 21
6.590555665154769
 31
0.0
  0
LINE
  5
555
330
18
100
AcDbEntity
  8
Object
100
AcDbLine
 10
3.389
 20
6.53655566515477
 30
0.0
 11
3.502
 21
6.53655566515477
 31
0.0
  0
LINE
  5
556
330
18
100
AcDbEntity
  8
Object
100
AcDbLine
 10
3.502
 20
6.662555665154769
 30
0.0
 11
3.502
 21
6.58455566515477
 31
0.0
  0
LINE
  5
557
330
18
100
AcDbEntity
  8
Object
100
AcDbLine
 10
3.244
 20
6.393555665154769
 30
0.0
 11
3.244
 21
6.426555665154769
 31
0.0
  0
LINE
  5
558
330
18
100
AcDbEntity
  8
Object
100
AcDbLine
 10
3.256
 20
6.99855566515477
 30
0.0
 11
3.256
 21
6.92155566515477
 31
0.0
  0
LINE
  5
559
330
18
100
AcDbEntity
  8
Object
100
AcDbLine
 10
3.256
 20
7.136555665154769
 30
0.0
 11
3.256
 21
7.045555665154769
 31
0.0
  0
LINE
  5
55A
330
18
100
AcDbEntity
  8
Object
100
AcDbLine
 10
3.131
 20
6.10255566515477
 30
0.0
 11
3.131
 21
6.117555665154769
 31
0.0
  0
LINE
  5
55B
330
18
100
AcDbEntity
  8
Object
100
AcDbLine
 10
3.201
 20
6.01255566515477
 30
0.0
 11
3.188
 21
6.040555665154769
 31
0.0
  0
LINE
  5
55C
330
18
100
AcDbEntity
  8
Object
100
AcDbLine
 10
4.044
 20
7.442555665154769
 30
0.0
 11
4.044
 21
7.47855566515477
 31
0.0
  0
LINE
  5
55D
330
18
100
AcDbEntity
  8
Object
100
AcDbLine
 10
1.919999999999999
 20
7.47855566515477
 30
0.0
 11
1.919999999999999
 21
7.442555665154769
 31
0.0
  0
LINE
  5
55E
330
18
100
AcDbEntity
  8
Object
100
AcDbLine
 10
4.044
 20
7.50755566515477
 30
0.0
 11
4.044
 21
7.52555566515477
 31
0.0
  0
LINE
  5
55F
330
18
100
AcDbEntity
  8
Object
100
AcDbLine
 10
1.919999999999999
 20
7.50755566515477
 30
0.0
 11
1.919999999999999
 21
7.52555566515477
 31
0.0
  0
LINE
  5
560
330
18
100
AcDbEntity
  8
Object
100
AcDbLine
 10
1.919999999999999
 20
7.52555566515477
 30
0.0
 11
1.919999999999999
 21
7.532555665154769
 31
0.0
  0
LINE
  5
561
330
18
100
AcDbEntity
  8
Object
100
AcDbLine
 10
1.919999999999999
 20
7.532555665154769
 30
0.0
 11
4.044
 21
7.532555665154769
 31
0.0
  0
LINE
  5
562
330
18
100
AcDbEntity
  8
Object
100
AcDbLine
 10
4.044
 20
7.532555665154769
 30
0.0
 11
4.044
 21
7.52555566515477
 31
0.0
  0
LINE
  5
563
330
18
100
AcDbEntity
  8
Object
100
AcDbLine
 10
1.919999999999999
 20
7.50755566515477
 30
0.0
 11
1.919999999999999
 21
7.47855566515477
 31
0.0
  0
LINE
  5
564
330
18
100
AcDbEntity
  8
Object
100
AcDbLine
 10
4.044
 20
7.47855566515477
 30
0.0
 11
4.044
 21
7.50755566515477
 31
0.0
  0
LINE
  5
565
330
18
100
AcDbEntity
  8
Object
100
AcDbLine
 10
1.919999999999999
 20
7.442555665154769
 30
0.0
 11
1.919999999999999
 21
7.402555665154769
 31
0.0
  0
LINE
  5
566
330
18
100
AcDbEntity
  8
Object
100
AcDbLine
 10
4.044
 20
7.402555665154769
 30
0.0
 11
4.044
 21
7.442555665154769
 31
0.0
  0
LINE
  5
567
330
18
100
AcDbEntity
  8
Object
100
AcDbLine
 10
3.403
 20
6.466555665154769
 30
0.0
 11
3.502
 21
6.466555665154769
 31
0.0
  0
LINE
  5
568
330
18
100
AcDbEntity
  8
Object
100
AcDbLine
 10
3.395999999999999
 20
6.48355566515477
 30
0.0
 11
3.395999999999999
 21
6.473555665154769
 31
0.0
  0
LINE
  5
569
330
18
100
AcDbEntity
  8
Object
100
AcDbLine
 10
3.478
 20
6.56055566515477
 30
0.0
 11
3.389
 21
6.56055566515477
 31
0.0
  0
LINE
  5
56A
330
18
100
AcDbEntity
  8
Object
100
AcDbLine
 10
3.363999999999999
 20
6.925555665154769
 30
0.0
 11
3.427
 21
6.899555665154769
 31
0.0
  0
LINE
  5
56B
330
18
100
AcDbEntity
  8
Object
100
AcDbLine
 10
3.244
 20
6.17455566515477
 30
0.0
 11
3.244
 21
6.176555665154769
 31
0.0
  0
LINE
  5
56C
330
18
100
AcDbEntity
  8
Object
100
AcDbLine
 10
3.153999999999999
 20
6.36155566515477
 30
0.0
 11
3.131
 21
6.38255566515477
 31
0.0
  0
LINE
  5
56D
330
18
100
AcDbEntity
  8
Object
100
AcDbLine
 10
3.131
 20
6.678555665154769
 30
0.0
 11
3.131
 21
6.691555665154769
 31
0.0
  0
LINE
  5
56E
330
18
100
AcDbEntity
  8
Object
100
AcDbLine
 10
3.244
 20
6.646555665154769
 30
0.0
 11
3.244
 21
6.678555665154769
 31
0.0
  0
LINE
  5
56F
330
18
100
AcDbEntity
  8
Object
100
AcDbLine
 10
3.131
 20
6.98355566515477
 30
0.0
 11
3.131
 21
6.99855566515477
 31
0.0
  0
LINE
  5
570
330
18
100
AcDbEntity
  8
Object
100
AcDbLine
 10
3.144
 20
6.85355566515477
 30
0.0
 11
3.131
 21
6.82655566515477
 31
0.0
  0
LINE
  5
571
330
18
100
AcDbEntity
  8
Object
100
AcDbLine
 10
3.131
 20
6.82655566515477
 30
0.0
 11
3.131
 21
6.774555665154769
 31
0.0
  0
LINE
  5
572
330
18
100
AcDbEntity
  8
Object
100
AcDbLine
 10
3.188
 20
6.74855566515477
 30
0.0
 11
3.144
 21
6.74855566515477
 31
0.0
  0
LINE
  5
573
330
18
100
AcDbEntity
  8
Object
100
AcDbLine
 10
3.502
 20
6.35355566515477
 30
0.0
 11
3.474
 21
6.35355566515477
 31
0.0
  0
LINE
  5
574
330
18
100
AcDbEntity
  8
Object
100
AcDbLine
 10
3.474
 20
6.35355566515477
 30
0.0
 11
3.474
 21
6.324555665154769
 31
0.0
  0
LINE
  5
575
330
18
100
AcDbEntity
  8
Object
100
AcDbLine
 10
1.9
 20
7.402555665154769
 30
0.0
 11
1.919999999999999
 21
7.402555665154769
 31
0.0
  0
LINE
  5
576
330
18
100
AcDbEntity
  8
Object
100
AcDbLine
 10
1.919999999999999
 20
7.402555665154769
 30
0.0
 11
1.919999999999999
 21
5.81255566515477
 31
0.0
  0
LINE
  5
577
330
18
100
AcDbEntity
  8
Object
100
AcDbLine
 10
1.919999999999999
 20
5.81255566515477
 30
0.0
 11
1.9
 21
5.81255566515477
 31
0.0
  0
LINE
  5
578
330
18
100
AcDbEntity
  8
Object
100
AcDbLine
 10
1.9
 20
7.402555665154769
 30
0.0
 11
1.886
 21
7.402555665154769
 31
0.0
  0
LINE
  5
579
330
18
100
AcDbEntity
  8
Object
100
AcDbLine
 10
1.9
 20
5.81255566515477
 30
0.0
 11
1.886
 21
5.81255566515477
 31
0.0
  0
LINE
  5
57A
330
18
100
AcDbEntity
  8
Object
100
AcDbLine
 10
1.886
 20
5.81255566515477
 30
0.0
 11
1.879999999999999
 21
5.81255566515477
 31
0.0
  0
LINE
  5
57B
330
18
100
AcDbEntity
  8
Object
100
AcDbLine
 10
1.886
 20
7.402555665154769
 30
0.0
 11
1.879999999999999
 21
7.402555665154769
 31
0.0
  0
LINE
  5
57C
330
18
100
AcDbEntity
  8
Object
100
AcDbLine
 10
3.131
 20
6.38255566515477
 30
0.0
 11
3.131
 21
6.43855566515477
 31
0.0
  0
LINE
  5
57D
330
18
100
AcDbEntity
  8
Object
100
AcDbLine
 10
3.256
 20
6.72255566515477
 30
0.0
 11
3.256
 21
6.646555665154769
 31
0.0
  0
LINE
  5
57E
330
18
100
AcDbEntity
  8
Object
100
AcDbLine
 10
3.188
 20
6.98355566515477
 30
0.0
 11
3.131
 21
6.98355566515477
 31
0.0
  0
LINE
  5
57F
330
18
100
AcDbEntity
  8
Object
100
AcDbLine
 10
3.241
 20
6.89355566515477
 30
0.0
 11
3.201
 21
6.89355566515477
 31
0.0
  0
LINE
  5
580
330
18
100
AcDbEntity
  8
Object
100
AcDbLine
 10
3.155
 20
6.763555665154769
 30
0.0
 11
3.176
 21
6.763555665154769
 31
0.0
  0
LINE
  5
581
330
18
100
AcDbEntity
  8
Object
100
AcDbLine
 10
3.197999999999999
 20
6.85355566515477
 30
0.0
 11
3.242999999999999
 21
6.85355566515477
 31
0.0
  0
LINE
  5
582
330
18
100
AcDbEntity
  8
Object
100
AcDbLine
 10
3.131
 20
6.117555665154769
 30
0.0
 11
3.256
 21
6.117555665154769
 31
0.0
  0
LINE
  5
583
330
18
100
AcDbEntity
  8
Object
100
AcDbLine
 10
3.502
 20
6.37755566515477
 30
0.0
 11
3.363999999999999
 21
6.37755566515477
 31
0.0
  0
LINE
  5
584
330
18
100
AcDbEntity
  8
Object
100
AcDbLine
 10
3.502
 20
6.58455566515477
 30
0.0
 11
3.499
 21
6.572555665154769
 31
0.0
  0
LINE
  5
585
330
18
100
AcDbEntity
  8
Object
100
AcDbLine
 10
3.499
 20
6.572555665154769
 30
0.0
 11
3.49
 21
6.56355566515477
 31
0.0
  0
LINE
  5
586
330
18
100
AcDbEntity
  8
Object
100
AcDbLine
 10
3.49
 20
6.56355566515477
 30
0.0
 11
3.478
 21
6.56055566515477
 31
0.0
  0
LINE
  5
587
330
18
100
AcDbEntity
  8
Object
100
AcDbLine
 10
3.502
 20
6.745555665154769
 30
0.0
 11
3.446
 21
6.721555665154769
 31
0.0
  0
LINE
  5
588
330
18
100
AcDbEntity
  8
Object
100
AcDbLine
 10
3.411999999999999
 20
6.79155566515477
 30
0.0
 11
3.502
 21
6.79155566515477
 31
0.0
  0
LINE
  5
589
330
18
100
AcDbEntity
  8
Object
100
AcDbLine
 10
3.157
 20
6.46155566515477
 30
0.0
 11
3.229
 21
6.46155566515477
 31
0.0
  0
LINE
  5
58A
330
18
100
AcDbEntity
  8
Object
100
AcDbLine
 10
3.244
 20
7.122555665154769
 30
0.0
 11
3.197999999999999
 21
7.122555665154769
 31
0.0
  0
LINE
  5
58B
330
18
100
AcDbEntity
  8
Object
100
AcDbLine
 10
3.256
 20
7.045555665154769
 30
0.0
 11
3.244
 21
7.045555665154769
 31
0.0
  0
LINE
  5
58C
330
18
100
AcDbEntity
  8
Object
100
AcDbLine
 10
3.176
 20
6.763555665154769
 30
0.0
 11
3.188
 21
6.78355566515477
 31
0.0
  0
LINE
  5
58D
330
18
100
AcDbEntity
  8
Object
100
AcDbLine
 10
3.230999999999999
 20
6.83755566515477
 30
0.0
 11
3.209999999999999
 21
6.83755566515477
 31
0.0
  0
LINE
  5
58E
330
18
100
AcDbEntity
  8
Object
100
AcDbLine
 10
3.188
 20
6.040555665154769
 30
0.0
 11
3.188
 21
6.10255566515477
 31
0.0
  0
LINE
  5
58F
330
18
100
AcDbEntity
  8
Object
100
AcDbLine
 10
3.363999999999999
 20
6.324555665154769
 30
0.0
 11
3.474
 21
6.324555665154769
 31
0.0
  0
LINE
  5
590
330
18
100
AcDbEntity
  8
Object
100
AcDbLine
 10
1.919999999999999
 20
5.73555566515477
 30
0.0
 11
1.919999999999999
 21
5.70655566515477
 31
0.0
  0
LINE
  5
591
330
18
100
AcDbEntity
  8
Object
100
AcDbLine
 10
4.044
 20
5.73555566515477
 30
0.0
 11
4.044
 21
5.70655566515477
 31
0.0
  0
LINE
  5
592
330
18
100
AcDbEntity
  8
Object
100
AcDbLine
 10
4.044
 20
5.70655566515477
 30
0.0
 11
4.044
 21
5.68855566515477
 31
0.0
  0
LINE
  5
593
330
18
100
AcDbEntity
  8
Object
100
AcDbLine
 10
4.044
 20
5.68855566515477
 30
0.0
 11
4.044
 21
5.68255566515477
 31
0.0
  0
LINE
  5
594
330
18
100
AcDbEntity
  8
Object
100
AcDbLine
 10
4.044
 20
5.68255566515477
 30
0.0
 11
1.919999999999999
 21
5.68255566515477
 31
0.0
  0
LINE
  5
595
330
18
100
AcDbEntity
  8
Object
100
AcDbLine
 10
1.919999999999999
 20
5.68255566515477
 30
0.0
 11
1.919999999999999
 21
5.68855566515477
 31
0.0
  0
LINE
  5
596
330
18
100
AcDbEntity
  8
Object
100
AcDbLine
 10
1.919999999999999
 20
5.68855566515477
 30
0.0
 11
1.919999999999999
 21
5.70655566515477
 31
0.0
  0
LINE
  5
597
330
18
100
AcDbEntity
  8
Object
100
AcDbLine
 10
1.919999999999999
 20
5.771555665154769
 30
0.0
 11
1.919999999999999
 21
5.73555566515477
 31
0.0
  0
LINE
  5
598
330
18
100
AcDbEntity
  8
Object
100
AcDbLine
 10
4.044
 20
5.73555566515477
 30
0.0
 11
4.044
 21
5.771555665154769
 31
0.0
  0
LINE
  5
599
330
18
100
AcDbEntity
  8
Object
100
AcDbLine
 10
1.919999999999999
 20
5.771555665154769
 30
0.0
 11
1.919999999999999
 21
5.81255566515477
 31
0.0
  0
LINE
  5
59A
330
18
100
AcDbEntity
  8
Object
100
AcDbLine
 10
1.919999999999999
 20
5.81255566515477
 30
0.0
 11
4.044
 21
5.81255566515477
 31
0.0
  0
LINE
  5
59B
330
18
100
AcDbEntity
  8
Object
100
AcDbLine
 10
4.044
 20
5.81255566515477
 30
0.0
 11
4.044
 21
5.771555665154769
 31
0.0
  0
LINE
  5
59C
330
18
100
AcDbEntity
  8
Object
100
AcDbLine
 10
3.403
 20
6.466555665154769
 30
0.0
 11
3.399999999999999
 21
6.46755566515477
 31
0.0
  0
LINE
  5
59D
330
18
100
AcDbEntity
  8
Object
100
AcDbLine
 10
3.399999999999999
 20
6.46755566515477
 30
0.0
 11
3.397
 21
6.47055566515477
 31
0.0
  0
LINE
  5
59E
330
18
100
AcDbEntity
  8
Object
100
AcDbLine
 10
3.397
 20
6.47055566515477
 30
0.0
 11
3.395999999999999
 21
6.473555665154769
 31
0.0
  0
LINE
  5
59F
330
18
100
AcDbEntity
  8
Object
100
AcDbLine
 10
3.446
 20
6.721555665154769
 30
0.0
 11
3.502
 21
6.721555665154769
 31
0.0
  0
LINE
  5
5A0
330
18
100
AcDbEntity
  8
Object
100
AcDbLine
 10
3.244
 20
6.72255566515477
 30
0.0
 11
3.256
 21
6.72255566515477
 31
0.0
  0
LINE
  5
5A1
330
18
100
AcDbEntity
  8
Object
100
AcDbLine
 10
3.188
 20
6.93055566515477
 30
0.0
 11
3.188
 21
6.98355566515477
 31
0.0
  0
LINE
  5
5A2
330
18
100
AcDbEntity
  8
Object
100
AcDbLine
 10
3.131
 20
7.122555665154769
 30
0.0
 11
3.131
 21
7.136555665154769
 31
0.0
  0
LINE
  5
5A3
330
18
100
AcDbEntity
  8
Object
100
AcDbLine
 10
3.188
 20
6.83155566515477
 30
0.0
 11
3.197999999999999
 21
6.85355566515477
 31
0.0
  0
LINE
  5
5A4
330
18
100
AcDbEntity
  8
Object
100
AcDbLine
 10
3.131
 20
6.518555665154769
 30
0.0
 11
3.131
 21
6.50155566515477
 31
0.0
  0
LINE
  5
5A5
330
18
100
AcDbEntity
  8
Object
100
AcDbLine
 10
3.131
 20
6.50155566515477
 30
0.0
 11
3.189999999999999
 21
6.52255566515477
 31
0.0
  0
LINE
  5
5A6
330
18
100
AcDbEntity
  8
Object
100
AcDbLine
 10
3.131
 20
6.606555665154769
 30
0.0
 11
3.256
 21
6.606555665154769
 31
0.0
  0
LINE
  5
5A7
330
18
100
AcDbEntity
  8
Object
100
AcDbLine
 10
3.141999999999999
 20
6.167555665154769
 30
0.0
 11
3.141999999999999
 21
6.16455566515477
 31
0.0
  0
LINE
  5
5A8
330
18
100
AcDbEntity
  8
Object
100
AcDbLine
 10
3.256
 20
6.176555665154769
 30
0.0
 11
3.256
 21
6.16455566515477
 31
0.0
  0
LINE
  5
5A9
330
18
100
AcDbEntity
  8
Object
100
AcDbLine
 10
3.131
 20
6.43855566515477
 30
0.0
 11
3.157
 21
6.46155566515477
 31
0.0
  0
LINE
  5
5AA
330
18
100
AcDbEntity
  8
Object
100
AcDbLine
 10
3.141999999999999
 20
6.426555665154769
 30
0.0
 11
3.141999999999999
 21
6.393555665154769
 31
0.0
  0
LINE
  5
5AB
330
18
100
AcDbEntity
  8
Object
100
AcDbLine
 10
3.131
 20
6.691555665154769
 30
0.0
 11
3.244
 21
6.691555665154769
 31
0.0
  0
LINE
  5
5AC
330
18
100
AcDbEntity
  8
Object
100
AcDbLine
 10
3.131
 20
6.910555665154769
 30
0.0
 11
3.188
 21
6.93055566515477
 31
0.0
  0
LINE
  5
5AD
330
18
100
AcDbEntity
  8
Object
100
AcDbLine
 10
3.189999999999999
 20
6.915555665154769
 30
0.0
 11
3.131
 21
6.89355566515477
 31
0.0
  0
LINE
  5
5AE
330
18
100
AcDbEntity
  8
Object
100
AcDbLine
 10
3.209999999999999
 20
6.83755566515477
 30
0.0
 11
3.197999999999999
 21
6.816555665154769
 31
0.0
  0
LINE
  5
5AF
330
18
100
AcDbEntity
  8
Object
100
AcDbLine
 10
3.502
 20
6.41355566515477
 30
0.0
 11
3.502
 21
6.37755566515477
 31
0.0
  0
LINE
  5
5B0
330
18
100
AcDbEntity
  8
Object
100
AcDbLine
 10
3.474
 20
6.282555665154769
 30
0.0
 11
3.363999999999999
 21
6.282555665154769
 31
0.0
  0
LINE
  5
5B1
330
18
100
AcDbEntity
  8
Object
100
AcDbLine
 10
3.363999999999999
 20
6.46255566515477
 30
0.0
 11
3.363999999999999
 21
6.511555665154769
 31
0.0
  0
LINE
  5
5B2
330
18
100
AcDbEntity
  8
Object
100
AcDbLine
 10
3.502
 20
6.53655566515477
 30
0.0
 11
3.502
 21
6.49055566515477
 31
0.0
  0
LINE
  5
5B3
330
18
100
AcDbEntity
  8
Object
100
AcDbLine
 10
3.363999999999999
 20
6.58455566515477
 30
0.0
 11
3.363999999999999
 21
6.662555665154769
 31
0.0
  0
LINE
  5
5B4
330
18
100
AcDbEntity
  8
Object
100
AcDbLine
 10
3.363999999999999
 20
6.88555566515477
 30
0.0
 11
3.363999999999999
 21
6.925555665154769
 31
0.0
  0
LINE
  5
5B5
330
18
100
AcDbEntity
  8
Object
100
AcDbLine
 10
3.502
 20
6.79155566515477
 30
0.0
 11
3.502
 21
6.745555665154769
 31
0.0
  0
LINE
  5
5B6
330
18
100
AcDbEntity
  8
Object
100
AcDbLine
 10
3.544
 20
7.05255566515477
 30
0.0
 11
3.544
 21
6.92755566515477
 31
0.0
  0
LINE
  5
5B7
330
18
100
AcDbEntity
  8
Object
100
AcDbLine
 10
3.131
 20
6.16455566515477
 30
0.0
 11
3.131
 21
6.176555665154769
 31
0.0
  0
LINE
  5
5B8
330
18
100
AcDbEntity
  8
Object
100
AcDbLine
 10
3.244
 20
6.176555665154769
 30
0.0
 11
3.256
 21
6.176555665154769
 31
0.0
  0
LINE
  5
5B9
330
18
100
AcDbEntity
  8
Object
100
AcDbLine
 10
3.244
 20
6.678555665154769
 30
0.0
 11
3.131
 21
6.678555665154769
 31
0.0
  0
LINE
  5
5BA
330
18
100
AcDbEntity
  8
Object
100
AcDbLine
 10
3.197999999999999
 20
7.122555665154769
 30
0.0
 11
3.197999999999999
 21
7.066555665154769
 31
0.0
  0
LINE
  5
5BB
330
18
100
AcDbEntity
  8
Object
100
AcDbLine
 10
3.131
 20
6.590555665154769
 30
0.0
 11
3.131
 21
6.606555665154769
 31
0.0
  0
LINE
  5
5BC
330
18
100
AcDbEntity
  8
Object
100
AcDbLine
 10
3.474
 20
6.25155566515477
 30
0.0
 11
3.474
 21
6.282555665154769
 31
0.0
  0
LINE
  5
5BD
330
18
100
AcDbEntity
  8
Object
100
AcDbLine
 10
4.073999999999999
 20
7.402555665154769
 30
0.0
 11
4.076999999999999
 21
7.402555665154769
 31
0.0
  0
LINE
  5
5BE
330
18
100
AcDbEntity
  8
Object
100
AcDbLine
 10
4.076999999999999
 20
7.402555665154769
 30
0.0
 11
4.076999999999999
 21
5.81255566515477
 31
0.0
  0
LINE
  5
5BF
330
18
100
AcDbEntity
  8
Object
100
AcDbLine
 10
4.076999999999999
 20
5.81255566515477
 30
0.0
 11
4.073999999999999
 21
5.81255566515477
 31
0.0
  0
LINE
  5
5C0
330
18
100
AcDbEntity
  8
Object
100
AcDbLine
 10
4.073999999999999
 20
7.402555665154769
 30
0.0
 11
4.068999999999999
 21
7.402555665154769
 31
0.0
  0
LINE
  5
5C1
330
18
100
AcDbEntity
  8
Object
100
AcDbLine
 10
4.068999999999999
 20
5.81255566515477
 30
0.0
 11
4.073999999999999
 21
5.81255566515477
 31
0.0
  0
LINE
  5
5C2
330
18
100
AcDbEntity
  8
Object
100
AcDbLine
 10
4.068999999999999
 20
7.402555665154769
 30
0.0
 11
4.062999999999999
 21
7.402555665154769
 31
0.0
  0
LINE
  5
5C3
330
18
100
AcDbEntity
  8
Object
100
AcDbLine
 10
4.062999999999999
 20
5.81255566515477
 30
0.0
 11
4.068999999999999
 21
5.81255566515477
 31
0.0
  0
LINE
  5
5C4
330
18
100
AcDbEntity
  8
Object
100
AcDbLine
 10
2.637999999999999
 20
6.47055566515477
 30
0.0
 11
2.596
 21
6.476555665154769
 31
0.0
  0
LINE
  5
5C5
330
18
100
AcDbEntity
  8
Object
100
AcDbLine
 10
2.596
 20
6.737555665154769
 30
0.0
 11
2.637999999999999
 21
6.74455566515477
 31
0.0
  0
LINE
  5
5C6
330
18
100
AcDbEntity
  8
Object
100
AcDbLine
 10
2.596
 20
6.476555665154769
 30
0.0
 11
2.558
 21
6.49655566515477
 31
0.0
  0
LINE
  5
5C7
330
18
100
AcDbEntity
  8
Object
100
AcDbLine
 10
2.596
 20
6.737555665154769
 30
0.0
 11
2.558
 21
6.71755566515477
 31
0.0
  0
LINE
  5
5C8
330
18
100
AcDbEntity
  8
Object
100
AcDbLine
 10
2.558
 20
6.71755566515477
 30
0.0
 11
2.528
 21
6.68755566515477
 31
0.0
  0
LINE
  5
5C9
330
18
100
AcDbEntity
  8
Object
100
AcDbLine
 10
2.558
 20
6.49655566515477
 30
0.0
 11
2.528
 21
6.526555665154769
 31
0.0
  0
LINE
  5
5CA
330
18
100
AcDbEntity
  8
Object
100
AcDbLine
 10
2.528
 20
6.526555665154769
 30
0.0
 11
2.508
 21
6.564555665154769
 31
0.0
  0
LINE
  5
5CB
330
18
100
AcDbEntity
  8
Object
100
AcDbLine
 10
2.528
 20
6.68755566515477
 30
0.0
 11
2.508
 21
6.649555665154769
 31
0.0
  0
LINE
  5
5CC
330
18
100
AcDbEntity
  8
Object
100
AcDbLine
 10
2.508
 20
6.649555665154769
 30
0.0
 11
2.500999999999999
 21
6.607555665154769
 31
0.0
  0
LINE
  5
5CD
330
18
100
AcDbEntity
  8
Object
100
AcDbLine
 10
2.500999999999999
 20
6.607555665154769
 30
0.0
 11
2.508
 21
6.564555665154769
 31
0.0
  0
LINE
  5
5CE
330
18
100
AcDbEntity
  8
Object
100
AcDbLine
 10
3.403
 20
6.49055566515477
 30
0.0
 11
3.399999999999999
 21
6.489555665154769
 31
0.0
  0
LINE
  5
5CF
330
18
100
AcDbEntity
  8
Object
100
AcDbLine
 10
3.399999999999999
 20
6.489555665154769
 30
0.0
 11
3.397
 21
6.487555665154769
 31
0.0
  0
LINE
  5
5D0
330
18
100
AcDbEntity
  8
Object
100
AcDbLine
 10
3.397
 20
6.487555665154769
 30
0.0
 11
3.395999999999999
 21
6.48355566515477
 31
0.0
  0
LINE
  5
5D1
330
18
100
AcDbEntity
  8
Object
100
AcDbLine
 10
3.421
 20
6.971555665154769
 30
0.0
 11
3.363999999999999
 21
6.971555665154769
 31
0.0
  0
LINE
  5
5D2
330
18
100
AcDbEntity
  8
Object
100
AcDbLine
 10
3.423
 20
6.753555665154769
 30
0.0
 11
3.363999999999999
 21
6.753555665154769
 31
0.0
  0
LINE
  5
5D3
330
18
100
AcDbEntity
  8
Object
100
AcDbLine
 10
3.502
 20
6.721555665154769
 30
0.0
 11
3.502
 21
6.686555665154769
 31
0.0
  0
LINE
  5
5D4
330
18
100
AcDbEntity
  8
Object
100
AcDbLine
 10
3.244
 20
6.16455566515477
 30
0.0
 11
3.244
 21
6.167555665154769
 31
0.0
  0
LINE
  5
5D5
330
18
100
AcDbEntity
  8
Object
100
AcDbLine
 10
3.232
 20
6.36155566515477
 30
0.0
 11
3.218999999999999
 21
6.37155566515477
 31
0.0
  0
LINE
  5
5D6
330
18
100
AcDbEntity
  8
Object
100
AcDbLine
 10
4.376
 20
5.81255566515477
 30
0.0
 11
4.379999999999999
 21
5.81255566515477
 31
0.0
  0
LINE
  5
5D7
330
18
100
AcDbEntity
  8
Object
100
AcDbLine
 10
4.379999999999999
 20
7.402555665154769
 30
0.0
 11
4.376
 21
7.402555665154769
 31
0.0
  0
LINE
  5
5D8
330
18
100
AcDbEntity
  8
Object
100
AcDbLine
 10
4.376
 20
7.402555665154769
 30
0.0
 11
4.171999999999999
 21
7.402555665154769
 31
0.0
  0
LINE
  5
5D9
330
18
100
AcDbEntity
  8
Object
100
AcDbLine
 10
4.376
 20
7.402555665154769
 30
0.0
 11
4.376
 21
5.81255566515477
 31
0.0
  0
LINE
  5
5DA
330
18
100
AcDbEntity
  8
Object
100
AcDbLine
 10
4.376
 20
5.81255566515477
 30
0.0
 11
4.171999999999999
 21
5.81255566515477
 31
0.0
  0
LINE
  5
5DB
330
18
100
AcDbEntity
  8
Object
100
AcDbLine
 10
4.171999999999999
 20
5.81255566515477
 30
0.0
 11
4.141
 21
5.81255566515477
 31
0.0
  0
LINE
  5
5DC
330
18
100
AcDbEntity
  8
Object
100
AcDbLine
 10
4.141
 20
7.402555665154769
 30
0.0
 11
4.171999999999999
 21
7.402555665154769
 31
0.0
  0
LINE
  5
5DD
330
18
100
AcDbEntity
  8
Object
100
AcDbLine
 10
4.171999999999999
 20
7.402555665154769
 30
0.0
 11
4.171999999999999
 21
5.81255566515477
 31
0.0
  0
LINE
  5
5DE
330
18
100
AcDbEntity
  8
Object
100
AcDbLine
 10
4.141
 20
7.402555665154769
 30
0.0
 11
4.113
 21
7.402555665154769
 31
0.0
  0
LINE
  5
5DF
330
18
100
AcDbEntity
  8
Object
100
AcDbLine
 10
4.141
 20
5.81255566515477
 30
0.0
 11
4.113
 21
5.81255566515477
 31
0.0
  0
LINE
  5
5E0
330
18
100
AcDbEntity
  8
Object
100
AcDbLine
 10
4.113
 20
5.81255566515477
 30
0.0
 11
4.091
 21
5.81255566515477
 31
0.0
  0
LINE
  5
5E1
330
18
100
AcDbEntity
  8
Object
100
AcDbLine
 10
4.113
 20
7.402555665154769
 30
0.0
 11
4.091
 21
7.402555665154769
 31
0.0
  0
LINE
  5
5E2
330
18
100
AcDbEntity
  8
Object
100
AcDbLine
 10
4.091
 20
7.402555665154769
 30
0.0
 11
4.076999999999999
 21
7.402555665154769
 31
0.0
  0
LINE
  5
5E3
330
18
100
AcDbEntity
  8
Object
100
AcDbLine
 10
4.076999999999999
 20
5.81255566515477
 30
0.0
 11
4.091
 21
5.81255566515477
 31
0.0
  0
LINE
  5
5E4
330
18
100
AcDbEntity
  8
Object
100
AcDbLine
 10
4.044
 20
7.47855566515477
 30
0.0
 11
4.044
 21
7.50755566515477
 31
0.0
  0
LINE
  5
5E5
330
18
100
AcDbEntity
  8
Object
100
AcDbLine
 10
4.044
 20
7.50755566515477
 30
0.0
 11
4.044
 21
7.52555566515477
 31
0.0
  0
LINE
  5
5E6
330
18
100
AcDbEntity
  8
Object
100
AcDbLine
 10
4.044
 20
7.52555566515477
 30
0.0
 11
4.044
 21
7.532555665154769
 31
0.0
  0
LINE
  5
5E7
330
18
100
AcDbEntity
  8
Object
100
AcDbLine
 10
4.044
 20
7.47855566515477
 30
0.0
 11
4.044
 21
7.442555665154769
 31
0.0
  0
LINE
  5
5E8
330
18
100
AcDbEntity
  8
Object
100
AcDbLine
 10
4.044
 20
7.442555665154769
 30
0.0
 11
4.044
 21
7.402555665154769
 31
0.0
  0
LINE
  5
5E9
330
18
100
AcDbEntity
  8
Object
100
AcDbLine
 10
4.379999999999999
 20
5.81255566515477
 30
0.0
 11
4.379999999999999
 21
7.402555665154769
 31
0.0
  0
LINE
  5
5EA
330
18
100
AcDbEntity
  8
Object
100
AcDbLine
 10
4.044
 20
5.70655566515477
 30
0.0
 11
4.044
 21
5.73555566515477
 31
0.0
  0
LINE
  5
5EB
330
18
100
AcDbEntity
  8
Object
100
AcDbLine
 10
4.044
 20
5.68255566515477
 30
0.0
 11
4.044
 21
5.68855566515477
 31
0.0
  0
LINE
  5
5EC
330
18
100
AcDbEntity
  8
Object
100
AcDbLine
 10
4.044
 20
5.68855566515477
 30
0.0
 11
4.044
 21
5.70655566515477
 31
0.0
  0
LINE
  5
5ED
330
18
100
AcDbEntity
  8
Object
100
AcDbLine
 10
4.044
 20
5.73555566515477
 30
0.0
 11
4.044
 21
5.771555665154769
 31
0.0
  0
LINE
  5
5EE
330
18
100
AcDbEntity
  8
Object
100
AcDbLine
 10
4.044
 20
5.771555665154769
 30
0.0
 11
4.044
 21
5.81255566515477
 31
0.0
  0
LINE
  5
5EF
330
18
100
AcDbEntity
  8
Object
100
AcDbLine
 10
4.044
 20
7.532555665154769
 30
0.0
 11
1.919999999999999
 21
7.532555665154769
 31
0.0
  0
LINE
  5
5F0
330
18
100
AcDbEntity
  8
Object
100
AcDbLine
 10
1.919999999999999
 20
7.47855566515477
 30
0.0
 11
1.919999999999999
 21
7.442555665154769
 31
0.0
  0
LINE
  5
5F1
330
18
100
AcDbEntity
  8
Object
100
AcDbLine
 10
1.919999999999999
 20
7.532555665154769
 30
0.0
 11
1.919999999999999
 21
7.52555566515477
 31
0.0
  0
LINE
  5
5F2
330
18
100
AcDbEntity
  8
Object
100
AcDbLine
 10
1.919999999999999
 20
7.52555566515477
 30
0.0
 11
1.919999999999999
 21
7.50755566515477
 31
0.0
  0
LINE
  5
5F3
330
18
100
AcDbEntity
  8
Object
100
AcDbLine
 10
1.919999999999999
 20
7.50755566515477
 30
0.0
 11
1.919999999999999
 21
7.47855566515477
 31
0.0
  0
LINE
  5
5F4
330
18
100
AcDbEntity
  8
Object
100
AcDbLine
 10
1.919999999999999
 20
7.442555665154769
 30
0.0
 11
1.919999999999999
 21
7.402555665154769
 31
0.0
  0
LINE
  5
5F5
330
18
100
AcDbEntity
  8
Object
100
AcDbLine
 10
1.879999999999999
 20
7.19655566515477
 30
0.0
 11
1.879999999999999
 21
7.20155566515477
 31
0.0
  0
LINE
  5
5F6
330
18
100
AcDbEntity
  8
Object
100
AcDbLine
 10
1.879999999999999
 20
5.827555665154769
 30
0.0
 11
1.879999999999999
 21
6.01255566515477
 31
0.0
  0
LINE
  5
5F7
330
18
100
AcDbEntity
  8
Object
100
AcDbLine
 10
1.879999999999999
 20
7.186555665154769
 30
0.0
 11
1.879999999999999
 21
7.191555665154769
 31
0.0
  0
LINE
  5
5F8
330
18
100
AcDbEntity
  8
Object
100
AcDbLine
 10
1.879999999999999
 20
7.191555665154769
 30
0.0
 11
1.879999999999999
 21
7.19655566515477
 31
0.0
  0
LINE
  5
5F9
330
18
100
AcDbEntity
  8
Object
100
AcDbLine
 10
1.879999999999999
 20
7.20155566515477
 30
0.0
 11
1.879999999999999
 21
7.38755566515477
 31
0.0
  0
LINE
  5
5FA
330
18
100
AcDbEntity
  8
Object
100
AcDbLine
 10
1.879999999999999
 20
7.40055566515477
 30
0.0
 11
1.879999999999999
 21
7.394555665154769
 31
0.0
  0
LINE
  5
5FB
330
18
100
AcDbEntity
  8
Object
100
AcDbLine
 10
1.879999999999999
 20
7.394555665154769
 30
0.0
 11
1.879999999999999
 21
7.38755566515477
 31
0.0
  0
LINE
  5
5FC
330
18
100
AcDbEntity
  8
Object
100
AcDbLine
 10
1.879999999999999
 20
7.40055566515477
 30
0.0
 11
1.879999999999999
 21
7.402555665154769
 31
0.0
  0
LINE
  5
5FD
330
18
100
AcDbEntity
  8
Object
100
AcDbLine
 10
1.879999999999999
 20
5.81255566515477
 30
0.0
 11
1.879999999999999
 21
5.81355566515477
 31
0.0
  0
LINE
  5
5FE
330
18
100
AcDbEntity
  8
Object
100
AcDbLine
 10
1.879999999999999
 20
5.81355566515477
 30
0.0
 11
1.879999999999999
 21
5.819555665154769
 31
0.0
  0
LINE
  5
5FF
330
18
100
AcDbEntity
  8
Object
100
AcDbLine
 10
1.879999999999999
 20
5.819555665154769
 30
0.0
 11
1.879999999999999
 21
5.827555665154769
 31
0.0
  0
LINE
  5
600
330
18
100
AcDbEntity
  8
Object
100
AcDbLine
 10
1.879999999999999
 20
6.01255566515477
 30
0.0
 11
1.879999999999999
 21
6.01755566515477
 31
0.0
  0
LINE
  5
601
330
18
100
AcDbEntity
  8
Object
100
AcDbLine
 10
1.879999999999999
 20
6.01755566515477
 30
0.0
 11
1.879999999999999
 21
6.02255566515477
 31
0.0
  0
LINE
  5
602
330
18
100
AcDbEntity
  8
Object
100
AcDbLine
 10
1.879999999999999
 20
6.02255566515477
 30
0.0
 11
1.879999999999999
 21
6.027555665154769
 31
0.0
  0
LINE
  5
603
330
18
100
AcDbEntity
  8
Object
100
AcDbLine
 10
1.879999999999999
 20
6.027555665154769
 30
0.0
 11
1.879999999999999
 21
7.186555665154769
 31
0.0
  0
LINE
  5
604
330
18
100
AcDbEntity
  8
Object
100
AcDbLine
 10
1.919999999999999
 20
5.81255566515477
 30
0.0
 11
1.9
 21
5.81255566515477
 31
0.0
  0
LINE
  5
605
330
18
100
AcDbEntity
  8
Object
100
AcDbLine
 10
1.9
 20
5.81255566515477
 30
0.0
 11
1.886
 21
5.81255566515477
 31
0.0
  0
LINE
  5
606
330
18
100
AcDbEntity
  8
Object
100
AcDbLine
 10
1.886
 20
5.81255566515477
 30
0.0
 11
1.879999999999999
 21
5.81255566515477
 31
0.0
  0
LINE
  5
607
330
18
100
AcDbEntity
  8
Object
100
AcDbLine
 10
1.919999999999999
 20
7.402555665154769
 30
0.0
 11
1.9
 21
7.402555665154769
 31
0.0
  0
LINE
  5
608
330
18
100
AcDbEntity
  8
Object
100
AcDbLine
 10
1.9
 20
7.402555665154769
 30
0.0
 11
1.886
 21
7.402555665154769
 31
0.0
  0
LINE
  5
609
330
18
100
AcDbEntity
  8
Object
100
AcDbLine
 10
1.886
 20
7.402555665154769
 30
0.0
 11
1.879999999999999
 21
7.402555665154769
 31
0.0
  0
LINE
  5
60A
330
18
100
AcDbEntity
  8
Object
100
AcDbLine
 10
1.919999999999999
 20
5.68255566515477
 30
0.0
 11
4.044
 21
5.68255566515477
 31
0.0
  0
LINE
  5
60B
330
18
100
AcDbEntity
  8
Object
100
AcDbLine
 10
1.919999999999999
 20
5.771555665154769
 30
0.0
 11
1.919999999999999
 21
5.73555566515477
 31
0.0
  0
LINE
  5
60C
330
18
100
AcDbEntity
  8
Object
100
AcDbLine
 10
1.919999999999999
 20
5.73555566515477
 30
0.0
 11
1.919999999999999
 21
5.70655566515477
 31
0.0
  0
LINE
  5
60D
330
18
100
AcDbEntity
  8
Object
100
AcDbLine
 10
1.919999999999999
 20
5.68255566515477
 30
0.0
 11
1.919999999999999
 21
5.68855566515477
 31
0.0
  0
LINE
  5
60E
330
18
100
AcDbEntity
  8
Object
100
AcDbLine
 10
1.919999999999999
 20
5.68855566515477
 30
0.0
 11
1.919999999999999
 21
5.70655566515477
 31
0.0
  0
LINE
  5
60F
330
18
100
AcDbEntity
  8
Object
100
AcDbLine
 10
1.919999999999999
 20
5.81255566515477
 30
0.0
 11
1.919999999999999
 21
5.771555665154769
 31
0.0
  0
LINE
  5
610
330
18
100
AcDbEntity
  8
Object
100
AcDbLine
 10
3.213
 20
6.516555665154769
 30
0.0
 11
3.197999999999999
 21
6.543555665154769
 31
0.0
  0
LINE
  5
611
330
18
100
AcDbEntity
  8
Object
100
AcDbLine
 10
3.197999999999999
 20
6.543555665154769
 30
0.0
 11
3.197999999999999
 21
6.590555665154769
 31
0.0
  0
LINE
  5
612
330
18
100
AcDbEntity
  8
Object
100
AcDbLine
 10
3.197999999999999
 20
6.590555665154769
 30
0.0
 11
3.244
 21
6.590555665154769
 31
0.0
  0
LINE
  5
613
330
18
100
AcDbEntity
  8
Object
100
AcDbLine
 10
3.244
 20
6.590555665154769
 30
0.0
 11
3.244
 21
6.543555665154769
 31
0.0
  0
LINE
  5
614
330
18
100
AcDbEntity
  8
Object
100
AcDbLine
 10
3.213
 20
6.516555665154769
 30
0.0
 11
3.230999999999999
 21
6.516555665154769
 31
0.0
  0
LINE
  5
615
330
18
100
AcDbEntity
  8
Object
100
AcDbLine
 10
3.230999999999999
 20
6.516555665154769
 30
0.0
 11
3.244
 21
6.543555665154769
 31
0.0
  0
LINE
  5
616
330
18
100
AcDbEntity
  8
Object
100
AcDbLine
 10
3.449
 20
6.971555665154769
 30
0.0
 11
3.449
 21
6.95355566515477
 31
0.0
  0
LINE
  5
617
330
18
100
AcDbEntity
  8
Object
100
AcDbLine
 10
3.512999999999999
 20
6.95355566515477
 30
0.0
 11
3.512999999999999
 21
6.971555665154769
 31
0.0
  0
LINE
  5
618
330
18
100
AcDbEntity
  8
Object
100
AcDbLine
 10
3.414
 20
6.86855566515477
 30
0.0
 11
3.414
 21
6.833555665154769
 31
0.0
  0
LINE
  5
619
330
18
100
AcDbEntity
  8
Object
100
AcDbLine
 10
3.414
 20
6.833555665154769
 30
0.0
 11
3.453
 21
6.85055566515477
 31
0.0
  0
LINE
  5
61A
330
18
100
AcDbEntity
  8
Object
100
AcDbLine
 10
3.512999999999999
 20
6.95355566515477
 30
0.0
 11
3.512
 21
6.949555665154769
 31
0.0
  0
LINE
  5
61B
330
18
100
AcDbEntity
  8
Object
100
AcDbLine
 10
3.512
 20
6.949555665154769
 30
0.0
 11
3.508
 21
6.94555566515477
 31
0.0
  0
LINE
  5
61C
330
18
100
AcDbEntity
  8
Object
100
AcDbLine
 10
3.508
 20
6.94555566515477
 30
0.0
 11
3.504
 21
6.944555665154769
 31
0.0
  0
LINE
  5
61D
330
18
100
AcDbEntity
  8
Object
100
AcDbLine
 10
3.453
 20
6.85055566515477
 30
0.0
 11
3.414
 21
6.86855566515477
 31
0.0
  0
LINE
  5
61E
330
18
100
AcDbEntity
  8
Object
100
AcDbLine
 10
3.458
 20
6.944555665154769
 30
0.0
 11
3.454
 21
6.94555566515477
 31
0.0
  0
LINE
  5
61F
330
18
100
AcDbEntity
  8
Object
100
AcDbLine
 10
3.454
 20
6.94555566515477
 30
0.0
 11
3.451
 21
6.949555665154769
 31
0.0
  0
LINE
  5
620
330
18
100
AcDbEntity
  8
Object
100
AcDbLine
 10
3.451
 20
6.949555665154769
 30
0.0
 11
3.449
 21
6.95355566515477
 31
0.0
  0
LINE
  5
621
330
18
100
AcDbEntity
  8
Object
100
AcDbLine
 10
3.458
 20
6.944555665154769
 30
0.0
 11
3.504
 21
6.944555665154769
 31
0.0
  0
LINE
  5
622
330
18
100
AcDbEntity
  8
Object
100
AcDbLine
 10
3.512999999999999
 20
6.971555665154769
 30
0.0
 11
3.449
 21
6.971555665154769
 31
0.0
  0
LINE
  5
623
330
18
100
AcDbEntity
  8
Object
100
AcDbLine
 10
3.197999999999999
 20
6.05455566515477
 30
0.0
 11
3.213
 21
6.02855566515477
 31
0.0
  0
LINE
  5
624
330
18
100
AcDbEntity
  8
Object
100
AcDbLine
 10
3.244
 20
6.05455566515477
 30
0.0
 11
3.244
 21
6.10255566515477
 31
0.0
  0
LINE
  5
625
330
18
100
AcDbEntity
  8
Object
100
AcDbLine
 10
3.197999999999999
 20
6.05455566515477
 30
0.0
 11
3.197999999999999
 21
6.10255566515477
 31
0.0
  0
LINE
  5
626
330
18
100
AcDbEntity
  8
Object
100
AcDbLine
 10
3.197999999999999
 20
6.10255566515477
 30
0.0
 11
3.244
 21
6.10255566515477
 31
0.0
  0
LINE
  5
627
330
18
100
AcDbEntity
  8
Object
100
AcDbLine
 10
3.213
 20
6.02855566515477
 30
0.0
 11
3.230999999999999
 21
6.02855566515477
 31
0.0
  0
LINE
  5
628
330
18
100
AcDbEntity
  8
Object
100
AcDbLine
 10
3.230999999999999
 20
6.02855566515477
 30
0.0
 11
3.244
 21
6.05455566515477
 31
0.0
  0
LINE
  5
629
330
18
100
AcDbEntity
  8
Object
100
AcDbLine
 10
3.230999999999999
 20
6.909555665154769
 30
0.0
 11
3.244
 21
6.93555566515477
 31
0.0
  0
LINE
  5
62A
330
18
100
AcDbEntity
  8
Object
100
AcDbLine
 10
3.197999999999999
 20
6.93555566515477
 30
0.0
 11
3.213
 21
6.909555665154769
 31
0.0
  0
LINE
  5
62B
330
18
100
AcDbEntity
  8
Object
100
AcDbLine
 10
3.244
 20
6.93555566515477
 30
0.0
 11
3.244
 21
6.98355566515477
 31
0.0
  0
LINE
  5
62C
330
18
100
AcDbEntity
  8
Object
100
AcDbLine
 10
3.213
 20
6.909555665154769
 30
0.0
 11
3.230999999999999
 21
6.909555665154769
 31
0.0
  0
LINE
  5
62D
330
18
100
AcDbEntity
  8
Object
100
AcDbLine
 10
3.244
 20
6.98355566515477
 30
0.0
 11
3.197999999999999
 21
6.98355566515477
 31
0.0
  0
LINE
  5
62E
330
18
100
AcDbEntity
  8
Object
100
AcDbLine
 10
3.197999999999999
 20
6.98355566515477
 30
0.0
 11
3.197999999999999
 21
6.93555566515477
 31
0.0
  0
LINE
  5
62F
330
18
100
AcDbEntity
  8
Object
100
AcDbLine
 10
3.403
 20
6.60055566515477
 30
0.0
 11
3.399999999999999
 21
6.601555665154769
 31
0.0
  0
LINE
  5
630
330
18
100
AcDbEntity
  8
Object
100
AcDbLine
 10
3.399999999999999
 20
6.601555665154769
 30
0.0
 11
3.397
 21
6.60355566515477
 31
0.0
  0
LINE
  5
631
330
18
100
AcDbEntity
  8
Object
100
AcDbLine
 10
3.397
 20
6.60355566515477
 30
0.0
 11
3.395999999999999
 21
6.607555665154769
 31
0.0
  0
LINE
  5
632
330
18
100
AcDbEntity
  8
Object
100
AcDbLine
 10
3.403
 20
6.60055566515477
 30
0.0
 11
3.466
 21
6.60055566515477
 31
0.0
  0
LINE
  5
633
330
18
100
AcDbEntity
  8
Object
100
AcDbLine
 10
3.472999999999999
 20
6.607555665154769
 30
0.0
 11
3.472999999999999
 21
6.62155566515477
 31
0.0
  0
LINE
  5
634
330
18
100
AcDbEntity
  8
Object
100
AcDbLine
 10
3.395999999999999
 20
6.607555665154769
 30
0.0
 11
3.395999999999999
 21
6.62155566515477
 31
0.0
  0
LINE
  5
635
330
18
100
AcDbEntity
  8
Object
100
AcDbLine
 10
3.395999999999999
 20
6.62155566515477
 30
0.0
 11
3.472999999999999
 21
6.62155566515477
 31
0.0
  0
LINE
  5
636
330
18
100
AcDbEntity
  8
Object
100
AcDbLine
 10
3.472999999999999
 20
6.607555665154769
 30
0.0
 11
3.471999999999999
 21
6.60355566515477
 31
0.0
  0
LINE
  5
637
330
18
100
AcDbEntity
  8
Object
100
AcDbLine
 10
3.471999999999999
 20
6.60355566515477
 30
0.0
 11
3.47
 21
6.601555665154769
 31
0.0
  0
LINE
  5
638
330
18
100
AcDbEntity
  8
Object
100
AcDbLine
 10
3.47
 20
6.601555665154769
 30
0.0
 11
3.466
 21
6.60055566515477
 31
0.0
  0
LINE
  5
639
330
18
100
AcDbEntity
  8
Object
100
AcDbLine
 10
1.879999999999999
 20
5.81355566515477
 30
0.0
 11
1.879999999999999
 21
5.819555665154769
 31
0.0
  0
LINE
  5
63A
330
18
100
AcDbEntity
  8
Object
100
AcDbLine
 10
1.79
 20
5.81355566515477
 30
0.0
 11
1.79
 21
5.819555665154769
 31
0.0
  0
LINE
  5
63B
330
18
100
AcDbEntity
  8
Object
100
AcDbLine
 10
1.79
 20
5.819555665154769
 30
0.0
 11
1.79
 21
5.827555665154769
 31
0.0
  0
LINE
  5
63C
330
18
100
AcDbEntity
  8
Object
100
AcDbLine
 10
1.79
 20
5.827555665154769
 30
0.0
 11
1.879999999999999
 21
5.827555665154769
 31
0.0
  0
LINE
  5
63D
330
18
100
AcDbEntity
  8
Object
100
AcDbLine
 10
1.879999999999999
 20
5.827555665154769
 30
0.0
 11
1.879999999999999
 21
5.819555665154769
 31
0.0
  0
LINE
  5
63E
330
18
100
AcDbEntity
  8
Object
100
AcDbLine
 10
1.879999999999999
 20
5.81355566515477
 30
0.0
 11
1.879999999999999
 21
5.81255566515477
 31
0.0
  0
LINE
  5
63F
330
18
100
AcDbEntity
  8
Object
100
AcDbLine
 10
1.879999999999999
 20
5.81255566515477
 30
0.0
 11
1.79
 21
5.81255566515477
 31
0.0
  0
LINE
  5
640
330
18
100
AcDbEntity
  8
Object
100
AcDbLine
 10
1.79
 20
5.81255566515477
 30
0.0
 11
1.79
 21
5.81355566515477
 31
0.0
  0
LINE
  5
641
330
18
100
AcDbEntity
  8
Object
100
AcDbLine
 10
1.79
 20
5.827555665154769
 30
0.0
 11
1.79
 21
6.01255566515477
 31
0.0
  0
LINE
  5
642
330
18
100
AcDbEntity
  8
Object
100
AcDbLine
 10
1.79
 20
6.01255566515477
 30
0.0
 11
1.879999999999999
 21
6.01255566515477
 31
0.0
  0
LINE
  5
643
330
18
100
AcDbEntity
  8
Object
100
AcDbLine
 10
1.879999999999999
 20
6.01255566515477
 30
0.0
 11
1.879999999999999
 21
5.827555665154769
 31
0.0
  0
LINE
  5
644
330
18
100
AcDbEntity
  8
Object
100
AcDbLine
 10
1.79
 20
7.20155566515477
 30
0.0
 11
1.79
 21
7.19655566515477
 31
0.0
  0
LINE
  5
645
330
18
100
AcDbEntity
  8
Object
100
AcDbLine
 10
1.879999999999999
 20
7.19655566515477
 30
0.0
 11
1.879999999999999
 21
7.191555665154769
 31
0.0
  0
LINE
  5
646
330
18
100
AcDbEntity
  8
Object
100
AcDbLine
 10
1.879999999999999
 20
7.191555665154769
 30
0.0
 11
1.879999999999999
 21
7.186555665154769
 31
0.0
  0
LINE
  5
647
330
18
100
AcDbEntity
  8
Object
100
AcDbLine
 10
1.79
 20
7.186555665154769
 30
0.0
 11
1.79
 21
7.191555665154769
 31
0.0
  0
LINE
  5
648
330
18
100
AcDbEntity
  8
Object
100
AcDbLine
 10
1.79
 20
7.191555665154769
 30
0.0
 11
1.79
 21
7.19655566515477
 31
0.0
  0
LINE
  5
649
330
18
100
AcDbEntity
  8
Object
100
AcDbLine
 10
1.79
 20
7.20155566515477
 30
0.0
 11
1.879999999999999
 21
7.20155566515477
 31
0.0
  0
LINE
  5
64A
330
18
100
AcDbEntity
  8
Object
100
AcDbLine
 10
1.879999999999999
 20
7.20155566515477
 30
0.0
 11
1.879999999999999
 21
7.19655566515477
 31
0.0
  0
LINE
  5
64B
330
18
100
AcDbEntity
  8
Object
100
AcDbLine
 10
1.79
 20
6.027555665154769
 30
0.0
 11
1.79
 21
6.02255566515477
 31
0.0
  0
LINE
  5
64C
330
18
100
AcDbEntity
  8
Object
100
AcDbLine
 10
1.879999999999999
 20
6.02255566515477
 30
0.0
 11
1.879999999999999
 21
6.01755566515477
 31
0.0
  0
LINE
  5
64D
330
18
100
AcDbEntity
  8
Object
100
AcDbLine
 10
1.879999999999999
 20
6.01755566515477
 30
0.0
 11
1.879999999999999
 21
6.01255566515477
 31
0.0
  0
LINE
  5
64E
330
18
100
AcDbEntity
  8
Object
100
AcDbLine
 10
1.79
 20
6.01255566515477
 30
0.0
 11
1.79
 21
6.01755566515477
 31
0.0
  0
LINE
  5
64F
330
18
100
AcDbEntity
  8
Object
100
AcDbLine
 10
1.79
 20
6.01755566515477
 30
0.0
 11
1.79
 21
6.02255566515477
 31
0.0
  0
LINE
  5
650
330
18
100
AcDbEntity
  8
Object
100
AcDbLine
 10
1.79
 20
6.027555665154769
 30
0.0
 11
1.879999999999999
 21
6.027555665154769
 31
0.0
  0
LINE
  5
651
330
18
100
AcDbEntity
  8
Object
100
AcDbLine
 10
1.879999999999999
 20
6.027555665154769
 30
0.0
 11
1.879999999999999
 21
6.02255566515477
 31
0.0
  0
LINE
  5
652
330
18
100
AcDbEntity
  8
Object
100
AcDbLine
 10
1.879999999999999
 20
7.394555665154769
 30
0.0
 11
1.879999999999999
 21
7.40055566515477
 31
0.0
  0
LINE
  5
653
330
18
100
AcDbEntity
  8
Object
100
AcDbLine
 10
1.79
 20
7.394555665154769
 30
0.0
 11
1.79
 21
7.40055566515477
 31
0.0
  0
LINE
  5
654
330
18
100
AcDbEntity
  8
Object
100
AcDbLine
 10
1.79
 20
7.40055566515477
 30
0.0
 11
1.79
 21
7.402555665154769
 31
0.0
  0
LINE
  5
655
330
18
100
AcDbEntity
  8
Object
100
AcDbLine
 10
1.79
 20
7.402555665154769
 30
0.0
 11
1.879999999999999
 21
7.402555665154769
 31
0.0
  0
LINE
  5
656
330
18
100
AcDbEntity
  8
Object
100
AcDbLine
 10
1.879999999999999
 20
7.402555665154769
 30
0.0
 11
1.879999999999999
 21
7.40055566515477
 31
0.0
  0
LINE
  5
657
330
18
100
AcDbEntity
  8
Object
100
AcDbLine
 10
1.879999999999999
 20
7.394555665154769
 30
0.0
 11
1.879999999999999
 21
7.38755566515477
 31
0.0
  0
LINE
  5
658
330
18
100
AcDbEntity
  8
Object
100
AcDbLine
 10
1.879999999999999
 20
7.38755566515477
 30
0.0
 11
1.79
 21
7.38755566515477
 31
0.0
  0
LINE
  5
659
330
18
100
AcDbEntity
  8
Object
100
AcDbLine
 10
1.79
 20
7.38755566515477
 30
0.0
 11
1.79
 21
7.394555665154769
 31
0.0
  0
LINE
  5
65A
330
18
100
AcDbEntity
  8
Object
100
AcDbLine
 10
1.879999999999999
 20
7.402555665154769
 30
0.0
 11
1.79
 21
7.402555665154769
 31
0.0
  0
LINE
  5
65B
330
18
100
AcDbEntity
  8
Object
100
AcDbLine
 10
1.79
 20
5.81255566515477
 30
0.0
 11
1.879999999999999
 21
5.81255566515477
 31
0.0
  0
LINE
  5
65C
330
18
100
AcDbEntity
  8
Object
100
AcDbLine
 10
1.79
 20
7.186555665154769
 30
0.0
 11
1.879999999999999
 21
7.186555665154769
 31
0.0
  0
LINE
  5
65D
330
18
100
AcDbEntity
  8
Object
100
AcDbLine
 10
1.879999999999999
 20
7.186555665154769
 30
0.0
 11
1.879999999999999
 21
6.027555665154769
 31
0.0
  0
LINE
  5
65E
330
18
100
AcDbEntity
  8
Object
100
AcDbLine
 10
1.79
 20
7.186555665154769
 30
0.0
 11
1.79
 21
6.027555665154769
 31
0.0
  0
LINE
  5
65F
330
18
100
AcDbEntity
  8
Object
100
AcDbLine
 10
1.79
 20
7.38755566515477
 30
0.0
 11
1.79
 21
7.20155566515477
 31
0.0
  0
LINE
  5
660
330
18
100
AcDbEntity
  8
Object
100
AcDbLine
 10
1.879999999999999
 20
7.20155566515477
 30
0.0
 11
1.879999999999999
 21
7.38755566515477
 31
0.0
  0
LINE
  5
661
330
18
100
AcDbEntity
  8
Object
100
AcDbLine
 10
3.244
 20
6.543555665154769
 30
0.0
 11
3.230999999999999
 21
6.516555665154769
 31
0.0
  0
LINE
  5
662
330
18
100
AcDbEntity
  8
Object
100
AcDbLine
 10
3.230999999999999
 20
6.516555665154769
 30
0.0
 11
3.213
 21
6.516555665154769
 31
0.0
  0
LINE
  5
663
330
18
100
AcDbEntity
  8
Object
100
AcDbLine
 10
3.213
 20
6.516555665154769
 30
0.0
 11
3.197999999999999
 21
6.543555665154769
 31
0.0
  0
LINE
  5
664
330
18
100
AcDbEntity
  8
Object
100
AcDbLine
 10
3.244
 20
6.543555665154769
 30
0.0
 11
3.244
 21
6.590555665154769
 31
0.0
  0
LINE
  5
665
330
18
100
AcDbEntity
  8
Object
100
AcDbLine
 10
3.197999999999999
 20
6.543555665154769
 30
0.0
 11
3.197999999999999
 21
6.590555665154769
 31
0.0
  0
LINE
  5
666
330
18
100
AcDbEntity
  8
Object
100
AcDbLine
 10
3.197999999999999
 20
6.590555665154769
 30
0.0
 11
3.244
 21
6.590555665154769
 31
0.0
  0
LINE
  5
667
330
18
100
AcDbEntity
  8
Object
100
AcDbLine
 10
1.79
 20
7.38755566515477
 30
0.0
 11
1.79
 21
7.20155566515477
 31
0.0
  0
LINE
  5
668
330
18
100
AcDbEntity
  8
Object
100
AcDbLine
 10
1.79
 20
5.827555665154769
 30
0.0
 11
1.79
 21
5.819555665154769
 31
0.0
  0
LINE
  5
669
330
18
100
AcDbEntity
  8
Object
100
AcDbLine
 10
1.79
 20
5.819555665154769
 30
0.0
 11
1.79
 21
5.81355566515477
 31
0.0
  0
LINE
  5
66A
330
18
100
AcDbEntity
  8
Object
100
AcDbLine
 10
1.79
 20
5.81355566515477
 30
0.0
 11
1.79
 21
5.81255566515477
 31
0.0
  0
LINE
  5
66B
330
18
100
AcDbEntity
  8
Object
100
AcDbLine
 10
1.79
 20
7.402555665154769
 30
0.0
 11
1.79
 21
7.40055566515477
 31
0.0
  0
LINE
  5
66C
330
18
100
AcDbEntity
  8
Object
100
AcDbLine
 10
1.79
 20
7.40055566515477
 30
0.0
 11
1.79
 21
7.394555665154769
 31
0.0
  0
LINE
  5
66D
330
18
100
AcDbEntity
  8
Object
100
AcDbLine
 10
1.79
 20
7.394555665154769
 30
0.0
 11
1.79
 21
7.38755566515477
 31
0.0
  0
LINE
  5
66E
330
18
100
AcDbEntity
  8
Object
100
AcDbLine
 10
1.79
 20
7.186555665154769
 30
0.0
 11
1.79
 21
6.027555665154769
 31
0.0
  0
LINE
  5
66F
330
18
100
AcDbEntity
  8
Object
100
AcDbLine
 10
1.79
 20
7.191555665154769
 30
0.0
 11
1.79
 21
7.19655566515477
 31
0.0
  0
LINE
  5
670
330
18
100
AcDbEntity
  8
Object
100
AcDbLine
 10
1.79
 20
7.19655566515477
 30
0.0
 11
1.79
 21
7.20155566515477
 31
0.0
  0
LINE
  5
671
330
18
100
AcDbEntity
  8
Object
100
AcDbLine
 10
1.79
 20
7.191555665154769
 30
0.0
 11
1.79
 21
7.186555665154769
 31
0.0
  0
LINE
  5
672
330
18
100
AcDbEntity
  8
Object
100
AcDbLine
 10
1.79
 20
6.027555665154769
 30
0.0
 11
1.79
 21
6.02255566515477
 31
0.0
  0
LINE
  5
673
330
18
100
AcDbEntity
  8
Object
100
AcDbLine
 10
1.79
 20
6.02255566515477
 30
0.0
 11
1.79
 21
6.01755566515477
 31
0.0
  0
LINE
  5
674
330
18
100
AcDbEntity
  8
Object
100
AcDbLine
 10
1.79
 20
6.01755566515477
 30
0.0
 11
1.79
 21
6.01255566515477
 31
0.0
  0
LINE
  5
675
330
18
100
AcDbEntity
  8
Object
100
AcDbLine
 10
1.79
 20
6.01255566515477
 30
0.0
 11
1.79
 21
5.827555665154769
 31
0.0
  0
LINE
  5
676
330
18
100
AcDbEntity
  8
Object
100
AcDbLine
 10
3.512999999999999
 20
6.971555665154769
 30
0.0
 11
3.512999999999999
 21
6.95355566515477
 31
0.0
  0
LINE
  5
677
330
18
100
AcDbEntity
  8
Object
100
AcDbLine
 10
3.512999999999999
 20
6.95355566515477
 30
0.0
 11
3.512
 21
6.949555665154769
 31
0.0
  0
LINE
  5
678
330
18
100
AcDbEntity
  8
Object
100
AcDbLine
 10
3.512
 20
6.949555665154769
 30
0.0
 11
3.508
 21
6.94555566515477
 31
0.0
  0
LINE
  5
679
330
18
100
AcDbEntity
  8
Object
100
AcDbLine
 10
3.508
 20
6.94555566515477
 30
0.0
 11
3.504
 21
6.944555665154769
 31
0.0
  0
LINE
  5
67A
330
18
100
AcDbEntity
  8
Object
100
AcDbLine
 10
3.504
 20
6.944555665154769
 30
0.0
 11
3.458
 21
6.944555665154769
 31
0.0
  0
LINE
  5
67B
330
18
100
AcDbEntity
  8
Object
100
AcDbLine
 10
3.458
 20
6.944555665154769
 30
0.0
 11
3.454
 21
6.94555566515477
 31
0.0
  0
LINE
  5
67C
330
18
100
AcDbEntity
  8
Object
100
AcDbLine
 10
3.454
 20
6.94555566515477
 30
0.0
 11
3.451
 21
6.949555665154769
 31
0.0
  0
LINE
  5
67D
330
18
100
AcDbEntity
  8
Object
100
AcDbLine
 10
3.451
 20
6.949555665154769
 30
0.0
 11
3.449
 21
6.95355566515477
 31
0.0
  0
LINE
  5
67E
330
18
100
AcDbEntity
  8
Object
100
AcDbLine
 10
3.449
 20
6.95355566515477
 30
0.0
 11
3.449
 21
6.971555665154769
 31
0.0
  0
LINE
  5
67F
330
18
100
AcDbEntity
  8
Object
100
AcDbLine
 10
3.449
 20
6.971555665154769
 30
0.0
 11
3.512999999999999
 21
6.971555665154769
 31
0.0
  0
LINE
  5
680
330
18
100
AcDbEntity
  8
Object
100
AcDbLine
 10
3.414
 20
6.86855566515477
 30
0.0
 11
3.453
 21
6.85055566515477
 31
0.0
  0
LINE
  5
681
330
18
100
AcDbEntity
  8
Object
100
AcDbLine
 10
3.453
 20
6.85055566515477
 30
0.0
 11
3.414
 21
6.833555665154769
 31
0.0
  0
LINE
  5
682
330
18
100
AcDbEntity
  8
Object
100
AcDbLine
 10
3.414
 20
6.833555665154769
 30
0.0
 11
3.414
 21
6.86855566515477
 31
0.0
  0
LINE
  5
683
330
18
100
AcDbEntity
  8
Object
100
AcDbLine
 10
3.244
 20
6.05455566515477
 30
0.0
 11
3.230999999999999
 21
6.02855566515477
 31
0.0
  0
LINE
  5
684
330
18
100
AcDbEntity
  8
Object
100
AcDbLine
 10
3.230999999999999
 20
6.02855566515477
 30
0.0
 11
3.213
 21
6.02855566515477
 31
0.0
  0
LINE
  5
685
330
18
100
AcDbEntity
  8
Object
100
AcDbLine
 10
3.197999999999999
 20
6.05455566515477
 30
0.0
 11
3.197999999999999
 21
6.10255566515477
 31
0.0
  0
LINE
  5
686
330
18
100
AcDbEntity
  8
Object
100
AcDbLine
 10
3.197999999999999
 20
6.10255566515477
 30
0.0
 11
3.244
 21
6.10255566515477
 31
0.0
  0
LINE
  5
687
330
18
100
AcDbEntity
  8
Object
100
AcDbLine
 10
3.244
 20
6.10255566515477
 30
0.0
 11
3.244
 21
6.05455566515477
 31
0.0
  0
LINE
  5
688
330
18
100
AcDbEntity
  8
Object
100
AcDbLine
 10
3.197999999999999
 20
6.05455566515477
 30
0.0
 11
3.213
 21
6.02855566515477
 31
0.0
  0
LINE
  5
689
330
18
100
AcDbEntity
  8
Object
100
AcDbLine
 10
3.244
 20
6.93555566515477
 30
0.0
 11
3.230999999999999
 21
6.909555665154769
 31
0.0
  0
LINE
  5
68A
330
18
100
AcDbEntity
  8
Object
100
AcDbLine
 10
3.230999999999999
 20
6.909555665154769
 30
0.0
 11
3.213
 21
6.909555665154769
 31
0.0
  0
LINE
  5
68B
330
18
100
AcDbEntity
  8
Object
100
AcDbLine
 10
3.213
 20
6.909555665154769
 30
0.0
 11
3.197999999999999
 21
6.93555566515477
 31
0.0
  0
LINE
  5
68C
330
18
100
AcDbEntity
  8
Object
100
AcDbLine
 10
3.244
 20
6.93555566515477
 30
0.0
 11
3.244
 21
6.98355566515477
 31
0.0
  0
LINE
  5
68D
330
18
100
AcDbEntity
  8
Object
100
AcDbLine
 10
3.197999999999999
 20
6.93555566515477
 30
0.0
 11
3.197999999999999
 21
6.98355566515477
 31
0.0
  0
LINE
  5
68E
330
18
100
AcDbEntity
  8
Object
100
AcDbLine
 10
3.197999999999999
 20
6.98355566515477
 30
0.0
 11
3.244
 21
6.98355566515477
 31
0.0
  0
LINE
  5
68F
330
18
100
AcDbEntity
  8
Object
100
AcDbLine
 10
3.472999999999999
 20
6.607555665154769
 30
0.0
 11
3.472999999999999
 21
6.62155566515477
 31
0.0
  0
LINE
  5
690
330
18
100
AcDbEntity
  8
Object
100
AcDbLine
 10
3.466
 20
6.60055566515477
 30
0.0
 11
3.47
 21
6.601555665154769
 31
0.0
  0
LINE
  5
691
330
18
100
AcDbEntity
  8
Object
100
AcDbLine
 10
3.47
 20
6.601555665154769
 30
0.0
 11
3.471999999999999
 21
6.60355566515477
 31
0.0
  0
LINE
  5
692
330
18
100
AcDbEntity
  8
Object
100
AcDbLine
 10
3.471999999999999
 20
6.60355566515477
 30
0.0
 11
3.472999999999999
 21
6.607555665154769
 31
0.0
  0
LINE
  5
693
330
18
100
AcDbEntity
  8
Object
100
AcDbLine
 10
3.466
 20
6.60055566515477
 30
0.0
 11
3.403
 21
6.60055566515477
 31
0.0
  0
LINE
  5
694
330
18
100
AcDbEntity
  8
Object
100
AcDbLine
 10
3.403
 20
6.60055566515477
 30
0.0
 11
3.399999999999999
 21
6.601555665154769
 31
0.0
  0
LINE
  5
695
330
18
100
AcDbEntity
  8
Object
100
AcDbLine
 10
3.399999999999999
 20
6.601555665154769
 30
0.0
 11
3.397
 21
6.60355566515477
 31
0.0
  0
LINE
  5
696
330
18
100
AcDbEntity
  8
Object
100
AcDbLine
 10
3.397
 20
6.60355566515477
 30
0.0
 11
3.395999999999999
 21
6.607555665154769
 31
0.0
  0
LINE
  5
697
330
18
100
AcDbEntity
  8
Object
100
AcDbLine
 10
3.395999999999999
 20
6.607555665154769
 30
0.0
 11
3.395999999999999
 21
6.62155566515477
 31
0.0
  0
LINE
  5
698
330
18
100
AcDbEntity
  8
Object
100
AcDbLine
 10
3.395999999999999
 20
6.62155566515477
 30
0.0
 11
3.472999999999999
 21
6.62155566515477
 31
0.0
  0
DIMENSION
  5
69A
330
18
100
AcDbEntity
  8
Dimension
100
AcDbDimension
  2
*D0
 10
5.295052333833136
 20
5.68255566515477
 30
0.0
 11
5.295052333833135
 21
6.60755566515477
 31
0.0
 70
    32
 71
     5
 42
1.849999999999999
  3
STANDARD
100
AcDbAlignedDimension
 13
4.044
 23
7.532555665154769
 33
0.0
 14
4.044
 24
5.68255566515477
 34
0.0
 50
90.0
100
AcDbRotatedDimension
  0
DIMENSION
  5
6A8
330
18
100
AcDbEntity
  8
Dimension
100
AcDbDimension
  2
*D1
 10
4.376
 20
4.704058052964676
 30
0.0
 11
3.083
 21
4.704058052964676
 31
0.0
 70
    32
 71
     5
 42
2.586
  3
STANDARD
100
AcDbAlignedDimension
 13
1.789999999999999
 23
4.14855566515477
 33
0.0
 14
4.376
 24
4.06555566515477
 34
0.0
100
AcDbRotatedDimension
  0
DIMENSION
  5
6C5
330
18
100
AcDbEntity
  8
Dimension
100
AcDbDimension
  2
*D2
 10
6.574643413023206
 20
4.146555665154769
 30
0.0
 11
7.181024991970573
 21
4.271555665154771
 31
0.0
 70
    32
 71
     5
 42
0.5799999999999997
  3
STANDARD
100
AcDbAlignedDimension
 13
7.41
 23
3.56655566515477
 33
0.0
 14
7.745
 24
4.146555665154769
 34
0.0
 50
90.0
100
AcDbRotatedDimension
  0
ENDSEC
  0
SECTION
  2
OBJECTS
  0
DICTIONARY
  5
C
330
0
100
AcDbDictionary
281
     1
  3
ACAD_COLOR
350
E0
  3
ACAD_GROUP
350
D
  3
ACAD_LAYOUT
350
E3
  3
ACAD_MATERIAL
350
DF
  3
ACAD_MLINESTYLE
350
1B
  3
ACAD_PLOTSETTINGS
350
E4
  3
ACAD_PLOTSTYLENAME
350
DD
  3
ACAD_TABLESTYLE
350
E1
  3
ACDBHEADERROUNDTRIPXREC
350
70F
  3
AcDbVariableDictionary
350
FD
  3
ASE_INDEX_DICTIONARY
350
11B
  0
DICTIONARY
  5
126
330
2
100
AcDbDictionary
280
     1
281
     1
  3
ACAD_LAYERFILTERS
360
25B
  3
ACLYDICTIONARY
360
25A
  0
DICTIONARY
  5
E0
102
{ACAD_REACTORS
330
C
102
}
330
C
100
AcDbDictionary
281
     1
  0
DICTIONARY
  5
D
102
{ACAD_REACTORS
330
C
102
}
330
C
100
AcDbDictionary
281
     1
  0
DICTIONARY
  5
E3
102
{ACAD_REACTORS
330
C
102
}
330
C
100
AcDbDictionary
281
     1
  3
Layout1
350
E6
  3
Model
350
E5
  0
DICTIONARY
  5
DF
102
{ACAD_REACTORS
330
C
102
}
330
C
100
AcDbDictionary
281
     1
  0
DICTIONARY
  5
1B
102
{ACAD_REACTORS
330
C
102
}
330
C
100
AcDbDictionary
281
     1
  3
STANDARD
350
1C
  0
DICTIONARY
  5
E4
102
{ACAD_REACTORS
330
C
102
}
330
C
100
AcDbDictionary
281
     1
  0
ACDBDICTIONARYWDFLT
  5
DD
102
{ACAD_REACTORS
330
C
102
}
330
C
100
AcDbDictionary
281
     1
  3
Normal
350
DE
100
AcDbDictionaryWithDefault
340
DE
  0
DICTIONARY
  5
E1
102
{ACAD_REACTORS
330
C
102
}
330
C
100
AcDbDictionary
281
     1
  3
Standard
350
E2
  0
DICTIONARY
  5
70F
102
{ACAD_REACTORS
330
C
102
}
330
C
100
AcDbDictionary
281
     1
  0
DICTIONARY
  5
FD
102
{ACAD_REACTORS
330
C
102
}
330
C
100
AcDbDictionary
281
     1
  3
CTABLESTYLE
350
FE
  3
DIMASSOC
350
70C
  3
PROJECTNAME
350
70D
  0
DICTIONARY
  5
11B
102
{ACAD_REACTORS
330
C
102
}
330
C
100
AcDbDictionary
281
     1
  3
ASEBlockHierarchyIndexRecord
350
11C
1001
DCO15
1040
1529147986.867
  0
DICTIONARY
  5
25B
102
{ACAD_REACTORS
330
126
102
}
330
126
100
AcDbDictionary
281
     1
  0
DICTIONARY
  5
25A
102
{ACAD_REACTORS
330
126
102
}
330
126
100
AcDbDictionary
281
     1
1001
ACAD
1000
<All
  0
LAYOUT
  5
E6
102
{ACAD_XDICTIONARY
360
712
102
}
102
{ACAD_REACTORS
330
E3
102
}
330
E3
100
AcDbPlotSettings
  1

  2
\\RSENG\RSplotter4NT
  4

  6

 40
0.0
 41
0.0
 42
0.0
 43
0.0
 44
0.0
 45
0.0
 46
0.0
 47
0.0
 48
0.0
 49
0.0
140
0.0
141
0.0
142
1.0
143
1.0
 70
   688
 72
     0
 73
     0
 74
     5
  7
Symantec Fax Starter Edition
 75
    16
147
1.0
148
0.0
149
0.0
100
AcDbLayout
  1
Layout1
 70
     1
 71
     1
 10
0.0
 20
0.0
 11
12.0
 21
9.0
 12
0.0
 22
0.0
 32
0.0
 14
1.000000000000000E+20
 24
1.000000000000000E+20
 34
1.000000000000000E+20
 15
-1.000000000000000E+20
 25
-1.000000000000000E+20
 35
-1.000000000000000E+20
146
0.0
 13
0.0
 23
0.0
 33
0.0
 16
1.0
 26
0.0
 36
0.0
 17
0.0
 27
1.0
 37
0.0
 76
     0
330
15
  0
LAYOUT
  5
E5
102
{ACAD_XDICTIONARY
360
710
102
}
102
{ACAD_REACTORS
330
E3
102
}
330
E3
100
AcDbPlotSettings
  1

  2
\\RSENG\RSplotter4NT
  4

  6

 40
0.0
 41
0.0
 42
0.0
 43
0.0
 44
0.0
 45
0.0
 46
0.0
 47
0.0
 48
0.0
 49
0.0
140
0.0
141
0.0
142
1.0
143
1.0
 70
  1712
 72
     0
 73
     0
 74
     0
  7
Symantec Fax Starter Edition
 75
     0
147
1.0
148
0.0
149
0.0
100
AcDbLayout
  1
Model
 70
     1
 71
     0
 10
0.0
 20
0.0
 11
12.0
 21
9.0
 12
0.0
 22
0.0
 32
0.0
 14
0.0
 24
0.0
 34
0.0
 15
0.0
 25
0.0
 35
0.0
146
0.0
 13
0.0
 23
0.0
 33
0.0
 16
1.0
 26
0.0
 36
0.0
 17
0.0
 27
1.0
 37
0.0
 76
     0
330
18
  0
MLINESTYLE
  5
1C
102
{ACAD_REACTORS
330
1B
102
}
330
1B
100
AcDbMlineStyle
  2
STANDARD
 70
     0
  3

 62
   256
 51
90.0
 52
90.0
 71
     2
 49
0.5
 62
   256
  6
BYLAYER
 49
-0.5
 62
   256
  6
BYLAYER
  0
ACDBPLACEHOLDER
  5
DE
102
{ACAD_REACTORS
330
DD
102
}
330
DD
  0
TABLESTYLE
  5
E2
102
{ACAD_REACTORS
330
E1
102
}
330
E1
100
AcDbTableStyle
  3
Standard
 70
     0
 71
     0
 40
0.06
 41
0.06
280
     0
281
     0
  7
STANDARD
140
0.18
170
     2
 62
     0
 63
     7
283
     0
274
    -2
284
     1
 64
     0
275
    -2
285
     1
 65
     0
276
    -2
286
     1
 66
     0
277
    -2
287
     1
 67
     0
278
    -2
288
     1
 68
     0
279
    -2
289
     1
 69
     0
  7
STANDARD
140
0.25
170
     5
 62
     0
 63
     7
283
     0
274
    -2
284
     1
 64
     0
275
    -2
285
     1
 65
     0
276
    -2
286
     1
 66
     0
277
    -2
287
     1
 67
     0
278
    -2
288
     1
 68
     0
279
    -2
289
     1
 69
     0
  7
STANDARD
140
0.18
170
     5
 62
     0
 63
     7
283
     0
274
    -2
284
     1
 64
     0
275
    -2
285
     1
 65
     0
276
    -2
286
     1
 66
     0
277
    -2
287
     1
 67
     0
278
    -2
288
     1
 68
     0
279
    -2
289
     1
 69
     0
  0
DICTIONARYVAR
  5
FE
102
{ACAD_REACTORS
330
FD
102
}
330
FD
100
DictionaryVariables
280
     0
  1
STANDARD
  0
DICTIONARYVAR
  5
70C
102
{ACAD_REACTORS
330
FD
102
}
330
FD
100
DictionaryVariables
280
     0
  1
1
  0
DICTIONARYVAR
  5
70D
102
{ACAD_REACTORS
330
FD
102
}
330
FD
100
DictionaryVariables
280
     0
  1

  0
XRECORD
  5
11C
102
{ACAD_REACTORS
330
11B
102
}
330
11B
100
AcDbXrecord
280
     1
  0
DICTIONARY
  5
712
330
E6
100
AcDbDictionary
280
     1
281
     1
  3
ACAD_XREC_ROUNDTRIP
360
713
  0
DICTIONARY
  5
710
330
E5
100
AcDbDictionary
280
     1
281
     1
  3
ACAD_XREC_ROUNDTRIP
360
711
  0
XRECORD
  5
713
102
{ACAD_REACTORS
330
712
102
}
330
712
100
AcDbXrecord
280
     1
102
SHADEPLOT
 70
     0
102
SHADEPLOTRESLEVEL
 70
     2
102
SHADEPLOTCUSTOMDPI
 70
   300
  0
XRECORD
  5
711
102
{ACAD_REACTORS
330
710
102
}
330
710
100
AcDbXrecord
280
     1
102
SHADEPLOT
 70
     0
102
SHADEPLOTRESLEVEL
 70
     2
102
SHADEPLOTCUSTOMDPI
 70
   300
  0
ENDSEC
  0
EOF
