  0
SECTION
  2
HEADER
  9
$ACADVER
  1
AC1015
  9
$ACADMAINTVER
 70
    20
  9
$DWGCODEPAGE
  3
ANSI_1252
  9
$INSBASE
 10
0.0
 20
0.0
 30
0.0
  9
$EXTMIN
 10
-0.075
 20
-0.075
 30
0.0
  9
$EXTMAX
 10
11.075
 20
8.575000000000001
 30
0.0
  9
$LIMMIN
 10
0.0
 20
0.0
  9
$LIMMAX
 10
12.0
 20
9.0
  9
$ORTHOMODE
 70
     0
  9
$REGENMODE
 70
     1
  9
$FILLMODE
 70
     1
  9
$QTEXTMODE
 70
     0
  9
$MIRRTEXT
 70
     0
  9
$LTSCALE
 40
1.0
  9
$ATTMODE
 70
     1
  9
$TEXTSIZE
 40
0.09
  9
$TRACEWID
 40
0.05
  9
$TEXTSTYLE
  7
Standard
  9
$CLAYER
  8
0
  9
$CELTYPE
  6
ByLayer
  9
$CECOLOR
 62
   256
  9
$CELTSCALE
 40
1.0
  9
$DISPSILH
 70
     0
  9
$DIMSCALE
 40
1.0
  9
$DIMASZ
 40
0.1875
  9
$DIMEXO
 40
0.0625
  9
$DIMDLI
 40
0.38
  9
$DIMRND
 40
0.0
  9
$DIMDLE
 40
0.0
  9
$DIMEXE
 40
0.125
  9
$DIMTP
 40
0.0
  9
$DIMTM
 40
0.0
  9
$DIMTXT
 40
0.09
  9
$DIMCEN
 40
0.09
  9
$DIMTSZ
 40
0.0
  9
$DIMTOL
 70
     0
  9
$DIMLIM
 70
     0
  9
$DIMTIH
 70
     1
  9
$DIMTOH
 70
     1
  9
$DIMSE1
 70
     0
  9
$DIMSE2
 70
     0
  9
$DIMTAD
 70
     0
  9
$DIMZIN
 70
     0
  9
$DIMBLK
  1

  9
$DIMASO
 70
     1
  9
$DIMSHO
 70
     1
  9
$DIMPOST
  1

  9
$DIMAPOST
  1
mm
  9
$DIMALT
 70
     1
  9
$DIMALTD
 70
     1
  9
$DIMALTF
 40
25.4
  9
$DIMLFAC
 40
1.0
  9
$DIMTOFL
 70
     0
  9
$DIMTVP
 40
0.0
  9
$DIMTIX
 70
     0
  9
$DIMSOXD
 70
     0
  9
$DIMSAH
 70
     0
  9
$DIMBLK1
  1

  9
$DIMBLK2
  1

  9
$DIMSTYLE
  2
Standard
  9
$DIMCLRD
 70
     0
  9
$DIMCLRE
 70
     0
  9
$DIMCLRT
 70
     0
  9
$DIMTFAC
 40
1.0
  9
$DIMGAP
 40
0.09
  9
$DIMJUST
 70
     0
  9
$DIMSD1
 70
     0
  9
$DIMSD2
 70
     0
  9
$DIMTOLJ
 70
     1
  9
$DIMTZIN
 70
     0
  9
$DIMALTZ
 70
     0
  9
$DIMALTTZ
 70
     0
  9
$DIMUPT
 70
     0
  9
$DIMDEC
 70
     2
  9
$DIMTDEC
 70
     2
  9
$DIMALTU
 70
     2
  9
$DIMALTTD
 70
     1
  9
$DIMTXSTY
  7
Standard
  9
$DIMAUNIT
 70
     0
  9
$DIMADEC
 70
     0
  9
$DIMALTRND
 40
0.0
  9
$DIMAZIN
 70
     0
  9
$DIMDSEP
 70
    46
  9
$DIMATFIT
 70
     3
  9
$DIMFRAC
 70
     0
  9
$DIMLDRBLK
  1

  9
$DIMLUNIT
 70
     2
  9
$DIMLWD
 70
    -2
  9
$DIMLWE
 70
    -2
  9
$DIMTMOVE
 70
     0
  9
$LUNITS
 70
     2
  9
$LUPREC
 70
     4
  9
$SKETCHINC
 40
0.1
  9
$FILLETRAD
 40
0.0
  9
$AUNITS
 70
     0
  9
$AUPREC
 70
     0
  9
$MENU
  1
.
  9
$ELEVATION
 40
0.0
  9
$PELEVATION
 40
0.0
  9
$THICKNESS
 40
0.0
  9
$LIMCHECK
 70
     0
  9
$CHAMFERA
 40
0.0
  9
$CHAMFERB
 40
0.0
  9
$CHAMFERC
 40
0.0
  9
$CHAMFERD
 40
0.0
  9
$SKPOLY
 70
     0
  9
$TDCREATE
 40
2453686.603913646
  9
$TDUCREATE
 40
2453686.812246979
  9
$TDUPDATE
 40
2454294.576352535
  9
$TDUUPDATE
 40
2454294.784685868
  9
$TDINDWG
 40
0.0182197222
  9
$TDUSRTIMER
 40
0.0182197222
  9
$USRTIMER
 70
     1
  9
$ANGBASE
 50
0.0
  9
$ANGDIR
 70
     0
  9
$PDMODE
 70
     2
  9
$PDSIZE
 40
0.075
  9
$PLINEWID
 40
0.0
  9
$SPLFRAME
 70
     0
  9
$SPLINETYPE
 70
     6
  9
$SPLINESEGS
 70
     8
  9
$HANDSEED
  5
4B5
  9
$SURFTAB1
 70
     6
  9
$SURFTAB2
 70
     6
  9
$SURFTYPE
 70
     6
  9
$SURFU
 70
     6
  9
$SURFV
 70
     6
  9
$UCSBASE
  2

  9
$UCSNAME
  2

  9
$UCSORG
 10
0.0
 20
0.0
 30
0.0
  9
$UCSXDIR
 10
1.0
 20
0.0
 30
0.0
  9
$UCSYDIR
 10
0.0
 20
1.0
 30
0.0
  9
$UCSORTHOREF
  2

  9
$UCSORTHOVIEW
 70
     0
  9
$UCSORGTOP
 10
0.0
 20
0.0
 30
0.0
  9
$UCSORGBOTTOM
 10
0.0
 20
0.0
 30
0.0
  9
$UCSORGLEFT
 10
0.0
 20
0.0
 30
0.0
  9
$UCSORGRIGHT
 10
0.0
 20
0.0
 30
0.0
  9
$UCSORGFRONT
 10
0.0
 20
0.0
 30
0.0
  9
$UCSORGBACK
 10
0.0
 20
0.0
 30
0.0
  9
$PUCSBASE
  2

  9
$PUCSNAME
  2

  9
$PUCSORG
 10
0.0
 20
0.0
 30
0.0
  9
$PUCSXDIR
 10
1.0
 20
0.0
 30
0.0
  9
$PUCSYDIR
 10
0.0
 20
1.0
 30
0.0
  9
$PUCSORTHOREF
  2

  9
$PUCSORTHOVIEW
 70
     0
  9
$PUCSORGTOP
 10
0.0
 20
0.0
 30
0.0
  9
$PUCSORGBOTTOM
 10
0.0
 20
0.0
 30
0.0
  9
$PUCSORGLEFT
 10
0.0
 20
0.0
 30
0.0
  9
$PUCSORGRIGHT
 10
0.0
 20
0.0
 30
0.0
  9
$PUCSORGFRONT
 10
0.0
 20
0.0
 30
0.0
  9
$PUCSORGBACK
 10
0.0
 20
0.0
 30
0.0
  9
$USERI1
 70
     0
  9
$USERI2
 70
     0
  9
$USERI3
 70
     0
  9
$USERI4
 70
     0
  9
$USERI5
 70
     0
  9
$USERR1
 40
0.0
  9
$USERR2
 40
0.0
  9
$USERR3
 40
0.0
  9
$USERR4
 40
0.0
  9
$USERR5
 40
0.0
  9
$WORLDVIEW
 70
     1
  9
$SHADEDGE
 70
     3
  9
$SHADEDIF
 70
    70
  9
$TILEMODE
 70
     1
  9
$MAXACTVP
 70
    64
  9
$PINSBASE
 10
0.0
 20
0.0
 30
0.0
  9
$PLIMCHECK
 70
     0
  9
$PEXTMIN
 10
0.0
 20
0.0
 30
0.0
  9
$PEXTMAX
 10
0.0
 20
0.0
 30
0.0
  9
$PLIMMIN
 10
0.0
 20
0.0
  9
$PLIMMAX
 10
12.0
 20
9.0
  9
$UNITMODE
 70
     0
  9
$VISRETAIN
 70
     1
  9
$PLINEGEN
 70
     0
  9
$PSLTSCALE
 70
     1
  9
$TREEDEPTH
 70
  3020
  9
$CMLSTYLE
  2
Standard
  9
$CMLJUST
 70
     0
  9
$CMLSCALE
 40
1.0
  9
$PROXYGRAPHICS
 70
     1
  9
$MEASUREMENT
 70
     0
  9
$CELWEIGHT
370
    -1
  9
$ENDCAPS
280
     0
  9
$JOINSTYLE
280
     0
  9
$LWDISPLAY
290
     0
  9
$INSUNITS
 70
     1
  9
$HYPERLINKBASE
  1

  9
$STYLESHEET
  1

  9
$XEDIT
290
     1
  9
$CEPSNTYPE
380
     0
  9
$PSTYLEMODE
290
     1
  9
$FINGERPRINTGUID
  2
{994D4D59-457A-40AF-A803-15455CF9650F}
  9
$VERSIONGUID
  2
{30B2CC57-79CD-4D80-80C4-B92BA84AF476}
  9
$EXTNAMES
290
     1
  9
$PSVPSCALE
 40
0.0
  9
$OLESTARTUP
290
     0
  0
ENDSEC
  0
SECTION
  2
CLASSES
  0
CLASS
  1
ACDBDICTIONARYWDFLT
  2
AcDbDictionaryWithDefault
  3
ObjectDBX Classes
 90
        0
280
     0
281
     0
  0
CLASS
  1
ACDBPLACEHOLDER
  2
AcDbPlaceHolder
  3
ObjectDBX Classes
 90
        0
280
     0
281
     0
  0
CLASS
  1
LAYOUT
  2
AcDbLayout
  3
ObjectDBX Classes
 90
        0
280
     0
281
     0
  0
CLASS
  1
DICTIONARYVAR
  2
AcDbDictionaryVar
  3
ObjectDBX Classes
 90
        0
280
     0
281
     0
  0
CLASS
  1
TABLESTYLE
  2
AcDbTableStyle
  3
ObjectDBX Classes
 90
     2047
280
     0
281
     0
  0
CLASS
  1
DIMASSOC
  2
AcDbDimAssoc
  3
"AcDbDimAssoc|Product Desc:     AcDim ARX App For Dimension|Company:          Autodesk, Inc.|WEB Address:      www.autodesk.com"
 90
        0
280
     0
281
     0
  0
CLASS
  1
SORTENTSTABLE
  2
AcDbSortentsTable
  3
ObjectDBX Classes
 90
        0
280
     0
281
     0
  0
ENDSEC
  0
SECTION
  2
TABLES
  0
TABLE
  2
VPORT
  5
8
330
0
100
AcDbSymbolTable
 70
     2
  0
VPORT
  5
4AD
330
8
100
AcDbSymbolTableRecord
100
AcDbViewportTableRecord
  2
*Active
 70
     0
 10
0.0
 20
0.0
 11
1.0
 21
1.0
 12
5.500106669144245
 22
4.554387913290213
 13
0.0
 23
0.0
 14
0.5
 24
0.5
 15
0.5
 25
0.5
 16
0.0
 26
0.0
 36
1.0
 17
0.0
 27
0.0
 37
0.0
 40
9.315351187939855
 41
1.499364675984752
 42
50.0
 43
0.0
 44
0.0
 50
0.0
 51
0.0
 71
     0
 72
  1000
 73
     1
 74
     3
 75
     0
 76
     0
 77
     0
 78
     0
281
     0
 65
     1
110
0.0
120
0.0
130
0.0
111
1.0
121
0.0
131
0.0
112
0.0
122
1.0
132
0.0
 79
     0
146
0.0
  0
ENDTAB
  0
TABLE
  2
LTYPE
  5
5
330
0
100
AcDbSymbolTable
 70
     1
  0
LTYPE
  5
14
330
5
100
AcDbSymbolTableRecord
100
AcDbLinetypeTableRecord
  2
ByBlock
 70
     0
  3

 72
    65
 73
     0
 40
0.0
  0
LTYPE
  5
15
330
5
100
AcDbSymbolTableRecord
100
AcDbLinetypeTableRecord
  2
ByLayer
 70
     0
  3

 72
    65
 73
     0
 40
0.0
  0
LTYPE
  5
16
330
5
100
AcDbSymbolTableRecord
100
AcDbLinetypeTableRecord
  2
Continuous
 70
     0
  3
Solid line
 72
    65
 73
     0
 40
0.0
  0
ENDTAB
  0
TABLE
  2
LAYER
  5
2
330
0
100
AcDbSymbolTable
 70
     6
  0
LAYER
  5
10
330
2
100
AcDbSymbolTableRecord
100
AcDbLayerTableRecord
  2
0
 70
     0
 62
     7
  6
Continuous
370
    -3
390
F
  0
LAYER
  5
8B
330
2
100
AcDbSymbolTableRecord
100
AcDbLayerTableRecord
  2
Title Block
 70
     0
 62
     3
  6
Continuous
370
    -3
390
F
  0
LAYER
  5
8C
330
2
100
AcDbSymbolTableRecord
100
AcDbLayerTableRecord
  2
Dimension
 70
     0
 62
     6
  6
Continuous
370
    -3
390
F
  0
LAYER
  5
8D
330
2
100
AcDbSymbolTableRecord
100
AcDbLayerTableRecord
  2
Text
 70
     0
 62
     1
  6
Continuous
370
    -3
390
F
  0
LAYER
  5
8E
330
2
100
AcDbSymbolTableRecord
100
AcDbLayerTableRecord
  2
Object
 70
     0
 62
     5
  6
Continuous
370
    -3
390
F
  0
LAYER
  5
2C6
330
2
100
AcDbSymbolTableRecord
100
AcDbLayerTableRecord
  2
Defpoints
 70
     0
 62
     7
  6
Continuous
290
     0
370
    -3
390
F
  0
ENDTAB
  0
TABLE
  2
STYLE
  5
3
330
0
100
AcDbSymbolTable
 70
     1
  0
STYLE
  5
11
330
3
100
AcDbSymbolTableRecord
100
AcDbTextStyleTableRecord
  2
Standard
 70
     0
 40
0.0
 41
1.0
 50
0.0
 71
     0
 42
0.09
  3
technic_.ttf
  4

1001
ACAD
1000
Technic
1071
      514
  0
ENDTAB
  0
TABLE
  2
VIEW
  5
6
330
0
100
AcDbSymbolTable
 70
     0
  0
ENDTAB
  0
TABLE
  2
UCS
  5
7
330
0
100
AcDbSymbolTable
 70
     0
  0
ENDTAB
  0
TABLE
  2
APPID
  5
9
330
0
100
AcDbSymbolTable
 70
     4
  0
APPID
  5
12
330
9
100
AcDbSymbolTableRecord
100
AcDbRegAppTableRecord
  2
ACAD
 70
     0
  0
APPID
  5
90
330
9
100
AcDbSymbolTableRecord
100
AcDbRegAppTableRecord
  2
DCO15
 70
     0
  0
APPID
  5
91
330
9
100
AcDbSymbolTableRecord
100
AcDbRegAppTableRecord
  2
AcAecLayerStandard
 70
     0
  0
APPID
  5
E0
330
9
100
AcDbSymbolTableRecord
100
AcDbRegAppTableRecord
  2
ACAD_DSTYLE_DIMTEXT_FILL
 70
     0
  0
ENDTAB
  0
TABLE
  2
DIMSTYLE
  5
A
330
0
100
AcDbSymbolTable
 70
     1
100
AcDbDimStyleTable
 71
     1
340
27
  0
DIMSTYLE
105
27
102
{ACAD_REACTORS
330
2C5
330
2E2
330
436
102
}
330
A
100
AcDbSymbolTableRecord
100
AcDbDimStyleTableRecord
  2
Standard
 70
     0
  4
mm
 41
0.1875
 44
0.125
140
0.09
170
     1
171
     1
271
     2
272
     2
274
     1
340
11
  0
ENDTAB
  0
TABLE
  2
BLOCK_RECORD
  5
1
330
0
100
AcDbSymbolTable
 70
     4
  0
BLOCK_RECORD
  5
1F
102
{ACAD_XDICTIONARY
360
371
102
}
330
1
100
AcDbSymbolTableRecord
100
AcDbBlockTableRecord
  2
*Model_Space
340
22
  0
BLOCK_RECORD
  5
58
330
1
100
AcDbSymbolTableRecord
100
AcDbBlockTableRecord
  2
*Paper_Space
340
59
  0
BLOCK_RECORD
  5
5D
330
1
100
AcDbSymbolTableRecord
100
AcDbBlockTableRecord
  2
*Paper_Space0
340
5E
  0
BLOCK_RECORD
  5
2C7
330
1
100
AcDbSymbolTableRecord
100
AcDbBlockTableRecord
  2
*D1
340
0
  0
BLOCK_RECORD
  5
2E3
330
1
100
AcDbSymbolTableRecord
100
AcDbBlockTableRecord
  2
*D2
340
0
  0
BLOCK_RECORD
  5
437
330
1
100
AcDbSymbolTableRecord
100
AcDbBlockTableRecord
  2
*D3
340
0
  0
ENDTAB
  0
ENDSEC
  0
SECTION
  2
BLOCKS
  0
BLOCK
  5
20
330
1F
100
AcDbEntity
  8
0
100
AcDbBlockBegin
  2
*Model_Space
 70
     0
 10
0.0
 20
0.0
 30
0.0
  3
*Model_Space
  1

  0
ENDBLK
  5
21
330
1F
100
AcDbEntity
  8
0
100
AcDbBlockEnd
  0
BLOCK
  5
5A
330
58
100
AcDbEntity
 67
     1
  8
0
100
AcDbBlockBegin
  2
*Paper_Space
 70
     0
 10
0.0
 20
0.0
 30
0.0
  3
*Paper_Space
  1

  0
ENDBLK
  5
5B
330
58
100
AcDbEntity
 67
     1
  8
0
100
AcDbBlockEnd
  0
BLOCK
  5
5F
330
5D
100
AcDbEntity
  8
0
100
AcDbBlockBegin
  2
*Paper_Space0
 70
     0
 10
0.0
 20
0.0
 30
0.0
  3
*Paper_Space0
  1

  0
ENDBLK
  5
60
330
5D
100
AcDbEntity
  8
0
100
AcDbBlockEnd
  0
BLOCK
  5
2D3
330
2C7
100
AcDbEntity
  8
0
100
AcDbBlockBegin
  2
*D1
 70
     1
 10
0.0
 20
0.0
 30
0.0
  3
*D1
  1

  0
LINE
  5
3DF
330
2C7
100
AcDbEntity
  8
Dimension
 62
     0
370
    -2
100
AcDbLine
 10
7.664942602591615
 20
4.868829774501557
 30
0.0
 11
8.854986357443412
 21
4.868829774501557
 31
0.0
  0
LINE
  5
3E0
330
2C7
100
AcDbEntity
  8
Dimension
 62
     0
370
    -2
100
AcDbLine
 10
7.464942602591615
 20
5.644829774501557
 30
0.0
 11
8.854986357443412
 21
5.644829774501557
 31
0.0
  0
LINE
  5
3E1
330
2C7
100
AcDbEntity
  8
Dimension
 62
     0
370
    -2
100
AcDbLine
 10
8.729986357443412
 20
5.056329774501557
 30
0.0
 11
8.729986357443412
 21
5.457329774501557
 31
0.0
  0
LINE
  5
3E2
330
2C7
100
AcDbEntity
  8
Dimension
 62
     0
370
    -2
100
AcDbLine
 10
8.729986357443412
 20
5.644829774501557
 30
0.0
 11
8.729986357443412
 21
5.832329774501557
 31
0.0
  0
LINE
  5
3E3
330
2C7
100
AcDbEntity
  8
Dimension
 62
     0
370
    -2
100
AcDbLine
 10
8.729986357443412
 20
5.832329774501557
 30
0.0
 11
8.917486357443412
 21
5.832329774501557
 31
0.0
  0
SOLID
  5
3E4
330
2C7
100
AcDbEntity
  8
Dimension
 62
     0
100
AcDbTrace
 10
8.698736357443412
 20
5.056329774501557
 30
0.0
 11
8.761236357443412
 21
5.056329774501557
 31
0.0
 12
8.729986357443412
 22
4.868829774501557
 32
0.0
 13
8.729986357443412
 23
4.868829774501557
 33
0.0
  0
SOLID
  5
3E5
330
2C7
100
AcDbEntity
  8
Dimension
 62
     0
100
AcDbTrace
 10
8.698736357443412
 20
5.457329774501557
 30
0.0
 11
8.761236357443412
 21
5.457329774501557
 31
0.0
 12
8.729986357443412
 22
5.644829774501557
 32
0.0
 13
8.729986357443412
 23
5.644829774501557
 33
0.0
  0
MTEXT
  5
3E6
330
2C7
100
AcDbEntity
  8
Dimension
 62
     0
100
AcDbMText
 10
9.398407410074989
 20
5.832329774501558
 30
0.0
 40
0.09
 41
0.0
 71
     5
 72
     1
  1
\A1;0.78 [19.7mm]
 73
     1
 44
1.0
1001
ACAD
1000
MTEXTBEGIN
1070
    73
1070
     1
1070
    44
1040
1.0
1070
    74
1070
     0
1000
MTEXTEND
  0
POINT
  5
3E7
330
2C7
100
AcDbEntity
  8
Defpoints
 62
     0
100
AcDbPoint
 10
7.602442602591615
 20
4.868829774501557
 30
0.0
  0
POINT
  5
3E8
330
2C7
100
AcDbEntity
  8
Defpoints
 62
     0
100
AcDbPoint
 10
7.402442602591615
 20
5.644829774501557
 30
0.0
  0
POINT
  5
3E9
330
2C7
100
AcDbEntity
  8
Defpoints
 62
     0
100
AcDbPoint
 10
8.729986357443412
 20
5.644829774501557
 30
0.0
  0
ENDBLK
  5
2D4
330
2C7
100
AcDbEntity
  8
0
100
AcDbBlockEnd
  0
BLOCK
  5
2EE
330
2E3
100
AcDbEntity
  8
0
100
AcDbBlockBegin
  2
*D2
 70
     1
 10
0.0
 20
0.0
 30
0.0
  3
*D2
  1

  0
LINE
  5
40B
330
2E3
100
AcDbEntity
  8
Dimension
 62
     0
370
    -2
100
AcDbLine
 10
2.727442602591615
 20
5.332329774501557
 30
0.0
 11
2.727442602591615
 21
6.601557020190888
 31
0.0
  0
LINE
  5
40C
330
2E3
100
AcDbEntity
  8
Dimension
 62
     0
370
    -2
100
AcDbLine
 10
7.964442602591615
 20
5.239329774501557
 30
0.0
 11
7.964442602591615
 21
6.601557020190888
 31
0.0
  0
LINE
  5
40D
330
2E3
100
AcDbEntity
  8
Dimension
 62
     0
370
    -2
100
AcDbLine
 10
2.914942602591615
 20
6.476557020190888
 30
0.0
 11
4.824824181538984
 21
6.476557020190888
 31
0.0
  0
LINE
  5
40E
330
2E3
100
AcDbEntity
  8
Dimension
 62
     0
370
    -2
100
AcDbLine
 10
7.776942602591615
 20
6.476557020190888
 30
0.0
 11
5.867061023644247
 21
6.476557020190888
 31
0.0
  0
SOLID
  5
40F
330
2E3
100
AcDbEntity
  8
Dimension
 62
     0
100
AcDbTrace
 10
2.914942602591615
 20
6.507807020190888
 30
0.0
 11
2.914942602591615
 21
6.445307020190888
 31
0.0
 12
2.727442602591615
 22
6.476557020190888
 32
0.0
 13
2.727442602591615
 23
6.476557020190888
 33
0.0
  0
SOLID
  5
410
330
2E3
100
AcDbEntity
  8
Dimension
 62
     0
100
AcDbTrace
 10
7.776942602591615
 20
6.507807020190888
 30
0.0
 11
7.776942602591615
 21
6.445307020190888
 31
0.0
 12
7.964442602591615
 22
6.476557020190888
 32
0.0
 13
7.964442602591615
 23
6.476557020190888
 33
0.0
  0
MTEXT
  5
411
330
2E3
100
AcDbEntity
  8
Dimension
 62
     0
100
AcDbMText
 10
5.345942602591615
 20
6.476557020190888
 30
0.0
 40
0.09
 41
0.0
 71
     5
 72
     1
  1
\A1;5.24 [133.0mm]
 73
     1
 44
1.0
1001
ACAD
1000
MTEXTBEGIN
1070
    73
1070
     1
1070
    44
1040
1.0
1070
    74
1070
     0
1000
MTEXTEND
  0
POINT
  5
412
330
2E3
100
AcDbEntity
  8
Defpoints
 62
     0
100
AcDbPoint
 10
2.727442602591615
 20
5.269829774501557
 30
0.0
  0
POINT
  5
413
330
2E3
100
AcDbEntity
  8
Defpoints
 62
     0
100
AcDbPoint
 10
7.964442602591615
 20
5.176829774501557
 30
0.0
  0
POINT
  5
414
330
2E3
100
AcDbEntity
  8
Defpoints
 62
     0
100
AcDbPoint
 10
7.964442602591615
 20
6.476557020190888
 30
0.0
  0
ENDBLK
  5
2EF
330
2E3
100
AcDbEntity
  8
0
100
AcDbBlockEnd
  0
BLOCK
  5
443
330
437
100
AcDbEntity
  8
0
100
AcDbBlockBegin
  2
*D3
 70
     1
 10
0.0
 20
0.0
 30
0.0
  3
*D3
  1

  0
LINE
  5
47D
330
437
100
AcDbEntity
  8
Dimension
 62
     0
370
    -2
100
AcDbLine
 10
5.992966227895724
 20
5.832329774501557
 30
0.0
 11
5.992966227895725
 21
6.019829774501557
 31
0.0
  0
LINE
  5
47E
330
437
100
AcDbEntity
  8
Dimension
 62
     0
370
    -2
100
AcDbLine
 10
5.992966227895724
 20
5.362329774501557
 30
0.0
 11
5.992966227895724
 21
5.174829774501557
 31
0.0
  0
LINE
  5
47F
330
437
100
AcDbEntity
  8
Dimension
 62
     0
370
    -2
100
AcDbLine
 10
5.992966227895724
 20
5.174829774501557
 30
0.0
 11
5.805466227895724
 21
5.174829774501557
 31
0.0
  0
SOLID
  5
480
330
437
100
AcDbEntity
  8
Dimension
 62
     0
100
AcDbTrace
 10
5.961716227895724
 20
5.832329774501557
 30
0.0
 11
6.024216227895724
 21
5.832329774501556
 31
0.0
 12
5.992966227895724
 22
5.644829774501557
 32
0.0
 13
5.992966227895724
 23
5.644829774501557
 33
0.0
  0
SOLID
  5
481
330
437
100
AcDbEntity
  8
Dimension
 62
     0
100
AcDbTrace
 10
5.961716227895724
 20
5.362329774501557
 30
0.0
 11
6.024216227895724
 21
5.362329774501557
 31
0.0
 12
5.992966227895724
 22
5.549829774501557
 32
0.0
 13
5.992966227895724
 23
5.549829774501557
 33
0.0
  0
MTEXT
  5
482
330
437
100
AcDbEntity
  8
Dimension
 62
     0
100
AcDbMText
 10
5.36072938579046
 20
5.174829774501558
 30
0.0
 40
0.09
 41
0.0
 71
     5
 72
     1
  1
\A1;0.10 [2.4mm]
 73
     1
 44
1.0
1001
ACAD
1000
MTEXTBEGIN
1070
    73
1070
     1
1070
    44
1040
1.0
1070
    74
1070
     0
1000
MTEXTEND
  0
POINT
  5
483
330
437
100
AcDbEntity
  8
Defpoints
 62
     0
100
AcDbPoint
 10
5.992966227895724
 20
5.644829774501557
 30
0.0
  0
POINT
  5
484
330
437
100
AcDbEntity
  8
Defpoints
 62
     0
100
AcDbPoint
 10
5.992966227895724
 20
5.549829774501557
 30
0.0
  0
POINT
  5
485
330
437
100
AcDbEntity
  8
Defpoints
 62
     0
100
AcDbPoint
 10
5.992966227895724
 20
5.549829774501557
 30
0.0
  0
ENDBLK
  5
444
330
437
100
AcDbEntity
  8
0
100
AcDbBlockEnd
  0
ENDSEC
  0
SECTION
  2
ENTITIES
  0
LINE
  5
191
330
1F
100
AcDbEntity
  8
Object
100
AcDbLine
 10
3.255442602591616
 20
5.419829774501558
 30
0.0
 11
3.250442602591615
 21
5.373829774501557
 31
0.0
  0
LINE
  5
192
330
1F
100
AcDbEntity
  8
Object
100
AcDbLine
 10
3.250442602591615
 20
5.373829774501557
 30
0.0
 11
3.234442602591615
 21
5.330829774501557
 31
0.0
  0
LINE
  5
193
330
1F
100
AcDbEntity
  8
Object
100
AcDbLine
 10
3.234442602591615
 20
5.330829774501557
 30
0.0
 11
3.209442602591615
 21
5.291829774501557
 31
0.0
  0
LINE
  5
194
330
1F
100
AcDbEntity
  8
Object
100
AcDbLine
 10
3.359442602591615
 20
4.912829774501558
 30
0.0
 11
3.305442602591615
 21
4.925829774501558
 31
0.0
  0
LINE
  5
195
330
1F
100
AcDbEntity
  8
Object
100
AcDbLine
 10
3.305442602591615
 20
4.925829774501558
 30
0.0
 11
3.256442602591615
 21
4.951829774501558
 31
0.0
  0
LINE
  5
196
330
1F
100
AcDbEntity
  8
Object
100
AcDbLine
 10
3.256442602591615
 20
4.951829774501558
 30
0.0
 11
3.215442602591615
 21
4.987829774501557
 31
0.0
  0
LINE
  5
197
330
1F
100
AcDbEntity
  8
Object
100
AcDbLine
 10
3.215442602591615
 20
4.987829774501557
 30
0.0
 11
3.183442602591615
 21
5.032829774501557
 31
0.0
  0
LINE
  5
198
330
1F
100
AcDbEntity
  8
Object
100
AcDbLine
 10
3.209442602591615
 20
5.291829774501557
 30
0.0
 11
3.179442602591615
 21
5.245829774501557
 31
0.0
  0
LINE
  5
199
330
1F
100
AcDbEntity
  8
Object
100
AcDbLine
 10
3.163442602591615
 20
5.083829774501557
 30
0.0
 11
3.183442602591615
 21
5.032829774501557
 31
0.0
  0
LINE
  5
19A
330
1F
100
AcDbEntity
  8
Object
100
AcDbLine
 10
3.179442602591615
 20
5.245829774501557
 30
0.0
 11
3.160442602591615
 21
5.193829774501557
 31
0.0
  0
LINE
  5
19B
330
1F
100
AcDbEntity
  8
Object
100
AcDbLine
 10
3.160442602591615
 20
5.193829774501557
 30
0.0
 11
3.155442602591615
 21
5.138829774501557
 31
0.0
  0
LINE
  5
19C
330
1F
100
AcDbEntity
  8
Object
100
AcDbLine
 10
3.155442602591615
 20
5.138829774501557
 30
0.0
 11
3.163442602591615
 21
5.083829774501557
 31
0.0
  0
LINE
  5
19D
330
1F
100
AcDbEntity
  8
Object
100
AcDbLine
 10
7.949442602591616
 20
5.202829774501557
 30
0.0
 11
7.960442602591616
 21
5.191829774501558
 31
0.0
  0
LINE
  5
19E
330
1F
100
AcDbEntity
  8
Object
100
AcDbLine
 10
7.960442602591616
 20
5.191829774501558
 30
0.0
 11
7.964442602591615
 21
5.176829774501557
 31
0.0
  0
LINE
  5
19F
330
1F
100
AcDbEntity
  8
Object
100
AcDbLine
 10
7.949442602591616
 20
5.202829774501557
 30
0.0
 11
7.934442602591615
 21
5.206829774501557
 31
0.0
  0
LINE
  5
1A0
330
1F
100
AcDbEntity
  8
Object
100
AcDbLine
 10
7.964442602591615
 20
5.176829774501557
 30
0.0
 11
7.964442602591615
 21
5.141829774501557
 31
0.0
  0
LINE
  5
1A1
330
1F
100
AcDbEntity
  8
Object
100
AcDbLine
 10
7.964442602591615
 20
5.141829774501557
 30
0.0
 11
7.960442602591616
 21
5.126829774501557
 31
0.0
  0
LINE
  5
1A2
330
1F
100
AcDbEntity
  8
Object
100
AcDbLine
 10
7.960442602591616
 20
5.126829774501557
 30
0.0
 11
7.949442602591616
 21
5.115829774501557
 31
0.0
  0
LINE
  5
1A3
330
1F
100
AcDbEntity
  8
Object
100
AcDbLine
 10
7.949442602591616
 20
5.115829774501557
 30
0.0
 11
7.934442602591615
 21
5.111829774501558
 31
0.0
  0
LINE
  5
1A4
330
1F
100
AcDbEntity
  8
Object
100
AcDbLine
 10
7.934442602591615
 20
5.206829774501557
 30
0.0
 11
7.837442602591615
 21
5.206829774501557
 31
0.0
  0
LINE
  5
1A5
330
1F
100
AcDbEntity
  8
Object
100
AcDbLine
 10
7.797442602591615
 20
5.111829774501558
 30
0.0
 11
7.934442602591615
 21
5.111829774501558
 31
0.0
  0
LINE
  5
1A6
330
1F
100
AcDbEntity
  8
Object
100
AcDbLine
 10
7.837442602591615
 20
5.206829774501557
 30
0.0
 11
7.814442602591615
 21
5.210829774501558
 31
0.0
  0
LINE
  5
1A7
330
1F
100
AcDbEntity
  8
Object
100
AcDbLine
 10
7.814442602591615
 20
5.210829774501558
 30
0.0
 11
7.794442602591615
 21
5.223829774501558
 31
0.0
  0
LINE
  5
1A8
330
1F
100
AcDbEntity
  8
Object
100
AcDbLine
 10
7.797442602591615
 20
5.111829774501558
 30
0.0
 11
7.787442602591616
 21
5.108829774501558
 31
0.0
  0
LINE
  5
1A9
330
1F
100
AcDbEntity
  8
Object
100
AcDbLine
 10
7.787442602591616
 20
5.108829774501558
 30
0.0
 11
7.779442602591616
 21
5.101829774501558
 31
0.0
  0
LINE
  5
1AA
330
1F
100
AcDbEntity
  8
Object
100
AcDbLine
 10
7.770442602591615
 20
5.342829774501558
 30
0.0
 11
7.777442602591615
 21
5.269829774501557
 31
0.0
  0
LINE
  5
1AB
330
1F
100
AcDbEntity
  8
Object
100
AcDbLine
 10
7.777442602591615
 20
5.269829774501557
 30
0.0
 11
7.777442602591615
 21
5.266829774501557
 31
0.0
  0
LINE
  5
1AC
330
1F
100
AcDbEntity
  8
Object
100
AcDbLine
 10
7.777442602591615
 20
5.266829774501557
 30
0.0
 11
7.781442602591615
 21
5.243829774501557
 31
0.0
  0
LINE
  5
1AD
330
1F
100
AcDbEntity
  8
Object
100
AcDbLine
 10
7.781442602591615
 20
5.243829774501557
 30
0.0
 11
7.794442602591615
 21
5.223829774501558
 31
0.0
  0
LINE
  5
1AE
330
1F
100
AcDbEntity
  8
Object
100
AcDbLine
 10
7.779442602591616
 20
5.101829774501558
 30
0.0
 11
7.777442602591615
 21
5.091829774501557
 31
0.0
  0
LINE
  5
1AF
330
1F
100
AcDbEntity
  8
Object
100
AcDbLine
 10
7.777442602591615
 20
5.091829774501557
 30
0.0
 11
7.777442602591615
 21
5.043829774501557
 31
0.0
  0
LINE
  5
1B0
330
1F
100
AcDbEntity
  8
Object
100
AcDbLine
 10
7.777442602591615
 20
5.043829774501557
 30
0.0
 11
7.771442602591616
 21
4.998829774501557
 31
0.0
  0
LINE
  5
1B1
330
1F
100
AcDbEntity
  8
Object
100
AcDbLine
 10
7.682442602591615
 20
5.269829774501557
 30
0.0
 11
7.682442602591615
 21
5.043829774501557
 31
0.0
  0
LINE
  5
1B2
330
1F
100
AcDbEntity
  8
Object
100
AcDbLine
 10
7.753442602591615
 20
4.956829774501557
 30
0.0
 11
7.771442602591616
 21
4.998829774501557
 31
0.0
  0
LINE
  5
1B3
330
1F
100
AcDbEntity
  8
Object
100
AcDbLine
 10
7.682442602591615
 20
5.043829774501557
 30
0.0
 11
7.676442602591615
 21
5.013829774501557
 31
0.0
  0
LINE
  5
1B4
330
1F
100
AcDbEntity
  8
Object
100
AcDbLine
 10
7.770442602591615
 20
5.342829774501558
 30
0.0
 11
7.748442602591615
 21
5.412829774501558
 31
0.0
  0
LINE
  5
1B5
330
1F
100
AcDbEntity
  8
Object
100
AcDbLine
 10
7.675442602591616
 20
5.331829774501557
 30
0.0
 11
7.682442602591615
 21
5.269829774501557
 31
0.0
  0
LINE
  5
1B6
330
1F
100
AcDbEntity
  8
Object
100
AcDbLine
 10
7.676442602591615
 20
5.013829774501557
 30
0.0
 11
7.658442602591615
 21
4.987829774501557
 31
0.0
  0
LINE
  5
1B7
330
1F
100
AcDbEntity
  8
Object
100
AcDbLine
 10
7.753442602591615
 20
4.956829774501557
 30
0.0
 11
7.725442602591615
 21
4.919829774501558
 31
0.0
  0
LINE
  5
1B8
330
1F
100
AcDbEntity
  8
Object
100
AcDbLine
 10
7.725442602591615
 20
4.919829774501558
 30
0.0
 11
7.689442602591615
 21
4.892829774501557
 31
0.0
  0
LINE
  5
1B9
330
1F
100
AcDbEntity
  8
Object
100
AcDbLine
 10
7.654442602591616
 20
5.390829774501558
 30
0.0
 11
7.675442602591616
 21
5.331829774501557
 31
0.0
  0
LINE
  5
1BA
330
1F
100
AcDbEntity
  8
Object
100
AcDbLine
 10
7.748442602591615
 20
5.412829774501558
 30
0.0
 11
7.714442602591615
 21
5.477829774501557
 31
0.0
  0
LINE
  5
1BB
330
1F
100
AcDbEntity
  8
Object
100
AcDbLine
 10
7.647442602591615
 20
4.874829774501558
 30
0.0
 11
7.689442602591615
 21
4.892829774501557
 31
0.0
  0
LINE
  5
1BC
330
1F
100
AcDbEntity
  8
Object
100
AcDbLine
 10
7.658442602591615
 20
4.987829774501557
 30
0.0
 11
7.632442602591615
 21
4.969829774501557
 31
0.0
  0
LINE
  5
1BD
330
1F
100
AcDbEntity
  8
Object
100
AcDbLine
 10
7.714442602591615
 20
5.477829774501557
 30
0.0
 11
7.667442602591616
 21
5.534829774501558
 31
0.0
  0
LINE
  5
1BE
330
1F
100
AcDbEntity
  8
Object
100
AcDbLine
 10
7.621442602591615
 20
5.443829774501557
 30
0.0
 11
7.654442602591616
 21
5.390829774501558
 31
0.0
  0
LINE
  5
1BF
330
1F
100
AcDbEntity
  8
Object
100
AcDbLine
 10
7.632442602591615
 20
4.969829774501557
 30
0.0
 11
7.602442602591615
 21
4.963829774501557
 31
0.0
  0
LINE
  5
1C0
330
1F
100
AcDbEntity
  8
Object
100
AcDbLine
 10
7.602442602591615
 20
4.868829774501557
 30
0.0
 11
7.647442602591615
 21
4.874829774501558
 31
0.0
  0
LINE
  5
1C1
330
1F
100
AcDbEntity
  8
Object
100
AcDbLine
 10
7.576442602591615
 20
5.488829774501557
 30
0.0
 11
7.621442602591615
 21
5.443829774501557
 31
0.0
  0
LINE
  5
1C2
330
1F
100
AcDbEntity
  8
Object
100
AcDbLine
 10
7.667442602591616
 20
5.534829774501558
 30
0.0
 11
7.610442602591615
 21
5.580829774501557
 31
0.0
  0
LINE
  5
1C3
330
1F
100
AcDbEntity
  8
Object
100
AcDbLine
 10
7.529442602591616
 20
4.868829774501557
 30
0.0
 11
7.602442602591615
 21
4.868829774501557
 31
0.0
  0
LINE
  5
1C4
330
1F
100
AcDbEntity
  8
Object
100
AcDbLine
 10
7.602442602591615
 20
4.963829774501557
 30
0.0
 11
7.529442602591616
 21
4.963829774501557
 31
0.0
  0
LINE
  5
1C5
330
1F
100
AcDbEntity
  8
Object
100
AcDbLine
 10
7.610442602591615
 20
5.580829774501557
 30
0.0
 11
7.545442602591616
 21
5.615829774501557
 31
0.0
  0
LINE
  5
1C6
330
1F
100
AcDbEntity
  8
Object
100
AcDbLine
 10
7.523442602591615
 20
5.521829774501558
 30
0.0
 11
7.576442602591615
 21
5.488829774501557
 31
0.0
  0
LINE
  5
1C7
330
1F
100
AcDbEntity
  8
Object
100
AcDbLine
 10
7.506442602591615
 20
4.875829774501557
 30
0.0
 11
7.529442602591616
 21
4.868829774501557
 31
0.0
  0
LINE
  5
1C8
330
1F
100
AcDbEntity
  8
Object
100
AcDbLine
 10
7.529442602591616
 20
4.963829774501557
 30
0.0
 11
7.506442602591615
 21
4.957829774501558
 31
0.0
  0
LINE
  5
1C9
330
1F
100
AcDbEntity
  8
Object
100
AcDbLine
 10
7.506442602591615
 20
4.957829774501558
 30
0.0
 11
7.488442602591615
 21
4.939829774501557
 31
0.0
  0
LINE
  5
1CA
330
1F
100
AcDbEntity
  8
Object
100
AcDbLine
 10
7.506442602591615
 20
4.875829774501557
 30
0.0
 11
7.488442602591615
 21
4.892829774501557
 31
0.0
  0
LINE
  5
1CB
330
1F
100
AcDbEntity
  8
Object
100
AcDbLine
 10
7.488442602591615
 20
4.892829774501557
 30
0.0
 11
7.482442602591615
 21
4.916829774501557
 31
0.0
  0
LINE
  5
1CC
330
1F
100
AcDbEntity
  8
Object
100
AcDbLine
 10
7.482442602591615
 20
4.916829774501557
 30
0.0
 11
7.488442602591615
 21
4.939829774501557
 31
0.0
  0
LINE
  5
1CD
330
1F
100
AcDbEntity
  8
Object
100
AcDbLine
 10
7.464442602591615
 20
5.542829774501557
 30
0.0
 11
7.523442602591615
 21
5.521829774501558
 31
0.0
  0
LINE
  5
1CE
330
1F
100
AcDbEntity
  8
Object
100
AcDbLine
 10
7.545442602591616
 20
5.615829774501557
 30
0.0
 11
7.475442602591615
 21
5.636829774501557
 31
0.0
  0
LINE
  5
1CF
330
1F
100
AcDbEntity
  8
Object
100
AcDbLine
 10
7.402442602591615
 20
5.549829774501557
 30
0.0
 11
7.464442602591615
 21
5.542829774501557
 31
0.0
  0
LINE
  5
1D0
330
1F
100
AcDbEntity
  8
Object
100
AcDbLine
 10
7.475442602591615
 20
5.636829774501557
 30
0.0
 11
7.402442602591615
 21
5.644829774501557
 31
0.0
  0
LINE
  5
1D1
330
1F
100
AcDbEntity
  8
Object
100
AcDbLine
 10
7.402442602591615
 20
5.549829774501557
 30
0.0
 11
7.315442602591615
 21
5.549829774501557
 31
0.0
  0
LINE
  5
1D2
330
1F
100
AcDbEntity
  8
Object
100
AcDbLine
 10
7.315442602591615
 20
5.549829774501557
 30
0.0
 11
7.307442602591615
 21
5.547829774501558
 31
0.0
  0
LINE
  5
1D3
330
1F
100
AcDbEntity
  8
Object
100
AcDbLine
 10
7.250442602591616
 20
5.534829774501558
 30
0.0
 11
7.250442602591616
 21
5.361829774501558
 31
0.0
  0
LINE
  5
1D4
330
1F
100
AcDbEntity
  8
Object
100
AcDbLine
 10
7.295442602591616
 20
5.338829774501557
 30
0.0
 11
7.300442602591616
 21
5.393829774501558
 31
0.0
  0
LINE
  5
1D5
330
1F
100
AcDbEntity
  8
Object
100
AcDbLine
 10
7.300442602591616
 20
5.393829774501558
 30
0.0
 11
7.300442602591616
 21
5.534829774501558
 31
0.0
  0
LINE
  5
1D6
330
1F
100
AcDbEntity
  8
Object
100
AcDbLine
 10
7.307442602591615
 20
5.547829774501558
 30
0.0
 11
7.302442602591615
 21
5.541829774501557
 31
0.0
  0
LINE
  5
1D7
330
1F
100
AcDbEntity
  8
Object
100
AcDbLine
 10
7.302442602591615
 20
5.541829774501557
 30
0.0
 11
7.300442602591616
 21
5.534829774501558
 31
0.0
  0
LINE
  5
1D8
330
1F
100
AcDbEntity
  8
Object
100
AcDbLine
 10
7.248442602591615
 20
5.541829774501557
 30
0.0
 11
7.250442602591616
 21
5.534829774501558
 31
0.0
  0
LINE
  5
1D9
330
1F
100
AcDbEntity
  8
Object
100
AcDbLine
 10
7.280442602591615
 20
5.285829774501557
 30
0.0
 11
7.295442602591616
 21
5.338829774501557
 31
0.0
  0
LINE
  5
1DA
330
1F
100
AcDbEntity
  8
Object
100
AcDbLine
 10
7.250442602591616
 20
5.361829774501558
 30
0.0
 11
7.244442602591615
 21
5.307829774501557
 31
0.0
  0
LINE
  5
1DB
330
1F
100
AcDbEntity
  8
Object
100
AcDbLine
 10
7.248442602591615
 20
5.541829774501557
 30
0.0
 11
7.242442602591616
 21
5.547829774501558
 31
0.0
  0
LINE
  5
1DC
330
1F
100
AcDbEntity
  8
Object
100
AcDbLine
 10
7.242442602591616
 20
5.547829774501558
 30
0.0
 11
7.235442602591615
 21
5.549829774501557
 31
0.0
  0
LINE
  5
1DD
330
1F
100
AcDbEntity
  8
Object
100
AcDbLine
 10
7.244442602591615
 20
5.307829774501557
 30
0.0
 11
7.228442602591615
 21
5.255829774501558
 31
0.0
  0
LINE
  5
1DE
330
1F
100
AcDbEntity
  8
Object
100
AcDbLine
 10
7.280442602591615
 20
5.285829774501557
 30
0.0
 11
7.255442602591616
 21
5.235829774501557
 31
0.0
  0
LINE
  5
1DF
330
1F
100
AcDbEntity
  8
Object
100
AcDbLine
 10
7.255442602591616
 20
5.235829774501557
 30
0.0
 11
7.222442602591615
 21
5.191829774501558
 31
0.0
  0
LINE
  5
1E0
330
1F
100
AcDbEntity
  8
Object
100
AcDbLine
 10
7.222442602591615
 20
5.191829774501558
 30
0.0
 11
7.219442602591615
 21
5.189829774501557
 31
0.0
  0
LINE
  5
1E1
330
1F
100
AcDbEntity
  8
Object
100
AcDbLine
 10
7.219442602591615
 20
5.189829774501557
 30
0.0
 11
7.216442602591615
 21
5.187829774501557
 31
0.0
  0
LINE
  5
1E2
330
1F
100
AcDbEntity
  8
Object
100
AcDbLine
 10
7.216442602591615
 20
5.187829774501557
 30
0.0
 11
7.212442602591615
 21
5.186829774501557
 31
0.0
  0
LINE
  5
1E3
330
1F
100
AcDbEntity
  8
Object
100
AcDbLine
 10
7.212442602591615
 20
5.186829774501557
 30
0.0
 11
7.206442602591615
 21
5.188829774501558
 31
0.0
  0
LINE
  5
1E4
330
1F
100
AcDbEntity
  8
Object
100
AcDbLine
 10
7.206442602591615
 20
5.188829774501558
 30
0.0
 11
7.201442602591615
 21
5.191829774501558
 31
0.0
  0
LINE
  5
1E5
330
1F
100
AcDbEntity
  8
Object
100
AcDbLine
 10
7.228442602591615
 20
5.255829774501558
 30
0.0
 11
7.201442602591615
 21
5.208829774501557
 31
0.0
  0
LINE
  5
1E6
330
1F
100
AcDbEntity
  8
Object
100
AcDbLine
 10
7.201442602591615
 20
5.191829774501558
 30
0.0
 11
7.198442602591615
 21
5.197829774501557
 31
0.0
  0
LINE
  5
1E7
330
1F
100
AcDbEntity
  8
Object
100
AcDbLine
 10
7.198442602591615
 20
5.197829774501557
 30
0.0
 11
7.198442602591615
 21
5.203829774501557
 31
0.0
  0
LINE
  5
1E8
330
1F
100
AcDbEntity
  8
Object
100
AcDbLine
 10
7.198442602591615
 20
5.203829774501557
 30
0.0
 11
7.201442602591615
 21
5.208829774501557
 31
0.0
  0
LINE
  5
1E9
330
1F
100
AcDbEntity
  8
Object
100
AcDbLine
 10
3.385442602591615
 20
4.948829774501557
 30
0.0
 11
3.387442602591615
 21
4.936829774501557
 31
0.0
  0
LINE
  5
1EA
330
1F
100
AcDbEntity
  8
Object
100
AcDbLine
 10
3.387442602591615
 20
4.936829774501557
 30
0.0
 11
3.383442602591616
 21
4.924829774501557
 31
0.0
  0
LINE
  5
1EB
330
1F
100
AcDbEntity
  8
Object
100
AcDbLine
 10
3.385442602591615
 20
4.948829774501557
 30
0.0
 11
3.377442602591615
 21
4.957829774501558
 31
0.0
  0
LINE
  5
1EC
330
1F
100
AcDbEntity
  8
Object
100
AcDbLine
 10
3.377442602591615
 20
4.957829774501558
 30
0.0
 11
3.365442602591615
 21
4.962829774501557
 31
0.0
  0
LINE
  5
1ED
330
1F
100
AcDbEntity
  8
Object
100
AcDbLine
 10
3.383442602591616
 20
4.924829774501557
 30
0.0
 11
3.374442602591615
 21
4.915829774501558
 31
0.0
  0
LINE
  5
1EE
330
1F
100
AcDbEntity
  8
Object
100
AcDbLine
 10
3.374442602591615
 20
4.915829774501558
 30
0.0
 11
3.362442602591615
 21
4.912829774501558
 31
0.0
  0
LINE
  5
1EF
330
1F
100
AcDbEntity
  8
Object
100
AcDbLine
 10
3.362442602591615
 20
4.912829774501558
 30
0.0
 11
3.361442602591615
 21
4.912829774501558
 31
0.0
  0
LINE
  5
1F0
330
1F
100
AcDbEntity
  8
Object
100
AcDbLine
 10
3.361442602591615
 20
4.912829774501558
 30
0.0
 11
3.360442602591615
 21
4.912829774501558
 31
0.0
  0
LINE
  5
1F1
330
1F
100
AcDbEntity
  8
Object
100
AcDbLine
 10
3.360442602591615
 20
4.912829774501558
 30
0.0
 11
3.359442602591615
 21
4.912829774501558
 31
0.0
  0
LINE
  5
1F2
330
1F
100
AcDbEntity
  8
Object
100
AcDbLine
 10
3.331442602591615
 20
5.549829774501557
 30
0.0
 11
7.235442602591615
 21
5.549829774501557
 31
0.0
  0
LINE
  5
1F3
330
1F
100
AcDbEntity
  8
Object
100
AcDbLine
 10
3.365442602591615
 20
4.962829774501557
 30
0.0
 11
3.318442602591615
 21
4.974829774501557
 31
0.0
  0
LINE
  5
1F4
330
1F
100
AcDbEntity
  8
Object
100
AcDbLine
 10
3.305442602591615
 20
4.925829774501558
 30
0.0
 11
3.359442602591615
 21
4.912829774501558
 31
0.0
  0
LINE
  5
1F5
330
1F
100
AcDbEntity
  8
Object
100
AcDbLine
 10
3.318442602591615
 20
4.974829774501557
 30
0.0
 11
3.275442602591615
 21
4.999829774501558
 31
0.0
  0
LINE
  5
1F6
330
1F
100
AcDbEntity
  8
Object
100
AcDbLine
 10
3.256442602591615
 20
4.951829774501558
 30
0.0
 11
3.305442602591615
 21
4.925829774501558
 31
0.0
  0
LINE
  5
1F7
330
1F
100
AcDbEntity
  8
Object
100
AcDbLine
 10
3.310442602591615
 20
5.412829774501558
 30
0.0
 11
3.316442602591616
 21
5.534829774501558
 31
0.0
  0
LINE
  5
1F8
330
1F
100
AcDbEntity
  8
Object
100
AcDbLine
 10
3.255442602591616
 20
5.534829774501558
 30
0.0
 11
3.255442602591616
 21
5.419829774501558
 31
0.0
  0
LINE
  5
1F9
330
1F
100
AcDbEntity
  8
Object
100
AcDbLine
 10
3.316442602591616
 20
5.534829774501558
 30
0.0
 11
3.318442602591615
 21
5.542829774501557
 31
0.0
  0
LINE
  5
1FA
330
1F
100
AcDbEntity
  8
Object
100
AcDbLine
 10
3.253442602591615
 20
5.541829774501557
 30
0.0
 11
3.255442602591616
 21
5.534829774501558
 31
0.0
  0
LINE
  5
1FB
330
1F
100
AcDbEntity
  8
Object
100
AcDbLine
 10
3.255442602591616
 20
5.419829774501558
 30
0.0
 11
3.250442602591615
 21
5.373829774501557
 31
0.0
  0
LINE
  5
1FC
330
1F
100
AcDbEntity
  8
Object
100
AcDbLine
 10
3.301442602591615
 20
5.358829774501558
 30
0.0
 11
3.310442602591615
 21
5.412829774501558
 31
0.0
  0
LINE
  5
1FD
330
1F
100
AcDbEntity
  8
Object
100
AcDbLine
 10
3.247442602591615
 20
5.547829774501558
 30
0.0
 11
3.253442602591615
 21
5.541829774501557
 31
0.0
  0
LINE
  5
1FE
330
1F
100
AcDbEntity
  8
Object
100
AcDbLine
 10
3.318442602591615
 20
5.542829774501557
 30
0.0
 11
3.324442602591615
 21
5.547829774501558
 31
0.0
  0
LINE
  5
1FF
330
1F
100
AcDbEntity
  8
Object
100
AcDbLine
 10
3.324442602591615
 20
5.547829774501558
 30
0.0
 11
3.331442602591615
 21
5.549829774501557
 31
0.0
  0
LINE
  5
200
330
1F
100
AcDbEntity
  8
Object
100
AcDbLine
 10
3.240442602591615
 20
5.549829774501557
 30
0.0
 11
3.247442602591615
 21
5.547829774501558
 31
0.0
  0
LINE
  5
201
330
1F
100
AcDbEntity
  8
Object
100
AcDbLine
 10
3.301442602591615
 20
5.358829774501558
 30
0.0
 11
3.280442602591615
 21
5.307829774501557
 31
0.0
  0
LINE
  5
202
330
1F
100
AcDbEntity
  8
Object
100
AcDbLine
 10
3.280442602591615
 20
5.307829774501557
 30
0.0
 11
3.249442602591615
 21
5.262829774501557
 31
0.0
  0
LINE
  5
203
330
1F
100
AcDbEntity
  8
Object
100
AcDbLine
 10
3.250442602591615
 20
5.373829774501557
 30
0.0
 11
3.234442602591615
 21
5.330829774501557
 31
0.0
  0
LINE
  5
204
330
1F
100
AcDbEntity
  8
Object
100
AcDbLine
 10
3.275442602591615
 20
4.999829774501558
 30
0.0
 11
3.241442602591615
 21
5.034829774501558
 31
0.0
  0
LINE
  5
205
330
1F
100
AcDbEntity
  8
Object
100
AcDbLine
 10
3.215442602591615
 20
4.987829774501557
 30
0.0
 11
3.256442602591615
 21
4.951829774501558
 31
0.0
  0
LINE
  5
206
330
1F
100
AcDbEntity
  8
Object
100
AcDbLine
 10
3.222442602591615
 20
5.221829774501557
 30
0.0
 11
3.249442602591615
 21
5.262829774501557
 31
0.0
  0
LINE
  5
207
330
1F
100
AcDbEntity
  8
Object
100
AcDbLine
 10
3.234442602591615
 20
5.330829774501557
 30
0.0
 11
3.209442602591615
 21
5.291829774501557
 31
0.0
  0
LINE
  5
208
330
1F
100
AcDbEntity
  8
Object
100
AcDbLine
 10
3.183442602591615
 20
5.032829774501557
 30
0.0
 11
3.215442602591615
 21
4.987829774501557
 31
0.0
  0
LINE
  5
209
330
1F
100
AcDbEntity
  8
Object
100
AcDbLine
 10
3.241442602591615
 20
5.034829774501558
 30
0.0
 11
3.217442602591615
 21
5.077829774501557
 31
0.0
  0
LINE
  5
20A
330
1F
100
AcDbEntity
  8
Object
100
AcDbLine
 10
3.209442602591615
 20
5.291829774501557
 30
0.0
 11
3.179442602591615
 21
5.245829774501557
 31
0.0
  0
LINE
  5
20B
330
1F
100
AcDbEntity
  8
Object
100
AcDbLine
 10
3.217442602591615
 20
5.077829774501557
 30
0.0
 11
3.206442602591615
 21
5.125829774501557
 31
0.0
  0
LINE
  5
20C
330
1F
100
AcDbEntity
  8
Object
100
AcDbLine
 10
3.163442602591615
 20
5.083829774501557
 30
0.0
 11
3.183442602591615
 21
5.032829774501557
 31
0.0
  0
LINE
  5
20D
330
1F
100
AcDbEntity
  8
Object
100
AcDbLine
 10
3.179442602591615
 20
5.245829774501557
 30
0.0
 11
3.160442602591615
 21
5.193829774501557
 31
0.0
  0
LINE
  5
20E
330
1F
100
AcDbEntity
  8
Object
100
AcDbLine
 10
3.208442602591615
 20
5.174829774501557
 30
0.0
 11
3.222442602591615
 21
5.221829774501557
 31
0.0
  0
LINE
  5
20F
330
1F
100
AcDbEntity
  8
Object
100
AcDbLine
 10
3.155442602591615
 20
5.138829774501557
 30
0.0
 11
3.163442602591615
 21
5.083829774501557
 31
0.0
  0
LINE
  5
210
330
1F
100
AcDbEntity
  8
Object
100
AcDbLine
 10
3.206442602591615
 20
5.125829774501557
 30
0.0
 11
3.208442602591615
 21
5.174829774501557
 31
0.0
  0
LINE
  5
211
330
1F
100
AcDbEntity
  8
Object
100
AcDbLine
 10
3.160442602591615
 20
5.193829774501557
 30
0.0
 11
3.155442602591615
 21
5.138829774501557
 31
0.0
  0
LINE
  5
212
330
1F
100
AcDbEntity
  8
Object
100
AcDbLine
 10
7.402442602591615
 20
5.644829774501557
 30
0.0
 11
3.102442602591615
 21
5.644829774501557
 31
0.0
  0
LINE
  5
213
330
1F
100
AcDbEntity
  8
Object
100
AcDbLine
 10
3.240442602591615
 20
5.549829774501557
 30
0.0
 11
3.102442602591615
 21
5.549829774501557
 31
0.0
  0
LINE
  5
214
330
1F
100
AcDbEntity
  8
Object
100
AcDbLine
 10
3.102442602591615
 20
5.549829774501557
 30
0.0
 11
3.040442602591616
 21
5.542829774501557
 31
0.0
  0
LINE
  5
215
330
1F
100
AcDbEntity
  8
Object
100
AcDbLine
 10
3.102442602591615
 20
5.644829774501557
 30
0.0
 11
3.029442602591615
 21
5.636829774501557
 31
0.0
  0
LINE
  5
216
330
1F
100
AcDbEntity
  8
Object
100
AcDbLine
 10
2.966442602591615
 20
4.939829774501557
 30
0.0
 11
2.972442602591615
 21
4.916829774501557
 31
0.0
  0
LINE
  5
217
330
1F
100
AcDbEntity
  8
Object
100
AcDbLine
 10
2.972442602591615
 20
4.916829774501557
 30
0.0
 11
2.966442602591615
 21
4.892829774501557
 31
0.0
  0
LINE
  5
218
330
1F
100
AcDbEntity
  8
Object
100
AcDbLine
 10
3.029442602591615
 20
5.636829774501557
 30
0.0
 11
2.958442602591615
 21
5.615829774501557
 31
0.0
  0
LINE
  5
219
330
1F
100
AcDbEntity
  8
Object
100
AcDbLine
 10
2.981442602591615
 20
5.521829774501558
 30
0.0
 11
3.040442602591616
 21
5.542829774501557
 31
0.0
  0
LINE
  5
21A
330
1F
100
AcDbEntity
  8
Object
100
AcDbLine
 10
2.966442602591615
 20
4.939829774501557
 30
0.0
 11
2.948442602591615
 21
4.957829774501558
 31
0.0
  0
LINE
  5
21B
330
1F
100
AcDbEntity
  8
Object
100
AcDbLine
 10
2.966442602591615
 20
4.892829774501557
 30
0.0
 11
2.948442602591615
 21
4.875829774501557
 31
0.0
  0
LINE
  5
21C
330
1F
100
AcDbEntity
  8
Object
100
AcDbLine
 10
2.948442602591615
 20
4.875829774501557
 30
0.0
 11
2.924442602591615
 21
4.868829774501557
 31
0.0
  0
LINE
  5
21D
330
1F
100
AcDbEntity
  8
Object
100
AcDbLine
 10
2.948442602591615
 20
4.957829774501558
 30
0.0
 11
2.924442602591615
 21
4.963829774501557
 31
0.0
  0
LINE
  5
21E
330
1F
100
AcDbEntity
  8
Object
100
AcDbLine
 10
2.902442602591616
 20
4.868829774501557
 30
0.0
 11
2.924442602591615
 21
4.868829774501557
 31
0.0
  0
LINE
  5
21F
330
1F
100
AcDbEntity
  8
Object
100
AcDbLine
 10
2.924442602591615
 20
4.963829774501557
 30
0.0
 11
2.902442602591616
 21
4.963829774501557
 31
0.0
  0
LINE
  5
220
330
1F
100
AcDbEntity
  8
Object
100
AcDbLine
 10
2.927442602591615
 20
5.488829774501557
 30
0.0
 11
2.981442602591615
 21
5.521829774501558
 31
0.0
  0
LINE
  5
221
330
1F
100
AcDbEntity
  8
Object
100
AcDbLine
 10
2.958442602591615
 20
5.615829774501557
 30
0.0
 11
2.894442602591615
 21
5.580829774501557
 31
0.0
  0
LINE
  5
222
330
1F
100
AcDbEntity
  8
Object
100
AcDbLine
 10
2.902442602591616
 20
4.963829774501557
 30
0.0
 11
2.871442602591615
 21
4.969829774501557
 31
0.0
  0
LINE
  5
223
330
1F
100
AcDbEntity
  8
Object
100
AcDbLine
 10
2.857442602591615
 20
4.874829774501558
 30
0.0
 11
2.902442602591616
 21
4.868829774501557
 31
0.0
  0
LINE
  5
224
330
1F
100
AcDbEntity
  8
Object
100
AcDbLine
 10
2.894442602591615
 20
5.580829774501557
 30
0.0
 11
2.837442602591615
 21
5.534829774501558
 31
0.0
  0
LINE
  5
225
330
1F
100
AcDbEntity
  8
Object
100
AcDbLine
 10
2.883442602591616
 20
5.443829774501557
 30
0.0
 11
2.927442602591615
 21
5.488829774501557
 31
0.0
  0
LINE
  5
226
330
1F
100
AcDbEntity
  8
Object
100
AcDbLine
 10
2.815442602591615
 20
4.892829774501557
 30
0.0
 11
2.857442602591615
 21
4.874829774501558
 31
0.0
  0
LINE
  5
227
330
1F
100
AcDbEntity
  8
Object
100
AcDbLine
 10
2.871442602591615
 20
4.969829774501557
 30
0.0
 11
2.845442602591615
 21
4.987829774501557
 31
0.0
  0
LINE
  5
228
330
1F
100
AcDbEntity
  8
Object
100
AcDbLine
 10
2.837442602591615
 20
5.534829774501558
 30
0.0
 11
2.790442602591616
 21
5.477829774501557
 31
0.0
  0
LINE
  5
229
330
1F
100
AcDbEntity
  8
Object
100
AcDbLine
 10
2.850442602591615
 20
5.390829774501558
 30
0.0
 11
2.883442602591616
 21
5.443829774501557
 31
0.0
  0
LINE
  5
22A
330
1F
100
AcDbEntity
  8
Object
100
AcDbLine
 10
2.778442602591615
 20
4.919829774501558
 30
0.0
 11
2.815442602591615
 21
4.892829774501557
 31
0.0
  0
LINE
  5
22B
330
1F
100
AcDbEntity
  8
Object
100
AcDbLine
 10
2.790442602591616
 20
5.477829774501557
 30
0.0
 11
2.756442602591615
 21
5.412829774501558
 31
0.0
  0
LINE
  5
22C
330
1F
100
AcDbEntity
  8
Object
100
AcDbLine
 10
2.829442602591615
 20
5.331829774501557
 30
0.0
 11
2.850442602591615
 21
5.390829774501558
 31
0.0
  0
LINE
  5
22D
330
1F
100
AcDbEntity
  8
Object
100
AcDbLine
 10
2.845442602591615
 20
4.987829774501557
 30
0.0
 11
2.828442602591615
 21
5.013829774501557
 31
0.0
  0
LINE
  5
22E
330
1F
100
AcDbEntity
  8
Object
100
AcDbLine
 10
2.750442602591615
 20
4.956829774501557
 30
0.0
 11
2.778442602591615
 21
4.919829774501558
 31
0.0
  0
LINE
  5
22F
330
1F
100
AcDbEntity
  8
Object
100
AcDbLine
 10
2.822442602591616
 20
5.269829774501557
 30
0.0
 11
2.829442602591615
 21
5.331829774501557
 31
0.0
  0
LINE
  5
230
330
1F
100
AcDbEntity
  8
Object
100
AcDbLine
 10
2.756442602591615
 20
5.412829774501558
 30
0.0
 11
2.734442602591615
 21
5.342829774501558
 31
0.0
  0
LINE
  5
231
330
1F
100
AcDbEntity
  8
Object
100
AcDbLine
 10
2.733442602591615
 20
4.998829774501557
 30
0.0
 11
2.750442602591615
 21
4.956829774501557
 31
0.0
  0
LINE
  5
232
330
1F
100
AcDbEntity
  8
Object
100
AcDbLine
 10
2.828442602591615
 20
5.013829774501557
 30
0.0
 11
2.822442602591616
 21
5.043829774501557
 31
0.0
  0
LINE
  5
233
330
1F
100
AcDbEntity
  8
Object
100
AcDbLine
 10
2.734442602591615
 20
5.342829774501558
 30
0.0
 11
2.727442602591615
 21
5.269829774501557
 31
0.0
  0
LINE
  5
234
330
1F
100
AcDbEntity
  8
Object
100
AcDbLine
 10
2.822442602591616
 20
5.043829774501557
 30
0.0
 11
2.822442602591616
 21
5.269829774501557
 31
0.0
  0
LINE
  5
235
330
1F
100
AcDbEntity
  8
Object
100
AcDbLine
 10
2.733442602591615
 20
4.998829774501557
 30
0.0
 11
2.727442602591615
 21
5.043829774501557
 31
0.0
  0
LINE
  5
236
330
1F
100
AcDbEntity
  8
Object
100
AcDbLine
 10
2.727442602591615
 20
5.043829774501557
 30
0.0
 11
2.727442602591615
 21
5.269829774501557
 31
0.0
  0
LINE
  5
237
330
1F
100
AcDbEntity
  8
Object
100
AcDbLine
 10
3.255442602591616
 20
5.534829774501558
 30
0.0
 11
3.255442602591616
 21
5.419829774501558
 31
0.0
  0
LINE
  5
238
330
1F
100
AcDbEntity
  8
Object
100
AcDbLine
 10
3.362442602591615
 20
4.912829774501558
 30
0.0
 11
3.361442602591615
 21
4.912829774501558
 31
0.0
  0
LINE
  5
239
330
1F
100
AcDbEntity
  8
Object
100
AcDbLine
 10
3.361442602591615
 20
4.912829774501558
 30
0.0
 11
3.360442602591615
 21
4.912829774501558
 31
0.0
  0
LINE
  5
23A
330
1F
100
AcDbEntity
  8
Object
100
AcDbLine
 10
3.360442602591615
 20
4.912829774501558
 30
0.0
 11
3.359442602591615
 21
4.912829774501558
 31
0.0
  0
LINE
  5
23B
330
1F
100
AcDbEntity
  8
Object
100
AcDbLine
 10
7.212442602591615
 20
5.186829774501557
 30
0.0
 11
7.206442602591615
 21
5.188829774501558
 31
0.0
  0
LINE
  5
23C
330
1F
100
AcDbEntity
  8
Object
100
AcDbLine
 10
7.206442602591615
 20
5.188829774501558
 30
0.0
 11
7.201442602591615
 21
5.191829774501558
 31
0.0
  0
LINE
  5
23D
330
1F
100
AcDbEntity
  8
Object
100
AcDbLine
 10
7.198442602591615
 20
5.203829774501557
 30
0.0
 11
7.198442602591615
 21
5.197829774501557
 31
0.0
  0
LINE
  5
23E
330
1F
100
AcDbEntity
  8
Object
100
AcDbLine
 10
7.198442602591615
 20
5.197829774501557
 30
0.0
 11
7.201442602591615
 21
5.191829774501558
 31
0.0
  0
LINE
  5
23F
330
1F
100
AcDbEntity
  8
Object
100
AcDbLine
 10
7.201442602591615
 20
5.208829774501557
 30
0.0
 11
7.198442602591615
 21
5.203829774501557
 31
0.0
  0
LINE
  5
240
330
1F
100
AcDbEntity
  8
Object
100
AcDbLine
 10
7.300442602591616
 20
5.393829774501558
 30
0.0
 11
7.300442602591616
 21
5.534829774501558
 31
0.0
  0
LINE
  5
241
330
1F
100
AcDbEntity
  8
Object
100
AcDbLine
 10
7.602442602591615
 20
4.963829774501557
 30
0.0
 11
7.529442602591616
 21
4.963829774501557
 31
0.0
  0
LINE
  5
242
330
1F
100
AcDbEntity
  8
Object
100
AcDbLine
 10
2.924442602591615
 20
4.963829774501557
 30
0.0
 11
2.902442602591616
 21
4.963829774501557
 31
0.0
  0
LINE
  5
243
330
1F
100
AcDbEntity
  8
Object
100
AcDbLine
 10
7.777442602591615
 20
5.269829774501557
 30
0.0
 11
7.770442602591615
 21
5.342829774501558
 31
0.0
  0
LINE
  5
244
330
1F
100
AcDbEntity
  8
Object
100
AcDbLine
 10
7.770442602591615
 20
5.342829774501558
 30
0.0
 11
7.748442602591615
 21
5.412829774501558
 31
0.0
  0
LINE
  5
245
330
1F
100
AcDbEntity
  8
Object
100
AcDbLine
 10
7.748442602591615
 20
5.412829774501558
 30
0.0
 11
7.714442602591615
 21
5.477829774501557
 31
0.0
  0
LINE
  5
246
330
1F
100
AcDbEntity
  8
Object
100
AcDbLine
 10
7.714442602591615
 20
5.477829774501557
 30
0.0
 11
7.667442602591616
 21
5.534829774501558
 31
0.0
  0
LINE
  5
247
330
1F
100
AcDbEntity
  8
Object
100
AcDbLine
 10
7.667442602591616
 20
5.534829774501558
 30
0.0
 11
7.610442602591615
 21
5.580829774501557
 31
0.0
  0
LINE
  5
248
330
1F
100
AcDbEntity
  8
Object
100
AcDbLine
 10
7.610442602591615
 20
5.580829774501557
 30
0.0
 11
7.545442602591616
 21
5.615829774501557
 31
0.0
  0
LINE
  5
249
330
1F
100
AcDbEntity
  8
Object
100
AcDbLine
 10
7.545442602591616
 20
5.615829774501557
 30
0.0
 11
7.475442602591615
 21
5.636829774501557
 31
0.0
  0
LINE
  5
24A
330
1F
100
AcDbEntity
  8
Object
100
AcDbLine
 10
7.475442602591615
 20
5.636829774501557
 30
0.0
 11
7.402442602591615
 21
5.644829774501557
 31
0.0
  0
LINE
  5
24B
330
1F
100
AcDbEntity
  8
Object
100
AcDbLine
 10
3.255442602591616
 20
5.534829774501558
 30
0.0
 11
3.253442602591615
 21
5.541829774501557
 31
0.0
  0
LINE
  5
24C
330
1F
100
AcDbEntity
  8
Object
100
AcDbLine
 10
3.253442602591615
 20
5.541829774501557
 30
0.0
 11
3.247442602591615
 21
5.547829774501558
 31
0.0
  0
LINE
  5
24D
330
1F
100
AcDbEntity
  8
Object
100
AcDbLine
 10
3.247442602591615
 20
5.547829774501558
 30
0.0
 11
3.240442602591615
 21
5.549829774501557
 31
0.0
  0
LINE
  5
24E
330
1F
100
AcDbEntity
  8
Object
100
AcDbLine
 10
3.365442602591615
 20
4.962829774501557
 30
0.0
 11
3.318442602591615
 21
4.974829774501557
 31
0.0
  0
LINE
  5
24F
330
1F
100
AcDbEntity
  8
Object
100
AcDbLine
 10
3.318442602591615
 20
4.974829774501557
 30
0.0
 11
3.275442602591615
 21
4.999829774501558
 31
0.0
  0
LINE
  5
250
330
1F
100
AcDbEntity
  8
Object
100
AcDbLine
 10
3.275442602591615
 20
4.999829774501558
 30
0.0
 11
3.241442602591615
 21
5.034829774501558
 31
0.0
  0
LINE
  5
251
330
1F
100
AcDbEntity
  8
Object
100
AcDbLine
 10
3.222442602591615
 20
5.221829774501557
 30
0.0
 11
3.249442602591615
 21
5.262829774501557
 31
0.0
  0
LINE
  5
252
330
1F
100
AcDbEntity
  8
Object
100
AcDbLine
 10
3.241442602591615
 20
5.034829774501558
 30
0.0
 11
3.217442602591615
 21
5.077829774501557
 31
0.0
  0
LINE
  5
253
330
1F
100
AcDbEntity
  8
Object
100
AcDbLine
 10
3.208442602591615
 20
5.174829774501557
 30
0.0
 11
3.222442602591615
 21
5.221829774501557
 31
0.0
  0
LINE
  5
254
330
1F
100
AcDbEntity
  8
Object
100
AcDbLine
 10
3.217442602591615
 20
5.077829774501557
 30
0.0
 11
3.206442602591615
 21
5.125829774501557
 31
0.0
  0
LINE
  5
255
330
1F
100
AcDbEntity
  8
Object
100
AcDbLine
 10
3.206442602591615
 20
5.125829774501557
 30
0.0
 11
3.208442602591615
 21
5.174829774501557
 31
0.0
  0
LINE
  5
256
330
1F
100
AcDbEntity
  8
Object
100
AcDbLine
 10
7.315442602591615
 20
5.549829774501557
 30
0.0
 11
7.402442602591615
 21
5.549829774501557
 31
0.0
  0
LINE
  5
257
330
1F
100
AcDbEntity
  8
Object
100
AcDbLine
 10
7.250442602591616
 20
5.534829774501558
 30
0.0
 11
7.250442602591616
 21
5.361829774501558
 31
0.0
  0
LINE
  5
258
330
1F
100
AcDbEntity
  8
Object
100
AcDbLine
 10
7.682442602591615
 20
5.043829774501557
 30
0.0
 11
7.676442602591615
 21
5.013829774501557
 31
0.0
  0
LINE
  5
259
330
1F
100
AcDbEntity
  8
Object
100
AcDbLine
 10
7.676442602591615
 20
5.013829774501557
 30
0.0
 11
7.658442602591615
 21
4.987829774501557
 31
0.0
  0
LINE
  5
25A
330
1F
100
AcDbEntity
  8
Object
100
AcDbLine
 10
7.658442602591615
 20
4.987829774501557
 30
0.0
 11
7.632442602591615
 21
4.969829774501557
 31
0.0
  0
LINE
  5
25B
330
1F
100
AcDbEntity
  8
Object
100
AcDbLine
 10
7.632442602591615
 20
4.969829774501557
 30
0.0
 11
7.602442602591615
 21
4.963829774501557
 31
0.0
  0
LINE
  5
25C
330
1F
100
AcDbEntity
  8
Object
100
AcDbLine
 10
7.529442602591616
 20
4.868829774501557
 30
0.0
 11
7.602442602591615
 21
4.868829774501557
 31
0.0
  0
LINE
  5
25D
330
1F
100
AcDbEntity
  8
Object
100
AcDbLine
 10
3.102442602591615
 20
5.549829774501557
 30
0.0
 11
3.240442602591615
 21
5.549829774501557
 31
0.0
  0
LINE
  5
25E
330
1F
100
AcDbEntity
  8
Object
100
AcDbLine
 10
3.331442602591615
 20
5.549829774501557
 30
0.0
 11
7.235442602591615
 21
5.549829774501557
 31
0.0
  0
LINE
  5
25F
102
{ACAD_REACTORS
330
2E1
102
}
330
1F
100
AcDbEntity
  8
Object
100
AcDbLine
 10
7.402442602591615
 20
5.644829774501557
 30
0.0
 11
3.102442602591615
 21
5.644829774501557
 31
0.0
  0
LINE
  5
260
330
1F
100
AcDbEntity
  8
Object
100
AcDbLine
 10
2.966442602591615
 20
4.939829774501557
 30
0.0
 11
2.972442602591615
 21
4.916829774501557
 31
0.0
  0
LINE
  5
261
330
1F
100
AcDbEntity
  8
Object
100
AcDbLine
 10
2.972442602591615
 20
4.916829774501557
 30
0.0
 11
2.966442602591615
 21
4.892829774501557
 31
0.0
  0
LINE
  5
262
330
1F
100
AcDbEntity
  8
Object
100
AcDbLine
 10
2.966442602591615
 20
4.892829774501557
 30
0.0
 11
2.948442602591615
 21
4.875829774501557
 31
0.0
  0
LINE
  5
263
330
1F
100
AcDbEntity
  8
Object
100
AcDbLine
 10
2.966442602591615
 20
4.939829774501557
 30
0.0
 11
2.948442602591615
 21
4.957829774501558
 31
0.0
  0
LINE
  5
264
330
1F
100
AcDbEntity
  8
Object
100
AcDbLine
 10
2.948442602591615
 20
4.957829774501558
 30
0.0
 11
2.924442602591615
 21
4.963829774501557
 31
0.0
  0
LINE
  5
265
330
1F
100
AcDbEntity
  8
Object
100
AcDbLine
 10
2.924442602591615
 20
4.868829774501557
 30
0.0
 11
2.948442602591615
 21
4.875829774501557
 31
0.0
  0
LINE
  5
266
330
1F
100
AcDbEntity
  8
Object
100
AcDbLine
 10
7.837442602591615
 20
5.206829774501557
 30
0.0
 11
7.814442602591615
 21
5.210829774501558
 31
0.0
  0
LINE
  5
267
330
1F
100
AcDbEntity
  8
Object
100
AcDbLine
 10
7.814442602591615
 20
5.210829774501558
 30
0.0
 11
7.794442602591615
 21
5.223829774501558
 31
0.0
  0
LINE
  5
268
330
1F
100
AcDbEntity
  8
Object
100
AcDbLine
 10
7.794442602591615
 20
5.223829774501558
 30
0.0
 11
7.781442602591615
 21
5.243829774501557
 31
0.0
  0
LINE
  5
269
330
1F
100
AcDbEntity
  8
Object
100
AcDbLine
 10
7.781442602591615
 20
5.243829774501557
 30
0.0
 11
7.777442602591615
 21
5.266829774501557
 31
0.0
  0
LINE
  5
26A
330
1F
100
AcDbEntity
  8
Object
100
AcDbLine
 10
2.727442602591615
 20
5.269829774501557
 30
0.0
 11
2.727442602591615
 21
5.043829774501557
 31
0.0
  0
LINE
  5
26B
330
1F
100
AcDbEntity
  8
Object
100
AcDbLine
 10
3.102442602591615
 20
5.549829774501557
 30
0.0
 11
3.040442602591616
 21
5.542829774501557
 31
0.0
  0
LINE
  5
26C
330
1F
100
AcDbEntity
  8
Object
100
AcDbLine
 10
3.040442602591616
 20
5.542829774501557
 30
0.0
 11
2.981442602591615
 21
5.521829774501558
 31
0.0
  0
LINE
  5
26D
330
1F
100
AcDbEntity
  8
Object
100
AcDbLine
 10
2.981442602591615
 20
5.521829774501558
 30
0.0
 11
2.927442602591615
 21
5.488829774501557
 31
0.0
  0
LINE
  5
26E
330
1F
100
AcDbEntity
  8
Object
100
AcDbLine
 10
2.927442602591615
 20
5.488829774501557
 30
0.0
 11
2.883442602591616
 21
5.443829774501557
 31
0.0
  0
LINE
  5
26F
330
1F
100
AcDbEntity
  8
Object
100
AcDbLine
 10
2.883442602591616
 20
5.443829774501557
 30
0.0
 11
2.850442602591615
 21
5.390829774501558
 31
0.0
  0
LINE
  5
270
330
1F
100
AcDbEntity
  8
Object
100
AcDbLine
 10
2.850442602591615
 20
5.390829774501558
 30
0.0
 11
2.829442602591615
 21
5.331829774501557
 31
0.0
  0
LINE
  5
271
330
1F
100
AcDbEntity
  8
Object
100
AcDbLine
 10
2.829442602591615
 20
5.331829774501557
 30
0.0
 11
2.822442602591616
 21
5.269829774501557
 31
0.0
  0
LINE
  5
272
330
1F
100
AcDbEntity
  8
Object
100
AcDbLine
 10
3.331442602591615
 20
5.549829774501557
 30
0.0
 11
3.324442602591615
 21
5.547829774501558
 31
0.0
  0
LINE
  5
273
330
1F
100
AcDbEntity
  8
Object
100
AcDbLine
 10
3.324442602591615
 20
5.547829774501558
 30
0.0
 11
3.318442602591615
 21
5.542829774501557
 31
0.0
  0
LINE
  5
274
330
1F
100
AcDbEntity
  8
Object
100
AcDbLine
 10
3.318442602591615
 20
5.542829774501557
 30
0.0
 11
3.316442602591616
 21
5.534829774501558
 31
0.0
  0
LINE
  5
275
330
1F
100
AcDbEntity
  8
Object
100
AcDbLine
 10
7.250442602591616
 20
5.534829774501558
 30
0.0
 11
7.248442602591615
 21
5.541829774501557
 31
0.0
  0
LINE
  5
276
330
1F
100
AcDbEntity
  8
Object
100
AcDbLine
 10
7.248442602591615
 20
5.541829774501557
 30
0.0
 11
7.242442602591616
 21
5.547829774501558
 31
0.0
  0
LINE
  5
277
330
1F
100
AcDbEntity
  8
Object
100
AcDbLine
 10
7.242442602591616
 20
5.547829774501558
 30
0.0
 11
7.235442602591615
 21
5.549829774501557
 31
0.0
  0
LINE
  5
278
330
1F
100
AcDbEntity
  8
Object
100
AcDbLine
 10
3.102442602591615
 20
5.644829774501557
 30
0.0
 11
3.029442602591615
 21
5.636829774501557
 31
0.0
  0
LINE
  5
279
330
1F
100
AcDbEntity
  8
Object
100
AcDbLine
 10
3.029442602591615
 20
5.636829774501557
 30
0.0
 11
2.958442602591615
 21
5.615829774501557
 31
0.0
  0
LINE
  5
27A
330
1F
100
AcDbEntity
  8
Object
100
AcDbLine
 10
2.958442602591615
 20
5.615829774501557
 30
0.0
 11
2.894442602591615
 21
5.580829774501557
 31
0.0
  0
LINE
  5
27B
330
1F
100
AcDbEntity
  8
Object
100
AcDbLine
 10
2.894442602591615
 20
5.580829774501557
 30
0.0
 11
2.837442602591615
 21
5.534829774501558
 31
0.0
  0
LINE
  5
27C
330
1F
100
AcDbEntity
  8
Object
100
AcDbLine
 10
2.837442602591615
 20
5.534829774501558
 30
0.0
 11
2.790442602591616
 21
5.477829774501557
 31
0.0
  0
LINE
  5
27D
330
1F
100
AcDbEntity
  8
Object
100
AcDbLine
 10
2.790442602591616
 20
5.477829774501557
 30
0.0
 11
2.756442602591615
 21
5.412829774501558
 31
0.0
  0
LINE
  5
27E
330
1F
100
AcDbEntity
  8
Object
100
AcDbLine
 10
2.756442602591615
 20
5.412829774501558
 30
0.0
 11
2.734442602591615
 21
5.342829774501558
 31
0.0
  0
LINE
  5
27F
102
{ACAD_REACTORS
330
2FB
102
}
330
1F
100
AcDbEntity
  8
Object
100
AcDbLine
 10
2.734442602591615
 20
5.342829774501558
 30
0.0
 11
2.727442602591615
 21
5.269829774501557
 31
0.0
  0
LINE
  5
280
330
1F
100
AcDbEntity
  8
Object
100
AcDbLine
 10
2.822442602591616
 20
5.043829774501557
 30
0.0
 11
2.822442602591616
 21
5.269829774501557
 31
0.0
  0
LINE
  5
281
330
1F
100
AcDbEntity
  8
Object
100
AcDbLine
 10
3.310442602591615
 20
5.412829774501558
 30
0.0
 11
3.301442602591615
 21
5.358829774501558
 31
0.0
  0
LINE
  5
282
330
1F
100
AcDbEntity
  8
Object
100
AcDbLine
 10
3.301442602591615
 20
5.358829774501558
 30
0.0
 11
3.280442602591615
 21
5.307829774501557
 31
0.0
  0
LINE
  5
283
330
1F
100
AcDbEntity
  8
Object
100
AcDbLine
 10
3.280442602591615
 20
5.307829774501557
 30
0.0
 11
3.249442602591615
 21
5.262829774501557
 31
0.0
  0
LINE
  5
284
330
1F
100
AcDbEntity
  8
Object
100
AcDbLine
 10
7.315442602591615
 20
5.549829774501557
 30
0.0
 11
7.307442602591615
 21
5.547829774501558
 31
0.0
  0
LINE
  5
285
330
1F
100
AcDbEntity
  8
Object
100
AcDbLine
 10
7.307442602591615
 20
5.547829774501558
 30
0.0
 11
7.302442602591615
 21
5.541829774501557
 31
0.0
  0
LINE
  5
286
330
1F
100
AcDbEntity
  8
Object
100
AcDbLine
 10
7.302442602591615
 20
5.541829774501557
 30
0.0
 11
7.300442602591616
 21
5.534829774501558
 31
0.0
  0
LINE
  5
287
330
1F
100
AcDbEntity
  8
Object
100
AcDbLine
 10
7.797442602591615
 20
5.111829774501558
 30
0.0
 11
7.787442602591616
 21
5.108829774501558
 31
0.0
  0
LINE
  5
288
330
1F
100
AcDbEntity
  8
Object
100
AcDbLine
 10
7.787442602591616
 20
5.108829774501558
 30
0.0
 11
7.779442602591616
 21
5.101829774501558
 31
0.0
  0
LINE
  5
289
330
1F
100
AcDbEntity
  8
Object
100
AcDbLine
 10
7.779442602591616
 20
5.101829774501558
 30
0.0
 11
7.777442602591615
 21
5.091829774501557
 31
0.0
  0
LINE
  5
28A
330
1F
100
AcDbEntity
  8
Object
100
AcDbLine
 10
7.964442602591615
 20
5.176829774501557
 30
0.0
 11
7.960442602591616
 21
5.191829774501558
 31
0.0
  0
LINE
  5
28B
330
1F
100
AcDbEntity
  8
Object
100
AcDbLine
 10
7.960442602591616
 20
5.191829774501558
 30
0.0
 11
7.949442602591616
 21
5.202829774501557
 31
0.0
  0
LINE
  5
28C
330
1F
100
AcDbEntity
  8
Object
100
AcDbLine
 10
7.949442602591616
 20
5.202829774501557
 30
0.0
 11
7.934442602591615
 21
5.206829774501557
 31
0.0
  0
LINE
  5
28D
330
1F
100
AcDbEntity
  8
Object
100
AcDbLine
 10
3.385442602591615
 20
4.948829774501557
 30
0.0
 11
3.387442602591615
 21
4.936829774501557
 31
0.0
  0
LINE
  5
28E
330
1F
100
AcDbEntity
  8
Object
100
AcDbLine
 10
3.387442602591615
 20
4.936829774501557
 30
0.0
 11
3.383442602591616
 21
4.924829774501557
 31
0.0
  0
LINE
  5
28F
330
1F
100
AcDbEntity
  8
Object
100
AcDbLine
 10
3.385442602591615
 20
4.948829774501557
 30
0.0
 11
3.377442602591615
 21
4.957829774501558
 31
0.0
  0
LINE
  5
290
330
1F
100
AcDbEntity
  8
Object
100
AcDbLine
 10
3.374442602591615
 20
4.915829774501558
 30
0.0
 11
3.383442602591616
 21
4.924829774501557
 31
0.0
  0
LINE
  5
291
330
1F
100
AcDbEntity
  8
Object
100
AcDbLine
 10
3.377442602591615
 20
4.957829774501558
 30
0.0
 11
3.365442602591615
 21
4.962829774501557
 31
0.0
  0
LINE
  5
292
330
1F
100
AcDbEntity
  8
Object
100
AcDbLine
 10
3.362442602591615
 20
4.912829774501558
 30
0.0
 11
3.374442602591615
 21
4.915829774501558
 31
0.0
  0
LINE
  5
293
330
1F
100
AcDbEntity
  8
Object
100
AcDbLine
 10
7.797442602591615
 20
5.111829774501558
 30
0.0
 11
7.934442602591615
 21
5.111829774501558
 31
0.0
  0
LINE
  5
294
330
1F
100
AcDbEntity
  8
Object
100
AcDbLine
 10
2.902442602591616
 20
4.868829774501557
 30
0.0
 11
2.924442602591615
 21
4.868829774501557
 31
0.0
  0
LINE
  5
295
330
1F
100
AcDbEntity
  8
Object
100
AcDbLine
 10
7.222442602591615
 20
5.191829774501558
 30
0.0
 11
7.219442602591615
 21
5.189829774501557
 31
0.0
  0
LINE
  5
296
330
1F
100
AcDbEntity
  8
Object
100
AcDbLine
 10
7.219442602591615
 20
5.189829774501557
 30
0.0
 11
7.216442602591615
 21
5.187829774501557
 31
0.0
  0
LINE
  5
297
330
1F
100
AcDbEntity
  8
Object
100
AcDbLine
 10
7.216442602591615
 20
5.187829774501557
 30
0.0
 11
7.212442602591615
 21
5.186829774501557
 31
0.0
  0
LINE
  5
298
330
1F
100
AcDbEntity
  8
Object
100
AcDbLine
 10
7.682442602591615
 20
5.269829774501557
 30
0.0
 11
7.675442602591616
 21
5.331829774501557
 31
0.0
  0
LINE
  5
299
330
1F
100
AcDbEntity
  8
Object
100
AcDbLine
 10
7.675442602591616
 20
5.331829774501557
 30
0.0
 11
7.654442602591616
 21
5.390829774501558
 31
0.0
  0
LINE
  5
29A
330
1F
100
AcDbEntity
  8
Object
100
AcDbLine
 10
7.654442602591616
 20
5.390829774501558
 30
0.0
 11
7.621442602591615
 21
5.443829774501557
 31
0.0
  0
LINE
  5
29B
330
1F
100
AcDbEntity
  8
Object
100
AcDbLine
 10
7.621442602591615
 20
5.443829774501557
 30
0.0
 11
7.576442602591615
 21
5.488829774501557
 31
0.0
  0
LINE
  5
29C
330
1F
100
AcDbEntity
  8
Object
100
AcDbLine
 10
7.576442602591615
 20
5.488829774501557
 30
0.0
 11
7.523442602591615
 21
5.521829774501558
 31
0.0
  0
LINE
  5
29D
330
1F
100
AcDbEntity
  8
Object
100
AcDbLine
 10
7.523442602591615
 20
5.521829774501558
 30
0.0
 11
7.464442602591615
 21
5.542829774501557
 31
0.0
  0
LINE
  5
29E
330
1F
100
AcDbEntity
  8
Object
100
AcDbLine
 10
7.464442602591615
 20
5.542829774501557
 30
0.0
 11
7.402442602591615
 21
5.549829774501557
 31
0.0
  0
LINE
  5
29F
330
1F
100
AcDbEntity
  8
Object
100
AcDbLine
 10
7.682442602591615
 20
5.269829774501557
 30
0.0
 11
7.682442602591615
 21
5.043829774501557
 31
0.0
  0
LINE
  5
2A0
330
1F
100
AcDbEntity
  8
Object
100
AcDbLine
 10
7.964442602591615
 20
5.141829774501557
 30
0.0
 11
7.960442602591616
 21
5.126829774501557
 31
0.0
  0
LINE
  5
2A1
330
1F
100
AcDbEntity
  8
Object
100
AcDbLine
 10
7.960442602591616
 20
5.126829774501557
 30
0.0
 11
7.949442602591616
 21
5.115829774501557
 31
0.0
  0
LINE
  5
2A2
330
1F
100
AcDbEntity
  8
Object
100
AcDbLine
 10
7.949442602591616
 20
5.115829774501557
 30
0.0
 11
7.934442602591615
 21
5.111829774501558
 31
0.0
  0
LINE
  5
2A3
330
1F
100
AcDbEntity
  8
Object
100
AcDbLine
 10
7.777442602591615
 20
5.266829774501557
 30
0.0
 11
7.777442602591615
 21
5.269829774501557
 31
0.0
  0
LINE
  5
2A4
330
1F
100
AcDbEntity
  8
Object
100
AcDbLine
 10
2.902442602591616
 20
4.963829774501557
 30
0.0
 11
2.871442602591615
 21
4.969829774501557
 31
0.0
  0
LINE
  5
2A5
330
1F
100
AcDbEntity
  8
Object
100
AcDbLine
 10
2.871442602591615
 20
4.969829774501557
 30
0.0
 11
2.845442602591615
 21
4.987829774501557
 31
0.0
  0
LINE
  5
2A6
330
1F
100
AcDbEntity
  8
Object
100
AcDbLine
 10
2.845442602591615
 20
4.987829774501557
 30
0.0
 11
2.828442602591615
 21
5.013829774501557
 31
0.0
  0
LINE
  5
2A7
330
1F
100
AcDbEntity
  8
Object
100
AcDbLine
 10
2.828442602591615
 20
5.013829774501557
 30
0.0
 11
2.822442602591616
 21
5.043829774501557
 31
0.0
  0
LINE
  5
2A8
330
1F
100
AcDbEntity
  8
Object
100
AcDbLine
 10
7.777442602591615
 20
5.043829774501557
 30
0.0
 11
7.771442602591616
 21
4.998829774501557
 31
0.0
  0
LINE
  5
2A9
330
1F
100
AcDbEntity
  8
Object
100
AcDbLine
 10
7.771442602591616
 20
4.998829774501557
 30
0.0
 11
7.753442602591615
 21
4.956829774501557
 31
0.0
  0
LINE
  5
2AA
330
1F
100
AcDbEntity
  8
Object
100
AcDbLine
 10
7.753442602591615
 20
4.956829774501557
 30
0.0
 11
7.725442602591615
 21
4.919829774501558
 31
0.0
  0
LINE
  5
2AB
330
1F
100
AcDbEntity
  8
Object
100
AcDbLine
 10
7.725442602591615
 20
4.919829774501558
 30
0.0
 11
7.689442602591615
 21
4.892829774501557
 31
0.0
  0
LINE
  5
2AC
330
1F
100
AcDbEntity
  8
Object
100
AcDbLine
 10
7.689442602591615
 20
4.892829774501557
 30
0.0
 11
7.647442602591615
 21
4.874829774501558
 31
0.0
  0
LINE
  5
2AD
102
{ACAD_REACTORS
330
2E1
102
}
330
1F
100
AcDbEntity
  8
Object
100
AcDbLine
 10
7.647442602591615
 20
4.874829774501558
 30
0.0
 11
7.602442602591615
 21
4.868829774501557
 31
0.0
  0
LINE
  5
2AE
330
1F
100
AcDbEntity
  8
Object
100
AcDbLine
 10
7.529442602591616
 20
4.963829774501557
 30
0.0
 11
7.506442602591615
 21
4.957829774501558
 31
0.0
  0
LINE
  5
2AF
330
1F
100
AcDbEntity
  8
Object
100
AcDbLine
 10
7.506442602591615
 20
4.875829774501557
 30
0.0
 11
7.529442602591616
 21
4.868829774501557
 31
0.0
  0
LINE
  5
2B0
330
1F
100
AcDbEntity
  8
Object
100
AcDbLine
 10
7.506442602591615
 20
4.957829774501558
 30
0.0
 11
7.488442602591615
 21
4.939829774501557
 31
0.0
  0
LINE
  5
2B1
330
1F
100
AcDbEntity
  8
Object
100
AcDbLine
 10
7.506442602591615
 20
4.875829774501557
 30
0.0
 11
7.488442602591615
 21
4.892829774501557
 31
0.0
  0
LINE
  5
2B2
330
1F
100
AcDbEntity
  8
Object
100
AcDbLine
 10
7.488442602591615
 20
4.892829774501557
 30
0.0
 11
7.482442602591615
 21
4.916829774501557
 31
0.0
  0
LINE
  5
2B3
330
1F
100
AcDbEntity
  8
Object
100
AcDbLine
 10
7.482442602591615
 20
4.916829774501557
 30
0.0
 11
7.488442602591615
 21
4.939829774501557
 31
0.0
  0
LINE
  5
2B4
330
1F
100
AcDbEntity
  8
Object
100
AcDbLine
 10
3.310442602591615
 20
5.412829774501558
 30
0.0
 11
3.316442602591616
 21
5.534829774501558
 31
0.0
  0
LINE
  5
2B5
330
1F
100
AcDbEntity
  8
Object
100
AcDbLine
 10
7.250442602591616
 20
5.361829774501558
 30
0.0
 11
7.244442602591615
 21
5.307829774501557
 31
0.0
  0
LINE
  5
2B6
330
1F
100
AcDbEntity
  8
Object
100
AcDbLine
 10
7.244442602591615
 20
5.307829774501557
 30
0.0
 11
7.228442602591615
 21
5.255829774501558
 31
0.0
  0
LINE
  5
2B7
330
1F
100
AcDbEntity
  8
Object
100
AcDbLine
 10
7.228442602591615
 20
5.255829774501558
 30
0.0
 11
7.201442602591615
 21
5.208829774501557
 31
0.0
  0
LINE
  5
2B8
330
1F
100
AcDbEntity
  8
Object
100
AcDbLine
 10
7.300442602591616
 20
5.393829774501558
 30
0.0
 11
7.295442602591616
 21
5.338829774501557
 31
0.0
  0
LINE
  5
2B9
330
1F
100
AcDbEntity
  8
Object
100
AcDbLine
 10
7.295442602591616
 20
5.338829774501557
 30
0.0
 11
7.280442602591615
 21
5.285829774501557
 31
0.0
  0
LINE
  5
2BA
330
1F
100
AcDbEntity
  8
Object
100
AcDbLine
 10
7.280442602591615
 20
5.285829774501557
 30
0.0
 11
7.255442602591616
 21
5.235829774501557
 31
0.0
  0
LINE
  5
2BB
330
1F
100
AcDbEntity
  8
Object
100
AcDbLine
 10
7.255442602591616
 20
5.235829774501557
 30
0.0
 11
7.222442602591615
 21
5.191829774501558
 31
0.0
  0
LINE
  5
2BC
330
1F
100
AcDbEntity
  8
Object
100
AcDbLine
 10
7.777442602591615
 20
5.043829774501557
 30
0.0
 11
7.777442602591615
 21
5.091829774501557
 31
0.0
  0
LINE
  5
2BD
330
1F
100
AcDbEntity
  8
Object
100
AcDbLine
 10
7.934442602591615
 20
5.206829774501557
 30
0.0
 11
7.837442602591615
 21
5.206829774501557
 31
0.0
  0
LINE
  5
2BE
330
1F
100
AcDbEntity
  8
Object
100
AcDbLine
 10
2.902442602591616
 20
4.868829774501557
 30
0.0
 11
2.857442602591615
 21
4.874829774501558
 31
0.0
  0
LINE
  5
2BF
330
1F
100
AcDbEntity
  8
Object
100
AcDbLine
 10
2.857442602591615
 20
4.874829774501558
 30
0.0
 11
2.815442602591615
 21
4.892829774501557
 31
0.0
  0
LINE
  5
2C0
330
1F
100
AcDbEntity
  8
Object
100
AcDbLine
 10
2.815442602591615
 20
4.892829774501557
 30
0.0
 11
2.778442602591615
 21
4.919829774501558
 31
0.0
  0
LINE
  5
2C1
330
1F
100
AcDbEntity
  8
Object
100
AcDbLine
 10
2.778442602591615
 20
4.919829774501558
 30
0.0
 11
2.750442602591615
 21
4.956829774501557
 31
0.0
  0
LINE
  5
2C2
330
1F
100
AcDbEntity
  8
Object
100
AcDbLine
 10
2.750442602591615
 20
4.956829774501557
 30
0.0
 11
2.733442602591615
 21
4.998829774501557
 31
0.0
  0
LINE
  5
2C3
330
1F
100
AcDbEntity
  8
Object
100
AcDbLine
 10
2.733442602591615
 20
4.998829774501557
 30
0.0
 11
2.727442602591615
 21
5.043829774501557
 31
0.0
  0
LINE
  5
2C4
330
1F
100
AcDbEntity
  8
Object
100
AcDbLine
 10
7.964442602591615
 20
5.141829774501557
 30
0.0
 11
7.964442602591615
 21
5.176829774501557
 31
0.0
  0
DIMENSION
  5
2C5
102
{ACAD_XDICTIONARY
360
2D5
102
}
102
{ACAD_REACTORS
330
2E1
102
}
330
1F
100
AcDbEntity
  8
Dimension
100
AcDbDimension
  2
*D1
 10
8.729986357443412
 20
5.644829774501557
 30
0.0
 11
9.398407410074989
 21
5.832329774501558
 31
0.0
 70
    32
 71
     5
 42
0.7759999999999998
  3
Standard
100
AcDbAlignedDimension
 13
7.602442602591615
 23
4.868829774501557
 33
0.0
 14
7.402442602591615
 24
5.644829774501557
 34
0.0
 50
90.0
100
AcDbRotatedDimension
1001
ACAD
1000
DSTYLE
1002
{
1070
   140
1040
0.09
1002
}
  0
DIMENSION
  5
2E2
102
{ACAD_XDICTIONARY
360
2F0
102
}
102
{ACAD_REACTORS
330
2FB
102
}
330
1F
100
AcDbEntity
  8
Dimension
100
AcDbDimension
  2
*D2
 10
7.964442602591615
 20
6.476557020190888
 30
0.0
 11
5.345942602591615
 21
6.476557020190888
 31
0.0
 70
    32
 71
     5
 42
5.237
  3
Standard
100
AcDbAlignedDimension
 13
2.727442602591615
 23
5.269829774501557
 33
0.0
 14
7.964442602591615
 24
5.176829774501557
 34
0.0
100
AcDbRotatedDimension
1001
ACAD
1000
DSTYLE
1002
{
1070
   140
1040
0.09
1002
}
  0
TEXT
  5
313
330
1F
100
AcDbEntity
  8
Text
100
AcDbText
 10
4.805001503009545
 20
4.165510551036913
 30
0.0
 40
0.125
  1
FRONT VIEW
100
AcDbText
  0
TEXT
  5
329
330
1F
100
AcDbEntity
  8
Title Block
100
AcDbText
 10
6.776695012655547
 20
2.672489851525508
 30
0.0
 40
0.05
  1
FILENAME:
100
AcDbText
  0
TEXT
  5
32A
330
1F
100
AcDbEntity
  8
Title Block
100
AcDbText
 10
6.769285028728251
 20
2.076224967549325
 30
0.0
 40
0.35
  1
PANDUIT
100
AcDbText
  0
TEXT
  5
32B
330
1F
100
AcDbEntity
  8
Title Block
100
AcDbText
 10
8.721820398821382
 20
2.061410940562986
 30
0.0
 40
0.125
  1
CORP. TINLEY PARK, IL
100
AcDbText
  0
TEXT
  5
32C
330
1F
100
AcDbEntity
  8
Title Block
100
AcDbText
 10
6.780399976708615
 20
1.91697409709392
 30
0.0
 40
0.05
  1
TITLE:
100
AcDbText
  0
MTEXT
  5
32D
330
1F
100
AcDbEntity
  8
Title Block
100
AcDbMText
 10
8.0
 20
1.372215793536348
 30
0.0
 40
0.075
 41
2.5
 71
     5
 72
     5
  1
UNLESS OTHERWISE SPECIFIED,\PDIMENSIONAL TOLERANCES ARE:       
 73
     1
 44
1.0
1001
ACAD
1000
MTEXTBEGIN
1070
    73
1070
     1
1070
    44
1040
1.0
1070
    74
1070
     0
1000
MTEXTEND
  0
MTEXT
  5
32E
330
1F
100
AcDbEntity
  8
Title Block
100
AcDbMText
 10
7.392379866610014
 20
1.131487708483632
 30
0.0
 40
0.075
 41
2.5
 71
     5
 72
     5
  1
(.X)\P(.XX)
 73
     1
 44
1.0
1001
ACAD
1000
MTEXTBEGIN
1070
    73
1070
     1
1070
    44
1040
1.0
1070
    74
1070
     0
1000
MTEXTEND
  0
MTEXT
  5
32F
330
1F
100
AcDbEntity
  8
Title Block
100
AcDbMText
 10
8.400140053124118
 20
1.131487708483632
 30
0.0
 40
0.075
 41
2.5
 71
     5
 72
     5
  1
(.XXX)\PANGLES:
 73
     1
 44
1.0
1001
ACAD
1000
MTEXTBEGIN
1070
    73
1070
     1
1070
    44
1040
1.0
1070
    74
1070
     0
1000
MTEXTEND
  0
MTEXT
  5
330
330
1F
100
AcDbEntity
  8
Title Block
100
AcDbMText
 10
10.0
 20
1.25
 30
0.0
 40
0.06
 41
1.5
 71
     5
 72
     5
  1
UNLESS OTHERWISE SPECIFIED,\PALL DIMENSIONS ARE GIVEN IN INCHES, THIRD ANGLE PROJECTION
 73
     1
 44
1.0
1001
ACAD
1000
MTEXTBEGIN
1070
    73
1070
     1
1070
    44
1040
1.0
1070
    74
1070
     0
1000
MTEXTEND
  0
TEXT
  5
331
330
1F
100
AcDbEntity
  8
Title Block
100
AcDbText
 10
6.760764454306187
 20
0.9281373372752312
 30
0.0
 40
0.05
  1
DRAWN BY:
100
AcDbText
  0
TEXT
  5
332
330
1F
100
AcDbEntity
  8
Title Block
100
AcDbText
 10
6.764469474180437
 20
0.6811431865635028
 30
0.0
 40
0.05
  1
DATE:
100
AcDbText
  0
TEXT
  5
333
330
1F
100
AcDbEntity
  8
Title Block
100
AcDbText
 10
6.768174438233497
 20
0.4304455338317968
 30
0.0
 40
0.05
  1
CHECKED BY:
100
AcDbText
  0
TEXT
  5
334
330
1F
100
AcDbEntity
  8
Title Block
100
AcDbText
 10
7.520289593133067
 20
0.9281373372752312
 30
0.0
 40
0.05
  1
MATERIAL:
100
AcDbText
  0
TEXT
  5
335
330
1F
100
AcDbEntity
  8
Title Block
100
AcDbText
 10
9.265344938781542
 20
0.9281373372752312
 30
0.0
 40
0.05
  1
SCALE:
100
AcDbText
  0
TEXT
  5
336
330
1F
100
AcDbEntity
  8
Title Block
100
AcDbText
 10
9.265344938781542
 20
0.6725952630490007
 30
0.0
 40
0.05
  1
DRAWING NUMBER:
100
AcDbText
  0
TEXT
  5
337
330
1F
100
AcDbEntity
  8
Title Block
100
AcDbText
 10
10.34942622928998
 20
0.6762987650689816
 30
0.0
 40
0.05
  1
DRAWING
100
AcDbText
  0
TEXT
  5
338
330
1F
100
AcDbEntity
  8
Title Block
100
AcDbText
 10
10.42723125590085
 20
0.2811642688682026
 30
0.0
 40
0.05
  1
SIZE
100
AcDbText
  0
TEXT
  5
339
330
1F
100
AcDbEntity
  8
Title Block
100
AcDbText
 10
10.38647626056889
 20
0.3911285990572359
 30
0.0
 40
0.25
  1
A
100
AcDbText
  0
MTEXT
  5
33A
330
1F
100
AcDbEntity
  8
Title Block
100
AcDbMText
 10
0.375
 20
0.375
 30
0.0
 40
0.05
 41
0.25
 71
     5
 72
     5
  1
REV
 73
     1
 44
1.0
1001
ACAD
1000
MTEXTBEGIN
1070
    73
1070
     1
1070
    44
1040
1.0
1070
    74
1070
     0
1000
MTEXTEND
  0
MTEXT
  5
33B
330
1F
100
AcDbEntity
  8
Title Block
100
AcDbMText
 10
0.75
 20
0.375
 30
0.0
 40
0.05
 41
0.5
 71
     5
 72
     5
  1
DATE
 73
     1
 44
1.0
1001
ACAD
1000
MTEXTBEGIN
1070
    73
1070
     1
1070
    44
1040
1.0
1070
    74
1070
     0
1000
MTEXTEND
  0
MTEXT
  5
33C
330
1F
100
AcDbEntity
  8
Title Block
100
AcDbMText
 10
1.189999999999999
 20
0.375
 30
0.0
 40
0.05
 41
0.38
 71
     5
 72
     5
  1
BY
 73
     1
 44
1.0
1001
ACAD
1000
MTEXTBEGIN
1070
    73
1070
     1
1070
    44
1040
1.0
1070
    74
1070
     0
1000
MTEXTEND
  0
MTEXT
  5
33D
330
1F
100
AcDbEntity
  8
Title Block
100
AcDbMText
 10
1.564999999999999
 20
0.375
 30
0.0
 40
0.05
 41
0.38
 71
     5
 72
     5
  1
CHK
 73
     1
 44
1.0
1001
ACAD
1000
MTEXTBEGIN
1070
    73
1070
     1
1070
    44
1040
1.0
1070
    74
1070
     0
1000
MTEXTEND
  0
MTEXT
  5
33E
330
1F
100
AcDbEntity
  8
Title Block
100
AcDbMText
 10
3.125
 20
0.375
 30
0.0
 40
0.05
 41
2.75
 71
     5
 72
     5
  1
DESCRIPTION
 73
     1
 44
1.0
1001
ACAD
1000
MTEXTBEGIN
1070
    73
1070
     1
1070
    44
1040
1.0
1070
    74
1070
     0
1000
MTEXTEND
  0
MTEXT
  5
33F
330
1F
100
AcDbEntity
  8
Title Block
100
AcDbMText
 10
5.064999999999999
 20
0.375
 30
0.0
 40
0.05
 41
1.129999999999999
 71
     5
 72
     5
  1
ECN   -   R
 73
     1
 44
1.0
1001
ACAD
1000
MTEXTBEGIN
1070
    73
1070
     1
1070
    44
1040
1.0
1070
    74
1070
     0
1000
MTEXTEND
  0
MTEXT
  5
340
330
1F
100
AcDbEntity
  8
Title Block
100
AcDbMText
 10
5.815
 20
0.375
 30
0.0
 40
0.05
 41
0.38
 71
     5
 72
     5
  1
CUST
 73
     1
 44
1.0
1001
ACAD
1000
MTEXTBEGIN
1070
    73
1070
     1
1070
    44
1040
1.0
1070
    74
1070
     0
1000
MTEXTEND
  0
MTEXT
  5
341
330
1F
100
AcDbEntity
  8
Title Block
100
AcDbMText
 10
6.19
 20
0.375
 30
0.0
 40
0.05
 41
0.38
 71
     5
 72
     5
  1
SUP
 73
     1
 44
1.0
1001
ACAD
1000
MTEXTBEGIN
1070
    73
1070
     1
1070
    44
1040
1.0
1070
    74
1070
     0
1000
MTEXTEND
  0
LWPOLYLINE
  5
342
330
1F
100
AcDbEntity
  8
Title Block
100
AcDbPolyline
 90
        4
 70
     1
 43
0.01
 10
0.25
 20
8.250000000000001
 10
0.25
 20
0.25
 10
10.75
 20
0.25
 10
10.75
 20
8.25
  0
LINE
  5
343
330
1F
100
AcDbEntity
  8
Title Block
100
AcDbLine
 10
10.75
 20
2.749999999999999
 30
0.0
 11
0.25
 21
2.75
 31
0.0
  0
LINE
  5
344
330
1F
100
AcDbEntity
  8
Title Block
100
AcDbLine
 10
6.75
 20
2.75
 30
0.0
 11
6.75
 21
0.25
 31
0.0
  0
LINE
  5
345
330
1F
100
AcDbEntity
  8
Title Block
100
AcDbLine
 10
10.75
 20
2.499999999999999
 30
0.0
 11
0.25
 21
2.5
 31
0.0
  0
LINE
  5
346
330
1F
100
AcDbEntity
  8
Title Block
100
AcDbLine
 10
6.75
 20
2.25
 30
0.0
 11
0.25
 21
2.25
 31
0.0
  0
LINE
  5
347
330
1F
100
AcDbEntity
  8
Title Block
100
AcDbLine
 10
10.75
 20
1.999999999999999
 30
0.0
 11
0.25
 21
2.0
 31
0.0
  0
LINE
  5
348
330
1F
100
AcDbEntity
  8
Title Block
100
AcDbLine
 10
6.75
 20
1.75
 30
0.0
 11
0.25
 21
1.75
 31
0.0
  0
LINE
  5
349
330
1F
100
AcDbEntity
  8
Title Block
100
AcDbLine
 10
10.75
 20
1.499999999999999
 30
0.0
 11
0.25
 21
1.5
 31
0.0
  0
LINE
  5
34A
330
1F
100
AcDbEntity
  8
Title Block
100
AcDbLine
 10
6.75
 20
1.25
 30
0.0
 11
0.25
 21
1.25
 31
0.0
  0
LINE
  5
34B
330
1F
100
AcDbEntity
  8
Title Block
100
AcDbLine
 10
10.75
 20
0.9999999999999996
 30
0.0
 11
0.25
 21
1.0
 31
0.0
  0
LINE
  5
34C
330
1F
100
AcDbEntity
  8
Title Block
100
AcDbLine
 10
7.5
 20
0.75
 30
0.0
 11
0.25
 21
0.7500000000000009
 31
0.0
  0
LINE
  5
34D
330
1F
100
AcDbEntity
  8
Title Block
100
AcDbLine
 10
7.5
 20
0.5
 30
0.0
 11
0.25
 21
0.5000000000000009
 31
0.0
  0
LINE
  5
34E
330
1F
100
AcDbEntity
  8
Title Block
100
AcDbLine
 10
0.25
 20
0.25
 30
0.0
 11
0.25
 21
2.75
 31
0.0
  0
LINE
  5
34F
330
1F
100
AcDbEntity
  8
Title Block
100
AcDbLine
 10
0.5
 20
0.25
 30
0.0
 11
0.5
 21
2.750000000000001
 31
0.0
  0
LINE
  5
350
330
1F
100
AcDbEntity
  8
Title Block
100
AcDbLine
 10
1.0
 20
0.25
 30
0.0
 11
1.0
 21
2.750000000000001
 31
0.0
  0
LINE
  5
351
330
1F
100
AcDbEntity
  8
Title Block
100
AcDbLine
 10
1.375
 20
0.25
 30
0.0
 11
1.375
 21
2.750000000000001
 31
0.0
  0
LINE
  5
352
330
1F
100
AcDbEntity
  8
Title Block
100
AcDbLine
 10
1.75
 20
0.25
 30
0.0
 11
1.75
 21
2.750000000000001
 31
0.0
  0
LINE
  5
353
330
1F
100
AcDbEntity
  8
Title Block
100
AcDbLine
 10
6.375
 20
2.75
 30
0.0
 11
6.375
 21
0.25
 31
0.0
  0
LINE
  5
354
330
1F
100
AcDbEntity
  8
Title Block
100
AcDbLine
 10
6.0
 20
2.75
 30
0.0
 11
6.0
 21
0.25
 31
0.0
  0
LINE
  5
355
330
1F
100
AcDbEntity
  8
Title Block
100
AcDbLine
 10
5.625
 20
2.75
 30
0.0
 11
5.625
 21
0.25
 31
0.0
  0
LINE
  5
356
330
1F
100
AcDbEntity
  8
Title Block
100
AcDbLine
 10
5.25
 20
2.75
 30
0.0
 11
5.25
 21
0.5000000000000002
 31
0.0
  0
LINE
  5
357
330
1F
100
AcDbEntity
  8
Title Block
100
AcDbLine
 10
4.5
 20
2.75
 30
0.0
 11
4.5
 21
0.25
 31
0.0
  0
LINE
  5
358
330
1F
100
AcDbEntity
  8
Title Block
100
AcDbLine
 10
9.25
 20
0.75
 30
0.0
 11
9.25
 21
1.499999999999999
 31
0.0
  0
LINE
  5
359
330
1F
100
AcDbEntity
  8
Title Block
100
AcDbLine
 10
9.25
 20
0.75
 30
0.0
 11
9.25
 21
0.25
 31
0.0
  0
LINE
  5
35A
330
1F
100
AcDbEntity
  8
Title Block
100
AcDbLine
 10
9.25
 20
0.75
 30
0.0
 11
10.75
 21
0.75
 31
0.0
  0
LINE
  5
35B
330
1F
100
AcDbEntity
  8
Title Block
100
AcDbLine
 10
7.5
 20
0.5
 30
0.0
 11
7.5
 21
0.25
 31
0.0
  0
LINE
  5
35C
330
1F
100
AcDbEntity
  8
Title Block
100
AcDbLine
 10
7.5
 20
0.5
 30
0.0
 11
7.5
 21
1.0
 31
0.0
  0
LINE
  5
35D
330
1F
100
AcDbEntity
  8
Title Block
100
AcDbLine
 10
10.25
 20
0.75
 30
0.0
 11
10.25
 21
0.25
 31
0.0
  0
POINT
  5
35E
330
1F
100
AcDbEntity
  8
Title Block
100
AcDbPoint
 10
11.0
 20
8.5
 30
0.0
  0
POINT
  5
35F
330
1F
100
AcDbEntity
  8
Title Block
100
AcDbPoint
 10
11.0
 20
0.0
 30
0.0
  0
POINT
  5
360
330
1F
100
AcDbEntity
  8
Title Block
100
AcDbPoint
 10
0.0
 20
0.0
 30
0.0
  0
POINT
  5
361
330
1F
100
AcDbEntity
  8
Title Block
100
AcDbPoint
 10
0.0
 20
8.500000000000001
 30
0.0
  0
MTEXT
  5
362
330
1F
100
AcDbEntity
  8
Text
100
AcDbMText
 10
0.375
 20
0.6250000000000009
 30
0.0
 40
0.09
 41
0.25
 71
     5
 72
     5
  1
R
 73
     1
 44
1.0
1001
ACAD
1000
MTEXTBEGIN
1070
    73
1070
     1
1070
    44
1040
1.0
1070
    74
1070
     0
1000
MTEXTEND
  0
MTEXT
  5
363
330
1F
100
AcDbEntity
  8
Text
100
AcDbMText
 10
0.75
 20
0.6250000000000009
 30
0.0
 40
0.07
 41
0.5
 71
     5
 72
     5
  1
11-11-05
 73
     1
 44
1.0
1001
ACAD
1000
MTEXTBEGIN
1070
    73
1070
     1
1070
    44
1040
1.0
1070
    74
1070
     0
1000
MTEXTEND
  0
MTEXT
  5
364
330
1F
100
AcDbEntity
  8
Text
100
AcDbMText
 10
1.1875
 20
0.6250000000000009
 30
0.0
 40
0.09
 41
0.375
 71
     5
 72
     5
  1
MSO
 73
     1
 44
1.0
1001
ACAD
1000
MTEXTBEGIN
1070
    73
1070
     1
1070
    44
1040
1.0
1070
    74
1070
     0
1000
MTEXTEND
  0
MTEXT
  5
365
330
1F
100
AcDbEntity
  8
Text
100
AcDbMText
 10
1.5625
 20
0.6250000000000009
 30
0.0
 40
0.07
 41
0.375
 71
     5
 72
     5
  1
DJWA
 73
     1
 44
1.0
1001
ACAD
1000
MTEXTBEGIN
1070
    73
1070
     1
1070
    44
1040
1.0
1070
    74
1070
     0
1000
MTEXTEND
  0
MTEXT
  5
366
330
1F
100
AcDbEntity
  8
Text
100
AcDbMText
 10
3.125
 20
0.6250000000000005
 30
0.0
 40
0.09
 41
2.75
 71
     5
 72
     5
  1
DRAWING RELEASED
 73
     1
 44
1.0
1001
ACAD
1000
MTEXTBEGIN
1070
    73
1070
     1
1070
    44
1040
1.0
1070
    74
1070
     0
1000
MTEXTEND
  0
MTEXT
  5
369
330
1F
100
AcDbEntity
  8
Text
100
AcDbMText
 10
7.474999999999999
 20
0.85
 30
0.0
 40
0.09
 41
0.75
 71
     6
 72
     5
  1
MSO
 73
     1
 44
1.0
1001
ACAD
1000
MTEXTBEGIN
1070
    73
1070
     1
1070
    44
1040
1.0
1070
    74
1070
     0
1000
MTEXTEND
  0
MTEXT
  5
36A
330
1F
100
AcDbEntity
  8
Text
100
AcDbMText
 10
7.474999999999999
 20
0.5999999999999999
 30
0.0
 40
0.09
 41
0.75
 71
     6
 72
     5
  1
11-11-05
 73
     1
 44
1.0
1001
ACAD
1000
MTEXTBEGIN
1070
    73
1070
     1
1070
    44
1040
1.0
1070
    74
1070
     0
1000
MTEXTEND
  0
MTEXT
  5
36B
330
1F
100
AcDbEntity
  8
Text
100
AcDbMText
 10
7.474999999999999
 20
0.3500000000000001
 30
0.0
 40
0.09
 41
0.75
 71
     6
 72
     5
  1
DJWA
 73
     1
 44
1.0
1001
ACAD
1000
MTEXTBEGIN
1070
    73
1070
     1
1070
    44
1040
1.0
1070
    74
1070
     0
1000
MTEXTEND
  0
MTEXT
  5
36C
330
1F
100
AcDbEntity
  8
Text
100
AcDbMText
 10
8.75
 20
2.625
 30
0.0
 40
0.09
 41
4.0
 71
     5
 72
     5
  1
FRHC4.dwg
 73
     1
 44
1.0
1001
ACAD
1000
MTEXTBEGIN
1070
    73
1070
     1
1070
    44
1040
1.0
1070
    74
1070
     0
1000
MTEXTEND
  0
MTEXT
  5
36D
330
1F
100
AcDbEntity
  8
Text
100
AcDbMText
 10
8.75
 20
1.75
 30
0.0
 40
0.09
 41
4.0
 71
     5
 72
     5
  1
FIBERRUNNER 4x4 SNAP-ON HINGED COVER\P(FRHC4**2, FRHC4**6)\PMARKETING DRAWING
 73
     1
 44
1.0
1001
ACAD
1000
MTEXTBEGIN
1070
    73
1070
     1
1070
    44
1040
1.0
1070
    74
1070
     0
1000
MTEXTEND
  0
MTEXT
  5
36E
330
1F
100
AcDbEntity
  8
Text
100
AcDbMText
 10
10.0
 20
0.8749999999999998
 30
0.0
 40
0.12
 41
1.5
 71
     5
 72
     5
  1
FULL
 73
     1
 44
1.0
1001
ACAD
1000
MTEXTBEGIN
1070
    73
1070
     1
1070
    44
1040
1.0
1070
    74
1070
     0
1000
MTEXTEND
  0
MTEXT
  5
36F
330
1F
100
AcDbEntity
  8
Text
100
AcDbMText
 10
9.75
 20
0.5
 30
0.0
 40
0.12
 41
1.0
 71
     5
 72
     5
  1
36897-1092
 73
     1
 44
1.0
1001
ACAD
1000
MTEXTBEGIN
1070
    73
1070
     1
1070
    44
1040
1.0
1070
    74
1070
     0
1000
MTEXTEND
  0
DIMENSION
  5
436
330
1F
100
AcDbEntity
  8
Dimension
100
AcDbDimension
  2
*D3
 10
5.992966227895724
 20
5.549829774501557
 30
0.0
 11
5.36072938579046
 21
5.174829774501558
 31
0.0
 70
    32
  1
0.10 [2.4mm]
 71
     5
 42
0.0949999999999998
  3
Standard
100
AcDbAlignedDimension
 13
5.992966227895724
 23
5.644829774501557
 33
0.0
 14
5.992966227895724
 24
5.549829774501557
 34
0.0
 50
90.0
100
AcDbRotatedDimension
1001
ACAD
1000
DSTYLE
1002
{
1070
    76
1070
     1
1070
    75
1070
     1
1002
}
  0
MTEXT
  5
486
330
1F
100
AcDbEntity
  8
Text
100
AcDbMText
 10
0.375
 20
0.8750000000000008
 30
0.0
 40
0.09
 41
0.25
 71
     5
 72
     5
  1
1
 73
     1
 44
1.0
1001
ACAD
1000
MTEXTBEGIN
1070
    73
1070
     1
1070
    44
1040
1.0
1070
    74
1070
     0
1000
MTEXTEND
  0
MTEXT
  5
487
330
1F
100
AcDbEntity
  8
Text
100
AcDbMText
 10
0.75
 20
0.8750000000000008
 30
0.0
 40
0.07
 41
0.5
 71
     5
 72
     5
  1
6-13-07
 73
     1
 44
1.0
1001
ACAD
1000
MTEXTBEGIN
1070
    73
1070
     1
1070
    44
1040
1.0
1070
    74
1070
     0
1000
MTEXTEND
  0
MTEXT
  5
488
330
1F
100
AcDbEntity
  8
Text
100
AcDbMText
 10
1.1875
 20
0.8750000000000008
 30
0.0
 40
0.09
 41
0.375
 71
     5
 72
     5
  1
DTP
 73
     1
 44
1.0
1001
ACAD
1000
MTEXTBEGIN
1070
    73
1070
     1
1070
    44
1040
1.0
1070
    74
1070
     0
1000
MTEXTEND
  0
MTEXT
  5
489
330
1F
100
AcDbEntity
  8
Text
100
AcDbMText
 10
1.5625
 20
0.8750000000000008
 30
0.0
 40
0.07
 41
0.375
 71
     5
 72
     5
  1
DJWA
 73
     1
 44
1.0
1001
ACAD
1000
MTEXTBEGIN
1070
    73
1070
     1
1070
    44
1040
1.0
1070
    74
1070
     0
1000
MTEXTEND
  0
MTEXT
  5
48A
330
1F
100
AcDbEntity
  8
Text
100
AcDbMText
 10
1.774999999999999
 20
0.8750000000000003
 30
0.0
 40
0.07
 41
2.75
 71
     4
 72
     5
  1
B. ADDED DIMENSION.\PA. REVISED PART NUMBER.
 73
     1
 44
1.0
1001
ACAD
1000
MTEXTBEGIN
1070
    73
1070
     1
1070
    44
1040
1.0
1070
    74
1070
     0
1000
MTEXTEND
  0
LINE
  5
48B
330
1F
100
AcDbEntity
  8
Text
100
AcDbLine
 10
4.952570187902249
 20
5.10074246243073
 30
0.0
 11
4.802570187902249
 21
5.360550083566061
 31
0.0
  0
LINE
  5
48C
330
1F
100
AcDbEntity
  8
Text
100
AcDbLine
 10
4.802570187902249
 20
5.360550083566061
 30
0.0
 11
4.652570187902249
 21
5.10074246243073
 31
0.0
  0
LINE
  5
48D
330
1F
100
AcDbEntity
  8
Text
100
AcDbLine
 10
4.652570187902249
 20
5.10074246243073
 30
0.0
 11
4.952570187902249
 21
5.10074246243073
 31
0.0
  0
TEXT
  5
48E
330
1F
100
AcDbEntity
  8
Text
100
AcDbText
 10
4.768218500010119
 20
5.152609141448827
 30
0.0
 40
0.09
  1
B
100
AcDbText
  0
LINE
  5
495
330
1F
100
AcDbEntity
  8
Text
100
AcDbLine
 10
7.073658414927034
 20
1.521307586714887
 30
0.0
 11
6.923658414927034
 21
1.781115207850218
 31
0.0
  0
LINE
  5
496
330
1F
100
AcDbEntity
  8
Text
100
AcDbLine
 10
6.923658414927034
 20
1.781115207850218
 30
0.0
 11
6.773658414927034
 21
1.521307586714887
 31
0.0
  0
LINE
  5
497
330
1F
100
AcDbEntity
  8
Text
100
AcDbLine
 10
6.773658414927034
 20
1.521307586714887
 30
0.0
 11
7.073658414927034
 21
1.521307586714887
 31
0.0
  0
TEXT
  5
498
330
1F
100
AcDbEntity
  8
Text
100
AcDbText
 10
6.881940762163464
 20
1.58495506444475
 30
0.0
 40
0.09
  1
A
100
AcDbText
  0
ENDSEC
  0
SECTION
  2
OBJECTS
  0
DICTIONARY
  5
C
330
0
100
AcDbDictionary
281
     1
  3
ACAD_COLOR
350
73
  3
ACAD_GROUP
350
D
  3
ACAD_LAYOUT
350
1A
  3
ACAD_MATERIAL
350
72
  3
ACAD_MLINESTYLE
350
17
  3
ACAD_PLOTSETTINGS
350
19
  3
ACAD_PLOTSTYLENAME
350
E
  3
ACAD_TABLESTYLE
350
86
  3
ACDBHEADERROUNDTRIPXREC
350
4AE
  3
AcDbVariableDictionary
350
66
  0
DICTIONARY
  5
371
330
1F
100
AcDbDictionary
280
     1
281
     1
  3
ACAD_SORTENTS
360
372
  0
DICTIONARY
  5
2D5
330
2C5
100
AcDbDictionary
280
     1
281
     1
  3
ACAD_DIMASSOC
360
2E1
  0
DICTIONARY
  5
2F0
330
2E2
100
AcDbDictionary
280
     1
281
     1
  3
ACAD_DIMASSOC
360
2FB
  0
DICTIONARY
  5
73
102
{ACAD_REACTORS
330
C
102
}
330
C
100
AcDbDictionary
281
     1
  0
DICTIONARY
  5
D
102
{ACAD_REACTORS
330
C
102
}
330
C
100
AcDbDictionary
281
     1
  0
DICTIONARY
  5
1A
102
{ACAD_REACTORS
330
C
102
}
330
C
100
AcDbDictionary
281
     1
  3
Layout1
350
59
  3
Layout2
350
5E
  3
Model
350
22
  0
DICTIONARY
  5
72
102
{ACAD_REACTORS
330
C
102
}
330
C
100
AcDbDictionary
281
     1
  0
DICTIONARY
  5
17
102
{ACAD_REACTORS
330
C
102
}
330
C
100
AcDbDictionary
281
     1
  3
Standard
350
18
  0
DICTIONARY
  5
19
102
{ACAD_REACTORS
330
C
102
}
330
C
100
AcDbDictionary
281
     1
  0
ACDBDICTIONARYWDFLT
  5
E
102
{ACAD_REACTORS
330
C
102
}
330
C
100
AcDbDictionary
281
     1
  3
Normal
350
F
100
AcDbDictionaryWithDefault
340
F
  0
DICTIONARY
  5
86
102
{ACAD_REACTORS
330
C
102
}
330
C
100
AcDbDictionary
281
     1
  3
Standard
350
87
  0
DICTIONARY
  5
4AE
102
{ACAD_REACTORS
330
C
102
}
330
C
100
AcDbDictionary
281
     1
  0
DICTIONARY
  5
66
102
{ACAD_REACTORS
330
C
102
}
330
C
100
AcDbDictionary
281
     1
  3
CTABLESTYLE
350
2FD
  3
DIMASSOC
350
67
  3
HIDETEXT
350
6B
  3
PROJECTNAME
350
4AC
  0
SORTENTSTABLE
  5
372
102
{ACAD_REACTORS
330
371
102
}
330
371
100
AcDbSortentsTable
330
1F
331
195
  5
1DD
331
19D
  5
1E5
331
1C0
  5
208
331
313
  5
370
331
27D
  5
2C5
331
23E
  5
286
331
1C8
  5
210
331
207
  5
24F
331
2B4
  5
35D
331
35A
  5
1C2
331
362
  5
1CA
331
285
  5
32E
331
246
  5
28E
331
1D0
  5
218
331
20F
  5
257
331
2BC
  5
365
331
32B
  5
193
331
36A
  5
1D2
331
2C4
  5
36D
331
24E
  5
296
331
217
  5
25F
331
1D8
  5
220
331
28D
  5
336
331
333
  5
19B
331
256
  5
29E
331
1E0
  5
228
331
1A1
  5
1E9
331
295
  5
33E
331
21F
  5
267
331
1E8
  5
230
331
1A9
  5
1F1
331
25E
  5
2A6
331
33B
  5
1A3
331
266
  5
2AE
331
1F0
  5
238
331
1B1
  5
1F9
331
227
  5
26F
331
29D
  5
346
331
343
  5
1AB
331
26E
  5
2B6
331
22F
  5
277
331
1B9
  5
201
331
1F8
  5
240
331
2A5
  5
34E
331
34B
  5
1B3
331
2AD
  5
356
331
237
  5
27F
331
276
  5
2BE
331
353
  5
1BB
331
196
  5
1DE
331
19E
  5
1E6
331
1C1
  5
209
331
200
  5
248
331
2B5
  5
35E
331
23F
  5
287
331
208
  5
250
331
1C9
  5
211
331
27E
  5
2E2
331
35B
  5
1C3
331
363
  5
1CB
331
2BD
  5
366
331
286
  5
32F
331
210
  5
258
331
1D1
  5
219
331
247
  5
28F
331
32C
  5
194
331
36B
  5
1D3
331
28E
  5
337
331
1D9
  5
221
331
24F
  5
297
331
2C5
  5
36E
331
334
  5
19C
331
257
  5
29F
331
1E1
  5
229
331
1A2
  5
1EA
331
218
  5
260
331
25F
  5
2A7
331
220
  5
268
331
1AA
  5
1F2
331
1E9
  5
231
331
296
  5
33F
331
33C
  5
1A4
331
29E
  5
347
331
228
  5
270
331
1F1
  5
239
331
1B2
  5
1FA
331
267
  5
2AF
331
344
  5
1AC
331
2A6
  5
34F
331
230
  5
278
331
1F9
  5
241
331
1BA
  5
202
331
26F
  5
2B7
331
34C
  5
1B4
331
277
  5
2BF
331
2AE
  5
357
331
354
  5
1BC
331
197
  5
1DF
331
19F
  5
1E7
331
201
  5
249
331
1C2
  5
20A
331
238
  5
280
331
27F
  5
313
331
240
  5
288
331
1CA
  5
212
331
209
  5
251
331
2B6
  5
35F
331
35C
  5
1C4
331
364
  5
1CC
331
2BE
  5
367
331
248
  5
290
331
1D2
  5
21A
331
211
  5
259
331
287
  5
330
331
32D
  5
195
331
36C
  5
1D4
331
250
  5
298
331
1DA
  5
222
331
28F
  5
338
331
335
  5
19D
331
219
  5
261
331
1E2
  5
22A
331
1A3
  5
1EB
331
258
  5
2A0
331
297
  5
340
331
260
  5
2A8
331
1EA
  5
232
331
1AB
  5
1F3
331
221
  5
269
331
33D
  5
1A5
331
268
  5
2B0
331
1F2
  5
23A
331
1B3
  5
1FB
331
229
  5
271
331
29F
  5
348
331
345
  5
1AD
331
270
  5
2B8
331
231
  5
279
331
1BB
  5
203
331
1FA
  5
242
331
2A7
  5
350
331
34D
  5
1B5
331
2AF
  5
358
331
355
  5
1BD
331
198
  5
1E0
331
239
  5
281
331
202
  5
24A
331
1C3
  5
20B
331
278
  5
2C0
331
2B7
  5
360
331
241
  5
289
331
20A
  5
252
331
1CB
  5
213
331
280
  5
329
331
35D
  5
1C5
331
365
  5
1CD
331
288
  5
331
331
212
  5
25A
331
1D3
  5
21B
331
249
  5
291
331
2BF
  5
368
331
32E
  5
196
331
36D
  5
1D5
331
1DB
  5
223
331
251
  5
299
331
336
  5
19E
331
259
  5
2A1
331
1E3
  5
22B
331
1A4
  5
1EC
331
21A
  5
262
331
290
  5
339
331
261
  5
2A9
331
222
  5
26A
331
1AC
  5
1F4
331
1EB
  5
233
331
298
  5
341
331
33E
  5
1A6
331
2A0
  5
349
331
22A
  5
272
331
1F3
  5
23B
331
1B4
  5
1FC
331
269
  5
2B1
331
346
  5
1AE
331
2A8
  5
351
331
271
  5
2B9
331
1FB
  5
243
331
1BC
  5
204
331
232
  5
27A
331
34E
  5
1B6
331
356
  5
1BE
331
191
  5
1D9
331
199
  5
1E1
331
279
  5
2C1
331
203
  5
24B
331
1C4
  5
20C
331
23A
  5
282
331
2B0
  5
359
331
35E
  5
1C6
331
281
  5
32A
331
242
  5
28A
331
1CC
  5
214
331
20B
  5
253
331
2B8
  5
361
331
366
  5
1CE
331
32F
  5
197
331
2C0
  5
369
331
24A
  5
292
331
213
  5
25B
331
1D4
  5
21C
331
289
  5
332
331
36E
  5
1D6
331
252
  5
29A
331
1DC
  5
224
331
337
  5
19F
331
291
  5
33A
331
21B
  5
263
331
1E4
  5
22C
331
1A5
  5
1ED
331
25A
  5
2A2
331
299
  5
342
331
262
  5
2AA
331
1EC
  5
234
331
1AD
  5
1F5
331
223
  5
26B
331
33F
  5
1A7
331
26A
  5
2B2
331
1F4
  5
23C
331
1B5
  5
1FD
331
22B
  5
273
331
2A1
  5
34A
331
347
  5
1AF
331
272
  5
2BA
331
233
  5
27B
331
1BD
  5
205
331
1FC
  5
244
331
2A9
  5
352
331
34F
  5
1B7
331
357
  5
1BF
331
192
  5
1DA
331
19A
  5
1E2
331
2B1
  5
35A
331
23B
  5
283
331
204
  5
24C
331
1C5
  5
20D
331
27A
  5
2C2
331
2B9
  5
362
331
282
  5
32B
331
20C
  5
254
331
1CD
  5
215
331
243
  5
28B
331
35F
  5
1C7
331
28A
  5
333
331
214
  5
25C
331
1D5
  5
21D
331
24B
  5
293
331
2C1
  5
36A
331
330
  5
198
331
1DD
  5
225
331
253
  5
29B
331
36F
  5
1D7
331
25B
  5
2A3
331
21C
  5
264
331
1A6
  5
1EE
331
1E5
  5
22D
331
292
  5
33B
331
338
  5
1A0
331
263
  5
2AB
331
224
  5
26C
331
1AE
  5
1F6
331
1ED
  5
235
331
29A
  5
343
331
340
  5
1A8
331
2A2
  5
34B
331
22C
  5
274
331
1F5
  5
23D
331
1B6
  5
1FE
331
26B
  5
2B3
331
348
  5
1B0
331
2AA
  5
353
331
273
  5
2BB
331
1FD
  5
245
331
1BE
  5
206
331
234
  5
27C
331
350
  5
1B8
331
193
  5
1DB
331
19B
  5
1E3
331
27B
  5
2C3
331
205
  5
24D
331
1C6
  5
20E
331
23C
  5
284
331
2B2
  5
35B
331
358
  5
1C0
331
360
  5
1C8
331
283
  5
32C
331
244
  5
28C
331
1CE
  5
216
331
20D
  5
255
331
2BA
  5
363
331
329
  5
191
331
2C2
  5
36B
331
24C
  5
294
331
215
  5
25D
331
1D6
  5
21E
331
28B
  5
334
331
331
  5
199
331
1DE
  5
226
331
254
  5
29C
331
293
  5
33C
331
21D
  5
265
331
1E6
  5
22E
331
1A7
  5
1EF
331
25C
  5
2A4
331
2E2
  5
36F
331
339
  5
1A1
331
29B
  5
344
331
264
  5
2AC
331
1EE
  5
236
331
1AF
  5
1F7
331
225
  5
26D
331
341
  5
1A9
331
26C
  5
2B4
331
22D
  5
275
331
1B7
  5
1FF
331
1F6
  5
23E
331
2A3
  5
34C
331
349
  5
1B1
331
274
  5
2BC
331
235
  5
27D
331
1BF
  5
207
331
1FE
  5
246
331
2AB
  5
354
331
351
  5
1B9
331
194
  5
1DC
331
19C
  5
1E4
331
2B3
  5
35C
331
23D
  5
285
331
206
  5
24E
331
1C7
  5
20F
331
27C
  5
2C4
331
359
  5
1C1
331
361
  5
1C9
331
2BB
  5
364
331
284
  5
32D
331
20E
  5
256
331
1CF
  5
217
331
245
  5
28D
331
32A
  5
192
331
369
  5
1D1
331
28C
  5
335
331
216
  5
25E
331
1D7
  5
21F
331
24D
  5
295
331
2C3
  5
36C
331
332
  5
19A
331
1DF
  5
227
331
255
  5
29D
331
1A0
  5
1E8
331
25D
  5
2A5
331
21E
  5
266
331
1A8
  5
1F0
331
1E7
  5
22F
331
294
  5
33D
331
33A
  5
1A2
331
29C
  5
345
331
226
  5
26E
331
1B0
  5
1F8
331
1EF
  5
237
331
265
  5
2AD
331
342
  5
1AA
331
2A4
  5
34D
331
22E
  5
276
331
1F7
  5
23F
331
1B8
  5
200
331
26D
  5
2B5
331
34A
  5
1B2
331
2AC
  5
355
331
275
  5
2BD
331
1FF
  5
247
331
236
  5
27E
331
352
  5
1BA
  0
DIMASSOC
  5
2E1
102
{ACAD_REACTORS
330
2D5
102
}
330
2D5
100
AcDbDimAssoc
330
2C5
 90
        3
 70
     0
 71
     0
  1
AcDbOsnapPointRef
 72
     1
331
2AD
 73
     2
 91
        0
 40
1.0
 10
0.0
 20
0.0
 30
2.000000000000000E+50
 75
     0
  1
AcDbOsnapPointRef
 72
    13
331
25F
 73
     2
 91
        0
 40
0.0
 10
0.0
 20
0.0
 30
2.000000000000000E+50
 75
     0
  0
DIMASSOC
  5
2FB
102
{ACAD_REACTORS
330
2F0
102
}
330
2F0
100
AcDbDimAssoc
330
2E2
 90
        1
 70
     0
 71
     0
  1
AcDbOsnapPointRef
 72
     1
331
27F
 73
     2
 91
        0
 40
1.0
 10
0.0
 20
0.0
 30
2.000000000000000E+50
 75
     0
  0
LAYOUT
  5
59
102
{ACAD_XDICTIONARY
360
4B1
102
}
102
{ACAD_REACTORS
330
1A
102
}
330
1A
100
AcDbPlotSettings
  1

  2
None
  4

  6

 40
0.0
 41
0.0
 42
0.0
 43
0.0
 44
0.0
 45
0.0
 46
0.0
 47
0.0
 48
0.0
 49
0.0
140
0.0
141
0.0
142
1.0
143
1.0
 70
   688
 72
     0
 73
     0
 74
     5
  7

 75
    16
147
1.0
148
0.0
149
0.0
100
AcDbLayout
  1
Layout1
 70
     1
 71
     1
 10
0.0
 20
0.0
 11
12.0
 21
9.0
 12
0.0
 22
0.0
 32
0.0
 14
0.0
 24
0.0
 34
0.0
 15
0.0
 25
0.0
 35
0.0
146
0.0
 13
0.0
 23
0.0
 33
0.0
 16
1.0
 26
0.0
 36
0.0
 17
0.0
 27
1.0
 37
0.0
 76
     0
330
58
  0
LAYOUT
  5
5E
102
{ACAD_XDICTIONARY
360
4B3
102
}
102
{ACAD_REACTORS
330
1A
102
}
330
1A
100
AcDbPlotSettings
  1

  2
None
  4

  6

 40
0.0
 41
0.0
 42
0.0
 43
0.0
 44
0.0
 45
0.0
 46
0.0
 47
0.0
 48
0.0
 49
0.0
140
0.0
141
0.0
142
1.0
143
1.0
 70
   688
 72
     0
 73
     0
 74
     5
  7

 75
    16
147
1.0
148
0.0
149
0.0
100
AcDbLayout
  1
Layout2
 70
     1
 71
     2
 10
0.0
 20
0.0
 11
12.0
 21
9.0
 12
0.0
 22
0.0
 32
0.0
 14
0.0
 24
0.0
 34
0.0
 15
0.0
 25
0.0
 35
0.0
146
0.0
 13
0.0
 23
0.0
 33
0.0
 16
1.0
 26
0.0
 36
0.0
 17
0.0
 27
1.0
 37
0.0
 76
     0
330
5D
  0
LAYOUT
  5
22
102
{ACAD_XDICTIONARY
360
4AF
102
}
102
{ACAD_REACTORS
330
1A
102
}
330
1A
100
AcDbPlotSettings
  1

  2
none_device
  4
ANSI_A_(8.50_x_11.00_Inches)
  6

 40
6.349999904632568
 41
19.04999923706055
 42
6.350006103515625
 43
19.04998779296875
 44
215.8999938964844
 45
279.3999938964844
 46
0.0
 47
0.0
 48
0.0
 49
0.0
140
0.0
141
0.0
142
1.0
143
2.584895464708373
 70
 11952
 72
     0
 73
     1
 74
     0
  7

 75
     0
147
0.3868628397755418
148
0.0
149
0.0
100
AcDbLayout
  1
Model
 70
     1
 71
     0
 10
0.0
 20
0.0
 11
12.0
 21
9.0
 12
0.0
 22
0.0
 32
0.0
 14
0.0
 24
0.0
 34
0.0
 15
0.0
 25
0.0
 35
0.0
146
0.0
 13
0.0
 23
0.0
 33
0.0
 16
1.0
 26
0.0
 36
0.0
 17
0.0
 27
1.0
 37
0.0
 76
     0
330
1F
  0
MLINESTYLE
  5
18
102
{ACAD_REACTORS
330
17
102
}
330
17
100
AcDbMlineStyle
  2
STANDARD
 70
     0
  3

 62
   256
 51
90.0
 52
90.0
 71
     2
 49
0.5
 62
   256
  6
BYLAYER
 49
-0.5
 62
   256
  6
BYLAYER
  0
ACDBPLACEHOLDER
  5
F
102
{ACAD_REACTORS
330
E
102
}
330
E
  0
TABLESTYLE
  5
87
102
{ACAD_REACTORS
330
86
102
}
330
86
100
AcDbTableStyle
  3
Standard
 70
     0
 71
     0
 40
0.06
 41
0.06
280
     0
281
     0
  7
Standard
140
0.18
170
     2
 62
     0
 63
     7
283
     0
274
    -2
284
     1
 64
     0
275
    -2
285
     1
 65
     0
276
    -2
286
     1
 66
     0
277
    -2
287
     1
 67
     0
278
    -2
288
     1
 68
     0
279
    -2
289
     1
 69
     0
  7
Standard
140
0.25
170
     5
 62
     0
 63
     7
283
     0
274
    -2
284
     1
 64
     0
275
    -2
285
     1
 65
     0
276
    -2
286
     1
 66
     0
277
    -2
287
     1
 67
     0
278
    -2
288
     1
 68
     0
279
    -2
289
     1
 69
     0
  7
Standard
140
0.18
170
     5
 62
     0
 63
     7
283
     0
274
    -2
284
     1
 64
     0
275
    -2
285
     1
 65
     0
276
    -2
286
     1
 66
     0
277
    -2
287
     1
 67
     0
278
    -2
288
     1
 68
     0
279
    -2
289
     1
 69
     0
  0
DICTIONARYVAR
  5
2FD
102
{ACAD_REACTORS
330
66
102
}
330
66
100
DictionaryVariables
280
     0
  1
STANDARD
  0
DICTIONARYVAR
  5
67
102
{ACAD_REACTORS
330
66
102
}
330
66
100
DictionaryVariables
280
     0
  1
2
  0
DICTIONARYVAR
  5
6B
102
{ACAD_REACTORS
330
66
102
}
330
66
100
DictionaryVariables
280
     0
  1
1
  0
DICTIONARYVAR
  5
4AC
102
{ACAD_REACTORS
330
66
102
}
330
66
100
DictionaryVariables
280
     0
  1

  0
DICTIONARY
  5
4B1
330
59
100
AcDbDictionary
280
     1
281
     1
  3
ACAD_XREC_ROUNDTRIP
360
4B2
  0
DICTIONARY
  5
4B3
330
5E
100
AcDbDictionary
280
     1
281
     1
  3
ACAD_XREC_ROUNDTRIP
360
4B4
  0
DICTIONARY
  5
4AF
330
22
100
AcDbDictionary
280
     1
281
     1
  3
ACAD_XREC_ROUNDTRIP
360
4B0
  0
XRECORD
  5
4B2
102
{ACAD_REACTORS
330
4B1
102
}
330
4B1
100
AcDbXrecord
280
     1
102
SHADEPLOT
 70
     0
102
SHADEPLOTRESLEVEL
 70
     2
102
SHADEPLOTCUSTOMDPI
 70
   300
  0
XRECORD
  5
4B4
102
{ACAD_REACTORS
330
4B3
102
}
330
4B3
100
AcDbXrecord
280
     1
102
SHADEPLOT
 70
     0
102
SHADEPLOTRESLEVEL
 70
     2
102
SHADEPLOTCUSTOMDPI
 70
   300
  0
XRECORD
  5
4B0
102
{ACAD_REACTORS
330
4AF
102
}
330
4AF
100
AcDbXrecord
280
     1
102
SHADEPLOT
 70
     0
102
SHADEPLOTRESLEVEL
 70
     2
102
SHADEPLOTCUSTOMDPI
 70
   300
  0
ENDSEC
  0
EOF
