  0
SECTION
  2
HEADER
  9
$ACADVER
  1
AC1015
  9
$ACADMAINTVER
 70
    20
  9
$DWGCODEPAGE
  3
ANSI_1252
  9
$INSBASE
 10
0.0
 20
0.0
 30
0.0
  9
$EXTMIN
 10
-0.025
 20
-0.025
 30
0.0
  9
$EXTMAX
 10
22.025
 20
17.025
 30
0.0
  9
$LIMMIN
 10
0.0
 20
0.0
  9
$LIMMAX
 10
12.0
 20
9.0
  9
$ORTHOMODE
 70
     0
  9
$REGENMODE
 70
     1
  9
$FILLMODE
 70
     1
  9
$QTEXTMODE
 70
     0
  9
$MIRRTEXT
 70
     0
  9
$LTSCALE
 40
1.0
  9
$ATTMODE
 70
     1
  9
$TEXTSIZE
 40
0.125
  9
$TRACEWID
 40
0.05
  9
$TEXTSTYLE
  7
Standard
  9
$CLAYER
  8
0
  9
$CELTYPE
  6
ByLayer
  9
$CECOLOR
 62
   256
  9
$CELTSCALE
 40
1.0
  9
$DISPSILH
 70
     0
  9
$DIMSCALE
 40
1.0
  9
$DIMASZ
 40
0.1875
  9
$DIMEXO
 40
0.0625
  9
$DIMDLI
 40
0.38
  9
$DIMRND
 40
0.0
  9
$DIMDLE
 40
0.0
  9
$DIMEXE
 40
0.125
  9
$DIMTP
 40
0.0
  9
$DIMTM
 40
0.0
  9
$DIMTXT
 40
0.125
  9
$DIMCEN
 40
0.09
  9
$DIMTSZ
 40
0.0
  9
$DIMTOL
 70
     0
  9
$DIMLIM
 70
     0
  9
$DIMTIH
 70
     1
  9
$DIMTOH
 70
     1
  9
$DIMSE1
 70
     0
  9
$DIMSE2
 70
     0
  9
$DIMTAD
 70
     0
  9
$DIMZIN
 70
     0
  9
$DIMBLK
  1

  9
$DIMASO
 70
     1
  9
$DIMSHO
 70
     1
  9
$DIMPOST
  1

  9
$DIMAPOST
  1
mm
  9
$DIMALT
 70
     1
  9
$DIMALTD
 70
     1
  9
$DIMALTF
 40
25.4
  9
$DIMLFAC
 40
1.0
  9
$DIMTOFL
 70
     0
  9
$DIMTVP
 40
0.0
  9
$DIMTIX
 70
     0
  9
$DIMSOXD
 70
     0
  9
$DIMSAH
 70
     0
  9
$DIMBLK1
  1

  9
$DIMBLK2
  1

  9
$DIMSTYLE
  2
Standard
  9
$DIMCLRD
 70
     0
  9
$DIMCLRE
 70
     0
  9
$DIMCLRT
 70
     0
  9
$DIMTFAC
 40
1.0
  9
$DIMGAP
 40
0.09
  9
$DIMJUST
 70
     0
  9
$DIMSD1
 70
     0
  9
$DIMSD2
 70
     0
  9
$DIMTOLJ
 70
     1
  9
$DIMTZIN
 70
     0
  9
$DIMALTZ
 70
     0
  9
$DIMALTTZ
 70
     0
  9
$DIMUPT
 70
     0
  9
$DIMDEC
 70
     2
  9
$DIMTDEC
 70
     2
  9
$DIMALTU
 70
     2
  9
$DIMALTTD
 70
     1
  9
$DIMTXSTY
  7
Standard
  9
$DIMAUNIT
 70
     0
  9
$DIMADEC
 70
     0
  9
$DIMALTRND
 40
0.0
  9
$DIMAZIN
 70
     0
  9
$DIMDSEP
 70
    46
  9
$DIMATFIT
 70
     3
  9
$DIMFRAC
 70
     0
  9
$DIMLDRBLK
  1

  9
$DIMLUNIT
 70
     2
  9
$DIMLWD
 70
    -2
  9
$DIMLWE
 70
    -2
  9
$DIMTMOVE
 70
     0
  9
$LUNITS
 70
     2
  9
$LUPREC
 70
     4
  9
$SKETCHINC
 40
0.1
  9
$FILLETRAD
 40
0.0
  9
$AUNITS
 70
     0
  9
$AUPREC
 70
     0
  9
$MENU
  1
.
  9
$ELEVATION
 40
0.0
  9
$PELEVATION
 40
0.0
  9
$THICKNESS
 40
0.0
  9
$LIMCHECK
 70
     0
  9
$CHAMFERA
 40
0.0
  9
$CHAMFERB
 40
0.0
  9
$CHAMFERC
 40
0.0
  9
$CHAMFERD
 40
0.0
  9
$SKPOLY
 70
     0
  9
$TDCREATE
 40
2453550.413764410
  9
$TDUCREATE
 40
2453550.622097743
  9
$TDUPDATE
 40
2454294.638741343
  9
$TDUUPDATE
 40
2454294.847074676
  9
$TDINDWG
 40
0.0212310764
  9
$TDUSRTIMER
 40
0.0212310764
  9
$USRTIMER
 70
     1
  9
$ANGBASE
 50
0.0
  9
$ANGDIR
 70
     0
  9
$PDMODE
 70
     2
  9
$PDSIZE
 40
0.025
  9
$PLINEWID
 40
0.0
  9
$SPLFRAME
 70
     0
  9
$SPLINETYPE
 70
     6
  9
$SPLINESEGS
 70
     8
  9
$HANDSEED
  5
78F
  9
$SURFTAB1
 70
     6
  9
$SURFTAB2
 70
     6
  9
$SURFTYPE
 70
     6
  9
$SURFU
 70
     6
  9
$SURFV
 70
     6
  9
$UCSBASE
  2

  9
$UCSNAME
  2

  9
$UCSORG
 10
0.0
 20
0.0
 30
0.0
  9
$UCSXDIR
 10
1.0
 20
0.0
 30
0.0
  9
$UCSYDIR
 10
0.0
 20
1.0
 30
0.0
  9
$UCSORTHOREF
  2

  9
$UCSORTHOVIEW
 70
     0
  9
$UCSORGTOP
 10
0.0
 20
0.0
 30
0.0
  9
$UCSORGBOTTOM
 10
0.0
 20
0.0
 30
0.0
  9
$UCSORGLEFT
 10
0.0
 20
0.0
 30
0.0
  9
$UCSORGRIGHT
 10
0.0
 20
0.0
 30
0.0
  9
$UCSORGFRONT
 10
0.0
 20
0.0
 30
0.0
  9
$UCSORGBACK
 10
0.0
 20
0.0
 30
0.0
  9
$PUCSBASE
  2

  9
$PUCSNAME
  2

  9
$PUCSORG
 10
0.0
 20
0.0
 30
0.0
  9
$PUCSXDIR
 10
1.0
 20
0.0
 30
0.0
  9
$PUCSYDIR
 10
0.0
 20
1.0
 30
0.0
  9
$PUCSORTHOREF
  2

  9
$PUCSORTHOVIEW
 70
     0
  9
$PUCSORGTOP
 10
0.0
 20
0.0
 30
0.0
  9
$PUCSORGBOTTOM
 10
0.0
 20
0.0
 30
0.0
  9
$PUCSORGLEFT
 10
0.0
 20
0.0
 30
0.0
  9
$PUCSORGRIGHT
 10
0.0
 20
0.0
 30
0.0
  9
$PUCSORGFRONT
 10
0.0
 20
0.0
 30
0.0
  9
$PUCSORGBACK
 10
0.0
 20
0.0
 30
0.0
  9
$USERI1
 70
     0
  9
$USERI2
 70
     0
  9
$USERI3
 70
     0
  9
$USERI4
 70
     0
  9
$USERI5
 70
     0
  9
$USERR1
 40
0.0
  9
$USERR2
 40
0.0
  9
$USERR3
 40
0.0
  9
$USERR4
 40
0.0
  9
$USERR5
 40
0.0
  9
$WORLDVIEW
 70
     1
  9
$SHADEDGE
 70
     3
  9
$SHADEDIF
 70
    70
  9
$TILEMODE
 70
     1
  9
$MAXACTVP
 70
    64
  9
$PINSBASE
 10
0.0
 20
0.0
 30
0.0
  9
$PLIMCHECK
 70
     0
  9
$PEXTMIN
 10
0.0
 20
0.0
 30
0.0
  9
$PEXTMAX
 10
0.0
 20
0.0
 30
0.0
  9
$PLIMMIN
 10
0.0
 20
0.0
  9
$PLIMMAX
 10
12.0
 20
9.0
  9
$UNITMODE
 70
     0
  9
$VISRETAIN
 70
     1
  9
$PLINEGEN
 70
     0
  9
$PSLTSCALE
 70
     1
  9
$TREEDEPTH
 70
  3020
  9
$CMLSTYLE
  2
Standard
  9
$CMLJUST
 70
     0
  9
$CMLSCALE
 40
1.0
  9
$PROXYGRAPHICS
 70
     1
  9
$MEASUREMENT
 70
     0
  9
$CELWEIGHT
370
    -1
  9
$ENDCAPS
280
     0
  9
$JOINSTYLE
280
     0
  9
$LWDISPLAY
290
     0
  9
$INSUNITS
 70
     1
  9
$HYPERLINKBASE
  1

  9
$STYLESHEET
  1

  9
$XEDIT
290
     1
  9
$CEPSNTYPE
380
     0
  9
$PSTYLEMODE
290
     1
  9
$FINGERPRINTGUID
  2
{78914BB6-A719-4F62-B5BC-4E4ACBA9ECF8}
  9
$VERSIONGUID
  2
{7B6280A0-E6D5-4B53-A577-9974FC4102EC}
  9
$EXTNAMES
290
     1
  9
$PSVPSCALE
 40
0.0
  9
$OLESTARTUP
290
     0
  0
ENDSEC
  0
SECTION
  2
CLASSES
  0
CLASS
  1
ACDBDICTIONARYWDFLT
  2
AcDbDictionaryWithDefault
  3
ObjectDBX Classes
 90
        0
280
     0
281
     0
  0
CLASS
  1
ACDBPLACEHOLDER
  2
AcDbPlaceHolder
  3
ObjectDBX Classes
 90
        0
280
     0
281
     0
  0
CLASS
  1
LAYOUT
  2
AcDbLayout
  3
ObjectDBX Classes
 90
        0
280
     0
281
     0
  0
CLASS
  1
DICTIONARYVAR
  2
AcDbDictionaryVar
  3
ObjectDBX Classes
 90
        0
280
     0
281
     0
  0
CLASS
  1
TABLESTYLE
  2
AcDbTableStyle
  3
ObjectDBX Classes
 90
     2047
280
     0
281
     0
  0
CLASS
  1
DIMASSOC
  2
AcDbDimAssoc
  3
"AcDbDimAssoc|Product Desc:     AcDim ARX App For Dimension|Company:          Autodesk, Inc.|WEB Address:      www.autodesk.com"
 90
        0
280
     0
281
     0
  0
CLASS
  1
SORTENTSTABLE
  2
AcDbSortentsTable
  3
ObjectDBX Classes
 90
        0
280
     0
281
     0
  0
ENDSEC
  0
SECTION
  2
TABLES
  0
TABLE
  2
VPORT
  5
8
330
0
100
AcDbSymbolTable
 70
     2
  0
VPORT
  5
787
330
8
100
AcDbSymbolTableRecord
100
AcDbViewportTableRecord
  2
*Active
 70
     0
 10
0.0
 20
0.0
 11
1.0
 21
1.0
 12
11.00000005133915
 22
9.100370934841949
 13
0.0
 23
0.0
 14
0.5
 24
0.5
 15
0.5
 25
0.5
 16
0.0
 26
0.0
 36
1.0
 17
0.0
 27
0.0
 37
0.0
 40
18.36108398232838
 41
1.499364675984752
 42
50.0
 43
0.0
 44
0.0
 50
0.0
 51
0.0
 71
     0
 72
  1000
 73
     1
 74
     3
 75
     0
 76
     0
 77
     0
 78
     0
281
     0
 65
     1
110
0.0
120
0.0
130
0.0
111
1.0
121
0.0
131
0.0
112
0.0
122
1.0
132
0.0
 79
     0
146
0.0
  0
ENDTAB
  0
TABLE
  2
LTYPE
  5
5
330
0
100
AcDbSymbolTable
 70
     1
  0
LTYPE
  5
14
330
5
100
AcDbSymbolTableRecord
100
AcDbLinetypeTableRecord
  2
ByBlock
 70
     0
  3

 72
    65
 73
     0
 40
0.0
  0
LTYPE
  5
15
330
5
100
AcDbSymbolTableRecord
100
AcDbLinetypeTableRecord
  2
ByLayer
 70
     0
  3

 72
    65
 73
     0
 40
0.0
  0
LTYPE
  5
16
330
5
100
AcDbSymbolTableRecord
100
AcDbLinetypeTableRecord
  2
Continuous
 70
     0
  3
Solid line
 72
    65
 73
     0
 40
0.0
  0
ENDTAB
  0
TABLE
  2
LAYER
  5
2
330
0
100
AcDbSymbolTable
 70
     6
  0
LAYER
  5
10
330
2
100
AcDbSymbolTableRecord
100
AcDbLayerTableRecord
  2
0
 70
     0
 62
     7
  6
Continuous
370
    -3
390
F
  0
LAYER
  5
8B
330
2
100
AcDbSymbolTableRecord
100
AcDbLayerTableRecord
  2
Title Block
 70
     0
 62
     3
  6
Continuous
370
    -3
390
F
  0
LAYER
  5
8C
330
2
100
AcDbSymbolTableRecord
100
AcDbLayerTableRecord
  2
Dimension
 70
     0
 62
     6
  6
Continuous
370
    -3
390
F
  0
LAYER
  5
8D
330
2
100
AcDbSymbolTableRecord
100
AcDbLayerTableRecord
  2
Text
 70
     0
 62
     1
  6
Continuous
370
    -3
390
F
  0
LAYER
  5
8E
330
2
100
AcDbSymbolTableRecord
100
AcDbLayerTableRecord
  2
Object
 70
     0
 62
     5
  6
Continuous
370
    -3
390
F
  0
LAYER
  5
5C0
330
2
100
AcDbSymbolTableRecord
100
AcDbLayerTableRecord
  2
Defpoints
 70
     0
 62
     7
  6
Continuous
290
     0
370
    -3
390
F
  0
ENDTAB
  0
TABLE
  2
STYLE
  5
3
330
0
100
AcDbSymbolTable
 70
     1
  0
STYLE
  5
11
330
3
100
AcDbSymbolTableRecord
100
AcDbTextStyleTableRecord
  2
Standard
 70
     0
 40
0.0
 41
1.0
 50
0.0
 71
     0
 42
0.125
  3
technic_.ttf
  4

1001
ACAD
1000
Technic
1071
      514
  0
ENDTAB
  0
TABLE
  2
VIEW
  5
6
330
0
100
AcDbSymbolTable
 70
     0
  0
ENDTAB
  0
TABLE
  2
UCS
  5
7
330
0
100
AcDbSymbolTable
 70
     0
  0
ENDTAB
  0
TABLE
  2
APPID
  5
9
330
0
100
AcDbSymbolTable
 70
     4
  0
APPID
  5
12
330
9
100
AcDbSymbolTableRecord
100
AcDbRegAppTableRecord
  2
ACAD
 70
     0
  0
APPID
  5
90
330
9
100
AcDbSymbolTableRecord
100
AcDbRegAppTableRecord
  2
DCO15
 70
     0
  0
APPID
  5
91
330
9
100
AcDbSymbolTableRecord
100
AcDbRegAppTableRecord
  2
AcAecLayerStandard
 70
     0
  0
APPID
  5
E6
330
9
100
AcDbSymbolTableRecord
100
AcDbRegAppTableRecord
  2
ACAD_DSTYLE_DIMTEXT_FILL
 70
     0
  0
ENDTAB
  0
TABLE
  2
DIMSTYLE
  5
A
330
0
100
AcDbSymbolTable
 70
     1
100
AcDbDimStyleTable
 71
     1
340
27
  0
DIMSTYLE
105
27
102
{ACAD_REACTORS
330
5BF
330
649
330
664
102
}
330
A
100
AcDbSymbolTableRecord
100
AcDbDimStyleTableRecord
  2
Standard
 70
     0
  4
mm
 41
0.1875
 44
0.125
140
0.125
170
     1
171
     1
271
     2
272
     2
274
     1
340
11
  0
ENDTAB
  0
TABLE
  2
BLOCK_RECORD
  5
1
330
0
100
AcDbSymbolTable
 70
     4
  0
BLOCK_RECORD
  5
1F
102
{ACAD_XDICTIONARY
360
765
102
}
330
1
100
AcDbSymbolTableRecord
100
AcDbBlockTableRecord
  2
*Model_Space
340
22
  0
BLOCK_RECORD
  5
58
330
1
100
AcDbSymbolTableRecord
100
AcDbBlockTableRecord
  2
*Paper_Space
340
59
  0
BLOCK_RECORD
  5
5D
330
1
100
AcDbSymbolTableRecord
100
AcDbBlockTableRecord
  2
*Paper_Space0
340
5E
  0
BLOCK_RECORD
  5
5C1
330
1
100
AcDbSymbolTableRecord
100
AcDbBlockTableRecord
  2
*D1
340
0
  0
BLOCK_RECORD
  5
64A
330
1
100
AcDbSymbolTableRecord
100
AcDbBlockTableRecord
  2
*D2
340
0
  0
BLOCK_RECORD
  5
665
330
1
100
AcDbSymbolTableRecord
100
AcDbBlockTableRecord
  2
*D3
340
0
  0
ENDTAB
  0
ENDSEC
  0
SECTION
  2
BLOCKS
  0
BLOCK
  5
20
330
1F
100
AcDbEntity
  8
0
100
AcDbBlockBegin
  2
*Model_Space
 70
     0
 10
0.0
 20
0.0
 30
0.0
  3
*Model_Space
  1

  0
ENDBLK
  5
21
330
1F
100
AcDbEntity
  8
0
100
AcDbBlockEnd
  0
BLOCK
  5
5A
330
58
100
AcDbEntity
 67
     1
  8
0
100
AcDbBlockBegin
  2
*Paper_Space
 70
     0
 10
0.0
 20
0.0
 30
0.0
  3
*Paper_Space
  1

  0
ENDBLK
  5
5B
330
58
100
AcDbEntity
 67
     1
  8
0
100
AcDbBlockEnd
  0
BLOCK
  5
5F
330
5D
100
AcDbEntity
  8
0
100
AcDbBlockBegin
  2
*Paper_Space0
 70
     0
 10
0.0
 20
0.0
 30
0.0
  3
*Paper_Space0
  1

  0
ENDBLK
  5
60
330
5D
100
AcDbEntity
  8
0
100
AcDbBlockEnd
  0
BLOCK
  5
5CC
330
5C1
100
AcDbEntity
  8
0
100
AcDbBlockBegin
  2
*D1
 70
     1
 10
0.0
 20
0.0
 30
0.0
  3
*D1
  1

  0
LINE
  5
709
330
5C1
100
AcDbEntity
  8
Dimension
 62
     0
370
    -2
100
AcDbLine
 10
8.4815
 20
13.88015786049746
 30
0.0
 11
9.804230674768209
 21
13.88015786049746
 31
0.0
  0
LINE
  5
70A
330
5C1
100
AcDbEntity
  8
Dimension
 62
     0
370
    -2
100
AcDbLine
 10
8.531499999999999
 20
14.98515786049746
 30
0.0
 11
9.804230674768209
 21
14.98515786049746
 31
0.0
  0
LINE
  5
70B
330
5C1
100
AcDbEntity
  8
Dimension
 62
     0
370
    -2
100
AcDbLine
 10
9.679230674768209
 20
14.06765786049746
 30
0.0
 11
9.679230674768209
 21
14.25512131078986
 31
0.0
  0
LINE
  5
70C
330
5C1
100
AcDbEntity
  8
Dimension
 62
     0
370
    -2
100
AcDbLine
 10
9.679230674768209
 20
14.79765786049746
 30
0.0
 11
9.679230674768209
 21
14.61019441020506
 31
0.0
  0
SOLID
  5
70D
330
5C1
100
AcDbEntity
  8
Dimension
 62
     0
100
AcDbTrace
 10
9.647980674768209
 20
14.06765786049746
 30
0.0
 11
9.710480674768209
 21
14.06765786049746
 31
0.0
 12
9.679230674768209
 22
13.88015786049746
 32
0.0
 13
9.679230674768209
 23
13.88015786049746
 33
0.0
  0
SOLID
  5
70E
330
5C1
100
AcDbEntity
  8
Dimension
 62
     0
100
AcDbTrace
 10
9.647980674768209
 20
14.79765786049746
 30
0.0
 11
9.710480674768209
 21
14.79765786049746
 31
0.0
 12
9.679230674768209
 22
14.98515786049746
 32
0.0
 13
9.679230674768209
 23
14.98515786049746
 33
0.0
  0
MTEXT
  5
70F
330
5C1
100
AcDbEntity
  8
Dimension
 62
     0
100
AcDbMText
 10
9.679230674768206
 20
14.43265786049746
 30
0.0
 40
0.125
 41
0.0
 71
     5
 72
     1
  1
\A1;1.10 [28.1mm]
 73
     1
 44
1.0
1001
ACAD
1000
MTEXTBEGIN
1070
    73
1070
     1
1070
    44
1040
1.0
1070
    74
1070
     0
1000
MTEXTEND
  0
POINT
  5
710
330
5C1
100
AcDbEntity
  8
Defpoints
 62
     0
100
AcDbPoint
 10
8.419
 20
13.88015786049746
 30
0.0
  0
POINT
  5
711
330
5C1
100
AcDbEntity
  8
Defpoints
 62
     0
100
AcDbPoint
 10
8.468999999999999
 20
14.98515786049746
 30
0.0
  0
POINT
  5
712
330
5C1
100
AcDbEntity
  8
Defpoints
 62
     0
100
AcDbPoint
 10
9.679230674768209
 20
14.98515786049746
 30
0.0
  0
ENDBLK
  5
5CD
330
5C1
100
AcDbEntity
  8
0
100
AcDbBlockEnd
  0
BLOCK
  5
655
330
64A
100
AcDbEntity
  8
0
100
AcDbBlockBegin
  2
*D2
 70
     1
 10
0.0
 20
0.0
 30
0.0
  3
*D2
  1

  0
LINE
  5
6F5
330
64A
100
AcDbEntity
  8
Dimension
 62
     0
370
    -2
100
AcDbLine
 10
3.968999999999999
 20
9.42665786049746
 30
0.0
 11
3.968999999999999
 21
10.51574295645709
 31
0.0
  0
LINE
  5
6F6
330
64A
100
AcDbEntity
  8
Dimension
 62
     0
370
    -2
100
AcDbLine
 10
8.468999999999999
 20
9.42665786049746
 30
0.0
 11
8.468999999999999
 21
10.51574295645709
 31
0.0
  0
LINE
  5
6F7
330
64A
100
AcDbEntity
  8
Dimension
 62
     0
370
    -2
100
AcDbLine
 10
4.156499999999999
 20
10.39074295645709
 30
0.0
 11
5.548316520467835
 21
10.39074295645709
 31
0.0
  0
LINE
  5
6F8
330
64A
100
AcDbEntity
  8
Dimension
 62
     0
370
    -2
100
AcDbLine
 10
8.281499999999999
 20
10.39074295645709
 30
0.0
 11
6.889683479532163
 21
10.39074295645709
 31
0.0
  0
SOLID
  5
6F9
330
64A
100
AcDbEntity
  8
Dimension
 62
     0
100
AcDbTrace
 10
4.156499999999999
 20
10.42199295645709
 30
0.0
 11
4.156499999999999
 21
10.35949295645709
 31
0.0
 12
3.968999999999999
 22
10.39074295645709
 32
0.0
 13
3.968999999999999
 23
10.39074295645709
 33
0.0
  0
SOLID
  5
6FA
330
64A
100
AcDbEntity
  8
Dimension
 62
     0
100
AcDbTrace
 10
8.281499999999999
 20
10.42199295645709
 30
0.0
 11
8.281499999999999
 21
10.35949295645709
 31
0.0
 12
8.468999999999999
 22
10.39074295645709
 32
0.0
 13
8.468999999999999
 23
10.39074295645709
 33
0.0
  0
MTEXT
  5
6FB
330
64A
100
AcDbEntity
  8
Dimension
 62
     0
100
AcDbMText
 10
6.218999999999999
 20
10.39074295645709
 30
0.0
 40
0.125
 41
0.0
 71
     5
 72
     1
  1
\A1;4.50 [114.3mm]
 73
     1
 44
1.0
1001
ACAD
1000
MTEXTBEGIN
1070
    73
1070
     1
1070
    44
1040
1.0
1070
    74
1070
     0
1000
MTEXTEND
  0
POINT
  5
6FC
330
64A
100
AcDbEntity
  8
Defpoints
 62
     0
100
AcDbPoint
 10
3.968999999999999
 20
9.36415786049746
 30
0.0
  0
POINT
  5
6FD
330
64A
100
AcDbEntity
  8
Defpoints
 62
     0
100
AcDbPoint
 10
8.468999999999999
 20
9.36415786049746
 30
0.0
  0
POINT
  5
6FE
330
64A
100
AcDbEntity
  8
Defpoints
 62
     0
100
AcDbPoint
 10
8.468999999999999
 20
10.39074295645709
 30
0.0
  0
ENDBLK
  5
656
330
64A
100
AcDbEntity
  8
0
100
AcDbBlockEnd
  0
BLOCK
  5
670
330
665
100
AcDbEntity
  8
0
100
AcDbBlockBegin
  2
*D3
 70
     1
 10
0.0
 20
0.0
 30
0.0
  3
*D3
  1

  0
LINE
  5
673
330
665
100
AcDbEntity
  8
Dimension
 62
     0
370
    -2
100
AcDbLine
 10
16.4035
 20
5.388157860497459
 30
0.0
 11
14.82292850893311
 21
5.388157860497459
 31
0.0
  0
LINE
  5
674
330
665
100
AcDbEntity
  8
Dimension
 62
     0
370
    -2
100
AcDbLine
 10
16.4035
 20
9.479157860497458
 30
0.0
 11
14.82292850893311
 21
9.479157860497458
 31
0.0
  0
LINE
  5
675
330
665
100
AcDbEntity
  8
Dimension
 62
     0
370
    -2
100
AcDbLine
 10
14.94792850893311
 20
5.575657860497459
 30
0.0
 11
14.94792850893311
 21
7.256121310789857
 31
0.0
  0
LINE
  5
676
330
665
100
AcDbEntity
  8
Dimension
 62
     0
370
    -2
100
AcDbLine
 10
14.94792850893311
 20
9.291657860497458
 30
0.0
 11
14.94792850893311
 21
7.611194410205061
 31
0.0
  0
SOLID
  5
677
330
665
100
AcDbEntity
  8
Dimension
 62
     0
100
AcDbTrace
 10
14.91667850893312
 20
5.575657860497459
 30
0.0
 11
14.97917850893311
 21
5.575657860497459
 31
0.0
 12
14.94792850893311
 22
5.388157860497459
 32
0.0
 13
14.94792850893311
 23
5.388157860497459
 33
0.0
  0
SOLID
  5
678
330
665
100
AcDbEntity
  8
Dimension
 62
     0
100
AcDbTrace
 10
14.91667850893312
 20
9.291657860497458
 30
0.0
 11
14.97917850893311
 21
9.291657860497458
 31
0.0
 12
14.94792850893311
 22
9.479157860497458
 32
0.0
 13
14.94792850893311
 23
9.479157860497458
 33
0.0
  0
MTEXT
  5
679
330
665
100
AcDbEntity
  8
Dimension
 62
     0
100
AcDbMText
 10
14.94792850893311
 20
7.433657860497461
 30
0.0
 40
0.125
 41
0.0
 71
     5
 72
     1
  1
\A1;4.09 [103.9mm]
 73
     1
 44
1.0
1001
ACAD
1000
MTEXTBEGIN
1070
    73
1070
     1
1070
    44
1040
1.0
1070
    74
1070
     0
1000
MTEXTEND
  0
POINT
  5
67A
330
665
100
AcDbEntity
  8
Defpoints
 62
     0
100
AcDbPoint
 10
16.466
 20
5.388157860497459
 30
0.0
  0
POINT
  5
67B
330
665
100
AcDbEntity
  8
Defpoints
 62
     0
100
AcDbPoint
 10
16.466
 20
9.479157860497458
 30
0.0
  0
POINT
  5
67C
330
665
100
AcDbEntity
  8
Defpoints
 62
     0
100
AcDbPoint
 10
14.94792850893311
 20
9.479157860497458
 30
0.0
  0
ENDBLK
  5
671
330
665
100
AcDbEntity
  8
0
100
AcDbBlockEnd
  0
ENDSEC
  0
SECTION
  2
ENTITIES
  0
LINE
  5
1C9
330
1F
100
AcDbEntity
  8
Object
100
AcDbLine
 10
16.416
 20
9.429157860497459
 30
0.0
 11
16.416
 21
9.424157860497459
 31
0.0
  0
LINE
  5
1CA
330
1F
100
AcDbEntity
  8
Object
100
AcDbLine
 10
16.416
 20
9.424157860497459
 30
0.0
 11
16.416
 21
9.410157860497459
 31
0.0
  0
LINE
  5
1CB
330
1F
100
AcDbEntity
  8
Object
100
AcDbLine
 10
16.416
 20
9.410157860497459
 30
0.0
 11
16.416
 21
9.389157860497459
 31
0.0
  0
LINE
  5
1CC
330
1F
100
AcDbEntity
  8
Object
100
AcDbLine
 10
16.416
 20
9.389157860497459
 30
0.0
 11
16.416
 21
9.36415786049746
 31
0.0
  0
LINE
  5
1CD
330
1F
100
AcDbEntity
  8
Object
100
AcDbLine
 10
16.416
 20
9.36415786049746
 30
0.0
 11
16.416
 21
5.503157860497459
 31
0.0
  0
LINE
  5
1CE
330
1F
100
AcDbEntity
  8
Object
100
AcDbLine
 10
16.416
 20
5.45715786049746
 30
0.0
 11
16.416
 21
5.478157860497459
 31
0.0
  0
LINE
  5
1CF
330
1F
100
AcDbEntity
  8
Object
100
AcDbLine
 10
16.416
 20
5.478157860497459
 30
0.0
 11
16.416
 21
5.503157860497459
 31
0.0
  0
LINE
  5
1D0
330
1F
100
AcDbEntity
  8
Object
100
AcDbLine
 10
16.416
 20
5.45715786049746
 30
0.0
 11
16.416
 21
5.44315786049746
 31
0.0
  0
LINE
  5
1D1
330
1F
100
AcDbEntity
  8
Object
100
AcDbLine
 10
16.416
 20
5.44315786049746
 30
0.0
 11
16.416
 21
5.43815786049746
 31
0.0
  0
LINE
  5
1D2
330
1F
100
AcDbEntity
  8
Object
100
AcDbLine
 10
16.466
 20
5.436157860497459
 30
0.0
 11
16.466
 21
5.468157860497459
 31
0.0
  0
LINE
  5
1D3
330
1F
100
AcDbEntity
  8
Object
100
AcDbLine
 10
16.466
 20
5.394157860497459
 30
0.0
 11
16.466
 21
5.410157860497459
 31
0.0
  0
LINE
  5
1D4
330
1F
100
AcDbEntity
  8
Object
100
AcDbLine
 10
16.441
 20
5.503157860497459
 30
0.0
 11
16.466
 21
5.503157860497459
 31
0.0
  0
LINE
  5
1D5
330
1F
100
AcDbEntity
  8
Object
100
AcDbLine
 10
16.466
 20
5.503157860497459
 30
0.0
 11
16.466
 21
5.468157860497459
 31
0.0
  0
LINE
  5
1D6
330
1F
100
AcDbEntity
  8
Object
100
AcDbLine
 10
16.466
 20
5.410157860497459
 30
0.0
 11
16.466
 21
5.436157860497459
 31
0.0
  0
LINE
  5
1D7
330
1F
100
AcDbEntity
  8
Object
100
AcDbLine
 10
16.466
 20
5.394157860497459
 30
0.0
 11
16.466
 21
5.388157860497459
 31
0.0
  0
LINE
  5
1D8
330
1F
100
AcDbEntity
  8
Object
100
AcDbLine
 10
16.466
 20
5.388157860497459
 30
0.0
 11
16.441
 21
5.39515786049746
 31
0.0
  0
LINE
  5
1D9
330
1F
100
AcDbEntity
  8
Object
100
AcDbLine
 10
16.441
 20
5.503157860497459
 30
0.0
 11
16.423
 21
5.503157860497459
 31
0.0
  0
LINE
  5
1DA
330
1F
100
AcDbEntity
  8
Object
100
AcDbLine
 10
16.423
 20
5.413157860497459
 30
0.0
 11
16.441
 21
5.39515786049746
 31
0.0
  0
LINE
  5
1DB
330
1F
100
AcDbEntity
  8
Object
100
AcDbLine
 10
16.416
 20
5.503157860497459
 30
0.0
 11
16.416
 21
5.478157860497459
 31
0.0
  0
LINE
  5
1DC
330
1F
100
AcDbEntity
  8
Object
100
AcDbLine
 10
16.416
 20
5.43815786049746
 30
0.0
 11
16.423
 21
5.413157860497459
 31
0.0
  0
LINE
  5
1DD
330
1F
100
AcDbEntity
  8
Object
100
AcDbLine
 10
16.416
 20
5.478157860497459
 30
0.0
 11
16.416
 21
5.45715786049746
 31
0.0
  0
LINE
  5
1DE
330
1F
100
AcDbEntity
  8
Object
100
AcDbLine
 10
16.423
 20
5.503157860497459
 30
0.0
 11
16.416
 21
5.503157860497459
 31
0.0
  0
LINE
  5
1DF
330
1F
100
AcDbEntity
  8
Object
100
AcDbLine
 10
16.416
 20
5.45715786049746
 30
0.0
 11
16.416
 21
5.44315786049746
 31
0.0
  0
LINE
  5
1E0
330
1F
100
AcDbEntity
  8
Object
100
AcDbLine
 10
16.416
 20
5.44315786049746
 30
0.0
 11
16.416
 21
5.43815786049746
 31
0.0
  0
LINE
  5
1E1
330
1F
100
AcDbEntity
  8
Object
100
AcDbLine
 10
16.466
 20
5.388157860497459
 30
0.0
 11
16.441
 21
5.39515786049746
 31
0.0
  0
LINE
  5
1E2
330
1F
100
AcDbEntity
  8
Object
100
AcDbLine
 10
16.441
 20
5.39515786049746
 30
0.0
 11
16.423
 21
5.413157860497459
 31
0.0
  0
LINE
  5
1E3
330
1F
100
AcDbEntity
  8
Object
100
AcDbLine
 10
16.423
 20
5.413157860497459
 30
0.0
 11
16.416
 21
5.43815786049746
 31
0.0
  0
LINE
  5
1E4
330
1F
100
AcDbEntity
  8
Object
100
AcDbLine
 10
16.466
 20
9.479157860497458
 30
0.0
 11
16.441
 21
9.472157860497461
 31
0.0
  0
LINE
  5
1E5
330
1F
100
AcDbEntity
  8
Object
100
AcDbLine
 10
16.466
 20
9.45715786049746
 30
0.0
 11
16.466
 21
9.47315786049746
 31
0.0
  0
LINE
  5
1E6
330
1F
100
AcDbEntity
  8
Object
100
AcDbLine
 10
16.466
 20
9.47315786049746
 30
0.0
 11
16.466
 21
9.479157860497458
 31
0.0
  0
LINE
  5
1E7
330
1F
100
AcDbEntity
  8
Object
100
AcDbLine
 10
16.466
 20
9.45715786049746
 30
0.0
 11
16.466
 21
9.43115786049746
 31
0.0
  0
LINE
  5
1E8
330
1F
100
AcDbEntity
  8
Object
100
AcDbLine
 10
16.466
 20
9.43115786049746
 30
0.0
 11
16.466
 21
9.39915786049746
 31
0.0
  0
LINE
  5
1E9
330
1F
100
AcDbEntity
  8
Object
100
AcDbLine
 10
16.466
 20
9.39915786049746
 30
0.0
 11
16.466
 21
9.36415786049746
 31
0.0
  0
LINE
  5
1EA
330
1F
100
AcDbEntity
  8
Object
100
AcDbLine
 10
16.441
 20
9.472157860497461
 30
0.0
 11
16.423
 21
9.45415786049746
 31
0.0
  0
LINE
  5
1EB
330
1F
100
AcDbEntity
  8
Object
100
AcDbLine
 10
16.416
 20
9.424157860497459
 30
0.0
 11
16.416
 21
9.410157860497459
 31
0.0
  0
LINE
  5
1EC
330
1F
100
AcDbEntity
  8
Object
100
AcDbLine
 10
16.416
 20
9.36415786049746
 30
0.0
 11
16.416
 21
9.389157860497459
 31
0.0
  0
LINE
  5
1ED
330
1F
100
AcDbEntity
  8
Object
100
AcDbLine
 10
16.416
 20
9.389157860497459
 30
0.0
 11
16.416
 21
9.410157860497459
 31
0.0
  0
LINE
  5
1EE
330
1F
100
AcDbEntity
  8
Object
100
AcDbLine
 10
16.416
 20
9.424157860497459
 30
0.0
 11
16.416
 21
9.429157860497459
 31
0.0
  0
LINE
  5
1EF
330
1F
100
AcDbEntity
  8
Object
100
AcDbLine
 10
16.416
 20
9.429157860497459
 30
0.0
 11
16.423
 21
9.45415786049746
 31
0.0
  0
LINE
  5
1F0
330
1F
100
AcDbEntity
  8
Object
100
AcDbLine
 10
16.441
 20
9.36415786049746
 30
0.0
 11
16.466
 21
9.36415786049746
 31
0.0
  0
LINE
  5
1F1
330
1F
100
AcDbEntity
  8
Object
100
AcDbLine
 10
16.466
 20
9.36415786049746
 30
0.0
 11
16.466
 21
5.503157860497459
 31
0.0
  0
LINE
  5
1F2
330
1F
100
AcDbEntity
  8
Object
100
AcDbLine
 10
16.441
 20
9.36415786049746
 30
0.0
 11
16.423
 21
9.36415786049746
 31
0.0
  0
LINE
  5
1F3
330
1F
100
AcDbEntity
  8
Object
100
AcDbLine
 10
16.416
 20
5.503157860497459
 30
0.0
 11
16.416
 21
9.36415786049746
 31
0.0
  0
LINE
  5
1F4
330
1F
100
AcDbEntity
  8
Object
100
AcDbLine
 10
16.416
 20
9.36415786049746
 30
0.0
 11
16.423
 21
9.36415786049746
 31
0.0
  0
LINE
  5
1F5
330
1F
100
AcDbEntity
  8
Object
100
AcDbLine
 10
16.466
 20
9.479157860497458
 30
0.0
 11
16.441
 21
9.472157860497461
 31
0.0
  0
LINE
  5
1F6
330
1F
100
AcDbEntity
  8
Object
100
AcDbLine
 10
16.441
 20
9.472157860497461
 30
0.0
 11
16.423
 21
9.45415786049746
 31
0.0
  0
LINE
  5
1F7
330
1F
100
AcDbEntity
  8
Object
100
AcDbLine
 10
16.423
 20
9.45415786049746
 30
0.0
 11
16.416
 21
9.429157860497459
 31
0.0
  0
LINE
  5
1F8
330
1F
100
AcDbEntity
  8
Object
100
AcDbLine
 10
16.521
 20
5.394157860497459
 30
0.0
 11
16.521
 21
5.410157860497459
 31
0.0
  0
LINE
  5
1F9
330
1F
100
AcDbEntity
  8
Object
100
AcDbLine
 10
16.466
 20
5.503157860497459
 30
0.0
 11
16.521
 21
5.503157860497459
 31
0.0
  0
LINE
  5
1FA
330
1F
100
AcDbEntity
  8
Object
100
AcDbLine
 10
16.521
 20
5.503157860497459
 30
0.0
 11
16.521
 21
5.468157860497459
 31
0.0
  0
LINE
  5
1FB
330
1F
100
AcDbEntity
  8
Object
100
AcDbLine
 10
16.521
 20
5.468157860497459
 30
0.0
 11
16.521
 21
5.436157860497459
 31
0.0
  0
LINE
  5
1FC
330
1F
100
AcDbEntity
  8
Object
100
AcDbLine
 10
16.521
 20
5.436157860497459
 30
0.0
 11
16.521
 21
5.410157860497459
 31
0.0
  0
LINE
  5
1FD
330
1F
100
AcDbEntity
  8
Object
100
AcDbLine
 10
16.521
 20
5.394157860497459
 30
0.0
 11
16.521
 21
5.388157860497459
 31
0.0
  0
LINE
  5
1FE
330
1F
100
AcDbEntity
  8
Object
100
AcDbLine
 10
16.521
 20
5.388157860497459
 30
0.0
 11
16.466
 21
5.388157860497459
 31
0.0
  0
LINE
  5
1FF
102
{ACAD_REACTORS
330
67D
102
}
330
1F
100
AcDbEntity
  8
Object
100
AcDbLine
 10
16.466
 20
5.388157860497459
 30
0.0
 11
16.521
 21
5.388157860497459
 31
0.0
  0
LINE
  5
200
330
1F
100
AcDbEntity
  8
Object
100
AcDbLine
 10
16.521
 20
9.45715786049746
 30
0.0
 11
16.521
 21
9.47315786049746
 31
0.0
  0
LINE
  5
201
330
1F
100
AcDbEntity
  8
Object
100
AcDbLine
 10
16.466
 20
9.479157860497458
 30
0.0
 11
16.521
 21
9.479157860497458
 31
0.0
  0
LINE
  5
202
330
1F
100
AcDbEntity
  8
Object
100
AcDbLine
 10
16.521
 20
9.479157860497458
 30
0.0
 11
16.521
 21
9.47315786049746
 31
0.0
  0
LINE
  5
203
330
1F
100
AcDbEntity
  8
Object
100
AcDbLine
 10
16.521
 20
9.39915786049746
 30
0.0
 11
16.521
 21
9.43115786049746
 31
0.0
  0
LINE
  5
204
330
1F
100
AcDbEntity
  8
Object
100
AcDbLine
 10
16.521
 20
9.43115786049746
 30
0.0
 11
16.521
 21
9.45715786049746
 31
0.0
  0
LINE
  5
205
330
1F
100
AcDbEntity
  8
Object
100
AcDbLine
 10
16.521
 20
9.36415786049746
 30
0.0
 11
16.521
 21
9.39915786049746
 31
0.0
  0
LINE
  5
206
330
1F
100
AcDbEntity
  8
Object
100
AcDbLine
 10
17.495
 20
8.260157860497461
 30
0.0
 11
17.514
 21
8.23015786049746
 31
0.0
  0
LINE
  5
207
330
1F
100
AcDbEntity
  8
Object
100
AcDbLine
 10
17.514
 20
8.23015786049746
 30
0.0
 11
17.521
 21
8.195157860497459
 31
0.0
  0
LINE
  5
208
330
1F
100
AcDbEntity
  8
Object
100
AcDbLine
 10
17.521
 20
5.978157860497459
 30
0.0
 11
17.514
 21
5.94315786049746
 31
0.0
  0
LINE
  5
209
330
1F
100
AcDbEntity
  8
Object
100
AcDbLine
 10
17.514
 20
5.94315786049746
 30
0.0
 11
17.495
 21
5.913157860497459
 31
0.0
  0
LINE
  5
20A
330
1F
100
AcDbEntity
  8
Object
100
AcDbLine
 10
17.495
 20
8.260157860497461
 30
0.0
 11
17.467
 21
8.28015786049746
 31
0.0
  0
LINE
  5
20B
330
1F
100
AcDbEntity
  8
Object
100
AcDbLine
 10
17.467
 20
5.89315786049746
 30
0.0
 11
17.495
 21
5.913157860497459
 31
0.0
  0
LINE
  5
20C
330
1F
100
AcDbEntity
  8
Object
100
AcDbLine
 10
17.467
 20
8.28015786049746
 30
0.0
 11
17.432
 21
8.289157860497461
 31
0.0
  0
LINE
  5
20D
330
1F
100
AcDbEntity
  8
Object
100
AcDbLine
 10
17.432
 20
5.88415786049746
 30
0.0
 11
17.467
 21
5.89315786049746
 31
0.0
  0
LINE
  5
20E
330
1F
100
AcDbEntity
  8
Object
100
AcDbLine
 10
17.432
 20
8.289157860497461
 30
0.0
 11
16.551
 21
8.33515786049746
 31
0.0
  0
LINE
  5
20F
330
1F
100
AcDbEntity
  8
Object
100
AcDbLine
 10
16.551
 20
5.83815786049746
 30
0.0
 11
17.432
 21
5.88415786049746
 31
0.0
  0
LINE
  5
210
330
1F
100
AcDbEntity
  8
Object
100
AcDbLine
 10
17.521
 20
5.978157860497459
 30
0.0
 11
17.521
 21
8.195157860497459
 31
0.0
  0
LINE
  5
211
330
1F
100
AcDbEntity
  8
Object
100
AcDbLine
 10
16.536
 20
5.833157860497459
 30
0.0
 11
16.551
 21
5.83815786049746
 31
0.0
  0
LINE
  5
212
330
1F
100
AcDbEntity
  8
Object
100
AcDbLine
 10
16.551
 20
8.33515786049746
 30
0.0
 11
16.536
 21
8.340157860497459
 31
0.0
  0
LINE
  5
213
330
1F
100
AcDbEntity
  8
Object
100
AcDbLine
 10
16.536
 20
8.340157860497459
 30
0.0
 11
16.525
 21
8.351157860497458
 31
0.0
  0
LINE
  5
214
330
1F
100
AcDbEntity
  8
Object
100
AcDbLine
 10
16.536
 20
5.833157860497459
 30
0.0
 11
16.525
 21
5.82215786049746
 31
0.0
  0
LINE
  5
215
330
1F
100
AcDbEntity
  8
Object
100
AcDbLine
 10
16.525
 20
5.82215786049746
 30
0.0
 11
16.521
 21
5.80715786049746
 31
0.0
  0
LINE
  5
216
330
1F
100
AcDbEntity
  8
Object
100
AcDbLine
 10
16.525
 20
8.351157860497458
 30
0.0
 11
16.521
 21
8.366157860497459
 31
0.0
  0
LINE
  5
217
330
1F
100
AcDbEntity
  8
Object
100
AcDbLine
 10
16.466
 20
9.36415786049746
 30
0.0
 11
16.521
 21
9.36415786049746
 31
0.0
  0
LINE
  5
218
330
1F
100
AcDbEntity
  8
Object
100
AcDbLine
 10
16.521
 20
9.36415786049746
 30
0.0
 11
16.521
 21
8.366157860497459
 31
0.0
  0
LINE
  5
219
330
1F
100
AcDbEntity
  8
Object
100
AcDbLine
 10
16.521
 20
5.503157860497459
 30
0.0
 11
16.521
 21
5.80715786049746
 31
0.0
  0
LINE
  5
21A
102
{ACAD_REACTORS
330
67D
102
}
330
1F
100
AcDbEntity
  8
Object
100
AcDbLine
 10
16.521
 20
9.479157860497458
 30
0.0
 11
16.466
 21
9.479157860497458
 31
0.0
  0
LINE
  5
21B
330
1F
100
AcDbEntity
  8
Object
100
AcDbLine
 10
16.521
 20
5.503157860497459
 30
0.0
 11
16.521
 21
5.80715786049746
 31
0.0
  0
LINE
  5
21C
330
1F
100
AcDbEntity
  8
Object
100
AcDbLine
 10
16.521
 20
9.36415786049746
 30
0.0
 11
16.521
 21
9.39915786049746
 31
0.0
  0
LINE
  5
21D
330
1F
100
AcDbEntity
  8
Object
100
AcDbLine
 10
16.521
 20
9.39915786049746
 30
0.0
 11
16.521
 21
9.43115786049746
 31
0.0
  0
LINE
  5
21E
330
1F
100
AcDbEntity
  8
Object
100
AcDbLine
 10
16.521
 20
9.43115786049746
 30
0.0
 11
16.521
 21
9.45715786049746
 31
0.0
  0
LINE
  5
21F
330
1F
100
AcDbEntity
  8
Object
100
AcDbLine
 10
16.521
 20
9.45715786049746
 30
0.0
 11
16.521
 21
9.47315786049746
 31
0.0
  0
LINE
  5
220
330
1F
100
AcDbEntity
  8
Object
100
AcDbLine
 10
16.521
 20
9.47315786049746
 30
0.0
 11
16.521
 21
9.479157860497458
 31
0.0
  0
LINE
  5
221
330
1F
100
AcDbEntity
  8
Object
100
AcDbLine
 10
16.521
 20
8.366157860497459
 30
0.0
 11
16.521
 21
9.36415786049746
 31
0.0
  0
LINE
  5
222
330
1F
100
AcDbEntity
  8
Object
100
AcDbLine
 10
16.521
 20
5.410157860497459
 30
0.0
 11
16.521
 21
5.394157860497459
 31
0.0
  0
LINE
  5
223
330
1F
100
AcDbEntity
  8
Object
100
AcDbLine
 10
16.521
 20
5.394157860497459
 30
0.0
 11
16.521
 21
5.388157860497459
 31
0.0
  0
LINE
  5
224
330
1F
100
AcDbEntity
  8
Object
100
AcDbLine
 10
16.521
 20
5.410157860497459
 30
0.0
 11
16.521
 21
5.436157860497459
 31
0.0
  0
LINE
  5
225
330
1F
100
AcDbEntity
  8
Object
100
AcDbLine
 10
16.521
 20
5.436157860497459
 30
0.0
 11
16.521
 21
5.468157860497459
 31
0.0
  0
LINE
  5
226
330
1F
100
AcDbEntity
  8
Object
100
AcDbLine
 10
16.521
 20
5.468157860497459
 30
0.0
 11
16.521
 21
5.503157860497459
 31
0.0
  0
LINE
  5
227
330
1F
100
AcDbEntity
  8
Object
100
AcDbLine
 10
16.551
 20
5.83815786049746
 30
0.0
 11
17.432
 21
5.88415786049746
 31
0.0
  0
LINE
  5
228
330
1F
100
AcDbEntity
  8
Object
100
AcDbLine
 10
17.521
 20
8.195157860497459
 30
0.0
 11
17.521
 21
5.978157860497459
 31
0.0
  0
LINE
  5
229
330
1F
100
AcDbEntity
  8
Object
100
AcDbLine
 10
17.521
 20
5.978157860497459
 30
0.0
 11
17.515
 21
5.94415786049746
 31
0.0
  0
LINE
  5
22A
330
1F
100
AcDbEntity
  8
Object
100
AcDbLine
 10
17.515
 20
5.94415786049746
 30
0.0
 11
17.521
 21
5.978157860497459
 31
0.0
  0
LINE
  5
22B
330
1F
100
AcDbEntity
  8
Object
100
AcDbLine
 10
17.515
 20
5.94415786049746
 30
0.0
 11
17.514
 21
5.94315786049746
 31
0.0
  0
LINE
  5
22C
330
1F
100
AcDbEntity
  8
Object
100
AcDbLine
 10
17.514
 20
5.94315786049746
 30
0.0
 11
17.495
 21
5.913157860497459
 31
0.0
  0
LINE
  5
22D
330
1F
100
AcDbEntity
  8
Object
100
AcDbLine
 10
17.495
 20
5.913157860497459
 30
0.0
 11
17.467
 21
5.89315786049746
 31
0.0
  0
LINE
  5
22E
330
1F
100
AcDbEntity
  8
Object
100
AcDbLine
 10
17.467
 20
5.89315786049746
 30
0.0
 11
17.465
 21
5.89215786049746
 31
0.0
  0
LINE
  5
22F
330
1F
100
AcDbEntity
  8
Object
100
AcDbLine
 10
17.465
 20
5.89215786049746
 30
0.0
 11
17.432
 21
5.88415786049746
 31
0.0
  0
LINE
  5
230
330
1F
100
AcDbEntity
  8
Object
100
AcDbLine
 10
17.432
 20
5.88415786049746
 30
0.0
 11
17.465
 21
5.89215786049746
 31
0.0
  0
LINE
  5
231
330
1F
100
AcDbEntity
  8
Object
100
AcDbLine
 10
16.533
 20
5.83115786049746
 30
0.0
 11
16.538
 21
5.83415786049746
 31
0.0
  0
LINE
  5
232
330
1F
100
AcDbEntity
  8
Object
100
AcDbLine
 10
16.525
 20
5.820157860497459
 30
0.0
 11
16.526
 21
5.82315786049746
 31
0.0
  0
LINE
  5
233
330
1F
100
AcDbEntity
  8
Object
100
AcDbLine
 10
17.432
 20
8.289157860497461
 30
0.0
 11
16.551
 21
8.33515786049746
 31
0.0
  0
LINE
  5
234
330
1F
100
AcDbEntity
  8
Object
100
AcDbLine
 10
17.521
 20
8.195157860497459
 30
0.0
 11
17.515
 21
8.229157860497458
 31
0.0
  0
LINE
  5
235
330
1F
100
AcDbEntity
  8
Object
100
AcDbLine
 10
17.515
 20
8.229157860497458
 30
0.0
 11
17.521
 21
8.195157860497459
 31
0.0
  0
LINE
  5
236
330
1F
100
AcDbEntity
  8
Object
100
AcDbLine
 10
17.515
 20
8.229157860497458
 30
0.0
 11
17.514
 21
8.23015786049746
 31
0.0
  0
LINE
  5
237
330
1F
100
AcDbEntity
  8
Object
100
AcDbLine
 10
17.514
 20
8.23015786049746
 30
0.0
 11
17.495
 21
8.260157860497461
 31
0.0
  0
LINE
  5
238
330
1F
100
AcDbEntity
  8
Object
100
AcDbLine
 10
17.495
 20
8.260157860497461
 30
0.0
 11
17.467
 21
8.28015786049746
 31
0.0
  0
LINE
  5
239
330
1F
100
AcDbEntity
  8
Object
100
AcDbLine
 10
17.467
 20
8.28015786049746
 30
0.0
 11
17.465
 21
8.28115786049746
 31
0.0
  0
LINE
  5
23A
330
1F
100
AcDbEntity
  8
Object
100
AcDbLine
 10
17.465
 20
8.28115786049746
 30
0.0
 11
17.432
 21
8.289157860497461
 31
0.0
  0
LINE
  5
23B
330
1F
100
AcDbEntity
  8
Object
100
AcDbLine
 10
17.432
 20
8.289157860497461
 30
0.0
 11
17.465
 21
8.28115786049746
 31
0.0
  0
LINE
  5
23C
330
1F
100
AcDbEntity
  8
Object
100
AcDbLine
 10
17.291
 20
9.04715786049746
 30
0.0
 11
17.291
 21
8.924157860497459
 31
0.0
  0
LINE
  5
23D
330
1F
100
AcDbEntity
  8
Object
100
AcDbLine
 10
17.291
 20
8.924157860497459
 30
0.0
 11
16.521
 21
8.943157860497461
 31
0.0
  0
LINE
  5
23E
330
1F
100
AcDbEntity
  8
Object
100
AcDbLine
 10
17.291
 20
9.04715786049746
 30
0.0
 11
16.521
 21
9.074157860497461
 31
0.0
  0
LINE
  5
23F
330
1F
100
AcDbEntity
  8
Object
100
AcDbLine
 10
16.521
 20
8.779157860497459
 30
0.0
 11
17.291
 21
8.75915786049746
 31
0.0
  0
LINE
  5
240
330
1F
100
AcDbEntity
  8
Object
100
AcDbLine
 10
16.521
 20
8.86815786049746
 30
0.0
 11
17.291
 21
8.84815786049746
 31
0.0
  0
LINE
  5
241
330
1F
100
AcDbEntity
  8
Object
100
AcDbLine
 10
17.291
 20
8.84815786049746
 30
0.0
 11
17.291
 21
8.75915786049746
 31
0.0
  0
LINE
  5
242
330
1F
100
AcDbEntity
  8
Object
100
AcDbLine
 10
17.291
 20
5.673157860497459
 30
0.0
 11
17.291
 21
5.702157860497459
 31
0.0
  0
LINE
  5
243
330
1F
100
AcDbEntity
  8
Object
100
AcDbLine
 10
16.521
 20
5.73615786049746
 30
0.0
 11
17.291
 21
5.763157860497459
 31
0.0
  0
LINE
  5
244
330
1F
100
AcDbEntity
  8
Object
100
AcDbLine
 10
17.291
 20
5.763157860497459
 30
0.0
 11
17.291
 21
5.73315786049746
 31
0.0
  0
LINE
  5
245
330
1F
100
AcDbEntity
  8
Object
100
AcDbLine
 10
17.291
 20
5.73315786049746
 30
0.0
 11
17.291
 21
5.702157860497459
 31
0.0
  0
LINE
  5
246
330
1F
100
AcDbEntity
  8
Object
100
AcDbLine
 10
17.291
 20
5.60115786049746
 30
0.0
 11
17.291
 21
5.61015786049746
 31
0.0
  0
LINE
  5
247
330
1F
100
AcDbEntity
  8
Object
100
AcDbLine
 10
17.291
 20
5.625157860497459
 30
0.0
 11
17.291
 21
5.64615786049746
 31
0.0
  0
LINE
  5
248
330
1F
100
AcDbEntity
  8
Object
100
AcDbLine
 10
17.291
 20
5.64615786049746
 30
0.0
 11
17.291
 21
5.673157860497459
 31
0.0
  0
LINE
  5
249
330
1F
100
AcDbEntity
  8
Object
100
AcDbLine
 10
17.291
 20
5.61015786049746
 30
0.0
 11
17.291
 21
5.625157860497459
 31
0.0
  0
LINE
  5
24A
330
1F
100
AcDbEntity
  8
Object
100
AcDbLine
 10
17.291
 20
5.60115786049746
 30
0.0
 11
17.291
 21
5.59815786049746
 31
0.0
  0
LINE
  5
24B
330
1F
100
AcDbEntity
  8
Object
100
AcDbLine
 10
17.291
 20
5.59815786049746
 30
0.0
 11
16.521
 21
5.571157860497459
 31
0.0
  0
LINE
  5
24C
330
1F
100
AcDbEntity
  8
Object
100
AcDbLine
 10
16.538
 20
8.33915786049746
 30
0.0
 11
16.533
 21
8.34215786049746
 31
0.0
  0
LINE
  5
24D
330
1F
100
AcDbEntity
  8
Object
100
AcDbLine
 10
16.527
 20
8.349157860497459
 30
0.0
 11
16.525
 21
8.35215786049746
 31
0.0
  0
LINE
  5
24E
330
1F
100
AcDbEntity
  8
Object
100
AcDbLine
 10
16.521
 20
5.571157860497459
 30
0.0
 11
17.291
 21
5.59815786049746
 31
0.0
  0
LINE
  5
24F
330
1F
100
AcDbEntity
  8
Object
100
AcDbLine
 10
17.291
 20
8.84815786049746
 30
0.0
 11
17.291
 21
8.860157860497459
 31
0.0
  0
LINE
  5
250
330
1F
100
AcDbEntity
  8
Object
100
AcDbLine
 10
17.291
 20
8.924157860497459
 30
0.0
 11
17.291
 21
8.90015786049746
 31
0.0
  0
LINE
  5
251
330
1F
100
AcDbEntity
  8
Object
100
AcDbLine
 10
17.291
 20
8.90015786049746
 30
0.0
 11
17.291
 21
8.878157860497459
 31
0.0
  0
LINE
  5
252
330
1F
100
AcDbEntity
  8
Object
100
AcDbLine
 10
17.291
 20
8.878157860497459
 30
0.0
 11
17.291
 21
8.860157860497459
 31
0.0
  0
LINE
  5
253
330
1F
100
AcDbEntity
  8
Object
100
AcDbLine
 10
17.291
 20
9.212157860497459
 30
0.0
 11
16.521
 21
9.23915786049746
 31
0.0
  0
LINE
  5
254
330
1F
100
AcDbEntity
  8
Object
100
AcDbLine
 10
17.291
 20
9.077157860497461
 30
0.0
 11
17.291
 21
9.10815786049746
 31
0.0
  0
LINE
  5
255
330
1F
100
AcDbEntity
  8
Object
100
AcDbLine
 10
17.291
 20
9.138157860497461
 30
0.0
 11
17.291
 21
9.164157860497461
 31
0.0
  0
LINE
  5
256
330
1F
100
AcDbEntity
  8
Object
100
AcDbLine
 10
17.291
 20
9.18515786049746
 30
0.0
 11
17.291
 21
9.20115786049746
 31
0.0
  0
LINE
  5
257
330
1F
100
AcDbEntity
  8
Object
100
AcDbLine
 10
16.521
 20
9.23915786049746
 30
0.0
 11
17.291
 21
9.212157860497459
 31
0.0
  0
LINE
  5
258
330
1F
100
AcDbEntity
  8
Object
100
AcDbLine
 10
17.291
 20
9.212157860497459
 30
0.0
 11
17.291
 21
9.21015786049746
 31
0.0
  0
LINE
  5
259
330
1F
100
AcDbEntity
  8
Object
100
AcDbLine
 10
17.291
 20
9.21015786049746
 30
0.0
 11
17.291
 21
9.20115786049746
 31
0.0
  0
LINE
  5
25A
330
1F
100
AcDbEntity
  8
Object
100
AcDbLine
 10
17.291
 20
9.164157860497461
 30
0.0
 11
17.291
 21
9.18515786049746
 31
0.0
  0
LINE
  5
25B
330
1F
100
AcDbEntity
  8
Object
100
AcDbLine
 10
17.291
 20
9.10815786049746
 30
0.0
 11
17.291
 21
9.138157860497461
 31
0.0
  0
LINE
  5
25C
330
1F
100
AcDbEntity
  8
Object
100
AcDbLine
 10
17.291
 20
9.04715786049746
 30
0.0
 11
17.291
 21
9.077157860497461
 31
0.0
  0
LINE
  5
25D
330
1F
100
AcDbEntity
  8
Object
100
AcDbLine
 10
17.291
 20
8.296157860497459
 30
0.0
 11
17.291
 21
8.62015786049746
 31
0.0
  0
LINE
  5
25E
330
1F
100
AcDbEntity
  8
Object
100
AcDbLine
 10
17.291
 20
5.763157860497459
 30
0.0
 11
17.291
 21
5.87715786049746
 31
0.0
  0
LINE
  5
25F
330
1F
100
AcDbEntity
  8
Object
100
AcDbLine
 10
17.291
 20
8.62015786049746
 30
0.0
 11
16.521
 21
8.639157860497459
 31
0.0
  0
LINE
  5
260
330
1F
100
AcDbEntity
  8
Object
100
AcDbLine
 10
17.291
 20
8.664157860497461
 30
0.0
 11
17.291
 21
8.706157860497459
 31
0.0
  0
LINE
  5
261
330
1F
100
AcDbEntity
  8
Object
100
AcDbLine
 10
17.291
 20
8.75915786049746
 30
0.0
 11
17.291
 21
8.73915786049746
 31
0.0
  0
LINE
  5
262
330
1F
100
AcDbEntity
  8
Object
100
AcDbLine
 10
17.291
 20
8.73915786049746
 30
0.0
 11
17.291
 21
8.706157860497459
 31
0.0
  0
LINE
  5
263
330
1F
100
AcDbEntity
  8
Object
100
AcDbLine
 10
17.291
 20
8.62015786049746
 30
0.0
 11
17.291
 21
8.664157860497461
 31
0.0
  0
LINE
  5
264
330
1F
100
AcDbEntity
  8
Object
100
AcDbLine
 10
17.291
 20
8.75915786049746
 30
0.0
 11
17.291
 21
8.84815786049746
 31
0.0
  0
LINE
  5
265
330
1F
100
AcDbEntity
  8
Object
100
AcDbLine
 10
17.291
 20
8.860157860497459
 30
0.0
 11
17.291
 21
8.878157860497459
 31
0.0
  0
LINE
  5
266
330
1F
100
AcDbEntity
  8
Object
100
AcDbLine
 10
17.291
 20
5.64615786049746
 30
0.0
 11
17.291
 21
5.673157860497459
 31
0.0
  0
LINE
  5
267
330
1F
100
AcDbEntity
  8
Object
100
AcDbLine
 10
17.291
 20
5.61015786049746
 30
0.0
 11
17.291
 21
5.625157860497459
 31
0.0
  0
LINE
  5
268
330
1F
100
AcDbEntity
  8
Object
100
AcDbLine
 10
17.291
 20
5.625157860497459
 30
0.0
 11
17.291
 21
5.64615786049746
 31
0.0
  0
LINE
  5
269
330
1F
100
AcDbEntity
  8
Object
100
AcDbLine
 10
17.291
 20
5.60115786049746
 30
0.0
 11
17.291
 21
5.61015786049746
 31
0.0
  0
LINE
  5
26A
330
1F
100
AcDbEntity
  8
Object
100
AcDbLine
 10
17.291
 20
8.296157860497459
 30
0.0
 11
17.291
 21
8.62015786049746
 31
0.0
  0
LINE
  5
26B
330
1F
100
AcDbEntity
  8
Object
100
AcDbLine
 10
17.291
 20
5.763157860497459
 30
0.0
 11
17.291
 21
5.87715786049746
 31
0.0
  0
LINE
  5
26C
330
1F
100
AcDbEntity
  8
Object
100
AcDbLine
 10
17.291
 20
8.62015786049746
 30
0.0
 11
17.291
 21
8.664157860497461
 31
0.0
  0
LINE
  5
26D
330
1F
100
AcDbEntity
  8
Object
100
AcDbLine
 10
17.291
 20
8.664157860497461
 30
0.0
 11
17.291
 21
8.706157860497459
 31
0.0
  0
LINE
  5
26E
330
1F
100
AcDbEntity
  8
Object
100
AcDbLine
 10
17.291
 20
8.706157860497459
 30
0.0
 11
17.291
 21
8.73915786049746
 31
0.0
  0
LINE
  5
26F
330
1F
100
AcDbEntity
  8
Object
100
AcDbLine
 10
17.291
 20
8.73915786049746
 30
0.0
 11
17.291
 21
8.75915786049746
 31
0.0
  0
LINE
  5
270
330
1F
100
AcDbEntity
  8
Object
100
AcDbLine
 10
17.291
 20
8.84815786049746
 30
0.0
 11
17.291
 21
8.860157860497459
 31
0.0
  0
LINE
  5
271
330
1F
100
AcDbEntity
  8
Object
100
AcDbLine
 10
17.291
 20
8.878157860497459
 30
0.0
 11
17.291
 21
8.90015786049746
 31
0.0
  0
LINE
  5
272
330
1F
100
AcDbEntity
  8
Object
100
AcDbLine
 10
17.291
 20
8.90015786049746
 30
0.0
 11
17.291
 21
8.924157860497459
 31
0.0
  0
LINE
  5
273
330
1F
100
AcDbEntity
  8
Object
100
AcDbLine
 10
17.291
 20
8.924157860497459
 30
0.0
 11
17.291
 21
9.04715786049746
 31
0.0
  0
LINE
  5
274
330
1F
100
AcDbEntity
  8
Object
100
AcDbLine
 10
17.291
 20
9.04715786049746
 30
0.0
 11
17.291
 21
9.077157860497461
 31
0.0
  0
LINE
  5
275
330
1F
100
AcDbEntity
  8
Object
100
AcDbLine
 10
17.291
 20
9.077157860497461
 30
0.0
 11
17.291
 21
9.10815786049746
 31
0.0
  0
LINE
  5
276
330
1F
100
AcDbEntity
  8
Object
100
AcDbLine
 10
17.291
 20
9.10815786049746
 30
0.0
 11
17.291
 21
9.138157860497461
 31
0.0
  0
LINE
  5
277
330
1F
100
AcDbEntity
  8
Object
100
AcDbLine
 10
17.291
 20
9.138157860497461
 30
0.0
 11
17.291
 21
9.164157860497461
 31
0.0
  0
LINE
  5
278
330
1F
100
AcDbEntity
  8
Object
100
AcDbLine
 10
17.291
 20
9.164157860497461
 30
0.0
 11
17.291
 21
9.18515786049746
 31
0.0
  0
LINE
  5
279
330
1F
100
AcDbEntity
  8
Object
100
AcDbLine
 10
17.291
 20
9.18515786049746
 30
0.0
 11
17.291
 21
9.20115786049746
 31
0.0
  0
LINE
  5
27A
330
1F
100
AcDbEntity
  8
Object
100
AcDbLine
 10
17.291
 20
9.20115786049746
 30
0.0
 11
17.291
 21
9.21015786049746
 31
0.0
  0
LINE
  5
27B
330
1F
100
AcDbEntity
  8
Object
100
AcDbLine
 10
17.291
 20
9.21015786049746
 30
0.0
 11
17.291
 21
9.212157860497459
 31
0.0
  0
LINE
  5
27C
330
1F
100
AcDbEntity
  8
Object
100
AcDbLine
 10
17.291
 20
5.59815786049746
 30
0.0
 11
17.291
 21
5.60115786049746
 31
0.0
  0
LINE
  5
27D
330
1F
100
AcDbEntity
  8
Object
100
AcDbLine
 10
17.291
 20
5.673157860497459
 30
0.0
 11
17.291
 21
5.702157860497459
 31
0.0
  0
LINE
  5
27E
330
1F
100
AcDbEntity
  8
Object
100
AcDbLine
 10
17.291
 20
5.702157860497459
 30
0.0
 11
17.291
 21
5.73315786049746
 31
0.0
  0
LINE
  5
27F
330
1F
100
AcDbEntity
  8
Object
100
AcDbLine
 10
17.291
 20
5.73315786049746
 30
0.0
 11
17.291
 21
5.763157860497459
 31
0.0
  0
LINE
  5
280
330
1F
100
AcDbEntity
  8
Object
100
AcDbLine
 10
5.826
 20
6.45915786049746
 30
0.0
 11
5.824999999999999
 21
6.46415786049746
 31
0.0
  0
LINE
  5
281
330
1F
100
AcDbEntity
  8
Object
100
AcDbLine
 10
5.824999999999999
 20
6.46415786049746
 30
0.0
 11
5.820999999999999
 21
6.469157860497459
 31
0.0
  0
LINE
  5
282
330
1F
100
AcDbEntity
  8
Object
100
AcDbLine
 10
5.820999999999999
 20
6.469157860497459
 30
0.0
 11
5.815000000000001
 21
6.47015786049746
 31
0.0
  0
LINE
  5
283
330
1F
100
AcDbEntity
  8
Object
100
AcDbLine
 10
5.826
 20
6.45915786049746
 30
0.0
 11
5.826
 21
6.39815786049746
 31
0.0
  0
LINE
  5
284
330
1F
100
AcDbEntity
  8
Object
100
AcDbLine
 10
5.826
 20
6.39815786049746
 30
0.0
 11
5.824999999999999
 21
6.39215786049746
 31
0.0
  0
LINE
  5
285
330
1F
100
AcDbEntity
  8
Object
100
AcDbLine
 10
5.824999999999999
 20
6.39215786049746
 30
0.0
 11
5.820999999999999
 21
6.38815786049746
 31
0.0
  0
LINE
  5
286
330
1F
100
AcDbEntity
  8
Object
100
AcDbLine
 10
5.820999999999999
 20
6.38815786049746
 30
0.0
 11
5.815000000000001
 21
6.386157860497459
 31
0.0
  0
LINE
  5
287
330
1F
100
AcDbEntity
  8
Object
100
AcDbLine
 10
5.791
 20
6.47015786049746
 30
0.0
 11
5.815000000000001
 21
6.47015786049746
 31
0.0
  0
LINE
  5
288
330
1F
100
AcDbEntity
  8
Object
100
AcDbLine
 10
5.815000000000001
 20
6.386157860497459
 30
0.0
 11
5.791
 21
6.386157860497459
 31
0.0
  0
LINE
  5
289
330
1F
100
AcDbEntity
  8
Object
100
AcDbLine
 10
5.791
 20
6.386157860497459
 30
0.0
 11
5.791
 21
6.47015786049746
 31
0.0
  0
LINE
  5
28A
330
1F
100
AcDbEntity
  8
Object
100
AcDbLine
 10
6.124
 20
6.381157860497459
 30
0.0
 11
6.124
 21
6.45615786049746
 31
0.0
  0
LINE
  5
28B
330
1F
100
AcDbEntity
  8
Object
100
AcDbLine
 10
6.124
 20
6.45615786049746
 30
0.0
 11
6.170999999999999
 21
6.45615786049746
 31
0.0
  0
LINE
  5
28C
330
1F
100
AcDbEntity
  8
Object
100
AcDbLine
 10
6.170999999999999
 20
6.45615786049746
 30
0.0
 11
6.170999999999999
 21
6.27315786049746
 31
0.0
  0
LINE
  5
28D
330
1F
100
AcDbEntity
  8
Object
100
AcDbLine
 10
6.170999999999999
 20
6.27315786049746
 30
0.0
 11
6.115999999999999
 21
6.27315786049746
 31
0.0
  0
LINE
  5
28E
330
1F
100
AcDbEntity
  8
Object
100
AcDbLine
 10
6.124
 20
6.381157860497459
 30
0.0
 11
6.092
 21
6.45615786049746
 31
0.0
  0
LINE
  5
28F
330
1F
100
AcDbEntity
  8
Object
100
AcDbLine
 10
6.115999999999999
 20
6.27315786049746
 30
0.0
 11
6.082
 21
6.351157860497459
 31
0.0
  0
LINE
  5
290
330
1F
100
AcDbEntity
  8
Object
100
AcDbLine
 10
6.082
 20
6.351157860497459
 30
0.0
 11
6.082
 21
6.27315786049746
 31
0.0
  0
LINE
  5
291
330
1F
100
AcDbEntity
  8
Object
100
AcDbLine
 10
6.030000000000001
 20
6.33715786049746
 30
0.0
 11
6.030000000000001
 21
6.45615786049746
 31
0.0
  0
LINE
  5
292
330
1F
100
AcDbEntity
  8
Object
100
AcDbLine
 10
6.030000000000001
 20
6.45615786049746
 30
0.0
 11
6.092
 21
6.45615786049746
 31
0.0
  0
LINE
  5
293
330
1F
100
AcDbEntity
  8
Object
100
AcDbLine
 10
6.082
 20
6.27315786049746
 30
0.0
 11
6.0
 21
6.27315786049746
 31
0.0
  0
LINE
  5
294
330
1F
100
AcDbEntity
  8
Object
100
AcDbLine
 10
6.0
 20
6.27315786049746
 30
0.0
 11
5.987
 21
6.29915786049746
 31
0.0
  0
LINE
  5
295
330
1F
100
AcDbEntity
  8
Object
100
AcDbLine
 10
6.030000000000001
 20
6.33715786049746
 30
0.0
 11
5.977
 21
6.45615786049746
 31
0.0
  0
LINE
  5
296
330
1F
100
AcDbEntity
  8
Object
100
AcDbLine
 10
5.951999999999999
 20
6.391157860497459
 30
0.0
 11
5.975000000000001
 21
6.33915786049746
 31
0.0
  0
LINE
  5
297
330
1F
100
AcDbEntity
  8
Object
100
AcDbLine
 10
5.977
 20
6.45615786049746
 30
0.0
 11
5.928
 21
6.45615786049746
 31
0.0
  0
LINE
  5
298
330
1F
100
AcDbEntity
  8
Object
100
AcDbLine
 10
5.975000000000001
 20
6.33915786049746
 30
0.0
 11
5.929
 21
6.33915786049746
 31
0.0
  0
LINE
  5
299
330
1F
100
AcDbEntity
  8
Object
100
AcDbLine
 10
5.916999999999999
 20
6.29915786049746
 30
0.0
 11
5.987
 21
6.29915786049746
 31
0.0
  0
LINE
  5
29A
330
1F
100
AcDbEntity
  8
Object
100
AcDbLine
 10
5.929
 20
6.33915786049746
 30
0.0
 11
5.951999999999999
 21
6.391157860497459
 31
0.0
  0
LINE
  5
29B
330
1F
100
AcDbEntity
  8
Object
100
AcDbLine
 10
5.916999999999999
 20
6.29915786049746
 30
0.0
 11
5.905999999999998
 21
6.27315786049746
 31
0.0
  0
LINE
  5
29C
330
1F
100
AcDbEntity
  8
Object
100
AcDbLine
 10
5.905999999999998
 20
6.27315786049746
 30
0.0
 11
5.852
 21
6.27315786049746
 31
0.0
  0
LINE
  5
29D
330
1F
100
AcDbEntity
  8
Object
100
AcDbLine
 10
5.852
 20
6.27315786049746
 30
0.0
 11
5.885999999999999
 21
6.35615786049746
 31
0.0
  0
LINE
  5
29E
330
1F
100
AcDbEntity
  8
Object
100
AcDbLine
 10
5.826
 20
6.45915786049746
 30
0.0
 11
5.826
 21
6.39815786049746
 31
0.0
  0
LINE
  5
29F
330
1F
100
AcDbEntity
  8
Object
100
AcDbLine
 10
5.875
 20
6.351157860497459
 30
0.0
 11
5.885999999999999
 21
6.35615786049746
 31
0.0
  0
LINE
  5
2A0
330
1F
100
AcDbEntity
  8
Object
100
AcDbLine
 10
5.882999999999999
 20
6.506157860497459
 30
0.0
 11
5.911000000000001
 21
6.48615786049746
 31
0.0
  0
LINE
  5
2A1
330
1F
100
AcDbEntity
  8
Object
100
AcDbLine
 10
5.911000000000001
 20
6.48615786049746
 30
0.0
 11
5.928
 21
6.45615786049746
 31
0.0
  0
LINE
  5
2A2
330
1F
100
AcDbEntity
  8
Object
100
AcDbLine
 10
5.882999999999999
 20
6.506157860497459
 30
0.0
 11
5.850000000000001
 21
6.51315786049746
 31
0.0
  0
LINE
  5
2A3
330
1F
100
AcDbEntity
  8
Object
100
AcDbLine
 10
5.824999999999999
 20
6.46415786049746
 30
0.0
 11
5.826
 21
6.45915786049746
 31
0.0
  0
LINE
  5
2A4
330
1F
100
AcDbEntity
  8
Object
100
AcDbLine
 10
5.826
 20
6.39815786049746
 30
0.0
 11
5.824999999999999
 21
6.39215786049746
 31
0.0
  0
LINE
  5
2A5
330
1F
100
AcDbEntity
  8
Object
100
AcDbLine
 10
5.875
 20
6.351157860497459
 30
0.0
 11
5.862999999999999
 21
6.34815786049746
 31
0.0
  0
LINE
  5
2A6
330
1F
100
AcDbEntity
  8
Object
100
AcDbLine
 10
5.862999999999999
 20
6.34815786049746
 30
0.0
 11
5.850000000000001
 21
6.34715786049746
 31
0.0
  0
LINE
  5
2A7
330
1F
100
AcDbEntity
  8
Object
100
AcDbLine
 10
5.824999999999999
 20
6.39215786049746
 30
0.0
 11
5.820999999999999
 21
6.38815786049746
 31
0.0
  0
LINE
  5
2A8
330
1F
100
AcDbEntity
  8
Object
100
AcDbLine
 10
5.820999999999999
 20
6.469157860497459
 30
0.0
 11
5.824999999999999
 21
6.46415786049746
 31
0.0
  0
LINE
  5
2A9
330
1F
100
AcDbEntity
  8
Object
100
AcDbLine
 10
5.820999999999999
 20
6.38815786049746
 30
0.0
 11
5.815000000000001
 21
6.386157860497459
 31
0.0
  0
LINE
  5
2AA
330
1F
100
AcDbEntity
  8
Object
100
AcDbLine
 10
5.815000000000001
 20
6.47015786049746
 30
0.0
 11
5.820999999999999
 21
6.469157860497459
 31
0.0
  0
LINE
  5
2AB
330
1F
100
AcDbEntity
  8
Object
100
AcDbLine
 10
5.815000000000001
 20
6.386157860497459
 30
0.0
 11
5.791
 21
6.386157860497459
 31
0.0
  0
LINE
  5
2AC
330
1F
100
AcDbEntity
  8
Object
100
AcDbLine
 10
5.791
 20
6.47015786049746
 30
0.0
 11
5.815000000000001
 21
6.47015786049746
 31
0.0
  0
LINE
  5
2AD
330
1F
100
AcDbEntity
  8
Object
100
AcDbLine
 10
5.791
 20
6.34715786049746
 30
0.0
 11
5.850000000000001
 21
6.34715786049746
 31
0.0
  0
LINE
  5
2AE
330
1F
100
AcDbEntity
  8
Object
100
AcDbLine
 10
5.682999999999999
 20
6.51315786049746
 30
0.0
 11
5.682999999999999
 21
6.27315786049746
 31
0.0
  0
LINE
  5
2AF
330
1F
100
AcDbEntity
  8
Object
100
AcDbLine
 10
5.791
 20
6.34715786049746
 30
0.0
 11
5.791
 21
6.27315786049746
 31
0.0
  0
LINE
  5
2B0
330
1F
100
AcDbEntity
  8
Object
100
AcDbLine
 10
5.791
 20
6.27315786049746
 30
0.0
 11
5.682999999999999
 21
6.27315786049746
 31
0.0
  0
LINE
  5
2B1
330
1F
100
AcDbEntity
  8
Object
100
AcDbLine
 10
5.791
 20
6.386157860497459
 30
0.0
 11
5.791
 21
6.47015786049746
 31
0.0
  0
LINE
  5
2B2
330
1F
100
AcDbEntity
  8
Object
100
AcDbLine
 10
5.850000000000001
 20
6.51315786049746
 30
0.0
 11
5.682999999999999
 21
6.51315786049746
 31
0.0
  0
LINE
  5
2B3
330
1F
100
AcDbEntity
  8
Object
100
AcDbLine
 10
5.975000000000001
 20
6.33915786049746
 30
0.0
 11
5.929
 21
6.33915786049746
 31
0.0
  0
LINE
  5
2B4
330
1F
100
AcDbEntity
  8
Object
100
AcDbLine
 10
5.977
 20
6.45615786049746
 30
0.0
 11
5.928
 21
6.45615786049746
 31
0.0
  0
LINE
  5
2B5
330
1F
100
AcDbEntity
  8
Object
100
AcDbLine
 10
5.951999999999999
 20
6.391157860497459
 30
0.0
 11
5.975000000000001
 21
6.33915786049746
 31
0.0
  0
LINE
  5
2B6
330
1F
100
AcDbEntity
  8
Object
100
AcDbLine
 10
6.0
 20
6.27315786049746
 30
0.0
 11
6.082
 21
6.27315786049746
 31
0.0
  0
LINE
  5
2B7
330
1F
100
AcDbEntity
  8
Object
100
AcDbLine
 10
6.170999999999999
 20
6.45615786049746
 30
0.0
 11
6.124
 21
6.45615786049746
 31
0.0
  0
LINE
  5
2B8
330
1F
100
AcDbEntity
  8
Object
100
AcDbLine
 10
5.791
 20
6.27315786049746
 30
0.0
 11
5.791
 21
6.34715786049746
 31
0.0
  0
LINE
  5
2B9
330
1F
100
AcDbEntity
  8
Object
100
AcDbLine
 10
5.885999999999999
 20
6.35615786049746
 30
0.0
 11
5.852
 21
6.27315786049746
 31
0.0
  0
LINE
  5
2BA
330
1F
100
AcDbEntity
  8
Object
100
AcDbLine
 10
6.082
 20
6.351157860497459
 30
0.0
 11
6.115999999999999
 21
6.27315786049746
 31
0.0
  0
LINE
  5
2BB
330
1F
100
AcDbEntity
  8
Object
100
AcDbLine
 10
5.987
 20
6.29915786049746
 30
0.0
 11
6.0
 21
6.27315786049746
 31
0.0
  0
LINE
  5
2BC
330
1F
100
AcDbEntity
  8
Object
100
AcDbLine
 10
5.682999999999999
 20
6.27315786049746
 30
0.0
 11
5.791
 21
6.27315786049746
 31
0.0
  0
LINE
  5
2BD
330
1F
100
AcDbEntity
  8
Object
100
AcDbLine
 10
5.885999999999999
 20
6.35615786049746
 30
0.0
 11
5.875
 21
6.351157860497459
 31
0.0
  0
LINE
  5
2BE
330
1F
100
AcDbEntity
  8
Object
100
AcDbLine
 10
5.875
 20
6.351157860497459
 30
0.0
 11
5.862999999999999
 21
6.34815786049746
 31
0.0
  0
LINE
  5
2BF
330
1F
100
AcDbEntity
  8
Object
100
AcDbLine
 10
5.862999999999999
 20
6.34815786049746
 30
0.0
 11
5.850000000000001
 21
6.34715786049746
 31
0.0
  0
LINE
  5
2C0
330
1F
100
AcDbEntity
  8
Object
100
AcDbLine
 10
5.977
 20
6.45615786049746
 30
0.0
 11
6.030000000000001
 21
6.33715786049746
 31
0.0
  0
LINE
  5
2C1
330
1F
100
AcDbEntity
  8
Object
100
AcDbLine
 10
6.030000000000001
 20
6.33715786049746
 30
0.0
 11
6.030000000000001
 21
6.45615786049746
 31
0.0
  0
LINE
  5
2C2
330
1F
100
AcDbEntity
  8
Object
100
AcDbLine
 10
6.124
 20
6.381157860497459
 30
0.0
 11
6.092
 21
6.45615786049746
 31
0.0
  0
LINE
  5
2C3
330
1F
100
AcDbEntity
  8
Object
100
AcDbLine
 10
6.170999999999999
 20
6.27315786049746
 30
0.0
 11
6.170999999999999
 21
6.45615786049746
 31
0.0
  0
LINE
  5
2C4
330
1F
100
AcDbEntity
  8
Object
100
AcDbLine
 10
5.905999999999998
 20
6.27315786049746
 30
0.0
 11
5.916999999999999
 21
6.29915786049746
 31
0.0
  0
LINE
  5
2C5
330
1F
100
AcDbEntity
  8
Object
100
AcDbLine
 10
6.124
 20
6.45615786049746
 30
0.0
 11
6.124
 21
6.381157860497459
 31
0.0
  0
LINE
  5
2C6
330
1F
100
AcDbEntity
  8
Object
100
AcDbLine
 10
6.082
 20
6.27315786049746
 30
0.0
 11
6.082
 21
6.351157860497459
 31
0.0
  0
LINE
  5
2C7
330
1F
100
AcDbEntity
  8
Object
100
AcDbLine
 10
5.791
 20
6.34715786049746
 30
0.0
 11
5.850000000000001
 21
6.34715786049746
 31
0.0
  0
LINE
  5
2C8
330
1F
100
AcDbEntity
  8
Object
100
AcDbLine
 10
5.852
 20
6.27315786049746
 30
0.0
 11
5.905999999999998
 21
6.27315786049746
 31
0.0
  0
LINE
  5
2C9
330
1F
100
AcDbEntity
  8
Object
100
AcDbLine
 10
5.850000000000001
 20
6.51315786049746
 30
0.0
 11
5.682999999999999
 21
6.51315786049746
 31
0.0
  0
LINE
  5
2CA
330
1F
100
AcDbEntity
  8
Object
100
AcDbLine
 10
6.115999999999999
 20
6.27315786049746
 30
0.0
 11
6.170999999999999
 21
6.27315786049746
 31
0.0
  0
LINE
  5
2CB
330
1F
100
AcDbEntity
  8
Object
100
AcDbLine
 10
5.682999999999999
 20
6.51315786049746
 30
0.0
 11
5.682999999999999
 21
6.27315786049746
 31
0.0
  0
LINE
  5
2CC
330
1F
100
AcDbEntity
  8
Object
100
AcDbLine
 10
6.092
 20
6.45615786049746
 30
0.0
 11
6.030000000000001
 21
6.45615786049746
 31
0.0
  0
LINE
  5
2CD
330
1F
100
AcDbEntity
  8
Object
100
AcDbLine
 10
5.916999999999999
 20
6.29915786049746
 30
0.0
 11
5.987
 21
6.29915786049746
 31
0.0
  0
LINE
  5
2CE
330
1F
100
AcDbEntity
  8
Object
100
AcDbLine
 10
5.929
 20
6.33915786049746
 30
0.0
 11
5.951999999999999
 21
6.391157860497459
 31
0.0
  0
LINE
  5
2CF
330
1F
100
AcDbEntity
  8
Object
100
AcDbLine
 10
5.928
 20
6.45615786049746
 30
0.0
 11
5.911000000000001
 21
6.48615786049746
 31
0.0
  0
LINE
  5
2D0
330
1F
100
AcDbEntity
  8
Object
100
AcDbLine
 10
5.911000000000001
 20
6.48615786049746
 30
0.0
 11
5.882999999999999
 21
6.506157860497459
 31
0.0
  0
LINE
  5
2D1
330
1F
100
AcDbEntity
  8
Object
100
AcDbLine
 10
5.882999999999999
 20
6.506157860497459
 30
0.0
 11
5.850000000000001
 21
6.51315786049746
 31
0.0
  0
LINE
  5
2D2
330
1F
100
AcDbEntity
  8
Object
100
AcDbLine
 10
8.009
 20
8.665157860497458
 30
0.0
 11
8.021
 21
8.65315786049746
 31
0.0
  0
LINE
  5
2D3
330
1F
100
AcDbEntity
  8
Object
100
AcDbLine
 10
8.021
 20
8.65315786049746
 30
0.0
 11
8.028
 21
8.638157860497461
 31
0.0
  0
LINE
  5
2D4
330
1F
100
AcDbEntity
  8
Object
100
AcDbLine
 10
8.028
 20
8.638157860497461
 30
0.0
 11
8.031
 21
8.62315786049746
 31
0.0
  0
LINE
  5
2D5
330
1F
100
AcDbEntity
  8
Object
100
AcDbLine
 10
8.009
 20
8.665157860497458
 30
0.0
 11
7.995
 21
8.67215786049746
 31
0.0
  0
LINE
  5
2D6
330
1F
100
AcDbEntity
  8
Object
100
AcDbLine
 10
8.031
 20
5.75915786049746
 30
0.0
 11
8.025999999999999
 21
5.73315786049746
 31
0.0
  0
LINE
  5
2D7
330
1F
100
AcDbEntity
  8
Object
100
AcDbLine
 10
8.025999999999999
 20
5.73315786049746
 30
0.0
 11
8.009999999999999
 21
5.71015786049746
 31
0.0
  0
LINE
  5
2D8
330
1F
100
AcDbEntity
  8
Object
100
AcDbLine
 10
8.009999999999999
 20
5.71015786049746
 30
0.0
 11
7.986
 21
5.69415786049746
 31
0.0
  0
LINE
  5
2D9
330
1F
100
AcDbEntity
  8
Object
100
AcDbLine
 10
7.986
 20
5.69415786049746
 30
0.0
 11
7.961
 21
5.689157860497459
 31
0.0
  0
LINE
  5
2DA
330
1F
100
AcDbEntity
  8
Object
100
AcDbLine
 10
7.995
 20
8.67215786049746
 30
0.0
 11
7.737
 21
8.761157860497458
 31
0.0
  0
LINE
  5
2DB
330
1F
100
AcDbEntity
  8
Object
100
AcDbLine
 10
7.618999999999999
 20
9.051157860497459
 30
0.0
 11
7.614
 21
9.077157860497461
 31
0.0
  0
LINE
  5
2DC
330
1F
100
AcDbEntity
  8
Object
100
AcDbLine
 10
7.574999999999999
 20
9.116157860497459
 30
0.0
 11
7.597999999999998
 21
9.10115786049746
 31
0.0
  0
LINE
  5
2DD
330
1F
100
AcDbEntity
  8
Object
100
AcDbLine
 10
7.597999999999998
 20
9.10115786049746
 30
0.0
 11
7.614
 21
9.077157860497461
 31
0.0
  0
LINE
  5
2DE
330
1F
100
AcDbEntity
  8
Object
100
AcDbLine
 10
7.574999999999999
 20
9.116157860497459
 30
0.0
 11
7.548999999999999
 21
9.12115786049746
 31
0.0
  0
LINE
  5
2DF
330
1F
100
AcDbEntity
  8
Object
100
AcDbLine
 10
7.618999999999999
 20
9.051157860497459
 30
0.0
 11
7.618999999999999
 21
8.927157860497459
 31
0.0
  0
LINE
  5
2E0
330
1F
100
AcDbEntity
  8
Object
100
AcDbLine
 10
7.618999999999999
 20
8.927157860497459
 30
0.0
 11
7.621
 21
8.901157860497459
 31
0.0
  0
LINE
  5
2E1
330
1F
100
AcDbEntity
  8
Object
100
AcDbLine
 10
7.621
 20
8.901157860497459
 30
0.0
 11
7.626999999999998
 21
8.875157860497459
 31
0.0
  0
LINE
  5
2E2
330
1F
100
AcDbEntity
  8
Object
100
AcDbLine
 10
7.669
 20
8.804157860497459
 30
0.0
 11
7.690000000000001
 21
8.786157860497461
 31
0.0
  0
LINE
  5
2E3
330
1F
100
AcDbEntity
  8
Object
100
AcDbLine
 10
7.690000000000001
 20
8.786157860497461
 30
0.0
 11
7.713
 21
8.772157860497459
 31
0.0
  0
LINE
  5
2E4
330
1F
100
AcDbEntity
  8
Object
100
AcDbLine
 10
7.713
 20
8.772157860497459
 30
0.0
 11
7.737
 21
8.761157860497458
 31
0.0
  0
LINE
  5
2E5
330
1F
100
AcDbEntity
  8
Object
100
AcDbLine
 10
8.031
 20
5.75915786049746
 30
0.0
 11
8.031
 21
8.62315786049746
 31
0.0
  0
LINE
  5
2E6
330
1F
100
AcDbEntity
  8
Object
100
AcDbLine
 10
7.669
 20
8.804157860497459
 30
0.0
 11
7.650999999999999
 21
8.825157860497458
 31
0.0
  0
LINE
  5
2E7
330
1F
100
AcDbEntity
  8
Object
100
AcDbLine
 10
7.650999999999999
 20
8.825157860497458
 30
0.0
 11
7.637
 21
8.849157860497459
 31
0.0
  0
LINE
  5
2E8
330
1F
100
AcDbEntity
  8
Object
100
AcDbLine
 10
4.823999999999999
 20
9.077157860497461
 30
0.0
 11
4.839999999999999
 21
9.10115786049746
 31
0.0
  0
LINE
  5
2E9
330
1F
100
AcDbEntity
  8
Object
100
AcDbLine
 10
4.839999999999999
 20
9.10115786049746
 30
0.0
 11
4.864
 21
9.116157860497459
 31
0.0
  0
LINE
  5
2EA
330
1F
100
AcDbEntity
  8
Object
100
AcDbLine
 10
4.864
 20
9.116157860497459
 30
0.0
 11
4.888999999999999
 21
9.12115786049746
 31
0.0
  0
LINE
  5
2EB
330
1F
100
AcDbEntity
  8
Object
100
AcDbLine
 10
4.888999999999999
 20
9.12115786049746
 30
0.0
 11
7.548999999999999
 21
9.12115786049746
 31
0.0
  0
LINE
  5
2EC
330
1F
100
AcDbEntity
  8
Object
100
AcDbLine
 10
4.810999999999999
 20
8.875157860497459
 30
0.0
 11
4.801
 21
8.849157860497459
 31
0.0
  0
LINE
  5
2ED
330
1F
100
AcDbEntity
  8
Object
100
AcDbLine
 10
7.637
 20
8.849157860497459
 30
0.0
 11
7.626999999999998
 21
8.875157860497459
 31
0.0
  0
LINE
  5
2EE
330
1F
100
AcDbEntity
  8
Object
100
AcDbLine
 10
4.786999999999999
 20
8.825157860497458
 30
0.0
 11
4.769
 21
8.804157860497459
 31
0.0
  0
LINE
  5
2EF
330
1F
100
AcDbEntity
  8
Object
100
AcDbLine
 10
4.748000000000001
 20
8.786157860497461
 30
0.0
 11
4.725000000000001
 21
8.772157860497459
 31
0.0
  0
LINE
  5
2F0
330
1F
100
AcDbEntity
  8
Object
100
AcDbLine
 10
4.477999999999999
 20
5.689157860497459
 30
0.0
 11
7.961
 21
5.689157860497459
 31
0.0
  0
LINE
  5
2F1
330
1F
100
AcDbEntity
  8
Object
100
AcDbLine
 10
4.428
 20
5.71015786049746
 30
0.0
 11
4.451999999999999
 21
5.69415786049746
 31
0.0
  0
LINE
  5
2F2
330
1F
100
AcDbEntity
  8
Object
100
AcDbLine
 10
4.416999999999999
 20
8.65315786049746
 30
0.0
 11
4.429
 21
8.665157860497458
 31
0.0
  0
LINE
  5
2F3
330
1F
100
AcDbEntity
  8
Object
100
AcDbLine
 10
4.429
 20
8.665157860497458
 30
0.0
 11
4.443000000000001
 21
8.67215786049746
 31
0.0
  0
LINE
  5
2F4
330
1F
100
AcDbEntity
  8
Object
100
AcDbLine
 10
4.443000000000001
 20
8.67215786049746
 30
0.0
 11
4.701
 21
8.761157860497458
 31
0.0
  0
LINE
  5
2F5
330
1F
100
AcDbEntity
  8
Object
100
AcDbLine
 10
4.451999999999999
 20
5.69415786049746
 30
0.0
 11
4.477999999999999
 21
5.689157860497459
 31
0.0
  0
LINE
  5
2F6
330
1F
100
AcDbEntity
  8
Object
100
AcDbLine
 10
6.371
 20
6.45615786049746
 30
0.0
 11
6.371
 21
6.305157860497459
 31
0.0
  0
LINE
  5
2F7
330
1F
100
AcDbEntity
  8
Object
100
AcDbLine
 10
6.751000000000001
 20
6.45615786049746
 30
0.0
 11
6.615
 21
6.45615786049746
 31
0.0
  0
LINE
  5
2F8
330
1F
100
AcDbEntity
  8
Object
100
AcDbLine
 10
4.443000000000001
 20
8.67215786049746
 30
0.0
 11
4.440999999999998
 21
8.677157860497459
 31
0.0
  0
LINE
  5
2F9
330
1F
100
AcDbEntity
  8
Object
100
AcDbLine
 10
4.440000000000001
 20
8.68215786049746
 30
0.0
 11
4.440000000000001
 21
8.68115786049746
 31
0.0
  0
LINE
  5
2FA
330
1F
100
AcDbEntity
  8
Object
100
AcDbLine
 10
4.440000000000001
 20
8.68115786049746
 30
0.0
 11
4.440999999999998
 21
8.677157860497459
 31
0.0
  0
LINE
  5
2FB
330
1F
100
AcDbEntity
  8
Object
100
AcDbLine
 10
4.416999999999999
 20
8.65315786049746
 30
0.0
 11
4.41
 21
8.638157860497461
 31
0.0
  0
LINE
  5
2FC
330
1F
100
AcDbEntity
  8
Object
100
AcDbLine
 10
4.41
 20
8.638157860497461
 30
0.0
 11
4.408000000000001
 21
8.62315786049746
 31
0.0
  0
LINE
  5
2FD
330
1F
100
AcDbEntity
  8
Object
100
AcDbLine
 10
8.038
 20
8.641157860497459
 30
0.0
 11
8.041
 21
8.62315786049746
 31
0.0
  0
LINE
  5
2FE
330
1F
100
AcDbEntity
  8
Object
100
AcDbLine
 10
8.041
 20
8.62315786049746
 30
0.0
 11
8.038999999999999
 21
8.62315786049746
 31
0.0
  0
LINE
  5
2FF
330
1F
100
AcDbEntity
  8
Object
100
AcDbLine
 10
8.038999999999999
 20
8.62315786049746
 30
0.0
 11
8.035
 21
8.62315786049746
 31
0.0
  0
LINE
  5
300
330
1F
100
AcDbEntity
  8
Object
100
AcDbLine
 10
8.038
 20
8.641157860497459
 30
0.0
 11
8.028999999999999
 21
8.65915786049746
 31
0.0
  0
LINE
  5
301
330
1F
100
AcDbEntity
  8
Object
100
AcDbLine
 10
8.031
 20
8.62315786049746
 30
0.0
 11
8.035
 21
8.62315786049746
 31
0.0
  0
LINE
  5
302
330
1F
100
AcDbEntity
  8
Object
100
AcDbLine
 10
8.028999999999999
 20
8.65915786049746
 30
0.0
 11
8.015
 21
8.673157860497459
 31
0.0
  0
LINE
  5
303
330
1F
100
AcDbEntity
  8
Object
100
AcDbLine
 10
8.015
 20
8.673157860497459
 30
0.0
 11
7.998000000000001
 21
8.68215786049746
 31
0.0
  0
LINE
  5
304
330
1F
100
AcDbEntity
  8
Object
100
AcDbLine
 10
6.501999999999998
 20
6.305157860497459
 30
0.0
 11
6.501999999999998
 21
6.45615786049746
 31
0.0
  0
LINE
  5
305
330
1F
100
AcDbEntity
  8
Object
100
AcDbLine
 10
6.708999999999999
 20
6.27315786049746
 30
0.0
 11
6.708999999999999
 21
6.41915786049746
 31
0.0
  0
LINE
  5
306
330
1F
100
AcDbEntity
  8
Object
100
AcDbLine
 10
6.339
 20
6.423157860497459
 30
0.0
 11
6.335
 21
6.44015786049746
 31
0.0
  0
LINE
  5
307
330
1F
100
AcDbEntity
  8
Object
100
AcDbLine
 10
6.335
 20
6.44015786049746
 30
0.0
 11
6.323
 21
6.452157860497459
 31
0.0
  0
LINE
  5
308
330
1F
100
AcDbEntity
  8
Object
100
AcDbLine
 10
6.323
 20
6.452157860497459
 30
0.0
 11
6.306
 21
6.45615786049746
 31
0.0
  0
LINE
  5
309
330
1F
100
AcDbEntity
  8
Object
100
AcDbLine
 10
4.814
 20
8.927157860497459
 30
0.0
 11
4.818999999999999
 21
8.927157860497459
 31
0.0
  0
LINE
  5
30A
330
1F
100
AcDbEntity
  8
Object
100
AcDbLine
 10
4.818999999999999
 20
8.927157860497459
 30
0.0
 11
4.817
 21
8.901157860497459
 31
0.0
  0
LINE
  5
30B
330
1F
100
AcDbEntity
  8
Object
100
AcDbLine
 10
4.814
 20
8.927157860497459
 30
0.0
 11
4.810999999999999
 21
8.927157860497459
 31
0.0
  0
LINE
  5
30C
330
1F
100
AcDbEntity
  8
Object
100
AcDbLine
 10
4.810999999999999
 20
8.927157860497459
 30
0.0
 11
4.809000000000001
 21
8.927157860497459
 31
0.0
  0
LINE
  5
30D
330
1F
100
AcDbEntity
  8
Object
100
AcDbLine
 10
4.810999999999999
 20
8.875157860497459
 30
0.0
 11
4.817
 21
8.901157860497459
 31
0.0
  0
LINE
  5
30E
330
1F
100
AcDbEntity
  8
Object
100
AcDbLine
 10
4.786999999999999
 20
8.825157860497458
 30
0.0
 11
4.801
 21
8.849157860497459
 31
0.0
  0
LINE
  5
30F
330
1F
100
AcDbEntity
  8
Object
100
AcDbLine
 10
4.803
 20
8.87615786049746
 30
0.0
 11
4.791999999999999
 21
8.854157860497458
 31
0.0
  0
LINE
  5
310
330
1F
100
AcDbEntity
  8
Object
100
AcDbLine
 10
4.791999999999999
 20
8.854157860497458
 30
0.0
 11
4.780000000000001
 21
8.830157860497459
 31
0.0
  0
LINE
  5
311
330
1F
100
AcDbEntity
  8
Object
100
AcDbLine
 10
4.748000000000001
 20
8.786157860497461
 30
0.0
 11
4.769
 21
8.804157860497459
 31
0.0
  0
LINE
  5
312
330
1F
100
AcDbEntity
  8
Object
100
AcDbLine
 10
4.780000000000001
 20
8.830157860497459
 30
0.0
 11
4.762
 21
8.811157860497459
 31
0.0
  0
LINE
  5
313
330
1F
100
AcDbEntity
  8
Object
100
AcDbLine
 10
4.762
 20
8.811157860497459
 30
0.0
 11
4.743999999999999
 21
8.793157860497458
 31
0.0
  0
LINE
  5
314
330
1F
100
AcDbEntity
  8
Object
100
AcDbLine
 10
4.701
 20
8.761157860497458
 30
0.0
 11
4.725000000000001
 21
8.772157860497459
 31
0.0
  0
LINE
  5
315
330
1F
100
AcDbEntity
  8
Object
100
AcDbLine
 10
4.742
 20
8.79415786049746
 30
0.0
 11
4.698
 21
8.77115786049746
 31
0.0
  0
LINE
  5
316
330
1F
100
AcDbEntity
  8
Object
100
AcDbLine
 10
7.626999999999998
 20
8.927157860497459
 30
0.0
 11
7.629000000000001
 21
8.927157860497459
 31
0.0
  0
LINE
  5
317
330
1F
100
AcDbEntity
  8
Object
100
AcDbLine
 10
7.629000000000001
 20
8.927157860497459
 30
0.0
 11
7.629000000000001
 21
9.051157860497459
 31
0.0
  0
LINE
  5
318
330
1F
100
AcDbEntity
  8
Object
100
AcDbLine
 10
7.626999999999998
 20
8.927157860497459
 30
0.0
 11
7.624
 21
8.927157860497459
 31
0.0
  0
LINE
  5
319
330
1F
100
AcDbEntity
  8
Object
100
AcDbLine
 10
7.624
 20
8.927157860497459
 30
0.0
 11
7.618999999999999
 21
8.927157860497459
 31
0.0
  0
LINE
  5
31A
330
1F
100
AcDbEntity
  8
Object
100
AcDbLine
 10
7.624
 20
9.051157860497459
 30
0.0
 11
7.618999999999999
 21
9.051157860497459
 31
0.0
  0
LINE
  5
31B
330
1F
100
AcDbEntity
  8
Object
100
AcDbLine
 10
6.533999999999998
 20
6.27315786049746
 30
0.0
 11
6.583
 21
6.27315786049746
 31
0.0
  0
LINE
  5
31C
330
1F
100
AcDbEntity
  8
Object
100
AcDbLine
 10
7.737
 20
8.761157860497458
 30
0.0
 11
7.737999999999999
 21
8.766157860497459
 31
0.0
  0
LINE
  5
31D
330
1F
100
AcDbEntity
  8
Object
100
AcDbLine
 10
7.695999999999999
 20
8.79415786049746
 30
0.0
 11
7.74
 21
8.77115786049746
 31
0.0
  0
LINE
  5
31E
330
1F
100
AcDbEntity
  8
Object
100
AcDbLine
 10
7.74
 20
8.77115786049746
 30
0.0
 11
7.74
 21
8.770157860497459
 31
0.0
  0
LINE
  5
31F
330
1F
100
AcDbEntity
  8
Object
100
AcDbLine
 10
7.74
 20
8.770157860497459
 30
0.0
 11
7.737999999999999
 21
8.766157860497459
 31
0.0
  0
LINE
  5
320
330
1F
100
AcDbEntity
  8
Object
100
AcDbLine
 10
7.695999999999999
 20
8.79415786049746
 30
0.0
 11
7.676
 21
8.811157860497459
 31
0.0
  0
LINE
  5
321
330
1F
100
AcDbEntity
  8
Object
100
AcDbLine
 10
7.676
 20
8.811157860497459
 30
0.0
 11
7.693999999999999
 21
8.793157860497458
 31
0.0
  0
LINE
  5
322
330
1F
100
AcDbEntity
  8
Object
100
AcDbLine
 10
7.658999999999998
 20
8.830157860497459
 30
0.0
 11
7.676
 21
8.811157860497459
 31
0.0
  0
LINE
  5
323
330
1F
100
AcDbEntity
  8
Object
100
AcDbLine
 10
7.676
 20
8.811157860497459
 30
0.0
 11
7.66
 21
8.831157860497459
 31
0.0
  0
LINE
  5
324
330
1F
100
AcDbEntity
  8
Object
100
AcDbLine
 10
7.66
 20
8.831157860497459
 30
0.0
 11
7.646
 21
8.854157860497458
 31
0.0
  0
LINE
  5
325
330
1F
100
AcDbEntity
  8
Object
100
AcDbLine
 10
7.646
 20
8.854157860497458
 30
0.0
 11
7.658999999999998
 21
8.830157860497459
 31
0.0
  0
LINE
  5
326
330
1F
100
AcDbEntity
  8
Object
100
AcDbLine
 10
7.635999999999999
 20
8.875157860497459
 30
0.0
 11
7.646
 21
8.854157860497458
 31
0.0
  0
LINE
  5
327
330
1F
100
AcDbEntity
  8
Object
100
AcDbLine
 10
7.646
 20
8.854157860497458
 30
0.0
 11
7.635999999999999
 21
8.878157860497459
 31
0.0
  0
LINE
  5
328
330
1F
100
AcDbEntity
  8
Object
100
AcDbLine
 10
7.635999999999999
 20
8.878157860497459
 30
0.0
 11
7.629000000000001
 21
8.927157860497459
 31
0.0
  0
LINE
  5
329
330
1F
100
AcDbEntity
  8
Object
100
AcDbLine
 10
6.403999999999999
 20
6.27315786049746
 30
0.0
 11
6.469000000000001
 21
6.27315786049746
 31
0.0
  0
LINE
  5
32A
330
1F
100
AcDbEntity
  8
Object
100
AcDbLine
 10
4.888999999999999
 20
9.12115786049746
 30
0.0
 11
4.888999999999999
 21
9.12615786049746
 31
0.0
  0
LINE
  5
32B
330
1F
100
AcDbEntity
  8
Object
100
AcDbLine
 10
4.859999999999999
 20
9.12615786049746
 30
0.0
 11
4.888999999999999
 21
9.131157860497459
 31
0.0
  0
LINE
  5
32C
330
1F
100
AcDbEntity
  8
Object
100
AcDbLine
 10
4.888999999999999
 20
9.131157860497459
 30
0.0
 11
4.888999999999999
 21
9.13015786049746
 31
0.0
  0
LINE
  5
32D
330
1F
100
AcDbEntity
  8
Object
100
AcDbLine
 10
4.888999999999999
 20
9.13015786049746
 30
0.0
 11
4.888999999999999
 21
9.12615786049746
 31
0.0
  0
LINE
  5
32E
330
1F
100
AcDbEntity
  8
Object
100
AcDbLine
 10
4.859999999999999
 20
9.12615786049746
 30
0.0
 11
4.833
 21
9.10815786049746
 31
0.0
  0
LINE
  5
32F
330
1F
100
AcDbEntity
  8
Object
100
AcDbLine
 10
4.818999999999999
 20
9.051157860497459
 30
0.0
 11
4.823999999999999
 21
9.077157860497461
 31
0.0
  0
LINE
  5
330
330
1F
100
AcDbEntity
  8
Object
100
AcDbLine
 10
4.815000000000001
 20
9.081157860497459
 30
0.0
 11
4.833
 21
9.10815786049746
 31
0.0
  0
LINE
  5
331
330
1F
100
AcDbEntity
  8
Object
100
AcDbLine
 10
4.818999999999999
 20
9.051157860497459
 30
0.0
 11
4.814
 21
9.051157860497459
 31
0.0
  0
LINE
  5
332
330
1F
100
AcDbEntity
  8
Object
100
AcDbLine
 10
4.814
 20
9.051157860497459
 30
0.0
 11
4.810999999999999
 21
9.051157860497459
 31
0.0
  0
LINE
  5
333
330
1F
100
AcDbEntity
  8
Object
100
AcDbLine
 10
4.810999999999999
 20
9.051157860497459
 30
0.0
 11
4.809000000000001
 21
9.051157860497459
 31
0.0
  0
LINE
  5
334
330
1F
100
AcDbEntity
  8
Object
100
AcDbLine
 10
7.626999999999998
 20
9.051157860497459
 30
0.0
 11
7.629000000000001
 21
9.051157860497459
 31
0.0
  0
LINE
  5
335
330
1F
100
AcDbEntity
  8
Object
100
AcDbLine
 10
7.629000000000001
 20
9.051157860497459
 30
0.0
 11
7.623000000000001
 21
9.081157860497459
 31
0.0
  0
LINE
  5
336
330
1F
100
AcDbEntity
  8
Object
100
AcDbLine
 10
7.624
 20
9.051157860497459
 30
0.0
 11
7.626999999999998
 21
9.051157860497459
 31
0.0
  0
LINE
  5
337
330
1F
100
AcDbEntity
  8
Object
100
AcDbLine
 10
7.623000000000001
 20
9.081157860497459
 30
0.0
 11
7.605
 21
9.10815786049746
 31
0.0
  0
LINE
  5
338
330
1F
100
AcDbEntity
  8
Object
100
AcDbLine
 10
7.605
 20
9.10815786049746
 30
0.0
 11
7.577999999999999
 21
9.12615786049746
 31
0.0
  0
LINE
  5
339
330
1F
100
AcDbEntity
  8
Object
100
AcDbLine
 10
7.577999999999999
 20
9.12615786049746
 30
0.0
 11
7.548999999999999
 21
9.131157860497459
 31
0.0
  0
LINE
  5
33A
330
1F
100
AcDbEntity
  8
Object
100
AcDbLine
 10
6.708999999999999
 20
6.41915786049746
 30
0.0
 11
6.751000000000001
 21
6.41915786049746
 31
0.0
  0
LINE
  5
33B
330
1F
100
AcDbEntity
  8
Object
100
AcDbLine
 10
8.038999999999999
 20
5.75915786049746
 30
0.0
 11
8.041
 21
5.75915786049746
 31
0.0
  0
LINE
  5
33C
330
1F
100
AcDbEntity
  8
Object
100
AcDbLine
 10
8.041
 20
5.75915786049746
 30
0.0
 11
8.035
 21
5.73015786049746
 31
0.0
  0
LINE
  5
33D
330
1F
100
AcDbEntity
  8
Object
100
AcDbLine
 10
8.038999999999999
 20
5.75915786049746
 30
0.0
 11
8.035
 21
5.75915786049746
 31
0.0
  0
LINE
  5
33E
330
1F
100
AcDbEntity
  8
Object
100
AcDbLine
 10
8.035
 20
5.75915786049746
 30
0.0
 11
8.031
 21
5.75915786049746
 31
0.0
  0
LINE
  5
33F
330
1F
100
AcDbEntity
  8
Object
100
AcDbLine
 10
8.035
 20
5.73015786049746
 30
0.0
 11
8.016999999999999
 21
5.702157860497459
 31
0.0
  0
LINE
  5
340
330
1F
100
AcDbEntity
  8
Object
100
AcDbLine
 10
8.016999999999999
 20
5.702157860497459
 30
0.0
 11
7.99
 21
5.68515786049746
 31
0.0
  0
LINE
  5
341
330
1F
100
AcDbEntity
  8
Object
100
AcDbLine
 10
7.99
 20
5.68515786049746
 30
0.0
 11
7.961
 21
5.679157860497459
 31
0.0
  0
LINE
  5
342
330
1F
100
AcDbEntity
  8
Object
100
AcDbLine
 10
6.306
 20
6.45615786049746
 30
0.0
 11
6.202999999999999
 21
6.45615786049746
 31
0.0
  0
LINE
  5
343
330
1F
100
AcDbEntity
  8
Object
100
AcDbLine
 10
6.432
 20
6.32415786049746
 30
0.0
 11
6.432
 21
6.45615786049746
 31
0.0
  0
LINE
  5
344
330
1F
100
AcDbEntity
  8
Object
100
AcDbLine
 10
6.403999999999999
 20
6.27315786049746
 30
0.0
 11
6.387999999999999
 21
6.27715786049746
 31
0.0
  0
LINE
  5
345
330
1F
100
AcDbEntity
  8
Object
100
AcDbLine
 10
6.387999999999999
 20
6.27715786049746
 30
0.0
 11
6.376000000000001
 21
6.289157860497459
 31
0.0
  0
LINE
  5
346
330
1F
100
AcDbEntity
  8
Object
100
AcDbLine
 10
6.376000000000001
 20
6.289157860497459
 30
0.0
 11
6.371
 21
6.305157860497459
 31
0.0
  0
LINE
  5
347
330
1F
100
AcDbEntity
  8
Object
100
AcDbLine
 10
6.583
 20
6.45615786049746
 30
0.0
 11
6.533999999999998
 21
6.45615786049746
 31
0.0
  0
LINE
  5
348
330
1F
100
AcDbEntity
  8
Object
100
AcDbLine
 10
4.818999999999999
 20
8.927157860497459
 30
0.0
 11
4.818999999999999
 21
9.051157860497459
 31
0.0
  0
LINE
  5
349
330
1F
100
AcDbEntity
  8
Object
100
AcDbLine
 10
7.961
 20
5.68115786049746
 30
0.0
 11
7.961
 21
5.684157860497459
 31
0.0
  0
LINE
  5
34A
330
1F
100
AcDbEntity
  8
Object
100
AcDbLine
 10
7.961
 20
5.684157860497459
 30
0.0
 11
7.961
 21
5.689157860497459
 31
0.0
  0
LINE
  5
34B
330
1F
100
AcDbEntity
  8
Object
100
AcDbLine
 10
7.961
 20
5.679157860497459
 30
0.0
 11
7.961
 21
5.68115786049746
 31
0.0
  0
LINE
  5
34C
330
1F
100
AcDbEntity
  8
Object
100
AcDbLine
 10
6.306
 20
6.27315786049746
 30
0.0
 11
6.202999999999999
 21
6.27315786049746
 31
0.0
  0
LINE
  5
34D
330
1F
100
AcDbEntity
  8
Object
100
AcDbLine
 10
6.202999999999999
 20
6.27315786049746
 30
0.0
 11
6.202999999999999
 21
6.45615786049746
 31
0.0
  0
LINE
  5
34E
330
1F
100
AcDbEntity
  8
Object
100
AcDbLine
 10
6.501999999999998
 20
6.305157860497459
 30
0.0
 11
6.498000000000001
 21
6.289157860497459
 31
0.0
  0
LINE
  5
34F
330
1F
100
AcDbEntity
  8
Object
100
AcDbLine
 10
6.498000000000001
 20
6.289157860497459
 30
0.0
 11
6.486
 21
6.27715786049746
 31
0.0
  0
LINE
  5
350
330
1F
100
AcDbEntity
  8
Object
100
AcDbLine
 10
6.486
 20
6.27715786049746
 30
0.0
 11
6.469000000000001
 21
6.27315786049746
 31
0.0
  0
LINE
  5
351
330
1F
100
AcDbEntity
  8
Object
100
AcDbLine
 10
6.454
 20
6.31515786049746
 30
0.0
 11
6.440999999999998
 21
6.31515786049746
 31
0.0
  0
LINE
  5
352
330
1F
100
AcDbEntity
  8
Object
100
AcDbLine
 10
6.751000000000001
 20
6.41915786049746
 30
0.0
 11
6.751000000000001
 21
6.45615786049746
 31
0.0
  0
LINE
  5
353
330
1F
100
AcDbEntity
  8
Object
100
AcDbLine
 10
6.615
 20
6.41915786049746
 30
0.0
 11
6.653
 21
6.41915786049746
 31
0.0
  0
LINE
  5
354
330
1F
100
AcDbEntity
  8
Object
100
AcDbLine
 10
7.548999999999999
 20
9.12615786049746
 30
0.0
 11
7.548999999999999
 21
9.13015786049746
 31
0.0
  0
LINE
  5
355
330
1F
100
AcDbEntity
  8
Object
100
AcDbLine
 10
4.888999999999999
 20
9.131157860497459
 30
0.0
 11
7.548999999999999
 21
9.131157860497459
 31
0.0
  0
LINE
  5
356
330
1F
100
AcDbEntity
  8
Object
100
AcDbLine
 10
7.548999999999999
 20
9.131157860497459
 30
0.0
 11
7.548999999999999
 21
9.13015786049746
 31
0.0
  0
LINE
  5
357
330
1F
100
AcDbEntity
  8
Object
100
AcDbLine
 10
7.548999999999999
 20
9.12115786049746
 30
0.0
 11
7.548999999999999
 21
9.12615786049746
 31
0.0
  0
LINE
  5
358
330
1F
100
AcDbEntity
  8
Object
100
AcDbLine
 10
6.501999999999998
 20
6.45615786049746
 30
0.0
 11
6.464
 21
6.45615786049746
 31
0.0
  0
LINE
  5
359
330
1F
100
AcDbEntity
  8
Object
100
AcDbLine
 10
6.464
 20
6.45615786049746
 30
0.0
 11
6.464
 21
6.32415786049746
 31
0.0
  0
LINE
  5
35A
330
1F
100
AcDbEntity
  8
Object
100
AcDbLine
 10
6.432
 20
6.45615786049746
 30
0.0
 11
6.371
 21
6.45615786049746
 31
0.0
  0
LINE
  5
35B
330
1F
100
AcDbEntity
  8
Object
100
AcDbLine
 10
4.403
 20
8.62315786049746
 30
0.0
 11
4.408000000000001
 21
8.62315786049746
 31
0.0
  0
LINE
  5
35C
330
1F
100
AcDbEntity
  8
Object
100
AcDbLine
 10
4.408000000000001
 20
8.62315786049746
 30
0.0
 11
4.408000000000001
 21
5.75915786049746
 31
0.0
  0
LINE
  5
35D
330
1F
100
AcDbEntity
  8
Object
100
AcDbLine
 10
4.408000000000001
 20
5.75915786049746
 30
0.0
 11
4.403
 21
5.75915786049746
 31
0.0
  0
LINE
  5
35E
330
1F
100
AcDbEntity
  8
Object
100
AcDbLine
 10
4.403
 20
5.75915786049746
 30
0.0
 11
4.399
 21
5.75915786049746
 31
0.0
  0
LINE
  5
35F
330
1F
100
AcDbEntity
  8
Object
100
AcDbLine
 10
4.403
 20
8.62315786049746
 30
0.0
 11
4.399
 21
8.62315786049746
 31
0.0
  0
LINE
  5
360
330
1F
100
AcDbEntity
  8
Object
100
AcDbLine
 10
4.397999999999999
 20
5.75915786049746
 30
0.0
 11
4.399
 21
5.75915786049746
 31
0.0
  0
LINE
  5
361
330
1F
100
AcDbEntity
  8
Object
100
AcDbLine
 10
4.399
 20
8.62315786049746
 30
0.0
 11
4.397999999999999
 21
8.62315786049746
 31
0.0
  0
LINE
  5
362
330
1F
100
AcDbEntity
  8
Object
100
AcDbLine
 10
8.041
 20
5.75915786049746
 30
0.0
 11
8.041
 21
8.62315786049746
 31
0.0
  0
LINE
  5
363
330
1F
100
AcDbEntity
  8
Object
100
AcDbLine
 10
6.583
 20
6.27315786049746
 30
0.0
 11
6.583
 21
6.45615786049746
 31
0.0
  0
LINE
  5
364
330
1F
100
AcDbEntity
  8
Object
100
AcDbLine
 10
6.615
 20
6.45615786049746
 30
0.0
 11
6.615
 21
6.41915786049746
 31
0.0
  0
LINE
  5
365
330
1F
100
AcDbEntity
  8
Object
100
AcDbLine
 10
6.339
 20
6.305157860497459
 30
0.0
 11
6.339
 21
6.423157860497459
 31
0.0
  0
LINE
  5
366
330
1F
100
AcDbEntity
  8
Object
100
AcDbLine
 10
6.440999999999998
 20
6.31515786049746
 30
0.0
 11
6.437000000000001
 21
6.31615786049746
 31
0.0
  0
LINE
  5
367
330
1F
100
AcDbEntity
  8
Object
100
AcDbLine
 10
6.437000000000001
 20
6.31615786049746
 30
0.0
 11
6.432999999999999
 21
6.31915786049746
 31
0.0
  0
LINE
  5
368
330
1F
100
AcDbEntity
  8
Object
100
AcDbLine
 10
6.432999999999999
 20
6.31915786049746
 30
0.0
 11
6.432
 21
6.32415786049746
 31
0.0
  0
LINE
  5
369
330
1F
100
AcDbEntity
  8
Object
100
AcDbLine
 10
6.653
 20
6.41915786049746
 30
0.0
 11
6.653
 21
6.27315786049746
 31
0.0
  0
LINE
  5
36A
330
1F
100
AcDbEntity
  8
Object
100
AcDbLine
 10
6.653
 20
6.27315786049746
 30
0.0
 11
6.708999999999999
 21
6.27315786049746
 31
0.0
  0
LINE
  5
36B
330
1F
100
AcDbEntity
  8
Object
100
AcDbLine
 10
6.464
 20
6.32415786049746
 30
0.0
 11
6.463
 21
6.31915786049746
 31
0.0
  0
LINE
  5
36C
330
1F
100
AcDbEntity
  8
Object
100
AcDbLine
 10
6.463
 20
6.31915786049746
 30
0.0
 11
6.458999999999999
 21
6.31615786049746
 31
0.0
  0
LINE
  5
36D
330
1F
100
AcDbEntity
  8
Object
100
AcDbLine
 10
6.458999999999999
 20
6.31615786049746
 30
0.0
 11
6.454
 21
6.31515786049746
 31
0.0
  0
LINE
  5
36E
330
1F
100
AcDbEntity
  8
Object
100
AcDbLine
 10
6.533999999999998
 20
6.45615786049746
 30
0.0
 11
6.533999999999998
 21
6.27315786049746
 31
0.0
  0
LINE
  5
36F
330
1F
100
AcDbEntity
  8
Object
100
AcDbLine
 10
4.701
 20
8.761157860497458
 30
0.0
 11
4.699999999999999
 21
8.766157860497459
 31
0.0
  0
LINE
  5
370
330
1F
100
AcDbEntity
  8
Object
100
AcDbLine
 10
4.699999999999999
 20
8.766157860497459
 30
0.0
 11
4.698999999999999
 21
8.770157860497459
 31
0.0
  0
LINE
  5
371
330
1F
100
AcDbEntity
  8
Object
100
AcDbLine
 10
4.440000000000001
 20
8.68215786049746
 30
0.0
 11
4.698
 21
8.77115786049746
 31
0.0
  0
LINE
  5
372
330
1F
100
AcDbEntity
  8
Object
100
AcDbLine
 10
4.698
 20
8.77115786049746
 30
0.0
 11
4.698999999999999
 21
8.770157860497459
 31
0.0
  0
LINE
  5
373
330
1F
100
AcDbEntity
  8
Object
100
AcDbLine
 10
7.996999999999999
 20
8.677157860497459
 30
0.0
 11
7.998000000000001
 21
8.68115786049746
 31
0.0
  0
LINE
  5
374
330
1F
100
AcDbEntity
  8
Object
100
AcDbLine
 10
7.74
 20
8.77115786049746
 30
0.0
 11
7.998000000000001
 21
8.68215786049746
 31
0.0
  0
LINE
  5
375
330
1F
100
AcDbEntity
  8
Object
100
AcDbLine
 10
7.998000000000001
 20
8.68215786049746
 30
0.0
 11
7.998000000000001
 21
8.68115786049746
 31
0.0
  0
LINE
  5
376
330
1F
100
AcDbEntity
  8
Object
100
AcDbLine
 10
7.995
 20
8.67215786049746
 30
0.0
 11
7.996999999999999
 21
8.677157860497459
 31
0.0
  0
LINE
  5
377
330
1F
100
AcDbEntity
  8
Object
100
AcDbLine
 10
4.477999999999999
 20
5.689157860497459
 30
0.0
 11
4.477999999999999
 21
5.684157860497459
 31
0.0
  0
LINE
  5
378
330
1F
100
AcDbEntity
  8
Object
100
AcDbLine
 10
4.477999999999999
 20
5.684157860497459
 30
0.0
 11
4.477999999999999
 21
5.68115786049746
 31
0.0
  0
LINE
  5
379
330
1F
100
AcDbEntity
  8
Object
100
AcDbLine
 10
4.477999999999999
 20
5.68115786049746
 30
0.0
 11
4.477999999999999
 21
5.679157860497459
 31
0.0
  0
LINE
  5
37A
330
1F
100
AcDbEntity
  8
Object
100
AcDbLine
 10
4.477999999999999
 20
5.679157860497459
 30
0.0
 11
4.448
 21
5.68515786049746
 31
0.0
  0
LINE
  5
37B
330
1F
100
AcDbEntity
  8
Object
100
AcDbLine
 10
4.448
 20
5.68515786049746
 30
0.0
 11
4.420999999999999
 21
5.702157860497459
 31
0.0
  0
LINE
  5
37C
330
1F
100
AcDbEntity
  8
Object
100
AcDbLine
 10
4.428
 20
5.71015786049746
 30
0.0
 11
4.413
 21
5.73315786049746
 31
0.0
  0
LINE
  5
37D
330
1F
100
AcDbEntity
  8
Object
100
AcDbLine
 10
4.413
 20
5.73315786049746
 30
0.0
 11
4.408000000000001
 21
5.75915786049746
 31
0.0
  0
LINE
  5
37E
330
1F
100
AcDbEntity
  8
Object
100
AcDbLine
 10
6.339
 20
6.305157860497459
 30
0.0
 11
6.335
 21
6.289157860497459
 31
0.0
  0
LINE
  5
37F
330
1F
100
AcDbEntity
  8
Object
100
AcDbLine
 10
6.335
 20
6.289157860497459
 30
0.0
 11
6.323
 21
6.27715786049746
 31
0.0
  0
LINE
  5
380
330
1F
100
AcDbEntity
  8
Object
100
AcDbLine
 10
6.323
 20
6.27715786049746
 30
0.0
 11
6.306
 21
6.27315786049746
 31
0.0
  0
LINE
  5
381
330
1F
100
AcDbEntity
  8
Object
100
AcDbLine
 10
6.464
 20
6.32415786049746
 30
0.0
 11
6.464
 21
6.45615786049746
 31
0.0
  0
LINE
  5
382
330
1F
100
AcDbEntity
  8
Object
100
AcDbLine
 10
6.464
 20
6.45615786049746
 30
0.0
 11
6.501999999999998
 21
6.45615786049746
 31
0.0
  0
LINE
  5
383
330
1F
100
AcDbEntity
  8
Object
100
AcDbLine
 10
6.501999999999998
 20
6.45615786049746
 30
0.0
 11
6.501999999999998
 21
6.305157860497459
 31
0.0
  0
LINE
  5
384
330
1F
100
AcDbEntity
  8
Object
100
AcDbLine
 10
6.501999999999998
 20
6.305157860497459
 30
0.0
 11
6.498000000000001
 21
6.289157860497459
 31
0.0
  0
LINE
  5
385
330
1F
100
AcDbEntity
  8
Object
100
AcDbLine
 10
6.464
 20
6.32415786049746
 30
0.0
 11
6.463
 21
6.31915786049746
 31
0.0
  0
LINE
  5
386
330
1F
100
AcDbEntity
  8
Object
100
AcDbLine
 10
6.463
 20
6.31915786049746
 30
0.0
 11
6.458999999999999
 21
6.31615786049746
 31
0.0
  0
LINE
  5
387
330
1F
100
AcDbEntity
  8
Object
100
AcDbLine
 10
6.498000000000001
 20
6.289157860497459
 30
0.0
 11
6.486
 21
6.27715786049746
 31
0.0
  0
LINE
  5
388
330
1F
100
AcDbEntity
  8
Object
100
AcDbLine
 10
6.486
 20
6.27715786049746
 30
0.0
 11
6.469000000000001
 21
6.27315786049746
 31
0.0
  0
LINE
  5
389
330
1F
100
AcDbEntity
  8
Object
100
AcDbLine
 10
6.458999999999999
 20
6.31615786049746
 30
0.0
 11
6.454
 21
6.31515786049746
 31
0.0
  0
LINE
  5
38A
330
1F
100
AcDbEntity
  8
Object
100
AcDbLine
 10
6.454
 20
6.31515786049746
 30
0.0
 11
6.440999999999998
 21
6.31515786049746
 31
0.0
  0
LINE
  5
38B
330
1F
100
AcDbEntity
  8
Object
100
AcDbLine
 10
6.432999999999999
 20
6.31915786049746
 30
0.0
 11
6.437000000000001
 21
6.31615786049746
 31
0.0
  0
LINE
  5
38C
330
1F
100
AcDbEntity
  8
Object
100
AcDbLine
 10
6.437000000000001
 20
6.31615786049746
 30
0.0
 11
6.440999999999998
 21
6.31515786049746
 31
0.0
  0
LINE
  5
38D
330
1F
100
AcDbEntity
  8
Object
100
AcDbLine
 10
6.469000000000001
 20
6.27315786049746
 30
0.0
 11
6.403999999999999
 21
6.27315786049746
 31
0.0
  0
LINE
  5
38E
330
1F
100
AcDbEntity
  8
Object
100
AcDbLine
 10
6.403999999999999
 20
6.27315786049746
 30
0.0
 11
6.387999999999999
 21
6.27715786049746
 31
0.0
  0
LINE
  5
38F
330
1F
100
AcDbEntity
  8
Object
100
AcDbLine
 10
6.387999999999999
 20
6.27715786049746
 30
0.0
 11
6.376000000000001
 21
6.289157860497459
 31
0.0
  0
LINE
  5
390
330
1F
100
AcDbEntity
  8
Object
100
AcDbLine
 10
6.371
 20
6.305157860497459
 30
0.0
 11
6.371
 21
6.45615786049746
 31
0.0
  0
LINE
  5
391
330
1F
100
AcDbEntity
  8
Object
100
AcDbLine
 10
6.371
 20
6.45615786049746
 30
0.0
 11
6.432
 21
6.45615786049746
 31
0.0
  0
LINE
  5
392
330
1F
100
AcDbEntity
  8
Object
100
AcDbLine
 10
6.432
 20
6.45615786049746
 30
0.0
 11
6.432
 21
6.32415786049746
 31
0.0
  0
LINE
  5
393
330
1F
100
AcDbEntity
  8
Object
100
AcDbLine
 10
6.432
 20
6.32415786049746
 30
0.0
 11
6.432999999999999
 21
6.31915786049746
 31
0.0
  0
LINE
  5
394
330
1F
100
AcDbEntity
  8
Object
100
AcDbLine
 10
6.371
 20
6.305157860497459
 30
0.0
 11
6.376000000000001
 21
6.289157860497459
 31
0.0
  0
LINE
  5
395
330
1F
100
AcDbEntity
  8
Object
100
AcDbLine
 10
6.751000000000001
 20
6.45615786049746
 30
0.0
 11
6.751000000000001
 21
6.41915786049746
 31
0.0
  0
LINE
  5
396
330
1F
100
AcDbEntity
  8
Object
100
AcDbLine
 10
6.751000000000001
 20
6.41915786049746
 30
0.0
 11
6.708999999999999
 21
6.41915786049746
 31
0.0
  0
LINE
  5
397
330
1F
100
AcDbEntity
  8
Object
100
AcDbLine
 10
6.653
 20
6.41915786049746
 30
0.0
 11
6.653
 21
6.27315786049746
 31
0.0
  0
LINE
  5
398
330
1F
100
AcDbEntity
  8
Object
100
AcDbLine
 10
6.708999999999999
 20
6.41915786049746
 30
0.0
 11
6.708999999999999
 21
6.27315786049746
 31
0.0
  0
LINE
  5
399
330
1F
100
AcDbEntity
  8
Object
100
AcDbLine
 10
6.708999999999999
 20
6.27315786049746
 30
0.0
 11
6.653
 21
6.27315786049746
 31
0.0
  0
LINE
  5
39A
330
1F
100
AcDbEntity
  8
Object
100
AcDbLine
 10
6.653
 20
6.41915786049746
 30
0.0
 11
6.615
 21
6.41915786049746
 31
0.0
  0
LINE
  5
39B
330
1F
100
AcDbEntity
  8
Object
100
AcDbLine
 10
6.615
 20
6.41915786049746
 30
0.0
 11
6.615
 21
6.45615786049746
 31
0.0
  0
LINE
  5
39C
330
1F
100
AcDbEntity
  8
Object
100
AcDbLine
 10
6.615
 20
6.45615786049746
 30
0.0
 11
6.751000000000001
 21
6.45615786049746
 31
0.0
  0
LINE
  5
39D
330
1F
100
AcDbEntity
  8
Object
100
AcDbLine
 10
4.413
 20
8.70115786049746
 30
0.0
 11
4.440000000000001
 21
8.68215786049746
 31
0.0
  0
LINE
  5
39E
330
1F
100
AcDbEntity
  8
Object
100
AcDbLine
 10
4.440000000000001
 20
8.68215786049746
 30
0.0
 11
4.423
 21
8.673157860497459
 31
0.0
  0
LINE
  5
39F
330
1F
100
AcDbEntity
  8
Object
100
AcDbLine
 10
4.423
 20
8.673157860497459
 30
0.0
 11
4.408999999999998
 21
8.65915786049746
 31
0.0
  0
LINE
  5
3A0
330
1F
100
AcDbEntity
  8
Object
100
AcDbLine
 10
4.408999999999998
 20
8.65915786049746
 30
0.0
 11
4.400999999999999
 21
8.641157860497459
 31
0.0
  0
LINE
  5
3A1
330
1F
100
AcDbEntity
  8
Object
100
AcDbLine
 10
4.400999999999999
 20
8.641157860497459
 30
0.0
 11
4.397999999999999
 21
8.62315786049746
 31
0.0
  0
LINE
  5
3A2
330
1F
100
AcDbEntity
  8
Object
100
AcDbLine
 10
8.064
 20
8.660157860497459
 30
0.0
 11
8.067
 21
8.642157860497459
 31
0.0
  0
LINE
  5
3A3
330
1F
100
AcDbEntity
  8
Object
100
AcDbLine
 10
8.067
 20
8.642157860497459
 30
0.0
 11
8.041
 21
8.62315786049746
 31
0.0
  0
LINE
  5
3A4
330
1F
100
AcDbEntity
  8
Object
100
AcDbLine
 10
8.041999999999999
 20
8.692157860497459
 30
0.0
 11
8.056
 21
8.67815786049746
 31
0.0
  0
LINE
  5
3A5
330
1F
100
AcDbEntity
  8
Object
100
AcDbLine
 10
8.056
 20
8.67815786049746
 30
0.0
 11
8.064
 21
8.660157860497459
 31
0.0
  0
LINE
  5
3A6
330
1F
100
AcDbEntity
  8
Object
100
AcDbLine
 10
8.041999999999999
 20
8.692157860497459
 30
0.0
 11
8.025
 21
8.70115786049746
 31
0.0
  0
LINE
  5
3A7
330
1F
100
AcDbEntity
  8
Object
100
AcDbLine
 10
6.339
 20
6.305157860497459
 30
0.0
 11
6.339
 21
6.423157860497459
 31
0.0
  0
LINE
  5
3A8
330
1F
100
AcDbEntity
  8
Object
100
AcDbLine
 10
6.286000000000001
 20
6.40915786049746
 30
0.0
 11
6.286000000000001
 21
6.32415786049746
 31
0.0
  0
LINE
  5
3A9
330
1F
100
AcDbEntity
  8
Object
100
AcDbLine
 10
6.306
 20
6.45615786049746
 30
0.0
 11
6.323
 21
6.452157860497459
 31
0.0
  0
LINE
  5
3AA
330
1F
100
AcDbEntity
  8
Object
100
AcDbLine
 10
6.323
 20
6.452157860497459
 30
0.0
 11
6.335
 21
6.44015786049746
 31
0.0
  0
LINE
  5
3AB
330
1F
100
AcDbEntity
  8
Object
100
AcDbLine
 10
6.335
 20
6.44015786049746
 30
0.0
 11
6.339
 21
6.423157860497459
 31
0.0
  0
LINE
  5
3AC
330
1F
100
AcDbEntity
  8
Object
100
AcDbLine
 10
6.286000000000001
 20
6.32415786049746
 30
0.0
 11
6.283999999999998
 21
6.31915786049746
 31
0.0
  0
LINE
  5
3AD
330
1F
100
AcDbEntity
  8
Object
100
AcDbLine
 10
6.339
 20
6.305157860497459
 30
0.0
 11
6.335
 21
6.289157860497459
 31
0.0
  0
LINE
  5
3AE
330
1F
100
AcDbEntity
  8
Object
100
AcDbLine
 10
6.335
 20
6.289157860497459
 30
0.0
 11
6.323
 21
6.27715786049746
 31
0.0
  0
LINE
  5
3AF
330
1F
100
AcDbEntity
  8
Object
100
AcDbLine
 10
6.323
 20
6.27715786049746
 30
0.0
 11
6.306
 21
6.27315786049746
 31
0.0
  0
LINE
  5
3B0
330
1F
100
AcDbEntity
  8
Object
100
AcDbLine
 10
6.286000000000001
 20
6.40915786049746
 30
0.0
 11
6.283999999999998
 21
6.413157860497459
 31
0.0
  0
LINE
  5
3B1
330
1F
100
AcDbEntity
  8
Object
100
AcDbLine
 10
6.283999999999998
 20
6.413157860497459
 30
0.0
 11
6.280999999999998
 21
6.41715786049746
 31
0.0
  0
LINE
  5
3B2
330
1F
100
AcDbEntity
  8
Object
100
AcDbLine
 10
6.283999999999998
 20
6.31915786049746
 30
0.0
 11
6.280999999999998
 21
6.31615786049746
 31
0.0
  0
LINE
  5
3B3
330
1F
100
AcDbEntity
  8
Object
100
AcDbLine
 10
6.280999999999998
 20
6.31615786049746
 30
0.0
 11
6.275999999999999
 21
6.31515786049746
 31
0.0
  0
LINE
  5
3B4
330
1F
100
AcDbEntity
  8
Object
100
AcDbLine
 10
6.275999999999999
 20
6.418157860497459
 30
0.0
 11
6.280999999999998
 21
6.41715786049746
 31
0.0
  0
LINE
  5
3B5
330
1F
100
AcDbEntity
  8
Object
100
AcDbLine
 10
6.275999999999999
 20
6.31515786049746
 30
0.0
 11
6.257999999999999
 21
6.31515786049746
 31
0.0
  0
LINE
  5
3B6
330
1F
100
AcDbEntity
  8
Object
100
AcDbLine
 10
6.257999999999999
 20
6.418157860497459
 30
0.0
 11
6.275999999999999
 21
6.418157860497459
 31
0.0
  0
LINE
  5
3B7
330
1F
100
AcDbEntity
  8
Object
100
AcDbLine
 10
6.306
 20
6.27315786049746
 30
0.0
 11
6.202999999999999
 21
6.27315786049746
 31
0.0
  0
LINE
  5
3B8
330
1F
100
AcDbEntity
  8
Object
100
AcDbLine
 10
6.202999999999999
 20
6.27315786049746
 30
0.0
 11
6.202999999999999
 21
6.45615786049746
 31
0.0
  0
LINE
  5
3B9
330
1F
100
AcDbEntity
  8
Object
100
AcDbLine
 10
6.202999999999999
 20
6.45615786049746
 30
0.0
 11
6.306
 21
6.45615786049746
 31
0.0
  0
LINE
  5
3BA
330
1F
100
AcDbEntity
  8
Object
100
AcDbLine
 10
6.257999999999999
 20
6.31515786049746
 30
0.0
 11
6.257999999999999
 21
6.418157860497459
 31
0.0
  0
LINE
  5
3BB
330
1F
100
AcDbEntity
  8
Object
100
AcDbLine
 10
4.783000000000001
 20
8.946157860497461
 30
0.0
 11
4.809000000000001
 21
8.927157860497459
 31
0.0
  0
LINE
  5
3BC
330
1F
100
AcDbEntity
  8
Object
100
AcDbLine
 10
4.809000000000001
 20
8.927157860497459
 30
0.0
 11
4.801999999999999
 21
8.878157860497459
 31
0.0
  0
LINE
  5
3BD
330
1F
100
AcDbEntity
  8
Object
100
AcDbLine
 10
4.801999999999999
 20
8.878157860497459
 30
0.0
 11
4.791999999999999
 21
8.854157860497458
 31
0.0
  0
LINE
  5
3BE
330
1F
100
AcDbEntity
  8
Object
100
AcDbLine
 10
4.775
 20
8.897157860497459
 30
0.0
 11
4.766
 21
8.87315786049746
 31
0.0
  0
LINE
  5
3BF
330
1F
100
AcDbEntity
  8
Object
100
AcDbLine
 10
4.766
 20
8.87315786049746
 30
0.0
 11
4.751999999999998
 21
8.850157860497461
 31
0.0
  0
LINE
  5
3C0
330
1F
100
AcDbEntity
  8
Object
100
AcDbLine
 10
4.791999999999999
 20
8.854157860497458
 30
0.0
 11
4.778999999999999
 21
8.831157860497459
 31
0.0
  0
LINE
  5
3C1
330
1F
100
AcDbEntity
  8
Object
100
AcDbLine
 10
4.778999999999999
 20
8.831157860497459
 30
0.0
 11
4.762
 21
8.811157860497459
 31
0.0
  0
LINE
  5
3C2
330
1F
100
AcDbEntity
  8
Object
100
AcDbLine
 10
4.762
 20
8.811157860497459
 30
0.0
 11
4.742
 21
8.79415786049746
 31
0.0
  0
LINE
  5
3C3
330
1F
100
AcDbEntity
  8
Object
100
AcDbLine
 10
4.751999999999998
 20
8.850157860497461
 30
0.0
 11
4.734999999999999
 21
8.830157860497459
 31
0.0
  0
LINE
  5
3C4
330
1F
100
AcDbEntity
  8
Object
100
AcDbLine
 10
4.734999999999999
 20
8.830157860497459
 30
0.0
 11
4.716000000000001
 21
8.81315786049746
 31
0.0
  0
LINE
  5
3C5
330
1F
100
AcDbEntity
  8
Object
100
AcDbLine
 10
4.716000000000001
 20
8.81315786049746
 30
0.0
 11
4.672
 21
8.790157860497458
 31
0.0
  0
LINE
  5
3C6
330
1F
100
AcDbEntity
  8
Object
100
AcDbLine
 10
7.655000000000001
 20
9.078157860497459
 30
0.0
 11
7.655000000000001
 21
8.946157860497461
 31
0.0
  0
LINE
  5
3C7
330
1F
100
AcDbEntity
  8
Object
100
AcDbLine
 10
7.655000000000001
 20
8.946157860497461
 30
0.0
 11
7.629000000000001
 21
8.927157860497459
 31
0.0
  0
LINE
  5
3C8
330
1F
100
AcDbEntity
  8
Object
100
AcDbLine
 10
6.533999999999998
 20
6.27315786049746
 30
0.0
 11
6.533999999999998
 21
6.45615786049746
 31
0.0
  0
LINE
  5
3C9
330
1F
100
AcDbEntity
  8
Object
100
AcDbLine
 10
6.533999999999998
 20
6.45615786049746
 30
0.0
 11
6.583
 21
6.45615786049746
 31
0.0
  0
LINE
  5
3CA
330
1F
100
AcDbEntity
  8
Object
100
AcDbLine
 10
6.583
 20
6.45615786049746
 30
0.0
 11
6.583
 21
6.27315786049746
 31
0.0
  0
LINE
  5
3CB
330
1F
100
AcDbEntity
  8
Object
100
AcDbLine
 10
6.583
 20
6.27315786049746
 30
0.0
 11
6.533999999999998
 21
6.27315786049746
 31
0.0
  0
LINE
  5
3CC
330
1F
100
AcDbEntity
  8
Object
100
AcDbLine
 10
7.74
 20
8.77115786049746
 30
0.0
 11
7.766999999999999
 21
8.790157860497458
 31
0.0
  0
LINE
  5
3CD
330
1F
100
AcDbEntity
  8
Object
100
AcDbLine
 10
7.685999999999999
 20
8.850157860497461
 30
0.0
 11
7.673
 21
8.87315786049746
 31
0.0
  0
LINE
  5
3CE
330
1F
100
AcDbEntity
  8
Object
100
AcDbLine
 10
7.673
 20
8.87315786049746
 30
0.0
 11
7.663
 21
8.897157860497459
 31
0.0
  0
LINE
  5
3CF
330
1F
100
AcDbEntity
  8
Object
100
AcDbLine
 10
7.663
 20
8.897157860497459
 30
0.0
 11
7.655000000000001
 21
8.946157860497461
 31
0.0
  0
LINE
  5
3D0
330
1F
100
AcDbEntity
  8
Object
100
AcDbLine
 10
4.888999999999999
 20
9.131157860497459
 30
0.0
 11
4.862999999999999
 21
9.15815786049746
 31
0.0
  0
LINE
  5
3D1
330
1F
100
AcDbEntity
  8
Object
100
AcDbLine
 10
4.833
 20
9.10815786049746
 30
0.0
 11
4.815000000000001
 21
9.081157860497459
 31
0.0
  0
LINE
  5
3D2
330
1F
100
AcDbEntity
  8
Object
100
AcDbLine
 10
4.815000000000001
 20
9.081157860497459
 30
0.0
 11
4.809000000000001
 21
9.051157860497459
 31
0.0
  0
LINE
  5
3D3
330
1F
100
AcDbEntity
  8
Object
100
AcDbLine
 10
4.809000000000001
 20
9.051157860497459
 30
0.0
 11
4.783000000000001
 21
9.078157860497459
 31
0.0
  0
LINE
  5
3D4
330
1F
100
AcDbEntity
  8
Object
100
AcDbLine
 10
7.65
 20
9.107157860497459
 30
0.0
 11
7.655000000000001
 21
9.078157860497459
 31
0.0
  0
LINE
  5
3D5
330
1F
100
AcDbEntity
  8
Object
100
AcDbLine
 10
7.655000000000001
 20
9.078157860497459
 30
0.0
 11
7.629000000000001
 21
9.051157860497459
 31
0.0
  0
LINE
  5
3D6
330
1F
100
AcDbEntity
  8
Object
100
AcDbLine
 10
7.605
 20
9.15215786049746
 30
0.0
 11
7.632000000000001
 21
9.13415786049746
 31
0.0
  0
LINE
  5
3D7
330
1F
100
AcDbEntity
  8
Object
100
AcDbLine
 10
7.632000000000001
 20
9.13415786049746
 30
0.0
 11
7.65
 21
9.107157860497459
 31
0.0
  0
LINE
  5
3D8
330
1F
100
AcDbEntity
  8
Object
100
AcDbLine
 10
7.605
 20
9.15215786049746
 30
0.0
 11
7.576
 21
9.15815786049746
 31
0.0
  0
LINE
  5
3D9
330
1F
100
AcDbEntity
  8
Object
100
AcDbLine
 10
8.041
 20
5.75915786049746
 30
0.0
 11
8.067
 21
5.732157860497459
 31
0.0
  0
LINE
  5
3DA
330
1F
100
AcDbEntity
  8
Object
100
AcDbLine
 10
8.067
 20
5.732157860497459
 30
0.0
 11
8.061999999999999
 21
5.703157860497459
 31
0.0
  0
LINE
  5
3DB
330
1F
100
AcDbEntity
  8
Object
100
AcDbLine
 10
8.061999999999999
 20
5.703157860497459
 30
0.0
 11
8.044
 21
5.676157860497459
 31
0.0
  0
LINE
  5
3DC
330
1F
100
AcDbEntity
  8
Object
100
AcDbLine
 10
4.809000000000001
 20
8.927157860497459
 30
0.0
 11
4.809000000000001
 21
9.051157860497459
 31
0.0
  0
LINE
  5
3DD
330
1F
100
AcDbEntity
  8
Object
100
AcDbLine
 10
4.477999999999999
 20
5.679157860497459
 30
0.0
 11
7.961
 21
5.679157860497459
 31
0.0
  0
LINE
  5
3DE
330
1F
100
AcDbEntity
  8
Object
100
AcDbLine
 10
7.961
 20
5.679157860497459
 30
0.0
 11
7.987
 21
5.65315786049746
 31
0.0
  0
LINE
  5
3DF
330
1F
100
AcDbEntity
  8
Object
100
AcDbLine
 10
7.548999999999999
 20
9.131157860497459
 30
0.0
 11
7.576
 21
9.15815786049746
 31
0.0
  0
LINE
  5
3E0
330
1F
100
AcDbEntity
  8
Object
100
AcDbLine
 10
4.371
 20
8.642157860497459
 30
0.0
 11
4.397999999999999
 21
8.62315786049746
 31
0.0
  0
LINE
  5
3E1
330
1F
100
AcDbEntity
  8
Object
100
AcDbLine
 10
4.397999999999999
 20
8.62315786049746
 30
0.0
 11
4.397999999999999
 21
5.75915786049746
 31
0.0
  0
LINE
  5
3E2
330
1F
100
AcDbEntity
  8
Object
100
AcDbLine
 10
4.397999999999999
 20
5.75915786049746
 30
0.0
 11
4.371
 21
5.732157860497459
 31
0.0
  0
LINE
  5
3E3
330
1F
100
AcDbEntity
  8
Object
100
AcDbLine
 10
8.067
 20
5.732157860497459
 30
0.0
 11
8.067
 21
8.642157860497459
 31
0.0
  0
LINE
  5
3E4
330
1F
100
AcDbEntity
  8
Object
100
AcDbLine
 10
4.698
 20
8.77115786049746
 30
0.0
 11
4.672
 21
8.790157860497458
 31
0.0
  0
LINE
  5
3E5
330
1F
100
AcDbEntity
  8
Object
100
AcDbLine
 10
7.766999999999999
 20
8.790157860497458
 30
0.0
 11
8.025
 21
8.70115786049746
 31
0.0
  0
LINE
  5
3E6
330
1F
100
AcDbEntity
  8
Object
100
AcDbLine
 10
8.025
 20
8.70115786049746
 30
0.0
 11
7.998000000000001
 21
8.68215786049746
 31
0.0
  0
LINE
  5
3E7
330
1F
100
AcDbEntity
  8
Object
100
AcDbLine
 10
4.451
 20
5.65315786049746
 30
0.0
 11
4.477999999999999
 21
5.679157860497459
 31
0.0
  0
LINE
  5
3E8
330
1F
100
AcDbEntity
  8
Object
100
AcDbLine
 10
4.448
 20
5.68515786049746
 30
0.0
 11
4.420999999999999
 21
5.702157860497459
 31
0.0
  0
LINE
  5
3E9
330
1F
100
AcDbEntity
  8
Object
100
AcDbLine
 10
4.420999999999999
 20
5.702157860497459
 30
0.0
 11
4.403
 21
5.73015786049746
 31
0.0
  0
LINE
  5
3EA
330
1F
100
AcDbEntity
  8
Object
100
AcDbLine
 10
4.403
 20
5.73015786049746
 30
0.0
 11
4.397999999999999
 21
5.75915786049746
 31
0.0
  0
LINE
  5
3EB
330
1F
100
AcDbEntity
  8
Object
100
AcDbLine
 10
8.4
 20
9.410157860497459
 30
0.0
 11
8.413999999999999
 21
9.389157860497459
 31
0.0
  0
LINE
  5
3EC
330
1F
100
AcDbEntity
  8
Object
100
AcDbLine
 10
8.413999999999999
 20
9.389157860497459
 30
0.0
 11
8.419
 21
9.36415786049746
 31
0.0
  0
LINE
  5
3ED
330
1F
100
AcDbEntity
  8
Object
100
AcDbLine
 10
8.419
 20
5.503157860497459
 30
0.0
 11
8.413999999999999
 21
5.478157860497459
 31
0.0
  0
LINE
  5
3EE
330
1F
100
AcDbEntity
  8
Object
100
AcDbLine
 10
8.413999999999999
 20
5.478157860497459
 30
0.0
 11
8.4
 21
5.45715786049746
 31
0.0
  0
LINE
  5
3EF
330
1F
100
AcDbEntity
  8
Object
100
AcDbLine
 10
8.4
 20
9.410157860497459
 30
0.0
 11
8.378999999999999
 21
9.424157860497459
 31
0.0
  0
LINE
  5
3F0
330
1F
100
AcDbEntity
  8
Object
100
AcDbLine
 10
8.378999999999999
 20
5.44315786049746
 30
0.0
 11
8.4
 21
5.45715786049746
 31
0.0
  0
LINE
  5
3F1
330
1F
100
AcDbEntity
  8
Object
100
AcDbLine
 10
8.378999999999999
 20
9.424157860497459
 30
0.0
 11
8.354
 21
9.429157860497459
 31
0.0
  0
LINE
  5
3F2
330
1F
100
AcDbEntity
  8
Object
100
AcDbLine
 10
8.354
 20
5.43815786049746
 30
0.0
 11
8.378999999999999
 21
5.44315786049746
 31
0.0
  0
LINE
  5
3F3
330
1F
100
AcDbEntity
  8
Object
100
AcDbLine
 10
8.419
 20
5.503157860497459
 30
0.0
 11
8.419
 21
9.36415786049746
 31
0.0
  0
LINE
  5
3F4
330
1F
100
AcDbEntity
  8
Object
100
AcDbLine
 10
8.044
 20
5.676157860497459
 30
0.0
 11
8.016999999999999
 21
5.65815786049746
 31
0.0
  0
LINE
  5
3F5
330
1F
100
AcDbEntity
  8
Object
100
AcDbLine
 10
8.016999999999999
 20
5.65815786049746
 30
0.0
 11
7.987
 21
5.65315786049746
 31
0.0
  0
LINE
  5
3F6
330
1F
100
AcDbEntity
  8
Object
100
AcDbLine
 10
7.766999999999999
 20
8.790157860497458
 30
0.0
 11
7.722999999999998
 21
8.81315786049746
 31
0.0
  0
LINE
  5
3F7
330
1F
100
AcDbEntity
  8
Object
100
AcDbLine
 10
7.722999999999998
 20
8.81315786049746
 30
0.0
 11
7.702999999999999
 21
8.830157860497459
 31
0.0
  0
LINE
  5
3F8
330
1F
100
AcDbEntity
  8
Object
100
AcDbLine
 10
7.702999999999999
 20
8.830157860497459
 30
0.0
 11
7.685999999999999
 21
8.850157860497461
 31
0.0
  0
LINE
  5
3F9
330
1F
100
AcDbEntity
  8
Object
100
AcDbLine
 10
4.775
 20
8.897157860497459
 30
0.0
 11
4.783000000000001
 21
8.946157860497461
 31
0.0
  0
LINE
  5
3FA
330
1F
100
AcDbEntity
  8
Object
100
AcDbLine
 10
4.783000000000001
 20
8.946157860497461
 30
0.0
 11
4.783000000000001
 21
9.078157860497459
 31
0.0
  0
LINE
  5
3FB
330
1F
100
AcDbEntity
  8
Object
100
AcDbLine
 10
7.576
 20
9.15815786049746
 30
0.0
 11
4.862999999999999
 21
9.15815786049746
 31
0.0
  0
LINE
  5
3FC
330
1F
100
AcDbEntity
  8
Object
100
AcDbLine
 10
4.862999999999999
 20
9.15815786049746
 30
0.0
 11
4.833
 21
9.15215786049746
 31
0.0
  0
LINE
  5
3FD
330
1F
100
AcDbEntity
  8
Object
100
AcDbLine
 10
4.833
 20
9.15215786049746
 30
0.0
 11
4.806
 21
9.13415786049746
 31
0.0
  0
LINE
  5
3FE
330
1F
100
AcDbEntity
  8
Object
100
AcDbLine
 10
4.806
 20
9.13415786049746
 30
0.0
 11
4.788
 21
9.107157860497459
 31
0.0
  0
LINE
  5
3FF
330
1F
100
AcDbEntity
  8
Object
100
AcDbLine
 10
4.788
 20
9.107157860497459
 30
0.0
 11
4.783000000000001
 21
9.078157860497459
 31
0.0
  0
LINE
  5
400
330
1F
100
AcDbEntity
  8
Object
100
AcDbLine
 10
8.354
 20
9.429157860497459
 30
0.0
 11
4.083999999999999
 21
9.429157860497459
 31
0.0
  0
LINE
  5
401
330
1F
100
AcDbEntity
  8
Object
100
AcDbLine
 10
4.413
 20
8.70115786049746
 30
0.0
 11
4.672
 21
8.790157860497458
 31
0.0
  0
LINE
  5
402
330
1F
100
AcDbEntity
  8
Object
100
AcDbLine
 10
4.376999999999998
 20
5.703157860497459
 30
0.0
 11
4.394999999999999
 21
5.676157860497459
 31
0.0
  0
LINE
  5
403
330
1F
100
AcDbEntity
  8
Object
100
AcDbLine
 10
4.394999999999999
 20
5.676157860497459
 30
0.0
 11
4.422
 21
5.65815786049746
 31
0.0
  0
LINE
  5
404
330
1F
100
AcDbEntity
  8
Object
100
AcDbLine
 10
4.422
 20
5.65815786049746
 30
0.0
 11
4.451
 21
5.65315786049746
 31
0.0
  0
LINE
  5
405
330
1F
100
AcDbEntity
  8
Object
100
AcDbLine
 10
4.451
 20
5.65315786049746
 30
0.0
 11
7.987
 21
5.65315786049746
 31
0.0
  0
LINE
  5
406
330
1F
100
AcDbEntity
  8
Object
100
AcDbLine
 10
4.083999999999999
 20
5.43815786049746
 30
0.0
 11
8.354
 21
5.43815786049746
 31
0.0
  0
LINE
  5
407
330
1F
100
AcDbEntity
  8
Object
100
AcDbLine
 10
4.038
 20
9.410157860497459
 30
0.0
 11
4.059000000000001
 21
9.424157860497459
 31
0.0
  0
LINE
  5
408
330
1F
100
AcDbEntity
  8
Object
100
AcDbLine
 10
4.059000000000001
 20
9.424157860497459
 30
0.0
 11
4.083999999999999
 21
9.429157860497459
 31
0.0
  0
LINE
  5
409
330
1F
100
AcDbEntity
  8
Object
100
AcDbLine
 10
4.413
 20
8.70115786049746
 30
0.0
 11
4.397
 21
8.692157860497459
 31
0.0
  0
LINE
  5
40A
330
1F
100
AcDbEntity
  8
Object
100
AcDbLine
 10
4.397
 20
8.692157860497459
 30
0.0
 11
4.382999999999999
 21
8.67815786049746
 31
0.0
  0
LINE
  5
40B
330
1F
100
AcDbEntity
  8
Object
100
AcDbLine
 10
4.382999999999999
 20
8.67815786049746
 30
0.0
 11
4.373999999999998
 21
8.660157860497459
 31
0.0
  0
LINE
  5
40C
330
1F
100
AcDbEntity
  8
Object
100
AcDbLine
 10
4.373999999999998
 20
8.660157860497459
 30
0.0
 11
4.371
 21
8.642157860497459
 31
0.0
  0
LINE
  5
40D
330
1F
100
AcDbEntity
  8
Object
100
AcDbLine
 10
4.371
 20
8.642157860497459
 30
0.0
 11
4.371
 21
5.732157860497459
 31
0.0
  0
LINE
  5
40E
330
1F
100
AcDbEntity
  8
Object
100
AcDbLine
 10
4.371
 20
5.732157860497459
 30
0.0
 11
4.376999999999998
 21
5.703157860497459
 31
0.0
  0
LINE
  5
40F
330
1F
100
AcDbEntity
  8
Object
100
AcDbLine
 10
4.083999999999999
 20
5.43815786049746
 30
0.0
 11
4.059000000000001
 21
5.44315786049746
 31
0.0
  0
LINE
  5
410
330
1F
100
AcDbEntity
  8
Object
100
AcDbLine
 10
4.059000000000001
 20
5.44315786049746
 30
0.0
 11
4.038
 21
5.45715786049746
 31
0.0
  0
LINE
  5
411
330
1F
100
AcDbEntity
  8
Object
100
AcDbLine
 10
6.257999999999999
 20
6.418157860497459
 30
0.0
 11
6.275999999999999
 21
6.418157860497459
 31
0.0
  0
LINE
  5
412
330
1F
100
AcDbEntity
  8
Object
100
AcDbLine
 10
6.286000000000001
 20
6.40915786049746
 30
0.0
 11
6.286000000000001
 21
6.32415786049746
 31
0.0
  0
LINE
  5
413
330
1F
100
AcDbEntity
  8
Object
100
AcDbLine
 10
6.275999999999999
 20
6.31515786049746
 30
0.0
 11
6.257999999999999
 21
6.31515786049746
 31
0.0
  0
LINE
  5
414
330
1F
100
AcDbEntity
  8
Object
100
AcDbLine
 10
6.286000000000001
 20
6.32415786049746
 30
0.0
 11
6.283999999999998
 21
6.31915786049746
 31
0.0
  0
LINE
  5
415
330
1F
100
AcDbEntity
  8
Object
100
AcDbLine
 10
6.283999999999998
 20
6.31915786049746
 30
0.0
 11
6.280999999999998
 21
6.31615786049746
 31
0.0
  0
LINE
  5
416
330
1F
100
AcDbEntity
  8
Object
100
AcDbLine
 10
6.280999999999998
 20
6.31615786049746
 30
0.0
 11
6.275999999999999
 21
6.31515786049746
 31
0.0
  0
LINE
  5
417
330
1F
100
AcDbEntity
  8
Object
100
AcDbLine
 10
6.286000000000001
 20
6.40915786049746
 30
0.0
 11
6.283999999999998
 21
6.413157860497459
 31
0.0
  0
LINE
  5
418
330
1F
100
AcDbEntity
  8
Object
100
AcDbLine
 10
6.283999999999998
 20
6.413157860497459
 30
0.0
 11
6.280999999999998
 21
6.41715786049746
 31
0.0
  0
LINE
  5
419
330
1F
100
AcDbEntity
  8
Object
100
AcDbLine
 10
6.280999999999998
 20
6.41715786049746
 30
0.0
 11
6.275999999999999
 21
6.418157860497459
 31
0.0
  0
LINE
  5
41A
330
1F
100
AcDbEntity
  8
Object
100
AcDbLine
 10
6.257999999999999
 20
6.31515786049746
 30
0.0
 11
6.257999999999999
 21
6.418157860497459
 31
0.0
  0
LINE
  5
41B
330
1F
100
AcDbEntity
  8
Object
100
AcDbLine
 10
8.463
 20
5.503157860497459
 30
0.0
 11
8.468999999999999
 21
5.503157860497459
 31
0.0
  0
LINE
  5
41C
330
1F
100
AcDbEntity
  8
Object
100
AcDbLine
 10
8.468999999999999
 20
5.503157860497459
 30
0.0
 11
8.464
 21
5.468157860497459
 31
0.0
  0
LINE
  5
41D
330
1F
100
AcDbEntity
  8
Object
100
AcDbLine
 10
8.464
 20
5.468157860497459
 30
0.0
 11
8.447
 21
5.436157860497459
 31
0.0
  0
LINE
  5
41E
330
1F
100
AcDbEntity
  8
Object
100
AcDbLine
 10
8.463
 20
5.503157860497459
 30
0.0
 11
8.444
 21
5.503157860497459
 31
0.0
  0
LINE
  5
41F
330
1F
100
AcDbEntity
  8
Object
100
AcDbLine
 10
8.422
 20
5.410157860497459
 30
0.0
 11
8.447
 21
5.436157860497459
 31
0.0
  0
LINE
  5
420
330
1F
100
AcDbEntity
  8
Object
100
AcDbLine
 10
8.444
 20
5.503157860497459
 30
0.0
 11
8.419
 21
5.503157860497459
 31
0.0
  0
LINE
  5
421
330
1F
100
AcDbEntity
  8
Object
100
AcDbLine
 10
8.422
 20
5.410157860497459
 30
0.0
 11
8.39
 21
5.394157860497459
 31
0.0
  0
LINE
  5
422
330
1F
100
AcDbEntity
  8
Object
100
AcDbLine
 10
8.39
 20
5.394157860497459
 30
0.0
 11
8.354
 21
5.388157860497459
 31
0.0
  0
LINE
  5
423
330
1F
100
AcDbEntity
  8
Object
100
AcDbLine
 10
8.354
 20
5.39515786049746
 30
0.0
 11
8.354
 21
5.413157860497459
 31
0.0
  0
LINE
  5
424
330
1F
100
AcDbEntity
  8
Object
100
AcDbLine
 10
8.354
 20
5.413157860497459
 30
0.0
 11
8.354
 21
5.43815786049746
 31
0.0
  0
LINE
  5
425
330
1F
100
AcDbEntity
  8
Object
100
AcDbLine
 10
8.354
 20
5.39515786049746
 30
0.0
 11
8.354
 21
5.388157860497459
 31
0.0
  0
LINE
  5
426
330
1F
100
AcDbEntity
  8
Object
100
AcDbLine
 10
8.354
 20
5.388157860497459
 30
0.0
 11
4.083999999999999
 21
5.388157860497459
 31
0.0
  0
LINE
  5
427
330
1F
100
AcDbEntity
  8
Object
100
AcDbLine
 10
4.083999999999999
 20
5.413157860497459
 30
0.0
 11
4.083999999999999
 21
5.43815786049746
 31
0.0
  0
LINE
  5
428
330
1F
100
AcDbEntity
  8
Object
100
AcDbLine
 10
4.083999999999999
 20
5.39515786049746
 30
0.0
 11
4.083999999999999
 21
5.388157860497459
 31
0.0
  0
LINE
  5
429
330
1F
100
AcDbEntity
  8
Object
100
AcDbLine
 10
4.083999999999999
 20
5.388157860497459
 30
0.0
 11
4.048
 21
5.394157860497459
 31
0.0
  0
LINE
  5
42A
330
1F
100
AcDbEntity
  8
Object
100
AcDbLine
 10
4.083999999999999
 20
5.39515786049746
 30
0.0
 11
4.083999999999999
 21
5.413157860497459
 31
0.0
  0
LINE
  5
42B
330
1F
100
AcDbEntity
  8
Object
100
AcDbLine
 10
4.016
 20
5.410157860497459
 30
0.0
 11
4.048
 21
5.394157860497459
 31
0.0
  0
LINE
  5
42C
330
1F
100
AcDbEntity
  8
Object
100
AcDbLine
 10
4.038
 20
5.45715786049746
 30
0.0
 11
4.024
 21
5.478157860497459
 31
0.0
  0
LINE
  5
42D
330
1F
100
AcDbEntity
  8
Object
100
AcDbLine
 10
3.993999999999999
 20
5.503157860497459
 30
0.0
 11
4.019
 21
5.503157860497459
 31
0.0
  0
LINE
  5
42E
330
1F
100
AcDbEntity
  8
Object
100
AcDbLine
 10
4.019
 20
5.503157860497459
 30
0.0
 11
4.024
 21
5.478157860497459
 31
0.0
  0
LINE
  5
42F
330
1F
100
AcDbEntity
  8
Object
100
AcDbLine
 10
3.990999999999999
 20
5.436157860497459
 30
0.0
 11
4.016
 21
5.410157860497459
 31
0.0
  0
LINE
  5
430
330
1F
100
AcDbEntity
  8
Object
100
AcDbLine
 10
3.993999999999999
 20
5.503157860497459
 30
0.0
 11
3.975999999999999
 21
5.503157860497459
 31
0.0
  0
LINE
  5
431
330
1F
100
AcDbEntity
  8
Object
100
AcDbLine
 10
3.990999999999999
 20
5.436157860497459
 30
0.0
 11
3.974999999999999
 21
5.468157860497459
 31
0.0
  0
LINE
  5
432
330
1F
100
AcDbEntity
  8
Object
100
AcDbLine
 10
3.974999999999999
 20
5.468157860497459
 30
0.0
 11
3.968999999999999
 21
5.503157860497459
 31
0.0
  0
LINE
  5
433
330
1F
100
AcDbEntity
  8
Object
100
AcDbLine
 10
3.968999999999999
 20
5.503157860497459
 30
0.0
 11
3.975999999999999
 21
5.503157860497459
 31
0.0
  0
LINE
  5
434
330
1F
100
AcDbEntity
  8
Object
100
AcDbLine
 10
8.464
 20
9.39915786049746
 30
0.0
 11
8.468999999999999
 21
9.36415786049746
 31
0.0
  0
LINE
  5
435
330
1F
100
AcDbEntity
  8
Object
100
AcDbLine
 10
8.468999999999999
 20
9.36415786049746
 30
0.0
 11
8.463
 21
9.36415786049746
 31
0.0
  0
LINE
  5
436
330
1F
100
AcDbEntity
  8
Object
100
AcDbLine
 10
8.464
 20
9.39915786049746
 30
0.0
 11
8.447
 21
9.43115786049746
 31
0.0
  0
LINE
  5
437
330
1F
100
AcDbEntity
  8
Object
100
AcDbLine
 10
8.447
 20
9.43115786049746
 30
0.0
 11
8.422
 21
9.45715786049746
 31
0.0
  0
LINE
  5
438
330
1F
100
AcDbEntity
  8
Object
100
AcDbLine
 10
8.422
 20
9.45715786049746
 30
0.0
 11
8.39
 21
9.47315786049746
 31
0.0
  0
LINE
  5
439
330
1F
100
AcDbEntity
  8
Object
100
AcDbLine
 10
8.39
 20
9.47315786049746
 30
0.0
 11
8.354
 21
9.479157860497458
 31
0.0
  0
LINE
  5
43A
330
1F
100
AcDbEntity
  8
Object
100
AcDbLine
 10
3.993999999999999
 20
9.36415786049746
 30
0.0
 11
4.019
 21
9.36415786049746
 31
0.0
  0
LINE
  5
43B
330
1F
100
AcDbEntity
  8
Object
100
AcDbLine
 10
4.019
 20
9.36415786049746
 30
0.0
 11
4.019
 21
5.503157860497459
 31
0.0
  0
LINE
  5
43C
330
1F
100
AcDbEntity
  8
Object
100
AcDbLine
 10
3.993999999999999
 20
9.36415786049746
 30
0.0
 11
3.975999999999999
 21
9.36415786049746
 31
0.0
  0
LINE
  5
43D
330
1F
100
AcDbEntity
  8
Object
100
AcDbLine
 10
3.968999999999999
 20
5.503157860497459
 30
0.0
 11
3.968999999999999
 21
9.36415786049746
 31
0.0
  0
LINE
  5
43E
330
1F
100
AcDbEntity
  8
Object
100
AcDbLine
 10
3.968999999999999
 20
9.36415786049746
 30
0.0
 11
3.975999999999999
 21
9.36415786049746
 31
0.0
  0
LINE
  5
43F
330
1F
100
AcDbEntity
  8
Object
100
AcDbLine
 10
4.083999999999999
 20
9.429157860497459
 30
0.0
 11
4.083999999999999
 21
9.45415786049746
 31
0.0
  0
LINE
  5
440
330
1F
100
AcDbEntity
  8
Object
100
AcDbLine
 10
4.083999999999999
 20
9.479157860497458
 30
0.0
 11
4.083999999999999
 21
9.472157860497461
 31
0.0
  0
LINE
  5
441
330
1F
100
AcDbEntity
  8
Object
100
AcDbLine
 10
4.083999999999999
 20
9.472157860497461
 30
0.0
 11
4.083999999999999
 21
9.45415786049746
 31
0.0
  0
LINE
  5
442
330
1F
100
AcDbEntity
  8
Object
100
AcDbLine
 10
4.083999999999999
 20
9.479157860497458
 30
0.0
 11
4.048
 21
9.47315786049746
 31
0.0
  0
LINE
  5
443
330
1F
100
AcDbEntity
  8
Object
100
AcDbLine
 10
4.048
 20
9.47315786049746
 30
0.0
 11
4.016
 21
9.45715786049746
 31
0.0
  0
LINE
  5
444
330
1F
100
AcDbEntity
  8
Object
100
AcDbLine
 10
4.038
 20
9.410157860497459
 30
0.0
 11
4.024
 21
9.389157860497459
 31
0.0
  0
LINE
  5
445
330
1F
100
AcDbEntity
  8
Object
100
AcDbLine
 10
4.024
 20
9.389157860497459
 30
0.0
 11
4.019
 21
9.36415786049746
 31
0.0
  0
LINE
  5
446
330
1F
100
AcDbEntity
  8
Object
100
AcDbLine
 10
4.016
 20
9.45715786049746
 30
0.0
 11
3.990999999999999
 21
9.43115786049746
 31
0.0
  0
LINE
  5
447
330
1F
100
AcDbEntity
  8
Object
100
AcDbLine
 10
3.990999999999999
 20
9.43115786049746
 30
0.0
 11
3.974999999999999
 21
9.39915786049746
 31
0.0
  0
LINE
  5
448
330
1F
100
AcDbEntity
  8
Object
100
AcDbLine
 10
3.974999999999999
 20
9.39915786049746
 30
0.0
 11
3.968999999999999
 21
9.36415786049746
 31
0.0
  0
LINE
  5
449
330
1F
100
AcDbEntity
  8
Object
100
AcDbLine
 10
8.468999999999999
 20
5.503157860497459
 30
0.0
 11
8.468999999999999
 21
9.36415786049746
 31
0.0
  0
LINE
  5
44A
330
1F
100
AcDbEntity
  8
Object
100
AcDbLine
 10
8.463
 20
9.36415786049746
 30
0.0
 11
8.444
 21
9.36415786049746
 31
0.0
  0
LINE
  5
44B
330
1F
100
AcDbEntity
  8
Object
100
AcDbLine
 10
8.444
 20
9.36415786049746
 30
0.0
 11
8.419
 21
9.36415786049746
 31
0.0
  0
LINE
  5
44C
330
1F
100
AcDbEntity
  8
Object
100
AcDbLine
 10
8.354
 20
9.45415786049746
 30
0.0
 11
8.354
 21
9.472157860497461
 31
0.0
  0
LINE
  5
44D
330
1F
100
AcDbEntity
  8
Object
100
AcDbLine
 10
4.083999999999999
 20
9.479157860497458
 30
0.0
 11
8.354
 21
9.479157860497458
 31
0.0
  0
LINE
  5
44E
330
1F
100
AcDbEntity
  8
Object
100
AcDbLine
 10
8.354
 20
9.479157860497458
 30
0.0
 11
8.354
 21
9.472157860497461
 31
0.0
  0
LINE
  5
44F
330
1F
100
AcDbEntity
  8
Object
100
AcDbLine
 10
8.354
 20
9.429157860497459
 30
0.0
 11
8.354
 21
9.45415786049746
 31
0.0
  0
LINE
  5
450
330
1F
100
AcDbEntity
  8
Object
100
AcDbLine
 10
8.468999999999999
 20
5.503157860497459
 30
0.0
 11
8.464
 21
5.468157860497459
 31
0.0
  0
LINE
  5
451
330
1F
100
AcDbEntity
  8
Object
100
AcDbLine
 10
8.464
 20
5.468157860497459
 30
0.0
 11
8.447
 21
5.436157860497459
 31
0.0
  0
LINE
  5
452
330
1F
100
AcDbEntity
  8
Object
100
AcDbLine
 10
8.447
 20
5.436157860497459
 30
0.0
 11
8.422
 21
5.410157860497459
 31
0.0
  0
LINE
  5
453
330
1F
100
AcDbEntity
  8
Object
100
AcDbLine
 10
8.422
 20
5.410157860497459
 30
0.0
 11
8.39
 21
5.394157860497459
 31
0.0
  0
LINE
  5
454
330
1F
100
AcDbEntity
  8
Object
100
AcDbLine
 10
8.39
 20
5.394157860497459
 30
0.0
 11
8.354
 21
5.388157860497459
 31
0.0
  0
LINE
  5
455
330
1F
100
AcDbEntity
  8
Object
100
AcDbLine
 10
8.354
 20
5.388157860497459
 30
0.0
 11
4.083999999999999
 21
5.388157860497459
 31
0.0
  0
LINE
  5
456
330
1F
100
AcDbEntity
  8
Object
100
AcDbLine
 10
4.083999999999999
 20
5.388157860497459
 30
0.0
 11
4.048
 21
5.394157860497459
 31
0.0
  0
LINE
  5
457
330
1F
100
AcDbEntity
  8
Object
100
AcDbLine
 10
4.048
 20
5.394157860497459
 30
0.0
 11
4.016
 21
5.410157860497459
 31
0.0
  0
LINE
  5
458
330
1F
100
AcDbEntity
  8
Object
100
AcDbLine
 10
4.016
 20
5.410157860497459
 30
0.0
 11
3.990999999999999
 21
5.436157860497459
 31
0.0
  0
LINE
  5
459
330
1F
100
AcDbEntity
  8
Object
100
AcDbLine
 10
3.990999999999999
 20
5.436157860497459
 30
0.0
 11
3.974999999999999
 21
5.468157860497459
 31
0.0
  0
LINE
  5
45A
330
1F
100
AcDbEntity
  8
Object
100
AcDbLine
 10
3.974999999999999
 20
5.468157860497459
 30
0.0
 11
3.968999999999999
 21
5.503157860497459
 31
0.0
  0
LINE
  5
45B
330
1F
100
AcDbEntity
  8
Object
100
AcDbLine
 10
8.468999999999999
 20
9.36415786049746
 30
0.0
 11
8.464
 21
9.39915786049746
 31
0.0
  0
LINE
  5
45C
330
1F
100
AcDbEntity
  8
Object
100
AcDbLine
 10
8.464
 20
9.39915786049746
 30
0.0
 11
8.447
 21
9.43115786049746
 31
0.0
  0
LINE
  5
45D
330
1F
100
AcDbEntity
  8
Object
100
AcDbLine
 10
8.447
 20
9.43115786049746
 30
0.0
 11
8.422
 21
9.45715786049746
 31
0.0
  0
LINE
  5
45E
330
1F
100
AcDbEntity
  8
Object
100
AcDbLine
 10
8.422
 20
9.45715786049746
 30
0.0
 11
8.39
 21
9.47315786049746
 31
0.0
  0
LINE
  5
45F
330
1F
100
AcDbEntity
  8
Object
100
AcDbLine
 10
8.39
 20
9.47315786049746
 30
0.0
 11
8.354
 21
9.479157860497458
 31
0.0
  0
LINE
  5
460
330
1F
100
AcDbEntity
  8
Object
100
AcDbLine
 10
3.968999999999999
 20
9.36415786049746
 30
0.0
 11
3.968999999999999
 21
5.503157860497459
 31
0.0
  0
LINE
  5
461
330
1F
100
AcDbEntity
  8
Object
100
AcDbLine
 10
4.083999999999999
 20
9.479157860497458
 30
0.0
 11
4.048
 21
9.47315786049746
 31
0.0
  0
LINE
  5
462
330
1F
100
AcDbEntity
  8
Object
100
AcDbLine
 10
4.048
 20
9.47315786049746
 30
0.0
 11
4.016
 21
9.45715786049746
 31
0.0
  0
LINE
  5
463
330
1F
100
AcDbEntity
  8
Object
100
AcDbLine
 10
4.016
 20
9.45715786049746
 30
0.0
 11
3.990999999999999
 21
9.43115786049746
 31
0.0
  0
LINE
  5
464
330
1F
100
AcDbEntity
  8
Object
100
AcDbLine
 10
3.990999999999999
 20
9.43115786049746
 30
0.0
 11
3.974999999999999
 21
9.39915786049746
 31
0.0
  0
LINE
  5
465
102
{ACAD_REACTORS
330
662
102
}
330
1F
100
AcDbEntity
  8
Object
100
AcDbLine
 10
3.974999999999999
 20
9.39915786049746
 30
0.0
 11
3.968999999999999
 21
9.36415786049746
 31
0.0
  0
LINE
  5
466
102
{ACAD_REACTORS
330
662
102
}
330
1F
100
AcDbEntity
  8
Object
100
AcDbLine
 10
8.468999999999999
 20
5.503157860497459
 30
0.0
 11
8.468999999999999
 21
9.36415786049746
 31
0.0
  0
LINE
  5
467
330
1F
100
AcDbEntity
  8
Object
100
AcDbLine
 10
8.354
 20
9.479157860497458
 30
0.0
 11
4.083999999999999
 21
9.479157860497458
 31
0.0
  0
LINE
  5
468
330
1F
100
AcDbEntity
  8
Object
100
AcDbLine
 10
8.419
 20
13.88015786049746
 30
0.0
 11
8.413999999999999
 21
13.88015786049746
 31
0.0
  0
LINE
  5
469
330
1F
100
AcDbEntity
  8
Object
100
AcDbLine
 10
8.413999999999999
 20
13.88015786049746
 30
0.0
 11
8.4
 21
13.88015786049746
 31
0.0
  0
LINE
  5
46A
330
1F
100
AcDbEntity
  8
Object
100
AcDbLine
 10
8.4
 20
13.88015786049746
 30
0.0
 11
8.378999999999999
 21
13.88015786049746
 31
0.0
  0
LINE
  5
46B
330
1F
100
AcDbEntity
  8
Object
100
AcDbLine
 10
8.378999999999999
 20
13.88015786049746
 30
0.0
 11
8.354
 21
13.88015786049746
 31
0.0
  0
LINE
  5
46C
330
1F
100
AcDbEntity
  8
Object
100
AcDbLine
 10
8.354
 20
13.88015786049746
 30
0.0
 11
4.083999999999999
 21
13.88015786049746
 31
0.0
  0
LINE
  5
46D
330
1F
100
AcDbEntity
  8
Object
100
AcDbLine
 10
4.083999999999999
 20
13.88015786049746
 30
0.0
 11
4.059000000000001
 21
13.88015786049746
 31
0.0
  0
LINE
  5
46E
330
1F
100
AcDbEntity
  8
Object
100
AcDbLine
 10
4.059000000000001
 20
13.88015786049746
 30
0.0
 11
4.038
 21
13.88015786049746
 31
0.0
  0
LINE
  5
46F
330
1F
100
AcDbEntity
  8
Object
100
AcDbLine
 10
4.038
 20
13.88015786049746
 30
0.0
 11
4.024
 21
13.88015786049746
 31
0.0
  0
LINE
  5
470
330
1F
100
AcDbEntity
  8
Object
100
AcDbLine
 10
4.024
 20
13.88015786049746
 30
0.0
 11
4.019
 21
13.88015786049746
 31
0.0
  0
LINE
  5
471
330
1F
100
AcDbEntity
  8
Object
100
AcDbLine
 10
8.464
 20
13.93015786049746
 30
0.0
 11
8.468999999999999
 21
13.93015786049746
 31
0.0
  0
LINE
  5
472
330
1F
100
AcDbEntity
  8
Object
100
AcDbLine
 10
8.468999999999999
 20
13.93015786049746
 30
0.0
 11
8.463
 21
13.90515786049746
 31
0.0
  0
LINE
  5
473
330
1F
100
AcDbEntity
  8
Object
100
AcDbLine
 10
8.463
 20
13.90515786049746
 30
0.0
 11
8.444
 21
13.88715786049746
 31
0.0
  0
LINE
  5
474
330
1F
100
AcDbEntity
  8
Object
100
AcDbLine
 10
8.464
 20
13.93015786049746
 30
0.0
 11
8.447
 21
13.93015786049746
 31
0.0
  0
LINE
  5
475
330
1F
100
AcDbEntity
  8
Object
100
AcDbLine
 10
8.447
 20
13.93015786049746
 30
0.0
 11
8.422
 21
13.93015786049746
 31
0.0
  0
LINE
  5
476
330
1F
100
AcDbEntity
  8
Object
100
AcDbLine
 10
8.444
 20
13.88715786049746
 30
0.0
 11
8.419
 21
13.88015786049746
 31
0.0
  0
LINE
  5
477
330
1F
100
AcDbEntity
  8
Object
100
AcDbLine
 10
8.419
 20
13.88015786049746
 30
0.0
 11
8.413999999999999
 21
13.88015786049746
 31
0.0
  0
LINE
  5
478
330
1F
100
AcDbEntity
  8
Object
100
AcDbLine
 10
8.413999999999999
 20
13.88015786049746
 30
0.0
 11
8.4
 21
13.88015786049746
 31
0.0
  0
LINE
  5
479
330
1F
100
AcDbEntity
  8
Object
100
AcDbLine
 10
8.422
 20
13.93015786049746
 30
0.0
 11
8.39
 21
13.93015786049746
 31
0.0
  0
LINE
  5
47A
330
1F
100
AcDbEntity
  8
Object
100
AcDbLine
 10
8.4
 20
13.88015786049746
 30
0.0
 11
8.378999999999999
 21
13.88015786049746
 31
0.0
  0
LINE
  5
47B
330
1F
100
AcDbEntity
  8
Object
100
AcDbLine
 10
8.378999999999999
 20
13.88015786049746
 30
0.0
 11
8.354
 21
13.88015786049746
 31
0.0
  0
LINE
  5
47C
330
1F
100
AcDbEntity
  8
Object
100
AcDbLine
 10
8.39
 20
13.93015786049746
 30
0.0
 11
8.354
 21
13.93015786049746
 31
0.0
  0
LINE
  5
47D
330
1F
100
AcDbEntity
  8
Object
100
AcDbLine
 10
4.019
 20
13.88015786049746
 30
0.0
 11
3.993999999999999
 21
13.88715786049746
 31
0.0
  0
LINE
  5
47E
330
1F
100
AcDbEntity
  8
Object
100
AcDbLine
 10
3.993999999999999
 20
13.88715786049746
 30
0.0
 11
3.975999999999999
 21
13.90515786049746
 31
0.0
  0
LINE
  5
47F
330
1F
100
AcDbEntity
  8
Object
100
AcDbLine
 10
3.975999999999999
 20
13.90515786049746
 30
0.0
 11
3.968999999999999
 21
13.93015786049746
 31
0.0
  0
LINE
  5
480
330
1F
100
AcDbEntity
  8
Object
100
AcDbLine
 10
4.083999999999999
 20
13.88015786049746
 30
0.0
 11
4.083999999999999
 21
13.88715786049746
 31
0.0
  0
LINE
  5
481
330
1F
100
AcDbEntity
  8
Object
100
AcDbLine
 10
4.083999999999999
 20
13.93015786049746
 30
0.0
 11
4.083999999999999
 21
13.90515786049746
 31
0.0
  0
LINE
  5
482
330
1F
100
AcDbEntity
  8
Object
100
AcDbLine
 10
4.083999999999999
 20
13.90515786049746
 30
0.0
 11
4.083999999999999
 21
13.88715786049746
 31
0.0
  0
LINE
  5
483
330
1F
100
AcDbEntity
  8
Object
100
AcDbLine
 10
4.059000000000001
 20
13.88015786049746
 30
0.0
 11
4.083999999999999
 21
13.88015786049746
 31
0.0
  0
LINE
  5
484
330
1F
100
AcDbEntity
  8
Object
100
AcDbLine
 10
4.083999999999999
 20
13.93015786049746
 30
0.0
 11
4.048
 21
13.93015786049746
 31
0.0
  0
LINE
  5
485
330
1F
100
AcDbEntity
  8
Object
100
AcDbLine
 10
4.038
 20
13.88015786049746
 30
0.0
 11
4.059000000000001
 21
13.88015786049746
 31
0.0
  0
LINE
  5
486
330
1F
100
AcDbEntity
  8
Object
100
AcDbLine
 10
4.048
 20
13.93015786049746
 30
0.0
 11
4.016
 21
13.93015786049746
 31
0.0
  0
LINE
  5
487
330
1F
100
AcDbEntity
  8
Object
100
AcDbLine
 10
4.038
 20
13.88015786049746
 30
0.0
 11
4.024
 21
13.88015786049746
 31
0.0
  0
LINE
  5
488
330
1F
100
AcDbEntity
  8
Object
100
AcDbLine
 10
4.024
 20
13.88015786049746
 30
0.0
 11
4.019
 21
13.88015786049746
 31
0.0
  0
LINE
  5
489
330
1F
100
AcDbEntity
  8
Object
100
AcDbLine
 10
4.019
 20
13.88015786049746
 30
0.0
 11
3.993999999999999
 21
13.88715786049746
 31
0.0
  0
LINE
  5
48A
330
1F
100
AcDbEntity
  8
Object
100
AcDbLine
 10
4.016
 20
13.93015786049746
 30
0.0
 11
3.990999999999999
 21
13.93015786049746
 31
0.0
  0
LINE
  5
48B
330
1F
100
AcDbEntity
  8
Object
100
AcDbLine
 10
3.975999999999999
 20
13.90515786049746
 30
0.0
 11
3.993999999999999
 21
13.88715786049746
 31
0.0
  0
LINE
  5
48C
330
1F
100
AcDbEntity
  8
Object
100
AcDbLine
 10
3.990999999999999
 20
13.93015786049746
 30
0.0
 11
3.974999999999999
 21
13.93015786049746
 31
0.0
  0
LINE
  5
48D
330
1F
100
AcDbEntity
  8
Object
100
AcDbLine
 10
3.975999999999999
 20
13.90515786049746
 30
0.0
 11
3.968999999999999
 21
13.93015786049746
 31
0.0
  0
LINE
  5
48E
330
1F
100
AcDbEntity
  8
Object
100
AcDbLine
 10
3.968999999999999
 20
13.93015786049746
 30
0.0
 11
3.974999999999999
 21
13.93015786049746
 31
0.0
  0
LINE
  5
48F
330
1F
100
AcDbEntity
  8
Object
100
AcDbLine
 10
8.468999999999999
 20
13.93015786049746
 30
0.0
 11
8.463
 21
13.90515786049746
 31
0.0
  0
LINE
  5
490
330
1F
100
AcDbEntity
  8
Object
100
AcDbLine
 10
8.463
 20
13.90515786049746
 30
0.0
 11
8.444
 21
13.88715786049746
 31
0.0
  0
LINE
  5
491
330
1F
100
AcDbEntity
  8
Object
100
AcDbLine
 10
8.444
 20
13.88715786049746
 30
0.0
 11
8.419
 21
13.88015786049746
 31
0.0
  0
LINE
  5
492
330
1F
100
AcDbEntity
  8
Object
100
AcDbLine
 10
8.354
 20
13.88715786049746
 30
0.0
 11
8.354
 21
13.90515786049746
 31
0.0
  0
LINE
  5
493
330
1F
100
AcDbEntity
  8
Object
100
AcDbLine
 10
4.083999999999999
 20
13.93015786049746
 30
0.0
 11
8.354
 21
13.93015786049746
 31
0.0
  0
LINE
  5
494
330
1F
100
AcDbEntity
  8
Object
100
AcDbLine
 10
8.354
 20
13.93015786049746
 30
0.0
 11
8.354
 21
13.90515786049746
 31
0.0
  0
LINE
  5
495
330
1F
100
AcDbEntity
  8
Object
100
AcDbLine
 10
8.354
 20
13.88715786049746
 30
0.0
 11
8.354
 21
13.88015786049746
 31
0.0
  0
LINE
  5
496
330
1F
100
AcDbEntity
  8
Object
100
AcDbLine
 10
8.354
 20
13.88015786049746
 30
0.0
 11
4.083999999999999
 21
13.88015786049746
 31
0.0
  0
LINE
  5
497
330
1F
100
AcDbEntity
  8
Object
100
AcDbLine
 10
8.464
 20
13.98515786049746
 30
0.0
 11
8.468999999999999
 21
13.98515786049746
 31
0.0
  0
LINE
  5
498
330
1F
100
AcDbEntity
  8
Object
100
AcDbLine
 10
8.468999999999999
 20
13.98515786049746
 30
0.0
 11
8.468999999999999
 21
13.93015786049746
 31
0.0
  0
LINE
  5
499
330
1F
100
AcDbEntity
  8
Object
100
AcDbLine
 10
8.464
 20
13.98515786049746
 30
0.0
 11
8.447
 21
13.98515786049746
 31
0.0
  0
LINE
  5
49A
330
1F
100
AcDbEntity
  8
Object
100
AcDbLine
 10
8.447
 20
13.98515786049746
 30
0.0
 11
8.422
 21
13.98515786049746
 31
0.0
  0
LINE
  5
49B
330
1F
100
AcDbEntity
  8
Object
100
AcDbLine
 10
8.422
 20
13.98515786049746
 30
0.0
 11
8.39
 21
13.98515786049746
 31
0.0
  0
LINE
  5
49C
330
1F
100
AcDbEntity
  8
Object
100
AcDbLine
 10
8.39
 20
13.98515786049746
 30
0.0
 11
8.354
 21
13.98515786049746
 31
0.0
  0
LINE
  5
49D
330
1F
100
AcDbEntity
  8
Object
100
AcDbLine
 10
3.968999999999999
 20
14.01515786049746
 30
0.0
 11
3.968999999999999
 21
14.00015786049746
 31
0.0
  0
LINE
  5
49E
330
1F
100
AcDbEntity
  8
Object
100
AcDbLine
 10
3.968999999999999
 20
13.98515786049746
 30
0.0
 11
3.968999999999999
 21
13.93015786049746
 31
0.0
  0
LINE
  5
49F
330
1F
100
AcDbEntity
  8
Object
100
AcDbLine
 10
3.968999999999999
 20
14.95915786049746
 30
0.0
 11
3.968999999999999
 21
14.97815786049746
 31
0.0
  0
LINE
  5
4A0
330
1F
100
AcDbEntity
  8
Object
100
AcDbLine
 10
3.968999999999999
 20
14.97815786049746
 30
0.0
 11
3.968999999999999
 21
14.98515786049746
 31
0.0
  0
LINE
  5
4A1
330
1F
100
AcDbEntity
  8
Object
100
AcDbLine
 10
3.968999999999999
 20
14.95915786049746
 30
0.0
 11
3.968999999999999
 21
14.93115786049746
 31
0.0
  0
LINE
  5
4A2
330
1F
100
AcDbEntity
  8
Object
100
AcDbLine
 10
3.968999999999999
 20
14.93115786049746
 30
0.0
 11
3.968999999999999
 21
14.89615786049746
 31
0.0
  0
LINE
  5
4A3
330
1F
100
AcDbEntity
  8
Object
100
AcDbLine
 10
3.968999999999999
 20
14.89615786049746
 30
0.0
 11
3.968999999999999
 21
14.01515786049746
 31
0.0
  0
LINE
  5
4A4
330
1F
100
AcDbEntity
  8
Object
100
AcDbLine
 10
3.968999999999999
 20
14.00015786049746
 30
0.0
 11
3.968999999999999
 21
13.98915786049746
 31
0.0
  0
LINE
  5
4A5
330
1F
100
AcDbEntity
  8
Object
100
AcDbLine
 10
3.968999999999999
 20
13.98915786049746
 30
0.0
 11
3.968999999999999
 21
13.98515786049746
 31
0.0
  0
LINE
  5
4A6
330
1F
100
AcDbEntity
  8
Object
100
AcDbLine
 10
4.048
 20
13.98515786049746
 30
0.0
 11
4.083999999999999
 21
13.98515786049746
 31
0.0
  0
LINE
  5
4A7
330
1F
100
AcDbEntity
  8
Object
100
AcDbLine
 10
4.083999999999999
 20
13.98515786049746
 30
0.0
 11
4.083999999999999
 21
13.93015786049746
 31
0.0
  0
LINE
  5
4A8
330
1F
100
AcDbEntity
  8
Object
100
AcDbLine
 10
4.048
 20
13.98515786049746
 30
0.0
 11
4.016
 21
13.98515786049746
 31
0.0
  0
LINE
  5
4A9
330
1F
100
AcDbEntity
  8
Object
100
AcDbLine
 10
4.016
 20
13.98515786049746
 30
0.0
 11
3.990999999999999
 21
13.98515786049746
 31
0.0
  0
LINE
  5
4AA
330
1F
100
AcDbEntity
  8
Object
100
AcDbLine
 10
3.990999999999999
 20
13.98515786049746
 30
0.0
 11
3.974999999999999
 21
13.98515786049746
 31
0.0
  0
LINE
  5
4AB
330
1F
100
AcDbEntity
  8
Object
100
AcDbLine
 10
3.974999999999999
 20
13.98515786049746
 30
0.0
 11
3.968999999999999
 21
13.98515786049746
 31
0.0
  0
LINE
  5
4AC
330
1F
100
AcDbEntity
  8
Object
100
AcDbLine
 10
3.968999999999999
 20
13.98515786049746
 30
0.0
 11
3.968999999999999
 21
13.93015786049746
 31
0.0
  0
LINE
  5
4AD
330
1F
100
AcDbEntity
  8
Object
100
AcDbLine
 10
8.468999999999999
 20
13.98515786049746
 30
0.0
 11
8.468999999999999
 21
13.98915786049746
 31
0.0
  0
LINE
  5
4AE
330
1F
100
AcDbEntity
  8
Object
100
AcDbLine
 10
8.468999999999999
 20
14.89615786049746
 30
0.0
 11
8.468999999999999
 21
14.93115786049746
 31
0.0
  0
LINE
  5
4AF
330
1F
100
AcDbEntity
  8
Object
100
AcDbLine
 10
8.468999999999999
 20
14.93115786049746
 30
0.0
 11
8.468999999999999
 21
14.95915786049746
 31
0.0
  0
LINE
  5
4B0
330
1F
100
AcDbEntity
  8
Object
100
AcDbLine
 10
8.468999999999999
 20
14.95915786049746
 30
0.0
 11
8.468999999999999
 21
14.97815786049746
 31
0.0
  0
LINE
  5
4B1
330
1F
100
AcDbEntity
  8
Object
100
AcDbLine
 10
8.468999999999999
 20
14.97815786049746
 30
0.0
 11
8.468999999999999
 21
14.98515786049746
 31
0.0
  0
LINE
  5
4B2
330
1F
100
AcDbEntity
  8
Object
100
AcDbLine
 10
8.468999999999999
 20
14.01515786049746
 30
0.0
 11
8.468999999999999
 21
14.89615786049746
 31
0.0
  0
LINE
  5
4B3
330
1F
100
AcDbEntity
  8
Object
100
AcDbLine
 10
8.468999999999999
 20
13.93015786049746
 30
0.0
 11
8.468999999999999
 21
13.98515786049746
 31
0.0
  0
LINE
  5
4B4
330
1F
100
AcDbEntity
  8
Object
100
AcDbLine
 10
8.468999999999999
 20
13.98915786049746
 30
0.0
 11
8.468999999999999
 21
14.00015786049746
 31
0.0
  0
LINE
  5
4B5
330
1F
100
AcDbEntity
  8
Object
100
AcDbLine
 10
8.468999999999999
 20
14.00015786049746
 30
0.0
 11
8.468999999999999
 21
14.01515786049746
 31
0.0
  0
LINE
  5
4B6
330
1F
100
AcDbEntity
  8
Object
100
AcDbLine
 10
8.354
 20
13.93015786049746
 30
0.0
 11
8.354
 21
13.98515786049746
 31
0.0
  0
LINE
  5
4B7
330
1F
100
AcDbEntity
  8
Object
100
AcDbLine
 10
8.354
 20
13.98515786049746
 30
0.0
 11
4.083999999999999
 21
13.98515786049746
 31
0.0
  0
LINE
  5
4B8
330
1F
100
AcDbEntity
  8
Object
100
AcDbLine
 10
8.468999999999999
 20
13.98515786049746
 30
0.0
 11
8.464
 21
13.98515786049746
 31
0.0
  0
LINE
  5
4B9
330
1F
100
AcDbEntity
  8
Object
100
AcDbLine
 10
8.464
 20
13.98515786049746
 30
0.0
 11
8.447
 21
13.98515786049746
 31
0.0
  0
LINE
  5
4BA
330
1F
100
AcDbEntity
  8
Object
100
AcDbLine
 10
8.447
 20
13.98515786049746
 30
0.0
 11
8.422
 21
13.98515786049746
 31
0.0
  0
LINE
  5
4BB
330
1F
100
AcDbEntity
  8
Object
100
AcDbLine
 10
8.422
 20
13.98515786049746
 30
0.0
 11
8.39
 21
13.98515786049746
 31
0.0
  0
LINE
  5
4BC
330
1F
100
AcDbEntity
  8
Object
100
AcDbLine
 10
8.39
 20
13.98515786049746
 30
0.0
 11
8.354
 21
13.98515786049746
 31
0.0
  0
LINE
  5
4BD
330
1F
100
AcDbEntity
  8
Object
100
AcDbLine
 10
8.354
 20
13.98515786049746
 30
0.0
 11
4.083999999999999
 21
13.98515786049746
 31
0.0
  0
LINE
  5
4BE
330
1F
100
AcDbEntity
  8
Object
100
AcDbLine
 10
4.083999999999999
 20
13.98515786049746
 30
0.0
 11
4.048
 21
13.98515786049746
 31
0.0
  0
LINE
  5
4BF
330
1F
100
AcDbEntity
  8
Object
100
AcDbLine
 10
4.048
 20
13.98515786049746
 30
0.0
 11
4.016
 21
13.98515786049746
 31
0.0
  0
LINE
  5
4C0
330
1F
100
AcDbEntity
  8
Object
100
AcDbLine
 10
4.016
 20
13.98515786049746
 30
0.0
 11
3.990999999999999
 21
13.98515786049746
 31
0.0
  0
LINE
  5
4C1
330
1F
100
AcDbEntity
  8
Object
100
AcDbLine
 10
3.990999999999999
 20
13.98515786049746
 30
0.0
 11
3.974999999999999
 21
13.98515786049746
 31
0.0
  0
LINE
  5
4C2
330
1F
100
AcDbEntity
  8
Object
100
AcDbLine
 10
3.974999999999999
 20
13.98515786049746
 30
0.0
 11
3.968999999999999
 21
13.98515786049746
 31
0.0
  0
LINE
  5
4C3
330
1F
100
AcDbEntity
  8
Object
100
AcDbLine
 10
4.065999999999998
 20
13.98715786049746
 30
0.0
 11
4.065999999999998
 21
13.99415786049746
 31
0.0
  0
LINE
  5
4C4
330
1F
100
AcDbEntity
  8
Object
100
AcDbLine
 10
3.968999999999999
 20
13.98915786049746
 30
0.0
 11
3.968999999999999
 21
14.00015786049746
 31
0.0
  0
LINE
  5
4C5
330
1F
100
AcDbEntity
  8
Object
100
AcDbLine
 10
3.968999999999999
 20
14.00015786049746
 30
0.0
 11
3.968999999999999
 21
14.01515786049746
 31
0.0
  0
LINE
  5
4C6
330
1F
100
AcDbEntity
  8
Object
100
AcDbLine
 10
3.968999999999999
 20
14.01515786049746
 30
0.0
 11
4.065000000000001
 21
14.01515786049746
 31
0.0
  0
LINE
  5
4C7
330
1F
100
AcDbEntity
  8
Object
100
AcDbLine
 10
4.065000000000001
 20
14.01515786049746
 30
0.0
 11
4.065999999999998
 21
14.00415786049746
 31
0.0
  0
LINE
  5
4C8
330
1F
100
AcDbEntity
  8
Object
100
AcDbLine
 10
4.065999999999998
 20
14.00415786049746
 30
0.0
 11
4.065999999999998
 21
13.99415786049746
 31
0.0
  0
LINE
  5
4C9
330
1F
100
AcDbEntity
  8
Object
100
AcDbLine
 10
3.968999999999999
 20
13.98915786049746
 30
0.0
 11
3.968999999999999
 21
13.98515786049746
 31
0.0
  0
LINE
  5
4CA
330
1F
100
AcDbEntity
  8
Object
100
AcDbLine
 10
4.065999999999998
 20
13.98515786049746
 30
0.0
 11
4.065999999999998
 21
13.98715786049746
 31
0.0
  0
LINE
  5
4CB
330
1F
100
AcDbEntity
  8
Object
100
AcDbLine
 10
4.048999999999999
 20
14.98515786049746
 30
0.0
 11
3.968999999999999
 21
14.98515786049746
 31
0.0
  0
LINE
  5
4CC
330
1F
100
AcDbEntity
  8
Object
100
AcDbLine
 10
4.065000000000001
 20
14.01515786049746
 30
0.0
 11
4.05
 21
14.89615786049746
 31
0.0
  0
LINE
  5
4CD
330
1F
100
AcDbEntity
  8
Object
100
AcDbLine
 10
3.968999999999999
 20
14.01515786049746
 30
0.0
 11
3.968999999999999
 21
14.89615786049746
 31
0.0
  0
LINE
  5
4CE
330
1F
100
AcDbEntity
  8
Object
100
AcDbLine
 10
3.968999999999999
 20
14.89615786049746
 30
0.0
 11
4.05
 21
14.89615786049746
 31
0.0
  0
LINE
  5
4CF
330
1F
100
AcDbEntity
  8
Object
100
AcDbLine
 10
4.05
 20
14.92915786049746
 30
0.0
 11
4.048999999999999
 21
14.95915786049746
 31
0.0
  0
LINE
  5
4D0
330
1F
100
AcDbEntity
  8
Object
100
AcDbLine
 10
3.968999999999999
 20
14.93115786049746
 30
0.0
 11
3.968999999999999
 21
14.95915786049746
 31
0.0
  0
LINE
  5
4D1
330
1F
100
AcDbEntity
  8
Object
100
AcDbLine
 10
3.968999999999999
 20
14.95915786049746
 30
0.0
 11
3.968999999999999
 21
14.97815786049746
 31
0.0
  0
LINE
  5
4D2
330
1F
100
AcDbEntity
  8
Object
100
AcDbLine
 10
3.968999999999999
 20
14.97815786049746
 30
0.0
 11
3.968999999999999
 21
14.98515786049746
 31
0.0
  0
LINE
  5
4D3
330
1F
100
AcDbEntity
  8
Object
100
AcDbLine
 10
3.968999999999999
 20
14.98515786049746
 30
0.0
 11
4.048999999999999
 21
14.98515786049746
 31
0.0
  0
LINE
  5
4D4
330
1F
100
AcDbEntity
  8
Object
100
AcDbLine
 10
4.048999999999999
 20
14.98515786049746
 30
0.0
 11
4.048999999999999
 21
14.97915786049746
 31
0.0
  0
LINE
  5
4D5
330
1F
100
AcDbEntity
  8
Object
100
AcDbLine
 10
4.048999999999999
 20
14.97915786049746
 30
0.0
 11
4.048999999999999
 21
14.95915786049746
 31
0.0
  0
LINE
  5
4D6
330
1F
100
AcDbEntity
  8
Object
100
AcDbLine
 10
3.968999999999999
 20
14.93115786049746
 30
0.0
 11
3.968999999999999
 21
14.89615786049746
 31
0.0
  0
LINE
  5
4D7
330
1F
100
AcDbEntity
  8
Object
100
AcDbLine
 10
4.05
 20
14.89615786049746
 30
0.0
 11
4.05
 21
14.92915786049746
 31
0.0
  0
LINE
  5
4D8
330
1F
100
AcDbEntity
  8
Object
100
AcDbLine
 10
8.468999999999999
 20
14.98515786049746
 30
0.0
 11
8.39
 21
14.98515786049746
 31
0.0
  0
LINE
  5
4D9
330
1F
100
AcDbEntity
  8
Object
100
AcDbLine
 10
8.387999999999999
 20
14.89615786049746
 30
0.0
 11
8.468999999999999
 21
14.89615786049746
 31
0.0
  0
LINE
  5
4DA
330
1F
100
AcDbEntity
  8
Object
100
AcDbLine
 10
8.468999999999999
 20
14.89615786049746
 30
0.0
 11
8.468999999999999
 21
14.01515786049746
 31
0.0
  0
LINE
  5
4DB
330
1F
100
AcDbEntity
  8
Object
100
AcDbLine
 10
8.468999999999999
 20
14.01515786049746
 30
0.0
 11
8.372999999999999
 21
14.01515786049746
 31
0.0
  0
LINE
  5
4DC
330
1F
100
AcDbEntity
  8
Object
100
AcDbLine
 10
8.372999999999999
 20
14.01515786049746
 30
0.0
 11
8.387999999999999
 21
14.89615786049746
 31
0.0
  0
LINE
  5
4DD
330
1F
100
AcDbEntity
  8
Object
100
AcDbLine
 10
8.468999999999999
 20
14.97815786049746
 30
0.0
 11
8.468999999999999
 21
14.98515786049746
 31
0.0
  0
LINE
  5
4DE
330
1F
100
AcDbEntity
  8
Object
100
AcDbLine
 10
8.39
 20
14.97915786049746
 30
0.0
 11
8.39
 21
14.98515786049746
 31
0.0
  0
LINE
  5
4DF
330
1F
100
AcDbEntity
  8
Object
100
AcDbLine
 10
8.39
 20
14.98515786049746
 30
0.0
 11
8.468999999999999
 21
14.98515786049746
 31
0.0
  0
LINE
  5
4E0
330
1F
100
AcDbEntity
  8
Object
100
AcDbLine
 10
8.39
 20
14.97915786049746
 30
0.0
 11
8.388999999999999
 21
14.95915786049746
 31
0.0
  0
LINE
  5
4E1
330
1F
100
AcDbEntity
  8
Object
100
AcDbLine
 10
8.468999999999999
 20
14.97815786049746
 30
0.0
 11
8.468999999999999
 21
14.95915786049746
 31
0.0
  0
LINE
  5
4E2
330
1F
100
AcDbEntity
  8
Object
100
AcDbLine
 10
8.468999999999999
 20
14.95915786049746
 30
0.0
 11
8.468999999999999
 21
14.93115786049746
 31
0.0
  0
LINE
  5
4E3
330
1F
100
AcDbEntity
  8
Object
100
AcDbLine
 10
8.468999999999999
 20
14.93115786049746
 30
0.0
 11
8.468999999999999
 21
14.89615786049746
 31
0.0
  0
LINE
  5
4E4
330
1F
100
AcDbEntity
  8
Object
100
AcDbLine
 10
8.388999999999999
 20
14.95915786049746
 30
0.0
 11
8.388999999999999
 21
14.92915786049746
 31
0.0
  0
LINE
  5
4E5
330
1F
100
AcDbEntity
  8
Object
100
AcDbLine
 10
8.388999999999999
 20
14.92915786049746
 30
0.0
 11
8.387999999999999
 21
14.89615786049746
 31
0.0
  0
LINE
  5
4E6
330
1F
100
AcDbEntity
  8
Object
100
AcDbLine
 10
8.468999999999999
 20
14.00015786049746
 30
0.0
 11
8.468999999999999
 21
14.01515786049746
 31
0.0
  0
LINE
  5
4E7
330
1F
100
AcDbEntity
  8
Object
100
AcDbLine
 10
8.372999999999999
 20
14.01515786049746
 30
0.0
 11
8.372999999999999
 21
14.00415786049746
 31
0.0
  0
LINE
  5
4E8
330
1F
100
AcDbEntity
  8
Object
100
AcDbLine
 10
8.372999999999999
 20
14.00415786049746
 30
0.0
 11
8.371999999999999
 21
13.99415786049746
 31
0.0
  0
LINE
  5
4E9
330
1F
100
AcDbEntity
  8
Object
100
AcDbLine
 10
8.468999999999999
 20
14.00015786049746
 30
0.0
 11
8.468999999999999
 21
13.98915786049746
 31
0.0
  0
LINE
  5
4EA
330
1F
100
AcDbEntity
  8
Object
100
AcDbLine
 10
8.468999999999999
 20
13.98915786049746
 30
0.0
 11
8.468999999999999
 21
13.98515786049746
 31
0.0
  0
LINE
  5
4EB
330
1F
100
AcDbEntity
  8
Object
100
AcDbLine
 10
8.371999999999999
 20
13.98515786049746
 30
0.0
 11
8.371999999999999
 21
13.98715786049746
 31
0.0
  0
LINE
  5
4EC
330
1F
100
AcDbEntity
  8
Object
100
AcDbLine
 10
8.371999999999999
 20
13.98715786049746
 30
0.0
 11
8.371999999999999
 21
13.99415786049746
 31
0.0
  0
LINE
  5
4ED
330
1F
100
AcDbEntity
  8
Object
100
AcDbLine
 10
7.737
 20
13.98515786049746
 30
0.0
 11
7.71
 21
14.75515786049746
 31
0.0
  0
LINE
  5
4EE
330
1F
100
AcDbEntity
  8
Object
100
AcDbLine
 10
4.065999999999998
 20
13.98715786049746
 30
0.0
 11
4.065999999999998
 21
13.99415786049746
 31
0.0
  0
LINE
  5
4EF
330
1F
100
AcDbEntity
  8
Object
100
AcDbLine
 10
4.065999999999998
 20
13.99415786049746
 30
0.0
 11
4.065999999999998
 21
14.00415786049746
 31
0.0
  0
LINE
  5
4F0
330
1F
100
AcDbEntity
  8
Object
100
AcDbLine
 10
4.065999999999998
 20
13.98515786049746
 30
0.0
 11
4.065999999999998
 21
13.98715786049746
 31
0.0
  0
LINE
  5
4F1
330
1F
100
AcDbEntity
  8
Object
100
AcDbLine
 10
4.065999999999998
 20
14.00415786049746
 30
0.0
 11
4.065000000000001
 21
14.01515786049746
 31
0.0
  0
LINE
  5
4F2
330
1F
100
AcDbEntity
  8
Object
100
AcDbLine
 10
4.065000000000001
 20
14.01515786049746
 30
0.0
 11
4.05
 21
14.89615786049746
 31
0.0
  0
LINE
  5
4F3
330
1F
100
AcDbEntity
  8
Object
100
AcDbLine
 10
4.05
 20
14.89615786049746
 30
0.0
 11
4.05
 21
14.92915786049746
 31
0.0
  0
LINE
  5
4F4
330
1F
100
AcDbEntity
  8
Object
100
AcDbLine
 10
4.05
 20
14.92915786049746
 30
0.0
 11
4.048999999999999
 21
14.95915786049746
 31
0.0
  0
LINE
  5
4F5
330
1F
100
AcDbEntity
  8
Object
100
AcDbLine
 10
4.048999999999999
 20
14.95915786049746
 30
0.0
 11
4.048999999999999
 21
14.97915786049746
 31
0.0
  0
LINE
  5
4F6
330
1F
100
AcDbEntity
  8
Object
100
AcDbLine
 10
4.048999999999999
 20
14.97915786049746
 30
0.0
 11
4.048999999999999
 21
14.98515786049746
 31
0.0
  0
LINE
  5
4F7
330
1F
100
AcDbEntity
  8
Object
100
AcDbLine
 10
4.862999999999999
 20
14.75515786049746
 30
0.0
 11
4.893
 21
14.75515786049746
 31
0.0
  0
LINE
  5
4F8
330
1F
100
AcDbEntity
  8
Object
100
AcDbLine
 10
4.893
 20
14.75515786049746
 30
0.0
 11
4.865999999999999
 21
13.98515786049746
 31
0.0
  0
LINE
  5
4F9
330
1F
100
AcDbEntity
  8
Object
100
AcDbLine
 10
4.862999999999999
 20
14.75515786049746
 30
0.0
 11
4.833
 21
14.75515786049746
 31
0.0
  0
LINE
  5
4FA
330
1F
100
AcDbEntity
  8
Object
100
AcDbLine
 10
4.833
 20
14.75515786049746
 30
0.0
 11
4.803
 21
14.75515786049746
 31
0.0
  0
LINE
  5
4FB
330
1F
100
AcDbEntity
  8
Object
100
AcDbLine
 10
4.803
 20
14.75515786049746
 30
0.0
 11
4.777000000000001
 21
14.75515786049746
 31
0.0
  0
LINE
  5
4FC
330
1F
100
AcDbEntity
  8
Object
100
AcDbLine
 10
4.777000000000001
 20
14.75515786049746
 30
0.0
 11
4.754999999999999
 21
14.75515786049746
 31
0.0
  0
LINE
  5
4FD
330
1F
100
AcDbEntity
  8
Object
100
AcDbLine
 10
4.754999999999999
 20
14.75515786049746
 30
0.0
 11
4.74
 21
14.75515786049746
 31
0.0
  0
LINE
  5
4FE
330
1F
100
AcDbEntity
  8
Object
100
AcDbLine
 10
4.74
 20
14.75515786049746
 30
0.0
 11
4.730999999999999
 21
14.75515786049746
 31
0.0
  0
LINE
  5
4FF
330
1F
100
AcDbEntity
  8
Object
100
AcDbLine
 10
4.701
 20
13.98515786049746
 30
0.0
 11
4.727999999999999
 21
14.75515786049746
 31
0.0
  0
LINE
  5
500
330
1F
100
AcDbEntity
  8
Object
100
AcDbLine
 10
4.727999999999999
 20
14.75515786049746
 30
0.0
 11
4.730999999999999
 21
14.75515786049746
 31
0.0
  0
LINE
  5
501
330
1F
100
AcDbEntity
  8
Object
100
AcDbLine
 10
4.317
 20
14.75515786049746
 30
0.0
 11
4.289999999999999
 21
13.98515786049746
 31
0.0
  0
LINE
  5
502
330
1F
100
AcDbEntity
  8
Object
100
AcDbLine
 10
4.289999999999999
 20
13.98515786049746
 30
0.0
 11
4.315999999999998
 21
14.73515786049746
 31
0.0
  0
LINE
  5
503
330
1F
100
AcDbEntity
  8
Object
100
AcDbLine
 10
8.048999999999999
 20
13.98515786049746
 30
0.0
 11
8.022
 21
14.75515786049746
 31
0.0
  0
LINE
  5
504
330
1F
100
AcDbEntity
  8
Object
100
AcDbLine
 10
7.791
 20
13.98515786049746
 30
0.0
 11
7.763999999999999
 21
14.75515786049746
 31
0.0
  0
LINE
  5
505
330
1F
100
AcDbEntity
  8
Object
100
AcDbLine
 10
7.763999999999999
 20
14.75515786049746
 30
0.0
 11
8.022
 21
14.75515786049746
 31
0.0
  0
LINE
  5
506
330
1F
100
AcDbEntity
  8
Object
100
AcDbLine
 10
4.166
 20
14.63515786049746
 30
0.0
 11
4.166
 21
13.98515786049746
 31
0.0
  0
LINE
  5
507
330
1F
100
AcDbEntity
  8
Object
100
AcDbLine
 10
8.272
 20
13.98515786049746
 30
0.0
 11
8.272
 21
14.63515786049746
 31
0.0
  0
LINE
  5
508
330
1F
100
AcDbEntity
  8
Object
100
AcDbLine
 10
8.121999999999999
 20
14.73515786049746
 30
0.0
 11
8.246
 21
14.73515786049746
 31
0.0
  0
LINE
  5
509
330
1F
100
AcDbEntity
  8
Object
100
AcDbLine
 10
8.246
 20
14.73515786049746
 30
0.0
 11
8.272
 21
14.63515786049746
 31
0.0
  0
LINE
  5
50A
330
1F
100
AcDbEntity
  8
Object
100
AcDbLine
 10
8.39
 20
14.98515786049746
 30
0.0
 11
8.39
 21
14.97915786049746
 31
0.0
  0
LINE
  5
50B
330
1F
100
AcDbEntity
  8
Object
100
AcDbLine
 10
8.39
 20
14.97915786049746
 30
0.0
 11
8.388999999999999
 21
14.95915786049746
 31
0.0
  0
LINE
  5
50C
330
1F
100
AcDbEntity
  8
Object
100
AcDbLine
 10
8.388999999999999
 20
14.95915786049746
 30
0.0
 11
8.388999999999999
 21
14.92915786049746
 31
0.0
  0
LINE
  5
50D
330
1F
100
AcDbEntity
  8
Object
100
AcDbLine
 10
8.388999999999999
 20
14.92915786049746
 30
0.0
 11
8.387999999999999
 21
14.89615786049746
 31
0.0
  0
LINE
  5
50E
330
1F
100
AcDbEntity
  8
Object
100
AcDbLine
 10
8.387999999999999
 20
14.89615786049746
 30
0.0
 11
8.372999999999999
 21
14.01515786049746
 31
0.0
  0
LINE
  5
50F
330
1F
100
AcDbEntity
  8
Object
100
AcDbLine
 10
8.372999999999999
 20
14.01515786049746
 30
0.0
 11
8.372999999999999
 21
14.00415786049746
 31
0.0
  0
LINE
  5
510
330
1F
100
AcDbEntity
  8
Object
100
AcDbLine
 10
8.371999999999999
 20
13.98715786049746
 30
0.0
 11
8.371999999999999
 21
13.99415786049746
 31
0.0
  0
LINE
  5
511
330
1F
100
AcDbEntity
  8
Object
100
AcDbLine
 10
8.371999999999999
 20
13.99415786049746
 30
0.0
 11
8.372999999999999
 21
14.00415786049746
 31
0.0
  0
LINE
  5
512
330
1F
100
AcDbEntity
  8
Object
100
AcDbLine
 10
8.371999999999999
 20
13.98715786049746
 30
0.0
 11
8.371999999999999
 21
13.98515786049746
 31
0.0
  0
LINE
  5
513
330
1F
100
AcDbEntity
  8
Object
100
AcDbLine
 10
4.727999999999999
 20
14.75515786049746
 30
0.0
 11
4.701
 21
13.98515786049746
 31
0.0
  0
LINE
  5
514
330
1F
100
AcDbEntity
  8
Object
100
AcDbLine
 10
4.166
 20
14.63515786049746
 30
0.0
 11
4.193000000000001
 21
14.73515786049746
 31
0.0
  0
LINE
  5
515
330
1F
100
AcDbEntity
  8
Object
100
AcDbLine
 10
4.193000000000001
 20
14.73515786049746
 30
0.0
 11
4.315999999999998
 21
14.73515786049746
 31
0.0
  0
LINE
  5
516
330
1F
100
AcDbEntity
  8
Object
100
AcDbLine
 10
4.315999999999998
 20
14.73515786049746
 30
0.0
 11
4.289999999999999
 21
13.98515786049746
 31
0.0
  0
LINE
  5
517
330
1F
100
AcDbEntity
  8
Object
100
AcDbLine
 10
4.166
 20
14.63515786049746
 30
0.0
 11
4.166
 21
13.98515786049746
 31
0.0
  0
LINE
  5
518
330
1F
100
AcDbEntity
  8
Object
100
AcDbLine
 10
4.376999999999998
 20
14.75515786049746
 30
0.0
 11
4.416
 21
14.75515786049746
 31
0.0
  0
LINE
  5
519
330
1F
100
AcDbEntity
  8
Object
100
AcDbLine
 10
4.416
 20
14.75515786049746
 30
0.0
 11
4.388999999999999
 21
13.98515786049746
 31
0.0
  0
LINE
  5
51A
330
1F
100
AcDbEntity
  8
Object
100
AcDbLine
 10
4.376999999999998
 20
14.75515786049746
 30
0.0
 11
4.344000000000001
 21
14.75515786049746
 31
0.0
  0
LINE
  5
51B
330
1F
100
AcDbEntity
  8
Object
100
AcDbLine
 10
4.344000000000001
 20
14.75515786049746
 30
0.0
 11
4.323
 21
14.75515786049746
 31
0.0
  0
LINE
  5
51C
330
1F
100
AcDbEntity
  8
Object
100
AcDbLine
 10
4.289999999999999
 20
13.98515786049746
 30
0.0
 11
4.317
 21
14.75515786049746
 31
0.0
  0
LINE
  5
51D
330
1F
100
AcDbEntity
  8
Object
100
AcDbLine
 10
4.317
 20
14.75515786049746
 30
0.0
 11
4.323
 21
14.75515786049746
 31
0.0
  0
LINE
  5
51E
330
1F
100
AcDbEntity
  8
Object
100
AcDbLine
 10
8.272
 20
13.98515786049746
 30
0.0
 11
8.272
 21
14.63515786049746
 31
0.0
  0
LINE
  5
51F
330
1F
100
AcDbEntity
  8
Object
100
AcDbLine
 10
4.416
 20
14.75515786049746
 30
0.0
 11
4.673999999999999
 21
14.75515786049746
 31
0.0
  0
LINE
  5
520
330
1F
100
AcDbEntity
  8
Object
100
AcDbLine
 10
4.673999999999999
 20
14.75515786049746
 30
0.0
 11
4.647999999999999
 21
13.98515786049746
 31
0.0
  0
LINE
  5
521
330
1F
100
AcDbEntity
  8
Object
100
AcDbLine
 10
7.763999999999999
 20
14.75515786049746
 30
0.0
 11
7.743
 21
14.75515786049746
 31
0.0
  0
LINE
  5
522
330
1F
100
AcDbEntity
  8
Object
100
AcDbLine
 10
7.743
 20
14.75515786049746
 30
0.0
 11
7.725000000000001
 21
14.75515786049746
 31
0.0
  0
LINE
  5
523
330
1F
100
AcDbEntity
  8
Object
100
AcDbLine
 10
7.725000000000001
 20
14.75515786049746
 30
0.0
 11
7.714
 21
14.75515786049746
 31
0.0
  0
LINE
  5
524
330
1F
100
AcDbEntity
  8
Object
100
AcDbLine
 10
7.714
 20
14.75515786049746
 30
0.0
 11
7.71
 21
14.75515786049746
 31
0.0
  0
LINE
  5
525
330
1F
100
AcDbEntity
  8
Object
100
AcDbLine
 10
4.727999999999999
 20
14.75515786049746
 30
0.0
 11
4.725000000000001
 21
14.75515786049746
 31
0.0
  0
LINE
  5
526
330
1F
100
AcDbEntity
  8
Object
100
AcDbLine
 10
4.695999999999999
 20
14.75515786049746
 30
0.0
 11
4.713
 21
14.75515786049746
 31
0.0
  0
LINE
  5
527
330
1F
100
AcDbEntity
  8
Object
100
AcDbLine
 10
4.713
 20
14.75515786049746
 30
0.0
 11
4.725000000000001
 21
14.75515786049746
 31
0.0
  0
LINE
  5
528
330
1F
100
AcDbEntity
  8
Object
100
AcDbLine
 10
4.695999999999999
 20
14.75515786049746
 30
0.0
 11
4.673999999999999
 21
14.75515786049746
 31
0.0
  0
LINE
  5
529
330
1F
100
AcDbEntity
  8
Object
100
AcDbLine
 10
4.893
 20
14.75515786049746
 30
0.0
 11
7.544999999999999
 21
14.75515786049746
 31
0.0
  0
LINE
  5
52A
330
1F
100
AcDbEntity
  8
Object
100
AcDbLine
 10
7.544999999999999
 20
14.75515786049746
 30
0.0
 11
7.571999999999999
 21
13.98515786049746
 31
0.0
  0
LINE
  5
52B
330
1F
100
AcDbEntity
  8
Object
100
AcDbLine
 10
7.707
 20
14.75515786049746
 30
0.0
 11
7.71
 21
14.75515786049746
 31
0.0
  0
LINE
  5
52C
330
1F
100
AcDbEntity
  8
Object
100
AcDbLine
 10
7.71
 20
14.75515786049746
 30
0.0
 11
7.737
 21
13.98515786049746
 31
0.0
  0
LINE
  5
52D
330
1F
100
AcDbEntity
  8
Object
100
AcDbLine
 10
7.707
 20
14.75515786049746
 30
0.0
 11
7.698
 21
14.75515786049746
 31
0.0
  0
LINE
  5
52E
330
1F
100
AcDbEntity
  8
Object
100
AcDbLine
 10
7.698
 20
14.75515786049746
 30
0.0
 11
7.682999999999999
 21
14.75515786049746
 31
0.0
  0
LINE
  5
52F
330
1F
100
AcDbEntity
  8
Object
100
AcDbLine
 10
7.682999999999999
 20
14.75515786049746
 30
0.0
 11
7.661999999999999
 21
14.75515786049746
 31
0.0
  0
LINE
  5
530
330
1F
100
AcDbEntity
  8
Object
100
AcDbLine
 10
7.661999999999999
 20
14.75515786049746
 30
0.0
 11
7.634999999999999
 21
14.75515786049746
 31
0.0
  0
LINE
  5
531
330
1F
100
AcDbEntity
  8
Object
100
AcDbLine
 10
7.634999999999999
 20
14.75515786049746
 30
0.0
 11
7.605999999999999
 21
14.75515786049746
 31
0.0
  0
LINE
  5
532
330
1F
100
AcDbEntity
  8
Object
100
AcDbLine
 10
7.605999999999999
 20
14.75515786049746
 30
0.0
 11
7.574999999999999
 21
14.75515786049746
 31
0.0
  0
LINE
  5
533
330
1F
100
AcDbEntity
  8
Object
100
AcDbLine
 10
7.574999999999999
 20
14.75515786049746
 30
0.0
 11
7.544999999999999
 21
14.75515786049746
 31
0.0
  0
LINE
  5
534
330
1F
100
AcDbEntity
  8
Object
100
AcDbLine
 10
8.147999999999999
 20
13.98515786049746
 30
0.0
 11
8.121999999999999
 21
14.75515786049746
 31
0.0
  0
LINE
  5
535
330
1F
100
AcDbEntity
  8
Object
100
AcDbLine
 10
8.121999999999999
 20
14.75515786049746
 30
0.0
 11
8.115
 21
14.75515786049746
 31
0.0
  0
LINE
  5
536
330
1F
100
AcDbEntity
  8
Object
100
AcDbLine
 10
8.147999999999999
 20
13.98515786049746
 30
0.0
 11
8.121999999999999
 21
14.75515786049746
 31
0.0
  0
LINE
  5
537
330
1F
100
AcDbEntity
  8
Object
100
AcDbLine
 10
8.115
 20
14.75515786049746
 30
0.0
 11
8.093999999999999
 21
14.75515786049746
 31
0.0
  0
LINE
  5
538
330
1F
100
AcDbEntity
  8
Object
100
AcDbLine
 10
8.093999999999999
 20
14.75515786049746
 30
0.0
 11
8.060999999999999
 21
14.75515786049746
 31
0.0
  0
LINE
  5
539
330
1F
100
AcDbEntity
  8
Object
100
AcDbLine
 10
8.060999999999999
 20
14.75515786049746
 30
0.0
 11
8.022
 21
14.75515786049746
 31
0.0
  0
LINE
  5
53A
330
1F
100
AcDbEntity
  8
Object
100
AcDbLine
 10
8.121999999999999
 20
14.75515786049746
 30
0.0
 11
8.115
 21
14.75515786049746
 31
0.0
  0
LINE
  5
53B
330
1F
100
AcDbEntity
  8
Object
100
AcDbLine
 10
8.115
 20
14.75515786049746
 30
0.0
 11
8.093999999999999
 21
14.75515786049746
 31
0.0
  0
LINE
  5
53C
330
1F
100
AcDbEntity
  8
Object
100
AcDbLine
 10
8.093999999999999
 20
14.75515786049746
 30
0.0
 11
8.060999999999999
 21
14.75515786049746
 31
0.0
  0
LINE
  5
53D
330
1F
100
AcDbEntity
  8
Object
100
AcDbLine
 10
8.060999999999999
 20
14.75515786049746
 30
0.0
 11
8.022
 21
14.75515786049746
 31
0.0
  0
LINE
  5
53E
330
1F
100
AcDbEntity
  8
Object
100
AcDbLine
 10
8.022
 20
14.75515786049746
 30
0.0
 11
7.763999999999999
 21
14.75515786049746
 31
0.0
  0
LINE
  5
53F
330
1F
100
AcDbEntity
  8
Object
100
AcDbLine
 10
7.763999999999999
 20
14.75515786049746
 30
0.0
 11
7.743
 21
14.75515786049746
 31
0.0
  0
LINE
  5
540
330
1F
100
AcDbEntity
  8
Object
100
AcDbLine
 10
7.743
 20
14.75515786049746
 30
0.0
 11
7.725000000000001
 21
14.75515786049746
 31
0.0
  0
LINE
  5
541
330
1F
100
AcDbEntity
  8
Object
100
AcDbLine
 10
7.725000000000001
 20
14.75515786049746
 30
0.0
 11
7.714
 21
14.75515786049746
 31
0.0
  0
LINE
  5
542
330
1F
100
AcDbEntity
  8
Object
100
AcDbLine
 10
7.714
 20
14.75515786049746
 30
0.0
 11
7.71
 21
14.75515786049746
 31
0.0
  0
LINE
  5
543
330
1F
100
AcDbEntity
  8
Object
100
AcDbLine
 10
7.71
 20
14.75515786049746
 30
0.0
 11
7.707
 21
14.75515786049746
 31
0.0
  0
LINE
  5
544
330
1F
100
AcDbEntity
  8
Object
100
AcDbLine
 10
7.707
 20
14.75515786049746
 30
0.0
 11
7.698
 21
14.75515786049746
 31
0.0
  0
LINE
  5
545
330
1F
100
AcDbEntity
  8
Object
100
AcDbLine
 10
7.698
 20
14.75515786049746
 30
0.0
 11
7.682999999999999
 21
14.75515786049746
 31
0.0
  0
LINE
  5
546
330
1F
100
AcDbEntity
  8
Object
100
AcDbLine
 10
7.682999999999999
 20
14.75515786049746
 30
0.0
 11
7.661999999999999
 21
14.75515786049746
 31
0.0
  0
LINE
  5
547
330
1F
100
AcDbEntity
  8
Object
100
AcDbLine
 10
7.661999999999999
 20
14.75515786049746
 30
0.0
 11
7.634999999999999
 21
14.75515786049746
 31
0.0
  0
LINE
  5
548
330
1F
100
AcDbEntity
  8
Object
100
AcDbLine
 10
7.634999999999999
 20
14.75515786049746
 30
0.0
 11
7.605999999999999
 21
14.75515786049746
 31
0.0
  0
LINE
  5
549
330
1F
100
AcDbEntity
  8
Object
100
AcDbLine
 10
7.605999999999999
 20
14.75515786049746
 30
0.0
 11
7.574999999999999
 21
14.75515786049746
 31
0.0
  0
LINE
  5
54A
330
1F
100
AcDbEntity
  8
Object
100
AcDbLine
 10
7.574999999999999
 20
14.75515786049746
 30
0.0
 11
7.544999999999999
 21
14.75515786049746
 31
0.0
  0
LINE
  5
54B
330
1F
100
AcDbEntity
  8
Object
100
AcDbLine
 10
7.544999999999999
 20
14.75515786049746
 30
0.0
 11
4.893
 21
14.75515786049746
 31
0.0
  0
LINE
  5
54C
330
1F
100
AcDbEntity
  8
Object
100
AcDbLine
 10
4.893
 20
14.75515786049746
 30
0.0
 11
4.862999999999999
 21
14.75515786049746
 31
0.0
  0
LINE
  5
54D
330
1F
100
AcDbEntity
  8
Object
100
AcDbLine
 10
4.862999999999999
 20
14.75515786049746
 30
0.0
 11
4.833
 21
14.75515786049746
 31
0.0
  0
LINE
  5
54E
330
1F
100
AcDbEntity
  8
Object
100
AcDbLine
 10
4.833
 20
14.75515786049746
 30
0.0
 11
4.803
 21
14.75515786049746
 31
0.0
  0
LINE
  5
54F
330
1F
100
AcDbEntity
  8
Object
100
AcDbLine
 10
4.803
 20
14.75515786049746
 30
0.0
 11
4.777000000000001
 21
14.75515786049746
 31
0.0
  0
LINE
  5
550
330
1F
100
AcDbEntity
  8
Object
100
AcDbLine
 10
4.777000000000001
 20
14.75515786049746
 30
0.0
 11
4.754999999999999
 21
14.75515786049746
 31
0.0
  0
LINE
  5
551
330
1F
100
AcDbEntity
  8
Object
100
AcDbLine
 10
4.754999999999999
 20
14.75515786049746
 30
0.0
 11
4.74
 21
14.75515786049746
 31
0.0
  0
LINE
  5
552
330
1F
100
AcDbEntity
  8
Object
100
AcDbLine
 10
4.74
 20
14.75515786049746
 30
0.0
 11
4.730999999999999
 21
14.75515786049746
 31
0.0
  0
LINE
  5
553
330
1F
100
AcDbEntity
  8
Object
100
AcDbLine
 10
4.730999999999999
 20
14.75515786049746
 30
0.0
 11
4.727999999999999
 21
14.75515786049746
 31
0.0
  0
LINE
  5
554
330
1F
100
AcDbEntity
  8
Object
100
AcDbLine
 10
4.727999999999999
 20
14.75515786049746
 30
0.0
 11
4.725000000000001
 21
14.75515786049746
 31
0.0
  0
LINE
  5
555
330
1F
100
AcDbEntity
  8
Object
100
AcDbLine
 10
4.725000000000001
 20
14.75515786049746
 30
0.0
 11
4.713
 21
14.75515786049746
 31
0.0
  0
LINE
  5
556
330
1F
100
AcDbEntity
  8
Object
100
AcDbLine
 10
4.713
 20
14.75515786049746
 30
0.0
 11
4.695999999999999
 21
14.75515786049746
 31
0.0
  0
LINE
  5
557
330
1F
100
AcDbEntity
  8
Object
100
AcDbLine
 10
4.695999999999999
 20
14.75515786049746
 30
0.0
 11
4.673999999999999
 21
14.75515786049746
 31
0.0
  0
LINE
  5
558
330
1F
100
AcDbEntity
  8
Object
100
AcDbLine
 10
4.673999999999999
 20
14.75515786049746
 30
0.0
 11
4.416
 21
14.75515786049746
 31
0.0
  0
LINE
  5
559
330
1F
100
AcDbEntity
  8
Object
100
AcDbLine
 10
4.416
 20
14.75515786049746
 30
0.0
 11
4.376999999999998
 21
14.75515786049746
 31
0.0
  0
LINE
  5
55A
330
1F
100
AcDbEntity
  8
Object
100
AcDbLine
 10
4.376999999999998
 20
14.75515786049746
 30
0.0
 11
4.344000000000001
 21
14.75515786049746
 31
0.0
  0
LINE
  5
55B
330
1F
100
AcDbEntity
  8
Object
100
AcDbLine
 10
4.344000000000001
 20
14.75515786049746
 30
0.0
 11
4.323
 21
14.75515786049746
 31
0.0
  0
LINE
  5
55C
330
1F
100
AcDbEntity
  8
Object
100
AcDbLine
 10
4.323
 20
14.75515786049746
 30
0.0
 11
4.317
 21
14.75515786049746
 31
0.0
  0
LINE
  5
55D
330
1F
100
AcDbEntity
  8
Object
100
AcDbLine
 10
4.315999999999998
 20
14.73515786049746
 30
0.0
 11
4.193000000000001
 21
14.73515786049746
 31
0.0
  0
LINE
  5
55E
330
1F
100
AcDbEntity
  8
Object
100
AcDbLine
 10
4.193000000000001
 20
14.73515786049746
 30
0.0
 11
4.166
 21
14.63515786049746
 31
0.0
  0
LINE
  5
55F
330
1F
100
AcDbEntity
  8
Object
100
AcDbLine
 10
8.272
 20
14.63515786049746
 30
0.0
 11
8.246
 21
14.73515786049746
 31
0.0
  0
LINE
  5
560
330
1F
100
AcDbEntity
  8
Object
100
AcDbLine
 10
8.246
 20
14.73515786049746
 30
0.0
 11
8.121999999999999
 21
14.73515786049746
 31
0.0
  0
LINE
  5
561
330
1F
100
AcDbEntity
  8
Object
100
AcDbLine
 10
5.696999999999999
 20
14.76315786049746
 30
0.0
 11
5.71
 21
14.76315786049746
 31
0.0
  0
LINE
  5
562
330
1F
100
AcDbEntity
  8
Object
100
AcDbLine
 10
5.71
 20
14.76315786049746
 30
0.0
 11
5.71
 21
14.75515786049746
 31
0.0
  0
LINE
  5
563
330
1F
100
AcDbEntity
  8
Object
100
AcDbLine
 10
5.696999999999999
 20
14.76315786049746
 30
0.0
 11
5.696999999999999
 21
14.75515786049746
 31
0.0
  0
LINE
  5
564
330
1F
100
AcDbEntity
  8
Object
100
AcDbLine
 10
5.908000000000001
 20
14.76315786049746
 30
0.0
 11
5.888999999999999
 21
14.76315786049746
 31
0.0
  0
LINE
  5
565
330
1F
100
AcDbEntity
  8
Object
100
AcDbLine
 10
5.685999999999999
 20
14.76315786049746
 30
0.0
 11
5.685999999999999
 21
14.75515786049746
 31
0.0
  0
LINE
  5
566
330
1F
100
AcDbEntity
  8
Object
100
AcDbLine
 10
5.980999999999999
 20
14.75515786049746
 30
0.0
 11
5.980999999999999
 21
14.76315786049746
 31
0.0
  0
LINE
  5
567
330
1F
100
AcDbEntity
  8
Object
100
AcDbLine
 10
5.980999999999999
 20
14.76315786049746
 30
0.0
 11
5.992
 21
14.76315786049746
 31
0.0
  0
LINE
  5
568
330
1F
100
AcDbEntity
  8
Object
100
AcDbLine
 10
6.682999999999999
 20
14.76315786049746
 30
0.0
 11
6.774
 21
14.76315786049746
 31
0.0
  0
LINE
  5
569
330
1F
100
AcDbEntity
  8
Object
100
AcDbLine
 10
6.774
 20
14.76315786049746
 30
0.0
 11
6.774
 21
14.75515786049746
 31
0.0
  0
LINE
  5
56A
330
1F
100
AcDbEntity
  8
Object
100
AcDbLine
 10
6.682999999999999
 20
14.76315786049746
 30
0.0
 11
6.682999999999999
 21
14.75515786049746
 31
0.0
  0
LINE
  5
56B
330
1F
100
AcDbEntity
  8
Object
100
AcDbLine
 10
5.71
 20
14.76315786049746
 30
0.0
 11
5.762
 21
14.76315786049746
 31
0.0
  0
LINE
  5
56C
330
1F
100
AcDbEntity
  8
Object
100
AcDbLine
 10
5.762
 20
14.76315786049746
 30
0.0
 11
5.762
 21
14.75515786049746
 31
0.0
  0
LINE
  5
56D
330
1F
100
AcDbEntity
  8
Object
100
AcDbLine
 10
6.530999999999998
 20
14.75515786049746
 30
0.0
 11
6.530999999999998
 21
14.76315786049746
 31
0.0
  0
LINE
  5
56E
330
1F
100
AcDbEntity
  8
Object
100
AcDbLine
 10
6.530999999999998
 20
14.76315786049746
 30
0.0
 11
6.547
 21
14.76315786049746
 31
0.0
  0
LINE
  5
56F
330
1F
100
AcDbEntity
  8
Object
100
AcDbLine
 10
6.547
 20
14.76315786049746
 30
0.0
 11
6.547
 21
14.75515786049746
 31
0.0
  0
LINE
  5
570
330
1F
100
AcDbEntity
  8
Object
100
AcDbLine
 10
6.336999999999999
 20
14.76315786049746
 30
0.0
 11
6.339999999999999
 21
14.76315786049746
 31
0.0
  0
LINE
  5
571
330
1F
100
AcDbEntity
  8
Object
100
AcDbLine
 10
6.339999999999999
 20
14.76315786049746
 30
0.0
 11
6.339999999999999
 21
14.75515786049746
 31
0.0
  0
LINE
  5
572
330
1F
100
AcDbEntity
  8
Object
100
AcDbLine
 10
6.621
 20
14.76315786049746
 30
0.0
 11
6.621
 21
14.75515786049746
 31
0.0
  0
LINE
  5
573
330
1F
100
AcDbEntity
  8
Object
100
AcDbLine
 10
6.178
 20
14.76315786049746
 30
0.0
 11
6.219000000000001
 21
14.76315786049746
 31
0.0
  0
LINE
  5
574
330
1F
100
AcDbEntity
  8
Object
100
AcDbLine
 10
6.219000000000001
 20
14.76315786049746
 30
0.0
 11
6.219000000000001
 21
14.75515786049746
 31
0.0
  0
LINE
  5
575
330
1F
100
AcDbEntity
  8
Object
100
AcDbLine
 10
6.178
 20
14.76315786049746
 30
0.0
 11
6.141999999999999
 21
14.76315786049746
 31
0.0
  0
LINE
  5
576
330
1F
100
AcDbEntity
  8
Object
100
AcDbLine
 10
6.141999999999999
 20
14.76315786049746
 30
0.0
 11
6.115
 21
14.76315786049746
 31
0.0
  0
LINE
  5
577
330
1F
100
AcDbEntity
  8
Object
100
AcDbLine
 10
6.100999999999999
 20
14.75515786049746
 30
0.0
 11
6.100999999999999
 21
14.76315786049746
 31
0.0
  0
LINE
  5
578
330
1F
100
AcDbEntity
  8
Object
100
AcDbLine
 10
6.100999999999999
 20
14.76315786049746
 30
0.0
 11
6.115
 21
14.76315786049746
 31
0.0
  0
LINE
  5
579
330
1F
100
AcDbEntity
  8
Object
100
AcDbLine
 10
6.100999999999999
 20
14.76315786049746
 30
0.0
 11
6.100999999999999
 21
14.75515786049746
 31
0.0
  0
LINE
  5
57A
330
1F
100
AcDbEntity
  8
Object
100
AcDbLine
 10
6.381
 20
14.76315786049746
 30
0.0
 11
6.381
 21
14.75515786049746
 31
0.0
  0
LINE
  5
57B
330
1F
100
AcDbEntity
  8
Object
100
AcDbLine
 10
6.408999999999998
 20
14.76315786049746
 30
0.0
 11
6.486
 21
14.76315786049746
 31
0.0
  0
LINE
  5
57C
330
1F
100
AcDbEntity
  8
Object
100
AcDbLine
 10
6.486
 20
14.76315786049746
 30
0.0
 11
6.486
 21
14.75515786049746
 31
0.0
  0
LINE
  5
57D
330
1F
100
AcDbEntity
  8
Object
100
AcDbLine
 10
6.530999999999998
 20
14.76315786049746
 30
0.0
 11
6.530999999999998
 21
14.75515786049746
 31
0.0
  0
LINE
  5
57E
330
1F
100
AcDbEntity
  8
Object
100
AcDbLine
 10
5.858
 20
14.76315786049746
 30
0.0
 11
5.888999999999999
 21
14.76315786049746
 31
0.0
  0
LINE
  5
57F
330
1F
100
AcDbEntity
  8
Object
100
AcDbLine
 10
5.888999999999999
 20
14.76315786049746
 30
0.0
 11
5.888999999999999
 21
14.75515786049746
 31
0.0
  0
LINE
  5
580
330
1F
100
AcDbEntity
  8
Object
100
AcDbLine
 10
6.006
 20
14.76315786049746
 30
0.0
 11
6.057999999999999
 21
14.76315786049746
 31
0.0
  0
LINE
  5
581
330
1F
100
AcDbEntity
  8
Object
100
AcDbLine
 10
6.057999999999999
 20
14.76315786049746
 30
0.0
 11
6.057999999999999
 21
14.75515786049746
 31
0.0
  0
LINE
  5
582
330
1F
100
AcDbEntity
  8
Object
100
AcDbLine
 10
6.621
 20
14.76315786049746
 30
0.0
 11
6.547
 21
14.76315786049746
 31
0.0
  0
LINE
  5
583
330
1F
100
AcDbEntity
  8
Object
100
AcDbLine
 10
6.635999999999999
 20
14.75515786049746
 30
0.0
 11
6.635999999999999
 21
14.76315786049746
 31
0.0
  0
LINE
  5
584
330
1F
100
AcDbEntity
  8
Object
100
AcDbLine
 10
5.762
 20
14.75515786049746
 30
0.0
 11
5.762
 21
14.76315786049746
 31
0.0
  0
LINE
  5
585
330
1F
100
AcDbEntity
  8
Object
100
AcDbLine
 10
5.807999999999999
 20
14.76315786049746
 30
0.0
 11
5.807999999999999
 21
14.75515786049746
 31
0.0
  0
LINE
  5
586
330
1F
100
AcDbEntity
  8
Object
100
AcDbLine
 10
6.057999999999999
 20
14.75515786049746
 30
0.0
 11
6.057999999999999
 21
14.76315786049746
 31
0.0
  0
LINE
  5
587
330
1F
100
AcDbEntity
  8
Object
100
AcDbLine
 10
6.381
 20
14.76315786049746
 30
0.0
 11
6.408999999999998
 21
14.76315786049746
 31
0.0
  0
LINE
  5
588
330
1F
100
AcDbEntity
  8
Object
100
AcDbLine
 10
6.408999999999998
 20
14.76315786049746
 30
0.0
 11
6.408999999999998
 21
14.75515786049746
 31
0.0
  0
LINE
  5
589
330
1F
100
AcDbEntity
  8
Object
100
AcDbLine
 10
6.381
 20
14.76315786049746
 30
0.0
 11
6.381
 21
14.75515786049746
 31
0.0
  0
LINE
  5
58A
330
1F
100
AcDbEntity
  8
Object
100
AcDbLine
 10
5.807999999999999
 20
14.76315786049746
 30
0.0
 11
5.826999999999999
 21
14.76315786049746
 31
0.0
  0
LINE
  5
58B
330
1F
100
AcDbEntity
  8
Object
100
AcDbLine
 10
5.826999999999999
 20
14.76315786049746
 30
0.0
 11
5.826999999999999
 21
14.75515786049746
 31
0.0
  0
LINE
  5
58C
330
1F
100
AcDbEntity
  8
Object
100
AcDbLine
 10
6.339999999999999
 20
14.75515786049746
 30
0.0
 11
6.339999999999999
 21
14.76315786049746
 31
0.0
  0
LINE
  5
58D
330
1F
100
AcDbEntity
  8
Object
100
AcDbLine
 10
6.547
 20
14.75515786049746
 30
0.0
 11
6.547
 21
14.76315786049746
 31
0.0
  0
LINE
  5
58E
330
1F
100
AcDbEntity
  8
Object
100
AcDbLine
 10
6.621
 20
14.75515786049746
 30
0.0
 11
6.621
 21
14.76315786049746
 31
0.0
  0
LINE
  5
58F
330
1F
100
AcDbEntity
  8
Object
100
AcDbLine
 10
6.621
 20
14.76315786049746
 30
0.0
 11
6.635999999999999
 21
14.76315786049746
 31
0.0
  0
LINE
  5
590
330
1F
100
AcDbEntity
  8
Object
100
AcDbLine
 10
6.635999999999999
 20
14.76315786049746
 30
0.0
 11
6.635999999999999
 21
14.75515786049746
 31
0.0
  0
LINE
  5
591
330
1F
100
AcDbEntity
  8
Object
100
AcDbLine
 10
6.336999999999999
 20
14.75515786049746
 30
0.0
 11
6.336999999999999
 21
14.76315786049746
 31
0.0
  0
LINE
  5
592
330
1F
100
AcDbEntity
  8
Object
100
AcDbLine
 10
6.336999999999999
 20
14.76315786049746
 30
0.0
 11
6.323
 21
14.76315786049746
 31
0.0
  0
LINE
  5
593
330
1F
100
AcDbEntity
  8
Object
100
AcDbLine
 10
6.336999999999999
 20
14.75515786049746
 30
0.0
 11
6.336999999999999
 21
14.76315786049746
 31
0.0
  0
LINE
  5
594
330
1F
100
AcDbEntity
  8
Object
100
AcDbLine
 10
6.323
 20
14.76315786049746
 30
0.0
 11
6.295999999999999
 21
14.76315786049746
 31
0.0
  0
LINE
  5
595
330
1F
100
AcDbEntity
  8
Object
100
AcDbLine
 10
6.295999999999999
 20
14.76315786049746
 30
0.0
 11
6.259999999999999
 21
14.76315786049746
 31
0.0
  0
LINE
  5
596
330
1F
100
AcDbEntity
  8
Object
100
AcDbLine
 10
6.259999999999999
 20
14.76315786049746
 30
0.0
 11
6.219000000000001
 21
14.76315786049746
 31
0.0
  0
LINE
  5
597
330
1F
100
AcDbEntity
  8
Object
100
AcDbLine
 10
5.696999999999999
 20
14.76315786049746
 30
0.0
 11
5.696999999999999
 21
14.75515786049746
 31
0.0
  0
LINE
  5
598
330
1F
100
AcDbEntity
  8
Object
100
AcDbLine
 10
5.992
 20
14.75515786049746
 30
0.0
 11
5.992
 21
14.76315786049746
 31
0.0
  0
LINE
  5
599
330
1F
100
AcDbEntity
  8
Object
100
AcDbLine
 10
5.992
 20
14.76315786049746
 30
0.0
 11
6.006
 21
14.76315786049746
 31
0.0
  0
LINE
  5
59A
330
1F
100
AcDbEntity
  8
Object
100
AcDbLine
 10
6.006
 20
14.76315786049746
 30
0.0
 11
6.006
 21
14.75515786049746
 31
0.0
  0
LINE
  5
59B
330
1F
100
AcDbEntity
  8
Object
100
AcDbLine
 10
6.682999999999999
 20
14.76315786049746
 30
0.0
 11
6.682999999999999
 21
14.75515786049746
 31
0.0
  0
LINE
  5
59C
330
1F
100
AcDbEntity
  8
Object
100
AcDbLine
 10
6.486
 20
14.75515786049746
 30
0.0
 11
6.486
 21
14.76315786049746
 31
0.0
  0
LINE
  5
59D
330
1F
100
AcDbEntity
  8
Object
100
AcDbLine
 10
5.826999999999999
 20
14.76315786049746
 30
0.0
 11
5.858
 21
14.76315786049746
 31
0.0
  0
LINE
  5
59E
330
1F
100
AcDbEntity
  8
Object
100
AcDbLine
 10
5.858
 20
14.76315786049746
 30
0.0
 11
5.858
 21
14.75515786049746
 31
0.0
  0
LINE
  5
59F
330
1F
100
AcDbEntity
  8
Object
100
AcDbLine
 10
5.980999999999999
 20
14.76315786049746
 30
0.0
 11
5.980999999999999
 21
14.75515786049746
 31
0.0
  0
LINE
  5
5A0
330
1F
100
AcDbEntity
  8
Object
100
AcDbLine
 10
5.696999999999999
 20
14.76315786049746
 30
0.0
 11
5.685999999999999
 21
14.76315786049746
 31
0.0
  0
LINE
  5
5A1
330
1F
100
AcDbEntity
  8
Object
100
AcDbLine
 10
5.685999999999999
 20
14.76315786049746
 30
0.0
 11
5.685999999999999
 21
14.75515786049746
 31
0.0
  0
LINE
  5
5A2
330
1F
100
AcDbEntity
  8
Object
100
AcDbLine
 10
5.908000000000001
 20
14.75515786049746
 30
0.0
 11
5.908000000000001
 21
14.76315786049746
 31
0.0
  0
LINE
  5
5A3
330
1F
100
AcDbEntity
  8
Object
100
AcDbLine
 10
6.774
 20
14.75515786049746
 30
0.0
 11
6.774
 21
14.76315786049746
 31
0.0
  0
LINE
  5
5A4
330
1F
100
AcDbEntity
  8
Object
100
AcDbLine
 10
5.992
 20
14.76315786049746
 30
0.0
 11
5.992
 21
14.75515786049746
 31
0.0
  0
LINE
  5
5A5
330
1F
100
AcDbEntity
  8
Object
100
AcDbLine
 10
5.762
 20
14.76315786049746
 30
0.0
 11
5.71
 21
14.76315786049746
 31
0.0
  0
LINE
  5
5A6
330
1F
100
AcDbEntity
  8
Object
100
AcDbLine
 10
5.71
 20
14.76315786049746
 30
0.0
 11
5.696999999999999
 21
14.76315786049746
 31
0.0
  0
LINE
  5
5A7
330
1F
100
AcDbEntity
  8
Object
100
AcDbLine
 10
5.696999999999999
 20
14.76315786049746
 30
0.0
 11
5.685999999999999
 21
14.76315786049746
 31
0.0
  0
LINE
  5
5A8
330
1F
100
AcDbEntity
  8
Object
100
AcDbLine
 10
6.635999999999999
 20
14.76315786049746
 30
0.0
 11
6.621
 21
14.76315786049746
 31
0.0
  0
LINE
  5
5A9
330
1F
100
AcDbEntity
  8
Object
100
AcDbLine
 10
6.621
 20
14.76315786049746
 30
0.0
 11
6.547
 21
14.76315786049746
 31
0.0
  0
LINE
  5
5AA
330
1F
100
AcDbEntity
  8
Object
100
AcDbLine
 10
6.547
 20
14.76315786049746
 30
0.0
 11
6.530999999999998
 21
14.76315786049746
 31
0.0
  0
LINE
  5
5AB
330
1F
100
AcDbEntity
  8
Object
100
AcDbLine
 10
6.774
 20
14.76315786049746
 30
0.0
 11
6.682999999999999
 21
14.76315786049746
 31
0.0
  0
LINE
  5
5AC
330
1F
100
AcDbEntity
  8
Object
100
AcDbLine
 10
5.908000000000001
 20
14.76315786049746
 30
0.0
 11
5.888999999999999
 21
14.76315786049746
 31
0.0
  0
LINE
  5
5AD
330
1F
100
AcDbEntity
  8
Object
100
AcDbLine
 10
5.888999999999999
 20
14.76315786049746
 30
0.0
 11
5.858
 21
14.76315786049746
 31
0.0
  0
LINE
  5
5AE
330
1F
100
AcDbEntity
  8
Object
100
AcDbLine
 10
5.858
 20
14.76315786049746
 30
0.0
 11
5.826999999999999
 21
14.76315786049746
 31
0.0
  0
LINE
  5
5AF
330
1F
100
AcDbEntity
  8
Object
100
AcDbLine
 10
5.826999999999999
 20
14.76315786049746
 30
0.0
 11
5.807999999999999
 21
14.76315786049746
 31
0.0
  0
LINE
  5
5B0
330
1F
100
AcDbEntity
  8
Object
100
AcDbLine
 10
6.057999999999999
 20
14.76315786049746
 30
0.0
 11
6.006
 21
14.76315786049746
 31
0.0
  0
LINE
  5
5B1
330
1F
100
AcDbEntity
  8
Object
100
AcDbLine
 10
6.006
 20
14.76315786049746
 30
0.0
 11
5.992
 21
14.76315786049746
 31
0.0
  0
LINE
  5
5B2
330
1F
100
AcDbEntity
  8
Object
100
AcDbLine
 10
5.992
 20
14.76315786049746
 30
0.0
 11
5.980999999999999
 21
14.76315786049746
 31
0.0
  0
LINE
  5
5B3
330
1F
100
AcDbEntity
  8
Object
100
AcDbLine
 10
6.339999999999999
 20
14.76315786049746
 30
0.0
 11
6.336999999999999
 21
14.76315786049746
 31
0.0
  0
LINE
  5
5B4
330
1F
100
AcDbEntity
  8
Object
100
AcDbLine
 10
6.336999999999999
 20
14.76315786049746
 30
0.0
 11
6.323
 21
14.76315786049746
 31
0.0
  0
LINE
  5
5B5
330
1F
100
AcDbEntity
  8
Object
100
AcDbLine
 10
6.323
 20
14.76315786049746
 30
0.0
 11
6.295999999999999
 21
14.76315786049746
 31
0.0
  0
LINE
  5
5B6
330
1F
100
AcDbEntity
  8
Object
100
AcDbLine
 10
6.295999999999999
 20
14.76315786049746
 30
0.0
 11
6.259999999999999
 21
14.76315786049746
 31
0.0
  0
LINE
  5
5B7
330
1F
100
AcDbEntity
  8
Object
100
AcDbLine
 10
6.259999999999999
 20
14.76315786049746
 30
0.0
 11
6.219000000000001
 21
14.76315786049746
 31
0.0
  0
LINE
  5
5B8
330
1F
100
AcDbEntity
  8
Object
100
AcDbLine
 10
6.219000000000001
 20
14.76315786049746
 30
0.0
 11
6.178
 21
14.76315786049746
 31
0.0
  0
LINE
  5
5B9
330
1F
100
AcDbEntity
  8
Object
100
AcDbLine
 10
6.178
 20
14.76315786049746
 30
0.0
 11
6.141999999999999
 21
14.76315786049746
 31
0.0
  0
LINE
  5
5BA
330
1F
100
AcDbEntity
  8
Object
100
AcDbLine
 10
6.141999999999999
 20
14.76315786049746
 30
0.0
 11
6.115
 21
14.76315786049746
 31
0.0
  0
LINE
  5
5BB
330
1F
100
AcDbEntity
  8
Object
100
AcDbLine
 10
6.115
 20
14.76315786049746
 30
0.0
 11
6.100999999999999
 21
14.76315786049746
 31
0.0
  0
LINE
  5
5BC
330
1F
100
AcDbEntity
  8
Object
100
AcDbLine
 10
6.486
 20
14.76315786049746
 30
0.0
 11
6.408999999999998
 21
14.76315786049746
 31
0.0
  0
LINE
  5
5BD
330
1F
100
AcDbEntity
  8
Object
100
AcDbLine
 10
6.408999999999998
 20
14.76315786049746
 30
0.0
 11
6.381
 21
14.76315786049746
 31
0.0
  0
DIMENSION
  5
5BF
330
1F
100
AcDbEntity
  8
Dimension
100
AcDbDimension
  2
*D1
 10
9.679230674768209
 20
14.98515786049746
 30
0.0
 11
9.679230674768206
 21
14.43265786049746
 31
0.0
 70
   160
  1
1.10 [28.1mm]
 71
     5
 42
1.105
  3
Standard
100
AcDbAlignedDimension
 13
8.419
 23
13.88015786049746
 33
0.0
 14
8.468999999999999
 24
14.98515786049746
 34
0.0
 50
90.0
100
AcDbRotatedDimension
  0
DIMENSION
  5
649
102
{ACAD_XDICTIONARY
360
657
102
}
102
{ACAD_REACTORS
330
662
102
}
330
1F
100
AcDbEntity
  8
Dimension
100
AcDbDimension
  2
*D2
 10
8.468999999999999
 20
10.39074295645709
 30
0.0
 11
6.218999999999999
 21
10.39074295645709
 31
0.0
 70
   160
 71
     5
 42
4.5
  3
Standard
100
AcDbAlignedDimension
 13
3.968999999999999
 23
9.36415786049746
 33
0.0
 14
8.468999999999999
 24
9.36415786049746
 34
0.0
100
AcDbRotatedDimension
  0
DIMENSION
  5
664
102
{ACAD_XDICTIONARY
360
672
102
}
102
{ACAD_REACTORS
330
67D
102
}
330
1F
100
AcDbEntity
  8
Dimension
100
AcDbDimension
  2
*D3
 10
14.94792850893311
 20
9.479157860497458
 30
0.0
 11
14.94792850893311
 21
7.433657860497461
 31
0.0
 70
    32
 71
     5
 42
4.090999999999999
  3
Standard
100
AcDbAlignedDimension
 13
16.466
 23
5.388157860497459
 33
0.0
 14
16.466
 24
9.479157860497458
 34
0.0
 50
90.0
100
AcDbRotatedDimension
  0
TEXT
  5
713
330
1F
100
AcDbEntity
  8
Text
100
AcDbText
 10
5.828852163842128
 20
13.29957817813898
 30
0.0
 40
0.125
  1
TOP VIEW
100
AcDbText
  0
TEXT
  5
714
330
1F
100
AcDbEntity
  8
Text
100
AcDbText
 10
5.67215066654694
 20
4.707866703089434
 30
0.0
 40
0.125
  1
FRONT VIEW
100
AcDbText
  0
TEXT
  5
715
330
1F
100
AcDbEntity
  8
Text
100
AcDbText
 10
16.27840184831575
 20
4.701930306180035
 30
0.0
 40
0.125
  1
RIGHT SIDE VIEW
100
AcDbText
  0
TEXT
  5
71D
330
1F
100
AcDbEntity
  8
Title Block
100
AcDbText
 10
17.77669501265554
 20
2.672489851525508
 30
0.0
 40
0.05
  1
FILENAME:
100
AcDbText
  0
TEXT
  5
71E
330
1F
100
AcDbEntity
  8
Title Block
100
AcDbText
 10
17.76928502872825
 20
2.076224967549325
 30
0.0
 40
0.35
  1
PANDUIT
100
AcDbText
  0
TEXT
  5
71F
330
1F
100
AcDbEntity
  8
Title Block
100
AcDbText
 10
19.72182039882138
 20
2.061410940562986
 30
0.0
 40
0.125
  1
CORP. TINLEY PARK, IL
100
AcDbText
  0
TEXT
  5
720
330
1F
100
AcDbEntity
  8
Title Block
100
AcDbText
 10
17.78039997670861
 20
1.91697409709392
 30
0.0
 40
0.05
  1
TITLE:
100
AcDbText
  0
MTEXT
  5
721
330
1F
100
AcDbEntity
  8
Title Block
100
AcDbMText
 10
19.0
 20
1.372215793536348
 30
0.0
 40
0.075
 41
2.5
 71
     5
 72
     5
  1
UNLESS OTHERWISE SPECIFIED,\PDIMENSIONAL TOLERANCES ARE:       
 73
     1
 44
1.0
1001
ACAD
1000
MTEXTBEGIN
1070
    73
1070
     1
1070
    44
1040
1.0
1070
    74
1070
     0
1000
MTEXTEND
  0
MTEXT
  5
722
330
1F
100
AcDbEntity
  8
Title Block
100
AcDbMText
 10
18.39237986661001
 20
1.131487708483632
 30
0.0
 40
0.075
 41
2.5
 71
     5
 72
     5
  1
(.X)\P(.XX)
 73
     1
 44
1.0
1001
ACAD
1000
MTEXTBEGIN
1070
    73
1070
     1
1070
    44
1040
1.0
1070
    74
1070
     0
1000
MTEXTEND
  0
MTEXT
  5
723
330
1F
100
AcDbEntity
  8
Title Block
100
AcDbMText
 10
19.40014005312411
 20
1.131487708483632
 30
0.0
 40
0.075
 41
2.5
 71
     5
 72
     5
  1
(.XXX)\PANGLES:
 73
     1
 44
1.0
1001
ACAD
1000
MTEXTBEGIN
1070
    73
1070
     1
1070
    44
1040
1.0
1070
    74
1070
     0
1000
MTEXTEND
  0
MTEXT
  5
724
330
1F
100
AcDbEntity
  8
Title Block
100
AcDbMText
 10
21.0
 20
1.25
 30
0.0
 40
0.06
 41
1.5
 71
     5
 72
     5
  1
UNLESS OTHERWISE SPECIFIED,\PALL DIMENSIONS ARE GIVEN IN INCHES, THIRD ANGLE PROJECTION
 73
     1
 44
1.0
1001
ACAD
1000
MTEXTBEGIN
1070
    73
1070
     1
1070
    44
1040
1.0
1070
    74
1070
     0
1000
MTEXTEND
  0
TEXT
  5
725
330
1F
100
AcDbEntity
  8
Title Block
100
AcDbText
 10
17.76076445430618
 20
0.9281373372752312
 30
0.0
 40
0.05
  1
DRAWN BY:
100
AcDbText
  0
TEXT
  5
726
330
1F
100
AcDbEntity
  8
Title Block
100
AcDbText
 10
17.76446947418043
 20
0.6811431865635028
 30
0.0
 40
0.05
  1
DATE:
100
AcDbText
  0
TEXT
  5
727
330
1F
100
AcDbEntity
  8
Title Block
100
AcDbText
 10
17.76817443823349
 20
0.4304455338317968
 30
0.0
 40
0.05
  1
CHECKED BY:
100
AcDbText
  0
TEXT
  5
728
330
1F
100
AcDbEntity
  8
Title Block
100
AcDbText
 10
18.52028959313306
 20
0.9281373372752312
 30
0.0
 40
0.05
  1
MATERIAL:
100
AcDbText
  0
TEXT
  5
729
330
1F
100
AcDbEntity
  8
Title Block
100
AcDbText
 10
20.26534493878154
 20
0.9281373372752312
 30
0.0
 40
0.05
  1
SCALE:
100
AcDbText
  0
TEXT
  5
72A
330
1F
100
AcDbEntity
  8
Title Block
100
AcDbText
 10
20.26534493878154
 20
0.6725952630490007
 30
0.0
 40
0.05
  1
DRAWING NUMBER:
100
AcDbText
  0
TEXT
  5
72B
330
1F
100
AcDbEntity
  8
Title Block
100
AcDbText
 10
21.34942622928997
 20
0.6762987650689816
 30
0.0
 40
0.05
  1
DRAWING
100
AcDbText
  0
TEXT
  5
72C
330
1F
100
AcDbEntity
  8
Title Block
100
AcDbText
 10
21.42723125590085
 20
0.2811642688682026
 30
0.0
 40
0.05
  1
SIZE
100
AcDbText
  0
TEXT
  5
72D
330
1F
100
AcDbEntity
  8
Title Block
100
AcDbText
 10
21.39373130657865
 20
0.3826699445861052
 30
0.0
 40
0.25
  1
C
100
AcDbText
  0
MTEXT
  5
72E
330
1F
100
AcDbEntity
  8
Title Block
100
AcDbMText
 10
11.37499999999999
 20
0.375
 30
0.0
 40
0.05
 41
0.25
 71
     5
 72
     5
  1
REV
 73
     1
 44
1.0
1001
ACAD
1000
MTEXTBEGIN
1070
    73
1070
     1
1070
    44
1040
1.0
1070
    74
1070
     0
1000
MTEXTEND
  0
MTEXT
  5
72F
330
1F
100
AcDbEntity
  8
Title Block
100
AcDbMText
 10
11.74999999999999
 20
0.375
 30
0.0
 40
0.05
 41
0.5
 71
     5
 72
     5
  1
DATE
 73
     1
 44
1.0
1001
ACAD
1000
MTEXTBEGIN
1070
    73
1070
     1
1070
    44
1040
1.0
1070
    74
1070
     0
1000
MTEXTEND
  0
MTEXT
  5
730
330
1F
100
AcDbEntity
  8
Title Block
100
AcDbMText
 10
12.18999999999999
 20
0.375
 30
0.0
 40
0.05
 41
0.38
 71
     5
 72
     5
  1
BY
 73
     1
 44
1.0
1001
ACAD
1000
MTEXTBEGIN
1070
    73
1070
     1
1070
    44
1040
1.0
1070
    74
1070
     0
1000
MTEXTEND
  0
MTEXT
  5
731
330
1F
100
AcDbEntity
  8
Title Block
100
AcDbMText
 10
12.56499999999999
 20
0.375
 30
0.0
 40
0.05
 41
0.38
 71
     5
 72
     5
  1
CHK
 73
     1
 44
1.0
1001
ACAD
1000
MTEXTBEGIN
1070
    73
1070
     1
1070
    44
1040
1.0
1070
    74
1070
     0
1000
MTEXTEND
  0
MTEXT
  5
732
330
1F
100
AcDbEntity
  8
Title Block
100
AcDbMText
 10
14.12499999999999
 20
0.375
 30
0.0
 40
0.05
 41
2.75
 71
     5
 72
     5
  1
DESCRIPTION
 73
     1
 44
1.0
1001
ACAD
1000
MTEXTBEGIN
1070
    73
1070
     1
1070
    44
1040
1.0
1070
    74
1070
     0
1000
MTEXTEND
  0
MTEXT
  5
733
330
1F
100
AcDbEntity
  8
Title Block
100
AcDbMText
 10
16.065
 20
0.375
 30
0.0
 40
0.05
 41
1.129999999999999
 71
     5
 72
     5
  1
ECN   -   R
 73
     1
 44
1.0
1001
ACAD
1000
MTEXTBEGIN
1070
    73
1070
     1
1070
    44
1040
1.0
1070
    74
1070
     0
1000
MTEXTEND
  0
MTEXT
  5
734
330
1F
100
AcDbEntity
  8
Title Block
100
AcDbMText
 10
16.81499999999999
 20
0.375
 30
0.0
 40
0.05
 41
0.38
 71
     5
 72
     5
  1
CUST
 73
     1
 44
1.0
1001
ACAD
1000
MTEXTBEGIN
1070
    73
1070
     1
1070
    44
1040
1.0
1070
    74
1070
     0
1000
MTEXTEND
  0
MTEXT
  5
735
330
1F
100
AcDbEntity
  8
Title Block
100
AcDbMText
 10
17.19
 20
0.375
 30
0.0
 40
0.05
 41
0.38
 71
     5
 72
     5
  1
SUP
 73
     1
 44
1.0
1001
ACAD
1000
MTEXTBEGIN
1070
    73
1070
     1
1070
    44
1040
1.0
1070
    74
1070
     0
1000
MTEXTEND
  0
LINE
  5
736
330
1F
100
AcDbEntity
  8
Title Block
100
AcDbLine
 10
21.75
 20
2.749999999999999
 30
0.0
 11
11.25
 21
2.75
 31
0.0
  0
LINE
  5
737
330
1F
100
AcDbEntity
  8
Title Block
100
AcDbLine
 10
17.74999999999999
 20
2.75
 30
0.0
 11
17.74999999999999
 21
0.25
 31
0.0
  0
LINE
  5
738
330
1F
100
AcDbEntity
  8
Title Block
100
AcDbLine
 10
21.75
 20
2.499999999999999
 30
0.0
 11
11.25
 21
2.5
 31
0.0
  0
LINE
  5
739
330
1F
100
AcDbEntity
  8
Title Block
100
AcDbLine
 10
17.74999999999999
 20
2.25
 30
0.0
 11
11.25
 21
2.25
 31
0.0
  0
LINE
  5
73A
330
1F
100
AcDbEntity
  8
Title Block
100
AcDbLine
 10
21.75
 20
1.999999999999999
 30
0.0
 11
11.25
 21
2.0
 31
0.0
  0
LINE
  5
73B
330
1F
100
AcDbEntity
  8
Title Block
100
AcDbLine
 10
17.74999999999999
 20
1.75
 30
0.0
 11
11.25
 21
1.75
 31
0.0
  0
LINE
  5
73C
330
1F
100
AcDbEntity
  8
Title Block
100
AcDbLine
 10
21.75
 20
1.499999999999999
 30
0.0
 11
11.25
 21
1.5
 31
0.0
  0
LINE
  5
73D
330
1F
100
AcDbEntity
  8
Title Block
100
AcDbLine
 10
17.74999999999999
 20
1.25
 30
0.0
 11
11.25
 21
1.25
 31
0.0
  0
LINE
  5
73E
330
1F
100
AcDbEntity
  8
Title Block
100
AcDbLine
 10
21.75
 20
0.9999999999999996
 30
0.0
 11
11.25
 21
1.0
 31
0.0
  0
LINE
  5
73F
330
1F
100
AcDbEntity
  8
Title Block
100
AcDbLine
 10
18.49999999999999
 20
0.75
 30
0.0
 11
11.25
 21
0.7500000000000009
 31
0.0
  0
LINE
  5
740
330
1F
100
AcDbEntity
  8
Title Block
100
AcDbLine
 10
18.49999999999999
 20
0.5
 30
0.0
 11
11.25
 21
0.5000000000000009
 31
0.0
  0
LINE
  5
741
330
1F
100
AcDbEntity
  8
Title Block
100
AcDbLine
 10
11.25
 20
0.25
 30
0.0
 11
11.25
 21
2.75
 31
0.0
  0
LINE
  5
742
330
1F
100
AcDbEntity
  8
Title Block
100
AcDbLine
 10
11.49999999999999
 20
0.25
 30
0.0
 11
11.49999999999999
 21
2.750000000000001
 31
0.0
  0
LINE
  5
743
330
1F
100
AcDbEntity
  8
Title Block
100
AcDbLine
 10
11.99999999999999
 20
0.25
 30
0.0
 11
11.99999999999999
 21
2.750000000000001
 31
0.0
  0
LINE
  5
744
330
1F
100
AcDbEntity
  8
Title Block
100
AcDbLine
 10
12.375
 20
0.25
 30
0.0
 11
12.375
 21
2.750000000000001
 31
0.0
  0
LINE
  5
745
330
1F
100
AcDbEntity
  8
Title Block
100
AcDbLine
 10
12.74999999999999
 20
0.25
 30
0.0
 11
12.74999999999999
 21
2.750000000000001
 31
0.0
  0
LINE
  5
746
330
1F
100
AcDbEntity
  8
Title Block
100
AcDbLine
 10
17.375
 20
2.75
 30
0.0
 11
17.375
 21
0.25
 31
0.0
  0
LINE
  5
747
330
1F
100
AcDbEntity
  8
Title Block
100
AcDbLine
 10
17.0
 20
2.75
 30
0.0
 11
17.0
 21
0.25
 31
0.0
  0
LINE
  5
748
330
1F
100
AcDbEntity
  8
Title Block
100
AcDbLine
 10
16.62499999999999
 20
2.75
 30
0.0
 11
16.62499999999999
 21
0.25
 31
0.0
  0
LINE
  5
749
330
1F
100
AcDbEntity
  8
Title Block
100
AcDbLine
 10
16.25
 20
2.75
 30
0.0
 11
16.25
 21
0.5000000000000002
 31
0.0
  0
LINE
  5
74A
330
1F
100
AcDbEntity
  8
Title Block
100
AcDbLine
 10
15.5
 20
2.75
 30
0.0
 11
15.5
 21
0.25
 31
0.0
  0
LINE
  5
74B
330
1F
100
AcDbEntity
  8
Title Block
100
AcDbLine
 10
20.25
 20
0.75
 30
0.0
 11
20.25
 21
1.499999999999999
 31
0.0
  0
LINE
  5
74C
330
1F
100
AcDbEntity
  8
Title Block
100
AcDbLine
 10
20.25
 20
0.75
 30
0.0
 11
20.25
 21
0.25
 31
0.0
  0
LINE
  5
74D
330
1F
100
AcDbEntity
  8
Title Block
100
AcDbLine
 10
20.25
 20
0.75
 30
0.0
 11
21.75
 21
0.75
 31
0.0
  0
LINE
  5
74E
330
1F
100
AcDbEntity
  8
Title Block
100
AcDbLine
 10
18.49999999999999
 20
0.5
 30
0.0
 11
18.49999999999999
 21
0.25
 31
0.0
  0
LINE
  5
74F
330
1F
100
AcDbEntity
  8
Title Block
100
AcDbLine
 10
18.49999999999999
 20
0.5
 30
0.0
 11
18.49999999999999
 21
1.0
 31
0.0
  0
LINE
  5
750
330
1F
100
AcDbEntity
  8
Title Block
100
AcDbLine
 10
21.25
 20
0.75
 30
0.0
 11
21.25
 21
0.25
 31
0.0
  0
LWPOLYLINE
  5
751
330
1F
100
AcDbEntity
  8
Title Block
100
AcDbPolyline
 90
        4
 70
     1
 43
0.01
 10
21.75
 20
16.75
 10
21.75
 20
0.25
 10
0.25
 20
0.25
 10
0.250000000000001
 20
16.75
  0
POINT
  5
752
330
1F
100
AcDbEntity
  8
Title Block
100
AcDbPoint
 10
22.0
 20
0.0
 30
0.0
  0
POINT
  5
753
330
1F
100
AcDbEntity
  8
Title Block
100
AcDbPoint
 10
22.0
 20
17.0
 30
0.0
  0
POINT
  5
754
330
1F
100
AcDbEntity
  8
Title Block
100
AcDbPoint
 10
0.000000000000001
 20
17.0
 30
0.0
  0
POINT
  5
755
330
1F
100
AcDbEntity
  8
Title Block
100
AcDbPoint
 10
0.0
 20
0.0
 30
0.0
  0
MTEXT
  5
756
330
1F
100
AcDbEntity
  8
Text
100
AcDbMText
 10
11.37324893148254
 20
0.6275685908585027
 30
0.0
 40
0.09
 41
0.25
 71
     5
 72
     5
  1
R
 73
     1
 44
1.0
1001
ACAD
1000
MTEXTBEGIN
1070
    73
1070
     1
1070
    44
1040
1.0
1070
    74
1070
     0
1000
MTEXTEND
  0
MTEXT
  5
757
330
1F
100
AcDbEntity
  8
Text
100
AcDbMText
 10
11.74824893148254
 20
0.6275685908585027
 30
0.0
 40
0.07
 41
0.5
 71
     5
 72
     5
  1
6-28-05
 73
     1
 44
1.0
1001
ACAD
1000
MTEXTBEGIN
1070
    73
1070
     1
1070
    44
1040
1.0
1070
    74
1070
     0
1000
MTEXTEND
  0
MTEXT
  5
758
330
1F
100
AcDbEntity
  8
Text
100
AcDbMText
 10
12.18574893148254
 20
0.6275685908585027
 30
0.0
 40
0.09
 41
0.375
 71
     5
 72
     5
  1
MSO
 73
     1
 44
1.0
1001
ACAD
1000
MTEXTBEGIN
1070
    73
1070
     1
1070
    44
1040
1.0
1070
    74
1070
     0
1000
MTEXTEND
  0
MTEXT
  5
759
330
1F
100
AcDbEntity
  8
Text
100
AcDbMText
 10
12.56074893148254
 20
0.6275685908585027
 30
0.0
 40
0.07
 41
0.375
 71
     5
 72
     5
  1
DJWA
 73
     1
 44
1.0
1001
ACAD
1000
MTEXTBEGIN
1070
    73
1070
     1
1070
    44
1040
1.0
1070
    74
1070
     0
1000
MTEXTEND
  0
MTEXT
  5
75A
330
1F
100
AcDbEntity
  8
Text
100
AcDbMText
 10
14.12324893148254
 20
0.6275685908585023
 30
0.0
 40
0.09
 41
2.75
 71
     5
 72
     5
  1
DRAWING RELEASED
 73
     1
 44
1.0
1001
ACAD
1000
MTEXTBEGIN
1070
    73
1070
     1
1070
    44
1040
1.0
1070
    74
1070
     0
1000
MTEXTEND
  0
MTEXT
  5
75D
330
1F
100
AcDbEntity
  8
Text
100
AcDbMText
 10
18.47324893148254
 20
0.8525685908585018
 30
0.0
 40
0.09
 41
0.75
 71
     6
 72
     5
  1
MSO
 73
     1
 44
1.0
1001
ACAD
1000
MTEXTBEGIN
1070
    73
1070
     1
1070
    44
1040
1.0
1070
    74
1070
     0
1000
MTEXTEND
  0
MTEXT
  5
75E
330
1F
100
AcDbEntity
  8
Text
100
AcDbMText
 10
18.47324893148254
 20
0.6025685908585017
 30
0.0
 40
0.09
 41
0.75
 71
     6
 72
     5
  1
6-28-05
 73
     1
 44
1.0
1001
ACAD
1000
MTEXTBEGIN
1070
    73
1070
     1
1070
    44
1040
1.0
1070
    74
1070
     0
1000
MTEXTEND
  0
MTEXT
  5
75F
330
1F
100
AcDbEntity
  8
Text
100
AcDbMText
 10
18.47324893148254
 20
0.3525685908585019
 30
0.0
 40
0.09
 41
0.75
 71
     6
 72
     5
  1
DJWA
 73
     1
 44
1.0
1001
ACAD
1000
MTEXTBEGIN
1070
    73
1070
     1
1070
    44
1040
1.0
1070
    74
1070
     0
1000
MTEXTEND
  0
MTEXT
  5
760
330
1F
100
AcDbEntity
  8
Text
100
AcDbMText
 10
19.74824893148254
 20
2.627568590858501
 30
0.0
 40
0.09
 41
4.0
 71
     5
 72
     5
  1
FHDEC4X4.dwg
 73
     1
 44
1.0
1001
ACAD
1000
MTEXTBEGIN
1070
    73
1070
     1
1070
    44
1040
1.0
1070
    74
1070
     0
1000
MTEXTEND
  0
MTEXT
  5
761
330
1F
100
AcDbEntity
  8
Text
100
AcDbMText
 10
19.74824893148254
 20
1.752568590858501
 30
0.0
 40
0.09
 41
4.0
 71
     5
 72
     5
  1
PANDUCT TYPES H AND HS 4x4 WIRING DUCT\PEND CAP (FHDEC4X4)\PMARKETING DRAWING
 73
     1
 44
1.0
1001
ACAD
1000
MTEXTBEGIN
1070
    73
1070
     1
1070
    44
1040
1.0
1070
    74
1070
     0
1000
MTEXTEND
  0
MTEXT
  5
762
330
1F
100
AcDbEntity
  8
Text
100
AcDbMText
 10
20.99824893148254
 20
0.8775685908585016
 30
0.0
 40
0.12
 41
1.5
 71
     5
 72
     5
  1
FULL
 73
     1
 44
1.0
1001
ACAD
1000
MTEXTBEGIN
1070
    73
1070
     1
1070
    44
1040
1.0
1070
    74
1070
     0
1000
MTEXTEND
  0
MTEXT
  5
763
330
1F
100
AcDbEntity
  8
Text
100
AcDbMText
 10
20.74824893148254
 20
0.5025685908585018
 30
0.0
 40
0.12
 41
1.0
 71
     5
 72
     5
  1
36897-1049
 73
     1
 44
1.0
1001
ACAD
1000
MTEXTBEGIN
1070
    73
1070
     1
1070
    44
1040
1.0
1070
    74
1070
     0
1000
MTEXTEND
  0
ENDSEC
  0
SECTION
  2
OBJECTS
  0
DICTIONARY
  5
C
330
0
100
AcDbDictionary
281
     1
  3
ACAD_COLOR
350
73
  3
ACAD_GROUP
350
D
  3
ACAD_LAYOUT
350
1A
  3
ACAD_MATERIAL
350
72
  3
ACAD_MLINESTYLE
350
17
  3
ACAD_PLOTSETTINGS
350
19
  3
ACAD_PLOTSTYLENAME
350
E
  3
ACAD_TABLESTYLE
350
86
  3
ACDBHEADERROUNDTRIPXREC
350
788
  3
AcDbVariableDictionary
350
66
  0
DICTIONARY
  5
765
330
1F
100
AcDbDictionary
280
     1
281
     1
  3
ACAD_SORTENTS
360
766
  0
DICTIONARY
  5
657
330
649
100
AcDbDictionary
280
     1
281
     1
  3
ACAD_DIMASSOC
360
662
  0
DICTIONARY
  5
672
330
664
100
AcDbDictionary
280
     1
281
     1
  3
ACAD_DIMASSOC
360
67D
  0
DICTIONARY
  5
73
102
{ACAD_REACTORS
330
C
102
}
330
C
100
AcDbDictionary
281
     1
  0
DICTIONARY
  5
D
102
{ACAD_REACTORS
330
C
102
}
330
C
100
AcDbDictionary
281
     1
  0
DICTIONARY
  5
1A
102
{ACAD_REACTORS
330
C
102
}
330
C
100
AcDbDictionary
281
     1
  3
Layout1
350
59
  3
Layout2
350
5E
  3
Model
350
22
  0
DICTIONARY
  5
72
102
{ACAD_REACTORS
330
C
102
}
330
C
100
AcDbDictionary
281
     1
  0
DICTIONARY
  5
17
102
{ACAD_REACTORS
330
C
102
}
330
C
100
AcDbDictionary
281
     1
  3
Standard
350
18
  0
DICTIONARY
  5
19
102
{ACAD_REACTORS
330
C
102
}
330
C
100
AcDbDictionary
281
     1
  0
ACDBDICTIONARYWDFLT
  5
E
102
{ACAD_REACTORS
330
C
102
}
330
C
100
AcDbDictionary
281
     1
  3
Normal
350
F
100
AcDbDictionaryWithDefault
340
F
  0
DICTIONARY
  5
86
102
{ACAD_REACTORS
330
C
102
}
330
C
100
AcDbDictionary
281
     1
  3
Standard
350
87
  0
DICTIONARY
  5
788
102
{ACAD_REACTORS
330
C
102
}
330
C
100
AcDbDictionary
281
     1
  0
DICTIONARY
  5
66
102
{ACAD_REACTORS
330
C
102
}
330
C
100
AcDbDictionary
281
     1
  3
CTABLESTYLE
350
E0
  3
DIMASSOC
350
67
  3
HIDETEXT
350
6B
  3
PROJECTNAME
350
786
  0
SORTENTSTABLE
  5
766
102
{ACAD_REACTORS
330
765
102
}
330
765
100
AcDbSortentsTable
330
1F
331
520
  5
520
331
509
  5
509
331
340
  5
340
331
4EA
  5
4EA
331
329
  5
329
331
4CB
  5
4CB
331
4AC
  5
4AC
331
2EB
  5
2EB
331
495
  5
495
331
2CC
  5
2CC
331
476
  5
476
331
457
  5
457
331
438
  5
438
331
421
  5
421
331
258
  5
258
331
402
  5
402
331
3E3
  5
3E3
331
3C4
  5
3C4
331
1E4
  5
1E4
331
203
  5
203
331
222
  5
222
331
241
  5
241
331
277
  5
277
331
296
  5
296
331
2B5
  5
2B5
331
30A
  5
30A
331
1CD
  5
1CD
331
5B4
  5
5B4
331
728
  5
728
331
747
  5
747
331
540
  5
540
331
521
  5
521
331
360
  5
360
331
50A
  5
50A
331
341
  5
341
331
4EB
  5
4EB
331
4CC
  5
4CC
331
4AD
  5
4AD
331
496
  5
496
331
2CD
  5
2CD
331
477
  5
477
331
2B6
  5
2B6
331
458
  5
458
331
439
  5
439
331
278
  5
278
331
422
  5
422
331
259
  5
259
331
403
  5
403
331
3E4
  5
3E4
331
3C5
  5
3C5
331
204
  5
204
331
1E5
  5
1E5
331
223
  5
223
331
242
  5
242
331
297
  5
297
331
2EC
  5
2EC
331
30B
  5
30B
331
32A
  5
32A
331
1CE
  5
1CE
331
729
  5
729
331
5B5
  5
5B5
331
748
  5
748
331
560
  5
560
331
541
  5
541
331
522
  5
522
331
50B
  5
50B
331
342
  5
342
331
4EC
  5
4EC
331
32B
  5
32B
331
4CD
  5
4CD
331
4AE
  5
4AE
331
2ED
  5
2ED
331
497
  5
497
331
2CE
  5
2CE
331
478
  5
478
331
459
  5
459
331
43A
  5
43A
331
423
  5
423
331
25A
  5
25A
331
404
  5
404
331
3E5
  5
3E5
331
3C6
  5
3C6
331
1E6
  5
1E6
331
205
  5
205
331
224
  5
224
331
243
  5
243
331
279
  5
279
331
298
  5
298
331
2B7
  5
2B7
331
30C
  5
30C
331
361
  5
361
331
380
  5
380
331
1CF
  5
1CF
331
5B6
  5
5B6
331
72A
  5
72A
331
749
  5
749
331
580
  5
580
331
561
  5
561
331
542
  5
542
331
523
  5
523
331
50C
  5
50C
331
343
  5
343
331
4ED
  5
4ED
331
4CE
  5
4CE
331
4AF
  5
4AF
331
498
  5
498
331
2CF
  5
2CF
331
479
  5
479
331
2B8
  5
2B8
331
45A
  5
45A
331
43B
  5
43B
331
27A
  5
27A
331
424
  5
424
331
25B
  5
25B
331
405
  5
405
331
3E6
  5
3E6
331
3C7
  5
3C7
331
1E7
  5
1E7
331
206
  5
206
331
225
  5
225
331
244
  5
244
331
299
  5
299
331
2EE
  5
2EE
331
30D
  5
30D
331
32C
  5
32C
331
362
  5
362
331
381
  5
381
331
3A0
  5
3A0
331
1D0
  5
1D0
331
72B
  5
72B
331
5B7
  5
5B7
331
74A
  5
74A
331
581
  5
581
331
562
  5
562
331
3A1
  5
3A1
331
543
  5
543
331
524
  5
524
331
50D
  5
50D
331
344
  5
344
331
4EE
  5
4EE
331
32D
  5
32D
331
4CF
  5
4CF
331
4B0
  5
4B0
331
2EF
  5
2EF
331
499
  5
499
331
2D0
  5
2D0
331
47A
  5
47A
331
45B
  5
45B
331
43C
  5
43C
331
425
  5
425
331
25C
  5
25C
331
406
  5
406
331
245
  5
245
331
3E7
  5
3E7
331
3C8
  5
3C8
331
1E8
  5
1E8
331
207
  5
207
331
226
  5
226
331
27B
  5
27B
331
29A
  5
29A
331
2B9
  5
2B9
331
30E
  5
30E
331
363
  5
363
331
382
  5
382
331
1D1
  5
1D1
331
74B
  5
74B
331
72C
  5
72C
331
582
  5
582
331
563
  5
563
331
544
  5
544
331
525
  5
525
331
50E
  5
50E
331
345
  5
345
331
4EF
  5
4EF
331
4D0
  5
4D0
331
4B1
  5
4B1
331
49A
  5
49A
331
2D1
  5
2D1
331
47B
  5
47B
331
2BA
  5
2BA
331
45C
  5
45C
331
43D
  5
43D
331
27C
  5
27C
331
426
  5
426
331
25D
  5
25D
331
407
  5
407
331
3E8
  5
3E8
331
3C9
  5
3C9
331
208
  5
208
331
1E9
  5
1E9
331
227
  5
227
331
246
  5
246
331
29B
  5
29B
331
2F0
  5
2F0
331
30F
  5
30F
331
32E
  5
32E
331
364
  5
364
331
383
  5
383
331
3A2
  5
3A2
331
1D2
  5
1D2
331
74C
  5
74C
331
72D
  5
72D
331
583
  5
583
331
564
  5
564
331
3A3
  5
3A3
331
545
  5
545
331
526
  5
526
331
365
  5
365
331
50F
  5
50F
331
346
  5
346
331
4F0
  5
4F0
331
4D1
  5
4D1
331
4B2
  5
4B2
331
2F1
  5
2F1
331
49B
  5
49B
331
2D2
  5
2D2
331
47C
  5
47C
331
45D
  5
45D
331
43E
  5
43E
331
427
  5
427
331
25E
  5
25E
331
408
  5
408
331
3E9
  5
3E9
331
3CA
  5
3CA
331
209
  5
209
331
1EA
  5
1EA
331
228
  5
228
331
247
  5
247
331
27D
  5
27D
331
29C
  5
29C
331
2BB
  5
2BB
331
310
  5
310
331
32F
  5
32F
331
384
  5
384
331
1D3
  5
1D3
331
74D
  5
74D
331
72E
  5
72E
331
584
  5
584
331
565
  5
565
331
546
  5
546
331
527
  5
527
331
510
  5
510
331
347
  5
347
331
4F1
  5
4F1
331
4D2
  5
4D2
331
4B3
  5
4B3
331
49C
  5
49C
331
2D3
  5
2D3
331
47D
  5
47D
331
2BC
  5
2BC
331
45E
  5
45E
331
43F
  5
43F
331
27E
  5
27E
331
428
  5
428
331
409
  5
409
331
3EA
  5
3EA
331
229
  5
229
331
3CB
  5
3CB
331
20A
  5
20A
331
1EB
  5
1EB
331
248
  5
248
331
25F
  5
25F
331
29D
  5
29D
331
2F2
  5
2F2
331
311
  5
311
331
330
  5
330
331
366
  5
366
331
385
  5
385
331
3A4
  5
3A4
331
1D4
  5
1D4
331
74E
  5
74E
331
72F
  5
72F
331
585
  5
585
331
566
  5
566
331
3A5
  5
3A5
331
547
  5
547
331
528
  5
528
331
367
  5
367
331
511
  5
511
331
348
  5
348
331
4F2
  5
4F2
331
4D3
  5
4D3
331
4B4
  5
4B4
331
49D
  5
49D
331
2D4
  5
2D4
331
47E
  5
47E
331
45F
  5
45F
331
440
  5
440
331
429
  5
429
331
40A
  5
40A
331
249
  5
249
331
3EB
  5
3EB
331
3CC
  5
3CC
331
20B
  5
20B
331
1EC
  5
1EC
331
22A
  5
22A
331
260
  5
260
331
27F
  5
27F
331
29E
  5
29E
331
2BD
  5
2BD
331
2F3
  5
2F3
331
312
  5
312
331
331
  5
331
331
386
  5
386
331
1D5
  5
1D5
331
74F
  5
74F
331
586
  5
586
331
567
  5
567
331
548
  5
548
331
529
  5
529
331
512
  5
512
331
349
  5
349
331
4F3
  5
4F3
331
332
  5
332
331
4D4
  5
4D4
331
4B5
  5
4B5
331
49E
  5
49E
331
2D5
  5
2D5
331
47F
  5
47F
331
2BE
  5
2BE
331
460
  5
460
331
441
  5
441
331
280
  5
280
331
42A
  5
42A
331
40B
  5
40B
331
3EC
  5
3EC
331
22B
  5
22B
331
3CD
  5
3CD
331
20C
  5
20C
331
1ED
  5
1ED
331
24A
  5
24A
331
261
  5
261
331
29F
  5
29F
331
2F4
  5
2F4
331
313
  5
313
331
368
  5
368
331
387
  5
387
331
3A6
  5
3A6
331
1D6
  5
1D6
331
587
  5
587
331
568
  5
568
331
3A7
  5
3A7
331
549
  5
549
331
52A
  5
52A
331
369
  5
369
331
513
  5
513
331
34A
  5
34A
331
4F4
  5
4F4
331
4D5
  5
4D5
331
4B6
  5
4B6
331
49F
  5
49F
331
2D6
  5
2D6
331
480
  5
480
331
461
  5
461
331
2A0
  5
2A0
331
442
  5
442
331
281
  5
281
331
42B
  5
42B
331
40C
  5
40C
331
24B
  5
24B
331
3ED
  5
3ED
331
3CE
  5
3CE
331
20D
  5
20D
331
1EE
  5
1EE
331
22C
  5
22C
331
262
  5
262
331
2BF
  5
2BF
331
2F5
  5
2F5
331
314
  5
314
331
333
  5
333
331
388
  5
388
331
1D7
  5
1D7
331
588
  5
588
331
569
  5
569
331
54A
  5
54A
331
52B
  5
52B
331
514
  5
514
331
34B
  5
34B
331
4F5
  5
4F5
331
334
  5
334
331
4D6
  5
4D6
331
4B7
  5
4B7
331
2F6
  5
2F6
331
4A0
  5
4A0
331
481
  5
481
331
462
  5
462
331
2A1
  5
2A1
331
443
  5
443
331
282
  5
282
331
42C
  5
42C
331
40D
  5
40D
331
3EE
  5
3EE
331
22D
  5
22D
331
3CF
  5
3CF
331
20E
  5
20E
331
1EF
  5
1EF
331
24C
  5
24C
331
263
  5
263
331
2C0
  5
2C0
331
2D7
  5
2D7
331
315
  5
315
331
36A
  5
36A
331
389
  5
389
331
3A8
  5
3A8
331
589
  5
589
331
56A
  5
56A
331
3A9
  5
3A9
331
54B
  5
54B
331
52C
  5
52C
331
36B
  5
36B
331
515
  5
515
331
34C
  5
34C
331
4F6
  5
4F6
331
4D7
  5
4D7
331
4B8
  5
4B8
331
4A1
  5
4A1
331
482
  5
482
331
463
  5
463
331
2A2
  5
2A2
331
444
  5
444
331
283
  5
283
331
42D
  5
42D
331
40E
  5
40E
331
24D
  5
24D
331
3EF
  5
3EF
331
3D0
  5
3D0
331
1F0
  5
1F0
331
20F
  5
20F
331
22E
  5
22E
331
264
  5
264
331
2C1
  5
2C1
331
2D8
  5
2D8
331
2F7
  5
2F7
331
316
  5
316
331
335
  5
335
331
38A
  5
38A
331
58A
  5
58A
331
56B
  5
56B
331
54C
  5
54C
331
52D
  5
52D
331
516
  5
516
331
34D
  5
34D
331
4F7
  5
4F7
331
336
  5
336
331
4D8
  5
4D8
331
4B9
  5
4B9
331
2F8
  5
2F8
331
4A2
  5
4A2
331
483
  5
483
331
464
  5
464
331
2A3
  5
2A3
331
445
  5
445
331
284
  5
284
331
42E
  5
42E
331
40F
  5
40F
331
3F0
  5
3F0
331
22F
  5
22F
331
3D1
  5
3D1
331
1F1
  5
1F1
331
210
  5
210
331
24E
  5
24E
331
265
  5
265
331
2C2
  5
2C2
331
2D9
  5
2D9
331
317
  5
317
331
36C
  5
36C
331
38B
  5
38B
331
3AA
  5
3AA
331
58B
  5
58B
331
56C
  5
56C
331
3AB
  5
3AB
331
54D
  5
54D
331
52E
  5
52E
331
36D
  5
36D
331
517
  5
517
331
34E
  5
34E
331
4F8
  5
4F8
331
4D9
  5
4D9
331
318
  5
318
331
4BA
  5
4BA
331
2F9
  5
2F9
331
4A3
  5
4A3
331
484
  5
484
331
2C3
  5
2C3
331
465
  5
465
331
2A4
  5
2A4
331
446
  5
446
331
285
  5
285
331
42F
  5
42F
331
410
  5
410
331
24F
  5
24F
331
3F1
  5
3F1
331
3D2
  5
3D2
331
1F2
  5
1F2
331
211
  5
211
331
230
  5
230
331
266
  5
266
331
2DA
  5
2DA
331
337
  5
337
331
38C
  5
38C
331
58C
  5
58C
331
56D
  5
56D
331
54E
  5
54E
331
52F
  5
52F
331
518
  5
518
331
4F9
  5
4F9
331
338
  5
338
331
4DA
  5
4DA
331
4BB
  5
4BB
331
2FA
  5
2FA
331
4A4
  5
4A4
331
485
  5
485
331
466
  5
466
331
2A5
  5
2A5
331
447
  5
447
331
286
  5
286
331
411
  5
411
331
3F2
  5
3F2
331
231
  5
231
331
3D3
  5
3D3
331
1F3
  5
1F3
331
212
  5
212
331
267
  5
267
331
2C4
  5
2C4
331
2DB
  5
2DB
331
319
  5
319
331
34F
  5
34F
331
36E
  5
36E
331
38D
  5
38D
331
3AC
  5
3AC
331
58D
  5
58D
331
56E
  5
56E
331
3AD
  5
3AD
331
54F
  5
54F
331
530
  5
530
331
36F
  5
36F
331
519
  5
519
331
4FA
  5
4FA
331
4DB
  5
4DB
331
31A
  5
31A
331
4BC
  5
4BC
331
2FB
  5
2FB
331
4A5
  5
4A5
331
486
  5
486
331
2C5
  5
2C5
331
467
  5
467
331
2A6
  5
2A6
331
448
  5
448
331
412
  5
412
331
268
  5
268
331
3F3
  5
3F3
331
3D4
  5
3D4
331
1F4
  5
1F4
331
213
  5
213
331
232
  5
232
331
287
  5
287
331
2DC
  5
2DC
331
339
  5
339
331
350
  5
350
331
38E
  5
38E
331
58E
  5
58E
331
56F
  5
56F
331
550
  5
550
331
531
  5
531
331
370
  5
370
331
51A
  5
51A
331
4FB
  5
4FB
331
33A
  5
33A
331
4DC
  5
4DC
331
4BD
  5
4BD
331
2FC
  5
2FC
331
4A6
  5
4A6
331
487
  5
487
331
468
  5
468
331
2A7
  5
2A7
331
449
  5
449
331
413
  5
413
331
269
  5
269
331
3F4
  5
3F4
331
233
  5
233
331
3D5
  5
3D5
331
1F5
  5
1F5
331
214
  5
214
331
288
  5
288
331
2C6
  5
2C6
331
2DD
  5
2DD
331
31B
  5
31B
331
351
  5
351
331
38F
  5
38F
331
3AE
  5
3AE
331
58F
  5
58F
331
570
  5
570
331
551
  5
551
331
390
  5
390
331
532
  5
532
331
371
  5
371
331
51B
  5
51B
331
4FC
  5
4FC
331
4DD
  5
4DD
331
31C
  5
31C
331
4BE
  5
4BE
331
2FD
  5
2FD
331
4A7
  5
4A7
331
488
  5
488
331
2C7
  5
2C7
331
469
  5
469
331
44A
  5
44A
331
414
  5
414
331
26A
  5
26A
331
3F5
  5
3F5
331
234
  5
234
331
3D6
  5
3D6
331
1F6
  5
1F6
331
215
  5
215
331
289
  5
289
331
2A8
  5
2A8
331
2DE
  5
2DE
331
33B
  5
33B
331
352
  5
352
331
3AF
  5
3AF
331
590
  5
590
331
571
  5
571
331
552
  5
552
331
391
  5
391
331
533
  5
533
331
372
  5
372
331
51C
  5
51C
331
4FD
  5
4FD
331
33C
  5
33C
331
4DE
  5
4DE
331
4BF
  5
4BF
331
2FE
  5
2FE
331
489
  5
489
331
46A
  5
46A
331
2A9
  5
2A9
331
44B
  5
44B
331
415
  5
415
331
26B
  5
26B
331
3F6
  5
3F6
331
235
  5
235
331
3D7
  5
3D7
331
1F7
  5
1F7
331
216
  5
216
331
28A
  5
28A
331
2DF
  5
2DF
331
31D
  5
31D
331
353
  5
353
331
3B0
  5
3B0
331
591
  5
591
331
572
  5
572
331
553
  5
553
331
392
  5
392
331
534
  5
534
331
373
  5
373
331
51D
  5
51D
331
4FE
  5
4FE
331
4DF
  5
4DF
331
31E
  5
31E
331
4C0
  5
4C0
331
48A
  5
48A
331
2E0
  5
2E0
331
46B
  5
46B
331
44C
  5
44C
331
416
  5
416
331
26C
  5
26C
331
3F7
  5
3F7
331
236
  5
236
331
217
  5
217
331
28B
  5
28B
331
2AA
  5
2AA
331
2FF
  5
2FF
331
33D
  5
33D
331
354
  5
354
331
3B1
  5
3B1
331
592
  5
592
331
573
  5
573
331
3B2
  5
3B2
331
554
  5
554
331
393
  5
393
331
535
  5
535
331
374
  5
374
331
51E
  5
51E
331
4FF
  5
4FF
331
33E
  5
33E
331
4E0
  5
4E0
331
4C1
  5
4C1
331
48B
  5
48B
331
2E1
  5
2E1
331
46C
  5
46C
331
2AB
  5
2AB
331
44D
  5
44D
331
417
  5
417
331
26D
  5
26D
331
237
  5
237
331
28C
  5
28C
331
300
  5
300
331
31F
  5
31F
331
355
  5
355
331
593
  5
593
331
574
  5
574
331
555
  5
555
331
394
  5
394
331
536
  5
536
331
375
  5
375
331
51F
  5
51F
331
500
  5
500
331
4E1
  5
4E1
331
320
  5
320
331
4C2
  5
4C2
331
48C
  5
48C
331
2E2
  5
2E2
331
46D
  5
46D
331
44E
  5
44E
331
26E
  5
26E
331
28D
  5
28D
331
2AC
  5
2AC
331
301
  5
301
331
33F
  5
33F
331
356
  5
356
331
3B3
  5
3B3
331
594
  5
594
331
575
  5
575
331
3B4
  5
3B4
331
556
  5
556
331
537
  5
537
331
376
  5
376
331
501
  5
501
331
4E2
  5
4E2
331
321
  5
321
331
4C3
  5
4C3
331
48D
  5
48D
331
2E3
  5
2E3
331
46E
  5
46E
331
2AD
  5
2AD
331
44F
  5
44F
331
26F
  5
26F
331
28E
  5
28E
331
302
  5
302
331
357
  5
357
331
395
  5
395
331
3B5
  5
3B5
331
396
  5
396
331
576
  5
576
331
377
  5
377
331
358
  5
358
331
538
  5
538
331
322
  5
322
331
303
  5
303
331
2E4
  5
2E4
331
4C4
  5
4C4
331
2AE
  5
2AE
331
28F
  5
28F
331
46F
  5
46F
331
48E
  5
48E
331
4E3
  5
4E3
331
502
  5
502
331
557
  5
557
331
595
  5
595
331
3B6
  5
3B6
331
397
  5
397
331
577
  5
577
331
378
  5
378
331
359
  5
359
331
539
  5
539
331
323
  5
323
331
503
  5
503
331
304
  5
304
331
2E5
  5
2E5
331
4C5
  5
4C5
331
2AF
  5
2AF
331
48F
  5
48F
331
4E4
  5
4E4
331
558
  5
558
331
596
  5
596
331
3B7
  5
3B7
331
597
  5
597
331
398
  5
398
331
578
  5
578
331
379
  5
379
331
35A
  5
35A
331
53A
  5
53A
331
324
  5
324
331
305
  5
305
331
2E6
  5
2E6
331
4C6
  5
4C6
331
4E5
  5
4E5
331
504
  5
504
331
559
  5
559
331
399
  5
399
331
579
  5
579
331
37A
  5
37A
331
35B
  5
35B
331
53B
  5
53B
331
325
  5
325
331
505
  5
505
331
306
  5
306
331
2E7
  5
2E7
331
4C7
  5
4C7
331
4E6
  5
4E6
331
55A
  5
55A
331
39A
  5
39A
331
37B
  5
37B
331
35C
  5
35C
331
53C
  5
53C
331
326
  5
326
331
506
  5
506
331
307
  5
307
331
4E7
  5
4E7
331
55B
  5
55B
331
57A
  5
57A
331
39B
  5
39B
331
57B
  5
57B
331
37C
  5
37C
331
35D
  5
35D
331
53D
  5
53D
331
327
  5
327
331
507
  5
507
331
55C
  5
55C
331
39C
  5
39C
331
37D
  5
37D
331
35E
  5
35E
331
53E
  5
53E
331
55D
  5
55D
331
57C
  5
57C
331
39D
  5
39D
331
57D
  5
57D
331
37E
  5
37E
331
35F
  5
35F
331
53F
  5
53F
331
55E
  5
55E
331
57E
  5
57E
331
55F
  5
55F
331
39E
  5
39E
331
37F
  5
37F
331
57F
  5
57F
331
39F
  5
39F
331
598
  5
598
331
599
  5
599
331
5B8
  5
5B8
331
5B9
  5
5B9
331
59A
  5
59A
331
59B
  5
59B
331
5BA
  5
5BA
331
5BB
  5
5BB
331
59C
  5
59C
331
59D
  5
59D
331
5BC
  5
5BC
331
730
  5
730
331
750
  5
750
331
5BD
  5
5BD
331
59E
  5
59E
331
731
  5
731
331
751
  5
751
331
732
  5
732
331
59F
  5
59F
331
713
  5
713
331
752
  5
752
331
714
  5
714
331
5BF
  5
5BF
331
5A0
  5
5A0
331
733
  5
733
331
734
  5
734
331
5A1
  5
5A1
331
715
  5
715
331
753
  5
753
331
735
  5
735
331
5A2
  5
5A2
331
754
  5
754
331
736
  5
736
331
5A3
  5
5A3
331
755
  5
755
331
737
  5
737
331
5A4
  5
5A4
331
756
  5
756
331
738
  5
738
331
5A5
  5
5A5
331
757
  5
757
331
739
  5
739
331
5A6
  5
5A6
331
664
  5
664
331
758
  5
758
331
73A
  5
73A
331
5A7
  5
5A7
331
759
  5
759
331
3B8
  5
3B8
331
1D8
  5
1D8
331
5A8
  5
5A8
331
73B
  5
73B
331
75A
  5
75A
331
3D8
  5
3D8
331
3B9
  5
3B9
331
1F8
  5
1F8
331
1D9
  5
1D9
331
73C
  5
73C
331
5A9
  5
5A9
331
71D
  5
71D
331
3F8
  5
3F8
331
3D9
  5
3D9
331
3BA
  5
3BA
331
1DA
  5
1DA
331
1F9
  5
1F9
331
218
  5
218
331
5AA
  5
5AA
331
71E
  5
71E
331
73D
  5
73D
331
418
  5
418
331
3F9
  5
3F9
331
238
  5
238
331
3DA
  5
3DA
331
3BB
  5
3BB
331
1FA
  5
1FA
331
1DB
  5
1DB
331
219
  5
219
331
73E
  5
73E
331
5AB
  5
5AB
331
71F
  5
71F
331
75D
  5
75D
331
430
  5
430
331
419
  5
419
331
250
  5
250
331
3FA
  5
3FA
331
3DB
  5
3DB
331
3BC
  5
3BC
331
1DC
  5
1DC
331
1FB
  5
1FB
331
21A
  5
21A
331
239
  5
239
331
5AC
  5
5AC
331
720
  5
720
331
73F
  5
73F
331
75E
  5
75E
331
450
  5
450
331
431
  5
431
331
41A
  5
41A
331
251
  5
251
331
3FB
  5
3FB
331
23A
  5
23A
331
3DC
  5
3DC
331
3BD
  5
3BD
331
1FC
  5
1FC
331
1DD
  5
1DD
331
21B
  5
21B
331
270
  5
270
331
75F
  5
75F
331
721
  5
721
331
5AD
  5
5AD
331
740
  5
740
331
470
  5
470
331
451
  5
451
331
432
  5
432
331
271
  5
271
331
41B
  5
41B
331
252
  5
252
331
3FC
  5
3FC
331
3DD
  5
3DD
331
3BE
  5
3BE
331
1DE
  5
1DE
331
1FD
  5
1FD
331
21C
  5
21C
331
23B
  5
23B
331
290
  5
290
331
722
  5
722
331
5AE
  5
5AE
331
741
  5
741
331
760
  5
760
331
490
  5
490
331
471
  5
471
331
452
  5
452
331
433
  5
433
331
41C
  5
41C
331
253
  5
253
331
3FD
  5
3FD
331
23C
  5
23C
331
3DE
  5
3DE
331
3BF
  5
3BF
331
1FE
  5
1FE
331
1DF
  5
1DF
331
21D
  5
21D
331
272
  5
272
331
291
  5
291
331
2B0
  5
2B0
331
761
  5
761
331
723
  5
723
331
5AF
  5
5AF
331
742
  5
742
331
4A8
  5
4A8
331
491
  5
491
331
2C8
  5
2C8
331
472
  5
472
331
453
  5
453
331
434
  5
434
331
273
  5
273
331
41D
  5
41D
331
254
  5
254
331
3FE
  5
3FE
331
3DF
  5
3DF
331
3C0
  5
3C0
331
1E0
  5
1E0
331
1FF
  5
1FF
331
21E
  5
21E
331
23D
  5
23D
331
292
  5
292
331
2B1
  5
2B1
331
1C9
  5
1C9
331
724
  5
724
331
5B0
  5
5B0
331
743
  5
743
331
762
  5
762
331
4C8
  5
4C8
331
4A9
  5
4A9
331
492
  5
492
331
2C9
  5
2C9
331
473
  5
473
331
2B2
  5
2B2
331
454
  5
454
331
435
  5
435
331
41E
  5
41E
331
255
  5
255
331
3FF
  5
3FF
331
23E
  5
23E
331
3E0
  5
3E0
331
3C1
  5
3C1
331
200
  5
200
331
1E1
  5
1E1
331
21F
  5
21F
331
274
  5
274
331
293
  5
293
331
2E8
  5
2E8
331
1CA
  5
1CA
331
763
  5
763
331
725
  5
725
331
5B1
  5
5B1
331
744
  5
744
331
4E8
  5
4E8
331
4C9
  5
4C9
331
4AA
  5
4AA
331
2E9
  5
2E9
331
493
  5
493
331
2CA
  5
2CA
331
474
  5
474
331
455
  5
455
331
436
  5
436
331
41F
  5
41F
331
256
  5
256
331
400
  5
400
331
3E1
  5
3E1
331
3C2
  5
3C2
331
1E2
  5
1E2
331
201
  5
201
331
220
  5
220
331
23F
  5
23F
331
275
  5
275
331
294
  5
294
331
2B3
  5
2B3
331
308
  5
308
331
1CB
  5
1CB
331
726
  5
726
331
5B2
  5
5B2
331
649
  5
649
331
745
  5
745
331
508
  5
508
331
4E9
  5
4E9
331
4CA
  5
4CA
331
4AB
  5
4AB
331
494
  5
494
331
2CB
  5
2CB
331
475
  5
475
331
2B4
  5
2B4
331
456
  5
456
331
437
  5
437
331
420
  5
420
331
257
  5
257
331
401
  5
401
331
240
  5
240
331
3E2
  5
3E2
331
3C3
  5
3C3
331
202
  5
202
331
1E3
  5
1E3
331
221
  5
221
331
276
  5
276
331
295
  5
295
331
2EA
  5
2EA
331
309
  5
309
331
328
  5
328
331
1CC
  5
1CC
331
727
  5
727
331
5B3
  5
5B3
331
746
  5
746
  0
DIMASSOC
  5
662
102
{ACAD_REACTORS
330
657
102
}
330
657
100
AcDbDimAssoc
330
649
 90
        3
 70
     0
 71
     0
  1
AcDbOsnapPointRef
 72
     1
331
465
 73
     2
 91
        0
 40
1.0
 10
0.0
 20
0.0
 30
2.000000000000000E+50
 75
     0
  1
AcDbOsnapPointRef
 72
     1
331
466
 73
     2
 91
        0
 40
1.0
 10
0.0
 20
0.0
 30
2.000000000000000E+50
 75
     0
  0
DIMASSOC
  5
67D
102
{ACAD_REACTORS
330
672
102
}
330
672
100
AcDbDimAssoc
330
664
 90
        3
 70
     0
 71
     0
  1
AcDbOsnapPointRef
 72
    13
331
1FF
 73
     2
 91
        0
 40
0.0
 10
0.0
 20
0.0
 30
2.000000000000000E+50
 75
     0
  1
AcDbOsnapPointRef
 72
     1
331
21A
 73
     2
 91
        0
 40
1.0
 10
0.0
 20
0.0
 30
2.000000000000000E+50
 75
     0
  0
LAYOUT
  5
59
102
{ACAD_XDICTIONARY
360
78B
102
}
102
{ACAD_REACTORS
330
1A
102
}
330
1A
100
AcDbPlotSettings
  1

  2
None
  4

  6

 40
0.0
 41
0.0
 42
0.0
 43
0.0
 44
0.0
 45
0.0
 46
0.0
 47
0.0
 48
0.0
 49
0.0
140
0.0
141
0.0
142
1.0
143
1.0
 70
   688
 72
     0
 73
     0
 74
     5
  7

 75
    16
147
1.0
148
0.0
149
0.0
100
AcDbLayout
  1
Layout1
 70
     1
 71
     1
 10
0.0
 20
0.0
 11
12.0
 21
9.0
 12
0.0
 22
0.0
 32
0.0
 14
0.0
 24
0.0
 34
0.0
 15
0.0
 25
0.0
 35
0.0
146
0.0
 13
0.0
 23
0.0
 33
0.0
 16
1.0
 26
0.0
 36
0.0
 17
0.0
 27
1.0
 37
0.0
 76
     0
330
58
  0
LAYOUT
  5
5E
102
{ACAD_XDICTIONARY
360
78D
102
}
102
{ACAD_REACTORS
330
1A
102
}
330
1A
100
AcDbPlotSettings
  1

  2
None
  4

  6

 40
0.0
 41
0.0
 42
0.0
 43
0.0
 44
0.0
 45
0.0
 46
0.0
 47
0.0
 48
0.0
 49
0.0
140
0.0
141
0.0
142
1.0
143
1.0
 70
   688
 72
     0
 73
     0
 74
     5
  7

 75
    16
147
1.0
148
0.0
149
0.0
100
AcDbLayout
  1
Layout2
 70
     1
 71
     2
 10
0.0
 20
0.0
 11
12.0
 21
9.0
 12
0.0
 22
0.0
 32
0.0
 14
0.0
 24
0.0
 34
0.0
 15
0.0
 25
0.0
 35
0.0
146
0.0
 13
0.0
 23
0.0
 33
0.0
 16
1.0
 26
0.0
 36
0.0
 17
0.0
 27
1.0
 37
0.0
 76
     0
330
5D
  0
LAYOUT
  5
22
102
{ACAD_XDICTIONARY
360
789
102
}
102
{ACAD_REACTORS
330
1A
102
}
330
1A
100
AcDbPlotSettings
  1

  2
none_device
  4
ANSI_A_(8.50_x_11.00_Inches)
  6

 40
6.349999904632568
 41
19.04999923706055
 42
6.350006103515625
 43
19.04998779296875
 44
215.8999938964844
 45
279.3999938964844
 46
0.0
 47
0.0
 48
0.0
 49
0.0
140
0.0
141
0.0
142
1.0
143
2.584895464708373
 70
 11952
 72
     0
 73
     1
 74
     0
  7

 75
     0
147
0.3868628397755418
148
0.0
149
0.0
100
AcDbLayout
  1
Model
 70
     1
 71
     0
 10
0.0
 20
0.0
 11
12.0
 21
9.0
 12
0.0
 22
0.0
 32
0.0
 14
0.0
 24
0.0
 34
0.0
 15
0.0
 25
0.0
 35
0.0
146
0.0
 13
0.0
 23
0.0
 33
0.0
 16
1.0
 26
0.0
 36
0.0
 17
0.0
 27
1.0
 37
0.0
 76
     0
330
1F
  0
MLINESTYLE
  5
18
102
{ACAD_REACTORS
330
17
102
}
330
17
100
AcDbMlineStyle
  2
STANDARD
 70
     0
  3

 62
   256
 51
90.0
 52
90.0
 71
     2
 49
0.5
 62
   256
  6
BYLAYER
 49
-0.5
 62
   256
  6
BYLAYER
  0
ACDBPLACEHOLDER
  5
F
102
{ACAD_REACTORS
330
E
102
}
330
E
  0
TABLESTYLE
  5
87
102
{ACAD_REACTORS
330
86
102
}
330
86
100
AcDbTableStyle
  3
Standard
 70
     0
 71
     0
 40
0.06
 41
0.06
280
     0
281
     0
  7
Standard
140
0.18
170
     2
 62
     0
 63
     7
283
     0
274
    -2
284
     1
 64
     0
275
    -2
285
     1
 65
     0
276
    -2
286
     1
 66
     0
277
    -2
287
     1
 67
     0
278
    -2
288
     1
 68
     0
279
    -2
289
     1
 69
     0
  7
Standard
140
0.25
170
     5
 62
     0
 63
     7
283
     0
274
    -2
284
     1
 64
     0
275
    -2
285
     1
 65
     0
276
    -2
286
     1
 66
     0
277
    -2
287
     1
 67
     0
278
    -2
288
     1
 68
     0
279
    -2
289
     1
 69
     0
  7
Standard
140
0.18
170
     5
 62
     0
 63
     7
283
     0
274
    -2
284
     1
 64
     0
275
    -2
285
     1
 65
     0
276
    -2
286
     1
 66
     0
277
    -2
287
     1
 67
     0
278
    -2
288
     1
 68
     0
279
    -2
289
     1
 69
     0
  0
DICTIONARYVAR
  5
E0
102
{ACAD_REACTORS
330
66
102
}
330
66
100
DictionaryVariables
280
     0
  1
STANDARD
  0
DICTIONARYVAR
  5
67
102
{ACAD_REACTORS
330
66
102
}
330
66
100
DictionaryVariables
280
     0
  1
2
  0
DICTIONARYVAR
  5
6B
102
{ACAD_REACTORS
330
66
102
}
330
66
100
DictionaryVariables
280
     0
  1
1
  0
DICTIONARYVAR
  5
786
102
{ACAD_REACTORS
330
66
102
}
330
66
100
DictionaryVariables
280
     0
  1

  0
DICTIONARY
  5
78B
330
59
100
AcDbDictionary
280
     1
281
     1
  3
ACAD_XREC_ROUNDTRIP
360
78C
  0
DICTIONARY
  5
78D
330
5E
100
AcDbDictionary
280
     1
281
     1
  3
ACAD_XREC_ROUNDTRIP
360
78E
  0
DICTIONARY
  5
789
330
22
100
AcDbDictionary
280
     1
281
     1
  3
ACAD_XREC_ROUNDTRIP
360
78A
  0
XRECORD
  5
78C
102
{ACAD_REACTORS
330
78B
102
}
330
78B
100
AcDbXrecord
280
     1
102
SHADEPLOT
 70
     0
102
SHADEPLOTRESLEVEL
 70
     2
102
SHADEPLOTCUSTOMDPI
 70
   300
  0
XRECORD
  5
78E
102
{ACAD_REACTORS
330
78D
102
}
330
78D
100
AcDbXrecord
280
     1
102
SHADEPLOT
 70
     0
102
SHADEPLOTRESLEVEL
 70
     2
102
SHADEPLOTCUSTOMDPI
 70
   300
  0
XRECORD
  5
78A
102
{ACAD_REACTORS
330
789
102
}
330
789
100
AcDbXrecord
280
     1
102
SHADEPLOT
 70
     0
102
SHADEPLOTRESLEVEL
 70
     2
102
SHADEPLOTCUSTOMDPI
 70
   300
  0
ENDSEC
  0
EOF
