  0
SECTION
  2
HEADER
  9
$ACADVER
  1
AC1015
  9
$ACADMAINTVER
 70
    20
  9
$DWGCODEPAGE
  3
ANSI_1252
  9
$INSBASE
 10
0.0
 20
0.0
 30
0.0
  9
$EXTMIN
 10
-0.075
 20
-0.075
 30
0.0
  9
$EXTMAX
 10
22.075
 20
17.075
 30
0.0
  9
$LIMMIN
 10
0.0
 20
0.0
  9
$LIMMAX
 10
12.0
 20
9.0
  9
$ORTHOMODE
 70
     0
  9
$REGENMODE
 70
     1
  9
$FILLMODE
 70
     1
  9
$QTEXTMODE
 70
     0
  9
$MIRRTEXT
 70
     1
  9
$LTSCALE
 40
1.0
  9
$ATTMODE
 70
     1
  9
$TEXTSIZE
 40
0.09
  9
$TRACEWID
 40
0.05
  9
$TEXTSTYLE
  7
STANDARD
  9
$CLAYER
  8
0
  9
$CELTYPE
  6
BYLAYER
  9
$CECOLOR
 62
   256
  9
$CELTSCALE
 40
1.0
  9
$DISPSILH
 70
     0
  9
$DIMSCALE
 40
1.0
  9
$DIMASZ
 40
0.125
  9
$DIMEXO
 40
0.0625
  9
$DIMDLI
 40
0.38
  9
$DIMRND
 40
0.0
  9
$DIMDLE
 40
0.0
  9
$DIMEXE
 40
0.125
  9
$DIMTP
 40
0.0
  9
$DIMTM
 40
0.0
  9
$DIMTXT
 40
0.09
  9
$DIMCEN
 40
0.09
  9
$DIMTSZ
 40
0.0
  9
$DIMTOL
 70
     0
  9
$DIMLIM
 70
     0
  9
$DIMTIH
 70
     1
  9
$DIMTOH
 70
     1
  9
$DIMSE1
 70
     0
  9
$DIMSE2
 70
     0
  9
$DIMTAD
 70
     0
  9
$DIMZIN
 70
     0
  9
$DIMBLK
  1

  9
$DIMASO
 70
     1
  9
$DIMSHO
 70
     1
  9
$DIMPOST
  1

  9
$DIMAPOST
  1
mm
  9
$DIMALT
 70
     1
  9
$DIMALTD
 70
     1
  9
$DIMALTF
 40
25.4
  9
$DIMLFAC
 40
1.0
  9
$DIMTOFL
 70
     0
  9
$DIMTVP
 40
0.0
  9
$DIMTIX
 70
     0
  9
$DIMSOXD
 70
     0
  9
$DIMSAH
 70
     0
  9
$DIMBLK1
  1

  9
$DIMBLK2
  1

  9
$DIMSTYLE
  2
STANDARD
  9
$DIMCLRD
 70
     0
  9
$DIMCLRE
 70
     0
  9
$DIMCLRT
 70
     0
  9
$DIMTFAC
 40
1.0
  9
$DIMGAP
 40
0.09
  9
$DIMJUST
 70
     0
  9
$DIMSD1
 70
     0
  9
$DIMSD2
 70
     0
  9
$DIMTOLJ
 70
     1
  9
$DIMTZIN
 70
     0
  9
$DIMALTZ
 70
     0
  9
$DIMALTTZ
 70
     0
  9
$DIMUPT
 70
     0
  9
$DIMDEC
 70
     2
  9
$DIMTDEC
 70
     2
  9
$DIMALTU
 70
     2
  9
$DIMALTTD
 70
     1
  9
$DIMTXSTY
  7
STANDARD
  9
$DIMAUNIT
 70
     0
  9
$DIMADEC
 70
     0
  9
$DIMALTRND
 40
0.0
  9
$DIMAZIN
 70
     0
  9
$DIMDSEP
 70
    46
  9
$DIMATFIT
 70
     3
  9
$DIMFRAC
 70
     0
  9
$DIMLDRBLK
  1

  9
$DIMLUNIT
 70
     2
  9
$DIMLWD
 70
    -2
  9
$DIMLWE
 70
    -2
  9
$DIMTMOVE
 70
     0
  9
$LUNITS
 70
     2
  9
$LUPREC
 70
     2
  9
$SKETCHINC
 40
0.1
  9
$FILLETRAD
 40
0.5
  9
$AUNITS
 70
     0
  9
$AUPREC
 70
     0
  9
$MENU
  1
.
  9
$ELEVATION
 40
0.0
  9
$PELEVATION
 40
0.0
  9
$THICKNESS
 40
0.0
  9
$LIMCHECK
 70
     0
  9
$CHAMFERA
 40
0.5
  9
$CHAMFERB
 40
0.5
  9
$CHAMFERC
 40
1.0
  9
$CHAMFERD
 40
0.0
  9
$SKPOLY
 70
     0
  9
$TDCREATE
 40
2451681.555436007
  9
$TDUCREATE
 40
2451681.763769340
  9
$TDUPDATE
 40
2454294.655213554
  9
$TDUUPDATE
 40
2454294.863546887
  9
$TDINDWG
 40
0.2226250926
  9
$TDUSRTIMER
 40
0.2226250926
  9
$USRTIMER
 70
     1
  9
$ANGBASE
 50
0.0
  9
$ANGDIR
 70
     0
  9
$PDMODE
 70
     2
  9
$PDSIZE
 40
0.075
  9
$PLINEWID
 40
0.0
  9
$SPLFRAME
 70
     0
  9
$SPLINETYPE
 70
     6
  9
$SPLINESEGS
 70
     8
  9
$HANDSEED
  5
C02
  9
$SURFTAB1
 70
     6
  9
$SURFTAB2
 70
     6
  9
$SURFTYPE
 70
     6
  9
$SURFU
 70
     6
  9
$SURFV
 70
     6
  9
$UCSBASE
  2

  9
$UCSNAME
  2

  9
$UCSORG
 10
0.0
 20
0.0
 30
0.0
  9
$UCSXDIR
 10
1.0
 20
0.0
 30
0.0
  9
$UCSYDIR
 10
0.0
 20
1.0
 30
0.0
  9
$UCSORTHOREF
  2

  9
$UCSORTHOVIEW
 70
     0
  9
$UCSORGTOP
 10
0.0
 20
0.0
 30
0.0
  9
$UCSORGBOTTOM
 10
0.0
 20
0.0
 30
0.0
  9
$UCSORGLEFT
 10
0.0
 20
0.0
 30
0.0
  9
$UCSORGRIGHT
 10
0.0
 20
0.0
 30
0.0
  9
$UCSORGFRONT
 10
0.0
 20
0.0
 30
0.0
  9
$UCSORGBACK
 10
0.0
 20
0.0
 30
0.0
  9
$PUCSBASE
  2

  9
$PUCSNAME
  2

  9
$PUCSORG
 10
0.0
 20
0.0
 30
0.0
  9
$PUCSXDIR
 10
1.0
 20
0.0
 30
0.0
  9
$PUCSYDIR
 10
0.0
 20
1.0
 30
0.0
  9
$PUCSORTHOREF
  2

  9
$PUCSORTHOVIEW
 70
     0
  9
$PUCSORGTOP
 10
0.0
 20
0.0
 30
0.0
  9
$PUCSORGBOTTOM
 10
0.0
 20
0.0
 30
0.0
  9
$PUCSORGLEFT
 10
0.0
 20
0.0
 30
0.0
  9
$PUCSORGRIGHT
 10
0.0
 20
0.0
 30
0.0
  9
$PUCSORGFRONT
 10
0.0
 20
0.0
 30
0.0
  9
$PUCSORGBACK
 10
0.0
 20
0.0
 30
0.0
  9
$USERI1
 70
     0
  9
$USERI2
 70
     0
  9
$USERI3
 70
     0
  9
$USERI4
 70
     0
  9
$USERI5
 70
     0
  9
$USERR1
 40
0.0
  9
$USERR2
 40
0.0
  9
$USERR3
 40
0.0
  9
$USERR4
 40
0.0
  9
$USERR5
 40
0.0
  9
$WORLDVIEW
 70
     1
  9
$SHADEDGE
 70
     3
  9
$SHADEDIF
 70
    70
  9
$TILEMODE
 70
     1
  9
$MAXACTVP
 70
    48
  9
$PINSBASE
 10
0.0
 20
0.0
 30
0.0
  9
$PLIMCHECK
 70
     0
  9
$PEXTMIN
 10
1.000000000000000E+20
 20
1.000000000000000E+20
 30
1.000000000000000E+20
  9
$PEXTMAX
 10
-1.000000000000000E+20
 20
-1.000000000000000E+20
 30
-1.000000000000000E+20
  9
$PLIMMIN
 10
0.0
 20
0.0
  9
$PLIMMAX
 10
12.0
 20
9.0
  9
$UNITMODE
 70
     0
  9
$VISRETAIN
 70
     1
  9
$PLINEGEN
 70
     0
  9
$PSLTSCALE
 70
     1
  9
$TREEDEPTH
 70
  3020
  9
$CMLSTYLE
  2
STANDARD
  9
$CMLJUST
 70
     0
  9
$CMLSCALE
 40
1.0
  9
$PROXYGRAPHICS
 70
     1
  9
$MEASUREMENT
 70
     0
  9
$CELWEIGHT
370
    -1
  9
$ENDCAPS
280
     0
  9
$JOINSTYLE
280
     0
  9
$LWDISPLAY
290
     0
  9
$INSUNITS
 70
     0
  9
$HYPERLINKBASE
  1

  9
$STYLESHEET
  1

  9
$XEDIT
290
     1
  9
$CEPSNTYPE
380
     0
  9
$PSTYLEMODE
290
     1
  9
$FINGERPRINTGUID
  2
{71EC7F31-AA06-4ECF-8D30-7E7FC2EDBC33}
  9
$VERSIONGUID
  2
{8C8108C4-2A02-433E-A16B-70D975B860AC}
  9
$EXTNAMES
290
     1
  9
$PSVPSCALE
 40
0.0
  9
$OLESTARTUP
290
     0
  0
ENDSEC
  0
SECTION
  2
CLASSES
  0
CLASS
  1
ACDBDICTIONARYWDFLT
  2
AcDbDictionaryWithDefault
  3
ObjectDBX Classes
 90
        0
280
     0
281
     0
  0
CLASS
  1
TABLESTYLE
  2
AcDbTableStyle
  3
ObjectDBX Classes
 90
     2047
280
     0
281
     0
  0
CLASS
  1
DICTIONARYVAR
  2
AcDbDictionaryVar
  3
ObjectDBX Classes
 90
        0
280
     0
281
     0
  0
CLASS
  1
ACDBPLACEHOLDER
  2
AcDbPlaceHolder
  3
ObjectDBX Classes
 90
        0
280
     0
281
     0
  0
CLASS
  1
LAYOUT
  2
AcDbLayout
  3
ObjectDBX Classes
 90
        0
280
     0
281
     0
  0
ENDSEC
  0
SECTION
  2
TABLES
  0
TABLE
  2
VPORT
  5
8
330
0
100
AcDbSymbolTable
 70
     2
  0
VPORT
  5
BFC
330
8
100
AcDbSymbolTableRecord
100
AcDbViewportTableRecord
  2
*Active
 70
     0
 10
0.0
 20
0.0
 11
1.0
 21
1.0
 12
11.00000020629897
 22
9.103910716622127
 13
0.0
 23
0.0
 14
0.5
 24
0.5
 15
0.5
 25
0.5
 16
0.0
 26
0.0
 36
1.0
 17
0.0
 27
0.0
 37
0.0
 40
18.4693371090867
 41
1.499364675984752
 42
50.0
 43
0.0
 44
0.0
 50
0.0
 51
0.0
 71
     0
 72
   100
 73
     1
 74
     1
 75
     0
 76
     0
 77
     0
 78
     0
281
     0
 65
     1
110
0.0
120
0.0
130
0.0
111
1.0
121
0.0
131
0.0
112
0.0
122
1.0
132
0.0
 79
     0
146
0.0
  0
ENDTAB
  0
TABLE
  2
LTYPE
  5
5
330
0
100
AcDbSymbolTable
 70
     1
  0
LTYPE
  5
12
330
5
100
AcDbSymbolTableRecord
100
AcDbLinetypeTableRecord
  2
BYBLOCK
 70
     0
  3

 72
    65
 73
     0
 40
0.0
  0
LTYPE
  5
13
330
5
100
AcDbSymbolTableRecord
100
AcDbLinetypeTableRecord
  2
BYLAYER
 70
     0
  3

 72
    65
 73
     0
 40
0.0
  0
LTYPE
  5
14
330
5
100
AcDbSymbolTableRecord
100
AcDbLinetypeTableRecord
  2
CONTINUOUS
 70
     0
  3
Solid line
 72
    65
 73
     0
 40
0.0
  0
ENDTAB
  0
TABLE
  2
LAYER
  5
2
102
{ACAD_XDICTIONARY
360
154
102
}
330
0
100
AcDbSymbolTable
 70
     6
  0
LAYER
  5
E
330
2
100
AcDbSymbolTableRecord
100
AcDbLayerTableRecord
  2
0
 70
     0
 62
     7
  6
CONTINUOUS
370
    -3
390
10B
  0
LAYER
  5
20
330
2
100
AcDbSymbolTableRecord
100
AcDbLayerTableRecord
  2
Title Block
 70
     0
 62
     3
  6
CONTINUOUS
370
    -3
390
10B
  0
LAYER
  5
21
330
2
100
AcDbSymbolTableRecord
100
AcDbLayerTableRecord
  2
Dimension
 70
     0
 62
     6
  6
CONTINUOUS
370
    -3
390
10B
  0
LAYER
  5
22
330
2
100
AcDbSymbolTableRecord
100
AcDbLayerTableRecord
  2
Text
 70
     0
 62
     1
  6
CONTINUOUS
370
    -3
390
10B
  0
LAYER
  5
23
330
2
100
AcDbSymbolTableRecord
100
AcDbLayerTableRecord
  2
Object
 70
     0
 62
     5
  6
CONTINUOUS
370
    -3
390
10B
  0
LAYER
  5
179
330
2
100
AcDbSymbolTableRecord
100
AcDbLayerTableRecord
  2
Defpoints
 70
     0
 62
     7
  6
CONTINUOUS
290
     0
370
    -3
390
10B
  0
ENDTAB
  0
TABLE
  2
STYLE
  5
3
330
0
100
AcDbSymbolTable
 70
     1
  0
STYLE
  5
F
330
3
100
AcDbSymbolTableRecord
100
AcDbTextStyleTableRecord
  2
STANDARD
 70
     0
 40
0.0
 41
1.0
 50
0.0
 71
     0
 42
0.09
  3
technic_.ttf
  4

1001
ACAD
1000
Technic
1071
      514
  0
ENDTAB
  0
TABLE
  2
VIEW
  5
6
330
0
100
AcDbSymbolTable
 70
     0
  0
ENDTAB
  0
TABLE
  2
UCS
  5
7
330
0
100
AcDbSymbolTable
 70
     0
  0
ENDTAB
  0
TABLE
  2
APPID
  5
9
330
0
100
AcDbSymbolTable
 70
     4
  0
APPID
  5
10
330
9
100
AcDbSymbolTableRecord
100
AcDbRegAppTableRecord
  2
ACAD
 70
     0
  0
APPID
  5
149
330
9
100
AcDbSymbolTableRecord
100
AcDbRegAppTableRecord
  2
DCO15
 70
     0
  0
APPID
  5
153
330
9
100
AcDbSymbolTableRecord
100
AcDbRegAppTableRecord
  2
AcAecLayerStandard
 70
     0
  0
APPID
  5
1A9
330
9
100
AcDbSymbolTableRecord
100
AcDbRegAppTableRecord
  2
ACAD_DSTYLE_DIMTEXT_FILL
 70
     0
  0
ENDTAB
  0
TABLE
  2
DIMSTYLE
  5
A
330
0
100
AcDbSymbolTable
 70
     1
100
AcDbDimStyleTable
 71
     1
340
1D
  0
DIMSTYLE
105
1D
102
{ACAD_REACTORS
330
B55
330
B63
330
B71
330
BBC
102
}
330
A
100
AcDbSymbolTableRecord
100
AcDbDimStyleTableRecord
  2
STANDARD
 70
     0
  4
mm
 41
0.125
 44
0.125
140
0.09
170
     1
171
     1
271
     2
272
     2
274
     1
340
F
  0
ENDTAB
  0
TABLE
  2
BLOCK_RECORD
  5
1
330
0
100
AcDbSymbolTable
 70
     4
  0
BLOCK_RECORD
  5
18
330
1
100
AcDbSymbolTableRecord
100
AcDbBlockTableRecord
  2
*MODEL_SPACE
340
112
  0
BLOCK_RECORD
  5
15
330
1
100
AcDbSymbolTableRecord
100
AcDbBlockTableRecord
  2
*PAPER_SPACE
340
113
  0
BLOCK_RECORD
  5
B56
330
1
100
AcDbSymbolTableRecord
100
AcDbBlockTableRecord
  2
*D0
340
0
  0
BLOCK_RECORD
  5
B64
330
1
100
AcDbSymbolTableRecord
100
AcDbBlockTableRecord
  2
*D1
340
0
  0
BLOCK_RECORD
  5
B72
330
1
100
AcDbSymbolTableRecord
100
AcDbBlockTableRecord
  2
*D2
340
0
  0
BLOCK_RECORD
  5
BBD
330
1
100
AcDbSymbolTableRecord
100
AcDbBlockTableRecord
  2
*D3
340
0
  0
ENDTAB
  0
ENDSEC
  0
SECTION
  2
BLOCKS
  0
BLOCK
  5
19
330
18
100
AcDbEntity
  8
0
100
AcDbBlockBegin
  2
*MODEL_SPACE
 70
     0
 10
0.0
 20
0.0
 30
0.0
  3
*MODEL_SPACE
  1

  0
ENDBLK
  5
1A
330
18
100
AcDbEntity
  8
0
100
AcDbBlockEnd
  0
BLOCK
  5
16
330
15
100
AcDbEntity
 67
     1
  8
0
100
AcDbBlockBegin
  2
*PAPER_SPACE
 70
     0
 10
0.0
 20
0.0
 30
0.0
  3
*PAPER_SPACE
  1

  0
ENDBLK
  5
17
330
15
100
AcDbEntity
 67
     1
  8
0
100
AcDbBlockEnd
  0
BLOCK
  5
B61
330
B56
100
AcDbEntity
  8
0
100
AcDbBlockBegin
  2
*D0
 70
     1
 10
0.0
 20
0.0
 30
0.0
  3
*D0
  1

  0
LINE
  5
B57
330
B56
100
AcDbEntity
  8
Dimension
 62
     0
370
    -2
100
AcDbLine
 10
11.7575
 20
13.243
 30
0.0
 11
13.39933728207646
 21
13.243
 31
0.0
  0
LINE
  5
B58
330
B56
100
AcDbEntity
  8
Dimension
 62
     0
370
    -2
100
AcDbLine
 10
11.7575
 20
11.243
 30
0.0
 11
13.39933728207646
 21
11.243
 31
0.0
  0
LINE
  5
B59
330
B56
100
AcDbEntity
  8
Dimension
 62
     0
370
    -2
100
AcDbLine
 10
13.27433728207646
 20
13.118
 30
0.0
 11
13.27433728207646
 21
12.39602631578947
 31
0.0
  0
LINE
  5
B5A
330
B56
100
AcDbEntity
  8
Dimension
 62
     0
370
    -2
100
AcDbLine
 10
13.27433728207646
 20
11.368
 30
0.0
 11
13.27433728207646
 21
12.08997368421052
 31
0.0
  0
SOLID
  5
B5B
330
B56
100
AcDbEntity
  8
Dimension
 62
     0
100
AcDbTrace
 10
13.25350394874312
 20
13.118
 30
0.0
 11
13.29517061540979
 21
13.118
 31
0.0
 12
13.27433728207646
 22
13.243
 32
0.0
 13
13.27433728207646
 23
13.243
 33
0.0
  0
SOLID
  5
B5C
330
B56
100
AcDbEntity
  8
Dimension
 62
     0
100
AcDbTrace
 10
13.25350394874312
 20
11.368
 30
0.0
 11
13.29517061540979
 21
11.368
 31
0.0
 12
13.27433728207646
 22
11.243
 32
0.0
 13
13.27433728207646
 23
11.243
 33
0.0
  0
MTEXT
  5
B5D
330
B56
100
AcDbEntity
  8
Dimension
 62
     0
100
AcDbMText
 10
13.27433728207645
 20
12.243
 30
0.0
 40
0.09
 41
0.0
 71
     5
 72
     1
  1
\A1;2.00 [50.8mm]
 73
     1
 44
1.0
1001
ACAD
1000
MTEXTBEGIN
1070
    73
1070
     1
1070
    44
1040
1.0
1070
    74
1070
     0
1000
MTEXTEND
  0
POINT
  5
B5E
330
B56
100
AcDbEntity
  8
Defpoints
 62
     0
100
AcDbPoint
 10
11.695
 20
13.243
 30
0.0
  0
POINT
  5
B5F
330
B56
100
AcDbEntity
  8
Defpoints
 62
     0
100
AcDbPoint
 10
11.695
 20
11.243
 30
0.0
  0
POINT
  5
B60
330
B56
100
AcDbEntity
  8
Defpoints
 62
     0
100
AcDbPoint
 10
13.27433728207646
 20
11.243
 30
0.0
  0
ENDBLK
  5
B62
330
B56
100
AcDbEntity
  8
0
100
AcDbBlockEnd
  0
BLOCK
  5
B6F
330
B64
100
AcDbEntity
  8
0
100
AcDbBlockBegin
  2
*D1
 70
     1
 10
0.0
 20
0.0
 30
0.0
  3
*D1
  1

  0
LINE
  5
B65
330
B64
100
AcDbEntity
  8
Dimension
 62
     0
370
    -2
100
AcDbLine
 10
2.069999999999999
 20
5.378499999999999
 30
0.0
 11
2.069999999999999
 21
6.481984928013126
 31
0.0
  0
LINE
  5
B66
330
B64
100
AcDbEntity
  8
Dimension
 62
     0
370
    -2
100
AcDbLine
 10
12.07
 20
5.378499999999999
 30
0.0
 11
12.07
 21
6.481984928013126
 31
0.0
  0
LINE
  5
B67
330
B64
100
AcDbEntity
  8
Dimension
 62
     0
370
    -2
100
AcDbLine
 10
2.194999999999999
 20
6.356984928013126
 30
0.0
 11
6.519605263157894
 21
6.356984928013126
 31
0.0
  0
LINE
  5
B68
330
B64
100
AcDbEntity
  8
Dimension
 62
     0
370
    -2
100
AcDbLine
 10
11.945
 20
6.356984928013126
 30
0.0
 11
7.620394736842105
 21
6.356984928013126
 31
0.0
  0
SOLID
  5
B69
330
B64
100
AcDbEntity
  8
Dimension
 62
     0
100
AcDbTrace
 10
2.194999999999999
 20
6.377818261346459
 30
0.0
 11
2.194999999999999
 21
6.336151594679793
 31
0.0
 12
2.069999999999999
 22
6.356984928013126
 32
0.0
 13
2.069999999999999
 23
6.356984928013126
 33
0.0
  0
SOLID
  5
B6A
330
B64
100
AcDbEntity
  8
Dimension
 62
     0
100
AcDbTrace
 10
11.945
 20
6.377818261346459
 30
0.0
 11
11.945
 21
6.336151594679793
 31
0.0
 12
12.07
 22
6.356984928013126
 32
0.0
 13
12.07
 23
6.356984928013126
 33
0.0
  0
MTEXT
  5
B6B
330
B64
100
AcDbEntity
  8
Dimension
 62
     0
100
AcDbMText
 10
7.07
 20
6.356984928013126
 30
0.0
 40
0.09
 41
0.0
 71
     5
 72
     1
  1
\A1;10.00 [254.0mm]
 73
     1
 44
1.0
1001
ACAD
1000
MTEXTBEGIN
1070
    73
1070
     1
1070
    44
1040
1.0
1070
    74
1070
     0
1000
MTEXTEND
  0
POINT
  5
B6C
330
B64
100
AcDbEntity
  8
Defpoints
 62
     0
100
AcDbPoint
 10
2.069999999999999
 20
5.315999999999999
 30
0.0
  0
POINT
  5
B6D
330
B64
100
AcDbEntity
  8
Defpoints
 62
     0
100
AcDbPoint
 10
12.07
 20
5.315999999999999
 30
0.0
  0
POINT
  5
B6E
330
B64
100
AcDbEntity
  8
Defpoints
 62
     0
100
AcDbPoint
 10
12.07
 20
6.356984928013126
 30
0.0
  0
ENDBLK
  5
B70
330
B64
100
AcDbEntity
  8
0
100
AcDbBlockEnd
  0
BLOCK
  5
B7D
330
B72
100
AcDbEntity
  8
0
100
AcDbBlockBegin
  2
*D2
 70
     1
 10
0.0
 20
0.0
 30
0.0
  3
*D2
  1

  0
LINE
  5
B73
330
B72
100
AcDbEntity
  8
Dimension
 62
     0
370
    -2
100
AcDbLine
 10
16.7575
 20
5.315999999999999
 30
0.0
 11
15.71237368323339
 21
5.315999999999999
 31
0.0
  0
LINE
  5
B74
330
B72
100
AcDbEntity
  8
Dimension
 62
     0
370
    -2
100
AcDbLine
 10
17.5385
 20
4.911999999999999
 30
0.0
 11
15.71237368323339
 21
4.911999999999999
 31
0.0
  0
LINE
  5
B75
330
B72
100
AcDbEntity
  8
Dimension
 62
     0
370
    -2
100
AcDbLine
 10
15.83737368323339
 20
5.440999999999999
 30
0.0
 11
15.83737368323339
 21
5.565999999999999
 31
0.0
  0
LINE
  5
B76
330
B72
100
AcDbEntity
  8
Dimension
 62
     0
370
    -2
100
AcDbLine
 10
15.83737368323339
 20
4.786999999999999
 30
0.0
 11
15.83737368323339
 21
4.661999999999999
 31
0.0
  0
SOLID
  5
B77
330
B72
100
AcDbEntity
  8
Dimension
 62
     0
100
AcDbTrace
 10
15.81654034990006
 20
5.440999999999999
 30
0.0
 11
15.85820701656673
 21
5.440999999999999
 31
0.0
 12
15.83737368323339
 22
5.315999999999999
 32
0.0
 13
15.83737368323339
 23
5.315999999999999
 33
0.0
  0
SOLID
  5
B78
330
B72
100
AcDbEntity
  8
Dimension
 62
     0
100
AcDbTrace
 10
15.81654034990006
 20
4.786999999999999
 30
0.0
 11
15.85820701656673
 21
4.786999999999999
 31
0.0
 12
15.83737368323339
 22
4.911999999999999
 32
0.0
 13
15.83737368323339
 23
4.911999999999999
 33
0.0
  0
MTEXT
  5
B79
330
B72
100
AcDbEntity
  8
Dimension
 62
     0
100
AcDbMText
 10
15.83737368323339
 20
5.114000000000002
 30
0.0
 40
0.09
 41
0.0
 71
     5
 72
     1
  1
\A1;0.40 [10.3mm]
 73
     1
 44
1.0
1001
ACAD
1000
MTEXTBEGIN
1070
    73
1070
     1
1070
    44
1040
1.0
1070
    74
1070
     0
1000
MTEXTEND
  0
POINT
  5
B7A
330
B72
100
AcDbEntity
  8
Defpoints
 62
     0
100
AcDbPoint
 10
16.82
 20
5.315999999999999
 30
0.0
  0
POINT
  5
B7B
330
B72
100
AcDbEntity
  8
Defpoints
 62
     0
100
AcDbPoint
 10
17.601
 20
4.911999999999999
 30
0.0
  0
POINT
  5
B7C
330
B72
100
AcDbEntity
  8
Defpoints
 62
     0
100
AcDbPoint
 10
15.83737368323339
 20
4.911999999999999
 30
0.0
  0
ENDBLK
  5
B7E
330
B72
100
AcDbEntity
  8
0
100
AcDbBlockEnd
  0
BLOCK
  5
BC6
330
BBD
100
AcDbEntity
  8
0
100
AcDbBlockBegin
  2
*D3
 70
     1
 10
0.0
 20
0.0
 30
0.0
  3
*D3
  1

  0
LINE
  5
BDA
330
BBD
100
AcDbEntity
  8
Dimension
 62
     0
370
    -2
100
AcDbLine
 10
4.252165673271449
 20
10.76815705035241
 30
0.0
 11
4.127165673271449
 21
10.76815705035241
 31
0.0
  0
LINE
  5
BDB
330
BBD
100
AcDbEntity
  8
Dimension
 62
     0
370
    -2
100
AcDbLine
 10
4.127165673271449
 20
10.76815705035241
 30
0.0
 11
3.331140458139532
 21
11.87868514066201
 31
0.0
  0
MTEXT
  5
BDC
330
BBD
100
AcDbEntity
  8
Dimension
 62
     0
100
AcDbMText
 10
4.866047252218816
 20
10.76815705035241
 30
0.0
 40
0.09
 41
0.0
 71
     5
 72
     1
  1
\A1;0.65 DIA [16.5mm]
 73
     1
 44
1.0
1001
ACAD
1000
MTEXTBEGIN
1070
    73
1070
     1
1070
    44
1040
1.0
1070
    74
1070
     0
1000
MTEXTEND
  0
SOLID
  5
BDD
330
BBD
100
AcDbEntity
  8
Dimension
 62
     0
100
AcDbTrace
 10
3.348073088790986
 20
11.89082243018642
 30
0.0
 11
3.314207827488078
 21
11.86654785113761
 31
0.0
 12
3.258316720993102
 22
11.98028092457074
 32
0.0
 13
3.258316720993102
 23
11.98028092457074
 33
0.0
  0
POINT
  5
BDE
330
BBD
100
AcDbEntity
  8
Defpoints
 62
     0
100
AcDbPoint
 10
3.258316720993102
 20
11.98028092457074
 30
0.0
  0
POINT
  5
BDF
330
BBD
100
AcDbEntity
  8
Defpoints
 62
     0
100
AcDbPoint
 10
2.881683279006899
 20
12.50571907542926
 30
0.0
  0
ENDBLK
  5
BC7
330
BBD
100
AcDbEntity
  8
0
100
AcDbBlockEnd
  0
ENDSEC
  0
SECTION
  2
ENTITIES
  0
TEXT
  5
51
330
18
100
AcDbEntity
  8
Title Block
100
AcDbText
 10
17.77669501265554
 20
2.672489851525508
 30
0.0
 40
0.05
  1
FILENAME:
100
AcDbText
  0
TEXT
  5
52
330
18
100
AcDbEntity
  8
Title Block
100
AcDbText
 10
17.76928502872825
 20
2.076224967549325
 30
0.0
 40
0.35
  1
PANDUIT
100
AcDbText
  0
TEXT
  5
53
330
18
100
AcDbEntity
  8
Title Block
100
AcDbText
 10
19.72182039882138
 20
2.061410940562986
 30
0.0
 40
0.125
  1
CORP. TINLEY PARK, IL
100
AcDbText
  0
TEXT
  5
54
330
18
100
AcDbEntity
  8
Title Block
100
AcDbText
 10
17.78039997670861
 20
1.91697409709392
 30
0.0
 40
0.05
  1
TITLE:
100
AcDbText
  0
MTEXT
  5
57
330
18
100
AcDbEntity
  8
Title Block
100
AcDbMText
 10
19.0
 20
1.372215793536348
 30
0.0
 40
0.075
 41
2.5
 71
     5
 72
     5
  1
UNLESS OTHERWISE SPECIFIED,\PDIMENSIONAL TOLERANCES ARE:       
 73
     1
 44
1.0
1001
ACAD
1000
MTEXTBEGIN
1070
    73
1070
     1
1070
    44
1040
1.0
1070
    74
1070
     0
1000
MTEXTEND
  0
MTEXT
  5
58
330
18
100
AcDbEntity
  8
Title Block
100
AcDbMText
 10
18.39237986661001
 20
1.131487708483632
 30
0.0
 40
0.075
 41
2.5
 71
     5
 72
     5
  1
(.X)\P(.XX)
 73
     1
 44
1.0
1001
ACAD
1000
MTEXTBEGIN
1070
    73
1070
     1
1070
    44
1040
1.0
1070
    74
1070
     0
1000
MTEXTEND
  0
MTEXT
  5
59
330
18
100
AcDbEntity
  8
Title Block
100
AcDbMText
 10
19.40014005312411
 20
1.131487708483632
 30
0.0
 40
0.075
 41
2.5
 71
     5
 72
     5
  1
(.XXX)\PANGLES:
 73
     1
 44
1.0
1001
ACAD
1000
MTEXTBEGIN
1070
    73
1070
     1
1070
    44
1040
1.0
1070
    74
1070
     0
1000
MTEXTEND
  0
MTEXT
  5
5A
330
18
100
AcDbEntity
  8
Title Block
100
AcDbMText
 10
21.0
 20
1.25
 30
0.0
 40
0.06
 41
1.5
 71
     5
 72
     5
  1
UNLESS OTHERWISE SPECIFIED,\PALL DIMENSIONS ARE GIVEN IN INCHES, THIRD ANGLE PROJECTION
 73
     1
 44
1.0
1001
ACAD
1000
MTEXTBEGIN
1070
    73
1070
     1
1070
    44
1040
1.0
1070
    74
1070
     0
1000
MTEXTEND
  0
TEXT
  5
5E
330
18
100
AcDbEntity
  8
Title Block
100
AcDbText
 10
17.76076445430618
 20
0.9281373372752312
 30
0.0
 40
0.05
  1
DRAWN BY:
100
AcDbText
  0
TEXT
  5
5F
330
18
100
AcDbEntity
  8
Title Block
100
AcDbText
 10
17.76446947418043
 20
0.6811431865635028
 30
0.0
 40
0.05
  1
DATE:
100
AcDbText
  0
TEXT
  5
60
330
18
100
AcDbEntity
  8
Title Block
100
AcDbText
 10
17.76817443823349
 20
0.4304455338317968
 30
0.0
 40
0.05
  1
CHECKED BY:
100
AcDbText
  0
TEXT
  5
62
330
18
100
AcDbEntity
  8
Title Block
100
AcDbText
 10
18.52028959313306
 20
0.9281373372752312
 30
0.0
 40
0.05
  1
MATERIAL:
100
AcDbText
  0
TEXT
  5
63
330
18
100
AcDbEntity
  8
Title Block
100
AcDbText
 10
20.26534493878154
 20
0.9281373372752312
 30
0.0
 40
0.05
  1
SCALE:
100
AcDbText
  0
TEXT
  5
64
330
18
100
AcDbEntity
  8
Title Block
100
AcDbText
 10
20.26534493878154
 20
0.6725952630490007
 30
0.0
 40
0.05
  1
DRAWING NUMBER:
100
AcDbText
  0
TEXT
  5
65
330
18
100
AcDbEntity
  8
Title Block
100
AcDbText
 10
21.34942622928997
 20
0.6762987650689816
 30
0.0
 40
0.05
  1
DRAWING
100
AcDbText
  0
TEXT
  5
66
330
18
100
AcDbEntity
  8
Title Block
100
AcDbText
 10
21.42723125590085
 20
0.2811642688682026
 30
0.0
 40
0.05
  1
SIZE
100
AcDbText
  0
TEXT
  5
67
330
18
100
AcDbEntity
  8
Title Block
100
AcDbText
 10
21.39373130657865
 20
0.3826699445861052
 30
0.0
 40
0.25
  1
C
100
AcDbText
  0
MTEXT
  5
68
330
18
100
AcDbEntity
  8
Title Block
100
AcDbMText
 10
11.37499999999999
 20
0.375
 30
0.0
 40
0.05
 41
0.25
 71
     5
 72
     5
  1
REV
 73
     1
 44
1.0
1001
ACAD
1000
MTEXTBEGIN
1070
    73
1070
     1
1070
    44
1040
1.0
1070
    74
1070
     0
1000
MTEXTEND
  0
MTEXT
  5
69
330
18
100
AcDbEntity
  8
Title Block
100
AcDbMText
 10
11.74999999999999
 20
0.375
 30
0.0
 40
0.05
 41
0.5
 71
     5
 72
     5
  1
DATE
 73
     1
 44
1.0
1001
ACAD
1000
MTEXTBEGIN
1070
    73
1070
     1
1070
    44
1040
1.0
1070
    74
1070
     0
1000
MTEXTEND
  0
MTEXT
  5
6A
330
18
100
AcDbEntity
  8
Title Block
100
AcDbMText
 10
12.18999999999999
 20
0.375
 30
0.0
 40
0.05
 41
0.38
 71
     5
 72
     5
  1
BY
 73
     1
 44
1.0
1001
ACAD
1000
MTEXTBEGIN
1070
    73
1070
     1
1070
    44
1040
1.0
1070
    74
1070
     0
1000
MTEXTEND
  0
MTEXT
  5
6B
330
18
100
AcDbEntity
  8
Title Block
100
AcDbMText
 10
12.56499999999999
 20
0.375
 30
0.0
 40
0.05
 41
0.38
 71
     5
 72
     5
  1
CHK
 73
     1
 44
1.0
1001
ACAD
1000
MTEXTBEGIN
1070
    73
1070
     1
1070
    44
1040
1.0
1070
    74
1070
     0
1000
MTEXTEND
  0
MTEXT
  5
6C
330
18
100
AcDbEntity
  8
Title Block
100
AcDbMText
 10
14.12499999999999
 20
0.375
 30
0.0
 40
0.05
 41
2.75
 71
     5
 72
     5
  1
DESCRIPTION
 73
     1
 44
1.0
1001
ACAD
1000
MTEXTBEGIN
1070
    73
1070
     1
1070
    44
1040
1.0
1070
    74
1070
     0
1000
MTEXTEND
  0
MTEXT
  5
6D
330
18
100
AcDbEntity
  8
Title Block
100
AcDbMText
 10
16.065
 20
0.375
 30
0.0
 40
0.05
 41
1.129999999999999
 71
     5
 72
     5
  1
ECN   -   R
 73
     1
 44
1.0
1001
ACAD
1000
MTEXTBEGIN
1070
    73
1070
     1
1070
    44
1040
1.0
1070
    74
1070
     0
1000
MTEXTEND
  0
MTEXT
  5
6E
330
18
100
AcDbEntity
  8
Title Block
100
AcDbMText
 10
16.81499999999999
 20
0.375
 30
0.0
 40
0.05
 41
0.38
 71
     5
 72
     5
  1
CUST
 73
     1
 44
1.0
1001
ACAD
1000
MTEXTBEGIN
1070
    73
1070
     1
1070
    44
1040
1.0
1070
    74
1070
     0
1000
MTEXTEND
  0
MTEXT
  5
6F
330
18
100
AcDbEntity
  8
Title Block
100
AcDbMText
 10
17.19
 20
0.375
 30
0.0
 40
0.05
 41
0.38
 71
     5
 72
     5
  1
SUP
 73
     1
 44
1.0
1001
ACAD
1000
MTEXTBEGIN
1070
    73
1070
     1
1070
    44
1040
1.0
1070
    74
1070
     0
1000
MTEXTEND
  0
LINE
  5
A5
330
18
100
AcDbEntity
  8
Title Block
100
AcDbLine
 10
21.75
 20
2.749999999999999
 30
0.0
 11
11.25
 21
2.75
 31
0.0
  0
LINE
  5
A6
330
18
100
AcDbEntity
  8
Title Block
100
AcDbLine
 10
17.74999999999999
 20
2.75
 30
0.0
 11
17.74999999999999
 21
0.25
 31
0.0
  0
LINE
  5
A7
330
18
100
AcDbEntity
  8
Title Block
100
AcDbLine
 10
21.75
 20
2.499999999999999
 30
0.0
 11
11.25
 21
2.5
 31
0.0
  0
LINE
  5
A8
330
18
100
AcDbEntity
  8
Title Block
100
AcDbLine
 10
17.74999999999999
 20
2.25
 30
0.0
 11
11.25
 21
2.25
 31
0.0
  0
LINE
  5
A9
330
18
100
AcDbEntity
  8
Title Block
100
AcDbLine
 10
21.75
 20
1.999999999999999
 30
0.0
 11
11.25
 21
2.0
 31
0.0
  0
LINE
  5
AA
330
18
100
AcDbEntity
  8
Title Block
100
AcDbLine
 10
17.74999999999999
 20
1.75
 30
0.0
 11
11.25
 21
1.75
 31
0.0
  0
LINE
  5
AB
330
18
100
AcDbEntity
  8
Title Block
100
AcDbLine
 10
21.75
 20
1.499999999999999
 30
0.0
 11
11.25
 21
1.5
 31
0.0
  0
LINE
  5
AC
330
18
100
AcDbEntity
  8
Title Block
100
AcDbLine
 10
17.74999999999999
 20
1.25
 30
0.0
 11
11.25
 21
1.25
 31
0.0
  0
LINE
  5
AD
330
18
100
AcDbEntity
  8
Title Block
100
AcDbLine
 10
21.75
 20
0.9999999999999996
 30
0.0
 11
11.25
 21
1.0
 31
0.0
  0
LINE
  5
AE
330
18
100
AcDbEntity
  8
Title Block
100
AcDbLine
 10
18.49999999999999
 20
0.75
 30
0.0
 11
11.25
 21
0.7500000000000009
 31
0.0
  0
LINE
  5
AF
330
18
100
AcDbEntity
  8
Title Block
100
AcDbLine
 10
18.49999999999999
 20
0.5
 30
0.0
 11
11.25
 21
0.5000000000000009
 31
0.0
  0
LINE
  5
B6
330
18
100
AcDbEntity
  8
Title Block
100
AcDbLine
 10
11.25
 20
0.25
 30
0.0
 11
11.25
 21
2.75
 31
0.0
  0
LINE
  5
BC
330
18
100
AcDbEntity
  8
Title Block
100
AcDbLine
 10
11.49999999999999
 20
0.25
 30
0.0
 11
11.49999999999999
 21
2.750000000000001
 31
0.0
  0
LINE
  5
BD
330
18
100
AcDbEntity
  8
Title Block
100
AcDbLine
 10
11.99999999999999
 20
0.25
 30
0.0
 11
11.99999999999999
 21
2.750000000000001
 31
0.0
  0
LINE
  5
C0
330
18
100
AcDbEntity
  8
Title Block
100
AcDbLine
 10
12.375
 20
0.25
 30
0.0
 11
12.375
 21
2.750000000000001
 31
0.0
  0
LINE
  5
C1
330
18
100
AcDbEntity
  8
Title Block
100
AcDbLine
 10
12.74999999999999
 20
0.25
 30
0.0
 11
12.74999999999999
 21
2.750000000000001
 31
0.0
  0
LINE
  5
C2
330
18
100
AcDbEntity
  8
Title Block
100
AcDbLine
 10
17.375
 20
2.75
 30
0.0
 11
17.375
 21
0.25
 31
0.0
  0
LINE
  5
C3
330
18
100
AcDbEntity
  8
Title Block
100
AcDbLine
 10
17.0
 20
2.75
 30
0.0
 11
17.0
 21
0.25
 31
0.0
  0
LINE
  5
C4
330
18
100
AcDbEntity
  8
Title Block
100
AcDbLine
 10
16.62499999999999
 20
2.75
 30
0.0
 11
16.62499999999999
 21
0.25
 31
0.0
  0
LINE
  5
C5
330
18
100
AcDbEntity
  8
Title Block
100
AcDbLine
 10
16.25
 20
2.75
 30
0.0
 11
16.25
 21
0.5000000000000002
 31
0.0
  0
LINE
  5
C6
330
18
100
AcDbEntity
  8
Title Block
100
AcDbLine
 10
15.5
 20
2.75
 30
0.0
 11
15.5
 21
0.25
 31
0.0
  0
LINE
  5
C7
330
18
100
AcDbEntity
  8
Title Block
100
AcDbLine
 10
20.25
 20
0.75
 30
0.0
 11
20.25
 21
1.499999999999999
 31
0.0
  0
LINE
  5
C8
330
18
100
AcDbEntity
  8
Title Block
100
AcDbLine
 10
20.25
 20
0.75
 30
0.0
 11
20.25
 21
0.25
 31
0.0
  0
LINE
  5
C9
330
18
100
AcDbEntity
  8
Title Block
100
AcDbLine
 10
20.25
 20
0.75
 30
0.0
 11
21.75
 21
0.75
 31
0.0
  0
LINE
  5
CA
330
18
100
AcDbEntity
  8
Title Block
100
AcDbLine
 10
18.49999999999999
 20
0.5
 30
0.0
 11
18.49999999999999
 21
0.25
 31
0.0
  0
LINE
  5
CB
330
18
100
AcDbEntity
  8
Title Block
100
AcDbLine
 10
18.49999999999999
 20
0.5
 30
0.0
 11
18.49999999999999
 21
1.0
 31
0.0
  0
LINE
  5
CD
330
18
100
AcDbEntity
  8
Title Block
100
AcDbLine
 10
21.25
 20
0.75
 30
0.0
 11
21.25
 21
0.25
 31
0.0
  0
LWPOLYLINE
  5
F8
330
18
100
AcDbEntity
  8
Title Block
100
AcDbPolyline
 90
        4
 70
     1
 43
0.01
 10
21.75
 20
16.75
 10
21.75
 20
0.25
 10
0.25
 20
0.25
 10
0.250000000000001
 20
16.75
  0
POINT
  5
FC
330
18
100
AcDbEntity
  8
Title Block
100
AcDbPoint
 10
22.0
 20
0.0
 30
0.0
  0
POINT
  5
FF
330
18
100
AcDbEntity
  8
Title Block
100
AcDbPoint
 10
22.0
 20
17.0
 30
0.0
  0
POINT
  5
102
330
18
100
AcDbEntity
  8
Title Block
100
AcDbPoint
 10
0.000000000000001
 20
17.0
 30
0.0
  0
POINT
  5
105
330
18
100
AcDbEntity
  8
Title Block
100
AcDbPoint
 10
0.0
 20
0.0
 30
0.0
  0
MTEXT
  5
12C
330
18
100
AcDbEntity
  8
Text
100
AcDbMText
 10
11.37324893148254
 20
0.6275685908585027
 30
0.0
 40
0.09
 41
0.25
 71
     5
 72
     5
  1
R
 73
     1
 44
1.0
1001
ACAD
1000
MTEXTBEGIN
1070
    73
1070
     1
1070
    44
1040
1.0
1070
    74
1070
     0
1000
MTEXTEND
  0
MTEXT
  5
12D
330
18
100
AcDbEntity
  8
Text
100
AcDbMText
 10
11.74824893148254
 20
0.6275685908585027
 30
0.0
 40
0.07
 41
0.5
 71
     5
 72
     5
  1
10-30-00
 73
     1
 44
1.0
1001
ACAD
1000
MTEXTBEGIN
1070
    73
1070
     1
1070
    44
1040
1.0
1070
    74
1070
     0
1000
MTEXTEND
  0
MTEXT
  5
12E
330
18
100
AcDbEntity
  8
Text
100
AcDbMText
 10
12.18574893148254
 20
0.6275685908585027
 30
0.0
 40
0.09
 41
0.375
 71
     5
 72
     5
  1
MSO
 73
     1
 44
1.0
1001
ACAD
1000
MTEXTBEGIN
1070
    73
1070
     1
1070
    44
1040
1.0
1070
    74
1070
     0
1000
MTEXTEND
  0
MTEXT
  5
130
330
18
100
AcDbEntity
  8
Text
100
AcDbMText
 10
14.12324893148254
 20
0.6275685908585023
 30
0.0
 40
0.09
 41
2.75
 71
     5
 72
     5
  1
DRAWING RELEASED
 73
     1
 44
1.0
1001
ACAD
1000
MTEXTBEGIN
1070
    73
1070
     1
1070
    44
1040
1.0
1070
    74
1070
     0
1000
MTEXTEND
  0
MTEXT
  5
133
330
18
100
AcDbEntity
  8
Text
100
AcDbMText
 10
18.47324893148254
 20
0.8525685908585018
 30
0.0
 40
0.09
 41
0.75
 71
     6
 72
     5
  1
MSO
 73
     1
 44
1.0
1001
ACAD
1000
MTEXTBEGIN
1070
    73
1070
     1
1070
    44
1040
1.0
1070
    74
1070
     0
1000
MTEXTEND
  0
MTEXT
  5
134
330
18
100
AcDbEntity
  8
Text
100
AcDbMText
 10
18.47324893148254
 20
0.6025685908585017
 30
0.0
 40
0.09
 41
0.75
 71
     6
 72
     5
  1
10-30-00
 73
     1
 44
1.0
1001
ACAD
1000
MTEXTBEGIN
1070
    73
1070
     1
1070
    44
1040
1.0
1070
    74
1070
     0
1000
MTEXTEND
  0
MTEXT
  5
135
330
18
100
AcDbEntity
  8
Text
100
AcDbMText
 10
18.47324893148254
 20
0.3525685908585019
 30
0.0
 40
0.09
 41
0.75
 71
     6
 72
     5
  1
HIW
 73
     1
 44
1.0
1001
ACAD
1000
MTEXTBEGIN
1070
    73
1070
     1
1070
    44
1040
1.0
1070
    74
1070
     0
1000
MTEXTEND
  0
MTEXT
  5
136
330
18
100
AcDbEntity
  8
Text
100
AcDbMText
 10
19.74824893148254
 20
2.627568590858501
 30
0.0
 40
0.09
 41
4.0
 71
     5
 72
     5
  1
FR6TRBN58.dwg
 73
     1
 44
1.0
1001
ACAD
1000
MTEXTBEGIN
1070
    73
1070
     1
1070
    44
1040
1.0
1070
    74
1070
     0
1000
MTEXTEND
  0
MTEXT
  5
137
330
18
100
AcDbEntity
  8
Text
100
AcDbMText
 10
19.80434682554861
 20
1.752568590858501
 30
0.0
 40
0.09
 41
4.0
 71
     5
 72
     5
  1
FIBERRUNNER 4x4 AND 6x4 QUIKLOCK NEW THREADED\PROD BRACKET -{\H0.7x;\S5#8;}" (M16) THREADED ROD\P(FR6TRBN58, FR6TRBN58M) MARKETING DRAWING
 73
     1
 44
1.0
1001
ACAD
1000
MTEXTBEGIN
1070
    73
1070
     1
1070
    44
1040
1.0
1070
    74
1070
     1
1000
MTEXTEND
  0
MTEXT
  5
138
330
18
100
AcDbEntity
  8
Text
100
AcDbMText
 10
20.99824893148254
 20
0.8775685908585016
 30
0.0
 40
0.12
 41
1.5
 71
     5
 72
     5
  1
FULL
 73
     1
 44
1.0
1001
ACAD
1000
MTEXTBEGIN
1070
    73
1070
     1
1070
    44
1040
1.0
1070
    74
1070
     0
1000
MTEXTEND
  0
MTEXT
  5
139
330
18
100
AcDbEntity
  8
Text
100
AcDbMText
 10
20.74824893148254
 20
0.5025685908585018
 30
0.0
 40
0.12
 41
1.0
 71
     5
 72
     5
  1
36897-303
 73
     1
 44
1.0
1001
ACAD
1000
MTEXTBEGIN
1070
    73
1070
     1
1070
    44
1040
1.0
1070
    74
1070
     0
1000
MTEXTEND
  0
MTEXT
  5
2AA
330
18
100
AcDbEntity
  8
Text
100
AcDbMText
 10
16.82661501398287
 20
16.1371560489136
 30
0.0
 40
0.09
 41
4.264128637772099
 71
     1
 72
     5
  3
{\LNOTES:}\P\P1. THE FIBERRUNNER 4x4 AND 6x4 QUIKLOCK NEW THREADED ROD \P   BRACKET INCLUDES:\P   ONE (1) BRACKET ASSEMBLY,\P   TWO (2) {\H0.7x;\S5#8;} HELICAL SPRING LOCKWASHERS,\P   TWO (2) {\H0.7x;\S5#8;}-11 HEAVY HEX NUTS (FR6TRBN58 ONLY),\P   TW
  1
O (2) M16x2 HEX NUTS (FR6TRBN58M ONLY).
 73
     1
 44
1.0
1001
ACAD
1000
MTEXTBEGIN
1070
    73
1070
     1
1070
    44
1040
1.0
1070
    74
1070
     1
1000
MTEXTEND
  0
TEXT
  5
2AB
330
18
100
AcDbEntity
  8
Text
100
AcDbText
 10
6.732872348069363
 20
10.77704374806777
 30
0.0
 40
0.125
  1
TOP VIEW
100
AcDbText
  0
TEXT
  5
2AC
330
18
100
AcDbEntity
  8
Text
100
AcDbText
 10
6.57012189302182
 20
4.459319436865676
 30
0.0
 40
0.125
  1
FRONT VIEW
100
AcDbText
  0
TEXT
  5
2AD
330
18
100
AcDbEntity
  8
Text
100
AcDbText
 10
17.12989280287914
 20
4.445408821175576
 30
0.0
 40
0.125
  1
RIGHT SIDE VIEW
100
AcDbText
  0
MTEXT
  5
2BE
330
18
100
AcDbEntity
  8
Text
100
AcDbMText
 10
12.5604002814227
 20
0.626249074032665
 30
0.0
 40
0.09
 41
0.375
 71
     5
 72
     5
  1
HIW
 73
     1
 44
1.0
1001
ACAD
1000
MTEXTBEGIN
1070
    73
1070
     1
1070
    44
1040
1.0
1070
    74
1070
     0
1000
MTEXTEND
  0
LINE
  5
2CD
330
18
100
AcDbEntity
  8
Object
100
AcDbLine
 10
18.82
 20
5.315999999999999
 30
0.0
 11
18.445
 21
5.315999999999999
 31
0.0
  0
LINE
  5
2CE
330
18
100
AcDbEntity
  8
Object
100
AcDbLine
 10
18.445
 20
5.315999999999999
 30
0.0
 11
17.195
 21
5.315999999999999
 31
0.0
  0
LINE
  5
2CF
330
18
100
AcDbEntity
  8
Object
100
AcDbLine
 10
17.195
 20
5.315999999999999
 30
0.0
 11
16.82
 21
5.315999999999999
 31
0.0
  0
LINE
  5
2D0
330
18
100
AcDbEntity
  8
Object
100
AcDbLine
 10
18.82
 20
5.315999999999999
 30
0.0
 11
18.82
 21
5.137
 31
0.0
  0
LINE
  5
2D1
330
18
100
AcDbEntity
  8
Object
100
AcDbLine
 10
18.82
 20
5.137
 30
0.0
 11
18.445
 21
5.137
 31
0.0
  0
LINE
  5
2D2
330
18
100
AcDbEntity
  8
Object
100
AcDbLine
 10
18.445
 20
5.315999999999999
 30
0.0
 11
18.82
 21
5.315999999999999
 31
0.0
  0
LINE
  5
2D3
330
18
100
AcDbEntity
  8
Object
100
AcDbLine
 10
18.82
 20
5.315999999999999
 30
0.0
 11
18.82
 21
5.137
 31
0.0
  0
LINE
  5
2D4
330
18
100
AcDbEntity
  8
Object
100
AcDbLine
 10
17.195
 20
5.137
 30
0.0
 11
16.82
 21
5.137
 31
0.0
  0
LINE
  5
2D5
330
18
100
AcDbEntity
  8
Object
100
AcDbLine
 10
16.82
 20
5.137
 30
0.0
 11
16.82
 21
5.315999999999999
 31
0.0
  0
LINE
  5
2D6
330
18
100
AcDbEntity
  8
Object
100
AcDbLine
 10
16.82
 20
5.315999999999999
 30
0.0
 11
17.195
 21
5.315999999999999
 31
0.0
  0
LINE
  5
2D7
330
18
100
AcDbEntity
  8
Object
100
AcDbLine
 10
17.195
 20
5.315999999999999
 30
0.0
 11
17.195
 21
5.137
 31
0.0
  0
LINE
  5
2D8
330
18
100
AcDbEntity
  8
Object
100
AcDbLine
 10
17.195
 20
5.315999999999999
 30
0.0
 11
18.445
 21
5.315999999999999
 31
0.0
  0
LINE
  5
2D9
330
18
100
AcDbEntity
  8
Object
100
AcDbLine
 10
18.445
 20
5.315999999999999
 30
0.0
 11
18.445
 21
5.137
 31
0.0
  0
LINE
  5
2DA
330
18
100
AcDbEntity
  8
Object
100
AcDbLine
 10
18.445
 20
5.137
 30
0.0
 11
17.195
 21
5.137
 31
0.0
  0
LINE
  5
2DB
330
18
100
AcDbEntity
  8
Object
100
AcDbLine
 10
16.82
 20
5.315999999999999
 30
0.0
 11
16.82
 21
5.137
 31
0.0
  0
LINE
  5
2DC
330
18
100
AcDbEntity
  8
Object
100
AcDbLine
 10
18.82
 20
5.137
 30
0.0
 11
18.445
 21
5.137
 31
0.0
  0
LINE
  5
2DD
330
18
100
AcDbEntity
  8
Object
100
AcDbLine
 10
18.445
 20
5.137
 30
0.0
 11
17.195
 21
5.137
 31
0.0
  0
LINE
  5
2DE
330
18
100
AcDbEntity
  8
Object
100
AcDbLine
 10
17.195
 20
5.137
 30
0.0
 11
16.82
 21
5.137
 31
0.0
  0
LINE
  5
2DF
330
18
100
AcDbEntity
  8
Object
100
AcDbLine
 10
17.933
 20
5.560999999999999
 30
0.0
 11
17.93
 21
5.562999999999999
 31
0.0
  0
LINE
  5
2E0
330
18
100
AcDbEntity
  8
Object
100
AcDbLine
 10
17.72
 20
5.575
 30
0.0
 11
17.711
 21
5.575
 31
0.0
  0
LINE
  5
2E1
330
18
100
AcDbEntity
  8
Object
100
AcDbLine
 10
17.711
 20
5.575
 30
0.0
 11
17.699
 21
5.573
 31
0.0
  0
LINE
  5
2E2
330
18
100
AcDbEntity
  8
Object
100
AcDbLine
 10
17.709
 20
5.562999999999999
 30
0.0
 11
17.697
 21
5.57
 31
0.0
  0
LINE
  5
2E3
330
18
100
AcDbEntity
  8
Object
100
AcDbLine
 10
17.697
 20
5.57
 30
0.0
 11
17.695
 21
5.570999999999999
 31
0.0
  0
LINE
  5
2E4
330
18
100
AcDbEntity
  8
Object
100
AcDbLine
 10
17.695
 20
5.570999999999999
 30
0.0
 11
17.699
 21
5.573
 31
0.0
  0
LINE
  5
2E5
330
18
100
AcDbEntity
  8
Object
100
AcDbLine
 10
17.695
 20
5.575
 30
0.0
 11
17.695
 21
5.570999999999999
 31
0.0
  0
LINE
  5
2E6
330
18
100
AcDbEntity
  8
Object
100
AcDbLine
 10
17.72
 20
5.575
 30
0.0
 11
17.711
 21
5.575
 31
0.0
  0
LINE
  5
2E7
330
18
100
AcDbEntity
  8
Object
100
AcDbLine
 10
17.711
 20
5.575
 30
0.0
 11
17.702
 21
5.575
 31
0.0
  0
LINE
  5
2E8
330
18
100
AcDbEntity
  8
Object
100
AcDbLine
 10
17.702
 20
5.575
 30
0.0
 11
17.697
 21
5.575
 31
0.0
  0
LINE
  5
2E9
330
18
100
AcDbEntity
  8
Object
100
AcDbLine
 10
17.697
 20
5.575
 30
0.0
 11
17.695
 21
5.575
 31
0.0
  0
LINE
  5
2EA
330
18
100
AcDbEntity
  8
Object
100
AcDbLine
 10
17.711
 20
5.575
 30
0.0
 11
17.702
 21
5.575
 31
0.0
  0
LINE
  5
2EB
330
18
100
AcDbEntity
  8
Object
100
AcDbLine
 10
17.702
 20
5.575
 30
0.0
 11
17.697
 21
5.575
 31
0.0
  0
LINE
  5
2EC
330
18
100
AcDbEntity
  8
Object
100
AcDbLine
 10
17.697
 20
5.575
 30
0.0
 11
17.695
 21
5.575
 31
0.0
  0
LINE
  5
2ED
330
18
100
AcDbEntity
  8
Object
100
AcDbLine
 10
18.042
 20
5.482
 30
0.0
 11
18.042
 21
5.463
 31
0.0
  0
LINE
  5
2EE
330
18
100
AcDbEntity
  8
Object
100
AcDbLine
 10
18.042
 20
5.435999999999999
 30
0.0
 11
18.042
 21
5.405
 31
0.0
  0
LINE
  5
2EF
330
18
100
AcDbEntity
  8
Object
100
AcDbLine
 10
18.042
 20
5.397999999999999
 30
0.0
 11
18.042
 21
5.392999999999999
 31
0.0
  0
LINE
  5
2F0
330
18
100
AcDbEntity
  8
Object
100
AcDbLine
 10
18.042
 20
5.392999999999999
 30
0.0
 11
18.042
 21
5.391
 31
0.0
  0
LINE
  5
2F1
330
18
100
AcDbEntity
  8
Object
100
AcDbLine
 10
18.042
 20
5.405
 30
0.0
 11
18.042
 21
5.397999999999999
 31
0.0
  0
LINE
  5
2F2
330
18
100
AcDbEntity
  8
Object
100
AcDbLine
 10
18.042
 20
5.463
 30
0.0
 11
18.042
 21
5.435999999999999
 31
0.0
  0
LINE
  5
2F3
330
18
100
AcDbEntity
  8
Object
100
AcDbLine
 10
18.042
 20
5.482
 30
0.0
 11
18.042
 21
5.491
 31
0.0
  0
LINE
  5
2F4
330
18
100
AcDbEntity
  8
Object
100
AcDbLine
 10
18.042
 20
5.491
 30
0.0
 11
18.042
 21
5.508
 31
0.0
  0
LINE
  5
2F5
330
18
100
AcDbEntity
  8
Object
100
AcDbLine
 10
18.445
 20
5.463
 30
0.0
 11
18.445
 21
5.482
 31
0.0
  0
LINE
  5
2F6
330
18
100
AcDbEntity
  8
Object
100
AcDbLine
 10
18.445
 20
5.405
 30
0.0
 11
18.445
 21
5.435999999999999
 31
0.0
  0
LINE
  5
2F7
330
18
100
AcDbEntity
  8
Object
100
AcDbLine
 10
18.445
 20
5.392999999999999
 30
0.0
 11
18.445
 21
5.397999999999999
 31
0.0
  0
LINE
  5
2F8
330
18
100
AcDbEntity
  8
Object
100
AcDbLine
 10
18.445
 20
5.315999999999999
 30
0.0
 11
18.445
 21
5.391
 31
0.0
  0
LINE
  5
2F9
330
18
100
AcDbEntity
  8
Object
100
AcDbLine
 10
18.445
 20
5.391
 30
0.0
 11
18.445
 21
5.392999999999999
 31
0.0
  0
LINE
  5
2FA
330
18
100
AcDbEntity
  8
Object
100
AcDbLine
 10
18.445
 20
5.397999999999999
 30
0.0
 11
18.445
 21
5.405
 31
0.0
  0
LINE
  5
2FB
330
18
100
AcDbEntity
  8
Object
100
AcDbLine
 10
18.445
 20
5.435999999999999
 30
0.0
 11
18.445
 21
5.463
 31
0.0
  0
LINE
  5
2FC
330
18
100
AcDbEntity
  8
Object
100
AcDbLine
 10
18.445
 20
5.482
 30
0.0
 11
18.445
 21
5.491
 31
0.0
  0
LINE
  5
2FD
330
18
100
AcDbEntity
  8
Object
100
AcDbLine
 10
18.445
 20
5.491
 30
0.0
 11
18.445
 21
5.508
 31
0.0
  0
LINE
  5
2FE
330
18
100
AcDbEntity
  8
Object
100
AcDbLine
 10
18.445
 20
5.391
 30
0.0
 11
18.439
 21
5.391
 31
0.0
  0
LINE
  5
2FF
330
18
100
AcDbEntity
  8
Object
100
AcDbLine
 10
18.439
 20
5.391
 30
0.0
 11
18.421
 21
5.391
 31
0.0
  0
LINE
  5
300
330
18
100
AcDbEntity
  8
Object
100
AcDbLine
 10
18.421
 20
5.391
 30
0.0
 11
18.393
 21
5.391
 31
0.0
  0
LINE
  5
301
330
18
100
AcDbEntity
  8
Object
100
AcDbLine
 10
18.393
 20
5.391
 30
0.0
 11
18.358
 21
5.391
 31
0.0
  0
LINE
  5
302
330
18
100
AcDbEntity
  8
Object
100
AcDbLine
 10
18.358
 20
5.391
 30
0.0
 11
18.32
 21
5.391
 31
0.0
  0
LINE
  5
303
330
18
100
AcDbEntity
  8
Object
100
AcDbLine
 10
18.32
 20
5.391
 30
0.0
 11
17.32
 21
5.391
 31
0.0
  0
LINE
  5
304
330
18
100
AcDbEntity
  8
Object
100
AcDbLine
 10
17.32
 20
5.391
 30
0.0
 11
17.281
 21
5.391
 31
0.0
  0
LINE
  5
305
330
18
100
AcDbEntity
  8
Object
100
AcDbLine
 10
17.281
 20
5.391
 30
0.0
 11
17.246
 21
5.391
 31
0.0
  0
LINE
  5
306
330
18
100
AcDbEntity
  8
Object
100
AcDbLine
 10
17.246
 20
5.391
 30
0.0
 11
17.219
 21
5.391
 31
0.0
  0
LINE
  5
307
330
18
100
AcDbEntity
  8
Object
100
AcDbLine
 10
17.219
 20
5.391
 30
0.0
 11
17.201
 21
5.391
 31
0.0
  0
LINE
  5
308
330
18
100
AcDbEntity
  8
Object
100
AcDbLine
 10
17.201
 20
5.391
 30
0.0
 11
17.195
 21
5.391
 31
0.0
  0
LINE
  5
309
330
18
100
AcDbEntity
  8
Object
100
AcDbLine
 10
18.042
 20
5.405
 30
0.0
 11
18.042
 21
5.435999999999999
 31
0.0
  0
LINE
  5
30A
330
18
100
AcDbEntity
  8
Object
100
AcDbLine
 10
18.042
 20
5.435999999999999
 30
0.0
 11
18.042
 21
5.463
 31
0.0
  0
LINE
  5
30B
330
18
100
AcDbEntity
  8
Object
100
AcDbLine
 10
18.445
 20
5.463
 30
0.0
 11
18.445
 21
5.482
 31
0.0
  0
LINE
  5
30C
330
18
100
AcDbEntity
  8
Object
100
AcDbLine
 10
18.042
 20
5.482
 30
0.0
 11
18.042
 21
5.491
 31
0.0
  0
LINE
  5
30D
330
18
100
AcDbEntity
  8
Object
100
AcDbLine
 10
18.042
 20
5.491
 30
0.0
 11
18.445
 21
5.491
 31
0.0
  0
LINE
  5
30E
330
18
100
AcDbEntity
  8
Object
100
AcDbLine
 10
18.445
 20
5.491
 30
0.0
 11
18.445
 21
5.482
 31
0.0
  0
LINE
  5
30F
330
18
100
AcDbEntity
  8
Object
100
AcDbLine
 10
18.042
 20
5.482
 30
0.0
 11
18.042
 21
5.463
 31
0.0
  0
LINE
  5
310
330
18
100
AcDbEntity
  8
Object
100
AcDbLine
 10
18.445
 20
5.463
 30
0.0
 11
18.445
 21
5.435999999999999
 31
0.0
  0
LINE
  5
311
330
18
100
AcDbEntity
  8
Object
100
AcDbLine
 10
18.445
 20
5.435999999999999
 30
0.0
 11
18.445
 21
5.405
 31
0.0
  0
LINE
  5
312
330
18
100
AcDbEntity
  8
Object
100
AcDbLine
 10
18.445
 20
5.405
 30
0.0
 11
18.042
 21
5.405
 31
0.0
  0
LINE
  5
313
330
18
100
AcDbEntity
  8
Object
100
AcDbLine
 10
18.062
 20
5.512
 30
0.0
 11
18.047
 21
5.509999999999999
 31
0.0
  0
LINE
  5
314
330
18
100
AcDbEntity
  8
Object
100
AcDbLine
 10
18.047
 20
5.509999999999999
 30
0.0
 11
18.042
 21
5.508
 31
0.0
  0
LINE
  5
315
330
18
100
AcDbEntity
  8
Object
100
AcDbLine
 10
18.042
 20
5.405
 30
0.0
 11
18.042
 21
5.397999999999999
 31
0.0
  0
LINE
  5
316
330
18
100
AcDbEntity
  8
Object
100
AcDbLine
 10
18.445
 20
5.397999999999999
 30
0.0
 11
18.445
 21
5.405
 31
0.0
  0
LINE
  5
317
330
18
100
AcDbEntity
  8
Object
100
AcDbLine
 10
18.042
 20
5.397999999999999
 30
0.0
 11
18.042
 21
5.392999999999999
 31
0.0
  0
LINE
  5
318
330
18
100
AcDbEntity
  8
Object
100
AcDbLine
 10
18.445
 20
5.391
 30
0.0
 11
18.445
 21
5.392999999999999
 31
0.0
  0
LINE
  5
319
330
18
100
AcDbEntity
  8
Object
100
AcDbLine
 10
18.042
 20
5.392999999999999
 30
0.0
 11
18.042
 21
5.391
 31
0.0
  0
LINE
  5
31A
330
18
100
AcDbEntity
  8
Object
100
AcDbLine
 10
18.445
 20
5.392999999999999
 30
0.0
 11
18.445
 21
5.397999999999999
 31
0.0
  0
LINE
  5
31B
330
18
100
AcDbEntity
  8
Object
100
AcDbLine
 10
18.405
 20
5.512
 30
0.0
 11
18.425
 21
5.512
 31
0.0
  0
LINE
  5
31C
330
18
100
AcDbEntity
  8
Object
100
AcDbLine
 10
18.425
 20
5.512
 30
0.0
 11
18.439
 21
5.509999999999999
 31
0.0
  0
LINE
  5
31D
330
18
100
AcDbEntity
  8
Object
100
AcDbLine
 10
18.439
 20
5.509999999999999
 30
0.0
 11
18.445
 21
5.508
 31
0.0
  0
LINE
  5
31E
330
18
100
AcDbEntity
  8
Object
100
AcDbLine
 10
18.445
 20
5.508
 30
0.0
 11
18.445
 21
5.491
 31
0.0
  0
LINE
  5
31F
330
18
100
AcDbEntity
  8
Object
100
AcDbLine
 10
18.082
 20
5.512
 30
0.0
 11
18.062
 21
5.512
 31
0.0
  0
LINE
  5
320
330
18
100
AcDbEntity
  8
Object
100
AcDbLine
 10
18.042
 20
5.508
 30
0.0
 11
18.042
 21
5.491
 31
0.0
  0
LINE
  5
321
330
18
100
AcDbEntity
  8
Object
100
AcDbLine
 10
18.405
 20
5.512
 30
0.0
 11
18.082
 21
5.512
 31
0.0
  0
LINE
  5
322
330
18
100
AcDbEntity
  8
Object
100
AcDbLine
 10
18.439
 20
5.391
 30
0.0
 11
18.445
 21
5.391
 31
0.0
  0
LINE
  5
323
330
18
100
AcDbEntity
  8
Object
100
AcDbLine
 10
18.445
 20
5.391
 30
0.0
 11
18.445
 21
5.315999999999999
 31
0.0
  0
LINE
  5
324
330
18
100
AcDbEntity
  8
Object
100
AcDbLine
 10
18.439
 20
5.391
 30
0.0
 11
18.421
 21
5.391
 31
0.0
  0
LINE
  5
325
330
18
100
AcDbEntity
  8
Object
100
AcDbLine
 10
18.421
 20
5.391
 30
0.0
 11
18.393
 21
5.391
 31
0.0
  0
LINE
  5
326
330
18
100
AcDbEntity
  8
Object
100
AcDbLine
 10
18.393
 20
5.391
 30
0.0
 11
18.358
 21
5.391
 31
0.0
  0
LINE
  5
327
330
18
100
AcDbEntity
  8
Object
100
AcDbLine
 10
18.358
 20
5.391
 30
0.0
 11
18.32
 21
5.391
 31
0.0
  0
LINE
  5
328
330
18
100
AcDbEntity
  8
Object
100
AcDbLine
 10
18.32
 20
5.391
 30
0.0
 11
18.32
 21
5.315999999999999
 31
0.0
  0
LINE
  5
329
330
18
100
AcDbEntity
  8
Object
100
AcDbLine
 10
18.32
 20
5.391
 30
0.0
 11
17.32
 21
5.391
 31
0.0
  0
LINE
  5
32A
330
18
100
AcDbEntity
  8
Object
100
AcDbLine
 10
17.32
 20
5.391
 30
0.0
 11
17.281
 21
5.391
 31
0.0
  0
LINE
  5
32B
330
18
100
AcDbEntity
  8
Object
100
AcDbLine
 10
17.32
 20
5.315999999999999
 30
0.0
 11
17.32
 21
5.391
 31
0.0
  0
LINE
  5
32C
330
18
100
AcDbEntity
  8
Object
100
AcDbLine
 10
17.281
 20
5.391
 30
0.0
 11
17.246
 21
5.391
 31
0.0
  0
LINE
  5
32D
330
18
100
AcDbEntity
  8
Object
100
AcDbLine
 10
17.246
 20
5.391
 30
0.0
 11
17.219
 21
5.391
 31
0.0
  0
LINE
  5
32E
330
18
100
AcDbEntity
  8
Object
100
AcDbLine
 10
17.219
 20
5.391
 30
0.0
 11
17.201
 21
5.391
 31
0.0
  0
LINE
  5
32F
330
18
100
AcDbEntity
  8
Object
100
AcDbLine
 10
17.195
 20
5.315999999999999
 30
0.0
 11
17.195
 21
5.391
 31
0.0
  0
LINE
  5
330
330
18
100
AcDbEntity
  8
Object
100
AcDbLine
 10
17.195
 20
5.391
 30
0.0
 11
17.201
 21
5.391
 31
0.0
  0
LINE
  5
331
330
18
100
AcDbEntity
  8
Object
100
AcDbLine
 10
17.195
 20
5.397999999999999
 30
0.0
 11
17.195
 21
5.405
 31
0.0
  0
LINE
  5
332
330
18
100
AcDbEntity
  8
Object
100
AcDbLine
 10
17.195
 20
5.405
 30
0.0
 11
17.598
 21
5.405
 31
0.0
  0
LINE
  5
333
330
18
100
AcDbEntity
  8
Object
100
AcDbLine
 10
17.598
 20
5.405
 30
0.0
 11
17.598
 21
5.397999999999999
 31
0.0
  0
LINE
  5
334
330
18
100
AcDbEntity
  8
Object
100
AcDbLine
 10
17.598
 20
5.397999999999999
 30
0.0
 11
17.598
 21
5.392999999999999
 31
0.0
  0
LINE
  5
335
330
18
100
AcDbEntity
  8
Object
100
AcDbLine
 10
17.195
 20
5.397999999999999
 30
0.0
 11
17.195
 21
5.392999999999999
 31
0.0
  0
LINE
  5
336
330
18
100
AcDbEntity
  8
Object
100
AcDbLine
 10
17.598
 20
5.391
 30
0.0
 11
17.598
 21
5.392999999999999
 31
0.0
  0
LINE
  5
337
330
18
100
AcDbEntity
  8
Object
100
AcDbLine
 10
17.195
 20
5.392999999999999
 30
0.0
 11
17.195
 21
5.391
 31
0.0
  0
LINE
  5
338
330
18
100
AcDbEntity
  8
Object
100
AcDbLine
 10
17.195
 20
5.482
 30
0.0
 11
17.195
 21
5.463
 31
0.0
  0
LINE
  5
339
330
18
100
AcDbEntity
  8
Object
100
AcDbLine
 10
17.195
 20
5.435999999999999
 30
0.0
 11
17.195
 21
5.405
 31
0.0
  0
LINE
  5
33A
330
18
100
AcDbEntity
  8
Object
100
AcDbLine
 10
17.195
 20
5.397999999999999
 30
0.0
 11
17.195
 21
5.392999999999999
 31
0.0
  0
LINE
  5
33B
330
18
100
AcDbEntity
  8
Object
100
AcDbLine
 10
17.195
 20
5.315999999999999
 30
0.0
 11
17.195
 21
5.391
 31
0.0
  0
LINE
  5
33C
330
18
100
AcDbEntity
  8
Object
100
AcDbLine
 10
17.195
 20
5.391
 30
0.0
 11
17.195
 21
5.392999999999999
 31
0.0
  0
LINE
  5
33D
330
18
100
AcDbEntity
  8
Object
100
AcDbLine
 10
17.195
 20
5.405
 30
0.0
 11
17.195
 21
5.397999999999999
 31
0.0
  0
LINE
  5
33E
330
18
100
AcDbEntity
  8
Object
100
AcDbLine
 10
17.195
 20
5.463
 30
0.0
 11
17.195
 21
5.435999999999999
 31
0.0
  0
LINE
  5
33F
330
18
100
AcDbEntity
  8
Object
100
AcDbLine
 10
17.195
 20
5.482
 30
0.0
 11
17.195
 21
5.491
 31
0.0
  0
LINE
  5
340
330
18
100
AcDbEntity
  8
Object
100
AcDbLine
 10
17.195
 20
5.491
 30
0.0
 11
17.195
 21
5.508
 31
0.0
  0
LINE
  5
341
330
18
100
AcDbEntity
  8
Object
100
AcDbLine
 10
17.598
 20
5.463
 30
0.0
 11
17.598
 21
5.482
 31
0.0
  0
LINE
  5
342
330
18
100
AcDbEntity
  8
Object
100
AcDbLine
 10
17.598
 20
5.405
 30
0.0
 11
17.598
 21
5.435999999999999
 31
0.0
  0
LINE
  5
343
330
18
100
AcDbEntity
  8
Object
100
AcDbLine
 10
17.598
 20
5.397999999999999
 30
0.0
 11
17.598
 21
5.392999999999999
 31
0.0
  0
LINE
  5
344
330
18
100
AcDbEntity
  8
Object
100
AcDbLine
 10
17.598
 20
5.392999999999999
 30
0.0
 11
17.598
 21
5.391
 31
0.0
  0
LINE
  5
345
330
18
100
AcDbEntity
  8
Object
100
AcDbLine
 10
17.598
 20
5.397999999999999
 30
0.0
 11
17.598
 21
5.405
 31
0.0
  0
LINE
  5
346
330
18
100
AcDbEntity
  8
Object
100
AcDbLine
 10
17.598
 20
5.435999999999999
 30
0.0
 11
17.598
 21
5.463
 31
0.0
  0
LINE
  5
347
330
18
100
AcDbEntity
  8
Object
100
AcDbLine
 10
17.598
 20
5.482
 30
0.0
 11
17.598
 21
5.491
 31
0.0
  0
LINE
  5
348
330
18
100
AcDbEntity
  8
Object
100
AcDbLine
 10
17.598
 20
5.491
 30
0.0
 11
17.598
 21
5.508
 31
0.0
  0
LINE
  5
349
330
18
100
AcDbEntity
  8
Object
100
AcDbLine
 10
17.598
 20
5.435999999999999
 30
0.0
 11
17.598
 21
5.463
 31
0.0
  0
LINE
  5
34A
330
18
100
AcDbEntity
  8
Object
100
AcDbLine
 10
17.195
 20
5.463
 30
0.0
 11
17.195
 21
5.482
 31
0.0
  0
LINE
  5
34B
330
18
100
AcDbEntity
  8
Object
100
AcDbLine
 10
17.195
 20
5.482
 30
0.0
 11
17.195
 21
5.491
 31
0.0
  0
LINE
  5
34C
330
18
100
AcDbEntity
  8
Object
100
AcDbLine
 10
17.195
 20
5.491
 30
0.0
 11
17.598
 21
5.491
 31
0.0
  0
LINE
  5
34D
330
18
100
AcDbEntity
  8
Object
100
AcDbLine
 10
17.598
 20
5.491
 30
0.0
 11
17.598
 21
5.482
 31
0.0
  0
LINE
  5
34E
330
18
100
AcDbEntity
  8
Object
100
AcDbLine
 10
17.598
 20
5.482
 30
0.0
 11
17.598
 21
5.463
 31
0.0
  0
LINE
  5
34F
330
18
100
AcDbEntity
  8
Object
100
AcDbLine
 10
17.195
 20
5.463
 30
0.0
 11
17.195
 21
5.435999999999999
 31
0.0
  0
LINE
  5
350
330
18
100
AcDbEntity
  8
Object
100
AcDbLine
 10
17.598
 20
5.405
 30
0.0
 11
17.598
 21
5.435999999999999
 31
0.0
  0
LINE
  5
351
330
18
100
AcDbEntity
  8
Object
100
AcDbLine
 10
17.195
 20
5.435999999999999
 30
0.0
 11
17.195
 21
5.405
 31
0.0
  0
LINE
  5
352
330
18
100
AcDbEntity
  8
Object
100
AcDbLine
 10
17.558
 20
5.512
 30
0.0
 11
17.578
 21
5.512
 31
0.0
  0
LINE
  5
353
330
18
100
AcDbEntity
  8
Object
100
AcDbLine
 10
17.578
 20
5.512
 30
0.0
 11
17.592
 21
5.509999999999999
 31
0.0
  0
LINE
  5
354
330
18
100
AcDbEntity
  8
Object
100
AcDbLine
 10
17.592
 20
5.509999999999999
 30
0.0
 11
17.598
 21
5.508
 31
0.0
  0
LINE
  5
355
330
18
100
AcDbEntity
  8
Object
100
AcDbLine
 10
17.598
 20
5.508
 30
0.0
 11
17.598
 21
5.491
 31
0.0
  0
LINE
  5
356
330
18
100
AcDbEntity
  8
Object
100
AcDbLine
 10
17.2
 20
5.509999999999999
 30
0.0
 11
17.215
 21
5.512
 31
0.0
  0
LINE
  5
357
330
18
100
AcDbEntity
  8
Object
100
AcDbLine
 10
17.215
 20
5.512
 30
0.0
 11
17.235
 21
5.512
 31
0.0
  0
LINE
  5
358
330
18
100
AcDbEntity
  8
Object
100
AcDbLine
 10
17.195
 20
5.491
 30
0.0
 11
17.195
 21
5.508
 31
0.0
  0
LINE
  5
359
330
18
100
AcDbEntity
  8
Object
100
AcDbLine
 10
17.195
 20
5.508
 30
0.0
 11
17.2
 21
5.509999999999999
 31
0.0
  0
LINE
  5
35A
330
18
100
AcDbEntity
  8
Object
100
AcDbLine
 10
17.558
 20
5.512
 30
0.0
 11
17.235
 21
5.512
 31
0.0
  0
LINE
  5
35B
330
18
100
AcDbEntity
  8
Object
100
AcDbLine
 10
18.064
 20
5.075
 30
0.0
 11
18.057
 21
5.075
 31
0.0
  0
LINE
  5
35C
330
18
100
AcDbEntity
  8
Object
100
AcDbLine
 10
18.057
 20
5.075
 30
0.0
 11
18.037
 21
5.075
 31
0.0
  0
LINE
  5
35D
330
18
100
AcDbEntity
  8
Object
100
AcDbLine
 10
18.037
 20
5.075
 30
0.0
 11
18.004
 21
5.075
 31
0.0
  0
LINE
  5
35E
330
18
100
AcDbEntity
  8
Object
100
AcDbLine
 10
18.004
 20
5.075
 30
0.0
 11
17.96
 21
5.075
 31
0.0
  0
LINE
  5
35F
330
18
100
AcDbEntity
  8
Object
100
AcDbLine
 10
17.96
 20
5.075
 30
0.0
 11
17.908
 21
5.075
 31
0.0
  0
LINE
  5
360
330
18
100
AcDbEntity
  8
Object
100
AcDbLine
 10
17.908
 20
5.075
 30
0.0
 11
17.852
 21
5.075
 31
0.0
  0
LINE
  5
361
330
18
100
AcDbEntity
  8
Object
100
AcDbLine
 10
17.852
 20
5.075
 30
0.0
 11
17.793
 21
5.075
 31
0.0
  0
LINE
  5
362
330
18
100
AcDbEntity
  8
Object
100
AcDbLine
 10
17.793
 20
5.075
 30
0.0
 11
17.736
 21
5.075
 31
0.0
  0
LINE
  5
363
330
18
100
AcDbEntity
  8
Object
100
AcDbLine
 10
17.736
 20
5.075
 30
0.0
 11
17.684
 21
5.075
 31
0.0
  0
LINE
  5
364
330
18
100
AcDbEntity
  8
Object
100
AcDbLine
 10
17.684
 20
5.075
 30
0.0
 11
17.639
 21
5.075
 31
0.0
  0
LINE
  5
365
330
18
100
AcDbEntity
  8
Object
100
AcDbLine
 10
17.639
 20
5.075
 30
0.0
 11
17.605
 21
5.075
 31
0.0
  0
LINE
  5
366
330
18
100
AcDbEntity
  8
Object
100
AcDbLine
 10
17.605
 20
5.075
 30
0.0
 11
17.584
 21
5.075
 31
0.0
  0
LINE
  5
367
330
18
100
AcDbEntity
  8
Object
100
AcDbLine
 10
17.584
 20
5.075
 30
0.0
 11
17.575
 21
5.075
 31
0.0
  0
LINE
  5
368
330
18
100
AcDbEntity
  8
Object
100
AcDbLine
 10
18.064
 20
5.137
 30
0.0
 11
18.064
 21
5.075
 31
0.0
  0
LINE
  5
369
330
18
100
AcDbEntity
  8
Object
100
AcDbLine
 10
18.064
 20
5.075
 30
0.0
 11
18.057
 21
5.075
 31
0.0
  0
LINE
  5
36A
330
18
100
AcDbEntity
  8
Object
100
AcDbLine
 10
18.057
 20
5.075
 30
0.0
 11
18.037
 21
5.075
 31
0.0
  0
LINE
  5
36B
330
18
100
AcDbEntity
  8
Object
100
AcDbLine
 10
18.037
 20
5.075
 30
0.0
 11
18.004
 21
5.075
 31
0.0
  0
LINE
  5
36C
330
18
100
AcDbEntity
  8
Object
100
AcDbLine
 10
18.004
 20
5.075
 30
0.0
 11
17.96
 21
5.075
 31
0.0
  0
LINE
  5
36D
330
18
100
AcDbEntity
  8
Object
100
AcDbLine
 10
17.96
 20
5.075
 30
0.0
 11
17.908
 21
5.075
 31
0.0
  0
LINE
  5
36E
330
18
100
AcDbEntity
  8
Object
100
AcDbLine
 10
17.908
 20
5.075
 30
0.0
 11
17.852
 21
5.075
 31
0.0
  0
LINE
  5
36F
330
18
100
AcDbEntity
  8
Object
100
AcDbLine
 10
17.852
 20
5.075
 30
0.0
 11
17.793
 21
5.075
 31
0.0
  0
LINE
  5
370
330
18
100
AcDbEntity
  8
Object
100
AcDbLine
 10
17.793
 20
5.075
 30
0.0
 11
17.736
 21
5.075
 31
0.0
  0
LINE
  5
371
330
18
100
AcDbEntity
  8
Object
100
AcDbLine
 10
17.736
 20
5.075
 30
0.0
 11
17.684
 21
5.075
 31
0.0
  0
LINE
  5
372
330
18
100
AcDbEntity
  8
Object
100
AcDbLine
 10
17.684
 20
5.075
 30
0.0
 11
17.639
 21
5.075
 31
0.0
  0
LINE
  5
373
330
18
100
AcDbEntity
  8
Object
100
AcDbLine
 10
17.639
 20
5.075
 30
0.0
 11
17.605
 21
5.075
 31
0.0
  0
LINE
  5
374
330
18
100
AcDbEntity
  8
Object
100
AcDbLine
 10
17.605
 20
5.075
 30
0.0
 11
17.584
 21
5.075
 31
0.0
  0
LINE
  5
375
330
18
100
AcDbEntity
  8
Object
100
AcDbLine
 10
17.584
 20
5.075
 30
0.0
 11
17.575
 21
5.075
 31
0.0
  0
LINE
  5
376
330
18
100
AcDbEntity
  8
Object
100
AcDbLine
 10
17.575
 20
5.075
 30
0.0
 11
17.575
 21
5.137
 31
0.0
  0
LINE
  5
377
330
18
100
AcDbEntity
  8
Object
100
AcDbLine
 10
18.03
 20
5.560999999999999
 30
0.0
 11
18.023
 21
5.560999999999999
 31
0.0
  0
LINE
  5
378
330
18
100
AcDbEntity
  8
Object
100
AcDbLine
 10
18.023
 20
5.560999999999999
 30
0.0
 11
18.002
 21
5.560999999999999
 31
0.0
  0
LINE
  5
379
330
18
100
AcDbEntity
  8
Object
100
AcDbLine
 10
18.002
 20
5.560999999999999
 30
0.0
 11
17.968
 21
5.560999999999999
 31
0.0
  0
LINE
  5
37A
330
18
100
AcDbEntity
  8
Object
100
AcDbLine
 10
17.968
 20
5.560999999999999
 30
0.0
 11
17.925
 21
5.560999999999999
 31
0.0
  0
LINE
  5
37B
330
18
100
AcDbEntity
  8
Object
100
AcDbLine
 10
17.925
 20
5.560999999999999
 30
0.0
 11
17.874
 21
5.560999999999999
 31
0.0
  0
LINE
  5
37C
330
18
100
AcDbEntity
  8
Object
100
AcDbLine
 10
17.874
 20
5.560999999999999
 30
0.0
 11
17.82
 21
5.560999999999999
 31
0.0
  0
LINE
  5
37D
330
18
100
AcDbEntity
  8
Object
100
AcDbLine
 10
17.82
 20
5.560999999999999
 30
0.0
 11
17.765
 21
5.560999999999999
 31
0.0
  0
LINE
  5
37E
330
18
100
AcDbEntity
  8
Object
100
AcDbLine
 10
17.765
 20
5.560999999999999
 30
0.0
 11
17.715
 21
5.560999999999999
 31
0.0
  0
LINE
  5
37F
330
18
100
AcDbEntity
  8
Object
100
AcDbLine
 10
17.715
 20
5.560999999999999
 30
0.0
 11
17.671
 21
5.560999999999999
 31
0.0
  0
LINE
  5
380
330
18
100
AcDbEntity
  8
Object
100
AcDbLine
 10
17.671
 20
5.560999999999999
 30
0.0
 11
17.638
 21
5.560999999999999
 31
0.0
  0
LINE
  5
381
330
18
100
AcDbEntity
  8
Object
100
AcDbLine
 10
17.638
 20
5.560999999999999
 30
0.0
 11
17.617
 21
5.560999999999999
 31
0.0
  0
LINE
  5
382
330
18
100
AcDbEntity
  8
Object
100
AcDbLine
 10
17.617
 20
5.560999999999999
 30
0.0
 11
17.61
 21
5.560999999999999
 31
0.0
  0
LINE
  5
383
330
18
100
AcDbEntity
  8
Object
100
AcDbLine
 10
18.04
 20
5.551
 30
0.0
 11
18.03
 21
5.560999999999999
 31
0.0
  0
LINE
  5
384
330
18
100
AcDbEntity
  8
Object
100
AcDbLine
 10
17.61
 20
5.560999999999999
 30
0.0
 11
17.6
 21
5.551
 31
0.0
  0
LINE
  5
385
330
18
100
AcDbEntity
  8
Object
100
AcDbLine
 10
18.032
 20
5.551
 30
0.0
 11
18.04
 21
5.551
 31
0.0
  0
LINE
  5
386
330
18
100
AcDbEntity
  8
Object
100
AcDbLine
 10
18.03
 20
5.560999999999999
 30
0.0
 11
18.023
 21
5.560999999999999
 31
0.0
  0
LINE
  5
387
330
18
100
AcDbEntity
  8
Object
100
AcDbLine
 10
18.023
 20
5.560999999999999
 30
0.0
 11
18.002
 21
5.560999999999999
 31
0.0
  0
LINE
  5
388
330
18
100
AcDbEntity
  8
Object
100
AcDbLine
 10
18.002
 20
5.560999999999999
 30
0.0
 11
17.968
 21
5.560999999999999
 31
0.0
  0
LINE
  5
389
330
18
100
AcDbEntity
  8
Object
100
AcDbLine
 10
17.968
 20
5.560999999999999
 30
0.0
 11
17.925
 21
5.560999999999999
 31
0.0
  0
LINE
  5
38A
330
18
100
AcDbEntity
  8
Object
100
AcDbLine
 10
17.925
 20
5.560999999999999
 30
0.0
 11
17.874
 21
5.560999999999999
 31
0.0
  0
LINE
  5
38B
330
18
100
AcDbEntity
  8
Object
100
AcDbLine
 10
17.874
 20
5.560999999999999
 30
0.0
 11
17.82
 21
5.560999999999999
 31
0.0
  0
LINE
  5
38C
330
18
100
AcDbEntity
  8
Object
100
AcDbLine
 10
17.82
 20
5.560999999999999
 30
0.0
 11
17.765
 21
5.560999999999999
 31
0.0
  0
LINE
  5
38D
330
18
100
AcDbEntity
  8
Object
100
AcDbLine
 10
17.765
 20
5.560999999999999
 30
0.0
 11
17.715
 21
5.560999999999999
 31
0.0
  0
LINE
  5
38E
330
18
100
AcDbEntity
  8
Object
100
AcDbLine
 10
17.715
 20
5.560999999999999
 30
0.0
 11
17.671
 21
5.560999999999999
 31
0.0
  0
LINE
  5
38F
330
18
100
AcDbEntity
  8
Object
100
AcDbLine
 10
17.671
 20
5.560999999999999
 30
0.0
 11
17.638
 21
5.560999999999999
 31
0.0
  0
LINE
  5
390
330
18
100
AcDbEntity
  8
Object
100
AcDbLine
 10
17.638
 20
5.560999999999999
 30
0.0
 11
17.617
 21
5.560999999999999
 31
0.0
  0
LINE
  5
391
330
18
100
AcDbEntity
  8
Object
100
AcDbLine
 10
17.617
 20
5.560999999999999
 30
0.0
 11
17.61
 21
5.560999999999999
 31
0.0
  0
LINE
  5
392
330
18
100
AcDbEntity
  8
Object
100
AcDbLine
 10
18.04
 20
5.391
 30
0.0
 11
18.04
 21
5.551
 31
0.0
  0
LINE
  5
393
330
18
100
AcDbEntity
  8
Object
100
AcDbLine
 10
17.6
 20
5.551
 30
0.0
 11
17.6
 21
5.391
 31
0.0
  0
LINE
  5
394
330
18
100
AcDbEntity
  8
Object
100
AcDbLine
 10
18.032
 20
5.551
 30
0.0
 11
18.01
 21
5.551
 31
0.0
  0
LINE
  5
395
330
18
100
AcDbEntity
  8
Object
100
AcDbLine
 10
18.01
 20
5.551
 30
0.0
 11
17.975
 21
5.551
 31
0.0
  0
LINE
  5
396
330
18
100
AcDbEntity
  8
Object
100
AcDbLine
 10
17.975
 20
5.551
 30
0.0
 11
17.93
 21
5.551
 31
0.0
  0
LINE
  5
397
330
18
100
AcDbEntity
  8
Object
100
AcDbLine
 10
17.93
 20
5.551
 30
0.0
 11
17.877
 21
5.551
 31
0.0
  0
LINE
  5
398
330
18
100
AcDbEntity
  8
Object
100
AcDbLine
 10
17.877
 20
5.551
 30
0.0
 11
17.82
 21
5.551
 31
0.0
  0
LINE
  5
399
330
18
100
AcDbEntity
  8
Object
100
AcDbLine
 10
17.82
 20
5.551
 30
0.0
 11
17.763
 21
5.551
 31
0.0
  0
LINE
  5
39A
330
18
100
AcDbEntity
  8
Object
100
AcDbLine
 10
17.763
 20
5.551
 30
0.0
 11
17.71
 21
5.551
 31
0.0
  0
LINE
  5
39B
330
18
100
AcDbEntity
  8
Object
100
AcDbLine
 10
17.71
 20
5.551
 30
0.0
 11
17.664
 21
5.551
 31
0.0
  0
LINE
  5
39C
330
18
100
AcDbEntity
  8
Object
100
AcDbLine
 10
17.664
 20
5.551
 30
0.0
 11
17.629
 21
5.551
 31
0.0
  0
LINE
  5
39D
330
18
100
AcDbEntity
  8
Object
100
AcDbLine
 10
17.629
 20
5.551
 30
0.0
 11
17.607
 21
5.551
 31
0.0
  0
LINE
  5
39E
330
18
100
AcDbEntity
  8
Object
100
AcDbLine
 10
17.607
 20
5.551
 30
0.0
 11
17.6
 21
5.551
 31
0.0
  0
LINE
  5
39F
330
18
100
AcDbEntity
  8
Object
100
AcDbLine
 10
17.601
 20
4.911999999999999
 30
0.0
 11
17.608
 21
4.911999999999999
 31
0.0
  0
LINE
  5
3A0
330
18
100
AcDbEntity
  8
Object
100
AcDbLine
 10
17.598
 20
4.918
 30
0.0
 11
17.63
 21
4.911999999999999
 31
0.0
  0
LINE
  5
3A1
330
18
100
AcDbEntity
  8
Object
100
AcDbLine
 10
17.63
 20
4.911999999999999
 30
0.0
 11
17.608
 21
4.911999999999999
 31
0.0
  0
LINE
  5
3A2
330
18
100
AcDbEntity
  8
Object
100
AcDbLine
 10
17.601
 20
4.911999999999999
 30
0.0
 11
17.567
 21
4.932
 31
0.0
  0
LINE
  5
3A3
330
18
100
AcDbEntity
  8
Object
100
AcDbLine
 10
17.567
 20
4.932
 30
0.0
 11
17.598
 21
4.918
 31
0.0
  0
LINE
  5
3A4
330
18
100
AcDbEntity
  8
Object
100
AcDbLine
 10
17.567
 20
5.054999999999999
 30
0.0
 11
17.567
 21
4.932
 31
0.0
  0
LINE
  5
3A5
330
18
100
AcDbEntity
  8
Object
100
AcDbLine
 10
17.662
 20
5.07
 30
0.0
 11
17.693
 21
5.054999999999999
 31
0.0
  0
LINE
  5
3A6
330
18
100
AcDbEntity
  8
Object
100
AcDbLine
 10
17.693
 20
5.054999999999999
 30
0.0
 11
17.693
 21
4.932
 31
0.0
  0
LINE
  5
3A7
330
18
100
AcDbEntity
  8
Object
100
AcDbLine
 10
17.662
 20
5.07
 30
0.0
 11
17.63
 21
5.075
 31
0.0
  0
LINE
  5
3A8
330
18
100
AcDbEntity
  8
Object
100
AcDbLine
 10
17.63
 20
4.911999999999999
 30
0.0
 11
17.662
 21
4.918
 31
0.0
  0
LINE
  5
3A9
330
18
100
AcDbEntity
  8
Object
100
AcDbLine
 10
17.63
 20
5.075
 30
0.0
 11
17.598
 21
5.07
 31
0.0
  0
LINE
  5
3AA
330
18
100
AcDbEntity
  8
Object
100
AcDbLine
 10
17.598
 20
5.07
 30
0.0
 11
17.567
 21
5.054999999999999
 31
0.0
  0
LINE
  5
3AB
330
18
100
AcDbEntity
  8
Object
100
AcDbLine
 10
18.039
 20
4.911999999999999
 30
0.0
 11
18.031
 21
4.911999999999999
 31
0.0
  0
LINE
  5
3AC
330
18
100
AcDbEntity
  8
Object
100
AcDbLine
 10
18.031
 20
4.911999999999999
 30
0.0
 11
18.009
 21
4.911999999999999
 31
0.0
  0
LINE
  5
3AD
330
18
100
AcDbEntity
  8
Object
100
AcDbLine
 10
18.009
 20
4.911999999999999
 30
0.0
 11
17.989
 21
4.911999999999999
 31
0.0
  0
LINE
  5
3AE
330
18
100
AcDbEntity
  8
Object
100
AcDbLine
 10
17.989
 20
4.911999999999999
 30
0.0
 11
17.963
 21
4.911999999999999
 31
0.0
  0
LINE
  5
3AF
330
18
100
AcDbEntity
  8
Object
100
AcDbLine
 10
17.963
 20
4.911999999999999
 30
0.0
 11
17.933
 21
4.911999999999999
 31
0.0
  0
LINE
  5
3B0
330
18
100
AcDbEntity
  8
Object
100
AcDbLine
 10
17.933
 20
4.911999999999999
 30
0.0
 11
17.897
 21
4.911999999999999
 31
0.0
  0
LINE
  5
3B1
330
18
100
AcDbEntity
  8
Object
100
AcDbLine
 10
17.897
 20
4.911999999999999
 30
0.0
 11
17.859
 21
4.911999999999999
 31
0.0
  0
LINE
  5
3B2
330
18
100
AcDbEntity
  8
Object
100
AcDbLine
 10
17.859
 20
4.911999999999999
 30
0.0
 11
17.82
 21
4.911999999999999
 31
0.0
  0
LINE
  5
3B3
330
18
100
AcDbEntity
  8
Object
100
AcDbLine
 10
17.82
 20
4.911999999999999
 30
0.0
 11
17.763
 21
4.911999999999999
 31
0.0
  0
LINE
  5
3B4
330
18
100
AcDbEntity
  8
Object
100
AcDbLine
 10
17.763
 20
4.911999999999999
 30
0.0
 11
17.71
 21
4.911999999999999
 31
0.0
  0
LINE
  5
3B5
330
18
100
AcDbEntity
  8
Object
100
AcDbLine
 10
17.71
 20
4.911999999999999
 30
0.0
 11
17.665
 21
4.911999999999999
 31
0.0
  0
LINE
  5
3B6
330
18
100
AcDbEntity
  8
Object
100
AcDbLine
 10
17.665
 20
4.911999999999999
 30
0.0
 11
17.63
 21
4.911999999999999
 31
0.0
  0
LINE
  5
3B7
330
18
100
AcDbEntity
  8
Object
100
AcDbLine
 10
17.63
 20
4.911999999999999
 30
0.0
 11
17.608
 21
4.911999999999999
 31
0.0
  0
LINE
  5
3B8
330
18
100
AcDbEntity
  8
Object
100
AcDbLine
 10
17.608
 20
4.911999999999999
 30
0.0
 11
17.601
 21
4.911999999999999
 31
0.0
  0
LINE
  5
3B9
330
18
100
AcDbEntity
  8
Object
100
AcDbLine
 10
17.601
 20
5.075
 30
0.0
 11
17.567
 21
5.054999999999999
 31
0.0
  0
LINE
  5
3BA
330
18
100
AcDbEntity
  8
Object
100
AcDbLine
 10
17.884
 20
5.07
 30
0.0
 11
17.946
 21
5.054999999999999
 31
0.0
  0
LINE
  5
3BB
330
18
100
AcDbEntity
  8
Object
100
AcDbLine
 10
17.946
 20
5.054999999999999
 30
0.0
 11
17.946
 21
4.932
 31
0.0
  0
LINE
  5
3BC
330
18
100
AcDbEntity
  8
Object
100
AcDbLine
 10
17.884
 20
5.07
 30
0.0
 11
17.82
 21
5.075
 31
0.0
  0
LINE
  5
3BD
330
18
100
AcDbEntity
  8
Object
100
AcDbLine
 10
17.884
 20
4.918
 30
0.0
 11
17.82
 21
4.911999999999999
 31
0.0
  0
LINE
  5
3BE
330
18
100
AcDbEntity
  8
Object
100
AcDbLine
 10
17.82
 20
4.911999999999999
 30
0.0
 11
17.756
 21
4.918
 31
0.0
  0
LINE
  5
3BF
330
18
100
AcDbEntity
  8
Object
100
AcDbLine
 10
17.82
 20
5.075
 30
0.0
 11
17.756
 21
5.07
 31
0.0
  0
LINE
  5
3C0
330
18
100
AcDbEntity
  8
Object
100
AcDbLine
 10
17.756
 20
5.07
 30
0.0
 11
17.693
 21
5.054999999999999
 31
0.0
  0
LINE
  5
3C1
330
18
100
AcDbEntity
  8
Object
100
AcDbLine
 10
17.82
 20
4.911999999999999
 30
0.0
 11
17.763
 21
4.911999999999999
 31
0.0
  0
LINE
  5
3C2
330
18
100
AcDbEntity
  8
Object
100
AcDbLine
 10
17.763
 20
4.911999999999999
 30
0.0
 11
17.71
 21
4.911999999999999
 31
0.0
  0
LINE
  5
3C3
330
18
100
AcDbEntity
  8
Object
100
AcDbLine
 10
17.756
 20
4.918
 30
0.0
 11
17.693
 21
4.932
 31
0.0
  0
LINE
  5
3C4
330
18
100
AcDbEntity
  8
Object
100
AcDbLine
 10
17.693
 20
4.932
 30
0.0
 11
17.662
 21
4.918
 31
0.0
  0
LINE
  5
3C5
330
18
100
AcDbEntity
  8
Object
100
AcDbLine
 10
17.71
 20
4.911999999999999
 30
0.0
 11
17.665
 21
4.911999999999999
 31
0.0
  0
LINE
  5
3C6
330
18
100
AcDbEntity
  8
Object
100
AcDbLine
 10
17.665
 20
4.911999999999999
 30
0.0
 11
17.63
 21
4.911999999999999
 31
0.0
  0
LINE
  5
3C7
330
18
100
AcDbEntity
  8
Object
100
AcDbLine
 10
17.978
 20
4.918
 30
0.0
 11
18.009
 21
4.911999999999999
 31
0.0
  0
LINE
  5
3C8
330
18
100
AcDbEntity
  8
Object
100
AcDbLine
 10
18.009
 20
4.911999999999999
 30
0.0
 11
17.989
 21
4.911999999999999
 31
0.0
  0
LINE
  5
3C9
330
18
100
AcDbEntity
  8
Object
100
AcDbLine
 10
17.989
 20
4.911999999999999
 30
0.0
 11
17.963
 21
4.911999999999999
 31
0.0
  0
LINE
  5
3CA
330
18
100
AcDbEntity
  8
Object
100
AcDbLine
 10
17.978
 20
4.918
 30
0.0
 11
17.946
 21
4.932
 31
0.0
  0
LINE
  5
3CB
330
18
100
AcDbEntity
  8
Object
100
AcDbLine
 10
17.933
 20
4.911999999999999
 30
0.0
 11
17.963
 21
4.911999999999999
 31
0.0
  0
LINE
  5
3CC
330
18
100
AcDbEntity
  8
Object
100
AcDbLine
 10
18.041
 20
4.918
 30
0.0
 11
18.073
 21
4.932
 31
0.0
  0
LINE
  5
3CD
330
18
100
AcDbEntity
  8
Object
100
AcDbLine
 10
18.073
 20
4.932
 30
0.0
 11
18.039
 21
4.911999999999999
 31
0.0
  0
LINE
  5
3CE
330
18
100
AcDbEntity
  8
Object
100
AcDbLine
 10
18.039
 20
4.911999999999999
 30
0.0
 11
18.031
 21
4.911999999999999
 31
0.0
  0
LINE
  5
3CF
330
18
100
AcDbEntity
  8
Object
100
AcDbLine
 10
18.031
 20
4.911999999999999
 30
0.0
 11
18.009
 21
4.911999999999999
 31
0.0
  0
LINE
  5
3D0
330
18
100
AcDbEntity
  8
Object
100
AcDbLine
 10
18.009
 20
4.911999999999999
 30
0.0
 11
18.041
 21
4.918
 31
0.0
  0
LINE
  5
3D1
330
18
100
AcDbEntity
  8
Object
100
AcDbLine
 10
17.946
 20
4.932
 30
0.0
 11
17.933
 21
4.911999999999999
 31
0.0
  0
LINE
  5
3D2
330
18
100
AcDbEntity
  8
Object
100
AcDbLine
 10
17.933
 20
4.911999999999999
 30
0.0
 11
17.897
 21
4.911999999999999
 31
0.0
  0
LINE
  5
3D3
330
18
100
AcDbEntity
  8
Object
100
AcDbLine
 10
17.946
 20
4.932
 30
0.0
 11
17.884
 21
4.918
 31
0.0
  0
LINE
  5
3D4
330
18
100
AcDbEntity
  8
Object
100
AcDbLine
 10
17.897
 20
4.911999999999999
 30
0.0
 11
17.859
 21
4.911999999999999
 31
0.0
  0
LINE
  5
3D5
330
18
100
AcDbEntity
  8
Object
100
AcDbLine
 10
17.859
 20
4.911999999999999
 30
0.0
 11
17.82
 21
4.911999999999999
 31
0.0
  0
LINE
  5
3D6
330
18
100
AcDbEntity
  8
Object
100
AcDbLine
 10
18.073
 20
4.932
 30
0.0
 11
18.073
 21
5.054999999999999
 31
0.0
  0
LINE
  5
3D7
330
18
100
AcDbEntity
  8
Object
100
AcDbLine
 10
17.946
 20
5.054999999999999
 30
0.0
 11
17.933
 21
5.075
 31
0.0
  0
LINE
  5
3D8
330
18
100
AcDbEntity
  8
Object
100
AcDbLine
 10
18.041
 20
5.07
 30
0.0
 11
18.009
 21
5.075
 31
0.0
  0
LINE
  5
3D9
330
18
100
AcDbEntity
  8
Object
100
AcDbLine
 10
18.009
 20
5.075
 30
0.0
 11
17.978
 21
5.07
 31
0.0
  0
LINE
  5
3DA
330
18
100
AcDbEntity
  8
Object
100
AcDbLine
 10
17.978
 20
5.07
 30
0.0
 11
17.946
 21
5.054999999999999
 31
0.0
  0
LINE
  5
3DB
330
18
100
AcDbEntity
  8
Object
100
AcDbLine
 10
18.039
 20
5.075
 30
0.0
 11
18.073
 21
5.054999999999999
 31
0.0
  0
LINE
  5
3DC
330
18
100
AcDbEntity
  8
Object
100
AcDbLine
 10
18.073
 20
5.054999999999999
 30
0.0
 11
18.041
 21
5.07
 31
0.0
  0
LINE
  5
3DD
330
18
100
AcDbEntity
  8
Object
100
AcDbLine
 10
17.912
 20
5.575
 30
0.0
 11
17.929
 21
5.575
 31
0.0
  0
LINE
  5
3DE
330
18
100
AcDbEntity
  8
Object
100
AcDbLine
 10
17.929
 20
5.575
 30
0.0
 11
17.903
 21
5.573
 31
0.0
  0
LINE
  5
3DF
330
18
100
AcDbEntity
  8
Object
100
AcDbLine
 10
17.912
 20
5.575
 30
0.0
 11
17.891
 21
5.575
 31
0.0
  0
LINE
  5
3E0
330
18
100
AcDbEntity
  8
Object
100
AcDbLine
 10
17.869
 20
5.57
 30
0.0
 11
17.903
 21
5.573
 31
0.0
  0
LINE
  5
3E1
330
18
100
AcDbEntity
  8
Object
100
AcDbLine
 10
17.891
 20
5.575
 30
0.0
 11
17.868
 21
5.575
 31
0.0
  0
LINE
  5
3E2
330
18
100
AcDbEntity
  8
Object
100
AcDbLine
 10
17.868
 20
5.575
 30
0.0
 11
17.842
 21
5.575
 31
0.0
  0
LINE
  5
3E3
330
18
100
AcDbEntity
  8
Object
100
AcDbLine
 10
17.829
 20
5.567
 30
0.0
 11
17.869
 21
5.57
 31
0.0
  0
LINE
  5
3E4
330
18
100
AcDbEntity
  8
Object
100
AcDbLine
 10
17.842
 20
5.575
 30
0.0
 11
17.817
 21
5.575
 31
0.0
  0
LINE
  5
3E5
330
18
100
AcDbEntity
  8
Object
100
AcDbLine
 10
17.788
 20
5.565
 30
0.0
 11
17.829
 21
5.567
 31
0.0
  0
LINE
  5
3E6
330
18
100
AcDbEntity
  8
Object
100
AcDbLine
 10
17.817
 20
5.575
 30
0.0
 11
17.792
 21
5.575
 31
0.0
  0
LINE
  5
3E7
330
18
100
AcDbEntity
  8
Object
100
AcDbLine
 10
17.751
 20
5.575
 30
0.0
 11
17.77
 21
5.575
 31
0.0
  0
LINE
  5
3E8
330
18
100
AcDbEntity
  8
Object
100
AcDbLine
 10
17.77
 20
5.575
 30
0.0
 11
17.792
 21
5.575
 31
0.0
  0
LINE
  5
3E9
330
18
100
AcDbEntity
  8
Object
100
AcDbLine
 10
17.751
 20
5.562
 30
0.0
 11
17.788
 21
5.565
 31
0.0
  0
LINE
  5
3EA
330
18
100
AcDbEntity
  8
Object
100
AcDbLine
 10
17.728
 20
5.572
 30
0.0
 11
17.738
 21
5.573999999999999
 31
0.0
  0
LINE
  5
3EB
330
18
100
AcDbEntity
  8
Object
100
AcDbLine
 10
17.738
 20
5.573999999999999
 30
0.0
 11
17.751
 21
5.575
 31
0.0
  0
LINE
  5
3EC
330
18
100
AcDbEntity
  8
Object
100
AcDbLine
 10
17.739
 20
5.560999999999999
 30
0.0
 11
17.751
 21
5.562
 31
0.0
  0
LINE
  5
3ED
330
18
100
AcDbEntity
  8
Object
100
AcDbLine
 10
17.728
 20
5.572
 30
0.0
 11
17.722
 21
5.57
 31
0.0
  0
LINE
  5
3EE
330
18
100
AcDbEntity
  8
Object
100
AcDbLine
 10
17.722
 20
5.57
 30
0.0
 11
17.706
 21
5.560999999999999
 31
0.0
  0
LINE
  5
3EF
330
18
100
AcDbEntity
  8
Object
100
AcDbLine
 10
17.942
 20
5.57
 30
0.0
 11
17.945
 21
5.570999999999999
 31
0.0
  0
LINE
  5
3F0
330
18
100
AcDbEntity
  8
Object
100
AcDbLine
 10
17.924
 20
5.565999999999999
 30
0.0
 11
17.935
 21
5.568
 31
0.0
  0
LINE
  5
3F1
330
18
100
AcDbEntity
  8
Object
100
AcDbLine
 10
17.935
 20
5.568
 30
0.0
 11
17.942
 21
5.57
 31
0.0
  0
LINE
  5
3F2
330
18
100
AcDbEntity
  8
Object
100
AcDbLine
 10
17.942
 20
5.57
 30
0.0
 11
17.927
 21
5.560999999999999
 31
0.0
  0
LINE
  5
3F3
330
18
100
AcDbEntity
  8
Object
100
AcDbLine
 10
17.924
 20
5.565999999999999
 30
0.0
 11
17.908
 21
5.565
 31
0.0
  0
LINE
  5
3F4
330
18
100
AcDbEntity
  8
Object
100
AcDbLine
 10
17.908
 20
5.565
 30
0.0
 11
17.889
 21
5.562999999999999
 31
0.0
  0
LINE
  5
3F5
330
18
100
AcDbEntity
  8
Object
100
AcDbLine
 10
17.889
 20
5.562999999999999
 30
0.0
 11
17.868
 21
5.562
 31
0.0
  0
LINE
  5
3F6
330
18
100
AcDbEntity
  8
Object
100
AcDbLine
 10
17.868
 20
5.562
 30
0.0
 11
17.86
 21
5.560999999999999
 31
0.0
  0
LINE
  5
3F7
330
18
100
AcDbEntity
  8
Object
100
AcDbLine
 10
17.72
 20
5.575
 30
0.0
 11
17.72
 21
5.568999999999999
 31
0.0
  0
LINE
  5
3F8
330
18
100
AcDbEntity
  8
Object
100
AcDbLine
 10
17.943
 20
5.575
 30
0.0
 11
17.945
 21
5.575
 31
0.0
  0
LINE
  5
3F9
330
18
100
AcDbEntity
  8
Object
100
AcDbLine
 10
17.945
 20
5.575
 30
0.0
 11
17.945
 21
5.570999999999999
 31
0.0
  0
LINE
  5
3FA
330
18
100
AcDbEntity
  8
Object
100
AcDbLine
 10
17.943
 20
5.575
 30
0.0
 11
17.938
 21
5.575
 31
0.0
  0
LINE
  5
3FB
330
18
100
AcDbEntity
  8
Object
100
AcDbLine
 10
17.938
 20
5.575
 30
0.0
 11
17.929
 21
5.575
 31
0.0
  0
LINE
  5
3FC
330
18
100
AcDbEntity
  8
Object
100
AcDbLine
 10
17.751
 20
5.575
 30
0.0
 11
17.734
 21
5.575
 31
0.0
  0
LINE
  5
3FD
330
18
100
AcDbEntity
  8
Object
100
AcDbLine
 10
17.734
 20
5.575
 30
0.0
 11
17.723
 21
5.575
 31
0.0
  0
LINE
  5
3FE
330
18
100
AcDbEntity
  8
Object
100
AcDbLine
 10
17.723
 20
5.575
 30
0.0
 11
17.72
 21
5.575
 31
0.0
  0
LINE
  5
3FF
330
18
100
AcDbEntity
  8
Object
100
AcDbLine
 10
17.945
 20
5.575
 30
0.0
 11
17.943
 21
5.575
 31
0.0
  0
LINE
  5
400
330
18
100
AcDbEntity
  8
Object
100
AcDbLine
 10
17.943
 20
5.575
 30
0.0
 11
17.938
 21
5.575
 31
0.0
  0
LINE
  5
401
330
18
100
AcDbEntity
  8
Object
100
AcDbLine
 10
17.938
 20
5.575
 30
0.0
 11
17.929
 21
5.575
 31
0.0
  0
LINE
  5
402
330
18
100
AcDbEntity
  8
Object
100
AcDbLine
 10
17.929
 20
5.575
 30
0.0
 11
17.912
 21
5.575
 31
0.0
  0
LINE
  5
403
330
18
100
AcDbEntity
  8
Object
100
AcDbLine
 10
17.912
 20
5.575
 30
0.0
 11
17.891
 21
5.575
 31
0.0
  0
LINE
  5
404
330
18
100
AcDbEntity
  8
Object
100
AcDbLine
 10
17.891
 20
5.575
 30
0.0
 11
17.868
 21
5.575
 31
0.0
  0
LINE
  5
405
330
18
100
AcDbEntity
  8
Object
100
AcDbLine
 10
17.868
 20
5.575
 30
0.0
 11
17.842
 21
5.575
 31
0.0
  0
LINE
  5
406
330
18
100
AcDbEntity
  8
Object
100
AcDbLine
 10
17.842
 20
5.575
 30
0.0
 11
17.817
 21
5.575
 31
0.0
  0
LINE
  5
407
330
18
100
AcDbEntity
  8
Object
100
AcDbLine
 10
17.817
 20
5.575
 30
0.0
 11
17.792
 21
5.575
 31
0.0
  0
LINE
  5
408
330
18
100
AcDbEntity
  8
Object
100
AcDbLine
 10
17.792
 20
5.575
 30
0.0
 11
17.77
 21
5.575
 31
0.0
  0
LINE
  5
409
330
18
100
AcDbEntity
  8
Object
100
AcDbLine
 10
17.77
 20
5.575
 30
0.0
 11
17.751
 21
5.575
 31
0.0
  0
LINE
  5
40A
330
18
100
AcDbEntity
  8
Object
100
AcDbLine
 10
17.751
 20
5.575
 30
0.0
 11
17.734
 21
5.575
 31
0.0
  0
LINE
  5
40B
330
18
100
AcDbEntity
  8
Object
100
AcDbLine
 10
17.734
 20
5.575
 30
0.0
 11
17.723
 21
5.575
 31
0.0
  0
LINE
  5
40C
330
18
100
AcDbEntity
  8
Object
100
AcDbLine
 10
17.723
 20
5.575
 30
0.0
 11
17.72
 21
5.575
 31
0.0
  0
LINE
  5
40D
330
18
100
AcDbEntity
  8
Object
100
AcDbLine
 10
12.07
 20
5.315999999999999
 30
0.0
 11
11.695
 21
5.315999999999999
 31
0.0
  0
LINE
  5
40E
330
18
100
AcDbEntity
  8
Object
100
AcDbLine
 10
11.695
 20
5.315999999999999
 30
0.0
 11
2.444999999999999
 21
5.315999999999999
 31
0.0
  0
LINE
  5
40F
330
18
100
AcDbEntity
  8
Object
100
AcDbLine
 10
2.444999999999999
 20
5.315999999999999
 30
0.0
 11
2.069999999999999
 21
5.315999999999999
 31
0.0
  0
LINE
  5
410
330
18
100
AcDbEntity
  8
Object
100
AcDbLine
 10
2.444999999999999
 20
5.315999999999999
 30
0.0
 11
2.444999999999999
 21
5.137
 31
0.0
  0
LINE
  5
411
330
18
100
AcDbEntity
  8
Object
100
AcDbLine
 10
2.444999999999999
 20
5.137
 30
0.0
 11
2.069999999999999
 21
5.137
 31
0.0
  0
LINE
  5
412
330
18
100
AcDbEntity
  8
Object
100
AcDbLine
 10
2.069999999999999
 20
5.137
 30
0.0
 11
2.069999999999999
 21
5.315999999999999
 31
0.0
  0
LINE
  5
413
330
18
100
AcDbEntity
  8
Object
100
AcDbLine
 10
2.069999999999999
 20
5.315999999999999
 30
0.0
 11
2.444999999999999
 21
5.315999999999999
 31
0.0
  0
LINE
  5
414
330
18
100
AcDbEntity
  8
Object
100
AcDbLine
 10
11.695
 20
5.137
 30
0.0
 11
12.07
 21
5.137
 31
0.0
  0
LINE
  5
415
330
18
100
AcDbEntity
  8
Object
100
AcDbLine
 10
11.695
 20
5.315999999999999
 30
0.0
 11
12.07
 21
5.315999999999999
 31
0.0
  0
LINE
  5
416
330
18
100
AcDbEntity
  8
Object
100
AcDbLine
 10
12.07
 20
5.315999999999999
 30
0.0
 11
12.07
 21
5.137
 31
0.0
  0
LINE
  5
417
330
18
100
AcDbEntity
  8
Object
100
AcDbLine
 10
2.069999999999999
 20
5.315999999999999
 30
0.0
 11
2.069999999999999
 21
5.137
 31
0.0
  0
LINE
  5
418
330
18
100
AcDbEntity
  8
Object
100
AcDbLine
 10
12.07
 20
5.137
 30
0.0
 11
12.07
 21
5.315999999999999
 31
0.0
  0
LINE
  5
419
330
18
100
AcDbEntity
  8
Object
100
AcDbLine
 10
11.695
 20
5.315999999999999
 30
0.0
 11
11.695
 21
5.137
 31
0.0
  0
LINE
  5
41A
330
18
100
AcDbEntity
  8
Object
100
AcDbLine
 10
11.695
 20
5.137
 30
0.0
 11
2.444999999999999
 21
5.137
 31
0.0
  0
LINE
  5
41B
330
18
100
AcDbEntity
  8
Object
100
AcDbLine
 10
11.695
 20
5.315999999999999
 30
0.0
 11
2.444999999999999
 21
5.315999999999999
 31
0.0
  0
LINE
  5
41C
330
18
100
AcDbEntity
  8
Object
100
AcDbLine
 10
12.07
 20
5.137
 30
0.0
 11
11.695
 21
5.137
 31
0.0
  0
LINE
  5
41D
330
18
100
AcDbEntity
  8
Object
100
AcDbLine
 10
11.695
 20
5.137
 30
0.0
 11
2.444999999999999
 21
5.137
 31
0.0
  0
LINE
  5
41E
330
18
100
AcDbEntity
  8
Object
100
AcDbLine
 10
2.444999999999999
 20
5.137
 30
0.0
 11
2.069999999999999
 21
5.137
 31
0.0
  0
LINE
  5
41F
330
18
100
AcDbEntity
  8
Object
100
AcDbLine
 10
4.769
 20
5.416
 30
0.0
 11
4.762
 21
5.413999999999999
 31
0.0
  0
LINE
  5
420
330
18
100
AcDbEntity
  8
Object
100
AcDbLine
 10
4.762
 20
5.413999999999999
 30
0.0
 11
4.758
 21
5.408999999999999
 31
0.0
  0
LINE
  5
421
330
18
100
AcDbEntity
  8
Object
100
AcDbLine
 10
4.758
 20
5.408999999999999
 30
0.0
 11
4.756
 21
5.402
 31
0.0
  0
LINE
  5
422
330
18
100
AcDbEntity
  8
Object
100
AcDbLine
 10
4.761
 20
5.491
 30
0.0
 11
4.924999999999999
 21
5.508
 31
0.0
  0
LINE
  5
423
330
18
100
AcDbEntity
  8
Object
100
AcDbLine
 10
4.924999999999999
 20
5.508
 30
0.0
 11
4.932999999999999
 21
5.432999999999999
 31
0.0
  0
LINE
  5
424
330
18
100
AcDbEntity
  8
Object
100
AcDbLine
 10
4.932999999999999
 20
5.432999999999999
 30
0.0
 11
4.769
 21
5.416
 31
0.0
  0
LINE
  5
425
330
18
100
AcDbEntity
  8
Object
100
AcDbLine
 10
4.769
 20
5.416
 30
0.0
 11
4.762
 21
5.413999999999999
 31
0.0
  0
LINE
  5
426
330
18
100
AcDbEntity
  8
Object
100
AcDbLine
 10
4.761
 20
5.491
 30
0.0
 11
4.730999999999999
 21
5.482
 31
0.0
  0
LINE
  5
427
330
18
100
AcDbEntity
  8
Object
100
AcDbLine
 10
4.730999999999999
 20
5.482
 30
0.0
 11
4.705
 21
5.463
 31
0.0
  0
LINE
  5
428
330
18
100
AcDbEntity
  8
Object
100
AcDbLine
 10
4.762
 20
5.413999999999999
 30
0.0
 11
4.758
 21
5.408999999999999
 31
0.0
  0
LINE
  5
429
330
18
100
AcDbEntity
  8
Object
100
AcDbLine
 10
4.758
 20
5.408999999999999
 30
0.0
 11
4.756
 21
5.402
 31
0.0
  0
LINE
  5
42A
330
18
100
AcDbEntity
  8
Object
100
AcDbLine
 10
4.705
 20
5.463
 30
0.0
 11
4.687999999999999
 21
5.435999999999999
 31
0.0
  0
LINE
  5
42B
330
18
100
AcDbEntity
  8
Object
100
AcDbLine
 10
4.687999999999999
 20
5.435999999999999
 30
0.0
 11
4.681
 21
5.405
 31
0.0
  0
LINE
  5
42C
330
18
100
AcDbEntity
  8
Object
100
AcDbLine
 10
4.756
 20
5.402
 30
0.0
 11
4.748
 21
5.368999999999999
 31
0.0
  0
LINE
  5
42D
330
18
100
AcDbEntity
  8
Object
100
AcDbLine
 10
4.748
 20
5.368999999999999
 30
0.0
 11
4.727999999999999
 21
5.341
 31
0.0
  0
LINE
  5
42E
330
18
100
AcDbEntity
  8
Object
100
AcDbLine
 10
4.681
 20
5.405
 30
0.0
 11
4.679
 21
5.397999999999999
 31
0.0
  0
LINE
  5
42F
330
18
100
AcDbEntity
  8
Object
100
AcDbLine
 10
4.679
 20
5.397999999999999
 30
0.0
 11
4.673
 21
5.392999999999999
 31
0.0
  0
LINE
  5
430
330
18
100
AcDbEntity
  8
Object
100
AcDbLine
 10
4.727999999999999
 20
5.341
 30
0.0
 11
4.698999999999999
 21
5.323
 31
0.0
  0
LINE
  5
431
330
18
100
AcDbEntity
  8
Object
100
AcDbLine
 10
4.698999999999999
 20
5.323
 30
0.0
 11
4.666
 21
5.315999999999999
 31
0.0
  0
LINE
  5
432
330
18
100
AcDbEntity
  8
Object
100
AcDbLine
 10
4.673
 20
5.392999999999999
 30
0.0
 11
4.666
 21
5.391
 31
0.0
  0
LINE
  5
433
330
18
100
AcDbEntity
  8
Object
100
AcDbLine
 10
4.666
 20
5.391
 30
0.0
 11
4.158999999999999
 21
5.391
 31
0.0
  0
LINE
  5
434
330
18
100
AcDbEntity
  8
Object
100
AcDbLine
 10
4.756
 20
5.402
 30
0.0
 11
4.748
 21
5.368999999999999
 31
0.0
  0
LINE
  5
435
330
18
100
AcDbEntity
  8
Object
100
AcDbLine
 10
4.748
 20
5.368999999999999
 30
0.0
 11
4.727999999999999
 21
5.341
 31
0.0
  0
LINE
  5
436
330
18
100
AcDbEntity
  8
Object
100
AcDbLine
 10
4.727999999999999
 20
5.341
 30
0.0
 11
4.698999999999999
 21
5.323
 31
0.0
  0
LINE
  5
437
330
18
100
AcDbEntity
  8
Object
100
AcDbLine
 10
4.698999999999999
 20
5.323
 30
0.0
 11
4.666
 21
5.315999999999999
 31
0.0
  0
LINE
  5
438
330
18
100
AcDbEntity
  8
Object
100
AcDbLine
 10
4.972999999999999
 20
5.437999999999999
 30
0.0
 11
4.967999999999999
 21
5.437
 31
0.0
  0
LINE
  5
439
330
18
100
AcDbEntity
  8
Object
100
AcDbLine
 10
4.967999999999999
 20
5.437
 30
0.0
 11
4.953
 21
5.435999999999999
 31
0.0
  0
LINE
  5
43A
330
18
100
AcDbEntity
  8
Object
100
AcDbLine
 10
4.953
 20
5.435999999999999
 30
0.0
 11
4.932999999999999
 21
5.432999999999999
 31
0.0
  0
LINE
  5
43B
330
18
100
AcDbEntity
  8
Object
100
AcDbLine
 10
4.932999999999999
 20
5.432999999999999
 30
0.0
 11
4.769
 21
5.416
 31
0.0
  0
LINE
  5
43C
330
18
100
AcDbEntity
  8
Object
100
AcDbLine
 10
4.666
 20
5.391
 30
0.0
 11
4.158999999999999
 21
5.391
 31
0.0
  0
LINE
  5
43D
330
18
100
AcDbEntity
  8
Object
100
AcDbLine
 10
4.158999999999999
 20
5.391
 30
0.0
 11
4.12
 21
5.391
 31
0.0
  0
LINE
  5
43E
330
18
100
AcDbEntity
  8
Object
100
AcDbLine
 10
4.12
 20
5.391
 30
0.0
 11
4.084999999999999
 21
5.391
 31
0.0
  0
LINE
  5
43F
330
18
100
AcDbEntity
  8
Object
100
AcDbLine
 10
4.084999999999999
 20
5.391
 30
0.0
 11
4.057999999999999
 21
5.391
 31
0.0
  0
LINE
  5
440
330
18
100
AcDbEntity
  8
Object
100
AcDbLine
 10
4.057999999999999
 20
5.391
 30
0.0
 11
4.04
 21
5.391
 31
0.0
  0
LINE
  5
441
330
18
100
AcDbEntity
  8
Object
100
AcDbLine
 10
4.04
 20
5.391
 30
0.0
 11
4.033999999999999
 21
5.391
 31
0.0
  0
LINE
  5
442
330
18
100
AcDbEntity
  8
Object
100
AcDbLine
 10
4.761
 20
5.491
 30
0.0
 11
4.730999999999999
 21
5.482
 31
0.0
  0
LINE
  5
443
330
18
100
AcDbEntity
  8
Object
100
AcDbLine
 10
4.730999999999999
 20
5.482
 30
0.0
 11
4.705
 21
5.463
 31
0.0
  0
LINE
  5
444
330
18
100
AcDbEntity
  8
Object
100
AcDbLine
 10
4.705
 20
5.463
 30
0.0
 11
4.687999999999999
 21
5.435999999999999
 31
0.0
  0
LINE
  5
445
330
18
100
AcDbEntity
  8
Object
100
AcDbLine
 10
4.687999999999999
 20
5.435999999999999
 30
0.0
 11
4.681
 21
5.405
 31
0.0
  0
LINE
  5
446
330
18
100
AcDbEntity
  8
Object
100
AcDbLine
 10
4.681
 20
5.405
 30
0.0
 11
4.679
 21
5.397999999999999
 31
0.0
  0
LINE
  5
447
330
18
100
AcDbEntity
  8
Object
100
AcDbLine
 10
4.679
 20
5.397999999999999
 30
0.0
 11
4.673
 21
5.392999999999999
 31
0.0
  0
LINE
  5
448
330
18
100
AcDbEntity
  8
Object
100
AcDbLine
 10
4.673
 20
5.392999999999999
 30
0.0
 11
4.666
 21
5.391
 31
0.0
  0
LINE
  5
449
330
18
100
AcDbEntity
  8
Object
100
AcDbLine
 10
4.964999999999999
 20
5.512
 30
0.0
 11
4.959999999999999
 21
5.512
 31
0.0
  0
LINE
  5
44A
330
18
100
AcDbEntity
  8
Object
100
AcDbLine
 10
4.959999999999999
 20
5.512
 30
0.0
 11
4.945
 21
5.509999999999999
 31
0.0
  0
LINE
  5
44B
330
18
100
AcDbEntity
  8
Object
100
AcDbLine
 10
4.945
 20
5.509999999999999
 30
0.0
 11
4.924999999999999
 21
5.508
 31
0.0
  0
LINE
  5
44C
330
18
100
AcDbEntity
  8
Object
100
AcDbLine
 10
4.924999999999999
 20
5.508
 30
0.0
 11
4.761
 21
5.491
 31
0.0
  0
LINE
  5
44D
330
18
100
AcDbEntity
  8
Object
100
AcDbLine
 10
4.12
 20
5.391
 30
0.0
 11
4.158999999999999
 21
5.391
 31
0.0
  0
LINE
  5
44E
330
18
100
AcDbEntity
  8
Object
100
AcDbLine
 10
4.158999999999999
 20
5.391
 30
0.0
 11
4.158999999999999
 21
5.315999999999999
 31
0.0
  0
LINE
  5
44F
330
18
100
AcDbEntity
  8
Object
100
AcDbLine
 10
4.12
 20
5.391
 30
0.0
 11
4.084999999999999
 21
5.391
 31
0.0
  0
LINE
  5
450
330
18
100
AcDbEntity
  8
Object
100
AcDbLine
 10
4.084999999999999
 20
5.391
 30
0.0
 11
4.057999999999999
 21
5.391
 31
0.0
  0
LINE
  5
451
330
18
100
AcDbEntity
  8
Object
100
AcDbLine
 10
4.057999999999999
 20
5.391
 30
0.0
 11
4.04
 21
5.391
 31
0.0
  0
LINE
  5
452
330
18
100
AcDbEntity
  8
Object
100
AcDbLine
 10
4.04
 20
5.391
 30
0.0
 11
4.033999999999999
 21
5.391
 31
0.0
  0
LINE
  5
453
330
18
100
AcDbEntity
  8
Object
100
AcDbLine
 10
4.033999999999999
 20
5.391
 30
0.0
 11
4.033999999999999
 21
5.315999999999999
 31
0.0
  0
LINE
  5
454
330
18
100
AcDbEntity
  8
Object
100
AcDbLine
 10
4.967999999999999
 20
5.437
 30
0.0
 11
4.972999999999999
 21
5.437999999999999
 31
0.0
  0
LINE
  5
455
330
18
100
AcDbEntity
  8
Object
100
AcDbLine
 10
4.959999999999999
 20
5.512
 30
0.0
 11
4.964999999999999
 21
5.512
 31
0.0
  0
LINE
  5
456
330
18
100
AcDbEntity
  8
Object
100
AcDbLine
 10
4.964999999999999
 20
5.512
 30
0.0
 11
4.972999999999999
 21
5.437999999999999
 31
0.0
  0
LINE
  5
457
330
18
100
AcDbEntity
  8
Object
100
AcDbLine
 10
4.959999999999999
 20
5.512
 30
0.0
 11
4.945
 21
5.509999999999999
 31
0.0
  0
LINE
  5
458
330
18
100
AcDbEntity
  8
Object
100
AcDbLine
 10
4.967999999999999
 20
5.437
 30
0.0
 11
4.953
 21
5.435999999999999
 31
0.0
  0
LINE
  5
459
330
18
100
AcDbEntity
  8
Object
100
AcDbLine
 10
4.953
 20
5.435999999999999
 30
0.0
 11
4.932999999999999
 21
5.432999999999999
 31
0.0
  0
LINE
  5
45A
330
18
100
AcDbEntity
  8
Object
100
AcDbLine
 10
4.945
 20
5.509999999999999
 30
0.0
 11
4.924999999999999
 21
5.508
 31
0.0
  0
LINE
  5
45B
330
18
100
AcDbEntity
  8
Object
100
AcDbLine
 10
4.972999999999999
 20
5.437999999999999
 30
0.0
 11
4.964999999999999
 21
5.512
 31
0.0
  0
LINE
  5
45C
330
18
100
AcDbEntity
  8
Object
100
AcDbLine
 10
4.033999999999999
 20
5.391
 30
0.0
 11
4.033999999999999
 21
5.315999999999999
 31
0.0
  0
LINE
  5
45D
330
18
100
AcDbEntity
  8
Object
100
AcDbLine
 10
4.987
 20
5.078
 30
0.0
 11
4.983999999999999
 21
5.081
 31
0.0
  0
LINE
  5
45E
330
18
100
AcDbEntity
  8
Object
100
AcDbLine
 10
4.983999999999999
 20
5.081
 30
0.0
 11
4.975999999999999
 21
5.088
 31
0.0
  0
LINE
  5
45F
330
18
100
AcDbEntity
  8
Object
100
AcDbLine
 10
4.975999999999999
 20
5.088
 30
0.0
 11
4.964999999999999
 21
5.099
 31
0.0
  0
LINE
  5
460
330
18
100
AcDbEntity
  8
Object
100
AcDbLine
 10
4.746999999999999
 20
5.315999999999999
 30
0.0
 11
4.724
 21
5.339
 31
0.0
  0
LINE
  5
461
330
18
100
AcDbEntity
  8
Object
100
AcDbLine
 10
4.964999999999999
 20
5.099
 30
0.0
 11
4.926
 21
5.137
 31
0.0
  0
LINE
  5
462
330
18
100
AcDbEntity
  8
Object
100
AcDbLine
 10
4.932999999999999
 20
5.025
 30
0.0
 11
4.931
 21
5.028
 31
0.0
  0
LINE
  5
463
330
18
100
AcDbEntity
  8
Object
100
AcDbLine
 10
4.931
 20
5.028
 30
0.0
 11
4.923
 21
5.035
 31
0.0
  0
LINE
  5
464
330
18
100
AcDbEntity
  8
Object
100
AcDbLine
 10
4.923
 20
5.035
 30
0.0
 11
4.911999999999999
 21
5.046
 31
0.0
  0
LINE
  5
465
330
18
100
AcDbEntity
  8
Object
100
AcDbLine
 10
4.911999999999999
 20
5.046
 30
0.0
 11
4.82
 21
5.137
 31
0.0
  0
LINE
  5
466
330
18
100
AcDbEntity
  8
Object
100
AcDbLine
 10
4.746999999999999
 20
5.315999999999999
 30
0.0
 11
4.724
 21
5.339
 31
0.0
  0
LINE
  5
467
330
18
100
AcDbEntity
  8
Object
100
AcDbLine
 10
4.926
 20
5.137
 30
0.0
 11
4.964999999999999
 21
5.099
 31
0.0
  0
LINE
  5
468
330
18
100
AcDbEntity
  8
Object
100
AcDbLine
 10
4.964999999999999
 20
5.099
 30
0.0
 11
4.911999999999999
 21
5.046
 31
0.0
  0
LINE
  5
469
330
18
100
AcDbEntity
  8
Object
100
AcDbLine
 10
4.911999999999999
 20
5.046
 30
0.0
 11
4.82
 21
5.137
 31
0.0
  0
LINE
  5
46A
330
18
100
AcDbEntity
  8
Object
100
AcDbLine
 10
4.983999999999999
 20
5.081
 30
0.0
 11
4.987
 21
5.078
 31
0.0
  0
LINE
  5
46B
330
18
100
AcDbEntity
  8
Object
100
AcDbLine
 10
4.987
 20
5.078
 30
0.0
 11
4.932999999999999
 21
5.025
 31
0.0
  0
LINE
  5
46C
330
18
100
AcDbEntity
  8
Object
100
AcDbLine
 10
4.932999999999999
 20
5.025
 30
0.0
 11
4.931
 21
5.028
 31
0.0
  0
LINE
  5
46D
330
18
100
AcDbEntity
  8
Object
100
AcDbLine
 10
4.983999999999999
 20
5.081
 30
0.0
 11
4.975999999999999
 21
5.088
 31
0.0
  0
LINE
  5
46E
330
18
100
AcDbEntity
  8
Object
100
AcDbLine
 10
4.931
 20
5.028
 30
0.0
 11
4.923
 21
5.035
 31
0.0
  0
LINE
  5
46F
330
18
100
AcDbEntity
  8
Object
100
AcDbLine
 10
4.923
 20
5.035
 30
0.0
 11
4.911999999999999
 21
5.046
 31
0.0
  0
LINE
  5
470
330
18
100
AcDbEntity
  8
Object
100
AcDbLine
 10
4.975999999999999
 20
5.088
 30
0.0
 11
4.964999999999999
 21
5.099
 31
0.0
  0
LINE
  5
471
330
18
100
AcDbEntity
  8
Object
100
AcDbLine
 10
4.932999999999999
 20
5.025
 30
0.0
 11
4.987
 21
5.078
 31
0.0
  0
LINE
  5
472
330
18
100
AcDbEntity
  8
Object
100
AcDbLine
 10
4.578
 20
5.075
 30
0.0
 11
4.576999999999999
 21
5.075
 31
0.0
  0
LINE
  5
473
330
18
100
AcDbEntity
  8
Object
100
AcDbLine
 10
4.576999999999999
 20
5.075
 30
0.0
 11
4.562999999999999
 21
5.075
 31
0.0
  0
LINE
  5
474
330
18
100
AcDbEntity
  8
Object
100
AcDbLine
 10
4.562999999999999
 20
5.075
 30
0.0
 11
4.535
 21
5.075
 31
0.0
  0
LINE
  5
475
330
18
100
AcDbEntity
  8
Object
100
AcDbLine
 10
4.535
 20
5.075
 30
0.0
 11
4.496
 21
5.075
 31
0.0
  0
LINE
  5
476
330
18
100
AcDbEntity
  8
Object
100
AcDbLine
 10
4.496
 20
5.075
 30
0.0
 11
4.448
 21
5.075
 31
0.0
  0
LINE
  5
477
330
18
100
AcDbEntity
  8
Object
100
AcDbLine
 10
4.448
 20
5.075
 30
0.0
 11
4.392999999999999
 21
5.075
 31
0.0
  0
LINE
  5
478
330
18
100
AcDbEntity
  8
Object
100
AcDbLine
 10
4.392999999999999
 20
5.075
 30
0.0
 11
4.334999999999999
 21
5.075
 31
0.0
  0
LINE
  5
479
330
18
100
AcDbEntity
  8
Object
100
AcDbLine
 10
4.334999999999999
 20
5.075
 30
0.0
 11
4.277
 21
5.075
 31
0.0
  0
LINE
  5
47A
330
18
100
AcDbEntity
  8
Object
100
AcDbLine
 10
4.277
 20
5.075
 30
0.0
 11
4.222
 21
5.075
 31
0.0
  0
LINE
  5
47B
330
18
100
AcDbEntity
  8
Object
100
AcDbLine
 10
4.222
 20
5.075
 30
0.0
 11
4.173
 21
5.075
 31
0.0
  0
LINE
  5
47C
330
18
100
AcDbEntity
  8
Object
100
AcDbLine
 10
4.173
 20
5.075
 30
0.0
 11
4.134
 21
5.075
 31
0.0
  0
LINE
  5
47D
330
18
100
AcDbEntity
  8
Object
100
AcDbLine
 10
4.134
 20
5.075
 30
0.0
 11
4.107
 21
5.075
 31
0.0
  0
LINE
  5
47E
330
18
100
AcDbEntity
  8
Object
100
AcDbLine
 10
4.107
 20
5.075
 30
0.0
 11
4.092
 21
5.075
 31
0.0
  0
LINE
  5
47F
330
18
100
AcDbEntity
  8
Object
100
AcDbLine
 10
4.092
 20
5.075
 30
0.0
 11
4.092
 21
5.076
 31
0.0
  0
LINE
  5
480
330
18
100
AcDbEntity
  8
Object
100
AcDbLine
 10
4.576999999999999
 20
5.075
 30
0.0
 11
4.578
 21
5.075
 31
0.0
  0
LINE
  5
481
330
18
100
AcDbEntity
  8
Object
100
AcDbLine
 10
4.578
 20
5.075
 30
0.0
 11
4.578
 21
5.137
 31
0.0
  0
LINE
  5
482
330
18
100
AcDbEntity
  8
Object
100
AcDbLine
 10
4.576999999999999
 20
5.075
 30
0.0
 11
4.562999999999999
 21
5.075
 31
0.0
  0
LINE
  5
483
330
18
100
AcDbEntity
  8
Object
100
AcDbLine
 10
4.562999999999999
 20
5.075
 30
0.0
 11
4.535
 21
5.075
 31
0.0
  0
LINE
  5
484
330
18
100
AcDbEntity
  8
Object
100
AcDbLine
 10
4.535
 20
5.075
 30
0.0
 11
4.496
 21
5.075
 31
0.0
  0
LINE
  5
485
330
18
100
AcDbEntity
  8
Object
100
AcDbLine
 10
4.496
 20
5.075
 30
0.0
 11
4.448
 21
5.075
 31
0.0
  0
LINE
  5
486
330
18
100
AcDbEntity
  8
Object
100
AcDbLine
 10
4.448
 20
5.075
 30
0.0
 11
4.392999999999999
 21
5.075
 31
0.0
  0
LINE
  5
487
330
18
100
AcDbEntity
  8
Object
100
AcDbLine
 10
4.392999999999999
 20
5.075
 30
0.0
 11
4.334999999999999
 21
5.075
 31
0.0
  0
LINE
  5
488
330
18
100
AcDbEntity
  8
Object
100
AcDbLine
 10
4.334999999999999
 20
5.075
 30
0.0
 11
4.277
 21
5.075
 31
0.0
  0
LINE
  5
489
330
18
100
AcDbEntity
  8
Object
100
AcDbLine
 10
4.334999999999999
 20
5.075
 30
0.0
 11
4.334999999999999
 21
5.137
 31
0.0
  0
LINE
  5
48A
330
18
100
AcDbEntity
  8
Object
100
AcDbLine
 10
4.277
 20
5.075
 30
0.0
 11
4.222
 21
5.075
 31
0.0
  0
LINE
  5
48B
330
18
100
AcDbEntity
  8
Object
100
AcDbLine
 10
4.222
 20
5.075
 30
0.0
 11
4.173
 21
5.075
 31
0.0
  0
LINE
  5
48C
330
18
100
AcDbEntity
  8
Object
100
AcDbLine
 10
4.173
 20
5.075
 30
0.0
 11
4.134
 21
5.075
 31
0.0
  0
LINE
  5
48D
330
18
100
AcDbEntity
  8
Object
100
AcDbLine
 10
4.134
 20
5.075
 30
0.0
 11
4.107
 21
5.075
 31
0.0
  0
LINE
  5
48E
330
18
100
AcDbEntity
  8
Object
100
AcDbLine
 10
4.107
 20
5.075
 30
0.0
 11
4.092
 21
5.075
 31
0.0
  0
LINE
  5
48F
330
18
100
AcDbEntity
  8
Object
100
AcDbLine
 10
4.092
 20
5.075
 30
0.0
 11
4.092
 21
5.137
 31
0.0
  0
LINE
  5
490
330
18
100
AcDbEntity
  8
Object
100
AcDbLine
 10
4.544999999999999
 20
5.560999999999999
 30
0.0
 11
4.538
 21
5.560999999999999
 31
0.0
  0
LINE
  5
491
330
18
100
AcDbEntity
  8
Object
100
AcDbLine
 10
4.538
 20
5.560999999999999
 30
0.0
 11
4.517
 21
5.560999999999999
 31
0.0
  0
LINE
  5
492
330
18
100
AcDbEntity
  8
Object
100
AcDbLine
 10
4.517
 20
5.560999999999999
 30
0.0
 11
4.482999999999999
 21
5.560999999999999
 31
0.0
  0
LINE
  5
493
330
18
100
AcDbEntity
  8
Object
100
AcDbLine
 10
4.453999999999999
 20
5.562
 30
0.0
 11
4.453999999999999
 21
5.560999999999999
 31
0.0
  0
LINE
  5
494
330
18
100
AcDbEntity
  8
Object
100
AcDbLine
 10
4.482999999999999
 20
5.560999999999999
 30
0.0
 11
4.44
 21
5.560999999999999
 31
0.0
  0
LINE
  5
495
330
18
100
AcDbEntity
  8
Object
100
AcDbLine
 10
4.44
 20
5.560999999999999
 30
0.0
 11
4.389
 21
5.560999999999999
 31
0.0
  0
LINE
  5
496
330
18
100
AcDbEntity
  8
Object
100
AcDbLine
 10
4.389
 20
5.560999999999999
 30
0.0
 11
4.334999999999999
 21
5.560999999999999
 31
0.0
  0
LINE
  5
497
330
18
100
AcDbEntity
  8
Object
100
AcDbLine
 10
4.334999999999999
 20
5.560999999999999
 30
0.0
 11
4.28
 21
5.560999999999999
 31
0.0
  0
LINE
  5
498
330
18
100
AcDbEntity
  8
Object
100
AcDbLine
 10
4.28
 20
5.560999999999999
 30
0.0
 11
4.23
 21
5.560999999999999
 31
0.0
  0
LINE
  5
499
330
18
100
AcDbEntity
  8
Object
100
AcDbLine
 10
4.23
 20
5.560999999999999
 30
0.0
 11
4.185999999999999
 21
5.560999999999999
 31
0.0
  0
LINE
  5
49A
330
18
100
AcDbEntity
  8
Object
100
AcDbLine
 10
4.185999999999999
 20
5.560999999999999
 30
0.0
 11
4.153
 21
5.560999999999999
 31
0.0
  0
LINE
  5
49B
330
18
100
AcDbEntity
  8
Object
100
AcDbLine
 10
4.153
 20
5.560999999999999
 30
0.0
 11
4.131999999999999
 21
5.560999999999999
 31
0.0
  0
LINE
  5
49C
330
18
100
AcDbEntity
  8
Object
100
AcDbLine
 10
4.131999999999999
 20
5.560999999999999
 30
0.0
 11
4.125
 21
5.560999999999999
 31
0.0
  0
LINE
  5
49D
330
18
100
AcDbEntity
  8
Object
100
AcDbLine
 10
4.546999999999999
 20
5.551
 30
0.0
 11
4.554999999999999
 21
5.551
 31
0.0
  0
LINE
  5
49E
330
18
100
AcDbEntity
  8
Object
100
AcDbLine
 10
4.554999999999999
 20
5.551
 30
0.0
 11
4.544999999999999
 21
5.560999999999999
 31
0.0
  0
LINE
  5
49F
330
18
100
AcDbEntity
  8
Object
100
AcDbLine
 10
4.544999999999999
 20
5.560999999999999
 30
0.0
 11
4.538
 21
5.560999999999999
 31
0.0
  0
LINE
  5
4A0
330
18
100
AcDbEntity
  8
Object
100
AcDbLine
 10
4.538
 20
5.560999999999999
 30
0.0
 11
4.517
 21
5.560999999999999
 31
0.0
  0
LINE
  5
4A1
330
18
100
AcDbEntity
  8
Object
100
AcDbLine
 10
4.517
 20
5.560999999999999
 30
0.0
 11
4.482999999999999
 21
5.560999999999999
 31
0.0
  0
LINE
  5
4A2
330
18
100
AcDbEntity
  8
Object
100
AcDbLine
 10
4.525
 20
5.551
 30
0.0
 11
4.49
 21
5.551
 31
0.0
  0
LINE
  5
4A3
330
18
100
AcDbEntity
  8
Object
100
AcDbLine
 10
4.49
 20
5.551
 30
0.0
 11
4.445
 21
5.551
 31
0.0
  0
LINE
  5
4A4
330
18
100
AcDbEntity
  8
Object
100
AcDbLine
 10
4.482999999999999
 20
5.560999999999999
 30
0.0
 11
4.44
 21
5.560999999999999
 31
0.0
  0
LINE
  5
4A5
330
18
100
AcDbEntity
  8
Object
100
AcDbLine
 10
4.44
 20
5.560999999999999
 30
0.0
 11
4.389
 21
5.560999999999999
 31
0.0
  0
LINE
  5
4A6
330
18
100
AcDbEntity
  8
Object
100
AcDbLine
 10
4.392
 20
5.551
 30
0.0
 11
4.445
 21
5.551
 31
0.0
  0
LINE
  5
4A7
330
18
100
AcDbEntity
  8
Object
100
AcDbLine
 10
4.389
 20
5.560999999999999
 30
0.0
 11
4.334999999999999
 21
5.560999999999999
 31
0.0
  0
LINE
  5
4A8
330
18
100
AcDbEntity
  8
Object
100
AcDbLine
 10
4.334999999999999
 20
5.560999999999999
 30
0.0
 11
4.28
 21
5.560999999999999
 31
0.0
  0
LINE
  5
4A9
330
18
100
AcDbEntity
  8
Object
100
AcDbLine
 10
4.334999999999999
 20
5.551
 30
0.0
 11
4.334999999999999
 21
5.560999999999999
 31
0.0
  0
LINE
  5
4AA
330
18
100
AcDbEntity
  8
Object
100
AcDbLine
 10
4.28
 20
5.560999999999999
 30
0.0
 11
4.23
 21
5.560999999999999
 31
0.0
  0
LINE
  5
4AB
330
18
100
AcDbEntity
  8
Object
100
AcDbLine
 10
4.23
 20
5.560999999999999
 30
0.0
 11
4.185999999999999
 21
5.560999999999999
 31
0.0
  0
LINE
  5
4AC
330
18
100
AcDbEntity
  8
Object
100
AcDbLine
 10
4.185999999999999
 20
5.560999999999999
 30
0.0
 11
4.153
 21
5.560999999999999
 31
0.0
  0
LINE
  5
4AD
330
18
100
AcDbEntity
  8
Object
100
AcDbLine
 10
4.153
 20
5.560999999999999
 30
0.0
 11
4.131999999999999
 21
5.560999999999999
 31
0.0
  0
LINE
  5
4AE
330
18
100
AcDbEntity
  8
Object
100
AcDbLine
 10
4.115
 20
5.551
 30
0.0
 11
4.125
 21
5.560999999999999
 31
0.0
  0
LINE
  5
4AF
330
18
100
AcDbEntity
  8
Object
100
AcDbLine
 10
4.125
 20
5.560999999999999
 30
0.0
 11
4.131999999999999
 21
5.560999999999999
 31
0.0
  0
LINE
  5
4B0
330
18
100
AcDbEntity
  8
Object
100
AcDbLine
 10
4.554999999999999
 20
5.391
 30
0.0
 11
4.554999999999999
 21
5.551
 31
0.0
  0
LINE
  5
4B1
330
18
100
AcDbEntity
  8
Object
100
AcDbLine
 10
4.546999999999999
 20
5.551
 30
0.0
 11
4.525
 21
5.551
 31
0.0
  0
LINE
  5
4B2
330
18
100
AcDbEntity
  8
Object
100
AcDbLine
 10
4.392
 20
5.551
 30
0.0
 11
4.334999999999999
 21
5.551
 31
0.0
  0
LINE
  5
4B3
330
18
100
AcDbEntity
  8
Object
100
AcDbLine
 10
4.334999999999999
 20
5.551
 30
0.0
 11
4.278
 21
5.551
 31
0.0
  0
LINE
  5
4B4
330
18
100
AcDbEntity
  8
Object
100
AcDbLine
 10
4.334999999999999
 20
5.391
 30
0.0
 11
4.334999999999999
 21
5.551
 31
0.0
  0
LINE
  5
4B5
330
18
100
AcDbEntity
  8
Object
100
AcDbLine
 10
4.278
 20
5.551
 30
0.0
 11
4.224999999999999
 21
5.551
 31
0.0
  0
LINE
  5
4B6
330
18
100
AcDbEntity
  8
Object
100
AcDbLine
 10
4.224999999999999
 20
5.551
 30
0.0
 11
4.179
 21
5.551
 31
0.0
  0
LINE
  5
4B7
330
18
100
AcDbEntity
  8
Object
100
AcDbLine
 10
4.179
 20
5.551
 30
0.0
 11
4.144
 21
5.551
 31
0.0
  0
LINE
  5
4B8
330
18
100
AcDbEntity
  8
Object
100
AcDbLine
 10
4.144
 20
5.551
 30
0.0
 11
4.121999999999999
 21
5.551
 31
0.0
  0
LINE
  5
4B9
330
18
100
AcDbEntity
  8
Object
100
AcDbLine
 10
4.115
 20
5.391
 30
0.0
 11
4.115
 21
5.551
 31
0.0
  0
LINE
  5
4BA
330
18
100
AcDbEntity
  8
Object
100
AcDbLine
 10
4.115
 20
5.551
 30
0.0
 11
4.121999999999999
 21
5.551
 31
0.0
  0
LINE
  5
4BB
330
18
100
AcDbEntity
  8
Object
100
AcDbLine
 10
4.554
 20
4.911999999999999
 30
0.0
 11
4.546
 21
4.911999999999999
 31
0.0
  0
LINE
  5
4BC
330
18
100
AcDbEntity
  8
Object
100
AcDbLine
 10
4.546
 20
4.911999999999999
 30
0.0
 11
4.524
 21
4.911999999999999
 31
0.0
  0
LINE
  5
4BD
330
18
100
AcDbEntity
  8
Object
100
AcDbLine
 10
4.524
 20
4.911999999999999
 30
0.0
 11
4.49
 21
4.911999999999999
 31
0.0
  0
LINE
  5
4BE
330
18
100
AcDbEntity
  8
Object
100
AcDbLine
 10
4.49
 20
4.911999999999999
 30
0.0
 11
4.443999999999999
 21
4.911999999999999
 31
0.0
  0
LINE
  5
4BF
330
18
100
AcDbEntity
  8
Object
100
AcDbLine
 10
4.443999999999999
 20
4.911999999999999
 30
0.0
 11
4.391
 21
4.911999999999999
 31
0.0
  0
LINE
  5
4C0
330
18
100
AcDbEntity
  8
Object
100
AcDbLine
 10
4.391
 20
4.911999999999999
 30
0.0
 11
4.334999999999999
 21
4.911999999999999
 31
0.0
  0
LINE
  5
4C1
330
18
100
AcDbEntity
  8
Object
100
AcDbLine
 10
4.334999999999999
 20
4.911999999999999
 30
0.0
 11
4.278
 21
4.911999999999999
 31
0.0
  0
LINE
  5
4C2
330
18
100
AcDbEntity
  8
Object
100
AcDbLine
 10
4.278
 20
4.911999999999999
 30
0.0
 11
4.224999999999999
 21
4.911999999999999
 31
0.0
  0
LINE
  5
4C3
330
18
100
AcDbEntity
  8
Object
100
AcDbLine
 10
4.224999999999999
 20
4.911999999999999
 30
0.0
 11
4.195
 21
4.911999999999999
 31
0.0
  0
LINE
  5
4C4
330
18
100
AcDbEntity
  8
Object
100
AcDbLine
 10
4.195
 20
4.911999999999999
 30
0.0
 11
4.169
 21
4.911999999999999
 31
0.0
  0
LINE
  5
4C5
330
18
100
AcDbEntity
  8
Object
100
AcDbLine
 10
4.169
 20
4.911999999999999
 30
0.0
 11
4.147
 21
4.911999999999999
 31
0.0
  0
LINE
  5
4C6
330
18
100
AcDbEntity
  8
Object
100
AcDbLine
 10
4.147
 20
4.911999999999999
 30
0.0
 11
4.129999999999999
 21
4.911999999999999
 31
0.0
  0
LINE
  5
4C7
330
18
100
AcDbEntity
  8
Object
100
AcDbLine
 10
4.129999999999999
 20
4.911999999999999
 30
0.0
 11
4.118999999999999
 21
4.911999999999999
 31
0.0
  0
LINE
  5
4C8
330
18
100
AcDbEntity
  8
Object
100
AcDbLine
 10
4.118999999999999
 20
4.911999999999999
 30
0.0
 11
4.115999999999999
 21
4.911999999999999
 31
0.0
  0
LINE
  5
4C9
330
18
100
AcDbEntity
  8
Object
100
AcDbLine
 10
4.554
 20
4.911999999999999
 30
0.0
 11
4.554
 21
4.918
 31
0.0
  0
LINE
  5
4CA
330
18
100
AcDbEntity
  8
Object
100
AcDbLine
 10
4.554
 20
4.918
 30
0.0
 11
4.554
 21
4.932
 31
0.0
  0
LINE
  5
4CB
330
18
100
AcDbEntity
  8
Object
100
AcDbLine
 10
4.554
 20
4.932
 30
0.0
 11
4.554
 21
5.054999999999999
 31
0.0
  0
LINE
  5
4CC
330
18
100
AcDbEntity
  8
Object
100
AcDbLine
 10
4.554
 20
5.054999999999999
 30
0.0
 11
4.554
 21
5.07
 31
0.0
  0
LINE
  5
4CD
330
18
100
AcDbEntity
  8
Object
100
AcDbLine
 10
4.554
 20
5.07
 30
0.0
 11
4.554
 21
5.075
 31
0.0
  0
LINE
  5
4CE
330
18
100
AcDbEntity
  8
Object
100
AcDbLine
 10
4.115999999999999
 20
5.075
 30
0.0
 11
4.115999999999999
 21
5.07
 31
0.0
  0
LINE
  5
4CF
330
18
100
AcDbEntity
  8
Object
100
AcDbLine
 10
4.115999999999999
 20
5.07
 30
0.0
 11
4.115999999999999
 21
5.054999999999999
 31
0.0
  0
LINE
  5
4D0
330
18
100
AcDbEntity
  8
Object
100
AcDbLine
 10
4.115999999999999
 20
5.054999999999999
 30
0.0
 11
4.115999999999999
 21
4.932
 31
0.0
  0
LINE
  5
4D1
330
18
100
AcDbEntity
  8
Object
100
AcDbLine
 10
4.115999999999999
 20
4.932
 30
0.0
 11
4.115999999999999
 21
4.918
 31
0.0
  0
LINE
  5
4D2
330
18
100
AcDbEntity
  8
Object
100
AcDbLine
 10
4.115999999999999
 20
4.918
 30
0.0
 11
4.115999999999999
 21
4.911999999999999
 31
0.0
  0
LINE
  5
4D3
330
18
100
AcDbEntity
  8
Object
100
AcDbLine
 10
4.169999999999999
 20
4.918
 30
0.0
 11
4.224999999999999
 21
4.911999999999999
 31
0.0
  0
LINE
  5
4D4
330
18
100
AcDbEntity
  8
Object
100
AcDbLine
 10
4.224999999999999
 20
4.911999999999999
 30
0.0
 11
4.195
 21
4.911999999999999
 31
0.0
  0
LINE
  5
4D5
330
18
100
AcDbEntity
  8
Object
100
AcDbLine
 10
4.195
 20
4.911999999999999
 30
0.0
 11
4.169
 21
4.911999999999999
 31
0.0
  0
LINE
  5
4D6
330
18
100
AcDbEntity
  8
Object
100
AcDbLine
 10
4.169999999999999
 20
4.918
 30
0.0
 11
4.115999999999999
 21
4.932
 31
0.0
  0
LINE
  5
4D7
330
18
100
AcDbEntity
  8
Object
100
AcDbLine
 10
4.169
 20
4.911999999999999
 30
0.0
 11
4.147
 21
4.911999999999999
 31
0.0
  0
LINE
  5
4D8
330
18
100
AcDbEntity
  8
Object
100
AcDbLine
 10
4.147
 20
4.911999999999999
 30
0.0
 11
4.115999999999999
 21
4.932
 31
0.0
  0
LINE
  5
4D9
330
18
100
AcDbEntity
  8
Object
100
AcDbLine
 10
4.391
 20
4.911999999999999
 30
0.0
 11
4.443999999999999
 21
4.911999999999999
 31
0.0
  0
LINE
  5
4DA
330
18
100
AcDbEntity
  8
Object
100
AcDbLine
 10
4.443999999999999
 20
4.911999999999999
 30
0.0
 11
4.389
 21
4.918
 31
0.0
  0
LINE
  5
4DB
330
18
100
AcDbEntity
  8
Object
100
AcDbLine
 10
4.334999999999999
 20
4.911999999999999
 30
0.0
 11
4.391
 21
4.911999999999999
 31
0.0
  0
LINE
  5
4DC
330
18
100
AcDbEntity
  8
Object
100
AcDbLine
 10
4.389
 20
4.918
 30
0.0
 11
4.334999999999999
 21
4.932
 31
0.0
  0
LINE
  5
4DD
330
18
100
AcDbEntity
  8
Object
100
AcDbLine
 10
4.334999999999999
 20
4.932
 30
0.0
 11
4.280999999999999
 21
4.918
 31
0.0
  0
LINE
  5
4DE
330
18
100
AcDbEntity
  8
Object
100
AcDbLine
 10
4.334999999999999
 20
4.911999999999999
 30
0.0
 11
4.278
 21
4.911999999999999
 31
0.0
  0
LINE
  5
4DF
330
18
100
AcDbEntity
  8
Object
100
AcDbLine
 10
4.278
 20
4.911999999999999
 30
0.0
 11
4.224999999999999
 21
4.911999999999999
 31
0.0
  0
LINE
  5
4E0
330
18
100
AcDbEntity
  8
Object
100
AcDbLine
 10
4.224999999999999
 20
4.911999999999999
 30
0.0
 11
4.280999999999999
 21
4.918
 31
0.0
  0
LINE
  5
4E1
330
18
100
AcDbEntity
  8
Object
100
AcDbLine
 10
4.554
 20
4.918
 30
0.0
 11
4.554
 21
4.911999999999999
 31
0.0
  0
LINE
  5
4E2
330
18
100
AcDbEntity
  8
Object
100
AcDbLine
 10
4.554
 20
4.911999999999999
 30
0.0
 11
4.546
 21
4.911999999999999
 31
0.0
  0
LINE
  5
4E3
330
18
100
AcDbEntity
  8
Object
100
AcDbLine
 10
4.554
 20
4.918
 30
0.0
 11
4.554
 21
4.932
 31
0.0
  0
LINE
  5
4E4
330
18
100
AcDbEntity
  8
Object
100
AcDbLine
 10
4.524
 20
4.911999999999999
 30
0.0
 11
4.546
 21
4.911999999999999
 31
0.0
  0
LINE
  5
4E5
330
18
100
AcDbEntity
  8
Object
100
AcDbLine
 10
4.554
 20
4.932
 30
0.0
 11
4.5
 21
4.918
 31
0.0
  0
LINE
  5
4E6
330
18
100
AcDbEntity
  8
Object
100
AcDbLine
 10
4.524
 20
4.911999999999999
 30
0.0
 11
4.49
 21
4.911999999999999
 31
0.0
  0
LINE
  5
4E7
330
18
100
AcDbEntity
  8
Object
100
AcDbLine
 10
4.49
 20
4.911999999999999
 30
0.0
 11
4.443999999999999
 21
4.911999999999999
 31
0.0
  0
LINE
  5
4E8
330
18
100
AcDbEntity
  8
Object
100
AcDbLine
 10
4.443999999999999
 20
4.911999999999999
 30
0.0
 11
4.5
 21
4.918
 31
0.0
  0
LINE
  5
4E9
330
18
100
AcDbEntity
  8
Object
100
AcDbLine
 10
4.129999999999999
 20
4.911999999999999
 30
0.0
 11
4.118999999999999
 21
4.911999999999999
 31
0.0
  0
LINE
  5
4EA
330
18
100
AcDbEntity
  8
Object
100
AcDbLine
 10
4.118999999999999
 20
4.911999999999999
 30
0.0
 11
4.115999999999999
 21
4.911999999999999
 31
0.0
  0
LINE
  5
4EB
330
18
100
AcDbEntity
  8
Object
100
AcDbLine
 10
4.115999999999999
 20
4.911999999999999
 30
0.0
 11
4.115999999999999
 21
4.918
 31
0.0
  0
LINE
  5
4EC
330
18
100
AcDbEntity
  8
Object
100
AcDbLine
 10
4.115999999999999
 20
4.918
 30
0.0
 11
4.115999999999999
 21
4.932
 31
0.0
  0
LINE
  5
4ED
330
18
100
AcDbEntity
  8
Object
100
AcDbLine
 10
4.129999999999999
 20
4.911999999999999
 30
0.0
 11
4.147
 21
4.911999999999999
 31
0.0
  0
LINE
  5
4EE
330
18
100
AcDbEntity
  8
Object
100
AcDbLine
 10
4.554
 20
5.075
 30
0.0
 11
4.554
 21
5.07
 31
0.0
  0
LINE
  5
4EF
330
18
100
AcDbEntity
  8
Object
100
AcDbLine
 10
4.554
 20
5.07
 30
0.0
 11
4.554
 21
5.054999999999999
 31
0.0
  0
LINE
  5
4F0
330
18
100
AcDbEntity
  8
Object
100
AcDbLine
 10
4.554
 20
5.054999999999999
 30
0.0
 11
4.5
 21
5.07
 31
0.0
  0
LINE
  5
4F1
330
18
100
AcDbEntity
  8
Object
100
AcDbLine
 10
4.554
 20
4.932
 30
0.0
 11
4.554
 21
5.054999999999999
 31
0.0
  0
LINE
  5
4F2
330
18
100
AcDbEntity
  8
Object
100
AcDbLine
 10
4.5
 20
5.07
 30
0.0
 11
4.443999999999999
 21
5.075
 31
0.0
  0
LINE
  5
4F3
330
18
100
AcDbEntity
  8
Object
100
AcDbLine
 10
4.443999999999999
 20
5.075
 30
0.0
 11
4.389
 21
5.07
 31
0.0
  0
LINE
  5
4F4
330
18
100
AcDbEntity
  8
Object
100
AcDbLine
 10
4.389
 20
5.07
 30
0.0
 11
4.334999999999999
 21
5.054999999999999
 31
0.0
  0
LINE
  5
4F5
330
18
100
AcDbEntity
  8
Object
100
AcDbLine
 10
4.115999999999999
 20
5.07
 30
0.0
 11
4.115999999999999
 21
5.054999999999999
 31
0.0
  0
LINE
  5
4F6
330
18
100
AcDbEntity
  8
Object
100
AcDbLine
 10
4.115999999999999
 20
5.054999999999999
 30
0.0
 11
4.147
 21
5.075
 31
0.0
  0
LINE
  5
4F7
330
18
100
AcDbEntity
  8
Object
100
AcDbLine
 10
4.115999999999999
 20
5.075
 30
0.0
 11
4.115999999999999
 21
5.07
 31
0.0
  0
LINE
  5
4F8
330
18
100
AcDbEntity
  8
Object
100
AcDbLine
 10
4.280999999999999
 20
5.07
 30
0.0
 11
4.334999999999999
 21
5.054999999999999
 31
0.0
  0
LINE
  5
4F9
330
18
100
AcDbEntity
  8
Object
100
AcDbLine
 10
4.334999999999999
 20
5.054999999999999
 30
0.0
 11
4.334999999999999
 21
4.932
 31
0.0
  0
LINE
  5
4FA
330
18
100
AcDbEntity
  8
Object
100
AcDbLine
 10
4.280999999999999
 20
5.07
 30
0.0
 11
4.224999999999999
 21
5.075
 31
0.0
  0
LINE
  5
4FB
330
18
100
AcDbEntity
  8
Object
100
AcDbLine
 10
4.224999999999999
 20
5.075
 30
0.0
 11
4.169999999999999
 21
5.07
 31
0.0
  0
LINE
  5
4FC
330
18
100
AcDbEntity
  8
Object
100
AcDbLine
 10
4.115999999999999
 20
4.932
 30
0.0
 11
4.115999999999999
 21
5.054999999999999
 31
0.0
  0
LINE
  5
4FD
330
18
100
AcDbEntity
  8
Object
100
AcDbLine
 10
4.115999999999999
 20
5.054999999999999
 30
0.0
 11
4.169999999999999
 21
5.07
 31
0.0
  0
LINE
  5
4FE
330
18
100
AcDbEntity
  8
Object
100
AcDbLine
 10
4.254999999999999
 20
5.575
 30
0.0
 11
4.274
 21
5.575
 31
0.0
  0
LINE
  5
4FF
330
18
100
AcDbEntity
  8
Object
100
AcDbLine
 10
4.274
 20
5.575
 30
0.0
 11
4.241999999999999
 21
5.573
 31
0.0
  0
LINE
  5
500
330
18
100
AcDbEntity
  8
Object
100
AcDbLine
 10
4.254999999999999
 20
5.575
 30
0.0
 11
4.238999999999999
 21
5.575
 31
0.0
  0
LINE
  5
501
330
18
100
AcDbEntity
  8
Object
100
AcDbLine
 10
4.224
 20
5.575
 30
0.0
 11
4.229
 21
5.575
 31
0.0
  0
LINE
  5
502
330
18
100
AcDbEntity
  8
Object
100
AcDbLine
 10
4.229
 20
5.575
 30
0.0
 11
4.238999999999999
 21
5.575
 31
0.0
  0
LINE
  5
503
330
18
100
AcDbEntity
  8
Object
100
AcDbLine
 10
4.219999999999999
 20
5.57
 30
0.0
 11
4.241999999999999
 21
5.573
 31
0.0
  0
LINE
  5
504
330
18
100
AcDbEntity
  8
Object
100
AcDbLine
 10
4.224
 20
5.575
 30
0.0
 11
4.209999999999999
 21
5.567
 31
0.0
  0
LINE
  5
505
330
18
100
AcDbEntity
  8
Object
100
AcDbLine
 10
4.209999999999999
 20
5.567
 30
0.0
 11
4.219999999999999
 21
5.57
 31
0.0
  0
LINE
  5
506
330
18
100
AcDbEntity
  8
Object
100
AcDbLine
 10
4.445999999999999
 20
5.575
 30
0.0
 11
4.434
 21
5.568
 31
0.0
  0
LINE
  5
507
330
18
100
AcDbEntity
  8
Object
100
AcDbLine
 10
4.434
 20
5.568
 30
0.0
 11
4.427
 21
5.565999999999999
 31
0.0
  0
LINE
  5
508
330
18
100
AcDbEntity
  8
Object
100
AcDbLine
 10
4.445999999999999
 20
5.575
 30
0.0
 11
4.440999999999999
 21
5.575
 31
0.0
  0
LINE
  5
509
330
18
100
AcDbEntity
  8
Object
100
AcDbLine
 10
4.415
 20
5.575
 30
0.0
 11
4.429999999999999
 21
5.575
 31
0.0
  0
LINE
  5
50A
330
18
100
AcDbEntity
  8
Object
100
AcDbLine
 10
4.429999999999999
 20
5.575
 30
0.0
 11
4.440999999999999
 21
5.575
 31
0.0
  0
LINE
  5
50B
330
18
100
AcDbEntity
  8
Object
100
AcDbLine
 10
4.411
 20
5.564
 30
0.0
 11
4.427
 21
5.565999999999999
 31
0.0
  0
LINE
  5
50C
330
18
100
AcDbEntity
  8
Object
100
AcDbLine
 10
4.415
 20
5.575
 30
0.0
 11
4.395999999999999
 21
5.575
 31
0.0
  0
LINE
  5
50D
330
18
100
AcDbEntity
  8
Object
100
AcDbLine
 10
4.389999999999999
 20
5.560999999999999
 30
0.0
 11
4.411
 21
5.564
 31
0.0
  0
LINE
  5
50E
330
18
100
AcDbEntity
  8
Object
100
AcDbLine
 10
4.395999999999999
 20
5.575
 30
0.0
 11
4.365999999999999
 21
5.573
 31
0.0
  0
LINE
  5
50F
330
18
100
AcDbEntity
  8
Object
100
AcDbLine
 10
4.365999999999999
 20
5.573
 30
0.0
 11
4.334999999999999
 21
5.570999999999999
 31
0.0
  0
LINE
  5
510
330
18
100
AcDbEntity
  8
Object
100
AcDbLine
 10
4.334999999999999
 20
5.570999999999999
 30
0.0
 11
4.31
 21
5.57
 31
0.0
  0
LINE
  5
511
330
18
100
AcDbEntity
  8
Object
100
AcDbLine
 10
4.31
 20
5.57
 30
0.0
 11
4.286999999999999
 21
5.568
 31
0.0
  0
LINE
  5
512
330
18
100
AcDbEntity
  8
Object
100
AcDbLine
 10
4.286999999999999
 20
5.568
 30
0.0
 11
4.264999999999999
 21
5.565999999999999
 31
0.0
  0
LINE
  5
513
330
18
100
AcDbEntity
  8
Object
100
AcDbLine
 10
4.246
 20
5.565
 30
0.0
 11
4.230999999999999
 21
5.562999999999999
 31
0.0
  0
LINE
  5
514
330
18
100
AcDbEntity
  8
Object
100
AcDbLine
 10
4.230999999999999
 20
5.562999999999999
 30
0.0
 11
4.219
 21
5.562
 31
0.0
  0
LINE
  5
515
330
18
100
AcDbEntity
  8
Object
100
AcDbLine
 10
4.219
 20
5.562
 30
0.0
 11
4.216
 21
5.560999999999999
 31
0.0
  0
LINE
  5
516
330
18
100
AcDbEntity
  8
Object
100
AcDbLine
 10
4.434
 20
5.560999999999999
 30
0.0
 11
4.434
 21
5.568
 31
0.0
  0
LINE
  5
517
330
18
100
AcDbEntity
  8
Object
100
AcDbLine
 10
4.314
 20
5.575
 30
0.0
 11
4.334999999999999
 21
5.575
 31
0.0
  0
LINE
  5
518
330
18
100
AcDbEntity
  8
Object
100
AcDbLine
 10
4.334999999999999
 20
5.575
 30
0.0
 11
4.334999999999999
 21
5.570999999999999
 31
0.0
  0
LINE
  5
519
330
18
100
AcDbEntity
  8
Object
100
AcDbLine
 10
4.314
 20
5.575
 30
0.0
 11
4.293
 21
5.575
 31
0.0
  0
LINE
  5
51A
330
18
100
AcDbEntity
  8
Object
100
AcDbLine
 10
4.293
 20
5.575
 30
0.0
 11
4.274
 21
5.575
 31
0.0
  0
LINE
  5
51B
330
18
100
AcDbEntity
  8
Object
100
AcDbLine
 10
4.246
 20
5.565
 30
0.0
 11
4.264999999999999
 21
5.565999999999999
 31
0.0
  0
LINE
  5
51C
330
18
100
AcDbEntity
  8
Object
100
AcDbLine
 10
4.209999999999999
 20
5.567
 30
0.0
 11
4.209999999999999
 21
5.560999999999999
 31
0.0
  0
LINE
  5
51D
330
18
100
AcDbEntity
  8
Object
100
AcDbLine
 10
4.445999999999999
 20
5.575
 30
0.0
 11
4.440999999999999
 21
5.575
 31
0.0
  0
LINE
  5
51E
330
18
100
AcDbEntity
  8
Object
100
AcDbLine
 10
4.440999999999999
 20
5.575
 30
0.0
 11
4.429999999999999
 21
5.575
 31
0.0
  0
LINE
  5
51F
330
18
100
AcDbEntity
  8
Object
100
AcDbLine
 10
4.429999999999999
 20
5.575
 30
0.0
 11
4.415
 21
5.575
 31
0.0
  0
LINE
  5
520
330
18
100
AcDbEntity
  8
Object
100
AcDbLine
 10
4.415
 20
5.575
 30
0.0
 11
4.395999999999999
 21
5.575
 31
0.0
  0
LINE
  5
521
330
18
100
AcDbEntity
  8
Object
100
AcDbLine
 10
4.395999999999999
 20
5.575
 30
0.0
 11
4.376
 21
5.575
 31
0.0
  0
LINE
  5
522
330
18
100
AcDbEntity
  8
Object
100
AcDbLine
 10
4.376
 20
5.575
 30
0.0
 11
4.355999999999999
 21
5.575
 31
0.0
  0
LINE
  5
523
330
18
100
AcDbEntity
  8
Object
100
AcDbLine
 10
4.355999999999999
 20
5.575
 30
0.0
 11
4.334999999999999
 21
5.575
 31
0.0
  0
LINE
  5
524
330
18
100
AcDbEntity
  8
Object
100
AcDbLine
 10
4.334999999999999
 20
5.575
 30
0.0
 11
4.314
 21
5.575
 31
0.0
  0
LINE
  5
525
330
18
100
AcDbEntity
  8
Object
100
AcDbLine
 10
4.314
 20
5.575
 30
0.0
 11
4.293
 21
5.575
 31
0.0
  0
LINE
  5
526
330
18
100
AcDbEntity
  8
Object
100
AcDbLine
 10
4.293
 20
5.575
 30
0.0
 11
4.274
 21
5.575
 31
0.0
  0
LINE
  5
527
330
18
100
AcDbEntity
  8
Object
100
AcDbLine
 10
4.274
 20
5.575
 30
0.0
 11
4.254999999999999
 21
5.575
 31
0.0
  0
LINE
  5
528
330
18
100
AcDbEntity
  8
Object
100
AcDbLine
 10
4.254999999999999
 20
5.575
 30
0.0
 11
4.238999999999999
 21
5.575
 31
0.0
  0
LINE
  5
529
330
18
100
AcDbEntity
  8
Object
100
AcDbLine
 10
4.238999999999999
 20
5.575
 30
0.0
 11
4.229
 21
5.575
 31
0.0
  0
LINE
  5
52A
330
18
100
AcDbEntity
  8
Object
100
AcDbLine
 10
4.229
 20
5.575
 30
0.0
 11
4.224
 21
5.575
 31
0.0
  0
LINE
  5
52B
330
18
100
AcDbEntity
  8
Object
100
AcDbLine
 10
4.395999999999999
 20
5.575
 30
0.0
 11
4.376
 21
5.575
 31
0.0
  0
LINE
  5
52C
330
18
100
AcDbEntity
  8
Object
100
AcDbLine
 10
4.376
 20
5.575
 30
0.0
 11
4.355999999999999
 21
5.575
 31
0.0
  0
LINE
  5
52D
330
18
100
AcDbEntity
  8
Object
100
AcDbLine
 10
4.355999999999999
 20
5.575
 30
0.0
 11
4.334999999999999
 21
5.575
 31
0.0
  0
LINE
  5
52E
330
18
100
AcDbEntity
  8
Object
100
AcDbLine
 10
11.731
 20
5.391
 30
0.0
 11
11.725
 21
5.391
 31
0.0
  0
LINE
  5
52F
330
18
100
AcDbEntity
  8
Object
100
AcDbLine
 10
11.725
 20
5.391
 30
0.0
 11
11.708
 21
5.391
 31
0.0
  0
LINE
  5
530
330
18
100
AcDbEntity
  8
Object
100
AcDbLine
 10
11.708
 20
5.391
 30
0.0
 11
11.68
 21
5.391
 31
0.0
  0
LINE
  5
531
330
18
100
AcDbEntity
  8
Object
100
AcDbLine
 10
11.68
 20
5.391
 30
0.0
 11
11.645
 21
5.391
 31
0.0
  0
LINE
  5
532
330
18
100
AcDbEntity
  8
Object
100
AcDbLine
 10
11.645
 20
5.391
 30
0.0
 11
11.606
 21
5.391
 31
0.0
  0
LINE
  5
533
330
18
100
AcDbEntity
  8
Object
100
AcDbLine
 10
11.606
 20
5.391
 30
0.0
 11
11.099
 21
5.391
 31
0.0
  0
LINE
  5
534
330
18
100
AcDbEntity
  8
Object
100
AcDbLine
 10
11.731
 20
5.315999999999999
 30
0.0
 11
11.731
 21
5.391
 31
0.0
  0
LINE
  5
535
330
18
100
AcDbEntity
  8
Object
100
AcDbLine
 10
11.731
 20
5.391
 30
0.0
 11
11.725
 21
5.391
 31
0.0
  0
LINE
  5
536
330
18
100
AcDbEntity
  8
Object
100
AcDbLine
 10
11.731
 20
5.315999999999999
 30
0.0
 11
11.731
 21
5.391
 31
0.0
  0
LINE
  5
537
330
18
100
AcDbEntity
  8
Object
100
AcDbLine
 10
11.725
 20
5.391
 30
0.0
 11
11.708
 21
5.391
 31
0.0
  0
LINE
  5
538
330
18
100
AcDbEntity
  8
Object
100
AcDbLine
 10
11.708
 20
5.391
 30
0.0
 11
11.68
 21
5.391
 31
0.0
  0
LINE
  5
539
330
18
100
AcDbEntity
  8
Object
100
AcDbLine
 10
11.68
 20
5.391
 30
0.0
 11
11.645
 21
5.391
 31
0.0
  0
LINE
  5
53A
330
18
100
AcDbEntity
  8
Object
100
AcDbLine
 10
11.645
 20
5.391
 30
0.0
 11
11.606
 21
5.391
 31
0.0
  0
LINE
  5
53B
330
18
100
AcDbEntity
  8
Object
100
AcDbLine
 10
11.099
 20
5.391
 30
0.0
 11
11.092
 21
5.392999999999999
 31
0.0
  0
LINE
  5
53C
330
18
100
AcDbEntity
  8
Object
100
AcDbLine
 10
11.092
 20
5.392999999999999
 30
0.0
 11
11.087
 21
5.397999999999999
 31
0.0
  0
LINE
  5
53D
330
18
100
AcDbEntity
  8
Object
100
AcDbLine
 10
11.087
 20
5.397999999999999
 30
0.0
 11
11.084
 21
5.405
 31
0.0
  0
LINE
  5
53E
330
18
100
AcDbEntity
  8
Object
100
AcDbLine
 10
11.099
 20
5.391
 30
0.0
 11
11.606
 21
5.391
 31
0.0
  0
LINE
  5
53F
330
18
100
AcDbEntity
  8
Object
100
AcDbLine
 10
11.606
 20
5.391
 30
0.0
 11
11.606
 21
5.315999999999999
 31
0.0
  0
LINE
  5
540
330
18
100
AcDbEntity
  8
Object
100
AcDbLine
 10
11.066
 20
5.323
 30
0.0
 11
11.099
 21
5.315999999999999
 31
0.0
  0
LINE
  5
541
330
18
100
AcDbEntity
  8
Object
100
AcDbLine
 10
11.099
 20
5.391
 30
0.0
 11
11.092
 21
5.392999999999999
 31
0.0
  0
LINE
  5
542
330
18
100
AcDbEntity
  8
Object
100
AcDbLine
 10
11.092
 20
5.392999999999999
 30
0.0
 11
11.087
 21
5.397999999999999
 31
0.0
  0
LINE
  5
543
330
18
100
AcDbEntity
  8
Object
100
AcDbLine
 10
11.066
 20
5.323
 30
0.0
 11
11.037
 21
5.341
 31
0.0
  0
LINE
  5
544
330
18
100
AcDbEntity
  8
Object
100
AcDbLine
 10
11.037
 20
5.341
 30
0.0
 11
11.017
 21
5.368999999999999
 31
0.0
  0
LINE
  5
545
330
18
100
AcDbEntity
  8
Object
100
AcDbLine
 10
11.087
 20
5.397999999999999
 30
0.0
 11
11.084
 21
5.405
 31
0.0
  0
LINE
  5
546
330
18
100
AcDbEntity
  8
Object
100
AcDbLine
 10
11.084
 20
5.405
 30
0.0
 11
11.077
 21
5.435999999999999
 31
0.0
  0
LINE
  5
547
330
18
100
AcDbEntity
  8
Object
100
AcDbLine
 10
11.017
 20
5.368999999999999
 30
0.0
 11
11.009
 21
5.402
 31
0.0
  0
LINE
  5
548
330
18
100
AcDbEntity
  8
Object
100
AcDbLine
 10
11.009
 20
5.402
 30
0.0
 11
11.007
 21
5.408999999999999
 31
0.0
  0
LINE
  5
549
330
18
100
AcDbEntity
  8
Object
100
AcDbLine
 10
11.077
 20
5.435999999999999
 30
0.0
 11
11.06
 21
5.463
 31
0.0
  0
LINE
  5
54A
330
18
100
AcDbEntity
  8
Object
100
AcDbLine
 10
11.06
 20
5.463
 30
0.0
 11
11.034
 21
5.482
 31
0.0
  0
LINE
  5
54B
330
18
100
AcDbEntity
  8
Object
100
AcDbLine
 10
11.007
 20
5.408999999999999
 30
0.0
 11
11.003
 21
5.413999999999999
 31
0.0
  0
LINE
  5
54C
330
18
100
AcDbEntity
  8
Object
100
AcDbLine
 10
11.003
 20
5.413999999999999
 30
0.0
 11
10.996
 21
5.416
 31
0.0
  0
LINE
  5
54D
330
18
100
AcDbEntity
  8
Object
100
AcDbLine
 10
11.034
 20
5.482
 30
0.0
 11
11.004
 21
5.491
 31
0.0
  0
LINE
  5
54E
330
18
100
AcDbEntity
  8
Object
100
AcDbLine
 10
10.832
 20
5.432999999999999
 30
0.0
 11
10.996
 21
5.416
 31
0.0
  0
LINE
  5
54F
330
18
100
AcDbEntity
  8
Object
100
AcDbLine
 10
11.004
 20
5.491
 30
0.0
 11
10.84
 21
5.508
 31
0.0
  0
LINE
  5
550
330
18
100
AcDbEntity
  8
Object
100
AcDbLine
 10
11.099
 20
5.315999999999999
 30
0.0
 11
11.066
 21
5.323
 31
0.0
  0
LINE
  5
551
330
18
100
AcDbEntity
  8
Object
100
AcDbLine
 10
11.066
 20
5.323
 30
0.0
 11
11.037
 21
5.341
 31
0.0
  0
LINE
  5
552
330
18
100
AcDbEntity
  8
Object
100
AcDbLine
 10
11.037
 20
5.341
 30
0.0
 11
11.017
 21
5.368999999999999
 31
0.0
  0
LINE
  5
553
330
18
100
AcDbEntity
  8
Object
100
AcDbLine
 10
11.017
 20
5.368999999999999
 30
0.0
 11
11.009
 21
5.402
 31
0.0
  0
LINE
  5
554
330
18
100
AcDbEntity
  8
Object
100
AcDbLine
 10
11.084
 20
5.405
 30
0.0
 11
11.077
 21
5.435999999999999
 31
0.0
  0
LINE
  5
555
330
18
100
AcDbEntity
  8
Object
100
AcDbLine
 10
11.077
 20
5.435999999999999
 30
0.0
 11
11.06
 21
5.463
 31
0.0
  0
LINE
  5
556
330
18
100
AcDbEntity
  8
Object
100
AcDbLine
 10
11.06
 20
5.463
 30
0.0
 11
11.034
 21
5.482
 31
0.0
  0
LINE
  5
557
330
18
100
AcDbEntity
  8
Object
100
AcDbLine
 10
11.034
 20
5.482
 30
0.0
 11
11.004
 21
5.491
 31
0.0
  0
LINE
  5
558
330
18
100
AcDbEntity
  8
Object
100
AcDbLine
 10
11.009
 20
5.402
 30
0.0
 11
11.007
 21
5.408999999999999
 31
0.0
  0
LINE
  5
559
330
18
100
AcDbEntity
  8
Object
100
AcDbLine
 10
11.007
 20
5.408999999999999
 30
0.0
 11
11.003
 21
5.413999999999999
 31
0.0
  0
LINE
  5
55A
330
18
100
AcDbEntity
  8
Object
100
AcDbLine
 10
11.003
 20
5.413999999999999
 30
0.0
 11
10.996
 21
5.416
 31
0.0
  0
LINE
  5
55B
330
18
100
AcDbEntity
  8
Object
100
AcDbLine
 10
11.004
 20
5.491
 30
0.0
 11
10.84
 21
5.508
 31
0.0
  0
LINE
  5
55C
330
18
100
AcDbEntity
  8
Object
100
AcDbLine
 10
10.84
 20
5.508
 30
0.0
 11
10.82
 21
5.509999999999999
 31
0.0
  0
LINE
  5
55D
330
18
100
AcDbEntity
  8
Object
100
AcDbLine
 10
10.82
 20
5.509999999999999
 30
0.0
 11
10.805
 21
5.512
 31
0.0
  0
LINE
  5
55E
330
18
100
AcDbEntity
  8
Object
100
AcDbLine
 10
10.805
 20
5.512
 30
0.0
 11
10.8
 21
5.512
 31
0.0
  0
LINE
  5
55F
330
18
100
AcDbEntity
  8
Object
100
AcDbLine
 10
10.82
 20
5.509999999999999
 30
0.0
 11
10.84
 21
5.508
 31
0.0
  0
LINE
  5
560
330
18
100
AcDbEntity
  8
Object
100
AcDbLine
 10
10.84
 20
5.508
 30
0.0
 11
10.832
 21
5.432999999999999
 31
0.0
  0
LINE
  5
561
330
18
100
AcDbEntity
  8
Object
100
AcDbLine
 10
10.832
 20
5.432999999999999
 30
0.0
 11
10.812
 21
5.435999999999999
 31
0.0
  0
LINE
  5
562
330
18
100
AcDbEntity
  8
Object
100
AcDbLine
 10
10.812
 20
5.435999999999999
 30
0.0
 11
10.797
 21
5.437
 31
0.0
  0
LINE
  5
563
330
18
100
AcDbEntity
  8
Object
100
AcDbLine
 10
10.82
 20
5.509999999999999
 30
0.0
 11
10.805
 21
5.512
 31
0.0
  0
LINE
  5
564
330
18
100
AcDbEntity
  8
Object
100
AcDbLine
 10
10.797
 20
5.437
 30
0.0
 11
10.792
 21
5.437999999999999
 31
0.0
  0
LINE
  5
565
330
18
100
AcDbEntity
  8
Object
100
AcDbLine
 10
10.792
 20
5.437999999999999
 30
0.0
 11
10.8
 21
5.512
 31
0.0
  0
LINE
  5
566
330
18
100
AcDbEntity
  8
Object
100
AcDbLine
 10
10.8
 20
5.512
 30
0.0
 11
10.805
 21
5.512
 31
0.0
  0
LINE
  5
567
330
18
100
AcDbEntity
  8
Object
100
AcDbLine
 10
10.996
 20
5.416
 30
0.0
 11
10.832
 21
5.432999999999999
 31
0.0
  0
LINE
  5
568
330
18
100
AcDbEntity
  8
Object
100
AcDbLine
 10
10.832
 20
5.432999999999999
 30
0.0
 11
10.812
 21
5.435999999999999
 31
0.0
  0
LINE
  5
569
330
18
100
AcDbEntity
  8
Object
100
AcDbLine
 10
10.812
 20
5.435999999999999
 30
0.0
 11
10.797
 21
5.437
 31
0.0
  0
LINE
  5
56A
330
18
100
AcDbEntity
  8
Object
100
AcDbLine
 10
10.797
 20
5.437
 30
0.0
 11
10.792
 21
5.437999999999999
 31
0.0
  0
LINE
  5
56B
330
18
100
AcDbEntity
  8
Object
100
AcDbLine
 10
10.838
 20
5.137
 30
0.0
 11
10.8
 21
5.099
 31
0.0
  0
LINE
  5
56C
330
18
100
AcDbEntity
  8
Object
100
AcDbLine
 10
11.04
 20
5.339
 30
0.0
 11
11.017
 21
5.315999999999999
 31
0.0
  0
LINE
  5
56D
330
18
100
AcDbEntity
  8
Object
100
AcDbLine
 10
10.8
 20
5.099
 30
0.0
 11
10.789
 21
5.088
 31
0.0
  0
LINE
  5
56E
330
18
100
AcDbEntity
  8
Object
100
AcDbLine
 10
10.789
 20
5.088
 30
0.0
 11
10.781
 21
5.081
 31
0.0
  0
LINE
  5
56F
330
18
100
AcDbEntity
  8
Object
100
AcDbLine
 10
10.781
 20
5.081
 30
0.0
 11
10.779
 21
5.078
 31
0.0
  0
LINE
  5
570
330
18
100
AcDbEntity
  8
Object
100
AcDbLine
 10
10.944
 20
5.137
 30
0.0
 11
10.853
 21
5.046
 31
0.0
  0
LINE
  5
571
330
18
100
AcDbEntity
  8
Object
100
AcDbLine
 10
10.853
 20
5.046
 30
0.0
 11
10.842
 21
5.035
 31
0.0
  0
LINE
  5
572
330
18
100
AcDbEntity
  8
Object
100
AcDbLine
 10
10.842
 20
5.035
 30
0.0
 11
10.835
 21
5.028
 31
0.0
  0
LINE
  5
573
330
18
100
AcDbEntity
  8
Object
100
AcDbLine
 10
10.835
 20
5.028
 30
0.0
 11
10.832
 21
5.025
 31
0.0
  0
LINE
  5
574
330
18
100
AcDbEntity
  8
Object
100
AcDbLine
 10
10.944
 20
5.137
 30
0.0
 11
10.853
 21
5.046
 31
0.0
  0
LINE
  5
575
330
18
100
AcDbEntity
  8
Object
100
AcDbLine
 10
10.853
 20
5.046
 30
0.0
 11
10.8
 21
5.099
 31
0.0
  0
LINE
  5
576
330
18
100
AcDbEntity
  8
Object
100
AcDbLine
 10
10.8
 20
5.099
 30
0.0
 11
10.838
 21
5.137
 31
0.0
  0
LINE
  5
577
330
18
100
AcDbEntity
  8
Object
100
AcDbLine
 10
11.04
 20
5.339
 30
0.0
 11
11.017
 21
5.315999999999999
 31
0.0
  0
LINE
  5
578
330
18
100
AcDbEntity
  8
Object
100
AcDbLine
 10
10.8
 20
5.512
 30
0.0
 11
10.792
 21
5.437999999999999
 31
0.0
  0
LINE
  5
579
330
18
100
AcDbEntity
  8
Object
100
AcDbLine
 10
10.779
 20
5.078
 30
0.0
 11
10.832
 21
5.025
 31
0.0
  0
LINE
  5
57A
330
18
100
AcDbEntity
  8
Object
100
AcDbLine
 10
10.842
 20
5.035
 30
0.0
 11
10.853
 21
5.046
 31
0.0
  0
LINE
  5
57B
330
18
100
AcDbEntity
  8
Object
100
AcDbLine
 10
10.8
 20
5.099
 30
0.0
 11
10.789
 21
5.088
 31
0.0
  0
LINE
  5
57C
330
18
100
AcDbEntity
  8
Object
100
AcDbLine
 10
10.842
 20
5.035
 30
0.0
 11
10.835
 21
5.028
 31
0.0
  0
LINE
  5
57D
330
18
100
AcDbEntity
  8
Object
100
AcDbLine
 10
10.835
 20
5.028
 30
0.0
 11
10.832
 21
5.025
 31
0.0
  0
LINE
  5
57E
330
18
100
AcDbEntity
  8
Object
100
AcDbLine
 10
10.789
 20
5.088
 30
0.0
 11
10.781
 21
5.081
 31
0.0
  0
LINE
  5
57F
330
18
100
AcDbEntity
  8
Object
100
AcDbLine
 10
10.832
 20
5.025
 30
0.0
 11
10.779
 21
5.078
 31
0.0
  0
LINE
  5
580
330
18
100
AcDbEntity
  8
Object
100
AcDbLine
 10
10.779
 20
5.078
 30
0.0
 11
10.781
 21
5.081
 31
0.0
  0
LINE
  5
581
330
18
100
AcDbEntity
  8
Object
100
AcDbLine
 10
11.425
 20
5.075
 30
0.0
 11
11.425
 21
5.137
 31
0.0
  0
LINE
  5
582
330
18
100
AcDbEntity
  8
Object
100
AcDbLine
 10
11.673
 20
5.075
 30
0.0
 11
11.66
 21
5.075
 31
0.0
  0
LINE
  5
583
330
18
100
AcDbEntity
  8
Object
100
AcDbLine
 10
11.66
 20
5.075
 30
0.0
 11
11.634
 21
5.075
 31
0.0
  0
LINE
  5
584
330
18
100
AcDbEntity
  8
Object
100
AcDbLine
 10
11.634
 20
5.075
 30
0.0
 11
11.595
 21
5.075
 31
0.0
  0
LINE
  5
585
330
18
100
AcDbEntity
  8
Object
100
AcDbLine
 10
11.595
 20
5.075
 30
0.0
 11
11.548
 21
5.075
 31
0.0
  0
LINE
  5
586
330
18
100
AcDbEntity
  8
Object
100
AcDbLine
 10
11.548
 20
5.075
 30
0.0
 11
11.493
 21
5.075
 31
0.0
  0
LINE
  5
587
330
18
100
AcDbEntity
  8
Object
100
AcDbLine
 10
11.493
 20
5.075
 30
0.0
 11
11.435
 21
5.075
 31
0.0
  0
LINE
  5
588
330
18
100
AcDbEntity
  8
Object
100
AcDbLine
 10
11.425
 20
5.075
 30
0.0
 11
11.367
 21
5.075
 31
0.0
  0
LINE
  5
589
330
18
100
AcDbEntity
  8
Object
100
AcDbLine
 10
11.367
 20
5.075
 30
0.0
 11
11.313
 21
5.075
 31
0.0
  0
LINE
  5
58A
330
18
100
AcDbEntity
  8
Object
100
AcDbLine
 10
11.313
 20
5.075
 30
0.0
 11
11.265
 21
5.075
 31
0.0
  0
LINE
  5
58B
330
18
100
AcDbEntity
  8
Object
100
AcDbLine
 10
11.265
 20
5.075
 30
0.0
 11
11.227
 21
5.075
 31
0.0
  0
LINE
  5
58C
330
18
100
AcDbEntity
  8
Object
100
AcDbLine
 10
11.227
 20
5.075
 30
0.0
 11
11.201
 21
5.075
 31
0.0
  0
LINE
  5
58D
330
18
100
AcDbEntity
  8
Object
100
AcDbLine
 10
11.201
 20
5.075
 30
0.0
 11
11.187
 21
5.075
 31
0.0
  0
LINE
  5
58E
330
18
100
AcDbEntity
  8
Object
100
AcDbLine
 10
11.669
 20
5.137
 30
0.0
 11
11.678
 21
5.137
 31
0.0
  0
LINE
  5
58F
330
18
100
AcDbEntity
  8
Object
100
AcDbLine
 10
11.367
 20
5.075
 30
0.0
 11
11.425
 21
5.075
 31
0.0
  0
LINE
  5
590
330
18
100
AcDbEntity
  8
Object
100
AcDbLine
 10
11.425
 20
5.075
 30
0.0
 11
11.425
 21
5.137
 31
0.0
  0
LINE
  5
591
330
18
100
AcDbEntity
  8
Object
100
AcDbLine
 10
11.367
 20
5.075
 30
0.0
 11
11.313
 21
5.075
 31
0.0
  0
LINE
  5
592
330
18
100
AcDbEntity
  8
Object
100
AcDbLine
 10
11.313
 20
5.075
 30
0.0
 11
11.265
 21
5.075
 31
0.0
  0
LINE
  5
593
330
18
100
AcDbEntity
  8
Object
100
AcDbLine
 10
11.265
 20
5.075
 30
0.0
 11
11.227
 21
5.075
 31
0.0
  0
LINE
  5
594
330
18
100
AcDbEntity
  8
Object
100
AcDbLine
 10
11.227
 20
5.075
 30
0.0
 11
11.201
 21
5.075
 31
0.0
  0
LINE
  5
595
330
18
100
AcDbEntity
  8
Object
100
AcDbLine
 10
11.201
 20
5.075
 30
0.0
 11
11.187
 21
5.075
 31
0.0
  0
LINE
  5
596
330
18
100
AcDbEntity
  8
Object
100
AcDbLine
 10
11.187
 20
5.075
 30
0.0
 11
11.187
 21
5.137
 31
0.0
  0
LINE
  5
597
330
18
100
AcDbEntity
  8
Object
100
AcDbLine
 10
11.673
 20
5.075
 30
0.0
 11
11.673
 21
5.137
 31
0.0
  0
LINE
  5
598
330
18
100
AcDbEntity
  8
Object
100
AcDbLine
 10
11.673
 20
5.137
 30
0.0
 11
11.673
 21
5.075
 31
0.0
  0
LINE
  5
599
330
18
100
AcDbEntity
  8
Object
100
AcDbLine
 10
11.673
 20
5.075
 30
0.0
 11
11.66
 21
5.075
 31
0.0
  0
LINE
  5
59A
330
18
100
AcDbEntity
  8
Object
100
AcDbLine
 10
11.66
 20
5.075
 30
0.0
 11
11.634
 21
5.075
 31
0.0
  0
LINE
  5
59B
330
18
100
AcDbEntity
  8
Object
100
AcDbLine
 10
11.634
 20
5.075
 30
0.0
 11
11.595
 21
5.075
 31
0.0
  0
LINE
  5
59C
330
18
100
AcDbEntity
  8
Object
100
AcDbLine
 10
11.595
 20
5.075
 30
0.0
 11
11.548
 21
5.075
 31
0.0
  0
LINE
  5
59D
330
18
100
AcDbEntity
  8
Object
100
AcDbLine
 10
11.548
 20
5.075
 30
0.0
 11
11.493
 21
5.075
 31
0.0
  0
LINE
  5
59E
330
18
100
AcDbEntity
  8
Object
100
AcDbLine
 10
11.493
 20
5.075
 30
0.0
 11
11.435
 21
5.075
 31
0.0
  0
LINE
  5
59F
330
18
100
AcDbEntity
  8
Object
100
AcDbLine
 10
11.435
 20
5.075
 30
0.0
 11
11.435
 21
5.137
 31
0.0
  0
LINE
  5
5A0
330
18
100
AcDbEntity
  8
Object
100
AcDbLine
 10
11.435
 20
5.137
 30
0.0
 11
11.435
 21
5.075
 31
0.0
  0
LINE
  5
5A1
330
18
100
AcDbEntity
  8
Object
100
AcDbLine
 10
11.64
 20
5.560999999999999
 30
0.0
 11
11.633
 21
5.560999999999999
 31
0.0
  0
LINE
  5
5A2
330
18
100
AcDbEntity
  8
Object
100
AcDbLine
 10
11.633
 20
5.560999999999999
 30
0.0
 11
11.612
 21
5.560999999999999
 31
0.0
  0
LINE
  5
5A3
330
18
100
AcDbEntity
  8
Object
100
AcDbLine
 10
11.612
 20
5.560999999999999
 30
0.0
 11
11.579
 21
5.560999999999999
 31
0.0
  0
LINE
  5
5A4
330
18
100
AcDbEntity
  8
Object
100
AcDbLine
 10
11.579
 20
5.560999999999999
 30
0.0
 11
11.535
 21
5.560999999999999
 31
0.0
  0
LINE
  5
5A5
330
18
100
AcDbEntity
  8
Object
100
AcDbLine
 10
11.535
 20
5.560999999999999
 30
0.0
 11
11.485
 21
5.560999999999999
 31
0.0
  0
LINE
  5
5A6
330
18
100
AcDbEntity
  8
Object
100
AcDbLine
 10
11.485
 20
5.560999999999999
 30
0.0
 11
11.43
 21
5.560999999999999
 31
0.0
  0
LINE
  5
5A7
330
18
100
AcDbEntity
  8
Object
100
AcDbLine
 10
11.43
 20
5.560999999999999
 30
0.0
 11
11.376
 21
5.560999999999999
 31
0.0
  0
LINE
  5
5A8
330
18
100
AcDbEntity
  8
Object
100
AcDbLine
 10
11.376
 20
5.560999999999999
 30
0.0
 11
11.325
 21
5.560999999999999
 31
0.0
  0
LINE
  5
5A9
330
18
100
AcDbEntity
  8
Object
100
AcDbLine
 10
11.311
 20
5.562
 30
0.0
 11
11.311
 21
5.560999999999999
 31
0.0
  0
LINE
  5
5AA
330
18
100
AcDbEntity
  8
Object
100
AcDbLine
 10
11.325
 20
5.560999999999999
 30
0.0
 11
11.282
 21
5.560999999999999
 31
0.0
  0
LINE
  5
5AB
330
18
100
AcDbEntity
  8
Object
100
AcDbLine
 10
11.282
 20
5.560999999999999
 30
0.0
 11
11.249
 21
5.560999999999999
 31
0.0
  0
LINE
  5
5AC
330
18
100
AcDbEntity
  8
Object
100
AcDbLine
 10
11.249
 20
5.560999999999999
 30
0.0
 11
11.228
 21
5.560999999999999
 31
0.0
  0
LINE
  5
5AD
330
18
100
AcDbEntity
  8
Object
100
AcDbLine
 10
11.228
 20
5.560999999999999
 30
0.0
 11
11.22
 21
5.560999999999999
 31
0.0
  0
LINE
  5
5AE
330
18
100
AcDbEntity
  8
Object
100
AcDbLine
 10
11.376
 20
5.560999999999999
 30
0.0
 11
11.43
 21
5.560999999999999
 31
0.0
  0
LINE
  5
5AF
330
18
100
AcDbEntity
  8
Object
100
AcDbLine
 10
11.43
 20
5.560999999999999
 30
0.0
 11
11.43
 21
5.551
 31
0.0
  0
LINE
  5
5B0
330
18
100
AcDbEntity
  8
Object
100
AcDbLine
 10
11.376
 20
5.560999999999999
 30
0.0
 11
11.325
 21
5.560999999999999
 31
0.0
  0
LINE
  5
5B1
330
18
100
AcDbEntity
  8
Object
100
AcDbLine
 10
11.325
 20
5.560999999999999
 30
0.0
 11
11.282
 21
5.560999999999999
 31
0.0
  0
LINE
  5
5B2
330
18
100
AcDbEntity
  8
Object
100
AcDbLine
 10
11.282
 20
5.560999999999999
 30
0.0
 11
11.249
 21
5.560999999999999
 31
0.0
  0
LINE
  5
5B3
330
18
100
AcDbEntity
  8
Object
100
AcDbLine
 10
11.22
 20
5.560999999999999
 30
0.0
 11
11.228
 21
5.560999999999999
 31
0.0
  0
LINE
  5
5B4
330
18
100
AcDbEntity
  8
Object
100
AcDbLine
 10
11.228
 20
5.560999999999999
 30
0.0
 11
11.249
 21
5.560999999999999
 31
0.0
  0
LINE
  5
5B5
330
18
100
AcDbEntity
  8
Object
100
AcDbLine
 10
11.22
 20
5.560999999999999
 30
0.0
 11
11.21
 21
5.551
 31
0.0
  0
LINE
  5
5B6
330
18
100
AcDbEntity
  8
Object
100
AcDbLine
 10
11.64
 20
5.560999999999999
 30
0.0
 11
11.65
 21
5.551
 31
0.0
  0
LINE
  5
5B7
330
18
100
AcDbEntity
  8
Object
100
AcDbLine
 10
11.65
 20
5.551
 30
0.0
 11
11.643
 21
5.551
 31
0.0
  0
LINE
  5
5B8
330
18
100
AcDbEntity
  8
Object
100
AcDbLine
 10
11.64
 20
5.560999999999999
 30
0.0
 11
11.633
 21
5.560999999999999
 31
0.0
  0
LINE
  5
5B9
330
18
100
AcDbEntity
  8
Object
100
AcDbLine
 10
11.621
 20
5.551
 30
0.0
 11
11.643
 21
5.551
 31
0.0
  0
LINE
  5
5BA
330
18
100
AcDbEntity
  8
Object
100
AcDbLine
 10
11.633
 20
5.560999999999999
 30
0.0
 11
11.612
 21
5.560999999999999
 31
0.0
  0
LINE
  5
5BB
330
18
100
AcDbEntity
  8
Object
100
AcDbLine
 10
11.612
 20
5.560999999999999
 30
0.0
 11
11.579
 21
5.560999999999999
 31
0.0
  0
LINE
  5
5BC
330
18
100
AcDbEntity
  8
Object
100
AcDbLine
 10
11.621
 20
5.551
 30
0.0
 11
11.586
 21
5.551
 31
0.0
  0
LINE
  5
5BD
330
18
100
AcDbEntity
  8
Object
100
AcDbLine
 10
11.586
 20
5.551
 30
0.0
 11
11.54
 21
5.551
 31
0.0
  0
LINE
  5
5BE
330
18
100
AcDbEntity
  8
Object
100
AcDbLine
 10
11.579
 20
5.560999999999999
 30
0.0
 11
11.535
 21
5.560999999999999
 31
0.0
  0
LINE
  5
5BF
330
18
100
AcDbEntity
  8
Object
100
AcDbLine
 10
11.535
 20
5.560999999999999
 30
0.0
 11
11.485
 21
5.560999999999999
 31
0.0
  0
LINE
  5
5C0
330
18
100
AcDbEntity
  8
Object
100
AcDbLine
 10
11.487
 20
5.551
 30
0.0
 11
11.54
 21
5.551
 31
0.0
  0
LINE
  5
5C1
330
18
100
AcDbEntity
  8
Object
100
AcDbLine
 10
11.485
 20
5.560999999999999
 30
0.0
 11
11.43
 21
5.560999999999999
 31
0.0
  0
LINE
  5
5C2
330
18
100
AcDbEntity
  8
Object
100
AcDbLine
 10
11.373
 20
5.551
 30
0.0
 11
11.43
 21
5.551
 31
0.0
  0
LINE
  5
5C3
330
18
100
AcDbEntity
  8
Object
100
AcDbLine
 10
11.43
 20
5.551
 30
0.0
 11
11.43
 21
5.391
 31
0.0
  0
LINE
  5
5C4
330
18
100
AcDbEntity
  8
Object
100
AcDbLine
 10
11.373
 20
5.551
 30
0.0
 11
11.32
 21
5.551
 31
0.0
  0
LINE
  5
5C5
330
18
100
AcDbEntity
  8
Object
100
AcDbLine
 10
11.32
 20
5.551
 30
0.0
 11
11.275
 21
5.551
 31
0.0
  0
LINE
  5
5C6
330
18
100
AcDbEntity
  8
Object
100
AcDbLine
 10
11.275
 20
5.551
 30
0.0
 11
11.24
 21
5.551
 31
0.0
  0
LINE
  5
5C7
330
18
100
AcDbEntity
  8
Object
100
AcDbLine
 10
11.24
 20
5.551
 30
0.0
 11
11.218
 21
5.551
 31
0.0
  0
LINE
  5
5C8
330
18
100
AcDbEntity
  8
Object
100
AcDbLine
 10
11.218
 20
5.551
 30
0.0
 11
11.21
 21
5.551
 31
0.0
  0
LINE
  5
5C9
330
18
100
AcDbEntity
  8
Object
100
AcDbLine
 10
11.21
 20
5.551
 30
0.0
 11
11.21
 21
5.391
 31
0.0
  0
LINE
  5
5CA
330
18
100
AcDbEntity
  8
Object
100
AcDbLine
 10
11.65
 20
5.391
 30
0.0
 11
11.65
 21
5.551
 31
0.0
  0
LINE
  5
5CB
330
18
100
AcDbEntity
  8
Object
100
AcDbLine
 10
11.487
 20
5.551
 30
0.0
 11
11.43
 21
5.551
 31
0.0
  0
LINE
  5
5CC
330
18
100
AcDbEntity
  8
Object
100
AcDbLine
 10
11.485
 20
4.918
 30
0.0
 11
11.54
 21
4.911999999999999
 31
0.0
  0
LINE
  5
5CD
330
18
100
AcDbEntity
  8
Object
100
AcDbLine
 10
11.54
 20
4.911999999999999
 30
0.0
 11
11.487
 21
4.911999999999999
 31
0.0
  0
LINE
  5
5CE
330
18
100
AcDbEntity
  8
Object
100
AcDbLine
 10
11.485
 20
4.918
 30
0.0
 11
11.43
 21
4.932
 31
0.0
  0
LINE
  5
5CF
330
18
100
AcDbEntity
  8
Object
100
AcDbLine
 10
11.43
 20
4.911999999999999
 30
0.0
 11
11.487
 21
4.911999999999999
 31
0.0
  0
LINE
  5
5D0
330
18
100
AcDbEntity
  8
Object
100
AcDbLine
 10
11.43
 20
4.932
 30
0.0
 11
11.376
 21
4.918
 31
0.0
  0
LINE
  5
5D1
330
18
100
AcDbEntity
  8
Object
100
AcDbLine
 10
11.43
 20
4.911999999999999
 30
0.0
 11
11.374
 21
4.911999999999999
 31
0.0
  0
LINE
  5
5D2
330
18
100
AcDbEntity
  8
Object
100
AcDbLine
 10
11.374
 20
4.911999999999999
 30
0.0
 11
11.321
 21
4.911999999999999
 31
0.0
  0
LINE
  5
5D3
330
18
100
AcDbEntity
  8
Object
100
AcDbLine
 10
11.321
 20
4.911999999999999
 30
0.0
 11
11.376
 21
4.918
 31
0.0
  0
LINE
  5
5D4
330
18
100
AcDbEntity
  8
Object
100
AcDbLine
 10
11.376
 20
5.07
 30
0.0
 11
11.43
 21
5.054999999999999
 31
0.0
  0
LINE
  5
5D5
330
18
100
AcDbEntity
  8
Object
100
AcDbLine
 10
11.43
 20
5.054999999999999
 30
0.0
 11
11.43
 21
4.932
 31
0.0
  0
LINE
  5
5D6
330
18
100
AcDbEntity
  8
Object
100
AcDbLine
 10
11.376
 20
5.07
 30
0.0
 11
11.321
 21
5.075
 31
0.0
  0
LINE
  5
5D7
330
18
100
AcDbEntity
  8
Object
100
AcDbLine
 10
11.266
 20
4.918
 30
0.0
 11
11.321
 21
4.911999999999999
 31
0.0
  0
LINE
  5
5D8
330
18
100
AcDbEntity
  8
Object
100
AcDbLine
 10
11.321
 20
5.075
 30
0.0
 11
11.266
 21
5.07
 31
0.0
  0
LINE
  5
5D9
330
18
100
AcDbEntity
  8
Object
100
AcDbLine
 10
11.266
 20
4.918
 30
0.0
 11
11.211
 21
4.932
 31
0.0
  0
LINE
  5
5DA
330
18
100
AcDbEntity
  8
Object
100
AcDbLine
 10
11.211
 20
4.932
 30
0.0
 11
11.211
 21
5.054999999999999
 31
0.0
  0
LINE
  5
5DB
330
18
100
AcDbEntity
  8
Object
100
AcDbLine
 10
11.211
 20
5.054999999999999
 30
0.0
 11
11.266
 21
5.07
 31
0.0
  0
LINE
  5
5DC
330
18
100
AcDbEntity
  8
Object
100
AcDbLine
 10
11.595
 20
5.07
 30
0.0
 11
11.649
 21
5.054999999999999
 31
0.0
  0
LINE
  5
5DD
330
18
100
AcDbEntity
  8
Object
100
AcDbLine
 10
11.649
 20
5.054999999999999
 30
0.0
 11
11.649
 21
4.932
 31
0.0
  0
LINE
  5
5DE
330
18
100
AcDbEntity
  8
Object
100
AcDbLine
 10
11.649
 20
4.932
 30
0.0
 11
11.595
 21
4.918
 31
0.0
  0
LINE
  5
5DF
330
18
100
AcDbEntity
  8
Object
100
AcDbLine
 10
11.595
 20
5.07
 30
0.0
 11
11.54
 21
5.075
 31
0.0
  0
LINE
  5
5E0
330
18
100
AcDbEntity
  8
Object
100
AcDbLine
 10
11.54
 20
4.911999999999999
 30
0.0
 11
11.595
 21
4.918
 31
0.0
  0
LINE
  5
5E1
330
18
100
AcDbEntity
  8
Object
100
AcDbLine
 10
11.54
 20
5.075
 30
0.0
 11
11.485
 21
5.07
 31
0.0
  0
LINE
  5
5E2
330
18
100
AcDbEntity
  8
Object
100
AcDbLine
 10
11.485
 20
5.07
 30
0.0
 11
11.43
 21
5.054999999999999
 31
0.0
  0
LINE
  5
5E3
330
18
100
AcDbEntity
  8
Object
100
AcDbLine
 10
11.649
 20
4.911999999999999
 30
0.0
 11
11.642
 21
4.911999999999999
 31
0.0
  0
LINE
  5
5E4
330
18
100
AcDbEntity
  8
Object
100
AcDbLine
 10
11.642
 20
4.911999999999999
 30
0.0
 11
11.62
 21
4.911999999999999
 31
0.0
  0
LINE
  5
5E5
330
18
100
AcDbEntity
  8
Object
100
AcDbLine
 10
11.62
 20
4.911999999999999
 30
0.0
 11
11.585
 21
4.911999999999999
 31
0.0
  0
LINE
  5
5E6
330
18
100
AcDbEntity
  8
Object
100
AcDbLine
 10
11.585
 20
4.911999999999999
 30
0.0
 11
11.54
 21
4.911999999999999
 31
0.0
  0
LINE
  5
5E7
330
18
100
AcDbEntity
  8
Object
100
AcDbLine
 10
11.54
 20
4.911999999999999
 30
0.0
 11
11.487
 21
4.911999999999999
 31
0.0
  0
LINE
  5
5E8
330
18
100
AcDbEntity
  8
Object
100
AcDbLine
 10
11.487
 20
4.911999999999999
 30
0.0
 11
11.43
 21
4.911999999999999
 31
0.0
  0
LINE
  5
5E9
330
18
100
AcDbEntity
  8
Object
100
AcDbLine
 10
11.43
 20
4.911999999999999
 30
0.0
 11
11.374
 21
4.911999999999999
 31
0.0
  0
LINE
  5
5EA
330
18
100
AcDbEntity
  8
Object
100
AcDbLine
 10
11.374
 20
4.911999999999999
 30
0.0
 11
11.321
 21
4.911999999999999
 31
0.0
  0
LINE
  5
5EB
330
18
100
AcDbEntity
  8
Object
100
AcDbLine
 10
11.321
 20
4.911999999999999
 30
0.0
 11
11.276
 21
4.911999999999999
 31
0.0
  0
LINE
  5
5EC
330
18
100
AcDbEntity
  8
Object
100
AcDbLine
 10
11.276
 20
4.911999999999999
 30
0.0
 11
11.241
 21
4.911999999999999
 31
0.0
  0
LINE
  5
5ED
330
18
100
AcDbEntity
  8
Object
100
AcDbLine
 10
11.241
 20
4.911999999999999
 30
0.0
 11
11.219
 21
4.911999999999999
 31
0.0
  0
LINE
  5
5EE
330
18
100
AcDbEntity
  8
Object
100
AcDbLine
 10
11.219
 20
4.911999999999999
 30
0.0
 11
11.211
 21
4.911999999999999
 31
0.0
  0
LINE
  5
5EF
330
18
100
AcDbEntity
  8
Object
100
AcDbLine
 10
11.211
 20
5.054999999999999
 30
0.0
 11
11.211
 21
5.07
 31
0.0
  0
LINE
  5
5F0
330
18
100
AcDbEntity
  8
Object
100
AcDbLine
 10
11.211
 20
5.07
 30
0.0
 11
11.211
 21
5.075
 31
0.0
  0
LINE
  5
5F1
330
18
100
AcDbEntity
  8
Object
100
AcDbLine
 10
11.211
 20
5.075
 30
0.0
 11
11.211
 21
5.07
 31
0.0
  0
LINE
  5
5F2
330
18
100
AcDbEntity
  8
Object
100
AcDbLine
 10
11.211
 20
4.932
 30
0.0
 11
11.211
 21
5.054999999999999
 31
0.0
  0
LINE
  5
5F3
330
18
100
AcDbEntity
  8
Object
100
AcDbLine
 10
11.211
 20
5.054999999999999
 30
0.0
 11
11.211
 21
5.07
 31
0.0
  0
LINE
  5
5F4
330
18
100
AcDbEntity
  8
Object
100
AcDbLine
 10
11.211
 20
4.932
 30
0.0
 11
11.211
 21
4.918
 31
0.0
  0
LINE
  5
5F5
330
18
100
AcDbEntity
  8
Object
100
AcDbLine
 10
11.211
 20
4.918
 30
0.0
 11
11.211
 21
4.911999999999999
 31
0.0
  0
LINE
  5
5F6
330
18
100
AcDbEntity
  8
Object
100
AcDbLine
 10
11.435
 20
5.075
 30
0.0
 11
11.43
 21
5.075
 31
0.0
  0
LINE
  5
5F7
330
18
100
AcDbEntity
  8
Object
100
AcDbLine
 10
11.43
 20
5.075
 30
0.0
 11
11.425
 21
5.075
 31
0.0
  0
LINE
  5
5F8
330
18
100
AcDbEntity
  8
Object
100
AcDbLine
 10
11.321
 20
4.911999999999999
 30
0.0
 11
11.276
 21
4.911999999999999
 31
0.0
  0
LINE
  5
5F9
330
18
100
AcDbEntity
  8
Object
100
AcDbLine
 10
11.276
 20
4.911999999999999
 30
0.0
 11
11.241
 21
4.911999999999999
 31
0.0
  0
LINE
  5
5FA
330
18
100
AcDbEntity
  8
Object
100
AcDbLine
 10
11.211
 20
4.932
 30
0.0
 11
11.211
 21
4.918
 31
0.0
  0
LINE
  5
5FB
330
18
100
AcDbEntity
  8
Object
100
AcDbLine
 10
11.241
 20
4.911999999999999
 30
0.0
 11
11.219
 21
4.911999999999999
 31
0.0
  0
LINE
  5
5FC
330
18
100
AcDbEntity
  8
Object
100
AcDbLine
 10
11.219
 20
4.911999999999999
 30
0.0
 11
11.211
 21
4.911999999999999
 31
0.0
  0
LINE
  5
5FD
330
18
100
AcDbEntity
  8
Object
100
AcDbLine
 10
11.211
 20
4.911999999999999
 30
0.0
 11
11.211
 21
4.918
 31
0.0
  0
LINE
  5
5FE
330
18
100
AcDbEntity
  8
Object
100
AcDbLine
 10
11.649
 20
4.911999999999999
 30
0.0
 11
11.649
 21
4.918
 31
0.0
  0
LINE
  5
5FF
330
18
100
AcDbEntity
  8
Object
100
AcDbLine
 10
11.649
 20
4.918
 30
0.0
 11
11.649
 21
4.932
 31
0.0
  0
LINE
  5
600
330
18
100
AcDbEntity
  8
Object
100
AcDbLine
 10
11.649
 20
4.932
 30
0.0
 11
11.649
 21
5.054999999999999
 31
0.0
  0
LINE
  5
601
330
18
100
AcDbEntity
  8
Object
100
AcDbLine
 10
11.649
 20
5.054999999999999
 30
0.0
 11
11.649
 21
5.07
 31
0.0
  0
LINE
  5
602
330
18
100
AcDbEntity
  8
Object
100
AcDbLine
 10
11.649
 20
5.07
 30
0.0
 11
11.649
 21
5.075
 31
0.0
  0
LINE
  5
603
330
18
100
AcDbEntity
  8
Object
100
AcDbLine
 10
11.649
 20
5.075
 30
0.0
 11
11.649
 21
5.07
 31
0.0
  0
LINE
  5
604
330
18
100
AcDbEntity
  8
Object
100
AcDbLine
 10
11.649
 20
5.07
 30
0.0
 11
11.649
 21
5.054999999999999
 31
0.0
  0
LINE
  5
605
330
18
100
AcDbEntity
  8
Object
100
AcDbLine
 10
11.642
 20
4.911999999999999
 30
0.0
 11
11.649
 21
4.911999999999999
 31
0.0
  0
LINE
  5
606
330
18
100
AcDbEntity
  8
Object
100
AcDbLine
 10
11.649
 20
4.911999999999999
 30
0.0
 11
11.649
 21
4.918
 31
0.0
  0
LINE
  5
607
330
18
100
AcDbEntity
  8
Object
100
AcDbLine
 10
11.62
 20
4.911999999999999
 30
0.0
 11
11.642
 21
4.911999999999999
 31
0.0
  0
LINE
  5
608
330
18
100
AcDbEntity
  8
Object
100
AcDbLine
 10
11.649
 20
4.918
 30
0.0
 11
11.649
 21
4.932
 31
0.0
  0
LINE
  5
609
330
18
100
AcDbEntity
  8
Object
100
AcDbLine
 10
11.62
 20
4.911999999999999
 30
0.0
 11
11.585
 21
4.911999999999999
 31
0.0
  0
LINE
  5
60A
330
18
100
AcDbEntity
  8
Object
100
AcDbLine
 10
11.585
 20
4.911999999999999
 30
0.0
 11
11.54
 21
4.911999999999999
 31
0.0
  0
LINE
  5
60B
330
18
100
AcDbEntity
  8
Object
100
AcDbLine
 10
11.435
 20
5.075
 30
0.0
 11
11.43
 21
5.075
 31
0.0
  0
LINE
  5
60C
330
18
100
AcDbEntity
  8
Object
100
AcDbLine
 10
11.43
 20
5.075
 30
0.0
 11
11.425
 21
5.075
 31
0.0
  0
LINE
  5
60D
330
18
100
AcDbEntity
  8
Object
100
AcDbLine
 10
11.425
 20
5.104
 30
0.0
 11
11.43
 21
5.104
 31
0.0
  0
LINE
  5
60E
330
18
100
AcDbEntity
  8
Object
100
AcDbLine
 10
11.43
 20
5.104
 30
0.0
 11
11.43
 21
5.075
 31
0.0
  0
LINE
  5
60F
330
18
100
AcDbEntity
  8
Object
100
AcDbLine
 10
11.435
 20
5.104
 30
0.0
 11
11.43
 21
5.104
 31
0.0
  0
LINE
  5
610
330
18
100
AcDbEntity
  8
Object
100
AcDbLine
 10
11.551
 20
5.565
 30
0.0
 11
11.555
 21
5.567
 31
0.0
  0
LINE
  5
611
330
18
100
AcDbEntity
  8
Object
100
AcDbLine
 10
11.54
 20
5.575
 30
0.0
 11
11.541
 21
5.575
 31
0.0
  0
LINE
  5
612
330
18
100
AcDbEntity
  8
Object
100
AcDbLine
 10
11.541
 20
5.575
 30
0.0
 11
11.555
 21
5.567
 31
0.0
  0
LINE
  5
613
330
18
100
AcDbEntity
  8
Object
100
AcDbLine
 10
11.54
 20
5.575
 30
0.0
 11
11.533
 21
5.575
 31
0.0
  0
LINE
  5
614
330
18
100
AcDbEntity
  8
Object
100
AcDbLine
 10
11.535
 20
5.562
 30
0.0
 11
11.551
 21
5.565
 31
0.0
  0
LINE
  5
615
330
18
100
AcDbEntity
  8
Object
100
AcDbLine
 10
11.533
 20
5.575
 30
0.0
 11
11.521
 21
5.575
 31
0.0
  0
LINE
  5
616
330
18
100
AcDbEntity
  8
Object
100
AcDbLine
 10
11.521
 20
5.575
 30
0.0
 11
11.503
 21
5.575
 31
0.0
  0
LINE
  5
617
330
18
100
AcDbEntity
  8
Object
100
AcDbLine
 10
11.523
 20
5.560999999999999
 30
0.0
 11
11.535
 21
5.562
 31
0.0
  0
LINE
  5
618
330
18
100
AcDbEntity
  8
Object
100
AcDbLine
 10
11.487
 20
5.573999999999999
 30
0.0
 11
11.47
 21
5.572
 31
0.0
  0
LINE
  5
619
330
18
100
AcDbEntity
  8
Object
100
AcDbLine
 10
11.47
 20
5.572
 30
0.0
 11
11.45
 21
5.57
 31
0.0
  0
LINE
  5
61A
330
18
100
AcDbEntity
  8
Object
100
AcDbLine
 10
11.45
 20
5.57
 30
0.0
 11
11.43
 21
5.568999999999999
 31
0.0
  0
LINE
  5
61B
330
18
100
AcDbEntity
  8
Object
100
AcDbLine
 10
11.435
 20
5.118999999999999
 30
0.0
 11
11.43
 21
5.118999999999999
 31
0.0
  0
LINE
  5
61C
330
18
100
AcDbEntity
  8
Object
100
AcDbLine
 10
11.43
 20
5.568999999999999
 30
0.0
 11
11.392
 21
5.565999999999999
 31
0.0
  0
LINE
  5
61D
330
18
100
AcDbEntity
  8
Object
100
AcDbLine
 10
11.43
 20
5.118999999999999
 30
0.0
 11
11.425
 21
5.118
 31
0.0
  0
LINE
  5
61E
330
18
100
AcDbEntity
  8
Object
100
AcDbLine
 10
11.392
 20
5.565999999999999
 30
0.0
 11
11.36
 21
5.562
 31
0.0
  0
LINE
  5
61F
330
18
100
AcDbEntity
  8
Object
100
AcDbLine
 10
11.36
 20
5.562
 30
0.0
 11
11.352
 21
5.560999999999999
 31
0.0
  0
LINE
  5
620
330
18
100
AcDbEntity
  8
Object
100
AcDbLine
 10
11.435
 20
5.131999999999999
 30
0.0
 11
11.43
 21
5.131999999999999
 31
0.0
  0
LINE
  5
621
330
18
100
AcDbEntity
  8
Object
100
AcDbLine
 10
11.43
 20
5.131999999999999
 30
0.0
 11
11.425
 21
5.131
 31
0.0
  0
LINE
  5
622
330
18
100
AcDbEntity
  8
Object
100
AcDbLine
 10
11.34
 20
5.575
 30
0.0
 11
11.358
 21
5.575
 31
0.0
  0
LINE
  5
623
330
18
100
AcDbEntity
  8
Object
100
AcDbLine
 10
11.358
 20
5.575
 30
0.0
 11
11.341
 21
5.573
 31
0.0
  0
LINE
  5
624
330
18
100
AcDbEntity
  8
Object
100
AcDbLine
 10
11.341
 20
5.573
 30
0.0
 11
11.332
 21
5.570999999999999
 31
0.0
  0
LINE
  5
625
330
18
100
AcDbEntity
  8
Object
100
AcDbLine
 10
11.34
 20
5.575
 30
0.0
 11
11.327
 21
5.575
 31
0.0
  0
LINE
  5
626
330
18
100
AcDbEntity
  8
Object
100
AcDbLine
 10
11.327
 20
5.575
 30
0.0
 11
11.32
 21
5.575
 31
0.0
  0
LINE
  5
627
330
18
100
AcDbEntity
  8
Object
100
AcDbLine
 10
11.332
 20
5.570999999999999
 30
0.0
 11
11.331
 21
5.568
 31
0.0
  0
LINE
  5
628
330
18
100
AcDbEntity
  8
Object
100
AcDbLine
 10
11.331
 20
5.568
 30
0.0
 11
11.319
 21
5.575
 31
0.0
  0
LINE
  5
629
330
18
100
AcDbEntity
  8
Object
100
AcDbLine
 10
11.319
 20
5.575
 30
0.0
 11
11.32
 21
5.575
 31
0.0
  0
LINE
  5
62A
330
18
100
AcDbEntity
  8
Object
100
AcDbLine
 10
11.404
 20
5.575
 30
0.0
 11
11.43
 21
5.575
 31
0.0
  0
LINE
  5
62B
330
18
100
AcDbEntity
  8
Object
100
AcDbLine
 10
11.43
 20
5.575
 30
0.0
 11
11.43
 21
5.568999999999999
 31
0.0
  0
LINE
  5
62C
330
18
100
AcDbEntity
  8
Object
100
AcDbLine
 10
11.404
 20
5.575
 30
0.0
 11
11.379
 21
5.575
 31
0.0
  0
LINE
  5
62D
330
18
100
AcDbEntity
  8
Object
100
AcDbLine
 10
11.379
 20
5.575
 30
0.0
 11
11.358
 21
5.575
 31
0.0
  0
LINE
  5
62E
330
18
100
AcDbEntity
  8
Object
100
AcDbLine
 10
11.331
 20
5.568
 30
0.0
 11
11.33
 21
5.560999999999999
 31
0.0
  0
LINE
  5
62F
330
18
100
AcDbEntity
  8
Object
100
AcDbLine
 10
11.555
 20
5.560999999999999
 30
0.0
 11
11.555
 21
5.567
 31
0.0
  0
LINE
  5
630
330
18
100
AcDbEntity
  8
Object
100
AcDbLine
 10
11.482
 20
5.575
 30
0.0
 11
11.503
 21
5.575
 31
0.0
  0
LINE
  5
631
330
18
100
AcDbEntity
  8
Object
100
AcDbLine
 10
11.503
 20
5.575
 30
0.0
 11
11.487
 21
5.573999999999999
 31
0.0
  0
LINE
  5
632
330
18
100
AcDbEntity
  8
Object
100
AcDbLine
 10
11.482
 20
5.575
 30
0.0
 11
11.457
 21
5.575
 31
0.0
  0
LINE
  5
633
330
18
100
AcDbEntity
  8
Object
100
AcDbLine
 10
11.457
 20
5.575
 30
0.0
 11
11.43
 21
5.575
 31
0.0
  0
LINE
  5
634
330
18
100
AcDbEntity
  8
Object
100
AcDbLine
 10
11.43
 20
5.118999999999999
 30
0.0
 11
11.43
 21
5.131999999999999
 31
0.0
  0
LINE
  5
635
330
18
100
AcDbEntity
  8
Object
100
AcDbLine
 10
11.541
 20
5.575
 30
0.0
 11
11.54
 21
5.575
 31
0.0
  0
LINE
  5
636
330
18
100
AcDbEntity
  8
Object
100
AcDbLine
 10
11.54
 20
5.575
 30
0.0
 11
11.533
 21
5.575
 31
0.0
  0
LINE
  5
637
330
18
100
AcDbEntity
  8
Object
100
AcDbLine
 10
11.533
 20
5.575
 30
0.0
 11
11.521
 21
5.575
 31
0.0
  0
LINE
  5
638
330
18
100
AcDbEntity
  8
Object
100
AcDbLine
 10
11.521
 20
5.575
 30
0.0
 11
11.503
 21
5.575
 31
0.0
  0
LINE
  5
639
330
18
100
AcDbEntity
  8
Object
100
AcDbLine
 10
11.503
 20
5.575
 30
0.0
 11
11.482
 21
5.575
 31
0.0
  0
LINE
  5
63A
330
18
100
AcDbEntity
  8
Object
100
AcDbLine
 10
11.482
 20
5.575
 30
0.0
 11
11.457
 21
5.575
 31
0.0
  0
LINE
  5
63B
330
18
100
AcDbEntity
  8
Object
100
AcDbLine
 10
11.457
 20
5.575
 30
0.0
 11
11.43
 21
5.575
 31
0.0
  0
LINE
  5
63C
330
18
100
AcDbEntity
  8
Object
100
AcDbLine
 10
11.43
 20
5.575
 30
0.0
 11
11.404
 21
5.575
 31
0.0
  0
LINE
  5
63D
330
18
100
AcDbEntity
  8
Object
100
AcDbLine
 10
11.404
 20
5.575
 30
0.0
 11
11.379
 21
5.575
 31
0.0
  0
LINE
  5
63E
330
18
100
AcDbEntity
  8
Object
100
AcDbLine
 10
11.379
 20
5.575
 30
0.0
 11
11.358
 21
5.575
 31
0.0
  0
LINE
  5
63F
330
18
100
AcDbEntity
  8
Object
100
AcDbLine
 10
11.358
 20
5.575
 30
0.0
 11
11.34
 21
5.575
 31
0.0
  0
LINE
  5
640
330
18
100
AcDbEntity
  8
Object
100
AcDbLine
 10
11.34
 20
5.575
 30
0.0
 11
11.327
 21
5.575
 31
0.0
  0
LINE
  5
641
330
18
100
AcDbEntity
  8
Object
100
AcDbLine
 10
11.327
 20
5.575
 30
0.0
 11
11.32
 21
5.575
 31
0.0
  0
LINE
  5
642
330
18
100
AcDbEntity
  8
Object
100
AcDbLine
 10
11.32
 20
5.575
 30
0.0
 11
11.319
 21
5.575
 31
0.0
  0
LINE
  5
643
330
18
100
AcDbEntity
  8
Object
100
AcDbLine
 10
7.125
 20
12.921
 30
0.0
 11
7.150999999999999
 21
12.935
 31
0.0
  0
LINE
  5
644
330
18
100
AcDbEntity
  8
Object
100
AcDbLine
 10
7.125
 20
12.966
 30
0.0
 11
7.150999999999999
 21
12.953
 31
0.0
  0
LINE
  5
645
330
18
100
AcDbEntity
  8
Object
100
AcDbLine
 10
7.150999999999999
 20
12.953
 30
0.0
 11
7.150999999999999
 21
12.935
 31
0.0
  0
LINE
  5
646
330
18
100
AcDbEntity
  8
Object
100
AcDbLine
 10
7.125
 20
12.921
 30
0.0
 11
7.076999999999999
 21
12.921
 31
0.0
  0
LINE
  5
647
330
18
100
AcDbEntity
  8
Object
100
AcDbLine
 10
7.076999999999999
 20
12.921
 30
0.0
 11
7.076999999999999
 21
12.966
 31
0.0
  0
LINE
  5
648
330
18
100
AcDbEntity
  8
Object
100
AcDbLine
 10
7.076999999999999
 20
12.966
 30
0.0
 11
7.125
 21
12.966
 31
0.0
  0
LINE
  5
649
330
18
100
AcDbEntity
  8
Object
100
AcDbLine
 10
7.076999999999999
 20
12.921
 30
0.0
 11
7.125
 21
12.921
 31
0.0
  0
LINE
  5
64A
330
18
100
AcDbEntity
  8
Object
100
AcDbLine
 10
7.125
 20
12.966
 30
0.0
 11
7.076999999999999
 21
12.966
 31
0.0
  0
LINE
  5
64B
330
18
100
AcDbEntity
  8
Object
100
AcDbLine
 10
7.150999999999999
 20
12.953
 30
0.0
 11
7.150999999999999
 21
12.935
 31
0.0
  0
LINE
  5
64C
330
18
100
AcDbEntity
  8
Object
100
AcDbLine
 10
7.150999999999999
 20
12.935
 30
0.0
 11
7.125
 21
12.921
 31
0.0
  0
LINE
  5
64D
330
18
100
AcDbEntity
  8
Object
100
AcDbLine
 10
7.076999999999999
 20
12.966
 30
0.0
 11
7.076999999999999
 21
12.921
 31
0.0
  0
LINE
  5
64E
330
18
100
AcDbEntity
  8
Object
100
AcDbLine
 10
7.150999999999999
 20
12.953
 30
0.0
 11
7.125
 21
12.966
 31
0.0
  0
LINE
  5
64F
330
18
100
AcDbEntity
  8
Object
100
AcDbLine
 10
7.145
 20
12.913
 30
0.0
 11
7.166999999999999
 21
12.853
 31
0.0
  0
LINE
  5
650
330
18
100
AcDbEntity
  8
Object
100
AcDbLine
 10
7.15
 20
12.853
 30
0.0
 11
7.129999999999999
 21
12.91
 31
0.0
  0
LINE
  5
651
330
18
100
AcDbEntity
  8
Object
100
AcDbLine
 10
7.166999999999999
 20
12.964
 30
0.0
 11
7.166999999999999
 21
12.923
 31
0.0
  0
LINE
  5
652
330
18
100
AcDbEntity
  8
Object
100
AcDbLine
 10
7.062
 20
12.853
 30
0.0
 11
7.062
 21
12.978
 31
0.0
  0
LINE
  5
653
330
18
100
AcDbEntity
  8
Object
100
AcDbLine
 10
7.062
 20
12.978
 30
0.0
 11
7.139
 21
12.978
 31
0.0
  0
LINE
  5
654
330
18
100
AcDbEntity
  8
Object
100
AcDbLine
 10
7.166999999999999
 20
12.923
 30
0.0
 11
7.145
 21
12.913
 31
0.0
  0
LINE
  5
655
330
18
100
AcDbEntity
  8
Object
100
AcDbLine
 10
7.076999999999999
 20
12.91
 30
0.0
 11
7.076999999999999
 21
12.853
 31
0.0
  0
LINE
  5
656
330
18
100
AcDbEntity
  8
Object
100
AcDbLine
 10
7.166999999999999
 20
12.853
 30
0.0
 11
7.15
 21
12.853
 31
0.0
  0
LINE
  5
657
330
18
100
AcDbEntity
  8
Object
100
AcDbLine
 10
7.076999999999999
 20
12.853
 30
0.0
 11
7.062
 21
12.853
 31
0.0
  0
LINE
  5
658
330
18
100
AcDbEntity
  8
Object
100
AcDbLine
 10
7.139
 20
12.978
 30
0.0
 11
7.166999999999999
 21
12.964
 31
0.0
  0
LINE
  5
659
330
18
100
AcDbEntity
  8
Object
100
AcDbLine
 10
7.129999999999999
 20
12.91
 30
0.0
 11
7.076999999999999
 21
12.91
 31
0.0
  0
LINE
  5
65A
330
18
100
AcDbEntity
  8
Object
100
AcDbLine
 10
12.07
 20
11.618
 30
0.0
 11
12.07
 21
12.868
 31
0.0
  0
LINE
  5
65B
330
18
100
AcDbEntity
  8
Object
100
AcDbLine
 10
12.07
 20
12.868
 30
0.0
 11
11.695
 21
13.243
 31
0.0
  0
LINE
  5
65C
330
18
100
AcDbEntity
  8
Object
100
AcDbLine
 10
11.695
 20
11.243
 30
0.0
 11
12.07
 21
11.618
 31
0.0
  0
LINE
  5
65D
330
18
100
AcDbEntity
  8
Object
100
AcDbLine
 10
8.71
 20
12.383
 30
0.0
 11
11.173
 21
12.383
 31
0.0
  0
LINE
  5
65E
330
18
100
AcDbEntity
  8
Object
100
AcDbLine
 10
11.173
 20
12.103
 30
0.0
 11
8.71
 21
12.103
 31
0.0
  0
LINE
  5
65F
330
18
100
AcDbEntity
  8
Object
100
AcDbLine
 10
8.195
 20
12.243
 30
0.0
 11
8.188
 21
12.2
 31
0.0
  0
LINE
  5
660
330
18
100
AcDbEntity
  8
Object
100
AcDbLine
 10
8.57
 20
12.243
 30
0.0
 11
8.576999999999999
 21
12.2
 31
0.0
  0
LINE
  5
661
330
18
100
AcDbEntity
  8
Object
100
AcDbLine
 10
8.576999999999999
 20
12.2
 30
0.0
 11
8.596999999999999
 21
12.16
 31
0.0
  0
LINE
  5
662
330
18
100
AcDbEntity
  8
Object
100
AcDbLine
 10
8.188
 20
12.286
 30
0.0
 11
8.195
 21
12.243
 31
0.0
  0
LINE
  5
663
330
18
100
AcDbEntity
  8
Object
100
AcDbLine
 10
8.57
 20
12.243
 30
0.0
 11
8.576999999999999
 21
12.286
 31
0.0
  0
LINE
  5
664
330
18
100
AcDbEntity
  8
Object
100
AcDbLine
 10
8.628
 20
12.356
 30
0.0
 11
8.596999999999999
 21
12.325
 31
0.0
  0
LINE
  5
665
330
18
100
AcDbEntity
  8
Object
100
AcDbLine
 10
8.596999999999999
 20
12.325
 30
0.0
 11
8.576999999999999
 21
12.286
 31
0.0
  0
LINE
  5
666
330
18
100
AcDbEntity
  8
Object
100
AcDbLine
 10
8.188
 20
12.2
 30
0.0
 11
8.168000000000001
 21
12.16
 31
0.0
  0
LINE
  5
667
330
18
100
AcDbEntity
  8
Object
100
AcDbLine
 10
8.168000000000001
 20
12.325
 30
0.0
 11
8.188
 21
12.286
 31
0.0
  0
LINE
  5
668
330
18
100
AcDbEntity
  8
Object
100
AcDbLine
 10
8.628
 20
12.13
 30
0.0
 11
8.596999999999999
 21
12.16
 31
0.0
  0
LINE
  5
669
330
18
100
AcDbEntity
  8
Object
100
AcDbLine
 10
8.141999999999999
 20
12.908
 30
0.0
 11
8.141999999999999
 21
12.866
 31
0.0
  0
LINE
  5
66A
330
18
100
AcDbEntity
  8
Object
100
AcDbLine
 10
8.666999999999999
 20
12.376
 30
0.0
 11
8.71
 21
12.383
 31
0.0
  0
LINE
  5
66B
330
18
100
AcDbEntity
  8
Object
100
AcDbLine
 10
8.141999999999999
 20
12.965
 30
0.0
 11
8.141999999999999
 21
12.923
 31
0.0
  0
LINE
  5
66C
330
18
100
AcDbEntity
  8
Object
100
AcDbLine
 10
8.628
 20
12.356
 30
0.0
 11
8.666999999999999
 21
12.376
 31
0.0
  0
LINE
  5
66D
330
18
100
AcDbEntity
  8
Object
100
AcDbLine
 10
8.137
 20
12.356
 30
0.0
 11
8.168000000000001
 21
12.325
 31
0.0
  0
LINE
  5
66E
330
18
100
AcDbEntity
  8
Object
100
AcDbLine
 10
8.168000000000001
 20
12.16
 30
0.0
 11
8.137
 21
12.13
 31
0.0
  0
LINE
  5
66F
330
18
100
AcDbEntity
  8
Object
100
AcDbLine
 10
8.666999999999999
 20
12.11
 30
0.0
 11
8.628
 21
12.13
 31
0.0
  0
LINE
  5
670
330
18
100
AcDbEntity
  8
Object
100
AcDbLine
 10
8.141999999999999
 20
12.908
 30
0.0
 11
8.125999999999999
 21
12.915
 31
0.0
  0
LINE
  5
671
330
18
100
AcDbEntity
  8
Object
100
AcDbLine
 10
8.125999999999999
 20
12.915
 30
0.0
 11
8.141999999999999
 21
12.923
 31
0.0
  0
LINE
  5
672
330
18
100
AcDbEntity
  8
Object
100
AcDbLine
 10
8.115999999999999
 20
12.978
 30
0.0
 11
8.141999999999999
 21
12.965
 31
0.0
  0
LINE
  5
673
330
18
100
AcDbEntity
  8
Object
100
AcDbLine
 10
8.141999999999999
 20
12.866
 30
0.0
 11
8.115999999999999
 21
12.853
 31
0.0
  0
LINE
  5
674
330
18
100
AcDbEntity
  8
Object
100
AcDbLine
 10
8.098
 20
12.376
 30
0.0
 11
8.137
 21
12.356
 31
0.0
  0
LINE
  5
675
330
18
100
AcDbEntity
  8
Object
100
AcDbLine
 10
8.137
 20
12.13
 30
0.0
 11
8.098
 21
12.11
 31
0.0
  0
LINE
  5
676
330
18
100
AcDbEntity
  8
Object
100
AcDbLine
 10
8.063
 20
12.978
 30
0.0
 11
8.115999999999999
 21
12.978
 31
0.0
  0
LINE
  5
677
330
18
100
AcDbEntity
  8
Object
100
AcDbLine
 10
8.054999999999999
 20
12.383
 30
0.0
 11
8.098
 21
12.376
 31
0.0
  0
LINE
  5
678
330
18
100
AcDbEntity
  8
Object
100
AcDbLine
 10
8.115999999999999
 20
12.853
 30
0.0
 11
8.063
 21
12.853
 31
0.0
  0
LINE
  5
679
330
18
100
AcDbEntity
  8
Object
100
AcDbLine
 10
8.71
 20
12.103
 30
0.0
 11
8.666999999999999
 21
12.11
 31
0.0
  0
LINE
  5
67A
330
18
100
AcDbEntity
  8
Object
100
AcDbLine
 10
8.098
 20
12.11
 30
0.0
 11
8.054999999999999
 21
12.103
 31
0.0
  0
LINE
  5
67B
330
18
100
AcDbEntity
  8
Object
100
AcDbLine
 10
8.037
 20
12.923
 30
0.0
 11
8.051999999999999
 21
12.915
 31
0.0
  0
LINE
  5
67C
330
18
100
AcDbEntity
  8
Object
100
AcDbLine
 10
8.051999999999999
 20
12.915
 30
0.0
 11
8.037
 21
12.908
 31
0.0
  0
LINE
  5
67D
330
18
100
AcDbEntity
  8
Object
100
AcDbLine
 10
7.993999999999999
 20
12.978
 30
0.0
 11
7.993999999999999
 21
12.966
 31
0.0
  0
LINE
  5
67E
330
18
100
AcDbEntity
  8
Object
100
AcDbLine
 10
8.037
 20
12.923
 30
0.0
 11
8.037
 21
12.965
 31
0.0
  0
LINE
  5
67F
330
18
100
AcDbEntity
  8
Object
100
AcDbLine
 10
8.037
 20
12.965
 30
0.0
 11
8.063
 21
12.978
 31
0.0
  0
LINE
  5
680
330
18
100
AcDbEntity
  8
Object
100
AcDbLine
 10
8.037
 20
12.908
 30
0.0
 11
8.037
 21
12.866
 31
0.0
  0
LINE
  5
681
330
18
100
AcDbEntity
  8
Object
100
AcDbLine
 10
8.037
 20
12.866
 30
0.0
 11
8.063
 21
12.853
 31
0.0
  0
LINE
  5
682
330
18
100
AcDbEntity
  8
Object
100
AcDbLine
 10
7.993999999999999
 20
12.866
 30
0.0
 11
7.993999999999999
 21
12.919
 31
0.0
  0
LINE
  5
683
330
18
100
AcDbEntity
  8
Object
100
AcDbLine
 10
7.993999999999999
 20
12.919
 30
0.0
 11
7.967999999999999
 21
12.932
 31
0.0
  0
LINE
  5
684
330
18
100
AcDbEntity
  8
Object
100
AcDbLine
 10
7.993999999999999
 20
12.866
 30
0.0
 11
7.967999999999999
 21
12.853
 31
0.0
  0
LINE
  5
685
330
18
100
AcDbEntity
  8
Object
100
AcDbLine
 10
7.953999999999999
 20
12.921
 30
0.0
 11
7.979
 21
12.908
 31
0.0
  0
LINE
  5
686
330
18
100
AcDbEntity
  8
Object
100
AcDbLine
 10
7.979
 20
12.908
 30
0.0
 11
7.979
 21
12.878
 31
0.0
  0
LINE
  5
687
330
18
100
AcDbEntity
  8
Object
100
AcDbLine
 10
7.979
 20
12.878
 30
0.0
 11
7.953999999999999
 21
12.865
 31
0.0
  0
LINE
  5
688
330
18
100
AcDbEntity
  8
Object
100
AcDbLine
 10
7.953999999999999
 20
12.865
 30
0.0
 11
7.931
 21
12.865
 31
0.0
  0
LINE
  5
689
330
18
100
AcDbEntity
  8
Object
100
AcDbLine
 10
7.953999999999999
 20
12.921
 30
0.0
 11
7.931
 21
12.921
 31
0.0
  0
LINE
  5
68A
330
18
100
AcDbEntity
  8
Object
100
AcDbLine
 10
7.967999999999999
 20
12.853
 30
0.0
 11
7.916
 21
12.853
 31
0.0
  0
LINE
  5
68B
330
18
100
AcDbEntity
  8
Object
100
AcDbLine
 10
7.967999999999999
 20
12.932
 30
0.0
 11
7.916
 21
12.932
 31
0.0
  0
LINE
  5
68C
330
18
100
AcDbEntity
  8
Object
100
AcDbLine
 10
7.916
 20
12.932
 30
0.0
 11
7.905
 21
12.927
 31
0.0
  0
LINE
  5
68D
330
18
100
AcDbEntity
  8
Object
100
AcDbLine
 10
7.905
 20
12.927
 30
0.0
 11
7.905
 21
12.966
 31
0.0
  0
LINE
  5
68E
330
18
100
AcDbEntity
  8
Object
100
AcDbLine
 10
7.905
 20
12.966
 30
0.0
 11
7.993999999999999
 21
12.966
 31
0.0
  0
LINE
  5
68F
330
18
100
AcDbEntity
  8
Object
100
AcDbLine
 10
7.931
 20
12.921
 30
0.0
 11
7.905
 21
12.908
 31
0.0
  0
LINE
  5
690
330
18
100
AcDbEntity
  8
Object
100
AcDbLine
 10
7.931
 20
12.865
 30
0.0
 11
7.905
 21
12.878
 31
0.0
  0
LINE
  5
691
330
18
100
AcDbEntity
  8
Object
100
AcDbLine
 10
7.905
 20
12.878
 30
0.0
 11
7.905
 21
12.888
 31
0.0
  0
LINE
  5
692
330
18
100
AcDbEntity
  8
Object
100
AcDbLine
 10
7.905
 20
12.888
 30
0.0
 11
7.889
 21
12.888
 31
0.0
  0
LINE
  5
693
330
18
100
AcDbEntity
  8
Object
100
AcDbLine
 10
7.905
 20
12.908
 30
0.0
 11
7.889
 21
12.908
 31
0.0
  0
LINE
  5
694
330
18
100
AcDbEntity
  8
Object
100
AcDbLine
 10
7.993999999999999
 20
12.978
 30
0.0
 11
7.889
 21
12.978
 31
0.0
  0
LINE
  5
695
330
18
100
AcDbEntity
  8
Object
100
AcDbLine
 10
7.889
 20
12.978
 30
0.0
 11
7.889
 21
12.908
 31
0.0
  0
LINE
  5
696
330
18
100
AcDbEntity
  8
Object
100
AcDbLine
 10
7.852
 20
12.978
 30
0.0
 11
7.852
 21
12.853
 31
0.0
  0
LINE
  5
697
330
18
100
AcDbEntity
  8
Object
100
AcDbLine
 10
7.889
 20
12.888
 30
0.0
 11
7.889
 21
12.866
 31
0.0
  0
LINE
  5
698
330
18
100
AcDbEntity
  8
Object
100
AcDbLine
 10
7.889
 20
12.866
 30
0.0
 11
7.916
 21
12.853
 31
0.0
  0
LINE
  5
699
330
18
100
AcDbEntity
  8
Object
100
AcDbLine
 10
7.836
 20
12.978
 30
0.0
 11
7.852
 21
12.978
 31
0.0
  0
LINE
  5
69A
330
18
100
AcDbEntity
  8
Object
100
AcDbLine
 10
7.852
 20
12.853
 30
0.0
 11
7.836
 21
12.853
 31
0.0
  0
LINE
  5
69B
330
18
100
AcDbEntity
  8
Object
100
AcDbLine
 10
7.836
 20
12.978
 30
0.0
 11
7.836
 21
12.881
 31
0.0
  0
LINE
  5
69C
330
18
100
AcDbEntity
  8
Object
100
AcDbLine
 10
7.836
 20
12.881
 30
0.0
 11
7.762
 21
12.978
 31
0.0
  0
LINE
  5
69D
330
18
100
AcDbEntity
  8
Object
100
AcDbLine
 10
7.762
 20
12.853
 30
0.0
 11
7.762
 21
12.949
 31
0.0
  0
LINE
  5
69E
330
18
100
AcDbEntity
  8
Object
100
AcDbLine
 10
7.762
 20
12.949
 30
0.0
 11
7.836
 21
12.853
 31
0.0
  0
LINE
  5
69F
330
18
100
AcDbEntity
  8
Object
100
AcDbLine
 10
7.746999999999999
 20
12.978
 30
0.0
 11
7.762
 21
12.978
 31
0.0
  0
LINE
  5
6A0
330
18
100
AcDbEntity
  8
Object
100
AcDbLine
 10
7.762
 20
12.853
 30
0.0
 11
7.746999999999999
 21
12.853
 31
0.0
  0
LINE
  5
6A1
330
18
100
AcDbEntity
  8
Object
100
AcDbLine
 10
7.746999999999999
 20
12.853
 30
0.0
 11
7.746999999999999
 21
12.978
 31
0.0
  0
LINE
  5
6A2
330
18
100
AcDbEntity
  8
Object
100
AcDbLine
 10
7.711999999999999
 20
12.914
 30
0.0
 11
7.711999999999999
 21
12.866
 31
0.0
  0
LINE
  5
6A3
330
18
100
AcDbEntity
  8
Object
100
AcDbLine
 10
7.701
 20
12.966
 30
0.0
 11
7.701
 21
12.926
 31
0.0
  0
LINE
  5
6A4
330
18
100
AcDbEntity
  8
Object
100
AcDbLine
 10
7.701
 20
12.926
 30
0.0
 11
7.698999999999999
 21
12.922
 31
0.0
  0
LINE
  5
6A5
330
18
100
AcDbEntity
  8
Object
100
AcDbLine
 10
7.698999999999999
 20
12.922
 30
0.0
 11
7.711999999999999
 21
12.914
 31
0.0
  0
LINE
  5
6A6
330
18
100
AcDbEntity
  8
Object
100
AcDbLine
 10
7.692
 20
12.978
 30
0.0
 11
7.701
 21
12.966
 31
0.0
  0
LINE
  5
6A7
330
18
100
AcDbEntity
  8
Object
100
AcDbLine
 10
7.711999999999999
 20
12.866
 30
0.0
 11
7.692
 21
12.853
 31
0.0
  0
LINE
  5
6A8
330
18
100
AcDbEntity
  8
Object
100
AcDbLine
 10
7.607
 20
12.978
 30
0.0
 11
7.692
 21
12.978
 31
0.0
  0
LINE
  5
6A9
330
18
100
AcDbEntity
  8
Object
100
AcDbLine
 10
7.692
 20
12.853
 30
0.0
 11
7.607
 21
12.853
 31
0.0
  0
LINE
  5
6AA
330
18
100
AcDbEntity
  8
Object
100
AcDbLine
 10
7.567
 20
12.964
 30
0.0
 11
7.567
 21
12.923
 31
0.0
  0
LINE
  5
6AB
330
18
100
AcDbEntity
  8
Object
100
AcDbLine
 10
7.607
 20
12.853
 30
0.0
 11
7.607
 21
12.978
 31
0.0
  0
LINE
  5
6AC
330
18
100
AcDbEntity
  8
Object
100
AcDbLine
 10
7.549999999999999
 20
12.853
 30
0.0
 11
7.567
 21
12.853
 31
0.0
  0
LINE
  5
6AD
330
18
100
AcDbEntity
  8
Object
100
AcDbLine
 10
7.567
 20
12.853
 30
0.0
 11
7.544999999999999
 21
12.913
 31
0.0
  0
LINE
  5
6AE
330
18
100
AcDbEntity
  8
Object
100
AcDbLine
 10
7.544999999999999
 20
12.913
 30
0.0
 11
7.567
 21
12.923
 31
0.0
  0
LINE
  5
6AF
330
18
100
AcDbEntity
  8
Object
100
AcDbLine
 10
7.539
 20
12.978
 30
0.0
 11
7.567
 21
12.964
 31
0.0
  0
LINE
  5
6B0
330
18
100
AcDbEntity
  8
Object
100
AcDbLine
 10
7.549999999999999
 20
12.853
 30
0.0
 11
7.53
 21
12.91
 31
0.0
  0
LINE
  5
6B1
330
18
100
AcDbEntity
  8
Object
100
AcDbLine
 10
7.477
 20
12.853
 30
0.0
 11
7.477
 21
12.91
 31
0.0
  0
LINE
  5
6B2
330
18
100
AcDbEntity
  8
Object
100
AcDbLine
 10
7.477
 20
12.91
 30
0.0
 11
7.53
 21
12.91
 31
0.0
  0
LINE
  5
6B3
330
18
100
AcDbEntity
  8
Object
100
AcDbLine
 10
7.461999999999999
 20
12.978
 30
0.0
 11
7.539
 21
12.978
 31
0.0
  0
LINE
  5
6B4
330
18
100
AcDbEntity
  8
Object
100
AcDbLine
 10
7.477
 20
12.853
 30
0.0
 11
7.461999999999999
 21
12.853
 31
0.0
  0
LINE
  5
6B5
330
18
100
AcDbEntity
  8
Object
100
AcDbLine
 10
7.419999999999999
 20
12.978
 30
0.0
 11
7.419999999999999
 21
12.966
 31
0.0
  0
LINE
  5
6B6
330
18
100
AcDbEntity
  8
Object
100
AcDbLine
 10
7.461999999999999
 20
12.853
 30
0.0
 11
7.461999999999999
 21
12.978
 31
0.0
  0
LINE
  5
6B7
330
18
100
AcDbEntity
  8
Object
100
AcDbLine
 10
7.387999999999999
 20
12.853
 30
0.0
 11
7.387999999999999
 21
12.966
 31
0.0
  0
LINE
  5
6B8
330
18
100
AcDbEntity
  8
Object
100
AcDbLine
 10
7.387999999999999
 20
12.966
 30
0.0
 11
7.419999999999999
 21
12.966
 31
0.0
  0
LINE
  5
6B9
330
18
100
AcDbEntity
  8
Object
100
AcDbLine
 10
7.387999999999999
 20
12.853
 30
0.0
 11
7.375
 21
12.853
 31
0.0
  0
LINE
  5
6BA
330
18
100
AcDbEntity
  8
Object
100
AcDbLine
 10
7.342999999999999
 20
12.978
 30
0.0
 11
7.419999999999999
 21
12.978
 31
0.0
  0
LINE
  5
6BB
330
18
100
AcDbEntity
  8
Object
100
AcDbLine
 10
7.31
 20
12.965
 30
0.0
 11
7.31
 21
12.943
 31
0.0
  0
LINE
  5
6BC
330
18
100
AcDbEntity
  8
Object
100
AcDbLine
 10
7.342999999999999
 20
12.978
 30
0.0
 11
7.342999999999999
 21
12.966
 31
0.0
  0
LINE
  5
6BD
330
18
100
AcDbEntity
  8
Object
100
AcDbLine
 10
7.342999999999999
 20
12.966
 30
0.0
 11
7.375
 21
12.966
 31
0.0
  0
LINE
  5
6BE
330
18
100
AcDbEntity
  8
Object
100
AcDbLine
 10
7.31
 20
12.919
 30
0.0
 11
7.31
 21
12.866
 31
0.0
  0
LINE
  5
6BF
330
18
100
AcDbEntity
  8
Object
100
AcDbLine
 10
7.375
 20
12.853
 30
0.0
 11
7.375
 21
12.966
 31
0.0
  0
LINE
  5
6C0
330
18
100
AcDbEntity
  8
Object
100
AcDbLine
 10
7.31
 20
12.943
 30
0.0
 11
7.294999999999999
 21
12.943
 31
0.0
  0
LINE
  5
6C1
330
18
100
AcDbEntity
  8
Object
100
AcDbLine
 10
7.283999999999999
 20
12.932
 30
0.0
 11
7.31
 21
12.919
 31
0.0
  0
LINE
  5
6C2
330
18
100
AcDbEntity
  8
Object
100
AcDbLine
 10
7.283999999999999
 20
12.978
 30
0.0
 11
7.31
 21
12.965
 31
0.0
  0
LINE
  5
6C3
330
18
100
AcDbEntity
  8
Object
100
AcDbLine
 10
7.31
 20
12.866
 30
0.0
 11
7.283999999999999
 21
12.853
 31
0.0
  0
LINE
  5
6C4
330
18
100
AcDbEntity
  8
Object
100
AcDbLine
 10
7.27
 20
12.966
 30
0.0
 11
7.294999999999999
 21
12.953
 31
0.0
  0
LINE
  5
6C5
330
18
100
AcDbEntity
  8
Object
100
AcDbLine
 10
7.294999999999999
 20
12.953
 30
0.0
 11
7.294999999999999
 21
12.943
 31
0.0
  0
LINE
  5
6C6
330
18
100
AcDbEntity
  8
Object
100
AcDbLine
 10
7.27
 20
12.966
 30
0.0
 11
7.246999999999999
 21
12.966
 31
0.0
  0
LINE
  5
6C7
330
18
100
AcDbEntity
  8
Object
100
AcDbLine
 10
7.230999999999999
 20
12.978
 30
0.0
 11
7.283999999999999
 21
12.978
 31
0.0
  0
LINE
  5
6C8
330
18
100
AcDbEntity
  8
Object
100
AcDbLine
 10
7.230999999999999
 20
12.932
 30
0.0
 11
7.283999999999999
 21
12.932
 31
0.0
  0
LINE
  5
6C9
330
18
100
AcDbEntity
  8
Object
100
AcDbLine
 10
7.283999999999999
 20
12.853
 30
0.0
 11
7.230999999999999
 21
12.853
 31
0.0
  0
LINE
  5
6CA
330
18
100
AcDbEntity
  8
Object
100
AcDbLine
 10
7.230999999999999
 20
12.932
 30
0.0
 11
7.221
 21
12.927
 31
0.0
  0
LINE
  5
6CB
330
18
100
AcDbEntity
  8
Object
100
AcDbLine
 10
7.221
 20
12.927
 30
0.0
 11
7.221
 21
12.953
 31
0.0
  0
LINE
  5
6CC
330
18
100
AcDbEntity
  8
Object
100
AcDbLine
 10
7.221
 20
12.953
 30
0.0
 11
7.246999999999999
 21
12.966
 31
0.0
  0
LINE
  5
6CD
330
18
100
AcDbEntity
  8
Object
100
AcDbLine
 10
7.166999999999999
 20
12.964
 30
0.0
 11
7.166999999999999
 21
12.923
 31
0.0
  0
LINE
  5
6CE
330
18
100
AcDbEntity
  8
Object
100
AcDbLine
 10
7.230999999999999
 20
12.853
 30
0.0
 11
7.205
 21
12.866
 31
0.0
  0
LINE
  5
6CF
330
18
100
AcDbEntity
  8
Object
100
AcDbLine
 10
7.205
 20
12.866
 30
0.0
 11
7.205
 21
12.965
 31
0.0
  0
LINE
  5
6D0
330
18
100
AcDbEntity
  8
Object
100
AcDbLine
 10
7.15
 20
12.853
 30
0.0
 11
7.166999999999999
 21
12.853
 31
0.0
  0
LINE
  5
6D1
330
18
100
AcDbEntity
  8
Object
100
AcDbLine
 10
7.166999999999999
 20
12.853
 30
0.0
 11
7.145
 21
12.913
 31
0.0
  0
LINE
  5
6D2
330
18
100
AcDbEntity
  8
Object
100
AcDbLine
 10
7.145
 20
12.913
 30
0.0
 11
7.166999999999999
 21
12.923
 31
0.0
  0
LINE
  5
6D3
330
18
100
AcDbEntity
  8
Object
100
AcDbLine
 10
7.205
 20
12.965
 30
0.0
 11
7.230999999999999
 21
12.978
 31
0.0
  0
LINE
  5
6D4
330
18
100
AcDbEntity
  8
Object
100
AcDbLine
 10
7.139
 20
12.978
 30
0.0
 11
7.166999999999999
 21
12.964
 31
0.0
  0
LINE
  5
6D5
330
18
100
AcDbEntity
  8
Object
100
AcDbLine
 10
7.15
 20
12.853
 30
0.0
 11
7.129999999999999
 21
12.91
 31
0.0
  0
LINE
  5
6D6
330
18
100
AcDbEntity
  8
Object
100
AcDbLine
 10
7.076999999999999
 20
12.853
 30
0.0
 11
7.076999999999999
 21
12.91
 31
0.0
  0
LINE
  5
6D7
330
18
100
AcDbEntity
  8
Object
100
AcDbLine
 10
7.076999999999999
 20
12.91
 30
0.0
 11
7.129999999999999
 21
12.91
 31
0.0
  0
LINE
  5
6D8
330
18
100
AcDbEntity
  8
Object
100
AcDbLine
 10
7.062
 20
12.978
 30
0.0
 11
7.139
 21
12.978
 31
0.0
  0
LINE
  5
6D9
330
18
100
AcDbEntity
  8
Object
100
AcDbLine
 10
7.076999999999999
 20
12.853
 30
0.0
 11
7.062
 21
12.853
 31
0.0
  0
LINE
  5
6DA
330
18
100
AcDbEntity
  8
Object
100
AcDbLine
 10
7.020999999999999
 20
12.978
 30
0.0
 11
7.020999999999999
 21
12.966
 31
0.0
  0
LINE
  5
6DB
330
18
100
AcDbEntity
  8
Object
100
AcDbLine
 10
7.062
 20
12.853
 30
0.0
 11
7.062
 21
12.978
 31
0.0
  0
LINE
  5
6DC
330
18
100
AcDbEntity
  8
Object
100
AcDbLine
 10
7.0
 20
12.921
 30
0.0
 11
7.0
 21
12.91
 31
0.0
  0
LINE
  5
6DD
330
18
100
AcDbEntity
  8
Object
100
AcDbLine
 10
7.020999999999999
 20
12.966
 30
0.0
 11
6.945
 21
12.966
 31
0.0
  0
LINE
  5
6DE
330
18
100
AcDbEntity
  8
Object
100
AcDbLine
 10
7.0
 20
12.921
 30
0.0
 11
6.945
 21
12.921
 31
0.0
  0
LINE
  5
6DF
330
18
100
AcDbEntity
  8
Object
100
AcDbLine
 10
6.945
 20
12.921
 30
0.0
 11
6.945
 21
12.966
 31
0.0
  0
LINE
  5
6E0
330
18
100
AcDbEntity
  8
Object
100
AcDbLine
 10
6.945
 20
12.853
 30
0.0
 11
6.945
 21
12.91
 31
0.0
  0
LINE
  5
6E1
330
18
100
AcDbEntity
  8
Object
100
AcDbLine
 10
6.945
 20
12.91
 30
0.0
 11
7.0
 21
12.91
 31
0.0
  0
LINE
  5
6E2
330
18
100
AcDbEntity
  8
Object
100
AcDbLine
 10
6.945
 20
12.853
 30
0.0
 11
6.929999999999999
 21
12.853
 31
0.0
  0
LINE
  5
6E3
330
18
100
AcDbEntity
  8
Object
100
AcDbLine
 10
6.23
 20
12.978
 30
0.0
 11
6.23
 21
12.966
 31
0.0
  0
LINE
  5
6E4
330
18
100
AcDbEntity
  8
Object
100
AcDbLine
 10
6.929999999999999
 20
12.853
 30
0.0
 11
6.929999999999999
 21
12.978
 31
0.0
  0
LINE
  5
6E5
330
18
100
AcDbEntity
  8
Object
100
AcDbLine
 10
6.198
 20
12.853
 30
0.0
 11
6.198
 21
12.966
 31
0.0
  0
LINE
  5
6E6
330
18
100
AcDbEntity
  8
Object
100
AcDbLine
 10
6.198
 20
12.966
 30
0.0
 11
6.23
 21
12.966
 31
0.0
  0
LINE
  5
6E7
330
18
100
AcDbEntity
  8
Object
100
AcDbLine
 10
6.153999999999999
 20
12.966
 30
0.0
 11
6.185
 21
12.966
 31
0.0
  0
LINE
  5
6E8
330
18
100
AcDbEntity
  8
Object
100
AcDbLine
 10
6.185
 20
12.966
 30
0.0
 11
6.185
 21
12.853
 31
0.0
  0
LINE
  5
6E9
330
18
100
AcDbEntity
  8
Object
100
AcDbLine
 10
6.097999999999999
 20
12.978
 30
0.0
 11
6.097999999999999
 21
12.966
 31
0.0
  0
LINE
  5
6EA
330
18
100
AcDbEntity
  8
Object
100
AcDbLine
 10
6.153999999999999
 20
12.966
 30
0.0
 11
6.153999999999999
 21
12.978
 31
0.0
  0
LINE
  5
6EB
330
18
100
AcDbEntity
  8
Object
100
AcDbLine
 10
6.097999999999999
 20
12.853
 30
0.0
 11
6.097999999999999
 21
12.865
 31
0.0
  0
LINE
  5
6EC
330
18
100
AcDbEntity
  8
Object
100
AcDbLine
 10
6.097999999999999
 20
12.865
 30
0.0
 11
6.094999999999999
 21
12.865
 31
0.0
  0
LINE
  5
6ED
330
18
100
AcDbEntity
  8
Object
100
AcDbLine
 10
6.094999999999999
 20
12.865
 30
0.0
 11
6.094999999999999
 21
12.966
 31
0.0
  0
LINE
  5
6EE
330
18
100
AcDbEntity
  8
Object
100
AcDbLine
 10
6.094999999999999
 20
12.966
 30
0.0
 11
6.097999999999999
 21
12.966
 31
0.0
  0
LINE
  5
6EF
330
18
100
AcDbEntity
  8
Object
100
AcDbLine
 10
6.086
 20
12.865
 30
0.0
 11
6.088
 21
12.865
 31
0.0
  0
LINE
  5
6F0
330
18
100
AcDbEntity
  8
Object
100
AcDbLine
 10
6.086
 20
12.966
 30
0.0
 11
6.088
 21
12.966
 31
0.0
  0
LINE
  5
6F1
330
18
100
AcDbEntity
  8
Object
100
AcDbLine
 10
6.088
 20
12.966
 30
0.0
 11
6.088
 21
12.865
 31
0.0
  0
LINE
  5
6F2
330
18
100
AcDbEntity
  8
Object
100
AcDbLine
 10
6.086
 20
12.966
 30
0.0
 11
6.086
 21
12.978
 31
0.0
  0
LINE
  5
6F3
330
18
100
AcDbEntity
  8
Object
100
AcDbLine
 10
6.086
 20
12.853
 30
0.0
 11
6.086
 21
12.865
 31
0.0
  0
LINE
  5
6F4
330
18
100
AcDbEntity
  8
Object
100
AcDbLine
 10
6.044
 20
12.978
 30
0.0
 11
6.044
 21
12.879
 31
0.0
  0
LINE
  5
6F5
330
18
100
AcDbEntity
  8
Object
100
AcDbLine
 10
6.044
 20
12.879
 30
0.0
 11
6.02
 21
12.853
 31
0.0
  0
LINE
  5
6F6
330
18
100
AcDbEntity
  8
Object
100
AcDbLine
 10
6.028999999999999
 20
12.887
 30
0.0
 11
6.009
 21
12.865
 31
0.0
  0
LINE
  5
6F7
330
18
100
AcDbEntity
  8
Object
100
AcDbLine
 10
6.009
 20
12.865
 30
0.0
 11
5.975
 21
12.865
 31
0.0
  0
LINE
  5
6F8
330
18
100
AcDbEntity
  8
Object
100
AcDbLine
 10
6.028999999999999
 20
12.887
 30
0.0
 11
6.028999999999999
 21
12.978
 31
0.0
  0
LINE
  5
6F9
330
18
100
AcDbEntity
  8
Object
100
AcDbLine
 10
5.955
 20
12.978
 30
0.0
 11
5.955
 21
12.887
 31
0.0
  0
LINE
  5
6FA
330
18
100
AcDbEntity
  8
Object
100
AcDbLine
 10
5.955
 20
12.887
 30
0.0
 11
5.975
 21
12.865
 31
0.0
  0
LINE
  5
6FB
330
18
100
AcDbEntity
  8
Object
100
AcDbLine
 10
5.897
 20
12.947
 30
0.0
 11
5.897
 21
12.884
 31
0.0
  0
LINE
  5
6FC
330
18
100
AcDbEntity
  8
Object
100
AcDbLine
 10
5.939
 20
12.879
 30
0.0
 11
5.939
 21
12.978
 31
0.0
  0
LINE
  5
6FD
330
18
100
AcDbEntity
  8
Object
100
AcDbLine
 10
5.868
 20
12.978
 30
0.0
 11
5.897
 21
12.947
 31
0.0
  0
LINE
  5
6FE
330
18
100
AcDbEntity
  8
Object
100
AcDbLine
 10
5.897
 20
12.884
 30
0.0
 11
5.868
 21
12.853
 31
0.0
  0
LINE
  5
6FF
330
18
100
AcDbEntity
  8
Object
100
AcDbLine
 10
5.963
 20
12.853
 30
0.0
 11
5.939
 21
12.879
 31
0.0
  0
LINE
  5
700
330
18
100
AcDbEntity
  8
Object
100
AcDbLine
 10
5.791999999999999
 20
12.853
 30
0.0
 11
5.791999999999999
 21
12.978
 31
0.0
  0
LINE
  5
701
330
18
100
AcDbEntity
  8
Object
100
AcDbLine
 10
5.746999999999999
 20
12.978
 30
0.0
 11
5.746999999999999
 21
12.853
 31
0.0
  0
LINE
  5
702
330
18
100
AcDbEntity
  8
Object
100
AcDbLine
 10
5.730999999999999
 20
12.978
 30
0.0
 11
5.730999999999999
 21
12.881
 31
0.0
  0
LINE
  5
703
330
18
100
AcDbEntity
  8
Object
100
AcDbLine
 10
5.730999999999999
 20
12.881
 30
0.0
 11
5.657
 21
12.978
 31
0.0
  0
LINE
  5
704
330
18
100
AcDbEntity
  8
Object
100
AcDbLine
 10
5.657
 20
12.853
 30
0.0
 11
5.657
 21
12.949
 31
0.0
  0
LINE
  5
705
330
18
100
AcDbEntity
  8
Object
100
AcDbLine
 10
5.657
 20
12.949
 30
0.0
 11
5.730999999999999
 21
12.853
 31
0.0
  0
LINE
  5
706
330
18
100
AcDbEntity
  8
Object
100
AcDbLine
 10
5.642
 20
12.853
 30
0.0
 11
5.642
 21
12.978
 31
0.0
  0
LINE
  5
707
330
18
100
AcDbEntity
  8
Object
100
AcDbLine
 10
5.546999999999999
 20
12.978
 30
0.0
 11
5.592
 21
12.853
 31
0.0
  0
LINE
  5
708
330
18
100
AcDbEntity
  8
Object
100
AcDbLine
 10
5.575
 20
12.853
 30
0.0
 11
5.565999999999999
 21
12.875
 31
0.0
  0
LINE
  5
709
330
18
100
AcDbEntity
  8
Object
100
AcDbLine
 10
5.501
 20
12.853
 30
0.0
 11
5.509999999999999
 21
12.875
 31
0.0
  0
LINE
  5
70A
330
18
100
AcDbEntity
  8
Object
100
AcDbLine
 10
5.509999999999999
 20
12.875
 30
0.0
 11
5.565999999999999
 21
12.875
 31
0.0
  0
LINE
  5
70B
330
18
100
AcDbEntity
  8
Object
100
AcDbLine
 10
5.447
 20
12.964
 30
0.0
 11
5.447
 21
12.923
 31
0.0
  0
LINE
  5
70C
330
18
100
AcDbEntity
  8
Object
100
AcDbLine
 10
5.483999999999999
 20
12.853
 30
0.0
 11
5.53
 21
12.978
 31
0.0
  0
LINE
  5
70D
330
18
100
AcDbEntity
  8
Object
100
AcDbLine
 10
5.419
 20
12.978
 30
0.0
 11
5.447
 21
12.964
 31
0.0
  0
LINE
  5
70E
330
18
100
AcDbEntity
  8
Object
100
AcDbLine
 10
5.447
 20
12.923
 30
0.0
 11
5.419
 21
12.91
 31
0.0
  0
LINE
  5
70F
330
18
100
AcDbEntity
  8
Object
100
AcDbLine
 10
5.357
 20
12.853
 30
0.0
 11
5.357
 21
12.91
 31
0.0
  0
LINE
  5
710
330
18
100
AcDbEntity
  8
Object
100
AcDbLine
 10
5.357
 20
12.91
 30
0.0
 11
5.419
 21
12.91
 31
0.0
  0
LINE
  5
711
330
18
100
AcDbEntity
  8
Object
100
AcDbLine
 10
5.592
 20
12.853
 30
0.0
 11
5.575
 21
12.853
 31
0.0
  0
LINE
  5
712
330
18
100
AcDbEntity
  8
Object
100
AcDbLine
 10
5.657
 20
12.853
 30
0.0
 11
5.642
 21
12.853
 31
0.0
  0
LINE
  5
713
330
18
100
AcDbEntity
  8
Object
100
AcDbLine
 10
5.501
 20
12.853
 30
0.0
 11
5.483999999999999
 21
12.853
 31
0.0
  0
LINE
  5
714
330
18
100
AcDbEntity
  8
Object
100
AcDbLine
 10
6.02
 20
12.853
 30
0.0
 11
5.963
 21
12.853
 31
0.0
  0
LINE
  5
715
330
18
100
AcDbEntity
  8
Object
100
AcDbLine
 10
6.198
 20
12.853
 30
0.0
 11
6.185
 21
12.853
 31
0.0
  0
LINE
  5
716
330
18
100
AcDbEntity
  8
Object
100
AcDbLine
 10
6.097999999999999
 20
12.853
 30
0.0
 11
6.086
 21
12.853
 31
0.0
  0
LINE
  5
717
330
18
100
AcDbEntity
  8
Object
100
AcDbLine
 10
5.746999999999999
 20
12.853
 30
0.0
 11
5.730999999999999
 21
12.853
 31
0.0
  0
LINE
  5
718
330
18
100
AcDbEntity
  8
Object
100
AcDbLine
 10
5.868
 20
12.853
 30
0.0
 11
5.791999999999999
 21
12.853
 31
0.0
  0
LINE
  5
719
330
18
100
AcDbEntity
  8
Object
100
AcDbLine
 10
5.342
 20
12.978
 30
0.0
 11
5.342
 21
12.853
 31
0.0
  0
LINE
  5
71A
330
18
100
AcDbEntity
  8
Object
100
AcDbLine
 10
5.342
 20
12.853
 30
0.0
 11
5.357
 21
12.853
 31
0.0
  0
LINE
  5
71B
330
18
100
AcDbEntity
  8
Object
100
AcDbLine
 10
4.591
 20
12.383
 30
0.0
 11
8.054999999999999
 21
12.383
 31
0.0
  0
LINE
  5
71C
330
18
100
AcDbEntity
  8
Object
100
AcDbLine
 10
3.387999999999999
 20
12.175
 30
0.0
 11
3.395
 21
12.243
 31
0.0
  0
LINE
  5
71D
330
18
100
AcDbEntity
  8
Object
100
AcDbLine
 10
3.395
 20
12.243
 30
0.0
 11
3.387999999999999
 21
12.31
 31
0.0
  0
LINE
  5
71E
330
18
100
AcDbEntity
  8
Object
100
AcDbLine
 10
3.387999999999999
 20
12.31
 30
0.0
 11
3.366999999999999
 21
12.375
 31
0.0
  0
LINE
  5
71F
330
18
100
AcDbEntity
  8
Object
100
AcDbLine
 10
3.387999999999999
 20
12.175
 30
0.0
 11
3.366999999999999
 21
12.111
 31
0.0
  0
LINE
  5
720
330
18
100
AcDbEntity
  8
Object
100
AcDbLine
 10
3.333
 20
12.434
 30
0.0
 11
3.366999999999999
 21
12.375
 31
0.0
  0
LINE
  5
721
330
18
100
AcDbEntity
  8
Object
100
AcDbLine
 10
3.366999999999999
 20
12.111
 30
0.0
 11
3.333
 21
12.052
 31
0.0
  0
LINE
  5
722
330
18
100
AcDbEntity
  8
Object
100
AcDbLine
 10
3.286999999999999
 20
12.484
 30
0.0
 11
3.333
 21
12.434
 31
0.0
  0
LINE
  5
723
330
18
100
AcDbEntity
  8
Object
100
AcDbLine
 10
3.333
 20
12.052
 30
0.0
 11
3.286999999999999
 21
12.001
 31
0.0
  0
LINE
  5
724
330
18
100
AcDbEntity
  8
Object
100
AcDbLine
 10
3.232
 20
12.524
 30
0.0
 11
3.286999999999999
 21
12.484
 31
0.0
  0
LINE
  5
725
330
18
100
AcDbEntity
  8
Object
100
AcDbLine
 10
3.286999999999999
 20
12.001
 30
0.0
 11
3.232
 21
11.961
 31
0.0
  0
LINE
  5
726
330
18
100
AcDbEntity
  8
Object
100
AcDbLine
 10
5.53
 20
12.978
 30
0.0
 11
5.546999999999999
 21
12.978
 31
0.0
  0
LINE
  5
727
330
18
100
AcDbEntity
  8
Object
100
AcDbLine
 10
5.791999999999999
 20
12.978
 30
0.0
 11
5.868
 21
12.978
 31
0.0
  0
LINE
  5
728
330
18
100
AcDbEntity
  8
Object
100
AcDbLine
 10
6.086
 20
12.978
 30
0.0
 11
6.097999999999999
 21
12.978
 31
0.0
  0
LINE
  5
729
330
18
100
AcDbEntity
  8
Object
100
AcDbLine
 10
6.028999999999999
 20
12.978
 30
0.0
 11
6.044
 21
12.978
 31
0.0
  0
LINE
  5
72A
330
18
100
AcDbEntity
  8
Object
100
AcDbLine
 10
11.695
 20
13.243
 30
0.0
 11
2.444999999999999
 21
13.243
 31
0.0
  0
LINE
  5
72B
330
18
100
AcDbEntity
  8
Object
100
AcDbLine
 10
6.929999999999999
 20
12.978
 30
0.0
 11
7.020999999999999
 21
12.978
 31
0.0
  0
LINE
  5
72C
330
18
100
AcDbEntity
  8
Object
100
AcDbLine
 10
6.153999999999999
 20
12.978
 30
0.0
 11
6.23
 21
12.978
 31
0.0
  0
LINE
  5
72D
330
18
100
AcDbEntity
  8
Object
100
AcDbLine
 10
5.939
 20
12.978
 30
0.0
 11
5.955
 21
12.978
 31
0.0
  0
LINE
  5
72E
330
18
100
AcDbEntity
  8
Object
100
AcDbLine
 10
5.642
 20
12.978
 30
0.0
 11
5.657
 21
12.978
 31
0.0
  0
LINE
  5
72F
330
18
100
AcDbEntity
  8
Object
100
AcDbLine
 10
5.730999999999999
 20
12.978
 30
0.0
 11
5.746999999999999
 21
12.978
 31
0.0
  0
LINE
  5
730
330
18
100
AcDbEntity
  8
Object
100
AcDbLine
 10
5.342
 20
12.978
 30
0.0
 11
5.419
 21
12.978
 31
0.0
  0
LINE
  5
731
330
18
100
AcDbEntity
  8
Object
100
AcDbLine
 10
3.232
 20
12.524
 30
0.0
 11
3.169999999999999
 21
12.552
 31
0.0
  0
LINE
  5
732
330
18
100
AcDbEntity
  8
Object
100
AcDbLine
 10
3.169999999999999
 20
12.552
 30
0.0
 11
3.104
 21
12.566
 31
0.0
  0
LINE
  5
733
330
18
100
AcDbEntity
  8
Object
100
AcDbLine
 10
3.104
 20
12.566
 30
0.0
 11
3.036
 21
12.566
 31
0.0
  0
LINE
  5
734
330
18
100
AcDbEntity
  8
Object
100
AcDbLine
 10
3.036
 20
12.566
 30
0.0
 11
2.968999999999999
 21
12.552
 31
0.0
  0
LINE
  5
735
330
18
100
AcDbEntity
  8
Object
100
AcDbLine
 10
2.968999999999999
 20
12.552
 30
0.0
 11
2.907
 21
12.524
 31
0.0
  0
LINE
  5
736
330
18
100
AcDbEntity
  8
Object
100
AcDbLine
 10
2.907
 20
12.524
 30
0.0
 11
2.851999999999999
 21
12.484
 31
0.0
  0
LINE
  5
737
330
18
100
AcDbEntity
  8
Object
100
AcDbLine
 10
2.444999999999999
 20
11.243
 30
0.0
 11
11.695
 21
11.243
 31
0.0
  0
LINE
  5
738
330
18
100
AcDbEntity
  8
Object
100
AcDbLine
 10
8.054999999999999
 20
12.103
 30
0.0
 11
4.591
 21
12.103
 31
0.0
  0
LINE
  5
739
330
18
100
AcDbEntity
  8
Object
100
AcDbLine
 10
2.851999999999999
 20
12.001
 30
0.0
 11
2.907
 21
11.961
 31
0.0
  0
LINE
  5
73A
330
18
100
AcDbEntity
  8
Object
100
AcDbLine
 10
2.907
 20
11.961
 30
0.0
 11
2.968999999999999
 21
11.934
 31
0.0
  0
LINE
  5
73B
330
18
100
AcDbEntity
  8
Object
100
AcDbLine
 10
2.968999999999999
 20
11.934
 30
0.0
 11
3.036
 21
11.92
 31
0.0
  0
LINE
  5
73C
330
18
100
AcDbEntity
  8
Object
100
AcDbLine
 10
3.036
 20
11.92
 30
0.0
 11
3.104
 21
11.92
 31
0.0
  0
LINE
  5
73D
330
18
100
AcDbEntity
  8
Object
100
AcDbLine
 10
3.104
 20
11.92
 30
0.0
 11
3.169999999999999
 21
11.934
 31
0.0
  0
LINE
  5
73E
330
18
100
AcDbEntity
  8
Object
100
AcDbLine
 10
3.169999999999999
 20
11.934
 30
0.0
 11
3.232
 21
11.961
 31
0.0
  0
LINE
  5
73F
330
18
100
AcDbEntity
  8
Object
100
AcDbLine
 10
2.444999999999999
 20
13.243
 30
0.0
 11
2.069999999999999
 21
12.868
 31
0.0
  0
LINE
  5
740
330
18
100
AcDbEntity
  8
Object
100
AcDbLine
 10
2.851999999999999
 20
12.484
 30
0.0
 11
2.807
 21
12.434
 31
0.0
  0
LINE
  5
741
330
18
100
AcDbEntity
  8
Object
100
AcDbLine
 10
2.807
 20
12.434
 30
0.0
 11
2.773
 21
12.375
 31
0.0
  0
LINE
  5
742
330
18
100
AcDbEntity
  8
Object
100
AcDbLine
 10
2.773
 20
12.375
 30
0.0
 11
2.752
 21
12.31
 31
0.0
  0
LINE
  5
743
330
18
100
AcDbEntity
  8
Object
100
AcDbLine
 10
2.752
 20
12.31
 30
0.0
 11
2.745
 21
12.243
 31
0.0
  0
LINE
  5
744
330
18
100
AcDbEntity
  8
Object
100
AcDbLine
 10
2.745
 20
12.243
 30
0.0
 11
2.752
 21
12.175
 31
0.0
  0
LINE
  5
745
330
18
100
AcDbEntity
  8
Object
100
AcDbLine
 10
2.069999999999999
 20
12.868
 30
0.0
 11
2.069999999999999
 21
11.618
 31
0.0
  0
LINE
  5
746
330
18
100
AcDbEntity
  8
Object
100
AcDbLine
 10
2.752
 20
12.175
 30
0.0
 11
2.773
 21
12.111
 31
0.0
  0
LINE
  5
747
330
18
100
AcDbEntity
  8
Object
100
AcDbLine
 10
2.773
 20
12.111
 30
0.0
 11
2.807
 21
12.052
 31
0.0
  0
LINE
  5
748
330
18
100
AcDbEntity
  8
Object
100
AcDbLine
 10
2.807
 20
12.052
 30
0.0
 11
2.851999999999999
 21
12.001
 31
0.0
  0
LINE
  5
749
330
18
100
AcDbEntity
  8
Object
100
AcDbLine
 10
2.069999999999999
 20
11.618
 30
0.0
 11
2.444999999999999
 21
11.243
 31
0.0
  0
LINE
  5
74A
330
18
100
AcDbEntity
  8
Object
100
AcDbLine
 10
7.283999999999999
 20
12.932
 30
0.0
 11
7.31
 21
12.919
 31
0.0
  0
LINE
  5
74B
330
18
100
AcDbEntity
  8
Object
100
AcDbLine
 10
7.283999999999999
 20
12.853
 30
0.0
 11
7.230999999999999
 21
12.853
 31
0.0
  0
LINE
  5
74C
330
18
100
AcDbEntity
  8
Object
100
AcDbLine
 10
7.461999999999999
 20
12.978
 30
0.0
 11
7.539
 21
12.978
 31
0.0
  0
LINE
  5
74D
330
18
100
AcDbEntity
  8
Object
100
AcDbLine
 10
6.088
 20
12.966
 30
0.0
 11
6.086
 21
12.966
 31
0.0
  0
LINE
  5
74E
330
18
100
AcDbEntity
  8
Object
100
AcDbLine
 10
2.069999999999999
 20
11.618
 30
0.0
 11
2.444999999999999
 21
11.243
 31
0.0
  0
LINE
  5
74F
330
18
100
AcDbEntity
  8
Object
100
AcDbLine
 10
6.23
 20
12.978
 30
0.0
 11
6.23
 21
12.966
 31
0.0
  0
LINE
  5
750
330
18
100
AcDbEntity
  8
Object
100
AcDbLine
 10
7.711999999999999
 20
12.914
 30
0.0
 11
7.711999999999999
 21
12.866
 31
0.0
  0
LINE
  5
751
330
18
100
AcDbEntity
  8
Object
100
AcDbLine
 10
7.701
 20
12.966
 30
0.0
 11
7.701
 21
12.926
 31
0.0
  0
LINE
  5
752
330
18
100
AcDbEntity
  8
Object
100
AcDbLine
 10
7.692
 20
12.853
 30
0.0
 11
7.607
 21
12.853
 31
0.0
  0
LINE
  5
753
330
18
100
AcDbEntity
  8
Object
100
AcDbLine
 10
7.342999999999999
 20
12.966
 30
0.0
 11
7.342999999999999
 21
12.978
 31
0.0
  0
LINE
  5
754
330
18
100
AcDbEntity
  8
Object
100
AcDbLine
 10
7.221
 20
12.953
 30
0.0
 11
7.221
 21
12.927
 31
0.0
  0
LINE
  5
755
330
18
100
AcDbEntity
  8
Object
100
AcDbLine
 10
7.294999999999999
 20
12.953
 30
0.0
 11
7.27
 21
12.966
 31
0.0
  0
LINE
  5
756
330
18
100
AcDbEntity
  8
Object
100
AcDbLine
 10
7.539
 20
12.978
 30
0.0
 11
7.567
 21
12.964
 31
0.0
  0
LINE
  5
757
330
18
100
AcDbEntity
  8
Object
100
AcDbLine
 10
7.567
 20
12.853
 30
0.0
 11
7.549999999999999
 21
12.853
 31
0.0
  0
LINE
  5
758
330
18
100
AcDbEntity
  8
Object
100
AcDbLine
 10
7.852
 20
12.978
 30
0.0
 11
7.852
 21
12.853
 31
0.0
  0
LINE
  5
759
330
18
100
AcDbEntity
  8
Object
100
AcDbLine
 10
7.762
 20
12.978
 30
0.0
 11
7.836
 21
12.881
 31
0.0
  0
LINE
  5
75A
330
18
100
AcDbEntity
  8
Object
100
AcDbLine
 10
7.762
 20
12.949
 30
0.0
 11
7.762
 21
12.853
 31
0.0
  0
LINE
  5
75B
330
18
100
AcDbEntity
  8
Object
100
AcDbLine
 10
5.483999999999999
 20
12.853
 30
0.0
 11
5.53
 21
12.978
 31
0.0
  0
LINE
  5
75C
330
18
100
AcDbEntity
  8
Object
100
AcDbLine
 10
5.868
 20
12.853
 30
0.0
 11
5.897
 21
12.884
 31
0.0
  0
LINE
  5
75D
330
18
100
AcDbEntity
  8
Object
100
AcDbLine
 10
5.897
 20
12.884
 30
0.0
 11
5.897
 21
12.947
 31
0.0
  0
LINE
  5
75E
330
18
100
AcDbEntity
  8
Object
100
AcDbLine
 10
5.730999999999999
 20
12.881
 30
0.0
 11
5.730999999999999
 21
12.978
 31
0.0
  0
LINE
  5
75F
330
18
100
AcDbEntity
  8
Object
100
AcDbLine
 10
5.657
 20
12.949
 30
0.0
 11
5.657
 21
12.853
 31
0.0
  0
LINE
  5
760
330
18
100
AcDbEntity
  8
Object
100
AcDbLine
 10
7.967999999999999
 20
12.932
 30
0.0
 11
7.993999999999999
 21
12.919
 31
0.0
  0
LINE
  5
761
330
18
100
AcDbEntity
  8
Object
100
AcDbLine
 10
7.953999999999999
 20
12.921
 30
0.0
 11
7.931
 21
12.921
 31
0.0
  0
LINE
  5
762
330
18
100
AcDbEntity
  8
Object
100
AcDbLine
 10
7.905
 20
12.888
 30
0.0
 11
7.905
 21
12.878
 31
0.0
  0
LINE
  5
763
330
18
100
AcDbEntity
  8
Object
100
AcDbLine
 10
7.31
 20
12.965
 30
0.0
 11
7.31
 21
12.943
 31
0.0
  0
LINE
  5
764
330
18
100
AcDbEntity
  8
Object
100
AcDbLine
 10
7.567
 20
12.923
 30
0.0
 11
7.544999999999999
 21
12.913
 31
0.0
  0
LINE
  5
765
330
18
100
AcDbEntity
  8
Object
100
AcDbLine
 10
8.71
 20
12.383
 30
0.0
 11
8.666999999999999
 21
12.376
 31
0.0
  0
LINE
  5
766
330
18
100
AcDbEntity
  8
Object
100
AcDbLine
 10
8.666999999999999
 20
12.376
 30
0.0
 11
8.628
 21
12.356
 31
0.0
  0
LINE
  5
767
330
18
100
AcDbEntity
  8
Object
100
AcDbLine
 10
8.628
 20
12.356
 30
0.0
 11
8.596999999999999
 21
12.325
 31
0.0
  0
LINE
  5
768
330
18
100
AcDbEntity
  8
Object
100
AcDbLine
 10
8.596999999999999
 20
12.325
 30
0.0
 11
8.576999999999999
 21
12.286
 31
0.0
  0
LINE
  5
769
330
18
100
AcDbEntity
  8
Object
100
AcDbLine
 10
8.576999999999999
 20
12.286
 30
0.0
 11
8.57
 21
12.243
 31
0.0
  0
LINE
  5
76A
330
18
100
AcDbEntity
  8
Object
100
AcDbLine
 10
6.198
 20
12.966
 30
0.0
 11
6.198
 21
12.853
 31
0.0
  0
LINE
  5
76B
330
18
100
AcDbEntity
  8
Object
100
AcDbLine
 10
6.028999999999999
 20
12.887
 30
0.0
 11
6.028999999999999
 21
12.978
 31
0.0
  0
LINE
  5
76C
330
18
100
AcDbEntity
  8
Object
100
AcDbLine
 10
5.419
 20
12.978
 30
0.0
 11
5.447
 21
12.964
 31
0.0
  0
LINE
  5
76D
330
18
100
AcDbEntity
  8
Object
100
AcDbLine
 10
7.905
 20
12.966
 30
0.0
 11
7.905
 21
12.927
 31
0.0
  0
LINE
  5
76E
330
18
100
AcDbEntity
  8
Object
100
AcDbLine
 10
7.905
 20
12.908
 30
0.0
 11
7.889
 21
12.908
 31
0.0
  0
LINE
  5
76F
330
18
100
AcDbEntity
  8
Object
100
AcDbLine
 10
7.916
 20
12.853
 30
0.0
 11
7.889
 21
12.866
 31
0.0
  0
LINE
  5
770
330
18
100
AcDbEntity
  8
Object
100
AcDbLine
 10
7.020999999999999
 20
12.966
 30
0.0
 11
6.945
 21
12.966
 31
0.0
  0
LINE
  5
771
330
18
100
AcDbEntity
  8
Object
100
AcDbLine
 10
6.945
 20
12.853
 30
0.0
 11
6.929999999999999
 21
12.853
 31
0.0
  0
LINE
  5
772
330
18
100
AcDbEntity
  8
Object
100
AcDbLine
 10
7.221
 20
12.927
 30
0.0
 11
7.230999999999999
 21
12.932
 31
0.0
  0
LINE
  5
773
330
18
100
AcDbEntity
  8
Object
100
AcDbLine
 10
7.230999999999999
 20
12.853
 30
0.0
 11
7.205
 21
12.866
 31
0.0
  0
LINE
  5
774
330
18
100
AcDbEntity
  8
Object
100
AcDbLine
 10
5.868
 20
12.978
 30
0.0
 11
5.897
 21
12.947
 31
0.0
  0
LINE
  5
775
330
18
100
AcDbEntity
  8
Object
100
AcDbLine
 10
8.188
 20
12.286
 30
0.0
 11
8.195
 21
12.243
 31
0.0
  0
LINE
  5
776
330
18
100
AcDbEntity
  8
Object
100
AcDbLine
 10
8.195
 20
12.243
 30
0.0
 11
8.188
 21
12.2
 31
0.0
  0
LINE
  5
777
330
18
100
AcDbEntity
  8
Object
100
AcDbLine
 10
8.168000000000001
 20
12.325
 30
0.0
 11
8.188
 21
12.286
 31
0.0
  0
LINE
  5
778
330
18
100
AcDbEntity
  8
Object
100
AcDbLine
 10
8.188
 20
12.2
 30
0.0
 11
8.168000000000001
 21
12.16
 31
0.0
  0
LINE
  5
779
330
18
100
AcDbEntity
  8
Object
100
AcDbLine
 10
8.137
 20
12.356
 30
0.0
 11
8.168000000000001
 21
12.325
 31
0.0
  0
LINE
  5
77A
330
18
100
AcDbEntity
  8
Object
100
AcDbLine
 10
8.168000000000001
 20
12.16
 30
0.0
 11
8.137
 21
12.13
 31
0.0
  0
LINE
  5
77B
330
18
100
AcDbEntity
  8
Object
100
AcDbLine
 10
8.137
 20
12.13
 30
0.0
 11
8.098
 21
12.11
 31
0.0
  0
LINE
  5
77C
330
18
100
AcDbEntity
  8
Object
100
AcDbLine
 10
8.137
 20
12.356
 30
0.0
 11
8.098
 21
12.376
 31
0.0
  0
LINE
  5
77D
330
18
100
AcDbEntity
  8
Object
100
AcDbLine
 10
8.098
 20
12.376
 30
0.0
 11
8.054999999999999
 21
12.383
 31
0.0
  0
LINE
  5
77E
330
18
100
AcDbEntity
  8
Object
100
AcDbLine
 10
8.098
 20
12.11
 30
0.0
 11
8.054999999999999
 21
12.103
 31
0.0
  0
LINE
  5
77F
330
18
100
AcDbEntity
  8
Object
100
AcDbLine
 10
6.028999999999999
 20
12.978
 30
0.0
 11
6.044
 21
12.978
 31
0.0
  0
LINE
  5
780
330
18
100
AcDbEntity
  8
Object
100
AcDbLine
 10
5.955
 20
12.978
 30
0.0
 11
5.955
 21
12.887
 31
0.0
  0
LINE
  5
781
330
18
100
AcDbEntity
  8
Object
100
AcDbLine
 10
5.642
 20
12.978
 30
0.0
 11
5.657
 21
12.978
 31
0.0
  0
LINE
  5
782
330
18
100
AcDbEntity
  8
Object
100
AcDbLine
 10
5.746999999999999
 20
12.853
 30
0.0
 11
5.730999999999999
 21
12.853
 31
0.0
  0
LINE
  5
783
330
18
100
AcDbEntity
  8
Object
100
AcDbLine
 10
7.905
 20
12.927
 30
0.0
 11
7.916
 21
12.932
 31
0.0
  0
LINE
  5
784
330
18
100
AcDbEntity
  8
Object
100
AcDbLine
 10
7.889
 20
12.908
 30
0.0
 11
7.889
 21
12.978
 31
0.0
  0
LINE
  5
785
330
18
100
AcDbEntity
  8
Object
100
AcDbLine
 10
7.701
 20
12.926
 30
0.0
 11
7.698999999999999
 21
12.922
 31
0.0
  0
LINE
  5
786
330
18
100
AcDbEntity
  8
Object
100
AcDbLine
 10
7.342999999999999
 20
12.978
 30
0.0
 11
7.419999999999999
 21
12.978
 31
0.0
  0
LINE
  5
787
330
18
100
AcDbEntity
  8
Object
100
AcDbLine
 10
7.27
 20
12.966
 30
0.0
 11
7.246999999999999
 21
12.966
 31
0.0
  0
LINE
  5
788
330
18
100
AcDbEntity
  8
Object
100
AcDbLine
 10
7.53
 20
12.91
 30
0.0
 11
7.477
 21
12.91
 31
0.0
  0
LINE
  5
789
330
18
100
AcDbEntity
  8
Object
100
AcDbLine
 10
7.852
 20
12.853
 30
0.0
 11
7.836
 21
12.853
 31
0.0
  0
LINE
  5
78A
330
18
100
AcDbEntity
  8
Object
100
AcDbLine
 10
7.836
 20
12.881
 30
0.0
 11
7.836
 21
12.978
 31
0.0
  0
LINE
  5
78B
330
18
100
AcDbEntity
  8
Object
100
AcDbLine
 10
5.575
 20
12.853
 30
0.0
 11
5.565999999999999
 21
12.875
 31
0.0
  0
LINE
  5
78C
330
18
100
AcDbEntity
  8
Object
100
AcDbLine
 10
5.53
 20
12.978
 30
0.0
 11
5.546999999999999
 21
12.978
 31
0.0
  0
LINE
  5
78D
330
18
100
AcDbEntity
  8
Object
100
AcDbLine
 10
5.868
 20
12.853
 30
0.0
 11
5.791999999999999
 21
12.853
 31
0.0
  0
LINE
  5
78E
330
18
100
AcDbEntity
  8
Object
100
AcDbLine
 10
6.086
 20
12.865
 30
0.0
 11
6.088
 21
12.865
 31
0.0
  0
LINE
  5
78F
330
18
100
AcDbEntity
  8
Object
100
AcDbLine
 10
8.71
 20
12.103
 30
0.0
 11
8.666999999999999
 21
12.11
 31
0.0
  0
LINE
  5
790
330
18
100
AcDbEntity
  8
Object
100
AcDbLine
 10
8.666999999999999
 20
12.11
 30
0.0
 11
8.628
 21
12.13
 31
0.0
  0
LINE
  5
791
330
18
100
AcDbEntity
  8
Object
100
AcDbLine
 10
8.628
 20
12.13
 30
0.0
 11
8.596999999999999
 21
12.16
 31
0.0
  0
LINE
  5
792
330
18
100
AcDbEntity
  8
Object
100
AcDbLine
 10
8.596999999999999
 20
12.16
 30
0.0
 11
8.576999999999999
 21
12.2
 31
0.0
  0
LINE
  5
793
330
18
100
AcDbEntity
  8
Object
100
AcDbLine
 10
8.576999999999999
 20
12.2
 30
0.0
 11
8.57
 21
12.243
 31
0.0
  0
LINE
  5
794
330
18
100
AcDbEntity
  8
Object
100
AcDbLine
 10
6.185
 20
12.853
 30
0.0
 11
6.185
 21
12.966
 31
0.0
  0
LINE
  5
795
330
18
100
AcDbEntity
  8
Object
100
AcDbLine
 10
5.955
 20
12.978
 30
0.0
 11
5.939
 21
12.978
 31
0.0
  0
LINE
  5
796
330
18
100
AcDbEntity
  8
Object
100
AcDbLine
 10
5.939
 20
12.978
 30
0.0
 11
5.939
 21
12.879
 31
0.0
  0
LINE
  5
797
330
18
100
AcDbEntity
  8
Object
100
AcDbLine
 10
5.657
 20
12.853
 30
0.0
 11
5.642
 21
12.853
 31
0.0
  0
LINE
  5
798
330
18
100
AcDbEntity
  8
Object
100
AcDbLine
 10
5.342
 20
12.853
 30
0.0
 11
5.342
 21
12.978
 31
0.0
  0
LINE
  5
799
330
18
100
AcDbEntity
  8
Object
100
AcDbLine
 10
7.993999999999999
 20
12.978
 30
0.0
 11
7.993999999999999
 21
12.966
 31
0.0
  0
LINE
  5
79A
330
18
100
AcDbEntity
  8
Object
100
AcDbLine
 10
7.607
 20
12.853
 30
0.0
 11
7.607
 21
12.978
 31
0.0
  0
LINE
  5
79B
330
18
100
AcDbEntity
  8
Object
100
AcDbLine
 10
7.375
 20
12.853
 30
0.0
 11
7.375
 21
12.966
 31
0.0
  0
LINE
  5
79C
330
18
100
AcDbEntity
  8
Object
100
AcDbLine
 10
7.419999999999999
 20
12.966
 30
0.0
 11
7.387999999999999
 21
12.966
 31
0.0
  0
LINE
  5
79D
330
18
100
AcDbEntity
  8
Object
100
AcDbLine
 10
7.0
 20
12.921
 30
0.0
 11
7.0
 21
12.91
 31
0.0
  0
LINE
  5
79E
330
18
100
AcDbEntity
  8
Object
100
AcDbLine
 10
7.31
 20
12.943
 30
0.0
 11
7.294999999999999
 21
12.943
 31
0.0
  0
LINE
  5
79F
330
18
100
AcDbEntity
  8
Object
100
AcDbLine
 10
7.230999999999999
 20
12.978
 30
0.0
 11
7.283999999999999
 21
12.978
 31
0.0
  0
LINE
  5
7A0
330
18
100
AcDbEntity
  8
Object
100
AcDbLine
 10
7.746999999999999
 20
12.853
 30
0.0
 11
7.746999999999999
 21
12.978
 31
0.0
  0
LINE
  5
7A1
330
18
100
AcDbEntity
  8
Object
100
AcDbLine
 10
8.037
 20
12.965
 30
0.0
 11
8.063
 21
12.978
 31
0.0
  0
LINE
  5
7A2
330
18
100
AcDbEntity
  8
Object
100
AcDbLine
 10
6.086
 20
12.966
 30
0.0
 11
6.086
 21
12.978
 31
0.0
  0
LINE
  5
7A3
330
18
100
AcDbEntity
  8
Object
100
AcDbLine
 10
6.097999999999999
 20
12.865
 30
0.0
 11
6.097999999999999
 21
12.853
 31
0.0
  0
LINE
  5
7A4
330
18
100
AcDbEntity
  8
Object
100
AcDbLine
 10
11.695
 20
13.243
 30
0.0
 11
2.444999999999999
 21
13.243
 31
0.0
  0
LINE
  5
7A5
330
18
100
AcDbEntity
  8
Object
100
AcDbLine
 10
4.591
 20
12.383
 30
0.0
 11
8.054999999999999
 21
12.383
 31
0.0
  0
LINE
  5
7A6
330
18
100
AcDbEntity
  8
Object
100
AcDbLine
 10
6.153999999999999
 20
12.978
 30
0.0
 11
6.23
 21
12.978
 31
0.0
  0
LINE
  5
7A7
330
18
100
AcDbEntity
  8
Object
100
AcDbLine
 10
5.975
 20
12.865
 30
0.0
 11
6.009
 21
12.865
 31
0.0
  0
LINE
  5
7A8
330
18
100
AcDbEntity
  8
Object
100
AcDbLine
 10
5.730999999999999
 20
12.978
 30
0.0
 11
5.746999999999999
 21
12.978
 31
0.0
  0
LINE
  5
7A9
330
18
100
AcDbEntity
  8
Object
100
AcDbLine
 10
7.993999999999999
 20
12.919
 30
0.0
 11
7.993999999999999
 21
12.866
 31
0.0
  0
LINE
  5
7AA
330
18
100
AcDbEntity
  8
Object
100
AcDbLine
 10
7.993999999999999
 20
12.966
 30
0.0
 11
7.905
 21
12.966
 31
0.0
  0
LINE
  5
7AB
330
18
100
AcDbEntity
  8
Object
100
AcDbLine
 10
7.979
 20
12.878
 30
0.0
 11
7.979
 21
12.908
 31
0.0
  0
LINE
  5
7AC
330
18
100
AcDbEntity
  8
Object
100
AcDbLine
 10
7.205
 20
12.866
 30
0.0
 11
7.205
 21
12.965
 31
0.0
  0
LINE
  5
7AD
330
18
100
AcDbEntity
  8
Object
100
AcDbLine
 10
8.141999999999999
 20
12.965
 30
0.0
 11
8.141999999999999
 21
12.923
 31
0.0
  0
LINE
  5
7AE
330
18
100
AcDbEntity
  8
Object
100
AcDbLine
 10
6.198
 20
12.853
 30
0.0
 11
6.185
 21
12.853
 31
0.0
  0
LINE
  5
7AF
330
18
100
AcDbEntity
  8
Object
100
AcDbLine
 10
6.009
 20
12.865
 30
0.0
 11
6.028999999999999
 21
12.887
 31
0.0
  0
LINE
  5
7B0
330
18
100
AcDbEntity
  8
Object
100
AcDbLine
 10
5.357
 20
12.91
 30
0.0
 11
5.357
 21
12.853
 31
0.0
  0
LINE
  5
7B1
330
18
100
AcDbEntity
  8
Object
100
AcDbLine
 10
7.607
 20
12.978
 30
0.0
 11
7.692
 21
12.978
 31
0.0
  0
LINE
  5
7B2
330
18
100
AcDbEntity
  8
Object
100
AcDbLine
 10
7.31
 20
12.919
 30
0.0
 11
7.31
 21
12.866
 31
0.0
  0
LINE
  5
7B3
330
18
100
AcDbEntity
  8
Object
100
AcDbLine
 10
7.294999999999999
 20
12.943
 30
0.0
 11
7.294999999999999
 21
12.953
 31
0.0
  0
LINE
  5
7B4
330
18
100
AcDbEntity
  8
Object
100
AcDbLine
 10
8.125999999999999
 20
12.915
 30
0.0
 11
8.141999999999999
 21
12.908
 31
0.0
  0
LINE
  5
7B5
330
18
100
AcDbEntity
  8
Object
100
AcDbLine
 10
8.037
 20
12.866
 30
0.0
 11
8.063
 21
12.853
 31
0.0
  0
LINE
  5
7B6
330
18
100
AcDbEntity
  8
Object
100
AcDbLine
 10
8.063
 20
12.853
 30
0.0
 11
8.115999999999999
 21
12.853
 31
0.0
  0
LINE
  5
7B7
330
18
100
AcDbEntity
  8
Object
100
AcDbLine
 10
5.546999999999999
 20
12.978
 30
0.0
 11
5.592
 21
12.853
 31
0.0
  0
LINE
  5
7B8
330
18
100
AcDbEntity
  8
Object
100
AcDbLine
 10
5.565999999999999
 20
12.875
 30
0.0
 11
5.509999999999999
 21
12.875
 31
0.0
  0
LINE
  5
7B9
330
18
100
AcDbEntity
  8
Object
100
AcDbLine
 10
5.791999999999999
 20
12.853
 30
0.0
 11
5.791999999999999
 21
12.978
 31
0.0
  0
LINE
  5
7BA
330
18
100
AcDbEntity
  8
Object
100
AcDbLine
 10
6.094999999999999
 20
12.865
 30
0.0
 11
6.097999999999999
 21
12.865
 31
0.0
  0
LINE
  5
7BB
330
18
100
AcDbEntity
  8
Object
100
AcDbLine
 10
12.07
 20
12.868
 30
0.0
 11
11.695
 21
13.243
 31
0.0
  0
LINE
  5
7BC
330
18
100
AcDbEntity
  8
Object
100
AcDbLine
 10
2.444999999999999
 20
13.243
 30
0.0
 11
2.069999999999999
 21
12.868
 31
0.0
  0
LINE
  5
7BD
330
18
100
AcDbEntity
  8
Object
100
AcDbLine
 10
11.173
 20
12.103
 30
0.0
 11
8.71
 21
12.103
 31
0.0
  0
LINE
  5
7BE
330
18
100
AcDbEntity
  8
Object
100
AcDbLine
 10
8.71
 20
12.383
 30
0.0
 11
11.173
 21
12.383
 31
0.0
  0
LINE
  5
7BF
330
18
100
AcDbEntity
  8
Object
100
AcDbLine
 10
5.342
 20
12.978
 30
0.0
 11
5.419
 21
12.978
 31
0.0
  0
LINE
  5
7C0
330
18
100
AcDbEntity
  8
Object
100
AcDbLine
 10
7.916
 20
12.932
 30
0.0
 11
7.967999999999999
 21
12.932
 31
0.0
  0
LINE
  5
7C1
330
18
100
AcDbEntity
  8
Object
100
AcDbLine
 10
7.931
 20
12.921
 30
0.0
 11
7.905
 21
12.908
 31
0.0
  0
LINE
  5
7C2
330
18
100
AcDbEntity
  8
Object
100
AcDbLine
 10
7.967999999999999
 20
12.853
 30
0.0
 11
7.916
 21
12.853
 31
0.0
  0
LINE
  5
7C3
330
18
100
AcDbEntity
  8
Object
100
AcDbLine
 10
7.375
 20
12.966
 30
0.0
 11
7.342999999999999
 21
12.966
 31
0.0
  0
LINE
  5
7C4
330
18
100
AcDbEntity
  8
Object
100
AcDbLine
 10
7.387999999999999
 20
12.966
 30
0.0
 11
7.387999999999999
 21
12.853
 31
0.0
  0
LINE
  5
7C5
330
18
100
AcDbEntity
  8
Object
100
AcDbLine
 10
6.929999999999999
 20
12.978
 30
0.0
 11
7.020999999999999
 21
12.978
 31
0.0
  0
LINE
  5
7C6
330
18
100
AcDbEntity
  8
Object
100
AcDbLine
 10
6.945
 20
12.91
 30
0.0
 11
6.945
 21
12.853
 31
0.0
  0
LINE
  5
7C7
330
18
100
AcDbEntity
  8
Object
100
AcDbLine
 10
7.283999999999999
 20
12.978
 30
0.0
 11
7.31
 21
12.965
 31
0.0
  0
LINE
  5
7C8
330
18
100
AcDbEntity
  8
Object
100
AcDbLine
 10
7.836
 20
12.978
 30
0.0
 11
7.852
 21
12.978
 31
0.0
  0
LINE
  5
7C9
330
18
100
AcDbEntity
  8
Object
100
AcDbLine
 10
7.746999999999999
 20
12.978
 30
0.0
 11
7.762
 21
12.978
 31
0.0
  0
LINE
  5
7CA
330
18
100
AcDbEntity
  8
Object
100
AcDbLine
 10
8.063
 20
12.978
 30
0.0
 11
8.115999999999999
 21
12.978
 31
0.0
  0
LINE
  5
7CB
330
18
100
AcDbEntity
  8
Object
100
AcDbLine
 10
5.501
 20
12.853
 30
0.0
 11
5.483999999999999
 21
12.853
 31
0.0
  0
LINE
  5
7CC
330
18
100
AcDbEntity
  8
Object
100
AcDbLine
 10
6.097999999999999
 20
12.853
 30
0.0
 11
6.086
 21
12.853
 31
0.0
  0
LINE
  5
7CD
330
18
100
AcDbEntity
  8
Object
100
AcDbLine
 10
11.695
 20
11.243
 30
0.0
 11
12.07
 21
11.618
 31
0.0
  0
LINE
  5
7CE
330
18
100
AcDbEntity
  8
Object
100
AcDbLine
 10
2.069999999999999
 20
12.868
 30
0.0
 11
2.069999999999999
 21
11.618
 31
0.0
  0
LINE
  5
7CF
330
18
100
AcDbEntity
  8
Object
100
AcDbLine
 10
3.395
 20
12.243
 30
0.0
 11
3.387999999999999
 21
12.31
 31
0.0
  0
LINE
  5
7D0
330
18
100
AcDbEntity
  8
Object
100
AcDbLine
 10
3.387999999999999
 20
12.31
 30
0.0
 11
3.366999999999999
 21
12.375
 31
0.0
  0
LINE
  5
7D1
330
18
100
AcDbEntity
  8
Object
100
AcDbLine
 10
3.366999999999999
 20
12.375
 30
0.0
 11
3.333
 21
12.434
 31
0.0
  0
LINE
  5
7D2
330
18
100
AcDbEntity
  8
Object
100
AcDbLine
 10
3.333
 20
12.434
 30
0.0
 11
3.286999999999999
 21
12.484
 31
0.0
  0
LINE
  5
7D3
330
18
100
AcDbEntity
  8
Object
100
AcDbLine
 10
3.286999999999999
 20
12.484
 30
0.0
 11
3.232
 21
12.524
 31
0.0
  0
LINE
  5
7D4
330
18
100
AcDbEntity
  8
Object
100
AcDbLine
 10
3.232
 20
12.524
 30
0.0
 11
3.169999999999999
 21
12.552
 31
0.0
  0
LINE
  5
7D5
330
18
100
AcDbEntity
  8
Object
100
AcDbLine
 10
3.169999999999999
 20
12.552
 30
0.0
 11
3.104
 21
12.566
 31
0.0
  0
LINE
  5
7D6
330
18
100
AcDbEntity
  8
Object
100
AcDbLine
 10
3.104
 20
12.566
 30
0.0
 11
3.036
 21
12.566
 31
0.0
  0
LINE
  5
7D7
330
18
100
AcDbEntity
  8
Object
100
AcDbLine
 10
3.036
 20
12.566
 30
0.0
 11
2.968999999999999
 21
12.552
 31
0.0
  0
LINE
  5
7D8
330
18
100
AcDbEntity
  8
Object
100
AcDbLine
 10
2.968999999999999
 20
12.552
 30
0.0
 11
2.907
 21
12.524
 31
0.0
  0
LINE
  5
7D9
330
18
100
AcDbEntity
  8
Object
100
AcDbLine
 10
2.907
 20
12.524
 30
0.0
 11
2.851999999999999
 21
12.484
 31
0.0
  0
LINE
  5
7DA
330
18
100
AcDbEntity
  8
Object
100
AcDbLine
 10
2.851999999999999
 20
12.484
 30
0.0
 11
2.807
 21
12.434
 31
0.0
  0
LINE
  5
7DB
330
18
100
AcDbEntity
  8
Object
100
AcDbLine
 10
2.807
 20
12.434
 30
0.0
 11
2.773
 21
12.375
 31
0.0
  0
LINE
  5
7DC
330
18
100
AcDbEntity
  8
Object
100
AcDbLine
 10
2.773
 20
12.375
 30
0.0
 11
2.752
 21
12.31
 31
0.0
  0
LINE
  5
7DD
330
18
100
AcDbEntity
  8
Object
100
AcDbLine
 10
2.752
 20
12.31
 30
0.0
 11
2.745
 21
12.243
 31
0.0
  0
LINE
  5
7DE
330
18
100
AcDbEntity
  8
Object
100
AcDbLine
 10
6.945
 20
12.966
 30
0.0
 11
6.945
 21
12.921
 31
0.0
  0
LINE
  5
7DF
330
18
100
AcDbEntity
  8
Object
100
AcDbLine
 10
7.205
 20
12.965
 30
0.0
 11
7.230999999999999
 21
12.978
 31
0.0
  0
LINE
  5
7E0
330
18
100
AcDbEntity
  8
Object
100
AcDbLine
 10
7.544999999999999
 20
12.913
 30
0.0
 11
7.567
 21
12.853
 31
0.0
  0
LINE
  5
7E1
330
18
100
AcDbEntity
  8
Object
100
AcDbLine
 10
8.051999999999999
 20
12.915
 30
0.0
 11
8.037
 21
12.923
 31
0.0
  0
LINE
  5
7E2
330
18
100
AcDbEntity
  8
Object
100
AcDbLine
 10
5.791999999999999
 20
12.978
 30
0.0
 11
5.868
 21
12.978
 31
0.0
  0
LINE
  5
7E3
330
18
100
AcDbEntity
  8
Object
100
AcDbLine
 10
3.395
 20
12.243
 30
0.0
 11
3.387999999999999
 21
12.175
 31
0.0
  0
LINE
  5
7E4
330
18
100
AcDbEntity
  8
Object
100
AcDbLine
 10
3.387999999999999
 20
12.175
 30
0.0
 11
3.366999999999999
 21
12.111
 31
0.0
  0
LINE
  5
7E5
330
18
100
AcDbEntity
  8
Object
100
AcDbLine
 10
3.366999999999999
 20
12.111
 30
0.0
 11
3.333
 21
12.052
 31
0.0
  0
LINE
  5
7E6
330
18
100
AcDbEntity
  8
Object
100
AcDbLine
 10
3.333
 20
12.052
 30
0.0
 11
3.286999999999999
 21
12.001
 31
0.0
  0
LINE
  5
7E7
330
18
100
AcDbEntity
  8
Object
100
AcDbLine
 10
3.286999999999999
 20
12.001
 30
0.0
 11
3.232
 21
11.961
 31
0.0
  0
LINE
  5
7E8
330
18
100
AcDbEntity
  8
Object
100
AcDbLine
 10
3.232
 20
11.961
 30
0.0
 11
3.169999999999999
 21
11.934
 31
0.0
  0
LINE
  5
7E9
330
18
100
AcDbEntity
  8
Object
100
AcDbLine
 10
3.169999999999999
 20
11.934
 30
0.0
 11
3.104
 21
11.92
 31
0.0
  0
LINE
  5
7EA
330
18
100
AcDbEntity
  8
Object
100
AcDbLine
 10
3.104
 20
11.92
 30
0.0
 11
3.036
 21
11.92
 31
0.0
  0
LINE
  5
7EB
330
18
100
AcDbEntity
  8
Object
100
AcDbLine
 10
3.036
 20
11.92
 30
0.0
 11
2.968999999999999
 21
11.934
 31
0.0
  0
LINE
  5
7EC
330
18
100
AcDbEntity
  8
Object
100
AcDbLine
 10
2.968999999999999
 20
11.934
 30
0.0
 11
2.907
 21
11.961
 31
0.0
  0
LINE
  5
7ED
330
18
100
AcDbEntity
  8
Object
100
AcDbLine
 10
2.907
 20
11.961
 30
0.0
 11
2.851999999999999
 21
12.001
 31
0.0
  0
LINE
  5
7EE
330
18
100
AcDbEntity
  8
Object
100
AcDbLine
 10
2.851999999999999
 20
12.001
 30
0.0
 11
2.807
 21
12.052
 31
0.0
  0
LINE
  5
7EF
330
18
100
AcDbEntity
  8
Object
100
AcDbLine
 10
2.807
 20
12.052
 30
0.0
 11
2.773
 21
12.111
 31
0.0
  0
LINE
  5
7F0
330
18
100
AcDbEntity
  8
Object
100
AcDbLine
 10
2.773
 20
12.111
 30
0.0
 11
2.752
 21
12.175
 31
0.0
  0
LINE
  5
7F1
330
18
100
AcDbEntity
  8
Object
100
AcDbLine
 10
2.752
 20
12.175
 30
0.0
 11
2.745
 21
12.243
 31
0.0
  0
LINE
  5
7F2
330
18
100
AcDbEntity
  8
Object
100
AcDbLine
 10
6.044
 20
12.879
 30
0.0
 11
6.02
 21
12.853
 31
0.0
  0
LINE
  5
7F3
330
18
100
AcDbEntity
  8
Object
100
AcDbLine
 10
5.746999999999999
 20
12.978
 30
0.0
 11
5.746999999999999
 21
12.853
 31
0.0
  0
LINE
  5
7F4
330
18
100
AcDbEntity
  8
Object
100
AcDbLine
 10
5.357
 20
12.853
 30
0.0
 11
5.342
 21
12.853
 31
0.0
  0
LINE
  5
7F5
330
18
100
AcDbEntity
  8
Object
100
AcDbLine
 10
5.447
 20
12.923
 30
0.0
 11
5.419
 21
12.91
 31
0.0
  0
LINE
  5
7F6
330
18
100
AcDbEntity
  8
Object
100
AcDbLine
 10
7.889
 20
12.978
 30
0.0
 11
7.993999999999999
 21
12.978
 31
0.0
  0
LINE
  5
7F7
330
18
100
AcDbEntity
  8
Object
100
AcDbLine
 10
7.979
 20
12.908
 30
0.0
 11
7.953999999999999
 21
12.921
 31
0.0
  0
LINE
  5
7F8
330
18
100
AcDbEntity
  8
Object
100
AcDbLine
 10
7.931
 20
12.865
 30
0.0
 11
7.953999999999999
 21
12.865
 31
0.0
  0
LINE
  5
7F9
330
18
100
AcDbEntity
  8
Object
100
AcDbLine
 10
7.549999999999999
 20
12.853
 30
0.0
 11
7.53
 21
12.91
 31
0.0
  0
LINE
  5
7FA
330
18
100
AcDbEntity
  8
Object
100
AcDbLine
 10
5.955
 20
12.887
 30
0.0
 11
5.975
 21
12.865
 31
0.0
  0
LINE
  5
7FB
330
18
100
AcDbEntity
  8
Object
100
AcDbLine
 10
5.963
 20
12.853
 30
0.0
 11
5.939
 21
12.879
 31
0.0
  0
LINE
  5
7FC
330
18
100
AcDbEntity
  8
Object
100
AcDbLine
 10
7.711999999999999
 20
12.866
 30
0.0
 11
7.692
 21
12.853
 31
0.0
  0
LINE
  5
7FD
330
18
100
AcDbEntity
  8
Object
100
AcDbLine
 10
7.387999999999999
 20
12.853
 30
0.0
 11
7.375
 21
12.853
 31
0.0
  0
LINE
  5
7FE
330
18
100
AcDbEntity
  8
Object
100
AcDbLine
 10
7.0
 20
12.91
 30
0.0
 11
6.945
 21
12.91
 31
0.0
  0
LINE
  5
7FF
330
18
100
AcDbEntity
  8
Object
100
AcDbLine
 10
7.020999999999999
 20
12.978
 30
0.0
 11
7.020999999999999
 21
12.966
 31
0.0
  0
LINE
  5
800
330
18
100
AcDbEntity
  8
Object
100
AcDbLine
 10
6.929999999999999
 20
12.853
 30
0.0
 11
6.929999999999999
 21
12.978
 31
0.0
  0
LINE
  5
801
330
18
100
AcDbEntity
  8
Object
100
AcDbLine
 10
7.31
 20
12.866
 30
0.0
 11
7.283999999999999
 21
12.853
 31
0.0
  0
LINE
  5
802
330
18
100
AcDbEntity
  8
Object
100
AcDbLine
 10
8.141999999999999
 20
12.908
 30
0.0
 11
8.141999999999999
 21
12.866
 31
0.0
  0
LINE
  5
803
330
18
100
AcDbEntity
  8
Object
100
AcDbLine
 10
8.115999999999999
 20
12.978
 30
0.0
 11
8.141999999999999
 21
12.965
 31
0.0
  0
LINE
  5
804
330
18
100
AcDbEntity
  8
Object
100
AcDbLine
 10
6.094999999999999
 20
12.966
 30
0.0
 11
6.094999999999999
 21
12.865
 31
0.0
  0
LINE
  5
805
330
18
100
AcDbEntity
  8
Object
100
AcDbLine
 10
6.185
 20
12.966
 30
0.0
 11
6.153999999999999
 21
12.966
 31
0.0
  0
LINE
  5
806
330
18
100
AcDbEntity
  8
Object
100
AcDbLine
 10
5.447
 20
12.964
 30
0.0
 11
5.447
 21
12.923
 31
0.0
  0
LINE
  5
807
330
18
100
AcDbEntity
  8
Object
100
AcDbLine
 10
7.698999999999999
 20
12.922
 30
0.0
 11
7.711999999999999
 21
12.914
 31
0.0
  0
LINE
  5
808
330
18
100
AcDbEntity
  8
Object
100
AcDbLine
 10
8.037
 20
12.923
 30
0.0
 11
8.037
 21
12.965
 31
0.0
  0
LINE
  5
809
330
18
100
AcDbEntity
  8
Object
100
AcDbLine
 10
5.509999999999999
 20
12.875
 30
0.0
 11
5.501
 21
12.853
 31
0.0
  0
LINE
  5
80A
330
18
100
AcDbEntity
  8
Object
100
AcDbLine
 10
5.419
 20
12.91
 30
0.0
 11
5.357
 21
12.91
 31
0.0
  0
LINE
  5
80B
330
18
100
AcDbEntity
  8
Object
100
AcDbLine
 10
7.905
 20
12.878
 30
0.0
 11
7.931
 21
12.865
 31
0.0
  0
LINE
  5
80C
330
18
100
AcDbEntity
  8
Object
100
AcDbLine
 10
7.419999999999999
 20
12.978
 30
0.0
 11
7.419999999999999
 21
12.966
 31
0.0
  0
LINE
  5
80D
330
18
100
AcDbEntity
  8
Object
100
AcDbLine
 10
6.945
 20
12.921
 30
0.0
 11
7.0
 21
12.921
 31
0.0
  0
LINE
  5
80E
330
18
100
AcDbEntity
  8
Object
100
AcDbLine
 10
7.461999999999999
 20
12.853
 30
0.0
 11
7.461999999999999
 21
12.978
 31
0.0
  0
LINE
  5
80F
330
18
100
AcDbEntity
  8
Object
100
AcDbLine
 10
8.141999999999999
 20
12.923
 30
0.0
 11
8.125999999999999
 21
12.915
 31
0.0
  0
LINE
  5
810
330
18
100
AcDbEntity
  8
Object
100
AcDbLine
 10
8.037
 20
12.866
 30
0.0
 11
8.037
 21
12.908
 31
0.0
  0
LINE
  5
811
330
18
100
AcDbEntity
  8
Object
100
AcDbLine
 10
6.097999999999999
 20
12.966
 30
0.0
 11
6.094999999999999
 21
12.966
 31
0.0
  0
LINE
  5
812
330
18
100
AcDbEntity
  8
Object
100
AcDbLine
 10
6.044
 20
12.978
 30
0.0
 11
6.044
 21
12.879
 31
0.0
  0
LINE
  5
813
330
18
100
AcDbEntity
  8
Object
100
AcDbLine
 10
7.889
 20
12.866
 30
0.0
 11
7.889
 21
12.888
 31
0.0
  0
LINE
  5
814
330
18
100
AcDbEntity
  8
Object
100
AcDbLine
 10
7.993999999999999
 20
12.866
 30
0.0
 11
7.967999999999999
 21
12.853
 31
0.0
  0
LINE
  5
815
330
18
100
AcDbEntity
  8
Object
100
AcDbLine
 10
7.230999999999999
 20
12.932
 30
0.0
 11
7.283999999999999
 21
12.932
 31
0.0
  0
LINE
  5
816
330
18
100
AcDbEntity
  8
Object
100
AcDbLine
 10
12.07
 20
11.618
 30
0.0
 11
12.07
 21
12.868
 31
0.0
  0
LINE
  5
817
330
18
100
AcDbEntity
  8
Object
100
AcDbLine
 10
2.444999999999999
 20
11.243
 30
0.0
 11
11.695
 21
11.243
 31
0.0
  0
LINE
  5
818
330
18
100
AcDbEntity
  8
Object
100
AcDbLine
 10
8.054999999999999
 20
12.103
 30
0.0
 11
4.591
 21
12.103
 31
0.0
  0
LINE
  5
819
330
18
100
AcDbEntity
  8
Object
100
AcDbLine
 10
5.657
 20
12.978
 30
0.0
 11
5.730999999999999
 21
12.881
 31
0.0
  0
LINE
  5
81A
330
18
100
AcDbEntity
  8
Object
100
AcDbLine
 10
5.730999999999999
 20
12.853
 30
0.0
 11
5.657
 21
12.949
 31
0.0
  0
LINE
  5
81B
330
18
100
AcDbEntity
  8
Object
100
AcDbLine
 10
7.692
 20
12.978
 30
0.0
 11
7.701
 21
12.966
 31
0.0
  0
LINE
  5
81C
330
18
100
AcDbEntity
  8
Object
100
AcDbLine
 10
7.246999999999999
 20
12.966
 30
0.0
 11
7.221
 21
12.953
 31
0.0
  0
LINE
  5
81D
330
18
100
AcDbEntity
  8
Object
100
AcDbLine
 10
7.567
 20
12.964
 30
0.0
 11
7.567
 21
12.923
 31
0.0
  0
LINE
  5
81E
330
18
100
AcDbEntity
  8
Object
100
AcDbLine
 10
7.477
 20
12.91
 30
0.0
 11
7.477
 21
12.853
 31
0.0
  0
LINE
  5
81F
330
18
100
AcDbEntity
  8
Object
100
AcDbLine
 10
7.836
 20
12.853
 30
0.0
 11
7.762
 21
12.949
 31
0.0
  0
LINE
  5
820
330
18
100
AcDbEntity
  8
Object
100
AcDbLine
 10
8.037
 20
12.908
 30
0.0
 11
8.051999999999999
 21
12.915
 31
0.0
  0
LINE
  5
821
330
18
100
AcDbEntity
  8
Object
100
AcDbLine
 10
8.141999999999999
 20
12.866
 30
0.0
 11
8.115999999999999
 21
12.853
 31
0.0
  0
LINE
  5
822
330
18
100
AcDbEntity
  8
Object
100
AcDbLine
 10
5.592
 20
12.853
 30
0.0
 11
5.575
 21
12.853
 31
0.0
  0
LINE
  5
823
330
18
100
AcDbEntity
  8
Object
100
AcDbLine
 10
6.088
 20
12.865
 30
0.0
 11
6.088
 21
12.966
 31
0.0
  0
LINE
  5
824
330
18
100
AcDbEntity
  8
Object
100
AcDbLine
 10
6.086
 20
12.853
 30
0.0
 11
6.086
 21
12.865
 31
0.0
  0
LINE
  5
825
330
18
100
AcDbEntity
  8
Object
100
AcDbLine
 10
6.153999999999999
 20
12.966
 30
0.0
 11
6.153999999999999
 21
12.978
 31
0.0
  0
LINE
  5
826
330
18
100
AcDbEntity
  8
Object
100
AcDbLine
 10
6.02
 20
12.853
 30
0.0
 11
5.963
 21
12.853
 31
0.0
  0
LINE
  5
827
330
18
100
AcDbEntity
  8
Object
100
AcDbLine
 10
7.889
 20
12.888
 30
0.0
 11
7.905
 21
12.888
 31
0.0
  0
LINE
  5
828
330
18
100
AcDbEntity
  8
Object
100
AcDbLine
 10
7.477
 20
12.853
 30
0.0
 11
7.461999999999999
 21
12.853
 31
0.0
  0
LINE
  5
829
330
18
100
AcDbEntity
  8
Object
100
AcDbLine
 10
7.762
 20
12.853
 30
0.0
 11
7.746999999999999
 21
12.853
 31
0.0
  0
LINE
  5
82A
330
18
100
AcDbEntity
  8
Object
100
AcDbLine
 10
6.097999999999999
 20
12.966
 30
0.0
 11
6.097999999999999
 21
12.978
 31
0.0
  0
LINE
  5
82B
330
18
100
AcDbEntity
  8
Object
100
AcDbLine
 10
6.097999999999999
 20
12.978
 30
0.0
 11
6.086
 21
12.978
 31
0.0
  0
LINE
  5
82C
330
18
100
AcDbEntity
  8
Object
100
AcDbLine
 10
6.23
 20
12.966
 30
0.0
 11
6.198
 21
12.966
 31
0.0
  0
LINE
  5
82D
330
18
100
AcDbEntity
  8
Object
100
AcDbLine
 10
5.642
 20
12.853
 30
0.0
 11
5.642
 21
12.978
 31
0.0
  0
LINE
  5
82E
330
18
100
AcDbEntity
  8
Object
100
AcDbLine
 10
7.953999999999999
 20
12.865
 30
0.0
 11
7.979
 21
12.878
 31
0.0
  0
LINE
  5
82F
330
18
100
AcDbEntity
  8
Object
100
AcDbLine
 10
7.27
 20
12.865
 30
0.0
 11
7.294999999999999
 21
12.878
 31
0.0
  0
LINE
  5
830
330
18
100
AcDbEntity
  8
Object
100
AcDbLine
 10
7.246999999999999
 20
12.921
 30
0.0
 11
7.221
 21
12.908
 31
0.0
  0
LINE
  5
831
330
18
100
AcDbEntity
  8
Object
100
AcDbLine
 10
7.221
 20
12.878
 30
0.0
 11
7.246999999999999
 21
12.865
 31
0.0
  0
LINE
  5
832
330
18
100
AcDbEntity
  8
Object
100
AcDbLine
 10
7.246999999999999
 20
12.865
 30
0.0
 11
7.27
 21
12.865
 31
0.0
  0
LINE
  5
833
330
18
100
AcDbEntity
  8
Object
100
AcDbLine
 10
7.221
 20
12.908
 30
0.0
 11
7.221
 21
12.878
 31
0.0
  0
LINE
  5
834
330
18
100
AcDbEntity
  8
Object
100
AcDbLine
 10
7.294999999999999
 20
12.878
 30
0.0
 11
7.294999999999999
 21
12.908
 31
0.0
  0
LINE
  5
835
330
18
100
AcDbEntity
  8
Object
100
AcDbLine
 10
7.246999999999999
 20
12.921
 30
0.0
 11
7.27
 21
12.921
 31
0.0
  0
LINE
  5
836
330
18
100
AcDbEntity
  8
Object
100
AcDbLine
 10
7.27
 20
12.921
 30
0.0
 11
7.294999999999999
 21
12.908
 31
0.0
  0
LINE
  5
837
330
18
100
AcDbEntity
  8
Object
100
AcDbLine
 10
7.477
 20
12.966
 30
0.0
 11
7.477
 21
12.921
 31
0.0
  0
LINE
  5
838
330
18
100
AcDbEntity
  8
Object
100
AcDbLine
 10
7.551
 20
12.953
 30
0.0
 11
7.525
 21
12.966
 31
0.0
  0
LINE
  5
839
330
18
100
AcDbEntity
  8
Object
100
AcDbLine
 10
7.525
 20
12.921
 30
0.0
 11
7.551
 21
12.935
 31
0.0
  0
LINE
  5
83A
330
18
100
AcDbEntity
  8
Object
100
AcDbLine
 10
7.525
 20
12.966
 30
0.0
 11
7.477
 21
12.966
 31
0.0
  0
LINE
  5
83B
330
18
100
AcDbEntity
  8
Object
100
AcDbLine
 10
7.551
 20
12.935
 30
0.0
 11
7.551
 21
12.953
 31
0.0
  0
LINE
  5
83C
330
18
100
AcDbEntity
  8
Object
100
AcDbLine
 10
7.477
 20
12.921
 30
0.0
 11
7.525
 21
12.921
 31
0.0
  0
LINE
  5
83D
330
18
100
AcDbEntity
  8
Object
100
AcDbLine
 10
7.685999999999999
 20
12.934
 30
0.0
 11
7.685999999999999
 21
12.96
 31
0.0
  0
LINE
  5
83E
330
18
100
AcDbEntity
  8
Object
100
AcDbLine
 10
7.697
 20
12.875
 30
0.0
 11
7.697
 21
12.904
 31
0.0
  0
LINE
  5
83F
330
18
100
AcDbEntity
  8
Object
100
AcDbLine
 10
7.623
 20
12.926
 30
0.0
 11
7.679999999999999
 21
12.926
 31
0.0
  0
LINE
  5
840
330
18
100
AcDbEntity
  8
Object
100
AcDbLine
 10
7.623
 20
12.865
 30
0.0
 11
7.679
 21
12.865
 31
0.0
  0
LINE
  5
841
330
18
100
AcDbEntity
  8
Object
100
AcDbLine
 10
7.697
 20
12.904
 30
0.0
 11
7.679
 21
12.915
 31
0.0
  0
LINE
  5
842
330
18
100
AcDbEntity
  8
Object
100
AcDbLine
 10
7.679999999999999
 20
12.966
 30
0.0
 11
7.623
 21
12.966
 31
0.0
  0
LINE
  5
843
330
18
100
AcDbEntity
  8
Object
100
AcDbLine
 10
7.679999999999999
 20
12.926
 30
0.0
 11
7.685999999999999
 21
12.934
 31
0.0
  0
LINE
  5
844
330
18
100
AcDbEntity
  8
Object
100
AcDbLine
 10
7.679
 20
12.865
 30
0.0
 11
7.697
 21
12.875
 31
0.0
  0
LINE
  5
845
330
18
100
AcDbEntity
  8
Object
100
AcDbLine
 10
7.623
 20
12.915
 30
0.0
 11
7.623
 21
12.865
 31
0.0
  0
LINE
  5
846
330
18
100
AcDbEntity
  8
Object
100
AcDbLine
 10
7.623
 20
12.966
 30
0.0
 11
7.623
 21
12.926
 31
0.0
  0
LINE
  5
847
330
18
100
AcDbEntity
  8
Object
100
AcDbLine
 10
7.685999999999999
 20
12.96
 30
0.0
 11
7.679999999999999
 21
12.966
 31
0.0
  0
LINE
  5
848
330
18
100
AcDbEntity
  8
Object
100
AcDbLine
 10
7.679
 20
12.915
 30
0.0
 11
7.623
 21
12.915
 31
0.0
  0
LINE
  5
849
330
18
100
AcDbEntity
  8
Object
100
AcDbLine
 10
5.512999999999999
 20
12.887
 30
0.0
 11
5.538999999999999
 21
12.954
 31
0.0
  0
LINE
  5
84A
330
18
100
AcDbEntity
  8
Object
100
AcDbLine
 10
5.538999999999999
 20
12.954
 30
0.0
 11
5.562999999999999
 21
12.887
 31
0.0
  0
LINE
  5
84B
330
18
100
AcDbEntity
  8
Object
100
AcDbLine
 10
5.562999999999999
 20
12.887
 30
0.0
 11
5.512999999999999
 21
12.887
 31
0.0
  0
LINE
  5
84C
330
18
100
AcDbEntity
  8
Object
100
AcDbLine
 10
5.881
 20
12.939
 30
0.0
 11
5.855999999999999
 21
12.966
 31
0.0
  0
LINE
  5
84D
330
18
100
AcDbEntity
  8
Object
100
AcDbLine
 10
5.855999999999999
 20
12.865
 30
0.0
 11
5.881
 21
12.892
 31
0.0
  0
LINE
  5
84E
330
18
100
AcDbEntity
  8
Object
100
AcDbLine
 10
5.807
 20
12.966
 30
0.0
 11
5.807
 21
12.865
 31
0.0
  0
LINE
  5
84F
330
18
100
AcDbEntity
  8
Object
100
AcDbLine
 10
5.807
 20
12.865
 30
0.0
 11
5.855999999999999
 21
12.865
 31
0.0
  0
LINE
  5
850
330
18
100
AcDbEntity
  8
Object
100
AcDbLine
 10
5.881
 20
12.892
 30
0.0
 11
5.881
 21
12.939
 31
0.0
  0
LINE
  5
851
330
18
100
AcDbEntity
  8
Object
100
AcDbLine
 10
5.855999999999999
 20
12.966
 30
0.0
 11
5.807
 21
12.966
 31
0.0
  0
LINE
  5
852
330
18
100
AcDbEntity
  8
Object
100
AcDbLine
 10
5.357
 20
12.966
 30
0.0
 11
5.357
 21
12.921
 31
0.0
  0
LINE
  5
853
330
18
100
AcDbEntity
  8
Object
100
AcDbLine
 10
5.431
 20
12.953
 30
0.0
 11
5.405
 21
12.966
 31
0.0
  0
LINE
  5
854
330
18
100
AcDbEntity
  8
Object
100
AcDbLine
 10
5.405
 20
12.966
 30
0.0
 11
5.357
 21
12.966
 31
0.0
  0
LINE
  5
855
330
18
100
AcDbEntity
  8
Object
100
AcDbLine
 10
5.405
 20
12.921
 30
0.0
 11
5.431
 21
12.935
 31
0.0
  0
LINE
  5
856
330
18
100
AcDbEntity
  8
Object
100
AcDbLine
 10
5.431
 20
12.935
 30
0.0
 11
5.431
 21
12.953
 31
0.0
  0
LINE
  5
857
330
18
100
AcDbEntity
  8
Object
100
AcDbLine
 10
5.357
 20
12.921
 30
0.0
 11
5.405
 21
12.921
 31
0.0
  0
LINE
  5
858
330
18
100
AcDbEntity
  8
Object
100
AcDbLine
 10
8.125999999999999
 20
12.953
 30
0.0
 11
8.101
 21
12.966
 31
0.0
  0
LINE
  5
859
330
18
100
AcDbEntity
  8
Object
100
AcDbLine
 10
8.079
 20
12.966
 30
0.0
 11
8.051999999999999
 21
12.953
 31
0.0
  0
LINE
  5
85A
330
18
100
AcDbEntity
  8
Object
100
AcDbLine
 10
8.101
 20
12.91
 30
0.0
 11
8.079
 21
12.91
 31
0.0
  0
LINE
  5
85B
330
18
100
AcDbEntity
  8
Object
100
AcDbLine
 10
8.125999999999999
 20
12.878
 30
0.0
 11
8.125999999999999
 21
12.897
 31
0.0
  0
LINE
  5
85C
330
18
100
AcDbEntity
  8
Object
100
AcDbLine
 10
8.079
 20
12.91
 30
0.0
 11
8.051999999999999
 21
12.897
 31
0.0
  0
LINE
  5
85D
330
18
100
AcDbEntity
  8
Object
100
AcDbLine
 10
8.125999999999999
 20
12.897
 30
0.0
 11
8.101
 21
12.91
 31
0.0
  0
LINE
  5
85E
330
18
100
AcDbEntity
  8
Object
100
AcDbLine
 10
8.051999999999999
 20
12.878
 30
0.0
 11
8.079
 21
12.865
 31
0.0
  0
LINE
  5
85F
330
18
100
AcDbEntity
  8
Object
100
AcDbLine
 10
8.101
 20
12.921
 30
0.0
 11
8.125999999999999
 21
12.934
 31
0.0
  0
LINE
  5
860
330
18
100
AcDbEntity
  8
Object
100
AcDbLine
 10
8.101
 20
12.865
 30
0.0
 11
8.125999999999999
 21
12.878
 31
0.0
  0
LINE
  5
861
330
18
100
AcDbEntity
  8
Object
100
AcDbLine
 10
8.125999999999999
 20
12.934
 30
0.0
 11
8.125999999999999
 21
12.953
 31
0.0
  0
LINE
  5
862
330
18
100
AcDbEntity
  8
Object
100
AcDbLine
 10
8.079
 20
12.865
 30
0.0
 11
8.101
 21
12.865
 31
0.0
  0
LINE
  5
863
330
18
100
AcDbEntity
  8
Object
100
AcDbLine
 10
8.079
 20
12.921
 30
0.0
 11
8.101
 21
12.921
 31
0.0
  0
LINE
  5
864
330
18
100
AcDbEntity
  8
Object
100
AcDbLine
 10
8.051999999999999
 20
12.897
 30
0.0
 11
8.051999999999999
 21
12.878
 31
0.0
  0
LINE
  5
865
330
18
100
AcDbEntity
  8
Object
100
AcDbLine
 10
8.051999999999999
 20
12.953
 30
0.0
 11
8.051999999999999
 21
12.934
 31
0.0
  0
LINE
  5
866
330
18
100
AcDbEntity
  8
Object
100
AcDbLine
 10
8.101
 20
12.966
 30
0.0
 11
8.079
 21
12.966
 31
0.0
  0
LINE
  5
867
330
18
100
AcDbEntity
  8
Object
100
AcDbLine
 10
8.051999999999999
 20
12.934
 30
0.0
 11
8.079
 21
12.921
 31
0.0
  0
LINE
  5
868
330
18
100
AcDbEntity
  8
Object
100
AcDbLine
 10
7.27
 20
12.865
 30
0.0
 11
7.294999999999999
 21
12.878
 31
0.0
  0
LINE
  5
869
330
18
100
AcDbEntity
  8
Object
100
AcDbLine
 10
7.294999999999999
 20
12.878
 30
0.0
 11
7.294999999999999
 21
12.908
 31
0.0
  0
LINE
  5
86A
330
18
100
AcDbEntity
  8
Object
100
AcDbLine
 10
7.294999999999999
 20
12.908
 30
0.0
 11
7.27
 21
12.921
 31
0.0
  0
LINE
  5
86B
330
18
100
AcDbEntity
  8
Object
100
AcDbLine
 10
7.27
 20
12.921
 30
0.0
 11
7.246999999999999
 21
12.921
 31
0.0
  0
LINE
  5
86C
330
18
100
AcDbEntity
  8
Object
100
AcDbLine
 10
7.27
 20
12.865
 30
0.0
 11
7.246999999999999
 21
12.865
 31
0.0
  0
LINE
  5
86D
330
18
100
AcDbEntity
  8
Object
100
AcDbLine
 10
7.246999999999999
 20
12.865
 30
0.0
 11
7.221
 21
12.878
 31
0.0
  0
LINE
  5
86E
330
18
100
AcDbEntity
  8
Object
100
AcDbLine
 10
7.221
 20
12.878
 30
0.0
 11
7.221
 21
12.908
 31
0.0
  0
LINE
  5
86F
330
18
100
AcDbEntity
  8
Object
100
AcDbLine
 10
7.221
 20
12.908
 30
0.0
 11
7.246999999999999
 21
12.921
 31
0.0
  0
LINE
  5
870
330
18
100
AcDbEntity
  8
Object
100
AcDbLine
 10
7.525
 20
12.921
 30
0.0
 11
7.551
 21
12.935
 31
0.0
  0
LINE
  5
871
330
18
100
AcDbEntity
  8
Object
100
AcDbLine
 10
7.525
 20
12.966
 30
0.0
 11
7.551
 21
12.953
 31
0.0
  0
LINE
  5
872
330
18
100
AcDbEntity
  8
Object
100
AcDbLine
 10
7.551
 20
12.953
 30
0.0
 11
7.551
 21
12.935
 31
0.0
  0
LINE
  5
873
330
18
100
AcDbEntity
  8
Object
100
AcDbLine
 10
7.525
 20
12.921
 30
0.0
 11
7.477
 21
12.921
 31
0.0
  0
LINE
  5
874
330
18
100
AcDbEntity
  8
Object
100
AcDbLine
 10
7.477
 20
12.921
 30
0.0
 11
7.477
 21
12.966
 31
0.0
  0
LINE
  5
875
330
18
100
AcDbEntity
  8
Object
100
AcDbLine
 10
7.477
 20
12.966
 30
0.0
 11
7.525
 21
12.966
 31
0.0
  0
LINE
  5
876
330
18
100
AcDbEntity
  8
Object
100
AcDbLine
 10
7.679999999999999
 20
12.966
 30
0.0
 11
7.685999999999999
 21
12.96
 31
0.0
  0
LINE
  5
877
330
18
100
AcDbEntity
  8
Object
100
AcDbLine
 10
7.685999999999999
 20
12.96
 30
0.0
 11
7.685999999999999
 21
12.934
 31
0.0
  0
LINE
  5
878
330
18
100
AcDbEntity
  8
Object
100
AcDbLine
 10
7.685999999999999
 20
12.934
 30
0.0
 11
7.679999999999999
 21
12.926
 31
0.0
  0
LINE
  5
879
330
18
100
AcDbEntity
  8
Object
100
AcDbLine
 10
7.679999999999999
 20
12.926
 30
0.0
 11
7.623
 21
12.926
 31
0.0
  0
LINE
  5
87A
330
18
100
AcDbEntity
  8
Object
100
AcDbLine
 10
7.623
 20
12.926
 30
0.0
 11
7.623
 21
12.966
 31
0.0
  0
LINE
  5
87B
330
18
100
AcDbEntity
  8
Object
100
AcDbLine
 10
7.623
 20
12.966
 30
0.0
 11
7.679999999999999
 21
12.966
 31
0.0
  0
LINE
  5
87C
330
18
100
AcDbEntity
  8
Object
100
AcDbLine
 10
7.679
 20
12.915
 30
0.0
 11
7.697
 21
12.904
 31
0.0
  0
LINE
  5
87D
330
18
100
AcDbEntity
  8
Object
100
AcDbLine
 10
7.697
 20
12.904
 30
0.0
 11
7.697
 21
12.875
 31
0.0
  0
LINE
  5
87E
330
18
100
AcDbEntity
  8
Object
100
AcDbLine
 10
7.697
 20
12.875
 30
0.0
 11
7.679
 21
12.865
 31
0.0
  0
LINE
  5
87F
330
18
100
AcDbEntity
  8
Object
100
AcDbLine
 10
7.679
 20
12.865
 30
0.0
 11
7.623
 21
12.865
 31
0.0
  0
LINE
  5
880
330
18
100
AcDbEntity
  8
Object
100
AcDbLine
 10
7.623
 20
12.865
 30
0.0
 11
7.623
 21
12.915
 31
0.0
  0
LINE
  5
881
330
18
100
AcDbEntity
  8
Object
100
AcDbLine
 10
7.623
 20
12.915
 30
0.0
 11
7.679
 21
12.915
 31
0.0
  0
LINE
  5
882
330
18
100
AcDbEntity
  8
Object
100
AcDbLine
 10
5.538999999999999
 20
12.954
 30
0.0
 11
5.562999999999999
 21
12.887
 31
0.0
  0
LINE
  5
883
330
18
100
AcDbEntity
  8
Object
100
AcDbLine
 10
5.562999999999999
 20
12.887
 30
0.0
 11
5.512999999999999
 21
12.887
 31
0.0
  0
LINE
  5
884
330
18
100
AcDbEntity
  8
Object
100
AcDbLine
 10
5.512999999999999
 20
12.887
 30
0.0
 11
5.538999999999999
 21
12.954
 31
0.0
  0
LINE
  5
885
330
18
100
AcDbEntity
  8
Object
100
AcDbLine
 10
5.855999999999999
 20
12.966
 30
0.0
 11
5.881
 21
12.939
 31
0.0
  0
LINE
  5
886
330
18
100
AcDbEntity
  8
Object
100
AcDbLine
 10
5.881
 20
12.939
 30
0.0
 11
5.881
 21
12.892
 31
0.0
  0
LINE
  5
887
330
18
100
AcDbEntity
  8
Object
100
AcDbLine
 10
5.881
 20
12.892
 30
0.0
 11
5.855999999999999
 21
12.865
 31
0.0
  0
LINE
  5
888
330
18
100
AcDbEntity
  8
Object
100
AcDbLine
 10
5.855999999999999
 20
12.865
 30
0.0
 11
5.807
 21
12.865
 31
0.0
  0
LINE
  5
889
330
18
100
AcDbEntity
  8
Object
100
AcDbLine
 10
5.807
 20
12.865
 30
0.0
 11
5.807
 21
12.966
 31
0.0
  0
LINE
  5
88A
330
18
100
AcDbEntity
  8
Object
100
AcDbLine
 10
5.807
 20
12.966
 30
0.0
 11
5.855999999999999
 21
12.966
 31
0.0
  0
LINE
  5
88B
330
18
100
AcDbEntity
  8
Object
100
AcDbLine
 10
5.405
 20
12.921
 30
0.0
 11
5.431
 21
12.935
 31
0.0
  0
LINE
  5
88C
330
18
100
AcDbEntity
  8
Object
100
AcDbLine
 10
5.405
 20
12.966
 30
0.0
 11
5.431
 21
12.953
 31
0.0
  0
LINE
  5
88D
330
18
100
AcDbEntity
  8
Object
100
AcDbLine
 10
5.431
 20
12.953
 30
0.0
 11
5.431
 21
12.935
 31
0.0
  0
LINE
  5
88E
330
18
100
AcDbEntity
  8
Object
100
AcDbLine
 10
5.405
 20
12.966
 30
0.0
 11
5.357
 21
12.966
 31
0.0
  0
LINE
  5
88F
330
18
100
AcDbEntity
  8
Object
100
AcDbLine
 10
5.357
 20
12.966
 30
0.0
 11
5.357
 21
12.921
 31
0.0
  0
LINE
  5
890
330
18
100
AcDbEntity
  8
Object
100
AcDbLine
 10
5.357
 20
12.921
 30
0.0
 11
5.405
 21
12.921
 31
0.0
  0
LINE
  5
891
330
18
100
AcDbEntity
  8
Object
100
AcDbLine
 10
8.101
 20
12.966
 30
0.0
 11
8.125999999999999
 21
12.953
 31
0.0
  0
LINE
  5
892
330
18
100
AcDbEntity
  8
Object
100
AcDbLine
 10
8.125999999999999
 20
12.953
 30
0.0
 11
8.125999999999999
 21
12.934
 31
0.0
  0
LINE
  5
893
330
18
100
AcDbEntity
  8
Object
100
AcDbLine
 10
8.125999999999999
 20
12.934
 30
0.0
 11
8.101
 21
12.921
 31
0.0
  0
LINE
  5
894
330
18
100
AcDbEntity
  8
Object
100
AcDbLine
 10
8.101
 20
12.921
 30
0.0
 11
8.079
 21
12.921
 31
0.0
  0
LINE
  5
895
330
18
100
AcDbEntity
  8
Object
100
AcDbLine
 10
8.101
 20
12.966
 30
0.0
 11
8.079
 21
12.966
 31
0.0
  0
LINE
  5
896
330
18
100
AcDbEntity
  8
Object
100
AcDbLine
 10
8.079
 20
12.921
 30
0.0
 11
8.051999999999999
 21
12.934
 31
0.0
  0
LINE
  5
897
330
18
100
AcDbEntity
  8
Object
100
AcDbLine
 10
8.051999999999999
 20
12.934
 30
0.0
 11
8.051999999999999
 21
12.953
 31
0.0
  0
LINE
  5
898
330
18
100
AcDbEntity
  8
Object
100
AcDbLine
 10
8.051999999999999
 20
12.953
 30
0.0
 11
8.079
 21
12.966
 31
0.0
  0
LINE
  5
899
330
18
100
AcDbEntity
  8
Object
100
AcDbLine
 10
8.101
 20
12.91
 30
0.0
 11
8.125999999999999
 21
12.897
 31
0.0
  0
LINE
  5
89A
330
18
100
AcDbEntity
  8
Object
100
AcDbLine
 10
8.125999999999999
 20
12.897
 30
0.0
 11
8.125999999999999
 21
12.878
 31
0.0
  0
LINE
  5
89B
330
18
100
AcDbEntity
  8
Object
100
AcDbLine
 10
8.125999999999999
 20
12.878
 30
0.0
 11
8.101
 21
12.865
 31
0.0
  0
LINE
  5
89C
330
18
100
AcDbEntity
  8
Object
100
AcDbLine
 10
8.101
 20
12.865
 30
0.0
 11
8.079
 21
12.865
 31
0.0
  0
LINE
  5
89D
330
18
100
AcDbEntity
  8
Object
100
AcDbLine
 10
8.101
 20
12.91
 30
0.0
 11
8.079
 21
12.91
 31
0.0
  0
LINE
  5
89E
330
18
100
AcDbEntity
  8
Object
100
AcDbLine
 10
8.079
 20
12.91
 30
0.0
 11
8.051999999999999
 21
12.897
 31
0.0
  0
LINE
  5
89F
330
18
100
AcDbEntity
  8
Object
100
AcDbLine
 10
8.079
 20
12.865
 30
0.0
 11
8.051999999999999
 21
12.878
 31
0.0
  0
LINE
  5
8A0
330
18
100
AcDbEntity
  8
Object
100
AcDbLine
 10
8.051999999999999
 20
12.878
 30
0.0
 11
8.051999999999999
 21
12.897
 31
0.0
  0
LINE
  5
8A1
330
18
100
AcDbEntity
  8
Object
100
AcDbLine
 10
4.932999999999999
 20
12.021
 30
0.0
 11
4.924999999999999
 21
12.021
 31
0.0
  0
LINE
  5
8A2
330
18
100
AcDbEntity
  8
Object
100
AcDbLine
 10
4.924999999999999
 20
12.021
 30
0.0
 11
4.761
 21
12.021
 31
0.0
  0
LINE
  5
8A3
330
18
100
AcDbEntity
  8
Object
100
AcDbLine
 10
4.761
 20
12.021
 30
0.0
 11
4.730999999999999
 21
12.021
 31
0.0
  0
LINE
  5
8A4
330
18
100
AcDbEntity
  8
Object
100
AcDbLine
 10
4.730999999999999
 20
12.021
 30
0.0
 11
4.705
 21
12.021
 31
0.0
  0
LINE
  5
8A5
330
18
100
AcDbEntity
  8
Object
100
AcDbLine
 10
4.705
 20
12.021
 30
0.0
 11
4.687999999999999
 21
12.021
 31
0.0
  0
LINE
  5
8A6
330
18
100
AcDbEntity
  8
Object
100
AcDbLine
 10
4.687999999999999
 20
12.021
 30
0.0
 11
4.681
 21
12.021
 31
0.0
  0
LINE
  5
8A7
330
18
100
AcDbEntity
  8
Object
100
AcDbLine
 10
4.681
 20
12.021
 30
0.0
 11
4.679
 21
12.021
 31
0.0
  0
LINE
  5
8A8
330
18
100
AcDbEntity
  8
Object
100
AcDbLine
 10
4.679
 20
12.021
 30
0.0
 11
4.673
 21
12.021
 31
0.0
  0
LINE
  5
8A9
330
18
100
AcDbEntity
  8
Object
100
AcDbLine
 10
4.673
 20
12.021
 30
0.0
 11
4.666
 21
12.021
 31
0.0
  0
LINE
  5
8AA
330
18
100
AcDbEntity
  8
Object
100
AcDbLine
 10
4.666
 20
12.021
 30
0.0
 11
4.615999999999999
 21
12.021
 31
0.0
  0
LINE
  5
8AB
330
18
100
AcDbEntity
  8
Object
100
AcDbLine
 10
4.932999999999999
 20
11.618
 30
0.0
 11
4.924999999999999
 21
11.618
 31
0.0
  0
LINE
  5
8AC
330
18
100
AcDbEntity
  8
Object
100
AcDbLine
 10
4.924999999999999
 20
11.618
 30
0.0
 11
4.761
 21
11.618
 31
0.0
  0
LINE
  5
8AD
330
18
100
AcDbEntity
  8
Object
100
AcDbLine
 10
4.761
 20
11.618
 30
0.0
 11
4.730999999999999
 21
11.618
 31
0.0
  0
LINE
  5
8AE
330
18
100
AcDbEntity
  8
Object
100
AcDbLine
 10
4.730999999999999
 20
11.618
 30
0.0
 11
4.705
 21
11.618
 31
0.0
  0
LINE
  5
8AF
330
18
100
AcDbEntity
  8
Object
100
AcDbLine
 10
4.705
 20
11.618
 30
0.0
 11
4.687999999999999
 21
11.618
 31
0.0
  0
LINE
  5
8B0
330
18
100
AcDbEntity
  8
Object
100
AcDbLine
 10
4.687999999999999
 20
11.618
 30
0.0
 11
4.681
 21
11.618
 31
0.0
  0
LINE
  5
8B1
330
18
100
AcDbEntity
  8
Object
100
AcDbLine
 10
4.681
 20
11.618
 30
0.0
 11
4.679
 21
11.618
 31
0.0
  0
LINE
  5
8B2
330
18
100
AcDbEntity
  8
Object
100
AcDbLine
 10
4.679
 20
11.618
 30
0.0
 11
4.673
 21
11.618
 31
0.0
  0
LINE
  5
8B3
330
18
100
AcDbEntity
  8
Object
100
AcDbLine
 10
4.673
 20
11.618
 30
0.0
 11
4.666
 21
11.618
 31
0.0
  0
LINE
  5
8B4
330
18
100
AcDbEntity
  8
Object
100
AcDbLine
 10
4.666
 20
11.618
 30
0.0
 11
4.158999999999999
 21
11.618
 31
0.0
  0
LINE
  5
8B5
330
18
100
AcDbEntity
  8
Object
100
AcDbLine
 10
4.972999999999999
 20
11.981
 30
0.0
 11
4.967999999999999
 21
12.001
 31
0.0
  0
LINE
  5
8B6
330
18
100
AcDbEntity
  8
Object
100
AcDbLine
 10
4.967999999999999
 20
12.001
 30
0.0
 11
4.953
 21
12.015
 31
0.0
  0
LINE
  5
8B7
330
18
100
AcDbEntity
  8
Object
100
AcDbLine
 10
4.953
 20
11.623
 30
0.0
 11
4.967999999999999
 21
11.638
 31
0.0
  0
LINE
  5
8B8
330
18
100
AcDbEntity
  8
Object
100
AcDbLine
 10
4.967999999999999
 20
11.638
 30
0.0
 11
4.972999999999999
 21
11.658
 31
0.0
  0
LINE
  5
8B9
330
18
100
AcDbEntity
  8
Object
100
AcDbLine
 10
4.972999999999999
 20
11.658
 30
0.0
 11
4.972999999999999
 21
11.981
 31
0.0
  0
LINE
  5
8BA
330
18
100
AcDbEntity
  8
Object
100
AcDbLine
 10
4.666
 20
12.868
 30
0.0
 11
4.666
 21
12.465
 31
0.0
  0
LINE
  5
8BB
330
18
100
AcDbEntity
  8
Object
100
AcDbLine
 10
4.666
 20
12.465
 30
0.0
 11
4.615999999999999
 21
12.465
 31
0.0
  0
LINE
  5
8BC
330
18
100
AcDbEntity
  8
Object
100
AcDbLine
 10
4.615999999999999
 20
12.021
 30
0.0
 11
4.666
 21
12.021
 31
0.0
  0
LINE
  5
8BD
330
18
100
AcDbEntity
  8
Object
100
AcDbLine
 10
4.666
 20
12.021
 30
0.0
 11
4.666
 21
11.618
 31
0.0
  0
LINE
  5
8BE
330
18
100
AcDbEntity
  8
Object
100
AcDbLine
 10
4.592999999999999
 20
12.459
 30
0.0
 11
4.615999999999999
 21
12.465
 31
0.0
  0
LINE
  5
8BF
330
18
100
AcDbEntity
  8
Object
100
AcDbLine
 10
4.615999999999999
 20
12.021
 30
0.0
 11
4.592999999999999
 21
12.027
 31
0.0
  0
LINE
  5
8C0
330
18
100
AcDbEntity
  8
Object
100
AcDbLine
 10
4.592999999999999
 20
12.381
 30
0.0
 11
4.615999999999999
 21
12.375
 31
0.0
  0
LINE
  5
8C1
330
18
100
AcDbEntity
  8
Object
100
AcDbLine
 10
4.615999999999999
 20
12.375
 30
0.0
 11
4.636
 21
12.375
 31
0.0
  0
LINE
  5
8C2
330
18
100
AcDbEntity
  8
Object
100
AcDbLine
 10
4.636
 20
12.375
 30
0.0
 11
4.636
 21
12.111
 31
0.0
  0
LINE
  5
8C3
330
18
100
AcDbEntity
  8
Object
100
AcDbLine
 10
4.636
 20
12.111
 30
0.0
 11
4.615999999999999
 21
12.111
 31
0.0
  0
LINE
  5
8C4
330
18
100
AcDbEntity
  8
Object
100
AcDbLine
 10
4.615999999999999
 20
12.111
 30
0.0
 11
4.592999999999999
 21
12.105
 31
0.0
  0
LINE
  5
8C5
330
18
100
AcDbEntity
  8
Object
100
AcDbLine
 10
4.592999999999999
 20
12.381
 30
0.0
 11
4.576999999999999
 21
12.397
 31
0.0
  0
LINE
  5
8C6
330
18
100
AcDbEntity
  8
Object
100
AcDbLine
 10
4.576999999999999
 20
12.088
 30
0.0
 11
4.592999999999999
 21
12.105
 31
0.0
  0
LINE
  5
8C7
330
18
100
AcDbEntity
  8
Object
100
AcDbLine
 10
4.576999999999999
 20
12.397
 30
0.0
 11
4.570999999999999
 21
12.42
 31
0.0
  0
LINE
  5
8C8
330
18
100
AcDbEntity
  8
Object
100
AcDbLine
 10
4.570999999999999
 20
12.066
 30
0.0
 11
4.576999999999999
 21
12.088
 31
0.0
  0
LINE
  5
8C9
330
18
100
AcDbEntity
  8
Object
100
AcDbLine
 10
4.570999999999999
 20
12.42
 30
0.0
 11
4.576999999999999
 21
12.442
 31
0.0
  0
LINE
  5
8CA
330
18
100
AcDbEntity
  8
Object
100
AcDbLine
 10
4.576999999999999
 20
12.043
 30
0.0
 11
4.570999999999999
 21
12.066
 31
0.0
  0
LINE
  5
8CB
330
18
100
AcDbEntity
  8
Object
100
AcDbLine
 10
4.576999999999999
 20
12.442
 30
0.0
 11
4.592999999999999
 21
12.459
 31
0.0
  0
LINE
  5
8CC
330
18
100
AcDbEntity
  8
Object
100
AcDbLine
 10
4.592999999999999
 20
12.027
 30
0.0
 11
4.576999999999999
 21
12.043
 31
0.0
  0
LINE
  5
8CD
330
18
100
AcDbEntity
  8
Object
100
AcDbLine
 10
4.666
 20
12.868
 30
0.0
 11
4.158999999999999
 21
12.868
 31
0.0
  0
LINE
  5
8CE
330
18
100
AcDbEntity
  8
Object
100
AcDbLine
 10
4.158999999999999
 20
11.618
 30
0.0
 11
4.666
 21
11.618
 31
0.0
  0
LINE
  5
8CF
330
18
100
AcDbEntity
  8
Object
100
AcDbLine
 10
4.084999999999999
 20
12.844
 30
0.0
 11
4.057999999999999
 21
12.816
 31
0.0
  0
LINE
  5
8D0
330
18
100
AcDbEntity
  8
Object
100
AcDbLine
 10
4.033999999999999
 20
12.743
 30
0.0
 11
4.04
 21
12.781
 31
0.0
  0
LINE
  5
8D1
330
18
100
AcDbEntity
  8
Object
100
AcDbLine
 10
4.04
 20
12.781
 30
0.0
 11
4.057999999999999
 21
12.816
 31
0.0
  0
LINE
  5
8D2
330
18
100
AcDbEntity
  8
Object
100
AcDbLine
 10
4.084999999999999
 20
12.844
 30
0.0
 11
4.12
 21
12.862
 31
0.0
  0
LINE
  5
8D3
330
18
100
AcDbEntity
  8
Object
100
AcDbLine
 10
4.12
 20
12.862
 30
0.0
 11
4.158999999999999
 21
12.868
 31
0.0
  0
LINE
  5
8D4
330
18
100
AcDbEntity
  8
Object
100
AcDbLine
 10
4.158999999999999
 20
11.618
 30
0.0
 11
4.12
 21
11.624
 31
0.0
  0
LINE
  5
8D5
330
18
100
AcDbEntity
  8
Object
100
AcDbLine
 10
4.12
 20
11.624
 30
0.0
 11
4.084999999999999
 21
11.642
 31
0.0
  0
LINE
  5
8D6
330
18
100
AcDbEntity
  8
Object
100
AcDbLine
 10
4.084999999999999
 20
11.642
 30
0.0
 11
4.057999999999999
 21
11.669
 31
0.0
  0
LINE
  5
8D7
330
18
100
AcDbEntity
  8
Object
100
AcDbLine
 10
4.057999999999999
 20
11.669
 30
0.0
 11
4.04
 21
11.704
 31
0.0
  0
LINE
  5
8D8
330
18
100
AcDbEntity
  8
Object
100
AcDbLine
 10
4.04
 20
11.704
 30
0.0
 11
4.033999999999999
 21
11.743
 31
0.0
  0
LINE
  5
8D9
330
18
100
AcDbEntity
  8
Object
100
AcDbLine
 10
4.033999999999999
 20
11.743
 30
0.0
 11
4.033999999999999
 21
12.743
 31
0.0
  0
LINE
  5
8DA
330
18
100
AcDbEntity
  8
Object
100
AcDbLine
 10
4.730999999999999
 20
12.021
 30
0.0
 11
4.761
 21
12.021
 31
0.0
  0
LINE
  5
8DB
330
18
100
AcDbEntity
  8
Object
100
AcDbLine
 10
4.761
 20
12.021
 30
0.0
 11
4.761
 21
11.618
 31
0.0
  0
LINE
  5
8DC
330
18
100
AcDbEntity
  8
Object
100
AcDbLine
 10
4.761
 20
11.618
 30
0.0
 11
4.730999999999999
 21
11.618
 31
0.0
  0
LINE
  5
8DD
330
18
100
AcDbEntity
  8
Object
100
AcDbLine
 10
4.730999999999999
 20
12.021
 30
0.0
 11
4.705
 21
12.021
 31
0.0
  0
LINE
  5
8DE
330
18
100
AcDbEntity
  8
Object
100
AcDbLine
 10
4.730999999999999
 20
11.618
 30
0.0
 11
4.705
 21
11.618
 31
0.0
  0
LINE
  5
8DF
330
18
100
AcDbEntity
  8
Object
100
AcDbLine
 10
4.705
 20
11.618
 30
0.0
 11
4.687999999999999
 21
11.618
 31
0.0
  0
LINE
  5
8E0
330
18
100
AcDbEntity
  8
Object
100
AcDbLine
 10
4.705
 20
12.021
 30
0.0
 11
4.687999999999999
 21
12.021
 31
0.0
  0
LINE
  5
8E1
330
18
100
AcDbEntity
  8
Object
100
AcDbLine
 10
4.687999999999999
 20
12.021
 30
0.0
 11
4.681
 21
12.021
 31
0.0
  0
LINE
  5
8E2
330
18
100
AcDbEntity
  8
Object
100
AcDbLine
 10
4.681
 20
11.618
 30
0.0
 11
4.687999999999999
 21
11.618
 31
0.0
  0
LINE
  5
8E3
330
18
100
AcDbEntity
  8
Object
100
AcDbLine
 10
4.964999999999999
 20
11.981
 30
0.0
 11
4.972999999999999
 21
11.981
 31
0.0
  0
LINE
  5
8E4
330
18
100
AcDbEntity
  8
Object
100
AcDbLine
 10
4.945
 20
12.015
 30
0.0
 11
4.924999999999999
 21
12.021
 31
0.0
  0
LINE
  5
8E5
330
18
100
AcDbEntity
  8
Object
100
AcDbLine
 10
4.924999999999999
 20
12.021
 30
0.0
 11
4.932999999999999
 21
12.021
 31
0.0
  0
LINE
  5
8E6
330
18
100
AcDbEntity
  8
Object
100
AcDbLine
 10
4.932999999999999
 20
12.021
 30
0.0
 11
4.953
 21
12.015
 31
0.0
  0
LINE
  5
8E7
330
18
100
AcDbEntity
  8
Object
100
AcDbLine
 10
4.592999999999999
 20
12.105
 30
0.0
 11
4.615999999999999
 21
12.111
 31
0.0
  0
LINE
  5
8E8
330
18
100
AcDbEntity
  8
Object
100
AcDbLine
 10
4.615999999999999
 20
12.021
 30
0.0
 11
4.592999999999999
 21
12.027
 31
0.0
  0
LINE
  5
8E9
330
18
100
AcDbEntity
  8
Object
100
AcDbLine
 10
4.592999999999999
 20
12.027
 30
0.0
 11
4.576999999999999
 21
12.043
 31
0.0
  0
LINE
  5
8EA
330
18
100
AcDbEntity
  8
Object
100
AcDbLine
 10
4.592999999999999
 20
12.105
 30
0.0
 11
4.576999999999999
 21
12.088
 31
0.0
  0
LINE
  5
8EB
330
18
100
AcDbEntity
  8
Object
100
AcDbLine
 10
4.576999999999999
 20
12.088
 30
0.0
 11
4.570999999999999
 21
12.066
 31
0.0
  0
LINE
  5
8EC
330
18
100
AcDbEntity
  8
Object
100
AcDbLine
 10
4.570999999999999
 20
12.066
 30
0.0
 11
4.576999999999999
 21
12.043
 31
0.0
  0
LINE
  5
8ED
330
18
100
AcDbEntity
  8
Object
100
AcDbLine
 10
4.679
 20
12.021
 30
0.0
 11
4.681
 21
12.021
 31
0.0
  0
LINE
  5
8EE
330
18
100
AcDbEntity
  8
Object
100
AcDbLine
 10
4.681
 20
12.021
 30
0.0
 11
4.681
 21
11.618
 31
0.0
  0
LINE
  5
8EF
330
18
100
AcDbEntity
  8
Object
100
AcDbLine
 10
4.681
 20
11.618
 30
0.0
 11
4.679
 21
11.618
 31
0.0
  0
LINE
  5
8F0
330
18
100
AcDbEntity
  8
Object
100
AcDbLine
 10
4.679
 20
12.021
 30
0.0
 11
4.673
 21
12.021
 31
0.0
  0
LINE
  5
8F1
330
18
100
AcDbEntity
  8
Object
100
AcDbLine
 10
4.679
 20
11.618
 30
0.0
 11
4.673
 21
11.618
 31
0.0
  0
LINE
  5
8F2
330
18
100
AcDbEntity
  8
Object
100
AcDbLine
 10
4.673
 20
11.618
 30
0.0
 11
4.666
 21
11.618
 31
0.0
  0
LINE
  5
8F3
330
18
100
AcDbEntity
  8
Object
100
AcDbLine
 10
4.673
 20
12.021
 30
0.0
 11
4.666
 21
12.021
 31
0.0
  0
LINE
  5
8F4
330
18
100
AcDbEntity
  8
Object
100
AcDbLine
 10
4.964999999999999
 20
11.981
 30
0.0
 11
4.959999999999999
 21
12.001
 31
0.0
  0
LINE
  5
8F5
330
18
100
AcDbEntity
  8
Object
100
AcDbLine
 10
4.959999999999999
 20
12.001
 30
0.0
 11
4.945
 21
12.015
 31
0.0
  0
LINE
  5
8F6
330
18
100
AcDbEntity
  8
Object
100
AcDbLine
 10
4.964999999999999
 20
11.658
 30
0.0
 11
4.959999999999999
 21
11.638
 31
0.0
  0
LINE
  5
8F7
330
18
100
AcDbEntity
  8
Object
100
AcDbLine
 10
4.959999999999999
 20
11.638
 30
0.0
 11
4.945
 21
11.623
 31
0.0
  0
LINE
  5
8F8
330
18
100
AcDbEntity
  8
Object
100
AcDbLine
 10
4.945
 20
11.623
 30
0.0
 11
4.924999999999999
 21
11.618
 31
0.0
  0
LINE
  5
8F9
330
18
100
AcDbEntity
  8
Object
100
AcDbLine
 10
4.924999999999999
 20
12.021
 30
0.0
 11
4.761
 21
12.021
 31
0.0
  0
LINE
  5
8FA
330
18
100
AcDbEntity
  8
Object
100
AcDbLine
 10
4.761
 20
11.618
 30
0.0
 11
4.924999999999999
 21
11.618
 31
0.0
  0
LINE
  5
8FB
330
18
100
AcDbEntity
  8
Object
100
AcDbLine
 10
4.964999999999999
 20
11.658
 30
0.0
 11
4.964999999999999
 21
11.981
 31
0.0
  0
LINE
  5
8FC
330
18
100
AcDbEntity
  8
Object
100
AcDbLine
 10
4.158999999999999
 20
11.618
 30
0.0
 11
4.12
 21
11.624
 31
0.0
  0
LINE
  5
8FD
330
18
100
AcDbEntity
  8
Object
100
AcDbLine
 10
4.12
 20
11.624
 30
0.0
 11
4.084999999999999
 21
11.642
 31
0.0
  0
LINE
  5
8FE
330
18
100
AcDbEntity
  8
Object
100
AcDbLine
 10
4.084999999999999
 20
11.642
 30
0.0
 11
4.057999999999999
 21
11.669
 31
0.0
  0
LINE
  5
8FF
330
18
100
AcDbEntity
  8
Object
100
AcDbLine
 10
4.057999999999999
 20
11.669
 30
0.0
 11
4.04
 21
11.704
 31
0.0
  0
LINE
  5
900
330
18
100
AcDbEntity
  8
Object
100
AcDbLine
 10
4.04
 20
11.704
 30
0.0
 11
4.033999999999999
 21
11.743
 31
0.0
  0
LINE
  5
901
330
18
100
AcDbEntity
  8
Object
100
AcDbLine
 10
4.972999999999999
 20
11.658
 30
0.0
 11
4.964999999999999
 21
11.658
 31
0.0
  0
LINE
  5
902
330
18
100
AcDbEntity
  8
Object
100
AcDbLine
 10
4.953
 20
11.623
 30
0.0
 11
4.932999999999999
 21
11.618
 31
0.0
  0
LINE
  5
903
330
18
100
AcDbEntity
  8
Object
100
AcDbLine
 10
4.932999999999999
 20
11.618
 30
0.0
 11
4.924999999999999
 21
11.618
 31
0.0
  0
LINE
  5
904
330
18
100
AcDbEntity
  8
Object
100
AcDbLine
 10
4.033999999999999
 20
12.743
 30
0.0
 11
4.033999999999999
 21
11.743
 31
0.0
  0
LINE
  5
905
330
18
100
AcDbEntity
  8
Object
100
AcDbLine
 10
4.636
 20
12.375
 30
0.0
 11
4.615999999999999
 21
12.375
 31
0.0
  0
LINE
  5
906
330
18
100
AcDbEntity
  8
Object
100
AcDbLine
 10
4.158999999999999
 20
12.868
 30
0.0
 11
4.12
 21
12.862
 31
0.0
  0
LINE
  5
907
330
18
100
AcDbEntity
  8
Object
100
AcDbLine
 10
4.12
 20
12.862
 30
0.0
 11
4.084999999999999
 21
12.844
 31
0.0
  0
LINE
  5
908
330
18
100
AcDbEntity
  8
Object
100
AcDbLine
 10
4.084999999999999
 20
12.844
 30
0.0
 11
4.057999999999999
 21
12.816
 31
0.0
  0
LINE
  5
909
330
18
100
AcDbEntity
  8
Object
100
AcDbLine
 10
4.057999999999999
 20
12.816
 30
0.0
 11
4.04
 21
12.781
 31
0.0
  0
LINE
  5
90A
330
18
100
AcDbEntity
  8
Object
100
AcDbLine
 10
4.04
 20
12.781
 30
0.0
 11
4.033999999999999
 21
12.743
 31
0.0
  0
LINE
  5
90B
330
18
100
AcDbEntity
  8
Object
100
AcDbLine
 10
4.679
 20
12.868
 30
0.0
 11
4.681
 21
12.868
 31
0.0
  0
LINE
  5
90C
330
18
100
AcDbEntity
  8
Object
100
AcDbLine
 10
4.681
 20
12.868
 30
0.0
 11
4.681
 21
12.465
 31
0.0
  0
LINE
  5
90D
330
18
100
AcDbEntity
  8
Object
100
AcDbLine
 10
4.681
 20
12.465
 30
0.0
 11
4.679
 21
12.465
 31
0.0
  0
LINE
  5
90E
330
18
100
AcDbEntity
  8
Object
100
AcDbLine
 10
4.679
 20
12.465
 30
0.0
 11
4.673
 21
12.465
 31
0.0
  0
LINE
  5
90F
330
18
100
AcDbEntity
  8
Object
100
AcDbLine
 10
4.679
 20
12.868
 30
0.0
 11
4.673
 21
12.868
 31
0.0
  0
LINE
  5
910
330
18
100
AcDbEntity
  8
Object
100
AcDbLine
 10
4.666
 20
12.465
 30
0.0
 11
4.673
 21
12.465
 31
0.0
  0
LINE
  5
911
330
18
100
AcDbEntity
  8
Object
100
AcDbLine
 10
4.673
 20
12.868
 30
0.0
 11
4.666
 21
12.868
 31
0.0
  0
LINE
  5
912
330
18
100
AcDbEntity
  8
Object
100
AcDbLine
 10
4.932999999999999
 20
12.868
 30
0.0
 11
4.924999999999999
 21
12.868
 31
0.0
  0
LINE
  5
913
330
18
100
AcDbEntity
  8
Object
100
AcDbLine
 10
4.924999999999999
 20
12.868
 30
0.0
 11
4.761
 21
12.868
 31
0.0
  0
LINE
  5
914
330
18
100
AcDbEntity
  8
Object
100
AcDbLine
 10
4.761
 20
12.868
 30
0.0
 11
4.730999999999999
 21
12.868
 31
0.0
  0
LINE
  5
915
330
18
100
AcDbEntity
  8
Object
100
AcDbLine
 10
4.730999999999999
 20
12.868
 30
0.0
 11
4.705
 21
12.868
 31
0.0
  0
LINE
  5
916
330
18
100
AcDbEntity
  8
Object
100
AcDbLine
 10
4.705
 20
12.868
 30
0.0
 11
4.687999999999999
 21
12.868
 31
0.0
  0
LINE
  5
917
330
18
100
AcDbEntity
  8
Object
100
AcDbLine
 10
4.687999999999999
 20
12.868
 30
0.0
 11
4.681
 21
12.868
 31
0.0
  0
LINE
  5
918
330
18
100
AcDbEntity
  8
Object
100
AcDbLine
 10
4.681
 20
12.868
 30
0.0
 11
4.679
 21
12.868
 31
0.0
  0
LINE
  5
919
330
18
100
AcDbEntity
  8
Object
100
AcDbLine
 10
4.679
 20
12.868
 30
0.0
 11
4.673
 21
12.868
 31
0.0
  0
LINE
  5
91A
330
18
100
AcDbEntity
  8
Object
100
AcDbLine
 10
4.673
 20
12.868
 30
0.0
 11
4.666
 21
12.868
 31
0.0
  0
LINE
  5
91B
330
18
100
AcDbEntity
  8
Object
100
AcDbLine
 10
4.666
 20
12.868
 30
0.0
 11
4.158999999999999
 21
12.868
 31
0.0
  0
LINE
  5
91C
330
18
100
AcDbEntity
  8
Object
100
AcDbLine
 10
4.932999999999999
 20
12.465
 30
0.0
 11
4.924999999999999
 21
12.465
 31
0.0
  0
LINE
  5
91D
330
18
100
AcDbEntity
  8
Object
100
AcDbLine
 10
4.924999999999999
 20
12.465
 30
0.0
 11
4.761
 21
12.465
 31
0.0
  0
LINE
  5
91E
330
18
100
AcDbEntity
  8
Object
100
AcDbLine
 10
4.761
 20
12.465
 30
0.0
 11
4.730999999999999
 21
12.465
 31
0.0
  0
LINE
  5
91F
330
18
100
AcDbEntity
  8
Object
100
AcDbLine
 10
4.730999999999999
 20
12.465
 30
0.0
 11
4.705
 21
12.465
 31
0.0
  0
LINE
  5
920
330
18
100
AcDbEntity
  8
Object
100
AcDbLine
 10
4.705
 20
12.465
 30
0.0
 11
4.687999999999999
 21
12.465
 31
0.0
  0
LINE
  5
921
330
18
100
AcDbEntity
  8
Object
100
AcDbLine
 10
4.687999999999999
 20
12.465
 30
0.0
 11
4.681
 21
12.465
 31
0.0
  0
LINE
  5
922
330
18
100
AcDbEntity
  8
Object
100
AcDbLine
 10
4.681
 20
12.465
 30
0.0
 11
4.679
 21
12.465
 31
0.0
  0
LINE
  5
923
330
18
100
AcDbEntity
  8
Object
100
AcDbLine
 10
4.679
 20
12.465
 30
0.0
 11
4.673
 21
12.465
 31
0.0
  0
LINE
  5
924
330
18
100
AcDbEntity
  8
Object
100
AcDbLine
 10
4.673
 20
12.465
 30
0.0
 11
4.666
 21
12.465
 31
0.0
  0
LINE
  5
925
330
18
100
AcDbEntity
  8
Object
100
AcDbLine
 10
4.666
 20
12.465
 30
0.0
 11
4.615999999999999
 21
12.465
 31
0.0
  0
LINE
  5
926
330
18
100
AcDbEntity
  8
Object
100
AcDbLine
 10
4.615999999999999
 20
12.465
 30
0.0
 11
4.592999999999999
 21
12.459
 31
0.0
  0
LINE
  5
927
330
18
100
AcDbEntity
  8
Object
100
AcDbLine
 10
4.615999999999999
 20
12.375
 30
0.0
 11
4.592999999999999
 21
12.381
 31
0.0
  0
LINE
  5
928
330
18
100
AcDbEntity
  8
Object
100
AcDbLine
 10
4.592999999999999
 20
12.381
 30
0.0
 11
4.576999999999999
 21
12.397
 31
0.0
  0
LINE
  5
929
330
18
100
AcDbEntity
  8
Object
100
AcDbLine
 10
4.592999999999999
 20
12.459
 30
0.0
 11
4.576999999999999
 21
12.442
 31
0.0
  0
LINE
  5
92A
330
18
100
AcDbEntity
  8
Object
100
AcDbLine
 10
4.576999999999999
 20
12.442
 30
0.0
 11
4.570999999999999
 21
12.42
 31
0.0
  0
LINE
  5
92B
330
18
100
AcDbEntity
  8
Object
100
AcDbLine
 10
4.570999999999999
 20
12.42
 30
0.0
 11
4.576999999999999
 21
12.397
 31
0.0
  0
LINE
  5
92C
330
18
100
AcDbEntity
  8
Object
100
AcDbLine
 10
4.615999999999999
 20
12.111
 30
0.0
 11
4.636
 21
12.111
 31
0.0
  0
LINE
  5
92D
330
18
100
AcDbEntity
  8
Object
100
AcDbLine
 10
4.681
 20
12.375
 30
0.0
 11
4.698999999999999
 21
12.375
 31
0.0
  0
LINE
  5
92E
330
18
100
AcDbEntity
  8
Object
100
AcDbLine
 10
4.698999999999999
 20
12.375
 30
0.0
 11
4.698999999999999
 21
12.111
 31
0.0
  0
LINE
  5
92F
330
18
100
AcDbEntity
  8
Object
100
AcDbLine
 10
4.698999999999999
 20
12.111
 30
0.0
 11
4.681
 21
12.111
 31
0.0
  0
LINE
  5
930
330
18
100
AcDbEntity
  8
Object
100
AcDbLine
 10
4.681
 20
12.111
 30
0.0
 11
4.658999999999999
 21
12.111
 31
0.0
  0
LINE
  5
931
330
18
100
AcDbEntity
  8
Object
100
AcDbLine
 10
4.681
 20
12.375
 30
0.0
 11
4.658999999999999
 21
12.375
 31
0.0
  0
LINE
  5
932
330
18
100
AcDbEntity
  8
Object
100
AcDbLine
 10
4.636
 20
12.111
 30
0.0
 11
4.658999999999999
 21
12.111
 31
0.0
  0
LINE
  5
933
330
18
100
AcDbEntity
  8
Object
100
AcDbLine
 10
4.658999999999999
 20
12.375
 30
0.0
 11
4.636
 21
12.375
 31
0.0
  0
LINE
  5
934
330
18
100
AcDbEntity
  8
Object
100
AcDbLine
 10
4.698999999999999
 20
12.375
 30
0.0
 11
4.681
 21
12.375
 31
0.0
  0
LINE
  5
935
330
18
100
AcDbEntity
  8
Object
100
AcDbLine
 10
4.681
 20
12.375
 30
0.0
 11
4.658999999999999
 21
12.375
 31
0.0
  0
LINE
  5
936
330
18
100
AcDbEntity
  8
Object
100
AcDbLine
 10
4.658999999999999
 20
12.375
 30
0.0
 11
4.636
 21
12.375
 31
0.0
  0
LINE
  5
937
330
18
100
AcDbEntity
  8
Object
100
AcDbLine
 10
4.730999999999999
 20
12.868
 30
0.0
 11
4.761
 21
12.868
 31
0.0
  0
LINE
  5
938
330
18
100
AcDbEntity
  8
Object
100
AcDbLine
 10
4.761
 20
12.868
 30
0.0
 11
4.761
 21
12.465
 31
0.0
  0
LINE
  5
939
330
18
100
AcDbEntity
  8
Object
100
AcDbLine
 10
4.761
 20
12.465
 30
0.0
 11
4.730999999999999
 21
12.465
 31
0.0
  0
LINE
  5
93A
330
18
100
AcDbEntity
  8
Object
100
AcDbLine
 10
4.730999999999999
 20
12.868
 30
0.0
 11
4.705
 21
12.868
 31
0.0
  0
LINE
  5
93B
330
18
100
AcDbEntity
  8
Object
100
AcDbLine
 10
4.730999999999999
 20
12.465
 30
0.0
 11
4.705
 21
12.465
 31
0.0
  0
LINE
  5
93C
330
18
100
AcDbEntity
  8
Object
100
AcDbLine
 10
4.705
 20
12.465
 30
0.0
 11
4.687999999999999
 21
12.465
 31
0.0
  0
LINE
  5
93D
330
18
100
AcDbEntity
  8
Object
100
AcDbLine
 10
4.705
 20
12.868
 30
0.0
 11
4.687999999999999
 21
12.868
 31
0.0
  0
LINE
  5
93E
330
18
100
AcDbEntity
  8
Object
100
AcDbLine
 10
4.687999999999999
 20
12.868
 30
0.0
 11
4.681
 21
12.868
 31
0.0
  0
LINE
  5
93F
330
18
100
AcDbEntity
  8
Object
100
AcDbLine
 10
4.681
 20
12.465
 30
0.0
 11
4.687999999999999
 21
12.465
 31
0.0
  0
LINE
  5
940
330
18
100
AcDbEntity
  8
Object
100
AcDbLine
 10
4.964999999999999
 20
12.828
 30
0.0
 11
4.959999999999999
 21
12.848
 31
0.0
  0
LINE
  5
941
330
18
100
AcDbEntity
  8
Object
100
AcDbLine
 10
4.924999999999999
 20
12.868
 30
0.0
 11
4.945
 21
12.862
 31
0.0
  0
LINE
  5
942
330
18
100
AcDbEntity
  8
Object
100
AcDbLine
 10
4.945
 20
12.862
 30
0.0
 11
4.959999999999999
 21
12.848
 31
0.0
  0
LINE
  5
943
330
18
100
AcDbEntity
  8
Object
100
AcDbLine
 10
4.964999999999999
 20
12.505
 30
0.0
 11
4.959999999999999
 21
12.485
 31
0.0
  0
LINE
  5
944
330
18
100
AcDbEntity
  8
Object
100
AcDbLine
 10
4.959999999999999
 20
12.485
 30
0.0
 11
4.945
 21
12.47
 31
0.0
  0
LINE
  5
945
330
18
100
AcDbEntity
  8
Object
100
AcDbLine
 10
4.945
 20
12.47
 30
0.0
 11
4.924999999999999
 21
12.465
 31
0.0
  0
LINE
  5
946
330
18
100
AcDbEntity
  8
Object
100
AcDbLine
 10
4.924999999999999
 20
12.868
 30
0.0
 11
4.761
 21
12.868
 31
0.0
  0
LINE
  5
947
330
18
100
AcDbEntity
  8
Object
100
AcDbLine
 10
4.761
 20
12.465
 30
0.0
 11
4.924999999999999
 21
12.465
 31
0.0
  0
LINE
  5
948
330
18
100
AcDbEntity
  8
Object
100
AcDbLine
 10
4.964999999999999
 20
12.505
 30
0.0
 11
4.964999999999999
 21
12.828
 31
0.0
  0
LINE
  5
949
330
18
100
AcDbEntity
  8
Object
100
AcDbLine
 10
4.964999999999999
 20
12.828
 30
0.0
 11
4.972999999999999
 21
12.828
 31
0.0
  0
LINE
  5
94A
330
18
100
AcDbEntity
  8
Object
100
AcDbLine
 10
4.924999999999999
 20
12.868
 30
0.0
 11
4.932999999999999
 21
12.868
 31
0.0
  0
LINE
  5
94B
330
18
100
AcDbEntity
  8
Object
100
AcDbLine
 10
4.932999999999999
 20
12.868
 30
0.0
 11
4.953
 21
12.862
 31
0.0
  0
LINE
  5
94C
330
18
100
AcDbEntity
  8
Object
100
AcDbLine
 10
4.972999999999999
 20
12.828
 30
0.0
 11
4.967999999999999
 21
12.848
 31
0.0
  0
LINE
  5
94D
330
18
100
AcDbEntity
  8
Object
100
AcDbLine
 10
4.967999999999999
 20
12.848
 30
0.0
 11
4.953
 21
12.862
 31
0.0
  0
LINE
  5
94E
330
18
100
AcDbEntity
  8
Object
100
AcDbLine
 10
4.953
 20
12.47
 30
0.0
 11
4.967999999999999
 21
12.485
 31
0.0
  0
LINE
  5
94F
330
18
100
AcDbEntity
  8
Object
100
AcDbLine
 10
4.967999999999999
 20
12.485
 30
0.0
 11
4.972999999999999
 21
12.505
 31
0.0
  0
LINE
  5
950
330
18
100
AcDbEntity
  8
Object
100
AcDbLine
 10
4.972999999999999
 20
12.505
 30
0.0
 11
4.972999999999999
 21
12.828
 31
0.0
  0
LINE
  5
951
330
18
100
AcDbEntity
  8
Object
100
AcDbLine
 10
4.972999999999999
 20
12.505
 30
0.0
 11
4.964999999999999
 21
12.505
 31
0.0
  0
LINE
  5
952
330
18
100
AcDbEntity
  8
Object
100
AcDbLine
 10
4.953
 20
12.47
 30
0.0
 11
4.932999999999999
 21
12.465
 31
0.0
  0
LINE
  5
953
330
18
100
AcDbEntity
  8
Object
100
AcDbLine
 10
4.932999999999999
 20
12.465
 30
0.0
 11
4.924999999999999
 21
12.465
 31
0.0
  0
LINE
  5
954
330
18
100
AcDbEntity
  8
Object
100
AcDbLine
 10
4.698999999999999
 20
12.111
 30
0.0
 11
4.681
 21
12.111
 31
0.0
  0
LINE
  5
955
330
18
100
AcDbEntity
  8
Object
100
AcDbLine
 10
4.681
 20
12.111
 30
0.0
 11
4.658999999999999
 21
12.111
 31
0.0
  0
LINE
  5
956
330
18
100
AcDbEntity
  8
Object
100
AcDbLine
 10
4.658999999999999
 20
12.111
 30
0.0
 11
4.636
 21
12.111
 31
0.0
  0
LINE
  5
957
330
18
100
AcDbEntity
  8
Object
100
AcDbLine
 10
4.698999999999999
 20
12.111
 30
0.0
 11
4.964999999999999
 21
12.111
 31
0.0
  0
LINE
  5
958
330
18
100
AcDbEntity
  8
Object
100
AcDbLine
 10
4.964999999999999
 20
12.375
 30
0.0
 11
4.698999999999999
 21
12.375
 31
0.0
  0
LINE
  5
959
330
18
100
AcDbEntity
  8
Object
100
AcDbLine
 10
4.698999999999999
 20
12.375
 30
0.0
 11
4.964999999999999
 21
12.375
 31
0.0
  0
LINE
  5
95A
330
18
100
AcDbEntity
  8
Object
100
AcDbLine
 10
4.698999999999999
 20
12.111
 30
0.0
 11
4.964999999999999
 21
12.111
 31
0.0
  0
LINE
  5
95B
330
18
100
AcDbEntity
  8
Object
100
AcDbLine
 10
4.987
 20
12.141
 30
0.0
 11
4.983999999999999
 21
12.126
 31
0.0
  0
LINE
  5
95C
330
18
100
AcDbEntity
  8
Object
100
AcDbLine
 10
4.983999999999999
 20
12.126
 30
0.0
 11
4.975999999999999
 21
12.115
 31
0.0
  0
LINE
  5
95D
330
18
100
AcDbEntity
  8
Object
100
AcDbLine
 10
4.975999999999999
 20
12.115
 30
0.0
 11
4.964999999999999
 21
12.111
 31
0.0
  0
LINE
  5
95E
330
18
100
AcDbEntity
  8
Object
100
AcDbLine
 10
4.987
 20
12.141
 30
0.0
 11
4.987
 21
12.345
 31
0.0
  0
LINE
  5
95F
330
18
100
AcDbEntity
  8
Object
100
AcDbLine
 10
4.987
 20
12.345
 30
0.0
 11
4.983999999999999
 21
12.36
 31
0.0
  0
LINE
  5
960
330
18
100
AcDbEntity
  8
Object
100
AcDbLine
 10
4.983999999999999
 20
12.36
 30
0.0
 11
4.975999999999999
 21
12.371
 31
0.0
  0
LINE
  5
961
330
18
100
AcDbEntity
  8
Object
100
AcDbLine
 10
4.975999999999999
 20
12.371
 30
0.0
 11
4.964999999999999
 21
12.375
 31
0.0
  0
LINE
  5
962
330
18
100
AcDbEntity
  8
Object
100
AcDbLine
 10
4.448
 20
12.295
 30
0.0
 11
4.424
 21
12.33
 31
0.0
  0
LINE
  5
963
330
18
100
AcDbEntity
  8
Object
100
AcDbLine
 10
4.424
 20
12.33
 30
0.0
 11
4.389
 21
12.355
 31
0.0
  0
LINE
  5
964
330
18
100
AcDbEntity
  8
Object
100
AcDbLine
 10
4.386
 20
12.356
 30
0.0
 11
4.389
 21
12.354
 31
0.0
  0
LINE
  5
965
330
18
100
AcDbEntity
  8
Object
100
AcDbLine
 10
4.349
 20
12.367
 30
0.0
 11
4.389
 21
12.355
 31
0.0
  0
LINE
  5
966
330
18
100
AcDbEntity
  8
Object
100
AcDbLine
 10
4.453999999999999
 20
12.27
 30
0.0
 11
4.453999999999999
 21
12.245
 31
0.0
  0
LINE
  5
967
330
18
100
AcDbEntity
  8
Object
100
AcDbLine
 10
4.544999999999999
 20
12.243
 30
0.0
 11
4.538
 21
12.297
 31
0.0
  0
LINE
  5
968
330
18
100
AcDbEntity
  8
Object
100
AcDbLine
 10
4.453999999999999
 20
12.245
 30
0.0
 11
4.448999999999999
 21
12.22
 31
0.0
  0
LINE
  5
969
330
18
100
AcDbEntity
  8
Object
100
AcDbLine
 10
4.538
 20
12.188
 30
0.0
 11
4.544999999999999
 21
12.243
 31
0.0
  0
LINE
  5
96A
330
18
100
AcDbEntity
  8
Object
100
AcDbLine
 10
4.538
 20
12.297
 30
0.0
 11
4.517
 21
12.348
 31
0.0
  0
LINE
  5
96B
330
18
100
AcDbEntity
  8
Object
100
AcDbLine
 10
4.448
 20
12.295
 30
0.0
 11
4.453999999999999
 21
12.27
 31
0.0
  0
LINE
  5
96C
330
18
100
AcDbEntity
  8
Object
100
AcDbLine
 10
4.517
 20
12.138
 30
0.0
 11
4.538
 21
12.188
 31
0.0
  0
LINE
  5
96D
330
18
100
AcDbEntity
  8
Object
100
AcDbLine
 10
4.448999999999999
 20
12.22
 30
0.0
 11
4.443
 21
12.208
 31
0.0
  0
LINE
  5
96E
330
18
100
AcDbEntity
  8
Object
100
AcDbLine
 10
4.44
 20
12.425
 30
0.0
 11
4.482999999999999
 21
12.391
 31
0.0
  0
LINE
  5
96F
330
18
100
AcDbEntity
  8
Object
100
AcDbLine
 10
4.482999999999999
 20
12.391
 30
0.0
 11
4.517
 21
12.348
 31
0.0
  0
LINE
  5
970
330
18
100
AcDbEntity
  8
Object
100
AcDbLine
 10
4.517
 20
12.138
 30
0.0
 11
4.482999999999999
 21
12.094
 31
0.0
  0
LINE
  5
971
330
18
100
AcDbEntity
  8
Object
100
AcDbLine
 10
4.482999999999999
 20
12.094
 30
0.0
 11
4.44
 21
12.061
 31
0.0
  0
LINE
  5
972
330
18
100
AcDbEntity
  8
Object
100
AcDbLine
 10
4.44
 20
12.425
 30
0.0
 11
4.389
 21
12.446
 31
0.0
  0
LINE
  5
973
330
18
100
AcDbEntity
  8
Object
100
AcDbLine
 10
4.389
 20
12.04
 30
0.0
 11
4.44
 21
12.061
 31
0.0
  0
LINE
  5
974
330
18
100
AcDbEntity
  8
Object
100
AcDbLine
 10
4.389
 20
12.446
 30
0.0
 11
4.334999999999999
 21
12.453
 31
0.0
  0
LINE
  5
975
330
18
100
AcDbEntity
  8
Object
100
AcDbLine
 10
4.334999999999999
 20
12.033
 30
0.0
 11
4.389
 21
12.04
 31
0.0
  0
LINE
  5
976
330
18
100
AcDbEntity
  8
Object
100
AcDbLine
 10
4.349
 20
12.367
 30
0.0
 11
4.323
 21
12.364
 31
0.0
  0
LINE
  5
977
330
18
100
AcDbEntity
  8
Object
100
AcDbLine
 10
4.323
 20
12.364
 30
0.0
 11
4.299
 21
12.356
 31
0.0
  0
LINE
  5
978
330
18
100
AcDbEntity
  8
Object
100
AcDbLine
 10
4.299
 20
12.356
 30
0.0
 11
4.293
 21
12.353
 31
0.0
  0
LINE
  5
979
330
18
100
AcDbEntity
  8
Object
100
AcDbLine
 10
4.153
 20
12.348
 30
0.0
 11
4.131999999999999
 21
12.297
 31
0.0
  0
LINE
  5
97A
330
18
100
AcDbEntity
  8
Object
100
AcDbLine
 10
4.448
 20
12.293
 30
0.0
 11
4.445999999999999
 21
12.297
 31
0.0
  0
LINE
  5
97B
330
18
100
AcDbEntity
  8
Object
100
AcDbLine
 10
4.426
 20
12.327
 30
0.0
 11
4.419
 21
12.333
 31
0.0
  0
LINE
  5
97C
330
18
100
AcDbEntity
  8
Object
100
AcDbLine
 10
4.546999999999999
 20
12.186
 30
0.0
 11
4.554999999999999
 21
12.243
 31
0.0
  0
LINE
  5
97D
330
18
100
AcDbEntity
  8
Object
100
AcDbLine
 10
4.554999999999999
 20
12.243
 30
0.0
 11
4.546999999999999
 21
12.3
 31
0.0
  0
LINE
  5
97E
330
18
100
AcDbEntity
  8
Object
100
AcDbLine
 10
4.525
 20
12.133
 30
0.0
 11
4.546999999999999
 21
12.186
 31
0.0
  0
LINE
  5
97F
330
18
100
AcDbEntity
  8
Object
100
AcDbLine
 10
4.546999999999999
 20
12.3
 30
0.0
 11
4.525
 21
12.353
 31
0.0
  0
LINE
  5
980
330
18
100
AcDbEntity
  8
Object
100
AcDbLine
 10
4.525
 20
12.353
 30
0.0
 11
4.49
 21
12.398
 31
0.0
  0
LINE
  5
981
330
18
100
AcDbEntity
  8
Object
100
AcDbLine
 10
4.49
 20
12.087
 30
0.0
 11
4.525
 21
12.133
 31
0.0
  0
LINE
  5
982
330
18
100
AcDbEntity
  8
Object
100
AcDbLine
 10
4.49
 20
12.398
 30
0.0
 11
4.445
 21
12.433
 31
0.0
  0
LINE
  5
983
330
18
100
AcDbEntity
  8
Object
100
AcDbLine
 10
4.445
 20
12.052
 30
0.0
 11
4.49
 21
12.087
 31
0.0
  0
LINE
  5
984
330
18
100
AcDbEntity
  8
Object
100
AcDbLine
 10
4.445
 20
12.433
 30
0.0
 11
4.392
 21
12.455
 31
0.0
  0
LINE
  5
985
330
18
100
AcDbEntity
  8
Object
100
AcDbLine
 10
4.392
 20
12.03
 30
0.0
 11
4.445
 21
12.052
 31
0.0
  0
LINE
  5
986
330
18
100
AcDbEntity
  8
Object
100
AcDbLine
 10
4.392
 20
12.455
 30
0.0
 11
4.334999999999999
 21
12.463
 31
0.0
  0
LINE
  5
987
330
18
100
AcDbEntity
  8
Object
100
AcDbLine
 10
4.334999999999999
 20
12.023
 30
0.0
 11
4.392
 21
12.03
 31
0.0
  0
LINE
  5
988
330
18
100
AcDbEntity
  8
Object
100
AcDbLine
 10
4.28
 20
12.446
 30
0.0
 11
4.334999999999999
 21
12.453
 31
0.0
  0
LINE
  5
989
330
18
100
AcDbEntity
  8
Object
100
AcDbLine
 10
4.278
 20
12.455
 30
0.0
 11
4.334999999999999
 21
12.463
 31
0.0
  0
LINE
  5
98A
330
18
100
AcDbEntity
  8
Object
100
AcDbLine
 10
4.334999999999999
 20
12.463
 30
0.0
 11
4.334999999999999
 21
12.453
 31
0.0
  0
LINE
  5
98B
330
18
100
AcDbEntity
  8
Object
100
AcDbLine
 10
4.28
 20
12.04
 30
0.0
 11
4.334999999999999
 21
12.033
 31
0.0
  0
LINE
  5
98C
330
18
100
AcDbEntity
  8
Object
100
AcDbLine
 10
4.334999999999999
 20
12.033
 30
0.0
 11
4.334999999999999
 21
12.023
 31
0.0
  0
LINE
  5
98D
330
18
100
AcDbEntity
  8
Object
100
AcDbLine
 10
4.334999999999999
 20
12.023
 30
0.0
 11
4.278
 21
12.03
 31
0.0
  0
LINE
  5
98E
330
18
100
AcDbEntity
  8
Object
100
AcDbLine
 10
4.278
 20
12.455
 30
0.0
 11
4.224999999999999
 21
12.433
 31
0.0
  0
LINE
  5
98F
330
18
100
AcDbEntity
  8
Object
100
AcDbLine
 10
4.23
 20
12.425
 30
0.0
 11
4.28
 21
12.446
 31
0.0
  0
LINE
  5
990
330
18
100
AcDbEntity
  8
Object
100
AcDbLine
 10
4.224999999999999
 20
12.052
 30
0.0
 11
4.278
 21
12.03
 31
0.0
  0
LINE
  5
991
330
18
100
AcDbEntity
  8
Object
100
AcDbLine
 10
4.28
 20
12.04
 30
0.0
 11
4.23
 21
12.061
 31
0.0
  0
LINE
  5
992
330
18
100
AcDbEntity
  8
Object
100
AcDbLine
 10
4.185999999999999
 20
12.391
 30
0.0
 11
4.23
 21
12.425
 31
0.0
  0
LINE
  5
993
330
18
100
AcDbEntity
  8
Object
100
AcDbLine
 10
4.224999999999999
 20
12.433
 30
0.0
 11
4.179
 21
12.398
 31
0.0
  0
LINE
  5
994
330
18
100
AcDbEntity
  8
Object
100
AcDbLine
 10
4.23
 20
12.061
 30
0.0
 11
4.185999999999999
 21
12.094
 31
0.0
  0
LINE
  5
995
330
18
100
AcDbEntity
  8
Object
100
AcDbLine
 10
4.179
 20
12.087
 30
0.0
 11
4.224999999999999
 21
12.052
 31
0.0
  0
LINE
  5
996
330
18
100
AcDbEntity
  8
Object
100
AcDbLine
 10
4.179
 20
12.398
 30
0.0
 11
4.144
 21
12.353
 31
0.0
  0
LINE
  5
997
330
18
100
AcDbEntity
  8
Object
100
AcDbLine
 10
4.153
 20
12.348
 30
0.0
 11
4.185999999999999
 21
12.391
 31
0.0
  0
LINE
  5
998
330
18
100
AcDbEntity
  8
Object
100
AcDbLine
 10
4.144
 20
12.133
 30
0.0
 11
4.179
 21
12.087
 31
0.0
  0
LINE
  5
999
330
18
100
AcDbEntity
  8
Object
100
AcDbLine
 10
4.185999999999999
 20
12.094
 30
0.0
 11
4.153
 21
12.138
 31
0.0
  0
LINE
  5
99A
330
18
100
AcDbEntity
  8
Object
100
AcDbLine
 10
4.153
 20
12.138
 30
0.0
 11
4.131999999999999
 21
12.188
 31
0.0
  0
LINE
  5
99B
330
18
100
AcDbEntity
  8
Object
100
AcDbLine
 10
4.125
 20
12.243
 30
0.0
 11
4.131999999999999
 21
12.297
 31
0.0
  0
LINE
  5
99C
330
18
100
AcDbEntity
  8
Object
100
AcDbLine
 10
4.144
 20
12.353
 30
0.0
 11
4.121999999999999
 21
12.3
 31
0.0
  0
LINE
  5
99D
330
18
100
AcDbEntity
  8
Object
100
AcDbLine
 10
4.144
 20
12.133
 30
0.0
 11
4.121999999999999
 21
12.186
 31
0.0
  0
LINE
  5
99E
330
18
100
AcDbEntity
  8
Object
100
AcDbLine
 10
4.121999999999999
 20
12.186
 30
0.0
 11
4.115
 21
12.243
 31
0.0
  0
LINE
  5
99F
330
18
100
AcDbEntity
  8
Object
100
AcDbLine
 10
4.115
 20
12.243
 30
0.0
 11
4.121999999999999
 21
12.3
 31
0.0
  0
LINE
  5
9A0
330
18
100
AcDbEntity
  8
Object
100
AcDbLine
 10
4.131999999999999
 20
12.188
 30
0.0
 11
4.125
 21
12.243
 31
0.0
  0
LINE
  5
9A1
330
18
100
AcDbEntity
  8
Object
100
AcDbLine
 10
4.546999999999999
 20
12.186
 30
0.0
 11
4.554999999999999
 21
12.243
 31
0.0
  0
LINE
  5
9A2
330
18
100
AcDbEntity
  8
Object
100
AcDbLine
 10
4.554999999999999
 20
12.243
 30
0.0
 11
4.546999999999999
 21
12.3
 31
0.0
  0
LINE
  5
9A3
330
18
100
AcDbEntity
  8
Object
100
AcDbLine
 10
4.525
 20
12.133
 30
0.0
 11
4.546999999999999
 21
12.186
 31
0.0
  0
LINE
  5
9A4
330
18
100
AcDbEntity
  8
Object
100
AcDbLine
 10
4.546999999999999
 20
12.3
 30
0.0
 11
4.525
 21
12.353
 31
0.0
  0
LINE
  5
9A5
330
18
100
AcDbEntity
  8
Object
100
AcDbLine
 10
4.525
 20
12.353
 30
0.0
 11
4.49
 21
12.398
 31
0.0
  0
LINE
  5
9A6
330
18
100
AcDbEntity
  8
Object
100
AcDbLine
 10
4.525
 20
12.133
 30
0.0
 11
4.49
 21
12.087
 31
0.0
  0
LINE
  5
9A7
330
18
100
AcDbEntity
  8
Object
100
AcDbLine
 10
4.49
 20
12.087
 30
0.0
 11
4.445
 21
12.052
 31
0.0
  0
LINE
  5
9A8
330
18
100
AcDbEntity
  8
Object
100
AcDbLine
 10
4.49
 20
12.398
 30
0.0
 11
4.445
 21
12.433
 31
0.0
  0
LINE
  5
9A9
330
18
100
AcDbEntity
  8
Object
100
AcDbLine
 10
4.445
 20
12.433
 30
0.0
 11
4.392
 21
12.455
 31
0.0
  0
LINE
  5
9AA
330
18
100
AcDbEntity
  8
Object
100
AcDbLine
 10
4.392
 20
12.03
 30
0.0
 11
4.445
 21
12.052
 31
0.0
  0
LINE
  5
9AB
330
18
100
AcDbEntity
  8
Object
100
AcDbLine
 10
4.392
 20
12.455
 30
0.0
 11
4.334999999999999
 21
12.463
 31
0.0
  0
LINE
  5
9AC
330
18
100
AcDbEntity
  8
Object
100
AcDbLine
 10
4.392
 20
12.03
 30
0.0
 11
4.334999999999999
 21
12.023
 31
0.0
  0
LINE
  5
9AD
330
18
100
AcDbEntity
  8
Object
100
AcDbLine
 10
4.334999999999999
 20
12.023
 30
0.0
 11
4.278
 21
12.03
 31
0.0
  0
LINE
  5
9AE
330
18
100
AcDbEntity
  8
Object
100
AcDbLine
 10
4.334999999999999
 20
12.463
 30
0.0
 11
4.278
 21
12.455
 31
0.0
  0
LINE
  5
9AF
330
18
100
AcDbEntity
  8
Object
100
AcDbLine
 10
4.278
 20
12.455
 30
0.0
 11
4.224999999999999
 21
12.433
 31
0.0
  0
LINE
  5
9B0
330
18
100
AcDbEntity
  8
Object
100
AcDbLine
 10
4.278
 20
12.03
 30
0.0
 11
4.224999999999999
 21
12.052
 31
0.0
  0
LINE
  5
9B1
330
18
100
AcDbEntity
  8
Object
100
AcDbLine
 10
4.224999999999999
 20
12.052
 30
0.0
 11
4.179
 21
12.087
 31
0.0
  0
LINE
  5
9B2
330
18
100
AcDbEntity
  8
Object
100
AcDbLine
 10
4.224999999999999
 20
12.433
 30
0.0
 11
4.179
 21
12.398
 31
0.0
  0
LINE
  5
9B3
330
18
100
AcDbEntity
  8
Object
100
AcDbLine
 10
4.179
 20
12.398
 30
0.0
 11
4.144
 21
12.353
 31
0.0
  0
LINE
  5
9B4
330
18
100
AcDbEntity
  8
Object
100
AcDbLine
 10
4.179
 20
12.087
 30
0.0
 11
4.144
 21
12.133
 31
0.0
  0
LINE
  5
9B5
330
18
100
AcDbEntity
  8
Object
100
AcDbLine
 10
4.144
 20
12.133
 30
0.0
 11
4.121999999999999
 21
12.186
 31
0.0
  0
LINE
  5
9B6
330
18
100
AcDbEntity
  8
Object
100
AcDbLine
 10
4.144
 20
12.353
 30
0.0
 11
4.121999999999999
 21
12.3
 31
0.0
  0
LINE
  5
9B7
330
18
100
AcDbEntity
  8
Object
100
AcDbLine
 10
4.121999999999999
 20
12.3
 30
0.0
 11
4.115
 21
12.243
 31
0.0
  0
LINE
  5
9B8
330
18
100
AcDbEntity
  8
Object
100
AcDbLine
 10
4.115
 20
12.243
 30
0.0
 11
4.121999999999999
 21
12.186
 31
0.0
  0
LINE
  5
9B9
330
18
100
AcDbEntity
  8
Object
100
AcDbLine
 10
4.262
 20
12.312
 30
0.0
 11
4.278
 21
12.325
 31
0.0
  0
LINE
  5
9BA
330
18
100
AcDbEntity
  8
Object
100
AcDbLine
 10
4.254999999999999
 20
12.151
 30
0.0
 11
4.274
 21
12.134
 31
0.0
  0
LINE
  5
9BB
330
18
100
AcDbEntity
  8
Object
100
AcDbLine
 10
4.274
 20
12.134
 30
0.0
 11
4.241999999999999
 21
12.159
 31
0.0
  0
LINE
  5
9BC
330
18
100
AcDbEntity
  8
Object
100
AcDbLine
 10
4.254999999999999
 20
12.151
 30
0.0
 11
4.238999999999999
 21
12.171
 31
0.0
  0
LINE
  5
9BD
330
18
100
AcDbEntity
  8
Object
100
AcDbLine
 10
4.24
 20
12.322
 30
0.0
 11
4.23
 21
12.312
 31
0.0
  0
LINE
  5
9BE
330
18
100
AcDbEntity
  8
Object
100
AcDbLine
 10
4.224
 20
12.22
 30
0.0
 11
4.229
 21
12.195
 31
0.0
  0
LINE
  5
9BF
330
18
100
AcDbEntity
  8
Object
100
AcDbLine
 10
4.229
 20
12.195
 30
0.0
 11
4.238999999999999
 21
12.171
 31
0.0
  0
LINE
  5
9C0
330
18
100
AcDbEntity
  8
Object
100
AcDbLine
 10
4.219999999999999
 20
12.194
 30
0.0
 11
4.241999999999999
 21
12.159
 31
0.0
  0
LINE
  5
9C1
330
18
100
AcDbEntity
  8
Object
100
AcDbLine
 10
4.224999999999999
 20
12.246
 30
0.0
 11
4.232
 21
12.271
 31
0.0
  0
LINE
  5
9C2
330
18
100
AcDbEntity
  8
Object
100
AcDbLine
 10
4.23
 20
12.312
 30
0.0
 11
4.214
 21
12.274
 31
0.0
  0
LINE
  5
9C3
330
18
100
AcDbEntity
  8
Object
100
AcDbLine
 10
4.214
 20
12.274
 30
0.0
 11
4.209999999999999
 21
12.233
 31
0.0
  0
LINE
  5
9C4
330
18
100
AcDbEntity
  8
Object
100
AcDbLine
 10
4.224
 20
12.22
 30
0.0
 11
4.224999999999999
 21
12.246
 31
0.0
  0
LINE
  5
9C5
330
18
100
AcDbEntity
  8
Object
100
AcDbLine
 10
4.209999999999999
 20
12.233
 30
0.0
 11
4.219999999999999
 21
12.194
 31
0.0
  0
LINE
  5
9C6
330
18
100
AcDbEntity
  8
Object
100
AcDbLine
 10
4.445999999999999
 20
12.22
 30
0.0
 11
4.445
 21
12.246
 31
0.0
  0
LINE
  5
9C7
330
18
100
AcDbEntity
  8
Object
100
AcDbLine
 10
4.445
 20
12.246
 30
0.0
 11
4.437999999999999
 21
12.271
 31
0.0
  0
LINE
  5
9C8
330
18
100
AcDbEntity
  8
Object
100
AcDbLine
 10
4.437999999999999
 20
12.271
 30
0.0
 11
4.424999999999999
 21
12.293
 31
0.0
  0
LINE
  5
9C9
330
18
100
AcDbEntity
  8
Object
100
AcDbLine
 10
4.424999999999999
 20
12.293
 30
0.0
 11
4.407
 21
12.312
 31
0.0
  0
LINE
  5
9CA
330
18
100
AcDbEntity
  8
Object
100
AcDbLine
 10
4.395999999999999
 20
12.134
 30
0.0
 11
4.415
 21
12.151
 31
0.0
  0
LINE
  5
9CB
330
18
100
AcDbEntity
  8
Object
100
AcDbLine
 10
4.31
 20
12.12
 30
0.0
 11
4.334999999999999
 21
12.118
 31
0.0
  0
LINE
  5
9CC
330
18
100
AcDbEntity
  8
Object
100
AcDbLine
 10
4.230999999999999
 20
12.173
 30
0.0
 11
4.219
 21
12.195
 31
0.0
  0
LINE
  5
9CD
330
18
100
AcDbEntity
  8
Object
100
AcDbLine
 10
4.219
 20
12.195
 30
0.0
 11
4.216
 21
12.204
 31
0.0
  0
LINE
  5
9CE
330
18
100
AcDbEntity
  8
Object
100
AcDbLine
 10
4.407
 20
12.312
 30
0.0
 11
4.405
 21
12.313
 31
0.0
  0
LINE
  5
9CF
330
18
100
AcDbEntity
  8
Object
100
AcDbLine
 10
4.405
 20
12.313
 30
0.0
 11
4.386
 21
12.329
 31
0.0
  0
LINE
  5
9D0
330
18
100
AcDbEntity
  8
Object
100
AcDbLine
 10
4.386
 20
12.329
 30
0.0
 11
4.373
 21
12.335
 31
0.0
  0
LINE
  5
9D1
330
18
100
AcDbEntity
  8
Object
100
AcDbLine
 10
4.373
 20
12.335
 30
0.0
 11
4.360999999999999
 21
12.339
 31
0.0
  0
LINE
  5
9D2
330
18
100
AcDbEntity
  8
Object
100
AcDbLine
 10
4.360999999999999
 20
12.339
 30
0.0
 11
4.334999999999999
 21
12.343
 31
0.0
  0
LINE
  5
9D3
330
18
100
AcDbEntity
  8
Object
100
AcDbLine
 10
4.314
 20
12.12
 30
0.0
 11
4.334999999999999
 21
12.118
 31
0.0
  0
LINE
  5
9D4
330
18
100
AcDbEntity
  8
Object
100
AcDbLine
 10
4.31
 20
12.12
 30
0.0
 11
4.293
 21
12.125
 31
0.0
  0
LINE
  5
9D5
330
18
100
AcDbEntity
  8
Object
100
AcDbLine
 10
4.293
 20
12.125
 30
0.0
 11
4.286999999999999
 21
12.127
 31
0.0
  0
LINE
  5
9D6
330
18
100
AcDbEntity
  8
Object
100
AcDbLine
 10
4.286999999999999
 20
12.127
 30
0.0
 11
4.274
 21
12.134
 31
0.0
  0
LINE
  5
9D7
330
18
100
AcDbEntity
  8
Object
100
AcDbLine
 10
4.246
 20
12.154
 30
0.0
 11
4.264999999999999
 21
12.139
 31
0.0
  0
LINE
  5
9D8
330
18
100
AcDbEntity
  8
Object
100
AcDbLine
 10
4.264999999999999
 20
12.139
 30
0.0
 11
4.274
 21
12.134
 31
0.0
  0
LINE
  5
9D9
330
18
100
AcDbEntity
  8
Object
100
AcDbLine
 10
4.241999999999999
 20
12.159
 30
0.0
 11
4.246
 21
12.154
 31
0.0
  0
LINE
  5
9DA
330
18
100
AcDbEntity
  8
Object
100
AcDbLine
 10
4.230999999999999
 20
12.313
 30
0.0
 11
4.23
 21
12.312
 31
0.0
  0
LINE
  5
9DB
330
18
100
AcDbEntity
  8
Object
100
AcDbLine
 10
4.230999999999999
 20
12.173
 30
0.0
 11
4.241999999999999
 21
12.159
 31
0.0
  0
LINE
  5
9DC
330
18
100
AcDbEntity
  8
Object
100
AcDbLine
 10
4.23
 20
12.312
 30
0.0
 11
4.227999999999999
 21
12.309
 31
0.0
  0
LINE
  5
9DD
330
18
100
AcDbEntity
  8
Object
100
AcDbLine
 10
4.214999999999999
 20
12.28
 30
0.0
 11
4.214
 21
12.274
 31
0.0
  0
LINE
  5
9DE
330
18
100
AcDbEntity
  8
Object
100
AcDbLine
 10
4.211
 20
12.22
 30
0.0
 11
4.209999999999999
 21
12.233
 31
0.0
  0
LINE
  5
9DF
330
18
100
AcDbEntity
  8
Object
100
AcDbLine
 10
4.209999999999999
 20
12.233
 30
0.0
 11
4.209999999999999
 21
12.24
 31
0.0
  0
LINE
  5
9E0
330
18
100
AcDbEntity
  8
Object
100
AcDbLine
 10
4.214
 20
12.274
 30
0.0
 11
4.213
 21
12.271
 31
0.0
  0
LINE
  5
9E1
330
18
100
AcDbEntity
  8
Object
100
AcDbLine
 10
4.334999999999999
 20
12.343
 30
0.0
 11
4.315
 21
12.341
 31
0.0
  0
LINE
  5
9E2
330
18
100
AcDbEntity
  8
Object
100
AcDbLine
 10
4.315
 20
12.341
 30
0.0
 11
4.334999999999999
 21
12.343
 31
0.0
  0
LINE
  5
9E3
330
18
100
AcDbEntity
  8
Object
100
AcDbLine
 10
4.315
 20
12.341
 30
0.0
 11
4.307999999999999
 21
12.339
 31
0.0
  0
LINE
  5
9E4
330
18
100
AcDbEntity
  8
Object
100
AcDbLine
 10
4.307999999999999
 20
12.339
 30
0.0
 11
4.294999999999999
 21
12.335
 31
0.0
  0
LINE
  5
9E5
330
18
100
AcDbEntity
  8
Object
100
AcDbLine
 10
4.294999999999999
 20
12.335
 30
0.0
 11
4.283
 21
12.329
 31
0.0
  0
LINE
  5
9E6
330
18
100
AcDbEntity
  8
Object
100
AcDbLine
 10
4.283
 20
12.329
 30
0.0
 11
4.278
 21
12.325
 31
0.0
  0
LINE
  5
9E7
330
18
100
AcDbEntity
  8
Object
100
AcDbLine
 10
4.445999999999999
 20
12.22
 30
0.0
 11
4.440999999999999
 21
12.195
 31
0.0
  0
LINE
  5
9E8
330
18
100
AcDbEntity
  8
Object
100
AcDbLine
 10
4.440999999999999
 20
12.195
 30
0.0
 11
4.429999999999999
 21
12.171
 31
0.0
  0
LINE
  5
9E9
330
18
100
AcDbEntity
  8
Object
100
AcDbLine
 10
4.429999999999999
 20
12.171
 30
0.0
 11
4.415
 21
12.151
 31
0.0
  0
LINE
  5
9EA
330
18
100
AcDbEntity
  8
Object
100
AcDbLine
 10
4.376
 20
12.125
 30
0.0
 11
4.355999999999999
 21
12.12
 31
0.0
  0
LINE
  5
9EB
330
18
100
AcDbEntity
  8
Object
100
AcDbLine
 10
4.355999999999999
 20
12.12
 30
0.0
 11
4.334999999999999
 21
12.118
 31
0.0
  0
LINE
  5
9EC
330
18
100
AcDbEntity
  8
Object
100
AcDbLine
 10
4.334999999999999
 20
12.118
 30
0.0
 11
4.314
 21
12.12
 31
0.0
  0
LINE
  5
9ED
330
18
100
AcDbEntity
  8
Object
100
AcDbLine
 10
4.334999999999999
 20
12.343
 30
0.0
 11
4.360999999999999
 21
12.339
 31
0.0
  0
LINE
  5
9EE
330
18
100
AcDbEntity
  8
Object
100
AcDbLine
 10
4.360999999999999
 20
12.339
 30
0.0
 11
4.386
 21
12.329
 31
0.0
  0
LINE
  5
9EF
330
18
100
AcDbEntity
  8
Object
100
AcDbLine
 10
4.386
 20
12.329
 30
0.0
 11
4.407
 21
12.312
 31
0.0
  0
LINE
  5
9F0
330
18
100
AcDbEntity
  8
Object
100
AcDbLine
 10
4.334999999999999
 20
12.343
 30
0.0
 11
4.307999999999999
 21
12.339
 31
0.0
  0
LINE
  5
9F1
330
18
100
AcDbEntity
  8
Object
100
AcDbLine
 10
4.307999999999999
 20
12.339
 30
0.0
 11
4.283
 21
12.329
 31
0.0
  0
LINE
  5
9F2
330
18
100
AcDbEntity
  8
Object
100
AcDbLine
 10
4.314
 20
12.12
 30
0.0
 11
4.293
 21
12.125
 31
0.0
  0
LINE
  5
9F3
330
18
100
AcDbEntity
  8
Object
100
AcDbLine
 10
4.293
 20
12.125
 30
0.0
 11
4.274
 21
12.134
 31
0.0
  0
LINE
  5
9F4
330
18
100
AcDbEntity
  8
Object
100
AcDbLine
 10
4.283
 20
12.329
 30
0.0
 11
4.262
 21
12.312
 31
0.0
  0
LINE
  5
9F5
330
18
100
AcDbEntity
  8
Object
100
AcDbLine
 10
4.232
 20
12.271
 30
0.0
 11
4.243999999999999
 21
12.293
 31
0.0
  0
LINE
  5
9F6
330
18
100
AcDbEntity
  8
Object
100
AcDbLine
 10
4.243999999999999
 20
12.293
 30
0.0
 11
4.262
 21
12.312
 31
0.0
  0
LINE
  5
9F7
330
18
100
AcDbEntity
  8
Object
100
AcDbLine
 10
4.395999999999999
 20
12.134
 30
0.0
 11
4.376
 21
12.125
 31
0.0
  0
LINE
  5
9F8
330
18
100
AcDbEntity
  8
Object
100
AcDbLine
 10
4.376
 20
12.125
 30
0.0
 11
4.365999999999999
 21
12.122
 31
0.0
  0
LINE
  5
9F9
330
18
100
AcDbEntity
  8
Object
100
AcDbLine
 10
4.365999999999999
 20
12.122
 30
0.0
 11
4.355999999999999
 21
12.12
 31
0.0
  0
LINE
  5
9FA
330
18
100
AcDbEntity
  8
Object
100
AcDbLine
 10
4.355999999999999
 20
12.12
 30
0.0
 11
4.334999999999999
 21
12.118
 31
0.0
  0
LINE
  5
9FB
330
18
100
AcDbEntity
  8
Object
100
AcDbLine
 10
11.149
 20
12.465
 30
0.0
 11
11.099
 21
12.465
 31
0.0
  0
LINE
  5
9FC
330
18
100
AcDbEntity
  8
Object
100
AcDbLine
 10
11.099
 20
12.465
 30
0.0
 11
11.092
 21
12.465
 31
0.0
  0
LINE
  5
9FD
330
18
100
AcDbEntity
  8
Object
100
AcDbLine
 10
11.092
 20
12.465
 30
0.0
 11
11.087
 21
12.465
 31
0.0
  0
LINE
  5
9FE
330
18
100
AcDbEntity
  8
Object
100
AcDbLine
 10
11.087
 20
12.465
 30
0.0
 11
11.084
 21
12.465
 31
0.0
  0
LINE
  5
9FF
330
18
100
AcDbEntity
  8
Object
100
AcDbLine
 10
11.084
 20
12.465
 30
0.0
 11
11.077
 21
12.465
 31
0.0
  0
LINE
  5
A00
330
18
100
AcDbEntity
  8
Object
100
AcDbLine
 10
11.077
 20
12.465
 30
0.0
 11
11.06
 21
12.465
 31
0.0
  0
LINE
  5
A01
330
18
100
AcDbEntity
  8
Object
100
AcDbLine
 10
11.06
 20
12.465
 30
0.0
 11
11.034
 21
12.465
 31
0.0
  0
LINE
  5
A02
330
18
100
AcDbEntity
  8
Object
100
AcDbLine
 10
11.034
 20
12.465
 30
0.0
 11
11.004
 21
12.465
 31
0.0
  0
LINE
  5
A03
330
18
100
AcDbEntity
  8
Object
100
AcDbLine
 10
11.004
 20
12.465
 30
0.0
 11
10.84
 21
12.465
 31
0.0
  0
LINE
  5
A04
330
18
100
AcDbEntity
  8
Object
100
AcDbLine
 10
10.84
 20
12.465
 30
0.0
 11
10.832
 21
12.465
 31
0.0
  0
LINE
  5
A05
330
18
100
AcDbEntity
  8
Object
100
AcDbLine
 10
11.606
 20
12.868
 30
0.0
 11
11.099
 21
12.868
 31
0.0
  0
LINE
  5
A06
330
18
100
AcDbEntity
  8
Object
100
AcDbLine
 10
11.099
 20
12.868
 30
0.0
 11
11.092
 21
12.868
 31
0.0
  0
LINE
  5
A07
330
18
100
AcDbEntity
  8
Object
100
AcDbLine
 10
11.092
 20
12.868
 30
0.0
 11
11.087
 21
12.868
 31
0.0
  0
LINE
  5
A08
330
18
100
AcDbEntity
  8
Object
100
AcDbLine
 10
11.087
 20
12.868
 30
0.0
 11
11.084
 21
12.868
 31
0.0
  0
LINE
  5
A09
330
18
100
AcDbEntity
  8
Object
100
AcDbLine
 10
11.084
 20
12.868
 30
0.0
 11
11.077
 21
12.868
 31
0.0
  0
LINE
  5
A0A
330
18
100
AcDbEntity
  8
Object
100
AcDbLine
 10
11.077
 20
12.868
 30
0.0
 11
11.06
 21
12.868
 31
0.0
  0
LINE
  5
A0B
330
18
100
AcDbEntity
  8
Object
100
AcDbLine
 10
11.06
 20
12.868
 30
0.0
 11
11.034
 21
12.868
 31
0.0
  0
LINE
  5
A0C
330
18
100
AcDbEntity
  8
Object
100
AcDbLine
 10
11.034
 20
12.868
 30
0.0
 11
11.004
 21
12.868
 31
0.0
  0
LINE
  5
A0D
330
18
100
AcDbEntity
  8
Object
100
AcDbLine
 10
11.004
 20
12.868
 30
0.0
 11
10.84
 21
12.868
 31
0.0
  0
LINE
  5
A0E
330
18
100
AcDbEntity
  8
Object
100
AcDbLine
 10
10.84
 20
12.868
 30
0.0
 11
10.832
 21
12.868
 31
0.0
  0
LINE
  5
A0F
330
18
100
AcDbEntity
  8
Object
100
AcDbLine
 10
10.832
 20
12.868
 30
0.0
 11
10.812
 21
12.862
 31
0.0
  0
LINE
  5
A10
330
18
100
AcDbEntity
  8
Object
100
AcDbLine
 10
10.812
 20
12.862
 30
0.0
 11
10.797
 21
12.848
 31
0.0
  0
LINE
  5
A11
330
18
100
AcDbEntity
  8
Object
100
AcDbLine
 10
10.797
 20
12.848
 30
0.0
 11
10.792
 21
12.828
 31
0.0
  0
LINE
  5
A12
330
18
100
AcDbEntity
  8
Object
100
AcDbLine
 10
10.792
 20
12.828
 30
0.0
 11
10.792
 21
12.505
 31
0.0
  0
LINE
  5
A13
330
18
100
AcDbEntity
  8
Object
100
AcDbLine
 10
10.812
 20
12.47
 30
0.0
 11
10.797
 21
12.485
 31
0.0
  0
LINE
  5
A14
330
18
100
AcDbEntity
  8
Object
100
AcDbLine
 10
10.797
 20
12.485
 30
0.0
 11
10.792
 21
12.505
 31
0.0
  0
LINE
  5
A15
330
18
100
AcDbEntity
  8
Object
100
AcDbLine
 10
10.812
 20
12.47
 30
0.0
 11
10.832
 21
12.465
 31
0.0
  0
LINE
  5
A16
330
18
100
AcDbEntity
  8
Object
100
AcDbLine
 10
11.708
 20
12.816
 30
0.0
 11
11.725
 21
12.781
 31
0.0
  0
LINE
  5
A17
330
18
100
AcDbEntity
  8
Object
100
AcDbLine
 10
11.725
 20
12.781
 30
0.0
 11
11.731
 21
12.743
 31
0.0
  0
LINE
  5
A18
330
18
100
AcDbEntity
  8
Object
100
AcDbLine
 10
11.731
 20
11.743
 30
0.0
 11
11.725
 21
11.704
 31
0.0
  0
LINE
  5
A19
330
18
100
AcDbEntity
  8
Object
100
AcDbLine
 10
11.725
 20
11.704
 30
0.0
 11
11.708
 21
11.669
 31
0.0
  0
LINE
  5
A1A
330
18
100
AcDbEntity
  8
Object
100
AcDbLine
 10
11.708
 20
12.816
 30
0.0
 11
11.68
 21
12.844
 31
0.0
  0
LINE
  5
A1B
330
18
100
AcDbEntity
  8
Object
100
AcDbLine
 10
11.68
 20
11.642
 30
0.0
 11
11.708
 21
11.669
 31
0.0
  0
LINE
  5
A1C
330
18
100
AcDbEntity
  8
Object
100
AcDbLine
 10
11.68
 20
12.844
 30
0.0
 11
11.645
 21
12.862
 31
0.0
  0
LINE
  5
A1D
330
18
100
AcDbEntity
  8
Object
100
AcDbLine
 10
11.645
 20
11.624
 30
0.0
 11
11.68
 21
11.642
 31
0.0
  0
LINE
  5
A1E
330
18
100
AcDbEntity
  8
Object
100
AcDbLine
 10
11.645
 20
12.862
 30
0.0
 11
11.606
 21
12.868
 31
0.0
  0
LINE
  5
A1F
330
18
100
AcDbEntity
  8
Object
100
AcDbLine
 10
11.606
 20
11.618
 30
0.0
 11
11.645
 21
11.624
 31
0.0
  0
LINE
  5
A20
330
18
100
AcDbEntity
  8
Object
100
AcDbLine
 10
11.731
 20
11.743
 30
0.0
 11
11.731
 21
12.743
 31
0.0
  0
LINE
  5
A21
330
18
100
AcDbEntity
  8
Object
100
AcDbLine
 10
11.188
 20
12.397
 30
0.0
 11
11.194
 21
12.42
 31
0.0
  0
LINE
  5
A22
330
18
100
AcDbEntity
  8
Object
100
AcDbLine
 10
11.194
 20
12.42
 30
0.0
 11
11.188
 21
12.442
 31
0.0
  0
LINE
  5
A23
330
18
100
AcDbEntity
  8
Object
100
AcDbLine
 10
11.188
 20
12.088
 30
0.0
 11
11.194
 21
12.066
 31
0.0
  0
LINE
  5
A24
330
18
100
AcDbEntity
  8
Object
100
AcDbLine
 10
11.194
 20
12.066
 30
0.0
 11
11.188
 21
12.043
 31
0.0
  0
LINE
  5
A25
330
18
100
AcDbEntity
  8
Object
100
AcDbLine
 10
11.172
 20
12.459
 30
0.0
 11
11.188
 21
12.442
 31
0.0
  0
LINE
  5
A26
330
18
100
AcDbEntity
  8
Object
100
AcDbLine
 10
11.188
 20
12.397
 30
0.0
 11
11.172
 21
12.381
 31
0.0
  0
LINE
  5
A27
330
18
100
AcDbEntity
  8
Object
100
AcDbLine
 10
11.188
 20
12.043
 30
0.0
 11
11.172
 21
12.027
 31
0.0
  0
LINE
  5
A28
330
18
100
AcDbEntity
  8
Object
100
AcDbLine
 10
11.172
 20
12.105
 30
0.0
 11
11.188
 21
12.088
 31
0.0
  0
LINE
  5
A29
330
18
100
AcDbEntity
  8
Object
100
AcDbLine
 10
11.172
 20
12.381
 30
0.0
 11
11.149
 21
12.375
 31
0.0
  0
LINE
  5
A2A
330
18
100
AcDbEntity
  8
Object
100
AcDbLine
 10
11.149
 20
12.111
 30
0.0
 11
11.172
 21
12.105
 31
0.0
  0
LINE
  5
A2B
330
18
100
AcDbEntity
  8
Object
100
AcDbLine
 10
11.149
 20
12.375
 30
0.0
 11
11.129
 21
12.375
 31
0.0
  0
LINE
  5
A2C
330
18
100
AcDbEntity
  8
Object
100
AcDbLine
 10
11.129
 20
12.111
 30
0.0
 11
11.149
 21
12.111
 31
0.0
  0
LINE
  5
A2D
330
18
100
AcDbEntity
  8
Object
100
AcDbLine
 10
11.172
 20
12.459
 30
0.0
 11
11.149
 21
12.465
 31
0.0
  0
LINE
  5
A2E
330
18
100
AcDbEntity
  8
Object
100
AcDbLine
 10
11.149
 20
12.465
 30
0.0
 11
11.099
 21
12.465
 31
0.0
  0
LINE
  5
A2F
330
18
100
AcDbEntity
  8
Object
100
AcDbLine
 10
11.606
 20
12.868
 30
0.0
 11
11.099
 21
12.868
 31
0.0
  0
LINE
  5
A30
330
18
100
AcDbEntity
  8
Object
100
AcDbLine
 10
11.099
 20
12.021
 30
0.0
 11
11.149
 21
12.021
 31
0.0
  0
LINE
  5
A31
330
18
100
AcDbEntity
  8
Object
100
AcDbLine
 10
11.149
 20
12.021
 30
0.0
 11
11.172
 21
12.027
 31
0.0
  0
LINE
  5
A32
330
18
100
AcDbEntity
  8
Object
100
AcDbLine
 10
11.099
 20
11.618
 30
0.0
 11
11.606
 21
11.618
 31
0.0
  0
LINE
  5
A33
330
18
100
AcDbEntity
  8
Object
100
AcDbLine
 10
11.077
 20
12.465
 30
0.0
 11
11.084
 21
12.465
 31
0.0
  0
LINE
  5
A34
330
18
100
AcDbEntity
  8
Object
100
AcDbLine
 10
11.077
 20
12.868
 30
0.0
 11
11.084
 21
12.868
 31
0.0
  0
LINE
  5
A35
330
18
100
AcDbEntity
  8
Object
100
AcDbLine
 10
11.084
 20
12.868
 30
0.0
 11
11.084
 21
12.465
 31
0.0
  0
LINE
  5
A36
330
18
100
AcDbEntity
  8
Object
100
AcDbLine
 10
11.06
 20
12.465
 30
0.0
 11
11.077
 21
12.465
 31
0.0
  0
LINE
  5
A37
330
18
100
AcDbEntity
  8
Object
100
AcDbLine
 10
11.077
 20
12.868
 30
0.0
 11
11.06
 21
12.868
 31
0.0
  0
LINE
  5
A38
330
18
100
AcDbEntity
  8
Object
100
AcDbLine
 10
11.06
 20
12.868
 30
0.0
 11
11.034
 21
12.868
 31
0.0
  0
LINE
  5
A39
330
18
100
AcDbEntity
  8
Object
100
AcDbLine
 10
11.06
 20
12.465
 30
0.0
 11
11.034
 21
12.465
 31
0.0
  0
LINE
  5
A3A
330
18
100
AcDbEntity
  8
Object
100
AcDbLine
 10
11.034
 20
12.465
 30
0.0
 11
11.004
 21
12.465
 31
0.0
  0
LINE
  5
A3B
330
18
100
AcDbEntity
  8
Object
100
AcDbLine
 10
11.034
 20
12.868
 30
0.0
 11
11.004
 21
12.868
 31
0.0
  0
LINE
  5
A3C
330
18
100
AcDbEntity
  8
Object
100
AcDbLine
 10
10.832
 20
12.465
 30
0.0
 11
10.84
 21
12.465
 31
0.0
  0
LINE
  5
A3D
330
18
100
AcDbEntity
  8
Object
100
AcDbLine
 10
10.82
 20
12.47
 30
0.0
 11
10.805
 21
12.485
 31
0.0
  0
LINE
  5
A3E
330
18
100
AcDbEntity
  8
Object
100
AcDbLine
 10
10.792
 20
12.505
 30
0.0
 11
10.8
 21
12.505
 31
0.0
  0
LINE
  5
A3F
330
18
100
AcDbEntity
  8
Object
100
AcDbLine
 10
10.8
 20
12.505
 30
0.0
 11
10.805
 21
12.485
 31
0.0
  0
LINE
  5
A40
330
18
100
AcDbEntity
  8
Object
100
AcDbLine
 10
11.188
 20
12.397
 30
0.0
 11
11.194
 21
12.42
 31
0.0
  0
LINE
  5
A41
330
18
100
AcDbEntity
  8
Object
100
AcDbLine
 10
11.194
 20
12.42
 30
0.0
 11
11.188
 21
12.442
 31
0.0
  0
LINE
  5
A42
330
18
100
AcDbEntity
  8
Object
100
AcDbLine
 10
11.188
 20
12.442
 30
0.0
 11
11.172
 21
12.459
 31
0.0
  0
LINE
  5
A43
330
18
100
AcDbEntity
  8
Object
100
AcDbLine
 10
11.188
 20
12.397
 30
0.0
 11
11.172
 21
12.381
 31
0.0
  0
LINE
  5
A44
330
18
100
AcDbEntity
  8
Object
100
AcDbLine
 10
11.172
 20
12.381
 30
0.0
 11
11.149
 21
12.375
 31
0.0
  0
LINE
  5
A45
330
18
100
AcDbEntity
  8
Object
100
AcDbLine
 10
11.149
 20
12.465
 30
0.0
 11
11.172
 21
12.459
 31
0.0
  0
LINE
  5
A46
330
18
100
AcDbEntity
  8
Object
100
AcDbLine
 10
11.092
 20
12.868
 30
0.0
 11
11.099
 21
12.868
 31
0.0
  0
LINE
  5
A47
330
18
100
AcDbEntity
  8
Object
100
AcDbLine
 10
11.099
 20
12.868
 30
0.0
 11
11.099
 21
12.465
 31
0.0
  0
LINE
  5
A48
330
18
100
AcDbEntity
  8
Object
100
AcDbLine
 10
11.099
 20
12.465
 30
0.0
 11
11.092
 21
12.465
 31
0.0
  0
LINE
  5
A49
330
18
100
AcDbEntity
  8
Object
100
AcDbLine
 10
11.092
 20
12.465
 30
0.0
 11
11.087
 21
12.465
 31
0.0
  0
LINE
  5
A4A
330
18
100
AcDbEntity
  8
Object
100
AcDbLine
 10
11.092
 20
12.868
 30
0.0
 11
11.087
 21
12.868
 31
0.0
  0
LINE
  5
A4B
330
18
100
AcDbEntity
  8
Object
100
AcDbLine
 10
11.084
 20
12.465
 30
0.0
 11
11.087
 21
12.465
 31
0.0
  0
LINE
  5
A4C
330
18
100
AcDbEntity
  8
Object
100
AcDbLine
 10
11.087
 20
12.868
 30
0.0
 11
11.084
 21
12.868
 31
0.0
  0
LINE
  5
A4D
330
18
100
AcDbEntity
  8
Object
100
AcDbLine
 10
10.82
 20
12.862
 30
0.0
 11
10.84
 21
12.868
 31
0.0
  0
LINE
  5
A4E
330
18
100
AcDbEntity
  8
Object
100
AcDbLine
 10
10.84
 20
12.868
 30
0.0
 11
11.004
 21
12.868
 31
0.0
  0
LINE
  5
A4F
330
18
100
AcDbEntity
  8
Object
100
AcDbLine
 10
11.004
 20
12.868
 30
0.0
 11
11.004
 21
12.465
 31
0.0
  0
LINE
  5
A50
330
18
100
AcDbEntity
  8
Object
100
AcDbLine
 10
11.004
 20
12.465
 30
0.0
 11
10.84
 21
12.465
 31
0.0
  0
LINE
  5
A51
330
18
100
AcDbEntity
  8
Object
100
AcDbLine
 10
10.84
 20
12.465
 30
0.0
 11
10.82
 21
12.47
 31
0.0
  0
LINE
  5
A52
330
18
100
AcDbEntity
  8
Object
100
AcDbLine
 10
11.731
 20
12.743
 30
0.0
 11
11.725
 21
12.781
 31
0.0
  0
LINE
  5
A53
330
18
100
AcDbEntity
  8
Object
100
AcDbLine
 10
11.725
 20
12.781
 30
0.0
 11
11.708
 21
12.816
 31
0.0
  0
LINE
  5
A54
330
18
100
AcDbEntity
  8
Object
100
AcDbLine
 10
11.708
 20
12.816
 30
0.0
 11
11.68
 21
12.844
 31
0.0
  0
LINE
  5
A55
330
18
100
AcDbEntity
  8
Object
100
AcDbLine
 10
11.68
 20
12.844
 30
0.0
 11
11.645
 21
12.862
 31
0.0
  0
LINE
  5
A56
330
18
100
AcDbEntity
  8
Object
100
AcDbLine
 10
11.645
 20
12.862
 30
0.0
 11
11.606
 21
12.868
 31
0.0
  0
LINE
  5
A57
330
18
100
AcDbEntity
  8
Object
100
AcDbLine
 10
10.84
 20
12.868
 30
0.0
 11
10.832
 21
12.868
 31
0.0
  0
LINE
  5
A58
330
18
100
AcDbEntity
  8
Object
100
AcDbLine
 10
10.82
 20
12.862
 30
0.0
 11
10.805
 21
12.848
 31
0.0
  0
LINE
  5
A59
330
18
100
AcDbEntity
  8
Object
100
AcDbLine
 10
10.805
 20
12.848
 30
0.0
 11
10.8
 21
12.828
 31
0.0
  0
LINE
  5
A5A
330
18
100
AcDbEntity
  8
Object
100
AcDbLine
 10
10.8
 20
12.828
 30
0.0
 11
10.792
 21
12.828
 31
0.0
  0
LINE
  5
A5B
330
18
100
AcDbEntity
  8
Object
100
AcDbLine
 10
10.8
 20
12.505
 30
0.0
 11
10.8
 21
12.828
 31
0.0
  0
LINE
  5
A5C
330
18
100
AcDbEntity
  8
Object
100
AcDbLine
 10
11.731
 20
11.743
 30
0.0
 11
11.731
 21
12.743
 31
0.0
  0
LINE
  5
A5D
330
18
100
AcDbEntity
  8
Object
100
AcDbLine
 10
11.129
 20
12.111
 30
0.0
 11
11.149
 21
12.111
 31
0.0
  0
LINE
  5
A5E
330
18
100
AcDbEntity
  8
Object
100
AcDbLine
 10
11.731
 20
11.743
 30
0.0
 11
11.725
 21
11.704
 31
0.0
  0
LINE
  5
A5F
330
18
100
AcDbEntity
  8
Object
100
AcDbLine
 10
11.725
 20
11.704
 30
0.0
 11
11.708
 21
11.669
 31
0.0
  0
LINE
  5
A60
330
18
100
AcDbEntity
  8
Object
100
AcDbLine
 10
11.708
 20
11.669
 30
0.0
 11
11.68
 21
11.642
 31
0.0
  0
LINE
  5
A61
330
18
100
AcDbEntity
  8
Object
100
AcDbLine
 10
11.68
 20
11.642
 30
0.0
 11
11.645
 21
11.624
 31
0.0
  0
LINE
  5
A62
330
18
100
AcDbEntity
  8
Object
100
AcDbLine
 10
11.645
 20
11.624
 30
0.0
 11
11.606
 21
11.618
 31
0.0
  0
LINE
  5
A63
330
18
100
AcDbEntity
  8
Object
100
AcDbLine
 10
11.092
 20
12.021
 30
0.0
 11
11.099
 21
12.021
 31
0.0
  0
LINE
  5
A64
330
18
100
AcDbEntity
  8
Object
100
AcDbLine
 10
11.099
 20
12.021
 30
0.0
 11
11.099
 21
11.618
 31
0.0
  0
LINE
  5
A65
330
18
100
AcDbEntity
  8
Object
100
AcDbLine
 10
11.099
 20
11.618
 30
0.0
 11
11.092
 21
11.618
 31
0.0
  0
LINE
  5
A66
330
18
100
AcDbEntity
  8
Object
100
AcDbLine
 10
11.092
 20
12.021
 30
0.0
 11
11.087
 21
12.021
 31
0.0
  0
LINE
  5
A67
330
18
100
AcDbEntity
  8
Object
100
AcDbLine
 10
11.092
 20
11.618
 30
0.0
 11
11.087
 21
11.618
 31
0.0
  0
LINE
  5
A68
330
18
100
AcDbEntity
  8
Object
100
AcDbLine
 10
11.087
 20
11.618
 30
0.0
 11
11.084
 21
11.618
 31
0.0
  0
LINE
  5
A69
330
18
100
AcDbEntity
  8
Object
100
AcDbLine
 10
11.087
 20
12.021
 30
0.0
 11
11.084
 21
12.021
 31
0.0
  0
LINE
  5
A6A
330
18
100
AcDbEntity
  8
Object
100
AcDbLine
 10
11.606
 20
11.618
 30
0.0
 11
11.099
 21
11.618
 31
0.0
  0
LINE
  5
A6B
330
18
100
AcDbEntity
  8
Object
100
AcDbLine
 10
11.099
 20
11.618
 30
0.0
 11
11.092
 21
11.618
 31
0.0
  0
LINE
  5
A6C
330
18
100
AcDbEntity
  8
Object
100
AcDbLine
 10
11.092
 20
11.618
 30
0.0
 11
11.087
 21
11.618
 31
0.0
  0
LINE
  5
A6D
330
18
100
AcDbEntity
  8
Object
100
AcDbLine
 10
11.087
 20
11.618
 30
0.0
 11
11.084
 21
11.618
 31
0.0
  0
LINE
  5
A6E
330
18
100
AcDbEntity
  8
Object
100
AcDbLine
 10
11.084
 20
11.618
 30
0.0
 11
11.077
 21
11.618
 31
0.0
  0
LINE
  5
A6F
330
18
100
AcDbEntity
  8
Object
100
AcDbLine
 10
11.077
 20
11.618
 30
0.0
 11
11.06
 21
11.618
 31
0.0
  0
LINE
  5
A70
330
18
100
AcDbEntity
  8
Object
100
AcDbLine
 10
11.06
 20
11.618
 30
0.0
 11
11.034
 21
11.618
 31
0.0
  0
LINE
  5
A71
330
18
100
AcDbEntity
  8
Object
100
AcDbLine
 10
11.034
 20
11.618
 30
0.0
 11
11.004
 21
11.618
 31
0.0
  0
LINE
  5
A72
330
18
100
AcDbEntity
  8
Object
100
AcDbLine
 10
11.004
 20
11.618
 30
0.0
 11
10.84
 21
11.618
 31
0.0
  0
LINE
  5
A73
330
18
100
AcDbEntity
  8
Object
100
AcDbLine
 10
10.84
 20
11.618
 30
0.0
 11
10.832
 21
11.618
 31
0.0
  0
LINE
  5
A74
330
18
100
AcDbEntity
  8
Object
100
AcDbLine
 10
11.149
 20
12.021
 30
0.0
 11
11.099
 21
12.021
 31
0.0
  0
LINE
  5
A75
330
18
100
AcDbEntity
  8
Object
100
AcDbLine
 10
11.099
 20
12.021
 30
0.0
 11
11.092
 21
12.021
 31
0.0
  0
LINE
  5
A76
330
18
100
AcDbEntity
  8
Object
100
AcDbLine
 10
11.092
 20
12.021
 30
0.0
 11
11.087
 21
12.021
 31
0.0
  0
LINE
  5
A77
330
18
100
AcDbEntity
  8
Object
100
AcDbLine
 10
11.087
 20
12.021
 30
0.0
 11
11.084
 21
12.021
 31
0.0
  0
LINE
  5
A78
330
18
100
AcDbEntity
  8
Object
100
AcDbLine
 10
11.084
 20
12.021
 30
0.0
 11
11.077
 21
12.021
 31
0.0
  0
LINE
  5
A79
330
18
100
AcDbEntity
  8
Object
100
AcDbLine
 10
11.077
 20
12.021
 30
0.0
 11
11.06
 21
12.021
 31
0.0
  0
LINE
  5
A7A
330
18
100
AcDbEntity
  8
Object
100
AcDbLine
 10
11.06
 20
12.021
 30
0.0
 11
11.034
 21
12.021
 31
0.0
  0
LINE
  5
A7B
330
18
100
AcDbEntity
  8
Object
100
AcDbLine
 10
11.034
 20
12.021
 30
0.0
 11
11.004
 21
12.021
 31
0.0
  0
LINE
  5
A7C
330
18
100
AcDbEntity
  8
Object
100
AcDbLine
 10
11.004
 20
12.021
 30
0.0
 11
10.84
 21
12.021
 31
0.0
  0
LINE
  5
A7D
330
18
100
AcDbEntity
  8
Object
100
AcDbLine
 10
10.84
 20
12.021
 30
0.0
 11
10.832
 21
12.021
 31
0.0
  0
LINE
  5
A7E
330
18
100
AcDbEntity
  8
Object
100
AcDbLine
 10
11.188
 20
12.088
 30
0.0
 11
11.194
 21
12.066
 31
0.0
  0
LINE
  5
A7F
330
18
100
AcDbEntity
  8
Object
100
AcDbLine
 10
11.194
 20
12.066
 30
0.0
 11
11.188
 21
12.043
 31
0.0
  0
LINE
  5
A80
330
18
100
AcDbEntity
  8
Object
100
AcDbLine
 10
11.172
 20
12.105
 30
0.0
 11
11.188
 21
12.088
 31
0.0
  0
LINE
  5
A81
330
18
100
AcDbEntity
  8
Object
100
AcDbLine
 10
11.188
 20
12.043
 30
0.0
 11
11.172
 21
12.027
 31
0.0
  0
LINE
  5
A82
330
18
100
AcDbEntity
  8
Object
100
AcDbLine
 10
11.172
 20
12.027
 30
0.0
 11
11.149
 21
12.021
 31
0.0
  0
LINE
  5
A83
330
18
100
AcDbEntity
  8
Object
100
AcDbLine
 10
11.149
 20
12.111
 30
0.0
 11
11.172
 21
12.105
 31
0.0
  0
LINE
  5
A84
330
18
100
AcDbEntity
  8
Object
100
AcDbLine
 10
11.149
 20
12.375
 30
0.0
 11
11.129
 21
12.375
 31
0.0
  0
LINE
  5
A85
330
18
100
AcDbEntity
  8
Object
100
AcDbLine
 10
11.129
 20
12.375
 30
0.0
 11
11.106
 21
12.375
 31
0.0
  0
LINE
  5
A86
330
18
100
AcDbEntity
  8
Object
100
AcDbLine
 10
11.129
 20
12.375
 30
0.0
 11
11.129
 21
12.111
 31
0.0
  0
LINE
  5
A87
330
18
100
AcDbEntity
  8
Object
100
AcDbLine
 10
11.129
 20
12.111
 30
0.0
 11
11.106
 21
12.111
 31
0.0
  0
LINE
  5
A88
330
18
100
AcDbEntity
  8
Object
100
AcDbLine
 10
11.106
 20
12.375
 30
0.0
 11
11.084
 21
12.375
 31
0.0
  0
LINE
  5
A89
330
18
100
AcDbEntity
  8
Object
100
AcDbLine
 10
11.106
 20
12.111
 30
0.0
 11
11.084
 21
12.111
 31
0.0
  0
LINE
  5
A8A
330
18
100
AcDbEntity
  8
Object
100
AcDbLine
 10
11.084
 20
12.111
 30
0.0
 11
11.066
 21
12.111
 31
0.0
  0
LINE
  5
A8B
330
18
100
AcDbEntity
  8
Object
100
AcDbLine
 10
11.084
 20
12.375
 30
0.0
 11
11.066
 21
12.375
 31
0.0
  0
LINE
  5
A8C
330
18
100
AcDbEntity
  8
Object
100
AcDbLine
 10
11.129
 20
12.111
 30
0.0
 11
11.106
 21
12.111
 31
0.0
  0
LINE
  5
A8D
330
18
100
AcDbEntity
  8
Object
100
AcDbLine
 10
11.106
 20
12.111
 30
0.0
 11
11.084
 21
12.111
 31
0.0
  0
LINE
  5
A8E
330
18
100
AcDbEntity
  8
Object
100
AcDbLine
 10
11.084
 20
12.111
 30
0.0
 11
11.066
 21
12.111
 31
0.0
  0
LINE
  5
A8F
330
18
100
AcDbEntity
  8
Object
100
AcDbLine
 10
11.077
 20
12.021
 30
0.0
 11
11.084
 21
12.021
 31
0.0
  0
LINE
  5
A90
330
18
100
AcDbEntity
  8
Object
100
AcDbLine
 10
11.084
 20
12.021
 30
0.0
 11
11.084
 21
11.618
 31
0.0
  0
LINE
  5
A91
330
18
100
AcDbEntity
  8
Object
100
AcDbLine
 10
11.084
 20
11.618
 30
0.0
 11
11.077
 21
11.618
 31
0.0
  0
LINE
  5
A92
330
18
100
AcDbEntity
  8
Object
100
AcDbLine
 10
11.077
 20
12.021
 30
0.0
 11
11.06
 21
12.021
 31
0.0
  0
LINE
  5
A93
330
18
100
AcDbEntity
  8
Object
100
AcDbLine
 10
11.077
 20
11.618
 30
0.0
 11
11.06
 21
11.618
 31
0.0
  0
LINE
  5
A94
330
18
100
AcDbEntity
  8
Object
100
AcDbLine
 10
11.06
 20
11.618
 30
0.0
 11
11.034
 21
11.618
 31
0.0
  0
LINE
  5
A95
330
18
100
AcDbEntity
  8
Object
100
AcDbLine
 10
11.06
 20
12.021
 30
0.0
 11
11.034
 21
12.021
 31
0.0
  0
LINE
  5
A96
330
18
100
AcDbEntity
  8
Object
100
AcDbLine
 10
11.004
 20
11.618
 30
0.0
 11
11.034
 21
11.618
 31
0.0
  0
LINE
  5
A97
330
18
100
AcDbEntity
  8
Object
100
AcDbLine
 10
11.034
 20
12.021
 30
0.0
 11
11.004
 21
12.021
 31
0.0
  0
LINE
  5
A98
330
18
100
AcDbEntity
  8
Object
100
AcDbLine
 10
10.82
 20
12.015
 30
0.0
 11
10.84
 21
12.021
 31
0.0
  0
LINE
  5
A99
330
18
100
AcDbEntity
  8
Object
100
AcDbLine
 10
10.84
 20
12.021
 30
0.0
 11
11.004
 21
12.021
 31
0.0
  0
LINE
  5
A9A
330
18
100
AcDbEntity
  8
Object
100
AcDbLine
 10
11.004
 20
12.021
 30
0.0
 11
11.004
 21
11.618
 31
0.0
  0
LINE
  5
A9B
330
18
100
AcDbEntity
  8
Object
100
AcDbLine
 10
11.004
 20
11.618
 30
0.0
 11
10.84
 21
11.618
 31
0.0
  0
LINE
  5
A9C
330
18
100
AcDbEntity
  8
Object
100
AcDbLine
 10
10.84
 20
11.618
 30
0.0
 11
10.82
 21
11.623
 31
0.0
  0
LINE
  5
A9D
330
18
100
AcDbEntity
  8
Object
100
AcDbLine
 10
10.832
 20
11.618
 30
0.0
 11
10.84
 21
11.618
 31
0.0
  0
LINE
  5
A9E
330
18
100
AcDbEntity
  8
Object
100
AcDbLine
 10
10.797
 20
11.638
 30
0.0
 11
10.812
 21
11.623
 31
0.0
  0
LINE
  5
A9F
330
18
100
AcDbEntity
  8
Object
100
AcDbLine
 10
10.82
 20
11.623
 30
0.0
 11
10.805
 21
11.638
 31
0.0
  0
LINE
  5
AA0
330
18
100
AcDbEntity
  8
Object
100
AcDbLine
 10
10.797
 20
11.638
 30
0.0
 11
10.792
 21
11.658
 31
0.0
  0
LINE
  5
AA1
330
18
100
AcDbEntity
  8
Object
100
AcDbLine
 10
10.792
 20
11.658
 30
0.0
 11
10.8
 21
11.658
 31
0.0
  0
LINE
  5
AA2
330
18
100
AcDbEntity
  8
Object
100
AcDbLine
 10
10.8
 20
11.658
 30
0.0
 11
10.805
 21
11.638
 31
0.0
  0
LINE
  5
AA3
330
18
100
AcDbEntity
  8
Object
100
AcDbLine
 10
10.812
 20
11.623
 30
0.0
 11
10.832
 21
11.618
 31
0.0
  0
LINE
  5
AA4
330
18
100
AcDbEntity
  8
Object
100
AcDbLine
 10
10.832
 20
12.021
 30
0.0
 11
10.812
 21
12.015
 31
0.0
  0
LINE
  5
AA5
330
18
100
AcDbEntity
  8
Object
100
AcDbLine
 10
10.812
 20
12.015
 30
0.0
 11
10.797
 21
12.001
 31
0.0
  0
LINE
  5
AA6
330
18
100
AcDbEntity
  8
Object
100
AcDbLine
 10
10.797
 20
12.001
 30
0.0
 11
10.792
 21
11.981
 31
0.0
  0
LINE
  5
AA7
330
18
100
AcDbEntity
  8
Object
100
AcDbLine
 10
10.792
 20
11.981
 30
0.0
 11
10.792
 21
11.658
 31
0.0
  0
LINE
  5
AA8
330
18
100
AcDbEntity
  8
Object
100
AcDbLine
 10
10.84
 20
12.021
 30
0.0
 11
10.832
 21
12.021
 31
0.0
  0
LINE
  5
AA9
330
18
100
AcDbEntity
  8
Object
100
AcDbLine
 10
10.82
 20
12.015
 30
0.0
 11
10.805
 21
12.001
 31
0.0
  0
LINE
  5
AAA
330
18
100
AcDbEntity
  8
Object
100
AcDbLine
 10
10.805
 20
12.001
 30
0.0
 11
10.8
 21
11.981
 31
0.0
  0
LINE
  5
AAB
330
18
100
AcDbEntity
  8
Object
100
AcDbLine
 10
11.129
 20
12.375
 30
0.0
 11
11.106
 21
12.375
 31
0.0
  0
LINE
  5
AAC
330
18
100
AcDbEntity
  8
Object
100
AcDbLine
 10
11.106
 20
12.375
 30
0.0
 11
11.084
 21
12.375
 31
0.0
  0
LINE
  5
AAD
330
18
100
AcDbEntity
  8
Object
100
AcDbLine
 10
11.084
 20
12.375
 30
0.0
 11
11.066
 21
12.375
 31
0.0
  0
LINE
  5
AAE
330
18
100
AcDbEntity
  8
Object
100
AcDbLine
 10
11.066
 20
12.375
 30
0.0
 11
10.8
 21
12.375
 31
0.0
  0
LINE
  5
AAF
330
18
100
AcDbEntity
  8
Object
100
AcDbLine
 10
11.066
 20
12.375
 30
0.0
 11
11.066
 21
12.111
 31
0.0
  0
LINE
  5
AB0
330
18
100
AcDbEntity
  8
Object
100
AcDbLine
 10
11.066
 20
12.111
 30
0.0
 11
10.8
 21
12.111
 31
0.0
  0
LINE
  5
AB1
330
18
100
AcDbEntity
  8
Object
100
AcDbLine
 10
10.781
 20
12.36
 30
0.0
 11
10.789
 21
12.371
 31
0.0
  0
LINE
  5
AB2
330
18
100
AcDbEntity
  8
Object
100
AcDbLine
 10
10.789
 20
12.371
 30
0.0
 11
10.8
 21
12.375
 31
0.0
  0
LINE
  5
AB3
330
18
100
AcDbEntity
  8
Object
100
AcDbLine
 10
10.8
 20
12.111
 30
0.0
 11
10.789
 21
12.115
 31
0.0
  0
LINE
  5
AB4
330
18
100
AcDbEntity
  8
Object
100
AcDbLine
 10
10.789
 20
12.115
 30
0.0
 11
10.781
 21
12.126
 31
0.0
  0
LINE
  5
AB5
330
18
100
AcDbEntity
  8
Object
100
AcDbLine
 10
10.781
 20
12.36
 30
0.0
 11
10.779
 21
12.345
 31
0.0
  0
LINE
  5
AB6
330
18
100
AcDbEntity
  8
Object
100
AcDbLine
 10
10.781
 20
12.126
 30
0.0
 11
10.779
 21
12.141
 31
0.0
  0
LINE
  5
AB7
330
18
100
AcDbEntity
  8
Object
100
AcDbLine
 10
10.779
 20
12.141
 30
0.0
 11
10.779
 21
12.345
 31
0.0
  0
LINE
  5
AB8
330
18
100
AcDbEntity
  8
Object
100
AcDbLine
 10
10.8
 20
12.111
 30
0.0
 11
11.066
 21
12.111
 31
0.0
  0
LINE
  5
AB9
330
18
100
AcDbEntity
  8
Object
100
AcDbLine
 10
10.792
 20
11.981
 30
0.0
 11
10.8
 21
11.981
 31
0.0
  0
LINE
  5
ABA
330
18
100
AcDbEntity
  8
Object
100
AcDbLine
 10
10.8
 20
11.981
 30
0.0
 11
10.8
 21
11.658
 31
0.0
  0
LINE
  5
ABB
330
18
100
AcDbEntity
  8
Object
100
AcDbLine
 10
11.066
 20
12.375
 30
0.0
 11
10.8
 21
12.375
 31
0.0
  0
LINE
  5
ABC
330
18
100
AcDbEntity
  8
Object
100
AcDbLine
 10
11.417
 20
12.119
 30
0.0
 11
11.376
 21
12.13
 31
0.0
  0
LINE
  5
ABD
330
18
100
AcDbEntity
  8
Object
100
AcDbLine
 10
11.377
 20
12.13
 30
0.0
 11
11.375
 21
12.131
 31
0.0
  0
LINE
  5
ABE
330
18
100
AcDbEntity
  8
Object
100
AcDbLine
 10
11.344
 20
12.153
 30
0.0
 11
11.339
 21
12.158
 31
0.0
  0
LINE
  5
ABF
330
18
100
AcDbEntity
  8
Object
100
AcDbLine
 10
11.318
 20
12.188
 30
0.0
 11
11.316
 21
12.192
 31
0.0
  0
LINE
  5
AC0
330
18
100
AcDbEntity
  8
Object
100
AcDbLine
 10
11.64
 20
12.243
 30
0.0
 11
11.633
 21
12.188
 31
0.0
  0
LINE
  5
AC1
330
18
100
AcDbEntity
  8
Object
100
AcDbLine
 10
11.633
 20
12.188
 30
0.0
 11
11.612
 21
12.138
 31
0.0
  0
LINE
  5
AC2
330
18
100
AcDbEntity
  8
Object
100
AcDbLine
 10
11.64
 20
12.243
 30
0.0
 11
11.633
 21
12.297
 31
0.0
  0
LINE
  5
AC3
330
18
100
AcDbEntity
  8
Object
100
AcDbLine
 10
11.579
 20
12.094
 30
0.0
 11
11.612
 21
12.138
 31
0.0
  0
LINE
  5
AC4
330
18
100
AcDbEntity
  8
Object
100
AcDbLine
 10
11.579
 20
12.391
 30
0.0
 11
11.612
 21
12.348
 31
0.0
  0
LINE
  5
AC5
330
18
100
AcDbEntity
  8
Object
100
AcDbLine
 10
11.612
 20
12.348
 30
0.0
 11
11.633
 21
12.297
 31
0.0
  0
LINE
  5
AC6
330
18
100
AcDbEntity
  8
Object
100
AcDbLine
 10
11.579
 20
12.391
 30
0.0
 11
11.535
 21
12.425
 31
0.0
  0
LINE
  5
AC7
330
18
100
AcDbEntity
  8
Object
100
AcDbLine
 10
11.535
 20
12.061
 30
0.0
 11
11.579
 21
12.094
 31
0.0
  0
LINE
  5
AC8
330
18
100
AcDbEntity
  8
Object
100
AcDbLine
 10
11.535
 20
12.425
 30
0.0
 11
11.485
 21
12.446
 31
0.0
  0
LINE
  5
AC9
330
18
100
AcDbEntity
  8
Object
100
AcDbLine
 10
11.47
 20
12.132
 30
0.0
 11
11.466
 21
12.129
 31
0.0
  0
LINE
  5
ACA
330
18
100
AcDbEntity
  8
Object
100
AcDbLine
 10
11.485
 20
12.04
 30
0.0
 11
11.535
 21
12.061
 31
0.0
  0
LINE
  5
ACB
330
18
100
AcDbEntity
  8
Object
100
AcDbLine
 10
11.466
 20
12.129
 30
0.0
 11
11.442
 21
12.121
 31
0.0
  0
LINE
  5
ACC
330
18
100
AcDbEntity
  8
Object
100
AcDbLine
 10
11.485
 20
12.446
 30
0.0
 11
11.43
 21
12.453
 31
0.0
  0
LINE
  5
ACD
330
18
100
AcDbEntity
  8
Object
100
AcDbLine
 10
11.43
 20
12.033
 30
0.0
 11
11.485
 21
12.04
 31
0.0
  0
LINE
  5
ACE
330
18
100
AcDbEntity
  8
Object
100
AcDbLine
 10
11.442
 20
12.121
 30
0.0
 11
11.417
 21
12.119
 31
0.0
  0
LINE
  5
ACF
330
18
100
AcDbEntity
  8
Object
100
AcDbLine
 10
11.376
 20
12.13
 30
0.0
 11
11.341
 21
12.155
 31
0.0
  0
LINE
  5
AD0
330
18
100
AcDbEntity
  8
Object
100
AcDbLine
 10
11.341
 20
12.155
 30
0.0
 11
11.317
 21
12.19
 31
0.0
  0
LINE
  5
AD1
330
18
100
AcDbEntity
  8
Object
100
AcDbLine
 10
11.249
 20
12.348
 30
0.0
 11
11.228
 21
12.297
 31
0.0
  0
LINE
  5
AD2
330
18
100
AcDbEntity
  8
Object
100
AcDbLine
 10
11.316
 20
12.266
 30
0.0
 11
11.321
 21
12.277
 31
0.0
  0
LINE
  5
AD3
330
18
100
AcDbEntity
  8
Object
100
AcDbLine
 10
11.317
 20
12.19
 30
0.0
 11
11.311
 21
12.215
 31
0.0
  0
LINE
  5
AD4
330
18
100
AcDbEntity
  8
Object
100
AcDbLine
 10
11.316
 20
12.266
 30
0.0
 11
11.311
 21
12.241
 31
0.0
  0
LINE
  5
AD5
330
18
100
AcDbEntity
  8
Object
100
AcDbLine
 10
11.311
 20
12.241
 30
0.0
 11
11.311
 21
12.215
 31
0.0
  0
LINE
  5
AD6
330
18
100
AcDbEntity
  8
Object
100
AcDbLine
 10
11.373
 20
12.455
 30
0.0
 11
11.43
 21
12.463
 31
0.0
  0
LINE
  5
AD7
330
18
100
AcDbEntity
  8
Object
100
AcDbLine
 10
11.43
 20
12.463
 30
0.0
 11
11.43
 21
12.453
 31
0.0
  0
LINE
  5
AD8
330
18
100
AcDbEntity
  8
Object
100
AcDbLine
 10
11.43
 20
12.453
 30
0.0
 11
11.376
 21
12.446
 31
0.0
  0
LINE
  5
AD9
330
18
100
AcDbEntity
  8
Object
100
AcDbLine
 10
11.376
 20
12.04
 30
0.0
 11
11.43
 21
12.033
 31
0.0
  0
LINE
  5
ADA
330
18
100
AcDbEntity
  8
Object
100
AcDbLine
 10
11.43
 20
12.033
 30
0.0
 11
11.43
 21
12.023
 31
0.0
  0
LINE
  5
ADB
330
18
100
AcDbEntity
  8
Object
100
AcDbLine
 10
11.43
 20
12.023
 30
0.0
 11
11.373
 21
12.03
 31
0.0
  0
LINE
  5
ADC
330
18
100
AcDbEntity
  8
Object
100
AcDbLine
 10
11.325
 20
12.425
 30
0.0
 11
11.376
 21
12.446
 31
0.0
  0
LINE
  5
ADD
330
18
100
AcDbEntity
  8
Object
100
AcDbLine
 10
11.373
 20
12.455
 30
0.0
 11
11.32
 21
12.433
 31
0.0
  0
LINE
  5
ADE
330
18
100
AcDbEntity
  8
Object
100
AcDbLine
 10
11.376
 20
12.04
 30
0.0
 11
11.325
 21
12.061
 31
0.0
  0
LINE
  5
ADF
330
18
100
AcDbEntity
  8
Object
100
AcDbLine
 10
11.32
 20
12.052
 30
0.0
 11
11.373
 21
12.03
 31
0.0
  0
LINE
  5
AE0
330
18
100
AcDbEntity
  8
Object
100
AcDbLine
 10
11.32
 20
12.433
 30
0.0
 11
11.275
 21
12.398
 31
0.0
  0
LINE
  5
AE1
330
18
100
AcDbEntity
  8
Object
100
AcDbLine
 10
11.282
 20
12.391
 30
0.0
 11
11.325
 21
12.425
 31
0.0
  0
LINE
  5
AE2
330
18
100
AcDbEntity
  8
Object
100
AcDbLine
 10
11.275
 20
12.087
 30
0.0
 11
11.32
 21
12.052
 31
0.0
  0
LINE
  5
AE3
330
18
100
AcDbEntity
  8
Object
100
AcDbLine
 10
11.325
 20
12.061
 30
0.0
 11
11.282
 21
12.094
 31
0.0
  0
LINE
  5
AE4
330
18
100
AcDbEntity
  8
Object
100
AcDbLine
 10
11.249
 20
12.348
 30
0.0
 11
11.282
 21
12.391
 31
0.0
  0
LINE
  5
AE5
330
18
100
AcDbEntity
  8
Object
100
AcDbLine
 10
11.275
 20
12.398
 30
0.0
 11
11.24
 21
12.353
 31
0.0
  0
LINE
  5
AE6
330
18
100
AcDbEntity
  8
Object
100
AcDbLine
 10
11.282
 20
12.094
 30
0.0
 11
11.249
 21
12.138
 31
0.0
  0
LINE
  5
AE7
330
18
100
AcDbEntity
  8
Object
100
AcDbLine
 10
11.275
 20
12.087
 30
0.0
 11
11.24
 21
12.133
 31
0.0
  0
LINE
  5
AE8
330
18
100
AcDbEntity
  8
Object
100
AcDbLine
 10
11.24
 20
12.133
 30
0.0
 11
11.218
 21
12.186
 31
0.0
  0
LINE
  5
AE9
330
18
100
AcDbEntity
  8
Object
100
AcDbLine
 10
11.24
 20
12.353
 30
0.0
 11
11.218
 21
12.3
 31
0.0
  0
LINE
  5
AEA
330
18
100
AcDbEntity
  8
Object
100
AcDbLine
 10
11.228
 20
12.297
 30
0.0
 11
11.22
 21
12.243
 31
0.0
  0
LINE
  5
AEB
330
18
100
AcDbEntity
  8
Object
100
AcDbLine
 10
11.22
 20
12.243
 30
0.0
 11
11.228
 21
12.188
 31
0.0
  0
LINE
  5
AEC
330
18
100
AcDbEntity
  8
Object
100
AcDbLine
 10
11.228
 20
12.188
 30
0.0
 11
11.249
 21
12.138
 31
0.0
  0
LINE
  5
AED
330
18
100
AcDbEntity
  8
Object
100
AcDbLine
 10
11.218
 20
12.186
 30
0.0
 11
11.21
 21
12.243
 31
0.0
  0
LINE
  5
AEE
330
18
100
AcDbEntity
  8
Object
100
AcDbLine
 10
11.21
 20
12.243
 30
0.0
 11
11.218
 21
12.3
 31
0.0
  0
LINE
  5
AEF
330
18
100
AcDbEntity
  8
Object
100
AcDbLine
 10
11.643
 20
12.3
 30
0.0
 11
11.65
 21
12.243
 31
0.0
  0
LINE
  5
AF0
330
18
100
AcDbEntity
  8
Object
100
AcDbLine
 10
11.65
 20
12.243
 30
0.0
 11
11.643
 21
12.186
 31
0.0
  0
LINE
  5
AF1
330
18
100
AcDbEntity
  8
Object
100
AcDbLine
 10
11.643
 20
12.186
 30
0.0
 11
11.621
 21
12.133
 31
0.0
  0
LINE
  5
AF2
330
18
100
AcDbEntity
  8
Object
100
AcDbLine
 10
11.643
 20
12.3
 30
0.0
 11
11.621
 21
12.353
 31
0.0
  0
LINE
  5
AF3
330
18
100
AcDbEntity
  8
Object
100
AcDbLine
 10
11.621
 20
12.353
 30
0.0
 11
11.586
 21
12.398
 31
0.0
  0
LINE
  5
AF4
330
18
100
AcDbEntity
  8
Object
100
AcDbLine
 10
11.586
 20
12.087
 30
0.0
 11
11.621
 21
12.133
 31
0.0
  0
LINE
  5
AF5
330
18
100
AcDbEntity
  8
Object
100
AcDbLine
 10
11.586
 20
12.398
 30
0.0
 11
11.54
 21
12.433
 31
0.0
  0
LINE
  5
AF6
330
18
100
AcDbEntity
  8
Object
100
AcDbLine
 10
11.54
 20
12.052
 30
0.0
 11
11.586
 21
12.087
 31
0.0
  0
LINE
  5
AF7
330
18
100
AcDbEntity
  8
Object
100
AcDbLine
 10
11.54
 20
12.433
 30
0.0
 11
11.487
 21
12.455
 31
0.0
  0
LINE
  5
AF8
330
18
100
AcDbEntity
  8
Object
100
AcDbLine
 10
11.487
 20
12.03
 30
0.0
 11
11.54
 21
12.052
 31
0.0
  0
LINE
  5
AF9
330
18
100
AcDbEntity
  8
Object
100
AcDbLine
 10
11.487
 20
12.455
 30
0.0
 11
11.43
 21
12.463
 31
0.0
  0
LINE
  5
AFA
330
18
100
AcDbEntity
  8
Object
100
AcDbLine
 10
11.487
 20
12.03
 30
0.0
 11
11.43
 21
12.023
 31
0.0
  0
LINE
  5
AFB
330
18
100
AcDbEntity
  8
Object
100
AcDbLine
 10
11.43
 20
12.023
 30
0.0
 11
11.373
 21
12.03
 31
0.0
  0
LINE
  5
AFC
330
18
100
AcDbEntity
  8
Object
100
AcDbLine
 10
11.43
 20
12.463
 30
0.0
 11
11.373
 21
12.455
 31
0.0
  0
LINE
  5
AFD
330
18
100
AcDbEntity
  8
Object
100
AcDbLine
 10
11.32
 20
12.052
 30
0.0
 11
11.373
 21
12.03
 31
0.0
  0
LINE
  5
AFE
330
18
100
AcDbEntity
  8
Object
100
AcDbLine
 10
11.373
 20
12.455
 30
0.0
 11
11.32
 21
12.433
 31
0.0
  0
LINE
  5
AFF
330
18
100
AcDbEntity
  8
Object
100
AcDbLine
 10
11.32
 20
12.433
 30
0.0
 11
11.275
 21
12.398
 31
0.0
  0
LINE
  5
B00
330
18
100
AcDbEntity
  8
Object
100
AcDbLine
 10
11.32
 20
12.052
 30
0.0
 11
11.275
 21
12.087
 31
0.0
  0
LINE
  5
B01
330
18
100
AcDbEntity
  8
Object
100
AcDbLine
 10
11.275
 20
12.087
 30
0.0
 11
11.24
 21
12.133
 31
0.0
  0
LINE
  5
B02
330
18
100
AcDbEntity
  8
Object
100
AcDbLine
 10
11.275
 20
12.398
 30
0.0
 11
11.24
 21
12.353
 31
0.0
  0
LINE
  5
B03
330
18
100
AcDbEntity
  8
Object
100
AcDbLine
 10
11.24
 20
12.353
 30
0.0
 11
11.218
 21
12.3
 31
0.0
  0
LINE
  5
B04
330
18
100
AcDbEntity
  8
Object
100
AcDbLine
 10
11.218
 20
12.186
 30
0.0
 11
11.24
 21
12.133
 31
0.0
  0
LINE
  5
B05
330
18
100
AcDbEntity
  8
Object
100
AcDbLine
 10
11.218
 20
12.3
 30
0.0
 11
11.21
 21
12.243
 31
0.0
  0
LINE
  5
B06
330
18
100
AcDbEntity
  8
Object
100
AcDbLine
 10
11.21
 20
12.243
 30
0.0
 11
11.218
 21
12.186
 31
0.0
  0
LINE
  5
B07
330
18
100
AcDbEntity
  8
Object
100
AcDbLine
 10
11.643
 20
12.186
 30
0.0
 11
11.65
 21
12.243
 31
0.0
  0
LINE
  5
B08
330
18
100
AcDbEntity
  8
Object
100
AcDbLine
 10
11.65
 20
12.243
 30
0.0
 11
11.643
 21
12.3
 31
0.0
  0
LINE
  5
B09
330
18
100
AcDbEntity
  8
Object
100
AcDbLine
 10
11.643
 20
12.3
 30
0.0
 11
11.621
 21
12.353
 31
0.0
  0
LINE
  5
B0A
330
18
100
AcDbEntity
  8
Object
100
AcDbLine
 10
11.643
 20
12.186
 30
0.0
 11
11.621
 21
12.133
 31
0.0
  0
LINE
  5
B0B
330
18
100
AcDbEntity
  8
Object
100
AcDbLine
 10
11.621
 20
12.133
 30
0.0
 11
11.586
 21
12.087
 31
0.0
  0
LINE
  5
B0C
330
18
100
AcDbEntity
  8
Object
100
AcDbLine
 10
11.621
 20
12.353
 30
0.0
 11
11.586
 21
12.398
 31
0.0
  0
LINE
  5
B0D
330
18
100
AcDbEntity
  8
Object
100
AcDbLine
 10
11.586
 20
12.398
 30
0.0
 11
11.54
 21
12.433
 31
0.0
  0
LINE
  5
B0E
330
18
100
AcDbEntity
  8
Object
100
AcDbLine
 10
11.586
 20
12.087
 30
0.0
 11
11.54
 21
12.052
 31
0.0
  0
LINE
  5
B0F
330
18
100
AcDbEntity
  8
Object
100
AcDbLine
 10
11.54
 20
12.052
 30
0.0
 11
11.487
 21
12.03
 31
0.0
  0
LINE
  5
B10
330
18
100
AcDbEntity
  8
Object
100
AcDbLine
 10
11.54
 20
12.433
 30
0.0
 11
11.487
 21
12.455
 31
0.0
  0
LINE
  5
B11
330
18
100
AcDbEntity
  8
Object
100
AcDbLine
 10
11.487
 20
12.455
 30
0.0
 11
11.43
 21
12.463
 31
0.0
  0
LINE
  5
B12
330
18
100
AcDbEntity
  8
Object
100
AcDbLine
 10
11.43
 20
12.023
 30
0.0
 11
11.487
 21
12.03
 31
0.0
  0
LINE
  5
B13
330
18
100
AcDbEntity
  8
Object
100
AcDbLine
 10
11.545
 20
12.292
 30
0.0
 11
11.555
 21
12.252
 31
0.0
  0
LINE
  5
B14
330
18
100
AcDbEntity
  8
Object
100
AcDbLine
 10
11.555
 20
12.252
 30
0.0
 11
11.551
 21
12.211
 31
0.0
  0
LINE
  5
B15
330
18
100
AcDbEntity
  8
Object
100
AcDbLine
 10
11.54
 20
12.24
 30
0.0
 11
11.533
 21
12.215
 31
0.0
  0
LINE
  5
B16
330
18
100
AcDbEntity
  8
Object
100
AcDbLine
 10
11.535
 20
12.174
 30
0.0
 11
11.551
 21
12.211
 31
0.0
  0
LINE
  5
B17
330
18
100
AcDbEntity
  8
Object
100
AcDbLine
 10
11.545
 20
12.292
 30
0.0
 11
11.523
 21
12.326
 31
0.0
  0
LINE
  5
B18
330
18
100
AcDbEntity
  8
Object
100
AcDbLine
 10
11.533
 20
12.215
 30
0.0
 11
11.521
 21
12.193
 31
0.0
  0
LINE
  5
B19
330
18
100
AcDbEntity
  8
Object
100
AcDbLine
 10
11.521
 20
12.193
 30
0.0
 11
11.503
 21
12.174
 31
0.0
  0
LINE
  5
B1A
330
18
100
AcDbEntity
  8
Object
100
AcDbLine
 10
11.524
 20
12.163
 30
0.0
 11
11.535
 21
12.174
 31
0.0
  0
LINE
  5
B1B
330
18
100
AcDbEntity
  8
Object
100
AcDbLine
 10
11.523
 20
12.326
 30
0.0
 11
11.491
 21
12.352
 31
0.0
  0
LINE
  5
B1C
330
18
100
AcDbEntity
  8
Object
100
AcDbLine
 10
11.548
 20
12.282
 30
0.0
 11
11.546
 21
12.291
 31
0.0
  0
LINE
  5
B1D
330
18
100
AcDbEntity
  8
Object
100
AcDbLine
 10
11.546
 20
12.291
 30
0.0
 11
11.534
 21
12.312
 31
0.0
  0
LINE
  5
B1E
330
18
100
AcDbEntity
  8
Object
100
AcDbLine
 10
11.519
 20
12.331
 30
0.0
 11
11.5
 21
12.347
 31
0.0
  0
LINE
  5
B1F
330
18
100
AcDbEntity
  8
Object
100
AcDbLine
 10
11.35
 20
12.335
 30
0.0
 11
11.335
 21
12.314
 31
0.0
  0
LINE
  5
B20
330
18
100
AcDbEntity
  8
Object
100
AcDbLine
 10
11.335
 20
12.314
 30
0.0
 11
11.324
 21
12.291
 31
0.0
  0
LINE
  5
B21
330
18
100
AcDbEntity
  8
Object
100
AcDbLine
 10
11.32
 20
12.24
 30
0.0
 11
11.319
 21
12.265
 31
0.0
  0
LINE
  5
B22
330
18
100
AcDbEntity
  8
Object
100
AcDbLine
 10
11.319
 20
12.265
 30
0.0
 11
11.324
 21
12.291
 31
0.0
  0
LINE
  5
B23
330
18
100
AcDbEntity
  8
Object
100
AcDbLine
 10
11.43
 20
12.143
 30
0.0
 11
11.404
 21
12.146
 31
0.0
  0
LINE
  5
B24
330
18
100
AcDbEntity
  8
Object
100
AcDbLine
 10
11.404
 20
12.146
 30
0.0
 11
11.392
 21
12.15
 31
0.0
  0
LINE
  5
B25
330
18
100
AcDbEntity
  8
Object
100
AcDbLine
 10
11.404
 20
12.146
 30
0.0
 11
11.379
 21
12.157
 31
0.0
  0
LINE
  5
B26
330
18
100
AcDbEntity
  8
Object
100
AcDbLine
 10
11.379
 20
12.157
 30
0.0
 11
11.392
 21
12.15
 31
0.0
  0
LINE
  5
B27
330
18
100
AcDbEntity
  8
Object
100
AcDbLine
 10
11.358
 20
12.174
 30
0.0
 11
11.379
 21
12.157
 31
0.0
  0
LINE
  5
B28
330
18
100
AcDbEntity
  8
Object
100
AcDbLine
 10
11.379
 20
12.157
 30
0.0
 11
11.36
 21
12.172
 31
0.0
  0
LINE
  5
B29
330
18
100
AcDbEntity
  8
Object
100
AcDbLine
 10
11.36
 20
12.172
 30
0.0
 11
11.358
 21
12.174
 31
0.0
  0
LINE
  5
B2A
330
18
100
AcDbEntity
  8
Object
100
AcDbLine
 10
11.555
 20
12.245
 30
0.0
 11
11.555
 21
12.252
 31
0.0
  0
LINE
  5
B2B
330
18
100
AcDbEntity
  8
Object
100
AcDbLine
 10
11.551
 20
12.211
 30
0.0
 11
11.551
 21
12.214
 31
0.0
  0
LINE
  5
B2C
330
18
100
AcDbEntity
  8
Object
100
AcDbLine
 10
11.555
 20
12.252
 30
0.0
 11
11.553
 21
12.265
 31
0.0
  0
LINE
  5
B2D
330
18
100
AcDbEntity
  8
Object
100
AcDbLine
 10
11.549
 20
12.205
 30
0.0
 11
11.551
 21
12.211
 31
0.0
  0
LINE
  5
B2E
330
18
100
AcDbEntity
  8
Object
100
AcDbLine
 10
11.535
 20
12.174
 30
0.0
 11
11.536
 21
12.177
 31
0.0
  0
LINE
  5
B2F
330
18
100
AcDbEntity
  8
Object
100
AcDbLine
 10
11.534
 20
12.312
 30
0.0
 11
11.523
 21
12.326
 31
0.0
  0
LINE
  5
B30
330
18
100
AcDbEntity
  8
Object
100
AcDbLine
 10
11.533
 20
12.172
 30
0.0
 11
11.535
 21
12.174
 31
0.0
  0
LINE
  5
B31
330
18
100
AcDbEntity
  8
Object
100
AcDbLine
 10
11.523
 20
12.326
 30
0.0
 11
11.519
 21
12.331
 31
0.0
  0
LINE
  5
B32
330
18
100
AcDbEntity
  8
Object
100
AcDbLine
 10
11.5
 20
12.347
 30
0.0
 11
11.491
 21
12.352
 31
0.0
  0
LINE
  5
B33
330
18
100
AcDbEntity
  8
Object
100
AcDbLine
 10
11.491
 20
12.352
 30
0.0
 11
11.478
 21
12.358
 31
0.0
  0
LINE
  5
B34
330
18
100
AcDbEntity
  8
Object
100
AcDbLine
 10
11.478
 20
12.358
 30
0.0
 11
11.472
 21
12.361
 31
0.0
  0
LINE
  5
B35
330
18
100
AcDbEntity
  8
Object
100
AcDbLine
 10
11.472
 20
12.361
 30
0.0
 11
11.455
 21
12.365
 31
0.0
  0
LINE
  5
B36
330
18
100
AcDbEntity
  8
Object
100
AcDbLine
 10
11.455
 20
12.365
 30
0.0
 11
11.452
 21
12.366
 31
0.0
  0
LINE
  5
B37
330
18
100
AcDbEntity
  8
Object
100
AcDbLine
 10
11.452
 20
12.366
 30
0.0
 11
11.43
 21
12.368
 31
0.0
  0
LINE
  5
B38
330
18
100
AcDbEntity
  8
Object
100
AcDbLine
 10
11.503
 20
12.174
 30
0.0
 11
11.487
 21
12.161
 31
0.0
  0
LINE
  5
B39
330
18
100
AcDbEntity
  8
Object
100
AcDbLine
 10
11.487
 20
12.161
 30
0.0
 11
11.482
 21
12.157
 31
0.0
  0
LINE
  5
B3A
330
18
100
AcDbEntity
  8
Object
100
AcDbLine
 10
11.482
 20
12.157
 30
0.0
 11
11.47
 21
12.151
 31
0.0
  0
LINE
  5
B3B
330
18
100
AcDbEntity
  8
Object
100
AcDbLine
 10
11.47
 20
12.151
 30
0.0
 11
11.457
 21
12.146
 31
0.0
  0
LINE
  5
B3C
330
18
100
AcDbEntity
  8
Object
100
AcDbLine
 10
11.457
 20
12.146
 30
0.0
 11
11.45
 21
12.145
 31
0.0
  0
LINE
  5
B3D
330
18
100
AcDbEntity
  8
Object
100
AcDbLine
 10
11.45
 20
12.145
 30
0.0
 11
11.43
 21
12.143
 31
0.0
  0
LINE
  5
B3E
330
18
100
AcDbEntity
  8
Object
100
AcDbLine
 10
11.43
 20
12.143
 30
0.0
 11
11.457
 21
12.146
 31
0.0
  0
LINE
  5
B3F
330
18
100
AcDbEntity
  8
Object
100
AcDbLine
 10
11.43
 20
12.143
 30
0.0
 11
11.45
 21
12.145
 31
0.0
  0
LINE
  5
B40
330
18
100
AcDbEntity
  8
Object
100
AcDbLine
 10
11.54
 20
12.24
 30
0.0
 11
11.541
 21
12.265
 31
0.0
  0
LINE
  5
B41
330
18
100
AcDbEntity
  8
Object
100
AcDbLine
 10
11.511
 20
12.335
 30
0.0
 11
11.526
 21
12.314
 31
0.0
  0
LINE
  5
B42
330
18
100
AcDbEntity
  8
Object
100
AcDbLine
 10
11.526
 20
12.314
 30
0.0
 11
11.536
 21
12.291
 31
0.0
  0
LINE
  5
B43
330
18
100
AcDbEntity
  8
Object
100
AcDbLine
 10
11.536
 20
12.291
 30
0.0
 11
11.541
 21
12.265
 31
0.0
  0
LINE
  5
B44
330
18
100
AcDbEntity
  8
Object
100
AcDbLine
 10
11.511
 20
12.335
 30
0.0
 11
11.491
 21
12.352
 31
0.0
  0
LINE
  5
B45
330
18
100
AcDbEntity
  8
Object
100
AcDbLine
 10
11.491
 20
12.352
 30
0.0
 11
11.472
 21
12.361
 31
0.0
  0
LINE
  5
B46
330
18
100
AcDbEntity
  8
Object
100
AcDbLine
 10
11.472
 20
12.361
 30
0.0
 11
11.452
 21
12.366
 31
0.0
  0
LINE
  5
B47
330
18
100
AcDbEntity
  8
Object
100
AcDbLine
 10
11.503
 20
12.174
 30
0.0
 11
11.482
 21
12.157
 31
0.0
  0
LINE
  5
B48
330
18
100
AcDbEntity
  8
Object
100
AcDbLine
 10
11.482
 20
12.157
 30
0.0
 11
11.457
 21
12.146
 31
0.0
  0
LINE
  5
B49
330
18
100
AcDbEntity
  8
Object
100
AcDbLine
 10
11.404
 20
12.146
 30
0.0
 11
11.43
 21
12.143
 31
0.0
  0
LINE
  5
B4A
330
18
100
AcDbEntity
  8
Object
100
AcDbLine
 10
11.409
 20
12.366
 30
0.0
 11
11.43
 21
12.368
 31
0.0
  0
LINE
  5
B4B
330
18
100
AcDbEntity
  8
Object
100
AcDbLine
 10
11.43
 20
12.368
 30
0.0
 11
11.452
 21
12.366
 31
0.0
  0
LINE
  5
B4C
330
18
100
AcDbEntity
  8
Object
100
AcDbLine
 10
11.409
 20
12.366
 30
0.0
 11
11.389
 21
12.361
 31
0.0
  0
LINE
  5
B4D
330
18
100
AcDbEntity
  8
Object
100
AcDbLine
 10
11.389
 20
12.361
 30
0.0
 11
11.369
 21
12.352
 31
0.0
  0
LINE
  5
B4E
330
18
100
AcDbEntity
  8
Object
100
AcDbLine
 10
11.369
 20
12.352
 30
0.0
 11
11.35
 21
12.335
 31
0.0
  0
LINE
  5
B4F
330
18
100
AcDbEntity
  8
Object
100
AcDbLine
 10
11.358
 20
12.174
 30
0.0
 11
11.34
 21
12.192
 31
0.0
  0
LINE
  5
B50
330
18
100
AcDbEntity
  8
Object
100
AcDbLine
 10
11.34
 20
12.192
 30
0.0
 11
11.327
 21
12.215
 31
0.0
  0
LINE
  5
B51
330
18
100
AcDbEntity
  8
Object
100
AcDbLine
 10
11.327
 20
12.215
 30
0.0
 11
11.32
 21
12.24
 31
0.0
  0
LINE
  5
B52
330
18
100
AcDbEntity
  8
Object
100
AcDbLine
 10
11.43
 20
12.368
 30
0.0
 11
11.409
 21
12.366
 31
0.0
  0
LINE
  5
B53
330
18
100
AcDbEntity
  8
Object
100
AcDbLine
 10
11.409
 20
12.366
 30
0.0
 11
11.399
 21
12.364
 31
0.0
  0
LINE
  5
B54
330
18
100
AcDbEntity
  8
Object
100
AcDbLine
 10
11.399
 20
12.364
 30
0.0
 11
11.389
 21
12.361
 31
0.0
  0
DIMENSION
  5
B55
330
18
100
AcDbEntity
  8
Dimension
100
AcDbDimension
  2
*D0
 10
13.27433728207646
 20
11.243
 30
0.0
 11
13.27433728207645
 21
12.243
 31
0.0
 70
    32
 71
     5
 42
2.0
  3
STANDARD
100
AcDbAlignedDimension
 13
11.695
 23
13.243
 33
0.0
 14
11.695
 24
11.243
 34
0.0
 50
90.0
100
AcDbRotatedDimension
  0
DIMENSION
  5
B63
330
18
100
AcDbEntity
  8
Dimension
100
AcDbDimension
  2
*D1
 10
12.07
 20
6.356984928013126
 30
0.0
 11
7.07
 21
6.356984928013126
 31
0.0
 70
    32
 71
     5
 42
10.0
  3
STANDARD
100
AcDbAlignedDimension
 13
2.069999999999999
 23
5.315999999999999
 33
0.0
 14
12.07
 24
5.315999999999999
 34
0.0
100
AcDbRotatedDimension
  0
DIMENSION
  5
B71
330
18
100
AcDbEntity
  8
Dimension
100
AcDbDimension
  2
*D2
 10
15.83737368323339
 20
4.911999999999999
 30
0.0
 11
15.83737368323339
 21
5.114000000000002
 31
0.0
 70
    32
 71
     5
 42
0.404
  3
STANDARD
100
AcDbAlignedDimension
 13
16.82
 23
5.315999999999999
 33
0.0
 14
17.601
 24
4.911999999999999
 34
0.0
 50
90.0
100
AcDbRotatedDimension
  0
MTEXT
  5
B86
330
18
100
AcDbEntity
  8
Text
100
AcDbMText
 10
11.37324893148254
 20
0.8775685908585026
 30
0.0
 40
0.09
 41
0.25
 71
     5
 72
     5
  1
1
 73
     1
 44
1.0
1001
ACAD
1000
MTEXTBEGIN
1070
    73
1070
     1
1070
    44
1040
1.0
1070
    74
1070
     0
1000
MTEXTEND
  0
MTEXT
  5
B87
330
18
100
AcDbEntity
  8
Text
100
AcDbMText
 10
11.74824893148254
 20
0.8775685908585026
 30
0.0
 40
0.07
 41
0.5
 71
     5
 72
     5
  1
6-20-07
 73
     1
 44
1.0
1001
ACAD
1000
MTEXTBEGIN
1070
    73
1070
     1
1070
    44
1040
1.0
1070
    74
1070
     0
1000
MTEXTEND
  0
MTEXT
  5
B88
330
18
100
AcDbEntity
  8
Text
100
AcDbMText
 10
12.18574893148254
 20
0.8775685908585026
 30
0.0
 40
0.09
 41
0.375
 71
     5
 72
     5
  1
DTP
 73
     1
 44
1.0
1001
ACAD
1000
MTEXTBEGIN
1070
    73
1070
     1
1070
    44
1040
1.0
1070
    74
1070
     0
1000
MTEXTEND
  0
MTEXT
  5
B89
330
18
100
AcDbEntity
  8
Text
100
AcDbMText
 10
12.77324893148254
 20
0.8775685908585021
 30
0.0
 40
0.07
 41
2.75
 71
     4
 72
     5
  1
B. REVISED PAPER SIZE; WAS B SIZE.\PA. REVISED DRAWING TITLE.
 73
     1
 44
1.0
1001
ACAD
1000
MTEXTBEGIN
1070
    73
1070
     1
1070
    44
1040
1.0
1070
    74
1070
     0
1000
MTEXTEND
  0
MTEXT
  5
B8A
330
18
100
AcDbEntity
  8
Text
100
AcDbMText
 10
12.5604002814227
 20
0.8762490740326649
 30
0.0
 40
0.07
 41
0.375
 71
     5
 72
     5
  1
DJWA
 73
     1
 44
1.0
1001
ACAD
1000
MTEXTBEGIN
1070
    73
1070
     1
1070
    44
1040
1.0
1070
    74
1070
     0
1000
MTEXTEND
  0
LINE
  5
B8B
330
18
100
AcDbEntity
  8
Text
100
AcDbLine
 10
17.76906611123541
 20
1.51433635366758
 30
0.0
 11
17.91906611123541
 21
1.774143974802912
 31
0.0
  0
LINE
  5
B8C
330
18
100
AcDbEntity
  8
Text
100
AcDbLine
 10
17.91906611123541
 20
1.774143974802912
 30
0.0
 11
18.06906611123541
 21
1.51433635366758
 31
0.0
  0
LINE
  5
B8D
330
18
100
AcDbEntity
  8
Text
100
AcDbLine
 10
18.06906611123541
 20
1.51433635366758
 30
0.0
 11
17.76906611123541
 21
1.51433635366758
 31
0.0
  0
TEXT
  5
B8F
330
18
100
AcDbEntity
  8
Text
100
AcDbText
 10
17.8743050182601
 20
1.575096064967505
 30
0.0
 40
0.09
  1
A
100
AcDbText
  0
LINE
  5
B90
330
18
100
AcDbEntity
  8
Text
100
AcDbLine
 10
21.34268564108987
 20
0.7652284122459676
 30
0.0
 11
21.49268564108988
 21
1.025036033381299
 31
0.0
  0
LINE
  5
B91
330
18
100
AcDbEntity
  8
Text
100
AcDbLine
 10
21.49268564108988
 20
1.025036033381299
 30
0.0
 11
21.64268564108987
 21
0.7652284122459676
 31
0.0
  0
LINE
  5
B92
330
18
100
AcDbEntity
  8
Text
100
AcDbLine
 10
21.64268564108987
 20
0.7652284122459676
 30
0.0
 11
21.34268564108987
 21
0.7652284122459676
 31
0.0
  0
TEXT
  5
B93
330
18
100
AcDbEntity
  8
Text
100
AcDbText
 10
21.45465923338326
 20
0.8192561641935771
 30
0.0
 40
0.09
  1
B
100
AcDbText
  0
LINE
  5
B94
330
18
100
AcDbEntity
  8
Text
100
AcDbLine
 10
6.246845525681678
 20
4.368848603081005
 30
0.0
 11
6.39684552568168
 21
4.628656224216337
 31
0.0
  0
LINE
  5
B95
330
18
100
AcDbEntity
  8
Text
100
AcDbLine
 10
6.39684552568168
 20
4.628656224216337
 30
0.0
 11
6.546845525681678
 21
4.368848603081005
 31
0.0
  0
LINE
  5
B96
330
18
100
AcDbEntity
  8
Text
100
AcDbLine
 10
6.546845525681678
 20
4.368848603081005
 30
0.0
 11
6.246845525681678
 21
4.368848603081005
 31
0.0
  0
TEXT
  5
B97
330
18
100
AcDbEntity
  8
Text
100
AcDbText
 10
6.352084432706366
 20
4.42960831438093
 30
0.0
 40
0.09
  1
C
100
AcDbText
  0
LINE
  5
B98
330
18
100
AcDbEntity
  8
Text
100
AcDbLine
 10
16.81379525205506
 20
4.378130225247367
 30
0.0
 11
16.96379525205506
 21
4.637937846382699
 31
0.0
  0
LINE
  5
B99
330
18
100
AcDbEntity
  8
Text
100
AcDbLine
 10
16.96379525205506
 20
4.637937846382699
 30
0.0
 11
17.11379525205506
 21
4.378130225247367
 31
0.0
  0
LINE
  5
B9A
330
18
100
AcDbEntity
  8
Text
100
AcDbLine
 10
17.11379525205506
 20
4.378130225247367
 30
0.0
 11
16.81379525205506
 21
4.378130225247367
 31
0.0
  0
TEXT
  5
B9B
330
18
100
AcDbEntity
  8
Text
100
AcDbText
 10
16.92279531691168
 20
4.435130310685098
 30
0.0
 40
0.09
  1
C
100
AcDbText
  0
LINE
  5
B9C
330
18
100
AcDbEntity
  8
Text
100
AcDbLine
 10
16.48746734087943
 20
4.378130225247367
 30
0.0
 11
16.63746734087943
 21
4.637937846382699
 31
0.0
  0
LINE
  5
B9D
330
18
100
AcDbEntity
  8
Text
100
AcDbLine
 10
16.63746734087943
 20
4.637937846382699
 30
0.0
 11
16.78746734087943
 21
4.378130225247367
 31
0.0
  0
LINE
  5
B9E
330
18
100
AcDbEntity
  8
Text
100
AcDbLine
 10
16.78746734087943
 20
4.378130225247367
 30
0.0
 11
16.48746734087943
 21
4.378130225247367
 31
0.0
  0
TEXT
  5
B9F
330
18
100
AcDbEntity
  8
Text
100
AcDbText
 10
16.60398965685061
 20
4.435130310685105
 30
0.0
 40
0.09
  1
D
100
AcDbText
  0
LINE
  5
BA0
330
18
100
AcDbEntity
  8
Text
100
AcDbLine
 10
6.407508891945056
 20
10.69719635723488
 30
0.0
 11
6.557508891945058
 21
10.95700397837021
 31
0.0
  0
LINE
  5
BA1
330
18
100
AcDbEntity
  8
Text
100
AcDbLine
 10
6.557508891945058
 20
10.95700397837021
 30
0.0
 11
6.707508891945057
 21
10.69719635723488
 31
0.0
  0
LINE
  5
BA2
330
18
100
AcDbEntity
  8
Text
100
AcDbLine
 10
6.707508891945057
 20
10.69719635723488
 30
0.0
 11
6.407508891945056
 21
10.69719635723488
 31
0.0
  0
TEXT
  5
BA3
330
18
100
AcDbEntity
  8
Text
100
AcDbText
 10
6.512747798969744
 20
10.75154261515771
 30
0.0
 40
0.09
  1
C
100
AcDbText
  0
LINE
  5
BA4
330
18
100
AcDbEntity
  8
Text
100
AcDbLine
 10
15.12899827757995
 20
4.98480277373514
 30
0.0
 11
15.27899827757995
 21
5.244610394870472
 31
0.0
  0
LINE
  5
BA5
330
18
100
AcDbEntity
  8
Text
100
AcDbLine
 10
15.27899827757995
 20
5.244610394870472
 30
0.0
 11
15.42899827757995
 21
4.98480277373514
 31
0.0
  0
LINE
  5
BA6
330
18
100
AcDbEntity
  8
Text
100
AcDbLine
 10
15.42899827757995
 20
4.98480277373514
 30
0.0
 11
15.12899827757995
 21
4.98480277373514
 31
0.0
  0
TEXT
  5
BA7
330
18
100
AcDbEntity
  8
Text
100
AcDbText
 10
15.2417594357192
 20
5.038043233310682
 30
0.0
 40
0.09
  1
E
100
AcDbText
  0
LINE
  5
BA8
330
18
100
AcDbEntity
  8
Text
100
AcDbLine
 10
16.47509138217008
 20
15.9631674315593
 30
0.0
 11
16.62509138217008
 21
16.22297505269463
 31
0.0
  0
LINE
  5
BA9
330
18
100
AcDbEntity
  8
Text
100
AcDbLine
 10
16.62509138217008
 20
16.22297505269463
 30
0.0
 11
16.77509138217008
 21
15.9631674315593
 31
0.0
  0
LINE
  5
BAA
330
18
100
AcDbEntity
  8
Text
100
AcDbLine
 10
16.77509138217008
 20
15.9631674315593
 30
0.0
 11
16.47509138217008
 21
15.9631674315593
 31
0.0
  0
TEXT
  5
BAB
330
18
100
AcDbEntity
  8
Text
100
AcDbText
 10
16.58606129760602
 20
16.01103750861446
 30
0.0
 40
0.09
  1
F
100
AcDbText
  0
MTEXT
  5
BAC
330
18
100
AcDbEntity
  8
Text
100
AcDbMText
 10
11.37324893148254
 20
1.127568590858502
 30
0.0
 40
0.09
 41
0.25
 71
     5
 72
     5
  1
-
 73
     1
 44
1.0
1001
ACAD
1000
MTEXTBEGIN
1070
    73
1070
     1
1070
    44
1040
1.0
1070
    74
1070
     0
1000
MTEXTEND
  0
MTEXT
  5
BAD
330
18
100
AcDbEntity
  8
Text
100
AcDbMText
 10
11.74824893148254
 20
1.127568590858502
 30
0.0
 40
0.07
 41
0.5
 71
     5
 72
     5
  1
--------
 73
     1
 44
1.0
1001
ACAD
1000
MTEXTBEGIN
1070
    73
1070
     1
1070
    44
1040
1.0
1070
    74
1070
     0
1000
MTEXTEND
  0
MTEXT
  5
BAE
330
18
100
AcDbEntity
  8
Text
100
AcDbMText
 10
12.18574893148254
 20
1.127568590858502
 30
0.0
 40
0.09
 41
0.375
 71
     5
 72
     5
  1
---
 73
     1
 44
1.0
1001
ACAD
1000
MTEXTBEGIN
1070
    73
1070
     1
1070
    44
1040
1.0
1070
    74
1070
     0
1000
MTEXTEND
  0
MTEXT
  5
BAF
330
18
100
AcDbEntity
  8
Text
100
AcDbMText
 10
12.77324893148254
 20
1.127568590858502
 30
0.0
 40
0.07
 41
2.75
 71
     4
 72
     5
  1
D. ADDED RIGHT SIDE VIEW.\PC. REVISED PART GEOMETRY.
 73
     1
 44
1.0
1001
ACAD
1000
MTEXTBEGIN
1070
    73
1070
     1
1070
    44
1040
1.0
1070
    74
1070
     0
1000
MTEXTEND
  0
MTEXT
  5
BB0
330
18
100
AcDbEntity
  8
Text
100
AcDbMText
 10
12.5604002814227
 20
1.126249074032665
 30
0.0
 40
0.07
 41
0.375
 71
     5
 72
     5
  1
----
 73
     1
 44
1.0
1001
ACAD
1000
MTEXTBEGIN
1070
    73
1070
     1
1070
    44
1040
1.0
1070
    74
1070
     0
1000
MTEXTEND
  0
MTEXT
  5
BB1
330
18
100
AcDbEntity
  8
Text
100
AcDbMText
 10
11.37324893148254
 20
1.377568590858502
 30
0.0
 40
0.09
 41
0.25
 71
     5
 72
     5
  1
-
 73
     1
 44
1.0
1001
ACAD
1000
MTEXTBEGIN
1070
    73
1070
     1
1070
    44
1040
1.0
1070
    74
1070
     0
1000
MTEXTEND
  0
MTEXT
  5
BB2
330
18
100
AcDbEntity
  8
Text
100
AcDbMText
 10
11.74824893148254
 20
1.377568590858502
 30
0.0
 40
0.07
 41
0.5
 71
     5
 72
     5
  1
--------
 73
     1
 44
1.0
1001
ACAD
1000
MTEXTBEGIN
1070
    73
1070
     1
1070
    44
1040
1.0
1070
    74
1070
     0
1000
MTEXTEND
  0
MTEXT
  5
BB3
330
18
100
AcDbEntity
  8
Text
100
AcDbMText
 10
12.18574893148254
 20
1.377568590858502
 30
0.0
 40
0.09
 41
0.375
 71
     5
 72
     5
  1
---
 73
     1
 44
1.0
1001
ACAD
1000
MTEXTBEGIN
1070
    73
1070
     1
1070
    44
1040
1.0
1070
    74
1070
     0
1000
MTEXTEND
  0
MTEXT
  5
BB4
330
18
100
AcDbEntity
  8
Text
100
AcDbMText
 10
12.77324893148254
 20
1.377568590858502
 30
0.0
 40
0.07
 41
2.75
 71
     4
 72
     5
  1
F. ADDED GENERAL NOTES.\PE. REVISED DIMENSION.
 73
     1
 44
1.0
1001
ACAD
1000
MTEXTBEGIN
1070
    73
1070
     1
1070
    44
1040
1.0
1070
    74
1070
     0
1000
MTEXTEND
  0
MTEXT
  5
BB5
330
18
100
AcDbEntity
  8
Text
100
AcDbMText
 10
12.5604002814227
 20
1.376249074032665
 30
0.0
 40
0.07
 41
0.375
 71
     5
 72
     5
  1
----
 73
     1
 44
1.0
1001
ACAD
1000
MTEXTBEGIN
1070
    73
1070
     1
1070
    44
1040
1.0
1070
    74
1070
     0
1000
MTEXTEND
  0
DIMENSION
  5
BBC
330
18
100
AcDbEntity
  8
Dimension
100
AcDbDimension
  2
*D3
 10
2.881683279006899
 20
12.50571907542926
 30
0.0
 11
4.866047252218816
 21
10.76815705035241
 31
0.0
 70
   163
  1
0.65 DIA [16.5mm]
 71
     5
 42
0.6464812448942335
  3
STANDARD
100
AcDbDiametricDimension
 15
3.258316720993102
 25
11.98028092457074
 35
0.0
 40
0.0
1001
ACAD
1000
DSTYLE
1002
{
1070
   141
1040
0.0
1070
   288
1070
     1
1002
}
  0
ENDSEC
  0
SECTION
  2
OBJECTS
  0
DICTIONARY
  5
C
330
0
100
AcDbDictionary
281
     1
  3
ACAD_COLOR
350
10D
  3
ACAD_GROUP
350
D
  3
ACAD_LAYOUT
350
110
  3
ACAD_MATERIAL
350
10C
  3
ACAD_MLINESTYLE
350
1B
  3
ACAD_PLOTSETTINGS
350
111
  3
ACAD_PLOTSTYLENAME
350
10A
  3
ACAD_TABLESTYLE
350
10E
  3
ACDBHEADERROUNDTRIPXREC
350
BFD
  3
AcDbVariableDictionary
350
13E
  3
ASE_INDEX_DICTIONARY
350
148
  0
DICTIONARY
  5
154
330
2
100
AcDbDictionary
280
     1
281
     1
  3
ACAD_LAYERFILTERS
360
158
  3
ACLYDICTIONARY
360
157
  0
DICTIONARY
  5
10D
102
{ACAD_REACTORS
330
C
102
}
330
C
100
AcDbDictionary
281
     1
  0
DICTIONARY
  5
D
102
{ACAD_REACTORS
330
C
102
}
330
C
100
AcDbDictionary
281
     1
  0
DICTIONARY
  5
110
102
{ACAD_REACTORS
330
C
102
}
330
C
100
AcDbDictionary
281
     1
  3
Layout1
350
113
  3
Model
350
112
  0
DICTIONARY
  5
10C
102
{ACAD_REACTORS
330
C
102
}
330
C
100
AcDbDictionary
281
     1
  0
DICTIONARY
  5
1B
102
{ACAD_REACTORS
330
C
102
}
330
C
100
AcDbDictionary
281
     1
  3
STANDARD
350
1C
  0
DICTIONARY
  5
111
102
{ACAD_REACTORS
330
C
102
}
330
C
100
AcDbDictionary
281
     1
  0
ACDBDICTIONARYWDFLT
  5
10A
102
{ACAD_REACTORS
330
C
102
}
330
C
100
AcDbDictionary
281
     1
  3
Normal
350
10B
100
AcDbDictionaryWithDefault
340
10B
  0
DICTIONARY
  5
10E
102
{ACAD_REACTORS
330
C
102
}
330
C
100
AcDbDictionary
281
     1
  3
Standard
350
10F
  0
DICTIONARY
  5
BFD
102
{ACAD_REACTORS
330
C
102
}
330
C
100
AcDbDictionary
281
     1
  0
DICTIONARY
  5
13E
102
{ACAD_REACTORS
330
C
102
}
330
C
100
AcDbDictionary
281
     1
  3
CTABLESTYLE
350
13F
  3
DIMASSOC
350
BFA
  3
PROJECTNAME
350
BFB
  0
DICTIONARY
  5
148
102
{ACAD_REACTORS
330
C
102
}
330
C
100
AcDbDictionary
281
     1
  3
ASEBlockHierarchyIndexRecord
350
14A
1001
DCO15
1040
1529148047.148
  0
DICTIONARY
  5
158
102
{ACAD_REACTORS
330
154
102
}
330
154
100
AcDbDictionary
281
     1
  0
DICTIONARY
  5
157
102
{ACAD_REACTORS
330
154
102
}
330
154
100
AcDbDictionary
281
     1
1001
ACAD
1000
<All
  0
LAYOUT
  5
113
102
{ACAD_XDICTIONARY
360
C00
102
}
102
{ACAD_REACTORS
330
110
102
}
330
110
100
AcDbPlotSettings
  1

  2
\\RSENG\RSplotter4NT
  4

  6

 40
0.0
 41
0.0
 42
0.0
 43
0.0
 44
0.0
 45
0.0
 46
0.0
 47
0.0
 48
0.0
 49
0.0
140
0.0
141
0.0
142
1.0
143
1.0
 70
   688
 72
     0
 73
     0
 74
     5
  7
Symantec Fax Starter Edition
 75
    16
147
1.0
148
0.0
149
0.0
100
AcDbLayout
  1
Layout1
 70
     1
 71
     1
 10
0.0
 20
0.0
 11
12.0
 21
9.0
 12
0.0
 22
0.0
 32
0.0
 14
1.000000000000000E+20
 24
1.000000000000000E+20
 34
1.000000000000000E+20
 15
-1.000000000000000E+20
 25
-1.000000000000000E+20
 35
-1.000000000000000E+20
146
0.0
 13
0.0
 23
0.0
 33
0.0
 16
1.0
 26
0.0
 36
0.0
 17
0.0
 27
1.0
 37
0.0
 76
     0
330
15
  0
LAYOUT
  5
112
102
{ACAD_XDICTIONARY
360
BFE
102
}
102
{ACAD_REACTORS
330
110
102
}
330
110
100
AcDbPlotSettings
  1

  2
\\RSENG\RSplotter4NT
  4

  6

 40
0.0
 41
0.0
 42
0.0
 43
0.0
 44
0.0
 45
0.0
 46
0.0
 47
0.0
 48
0.0
 49
0.0
140
0.0
141
0.0
142
1.0
143
1.0
 70
  1712
 72
     0
 73
     0
 74
     0
  7
Symantec Fax Starter Edition
 75
     0
147
1.0
148
0.0
149
0.0
100
AcDbLayout
  1
Model
 70
     1
 71
     0
 10
0.0
 20
0.0
 11
12.0
 21
9.0
 12
0.0
 22
0.0
 32
0.0
 14
0.0
 24
0.0
 34
0.0
 15
0.0
 25
0.0
 35
0.0
146
0.0
 13
0.0
 23
0.0
 33
0.0
 16
1.0
 26
0.0
 36
0.0
 17
0.0
 27
1.0
 37
0.0
 76
     0
330
18
  0
MLINESTYLE
  5
1C
102
{ACAD_REACTORS
330
1B
102
}
330
1B
100
AcDbMlineStyle
  2
STANDARD
 70
     0
  3

 62
   256
 51
90.0
 52
90.0
 71
     2
 49
0.5
 62
   256
  6
BYLAYER
 49
-0.5
 62
   256
  6
BYLAYER
  0
ACDBPLACEHOLDER
  5
10B
102
{ACAD_REACTORS
330
10A
102
}
330
10A
  0
TABLESTYLE
  5
10F
102
{ACAD_REACTORS
330
10E
102
}
330
10E
100
AcDbTableStyle
  3
Standard
 70
     0
 71
     0
 40
0.06
 41
0.06
280
     0
281
     0
  7
STANDARD
140
0.18
170
     2
 62
     0
 63
     7
283
     0
274
    -2
284
     1
 64
     0
275
    -2
285
     1
 65
     0
276
    -2
286
     1
 66
     0
277
    -2
287
     1
 67
     0
278
    -2
288
     1
 68
     0
279
    -2
289
     1
 69
     0
  7
STANDARD
140
0.25
170
     5
 62
     0
 63
     7
283
     0
274
    -2
284
     1
 64
     0
275
    -2
285
     1
 65
     0
276
    -2
286
     1
 66
     0
277
    -2
287
     1
 67
     0
278
    -2
288
     1
 68
     0
279
    -2
289
     1
 69
     0
  7
STANDARD
140
0.18
170
     5
 62
     0
 63
     7
283
     0
274
    -2
284
     1
 64
     0
275
    -2
285
     1
 65
     0
276
    -2
286
     1
 66
     0
277
    -2
287
     1
 67
     0
278
    -2
288
     1
 68
     0
279
    -2
289
     1
 69
     0
  0
DICTIONARYVAR
  5
13F
102
{ACAD_REACTORS
330
13E
102
}
330
13E
100
DictionaryVariables
280
     0
  1
STANDARD
  0
DICTIONARYVAR
  5
BFA
102
{ACAD_REACTORS
330
13E
102
}
330
13E
100
DictionaryVariables
280
     0
  1
1
  0
DICTIONARYVAR
  5
BFB
102
{ACAD_REACTORS
330
13E
102
}
330
13E
100
DictionaryVariables
280
     0
  1

  0
XRECORD
  5
14A
102
{ACAD_REACTORS
330
148
102
}
330
148
100
AcDbXrecord
280
     1
  0
DICTIONARY
  5
C00
330
113
100
AcDbDictionary
280
     1
281
     1
  3
ACAD_XREC_ROUNDTRIP
360
C01
  0
DICTIONARY
  5
BFE
330
112
100
AcDbDictionary
280
     1
281
     1
  3
ACAD_XREC_ROUNDTRIP
360
BFF
  0
XRECORD
  5
C01
102
{ACAD_REACTORS
330
C00
102
}
330
C00
100
AcDbXrecord
280
     1
102
SHADEPLOT
 70
     0
102
SHADEPLOTRESLEVEL
 70
     2
102
SHADEPLOTCUSTOMDPI
 70
   300
  0
XRECORD
  5
BFF
102
{ACAD_REACTORS
330
BFE
102
}
330
BFE
100
AcDbXrecord
280
     1
102
SHADEPLOT
 70
     0
102
SHADEPLOTRESLEVEL
 70
     2
102
SHADEPLOTCUSTOMDPI
 70
   300
  0
ENDSEC
  0
EOF
