  0
SECTION
  2
HEADER
  9
$ACADVER
  1
AC1015
  9
$ACADMAINTVER
 70
    20
  9
$DWGCODEPAGE
  3
ANSI_1252
  9
$INSBASE
 10
0.0
 20
0.0
 30
0.0
  9
$EXTMIN
 10
-0.075
 20
-0.075
 30
0.0
  9
$EXTMAX
 10
11.075
 20
8.575000000000001
 30
0.0
  9
$LIMMIN
 10
0.0
 20
0.0
  9
$LIMMAX
 10
12.0
 20
9.0
  9
$ORTHOMODE
 70
     0
  9
$REGENMODE
 70
     1
  9
$FILLMODE
 70
     1
  9
$QTEXTMODE
 70
     0
  9
$MIRRTEXT
 70
     0
  9
$LTSCALE
 40
1.0
  9
$ATTMODE
 70
     1
  9
$TEXTSIZE
 40
0.09
  9
$TRACEWID
 40
0.05
  9
$TEXTSTYLE
  7
Standard
  9
$CLAYER
  8
0
  9
$CELTYPE
  6
ByLayer
  9
$CECOLOR
 62
   256
  9
$CELTSCALE
 40
1.0
  9
$DISPSILH
 70
     0
  9
$DIMSCALE
 40
1.0
  9
$DIMASZ
 40
0.1875
  9
$DIMEXO
 40
0.0625
  9
$DIMDLI
 40
0.38
  9
$DIMRND
 40
0.0
  9
$DIMDLE
 40
0.0
  9
$DIMEXE
 40
0.125
  9
$DIMTP
 40
0.0
  9
$DIMTM
 40
0.0
  9
$DIMTXT
 40
0.09
  9
$DIMCEN
 40
0.09
  9
$DIMTSZ
 40
0.0
  9
$DIMTOL
 70
     0
  9
$DIMLIM
 70
     0
  9
$DIMTIH
 70
     1
  9
$DIMTOH
 70
     1
  9
$DIMSE1
 70
     0
  9
$DIMSE2
 70
     0
  9
$DIMTAD
 70
     0
  9
$DIMZIN
 70
     0
  9
$DIMBLK
  1

  9
$DIMASO
 70
     1
  9
$DIMSHO
 70
     1
  9
$DIMPOST
  1

  9
$DIMAPOST
  1
mm
  9
$DIMALT
 70
     1
  9
$DIMALTD
 70
     1
  9
$DIMALTF
 40
25.4
  9
$DIMLFAC
 40
1.0
  9
$DIMTOFL
 70
     0
  9
$DIMTVP
 40
0.0
  9
$DIMTIX
 70
     0
  9
$DIMSOXD
 70
     0
  9
$DIMSAH
 70
     0
  9
$DIMBLK1
  1

  9
$DIMBLK2
  1

  9
$DIMSTYLE
  2
Standard
  9
$DIMCLRD
 70
     0
  9
$DIMCLRE
 70
     0
  9
$DIMCLRT
 70
     0
  9
$DIMTFAC
 40
1.0
  9
$DIMGAP
 40
0.09
  9
$DIMJUST
 70
     0
  9
$DIMSD1
 70
     0
  9
$DIMSD2
 70
     0
  9
$DIMTOLJ
 70
     1
  9
$DIMTZIN
 70
     0
  9
$DIMALTZ
 70
     0
  9
$DIMALTTZ
 70
     0
  9
$DIMUPT
 70
     0
  9
$DIMDEC
 70
     2
  9
$DIMTDEC
 70
     2
  9
$DIMALTU
 70
     2
  9
$DIMALTTD
 70
     1
  9
$DIMTXSTY
  7
Standard
  9
$DIMAUNIT
 70
     0
  9
$DIMADEC
 70
     0
  9
$DIMALTRND
 40
0.0
  9
$DIMAZIN
 70
     0
  9
$DIMDSEP
 70
    46
  9
$DIMATFIT
 70
     3
  9
$DIMFRAC
 70
     0
  9
$DIMLDRBLK
  1

  9
$DIMLUNIT
 70
     2
  9
$DIMLWD
 70
    -2
  9
$DIMLWE
 70
    -2
  9
$DIMTMOVE
 70
     0
  9
$LUNITS
 70
     2
  9
$LUPREC
 70
     4
  9
$SKETCHINC
 40
0.1
  9
$FILLETRAD
 40
0.0
  9
$AUNITS
 70
     0
  9
$AUPREC
 70
     0
  9
$MENU
  1
.
  9
$ELEVATION
 40
0.0
  9
$PELEVATION
 40
0.0
  9
$THICKNESS
 40
0.0
  9
$LIMCHECK
 70
     0
  9
$CHAMFERA
 40
0.0
  9
$CHAMFERB
 40
0.0
  9
$CHAMFERC
 40
0.0
  9
$CHAMFERD
 40
0.0
  9
$SKPOLY
 70
     0
  9
$TDCREATE
 40
2453770.764439907
  9
$TDUCREATE
 40
2453770.972773241
  9
$TDUPDATE
 40
2454294.602857488
  9
$TDUUPDATE
 40
2454294.811190822
  9
$TDINDWG
 40
0.0434341088
  9
$TDUSRTIMER
 40
0.0434324884
  9
$USRTIMER
 70
     1
  9
$ANGBASE
 50
0.0
  9
$ANGDIR
 70
     0
  9
$PDMODE
 70
     2
  9
$PDSIZE
 40
0.075
  9
$PLINEWID
 40
0.0
  9
$SPLFRAME
 70
     0
  9
$SPLINETYPE
 70
     6
  9
$SPLINESEGS
 70
     8
  9
$HANDSEED
  5
4B6
  9
$SURFTAB1
 70
     6
  9
$SURFTAB2
 70
     6
  9
$SURFTYPE
 70
     6
  9
$SURFU
 70
     6
  9
$SURFV
 70
     6
  9
$UCSBASE
  2

  9
$UCSNAME
  2

  9
$UCSORG
 10
0.0
 20
0.0
 30
0.0
  9
$UCSXDIR
 10
1.0
 20
0.0
 30
0.0
  9
$UCSYDIR
 10
0.0
 20
1.0
 30
0.0
  9
$UCSORTHOREF
  2

  9
$UCSORTHOVIEW
 70
     0
  9
$UCSORGTOP
 10
0.0
 20
0.0
 30
0.0
  9
$UCSORGBOTTOM
 10
0.0
 20
0.0
 30
0.0
  9
$UCSORGLEFT
 10
0.0
 20
0.0
 30
0.0
  9
$UCSORGRIGHT
 10
0.0
 20
0.0
 30
0.0
  9
$UCSORGFRONT
 10
0.0
 20
0.0
 30
0.0
  9
$UCSORGBACK
 10
0.0
 20
0.0
 30
0.0
  9
$PUCSBASE
  2

  9
$PUCSNAME
  2

  9
$PUCSORG
 10
0.0
 20
0.0
 30
0.0
  9
$PUCSXDIR
 10
1.0
 20
0.0
 30
0.0
  9
$PUCSYDIR
 10
0.0
 20
1.0
 30
0.0
  9
$PUCSORTHOREF
  2

  9
$PUCSORTHOVIEW
 70
     0
  9
$PUCSORGTOP
 10
0.0
 20
0.0
 30
0.0
  9
$PUCSORGBOTTOM
 10
0.0
 20
0.0
 30
0.0
  9
$PUCSORGLEFT
 10
0.0
 20
0.0
 30
0.0
  9
$PUCSORGRIGHT
 10
0.0
 20
0.0
 30
0.0
  9
$PUCSORGFRONT
 10
0.0
 20
0.0
 30
0.0
  9
$PUCSORGBACK
 10
0.0
 20
0.0
 30
0.0
  9
$USERI1
 70
     0
  9
$USERI2
 70
     0
  9
$USERI3
 70
     0
  9
$USERI4
 70
     0
  9
$USERI5
 70
     0
  9
$USERR1
 40
0.0
  9
$USERR2
 40
0.0
  9
$USERR3
 40
0.0
  9
$USERR4
 40
0.0
  9
$USERR5
 40
0.0
  9
$WORLDVIEW
 70
     1
  9
$SHADEDGE
 70
     3
  9
$SHADEDIF
 70
    70
  9
$TILEMODE
 70
     1
  9
$MAXACTVP
 70
    64
  9
$PINSBASE
 10
0.0
 20
0.0
 30
0.0
  9
$PLIMCHECK
 70
     0
  9
$PEXTMIN
 10
0.0
 20
0.0
 30
0.0
  9
$PEXTMAX
 10
0.0
 20
0.0
 30
0.0
  9
$PLIMMIN
 10
0.0
 20
0.0
  9
$PLIMMAX
 10
12.0
 20
9.0
  9
$UNITMODE
 70
     0
  9
$VISRETAIN
 70
     1
  9
$PLINEGEN
 70
     0
  9
$PSLTSCALE
 70
     1
  9
$TREEDEPTH
 70
  3020
  9
$CMLSTYLE
  2
Standard
  9
$CMLJUST
 70
     0
  9
$CMLSCALE
 40
1.0
  9
$PROXYGRAPHICS
 70
     1
  9
$MEASUREMENT
 70
     0
  9
$CELWEIGHT
370
    -1
  9
$ENDCAPS
280
     0
  9
$JOINSTYLE
280
     0
  9
$LWDISPLAY
290
     0
  9
$INSUNITS
 70
     1
  9
$HYPERLINKBASE
  1

  9
$STYLESHEET
  1

  9
$XEDIT
290
     1
  9
$CEPSNTYPE
380
     0
  9
$PSTYLEMODE
290
     1
  9
$FINGERPRINTGUID
  2
{67CC296D-3493-43BE-92DD-633DFABDDBE0}
  9
$VERSIONGUID
  2
{C9B6F281-EE4A-49B4-8DD1-F9F9666567A3}
  9
$EXTNAMES
290
     1
  9
$PSVPSCALE
 40
0.0
  9
$OLESTARTUP
290
     0
  0
ENDSEC
  0
SECTION
  2
CLASSES
  0
CLASS
  1
ACDBDICTIONARYWDFLT
  2
AcDbDictionaryWithDefault
  3
ObjectDBX Classes
 90
        0
280
     0
281
     0
  0
CLASS
  1
ACDBPLACEHOLDER
  2
AcDbPlaceHolder
  3
ObjectDBX Classes
 90
        0
280
     0
281
     0
  0
CLASS
  1
LAYOUT
  2
AcDbLayout
  3
ObjectDBX Classes
 90
        0
280
     0
281
     0
  0
CLASS
  1
DICTIONARYVAR
  2
AcDbDictionaryVar
  3
ObjectDBX Classes
 90
        0
280
     0
281
     0
  0
CLASS
  1
TABLESTYLE
  2
AcDbTableStyle
  3
ObjectDBX Classes
 90
     2047
280
     0
281
     0
  0
CLASS
  1
DIMASSOC
  2
AcDbDimAssoc
  3
"AcDbDimAssoc|Product Desc:     AcDim ARX App For Dimension|Company:          Autodesk, Inc.|WEB Address:      www.autodesk.com"
 90
        0
280
     0
281
     0
  0
CLASS
  1
SORTENTSTABLE
  2
AcDbSortentsTable
  3
ObjectDBX Classes
 90
        0
280
     0
281
     0
  0
ENDSEC
  0
SECTION
  2
TABLES
  0
TABLE
  2
VPORT
  5
8
330
0
100
AcDbSymbolTable
 70
     2
  0
VPORT
  5
4AE
330
8
100
AcDbSymbolTableRecord
100
AcDbViewportTableRecord
  2
*Active
 70
     0
 10
0.0
 20
0.0
 11
1.0
 21
1.0
 12
5.499745145542461
 22
4.249866912596955
 13
0.0
 23
0.0
 14
0.5
 24
0.5
 15
0.5
 25
0.5
 16
0.0
 26
0.0
 36
1.0
 17
0.0
 27
0.0
 37
0.0
 40
8.716446465018805
 41
1.499364675984752
 42
50.0
 43
0.0
 44
0.0
 50
0.0
 51
0.0
 71
     0
 72
  1000
 73
     1
 74
     3
 75
     0
 76
     0
 77
     0
 78
     0
281
     0
 65
     1
110
0.0
120
0.0
130
0.0
111
1.0
121
0.0
131
0.0
112
0.0
122
1.0
132
0.0
 79
     0
146
0.0
  0
ENDTAB
  0
TABLE
  2
LTYPE
  5
5
330
0
100
AcDbSymbolTable
 70
     1
  0
LTYPE
  5
14
330
5
100
AcDbSymbolTableRecord
100
AcDbLinetypeTableRecord
  2
ByBlock
 70
     0
  3

 72
    65
 73
     0
 40
0.0
  0
LTYPE
  5
15
330
5
100
AcDbSymbolTableRecord
100
AcDbLinetypeTableRecord
  2
ByLayer
 70
     0
  3

 72
    65
 73
     0
 40
0.0
  0
LTYPE
  5
16
330
5
100
AcDbSymbolTableRecord
100
AcDbLinetypeTableRecord
  2
Continuous
 70
     0
  3
Solid line
 72
    65
 73
     0
 40
0.0
  0
ENDTAB
  0
TABLE
  2
LAYER
  5
2
330
0
100
AcDbSymbolTable
 70
     6
  0
LAYER
  5
10
330
2
100
AcDbSymbolTableRecord
100
AcDbLayerTableRecord
  2
0
 70
     0
 62
     7
  6
Continuous
370
    -3
390
F
  0
LAYER
  5
8B
330
2
100
AcDbSymbolTableRecord
100
AcDbLayerTableRecord
  2
Title Block
 70
     0
 62
     3
  6
Continuous
370
    -3
390
F
  0
LAYER
  5
8C
330
2
100
AcDbSymbolTableRecord
100
AcDbLayerTableRecord
  2
Dimension
 70
     0
 62
     6
  6
Continuous
370
    -3
390
F
  0
LAYER
  5
8D
330
2
100
AcDbSymbolTableRecord
100
AcDbLayerTableRecord
  2
Text
 70
     0
 62
     1
  6
Continuous
370
    -3
390
F
  0
LAYER
  5
8E
330
2
100
AcDbSymbolTableRecord
100
AcDbLayerTableRecord
  2
Object
 70
     0
 62
     5
  6
Continuous
370
    -3
390
F
  0
LAYER
  5
33E
330
2
100
AcDbSymbolTableRecord
100
AcDbLayerTableRecord
  2
Defpoints
 70
     0
 62
     7
  6
Continuous
290
     0
370
    -3
390
F
  0
ENDTAB
  0
TABLE
  2
STYLE
  5
3
330
0
100
AcDbSymbolTable
 70
     1
  0
STYLE
  5
11
330
3
100
AcDbSymbolTableRecord
100
AcDbTextStyleTableRecord
  2
Standard
 70
     0
 40
0.0
 41
1.0
 50
0.0
 71
     0
 42
0.09
  3
technic_.ttf
  4

1001
ACAD
1000
Technic
1071
      514
  0
ENDTAB
  0
TABLE
  2
VIEW
  5
6
330
0
100
AcDbSymbolTable
 70
     0
  0
ENDTAB
  0
TABLE
  2
UCS
  5
7
330
0
100
AcDbSymbolTable
 70
     0
  0
ENDTAB
  0
TABLE
  2
APPID
  5
9
330
0
100
AcDbSymbolTable
 70
     4
  0
APPID
  5
12
330
9
100
AcDbSymbolTableRecord
100
AcDbRegAppTableRecord
  2
ACAD
 70
     0
  0
APPID
  5
90
330
9
100
AcDbSymbolTableRecord
100
AcDbRegAppTableRecord
  2
DCO15
 70
     0
  0
APPID
  5
91
330
9
100
AcDbSymbolTableRecord
100
AcDbRegAppTableRecord
  2
AcAecLayerStandard
 70
     0
  0
APPID
  5
DD
330
9
100
AcDbSymbolTableRecord
100
AcDbRegAppTableRecord
  2
ACAD_DSTYLE_DIMTEXT_FILL
 70
     0
  0
ENDTAB
  0
TABLE
  2
DIMSTYLE
  5
A
330
0
100
AcDbSymbolTable
 70
     1
100
AcDbDimStyleTable
 71
     1
340
27
  0
DIMSTYLE
105
27
102
{ACAD_REACTORS
330
33D
330
365
330
412
330
436
102
}
330
A
100
AcDbSymbolTableRecord
100
AcDbDimStyleTableRecord
  2
Standard
 70
     0
  4
mm
 41
0.1875
 44
0.125
140
0.09
170
     1
171
     1
271
     2
272
     2
274
     1
340
11
  0
ENDTAB
  0
TABLE
  2
BLOCK_RECORD
  5
1
330
0
100
AcDbSymbolTable
 70
     5
  0
BLOCK_RECORD
  5
1F
102
{ACAD_XDICTIONARY
360
3F8
102
}
330
1
100
AcDbSymbolTableRecord
100
AcDbBlockTableRecord
  2
*Model_Space
340
22
  0
BLOCK_RECORD
  5
58
330
1
100
AcDbSymbolTableRecord
100
AcDbBlockTableRecord
  2
*Paper_Space
340
59
  0
BLOCK_RECORD
  5
5D
330
1
100
AcDbSymbolTableRecord
100
AcDbBlockTableRecord
  2
*Paper_Space0
340
5E
  0
BLOCK_RECORD
  5
33F
330
1
100
AcDbSymbolTableRecord
100
AcDbBlockTableRecord
  2
*D1
340
0
  0
BLOCK_RECORD
  5
366
330
1
100
AcDbSymbolTableRecord
100
AcDbBlockTableRecord
  2
*D2
340
0
  0
BLOCK_RECORD
  5
413
330
1
100
AcDbSymbolTableRecord
100
AcDbBlockTableRecord
  2
*D3
340
0
  0
BLOCK_RECORD
  5
437
330
1
100
AcDbSymbolTableRecord
100
AcDbBlockTableRecord
  2
*D4
340
0
  0
ENDTAB
  0
ENDSEC
  0
SECTION
  2
BLOCKS
  0
BLOCK
  5
20
330
1F
100
AcDbEntity
  8
0
100
AcDbBlockBegin
  2
*Model_Space
 70
     0
 10
0.0
 20
0.0
 30
0.0
  3
*Model_Space
  1

  0
ENDBLK
  5
21
330
1F
100
AcDbEntity
  8
0
100
AcDbBlockEnd
  0
BLOCK
  5
5A
330
58
100
AcDbEntity
 67
     1
  8
0
100
AcDbBlockBegin
  2
*Paper_Space
 70
     0
 10
0.0
 20
0.0
 30
0.0
  3
*Paper_Space
  1

  0
ENDBLK
  5
5B
330
58
100
AcDbEntity
 67
     1
  8
0
100
AcDbBlockEnd
  0
BLOCK
  5
5F
330
5D
100
AcDbEntity
  8
0
100
AcDbBlockBegin
  2
*Paper_Space0
 70
     0
 10
0.0
 20
0.0
 30
0.0
  3
*Paper_Space0
  1

  0
ENDBLK
  5
60
330
5D
100
AcDbEntity
  8
0
100
AcDbBlockEnd
  0
BLOCK
  5
34A
330
33F
100
AcDbEntity
  8
0
100
AcDbBlockBegin
  2
*D1
 70
     1
 10
0.0
 20
0.0
 30
0.0
  3
*D1
  1

  0
LINE
  5
408
330
33F
100
AcDbEntity
  8
Dimension
 62
     0
370
    -2
100
AcDbLine
 10
2.153022450103934
 20
5.21730110235349
 30
0.0
 11
2.153022450103934
 21
7.025952448542163
 31
0.0
  0
LINE
  5
409
330
33F
100
AcDbEntity
  8
Dimension
 62
     0
370
    -2
100
AcDbLine
 10
8.738022450103935
 20
5.21730110235349
 30
0.0
 11
8.738022450103935
 21
7.025952448542163
 31
0.0
  0
LINE
  5
40A
330
33F
100
AcDbEntity
  8
Dimension
 62
     0
370
    -2
100
AcDbLine
 10
2.340522450103934
 20
6.900952448542163
 30
0.0
 11
4.917825081682882
 21
6.900952448542163
 31
0.0
  0
LINE
  5
40B
330
33F
100
AcDbEntity
  8
Dimension
 62
     0
370
    -2
100
AcDbLine
 10
8.550522450103935
 20
6.900952448542163
 30
0.0
 11
5.973219818524987
 21
6.900952448542163
 31
0.0
  0
SOLID
  5
40C
330
33F
100
AcDbEntity
  8
Dimension
 62
     0
100
AcDbTrace
 10
2.340522450103934
 20
6.932202448542163
 30
0.0
 11
2.340522450103934
 21
6.869702448542163
 31
0.0
 12
2.153022450103934
 22
6.900952448542163
 32
0.0
 13
2.153022450103934
 23
6.900952448542163
 33
0.0
  0
SOLID
  5
40D
330
33F
100
AcDbEntity
  8
Dimension
 62
     0
100
AcDbTrace
 10
8.550522450103935
 20
6.932202448542163
 30
0.0
 11
8.550522450103935
 21
6.869702448542163
 31
0.0
 12
8.738022450103935
 22
6.900952448542163
 32
0.0
 13
8.738022450103935
 23
6.900952448542163
 33
0.0
  0
MTEXT
  5
40E
330
33F
100
AcDbEntity
  8
Dimension
 62
     0
100
AcDbMText
 10
5.445522450103934
 20
6.900952448542163
 30
0.0
 40
0.09
 41
0.0
 71
     5
 72
     1
  1
\A1;6.59 [167.3mm]
 73
     1
 44
1.0
1001
ACAD
1000
MTEXTBEGIN
1070
    73
1070
     1
1070
    44
1040
1.0
1070
    74
1070
     0
1000
MTEXTEND
  0
POINT
  5
40F
330
33F
100
AcDbEntity
  8
Defpoints
 62
     0
100
AcDbPoint
 10
2.153022450103934
 20
5.15480110235349
 30
0.0
  0
POINT
  5
410
330
33F
100
AcDbEntity
  8
Defpoints
 62
     0
100
AcDbPoint
 10
8.738022450103935
 20
5.15480110235349
 30
0.0
  0
POINT
  5
411
330
33F
100
AcDbEntity
  8
Defpoints
 62
     0
100
AcDbPoint
 10
8.738022450103935
 20
6.900952448542163
 30
0.0
  0
ENDBLK
  5
34B
330
33F
100
AcDbEntity
  8
0
100
AcDbBlockEnd
  0
BLOCK
  5
371
330
366
100
AcDbEntity
  8
0
100
AcDbBlockBegin
  2
*D2
 70
     1
 10
0.0
 20
0.0
 30
0.0
  3
*D2
  1

  0
LINE
  5
3A8
330
366
100
AcDbEntity
  8
Dimension
 62
     0
370
    -2
100
AcDbLine
 10
8.625522450103934
 20
4.75480110235349
 30
0.0
 11
9.778578156544224
 21
4.75480110235349
 31
0.0
  0
LINE
  5
3A9
330
366
100
AcDbEntity
  8
Dimension
 62
     0
370
    -2
100
AcDbLine
 10
5.946522450103934
 20
5.94680110235349
 30
0.0
 11
9.778578156544224
 21
5.946801102353489
 31
0.0
  0
LINE
  5
3AA
330
366
100
AcDbEntity
  8
Dimension
 62
     0
370
    -2
100
AcDbLine
 10
9.653578156544224
 20
4.94230110235349
 30
0.0
 11
9.653578156544224
 21
5.197774786564016
 31
0.0
  0
LINE
  5
3AB
330
366
100
AcDbEntity
  8
Dimension
 62
     0
370
    -2
100
AcDbLine
 10
9.653578156544224
 20
5.759301102353489
 30
0.0
 11
9.653578156544224
 21
5.503827418142963
 31
0.0
  0
SOLID
  5
3AC
330
366
100
AcDbEntity
  8
Dimension
 62
     0
100
AcDbTrace
 10
9.622328156544224
 20
4.94230110235349
 30
0.0
 11
9.684828156544224
 21
4.94230110235349
 31
0.0
 12
9.653578156544224
 22
4.75480110235349
 32
0.0
 13
9.653578156544224
 23
4.75480110235349
 33
0.0
  0
SOLID
  5
3AD
330
366
100
AcDbEntity
  8
Dimension
 62
     0
100
AcDbTrace
 10
9.622328156544224
 20
5.759301102353489
 30
0.0
 11
9.684828156544224
 21
5.759301102353489
 31
0.0
 12
9.653578156544224
 22
5.946801102353489
 32
0.0
 13
9.653578156544224
 23
5.946801102353489
 33
0.0
  0
MTEXT
  5
3AE
330
366
100
AcDbEntity
  8
Dimension
 62
     0
100
AcDbMText
 10
9.653578156544222
 20
5.35080110235349
 30
0.0
 40
0.09
 41
0.0
 71
     5
 72
     1
  1
\A1;1.19 [30.3mm]
 73
     1
 44
1.0
1001
ACAD
1000
MTEXTBEGIN
1070
    73
1070
     1
1070
    44
1040
1.0
1070
    74
1070
     0
1000
MTEXTEND
  0
POINT
  5
3AF
330
366
100
AcDbEntity
  8
Defpoints
 62
     0
100
AcDbPoint
 10
8.563022450103934
 20
4.75480110235349
 30
0.0
  0
POINT
  5
3B0
330
366
100
AcDbEntity
  8
Defpoints
 62
     0
100
AcDbPoint
 10
5.884022450103934
 20
5.94680110235349
 30
0.0
  0
POINT
  5
3B1
330
366
100
AcDbEntity
  8
Defpoints
 62
     0
100
AcDbPoint
 10
9.653578156544224
 20
5.946801102353489
 30
0.0
  0
ENDBLK
  5
372
330
366
100
AcDbEntity
  8
0
100
AcDbBlockEnd
  0
BLOCK
  5
41E
330
413
100
AcDbEntity
  8
0
100
AcDbBlockBegin
  2
*D3
 70
     1
 10
0.0
 20
0.0
 30
0.0
  3
*D3
  1

  0
LINE
  5
42C
330
413
100
AcDbEntity
  8
Dimension
 62
     0
370
    -2
100
AcDbLine
 10
5.069022450103934
 20
5.98830110235349
 30
0.0
 11
5.069022450103934
 21
6.560466746760674
 31
0.0
  0
LINE
  5
42D
330
413
100
AcDbEntity
  8
Dimension
 62
     0
370
    -2
100
AcDbLine
 10
5.822022450103935
 20
5.98830110235349
 30
0.0
 11
5.822022450103935
 21
6.560466746760674
 31
0.0
  0
LINE
  5
42E
330
413
100
AcDbEntity
  8
Dimension
 62
     0
370
    -2
100
AcDbLine
 10
5.256522450103934
 20
6.435466746760674
 30
0.0
 11
5.634522450103935
 21
6.435466746760674
 31
0.0
  0
LINE
  5
42F
330
413
100
AcDbEntity
  8
Dimension
 62
     0
370
    -2
100
AcDbLine
 10
5.822022450103935
 20
6.435466746760674
 30
0.0
 11
6.009522450103935
 21
6.435466746760674
 31
0.0
  0
SOLID
  5
430
330
413
100
AcDbEntity
  8
Dimension
 62
     0
100
AcDbTrace
 10
5.256522450103934
 20
6.466716746760674
 30
0.0
 11
5.256522450103934
 21
6.404216746760674
 31
0.0
 12
5.069022450103934
 22
6.435466746760674
 32
0.0
 13
5.069022450103934
 23
6.435466746760674
 33
0.0
  0
SOLID
  5
431
330
413
100
AcDbEntity
  8
Dimension
 62
     0
100
AcDbTrace
 10
5.634522450103935
 20
6.466716746760674
 30
0.0
 11
5.634522450103935
 21
6.404216746760674
 31
0.0
 12
5.822022450103935
 22
6.435466746760674
 32
0.0
 13
5.822022450103935
 23
6.435466746760674
 33
0.0
  0
MTEXT
  5
432
330
413
100
AcDbEntity
  8
Dimension
 62
     0
100
AcDbMText
 10
6.476298765893409
 20
6.435466746760674
 30
0.0
 40
0.09
 41
0.0
 71
     5
 72
     1
  1
\A1;0.75 [19.1mm]
 73
     1
 44
1.0
1001
ACAD
1000
MTEXTBEGIN
1070
    73
1070
     1
1070
    44
1040
1.0
1070
    74
1070
     0
1000
MTEXTEND
  0
POINT
  5
433
330
413
100
AcDbEntity
  8
Defpoints
 62
     0
100
AcDbPoint
 10
5.069022450103934
 20
5.92580110235349
 30
0.0
  0
POINT
  5
434
330
413
100
AcDbEntity
  8
Defpoints
 62
     0
100
AcDbPoint
 10
5.822022450103935
 20
5.92580110235349
 30
0.0
  0
POINT
  5
435
330
413
100
AcDbEntity
  8
Defpoints
 62
     0
100
AcDbPoint
 10
5.822022450103935
 20
6.435466746760674
 30
0.0
  0
ENDBLK
  5
41F
330
413
100
AcDbEntity
  8
0
100
AcDbBlockEnd
  0
BLOCK
  5
443
330
437
100
AcDbEntity
  8
0
100
AcDbBlockBegin
  2
*D4
 70
     1
 10
0.0
 20
0.0
 30
0.0
  3
*D4
  1

  0
LINE
  5
47D
330
437
100
AcDbEntity
  8
Dimension
 62
     0
370
    -2
100
AcDbLine
 10
7.102191887833988
 20
5.71730110235349
 30
0.0
 11
7.102191887833988
 21
5.90480110235349
 31
0.0
  0
LINE
  5
47E
330
437
100
AcDbEntity
  8
Dimension
 62
     0
370
    -2
100
AcDbLine
 10
7.102191887833988
 20
5.247301102353491
 30
0.0
 11
7.102191887833988
 21
5.059801102353491
 31
0.0
  0
LINE
  5
47F
330
437
100
AcDbEntity
  8
Dimension
 62
     0
370
    -2
100
AcDbLine
 10
7.102191887833988
 20
5.059801102353491
 30
0.0
 11
6.914691887833988
 21
5.059801102353491
 31
0.0
  0
SOLID
  5
480
330
437
100
AcDbEntity
  8
Dimension
 62
     0
100
AcDbTrace
 10
7.070941887833988
 20
5.71730110235349
 30
0.0
 11
7.133441887833988
 21
5.71730110235349
 31
0.0
 12
7.102191887833988
 22
5.52980110235349
 32
0.0
 13
7.102191887833988
 23
5.52980110235349
 33
0.0
  0
SOLID
  5
481
330
437
100
AcDbEntity
  8
Dimension
 62
     0
100
AcDbTrace
 10
7.070941887833988
 20
5.247301102353491
 30
0.0
 11
7.133441887833988
 21
5.247301102353491
 31
0.0
 12
7.102191887833988
 22
5.434801102353491
 32
0.0
 13
7.102191887833988
 23
5.434801102353491
 33
0.0
  0
MTEXT
  5
482
330
437
100
AcDbEntity
  8
Dimension
 62
     0
100
AcDbMText
 10
6.469955045728724
 20
5.059801102353493
 30
0.0
 40
0.09
 41
0.0
 71
     5
 72
     1
  1
\A1;0.10 [2.4mm]
 73
     1
 44
1.0
1001
ACAD
1000
MTEXTBEGIN
1070
    73
1070
     1
1070
    44
1040
1.0
1070
    74
1070
     0
1000
MTEXTEND
  0
POINT
  5
483
330
437
100
AcDbEntity
  8
Defpoints
 62
     0
100
AcDbPoint
 10
7.102191887833988
 20
5.52980110235349
 30
0.0
  0
POINT
  5
484
330
437
100
AcDbEntity
  8
Defpoints
 62
     0
100
AcDbPoint
 10
7.102191887833988
 20
5.434801102353491
 30
0.0
  0
POINT
  5
485
330
437
100
AcDbEntity
  8
Defpoints
 62
     0
100
AcDbPoint
 10
7.102191887833988
 20
5.434801102353491
 30
0.0
  0
ENDBLK
  5
444
330
437
100
AcDbEntity
  8
0
100
AcDbBlockEnd
  0
ENDSEC
  0
SECTION
  2
ENTITIES
  0
LINE
  5
19E
330
1F
100
AcDbEntity
  8
Object
100
AcDbLine
 10
2.791022450103934
 20
4.84880110235349
 30
0.0
 11
2.744022450103934
 21
4.86080110235349
 31
0.0
  0
LINE
  5
19F
330
1F
100
AcDbEntity
  8
Object
100
AcDbLine
 10
2.744022450103934
 20
4.86080110235349
 30
0.0
 11
2.701022450103934
 21
4.88580110235349
 31
0.0
  0
LINE
  5
1A0
330
1F
100
AcDbEntity
  8
Object
100
AcDbLine
 10
2.701022450103934
 20
4.88580110235349
 30
0.0
 11
2.667022450103934
 21
4.92080110235349
 31
0.0
  0
LINE
  5
1A1
330
1F
100
AcDbEntity
  8
Object
100
AcDbLine
 10
2.649022450103935
 20
5.10680110235349
 30
0.0
 11
2.675022450103934
 21
5.14780110235349
 31
0.0
  0
LINE
  5
1A2
330
1F
100
AcDbEntity
  8
Object
100
AcDbLine
 10
2.667022450103934
 20
4.92080110235349
 30
0.0
 11
2.643022450103934
 21
4.963801102353491
 31
0.0
  0
LINE
  5
1A3
330
1F
100
AcDbEntity
  8
Object
100
AcDbLine
 10
2.634022450103934
 20
5.06080110235349
 30
0.0
 11
2.649022450103935
 21
5.10680110235349
 31
0.0
  0
LINE
  5
1A4
330
1F
100
AcDbEntity
  8
Object
100
AcDbLine
 10
2.643022450103934
 20
4.963801102353491
 30
0.0
 11
2.632022450103934
 21
5.011801102353491
 31
0.0
  0
LINE
  5
1A5
330
1F
100
AcDbEntity
  8
Object
100
AcDbLine
 10
2.632022450103934
 20
5.011801102353491
 30
0.0
 11
2.634022450103934
 21
5.06080110235349
 31
0.0
  0
LINE
  5
1A6
330
1F
100
AcDbEntity
  8
Object
100
AcDbLine
 10
2.811022450103934
 20
4.83480110235349
 30
0.0
 11
2.813022450103934
 21
4.82180110235349
 31
0.0
  0
LINE
  5
1A7
330
1F
100
AcDbEntity
  8
Object
100
AcDbLine
 10
2.813022450103934
 20
4.82180110235349
 30
0.0
 11
2.809022450103935
 21
4.81080110235349
 31
0.0
  0
LINE
  5
1A8
330
1F
100
AcDbEntity
  8
Object
100
AcDbLine
 10
2.811022450103934
 20
4.83480110235349
 30
0.0
 11
2.803022450103934
 21
4.84380110235349
 31
0.0
  0
LINE
  5
1A9
330
1F
100
AcDbEntity
  8
Object
100
AcDbLine
 10
2.800022450103934
 20
4.80180110235349
 30
0.0
 11
2.809022450103935
 21
4.81080110235349
 31
0.0
  0
LINE
  5
1AA
330
1F
100
AcDbEntity
  8
Object
100
AcDbLine
 10
2.803022450103934
 20
4.84380110235349
 30
0.0
 11
2.791022450103934
 21
4.84880110235349
 31
0.0
  0
LINE
  5
1AB
330
1F
100
AcDbEntity
  8
Object
100
AcDbLine
 10
2.788022450103934
 20
4.79880110235349
 30
0.0
 11
2.800022450103934
 21
4.80180110235349
 31
0.0
  0
LINE
  5
1AC
330
1F
100
AcDbEntity
  8
Object
100
AcDbLine
 10
5.039022450103934
 20
5.94680110235349
 30
0.0
 11
5.052022450103934
 21
5.94380110235349
 31
0.0
  0
LINE
  5
1AD
330
1F
100
AcDbEntity
  8
Object
100
AcDbLine
 10
5.052022450103934
 20
5.94380110235349
 30
0.0
 11
5.062022450103934
 21
5.936801102353491
 31
0.0
  0
LINE
  5
1AE
330
1F
100
AcDbEntity
  8
Object
100
AcDbLine
 10
5.062022450103934
 20
5.936801102353491
 30
0.0
 11
5.069022450103934
 21
5.92580110235349
 31
0.0
  0
LINE
  5
1AF
330
1F
100
AcDbEntity
  8
Object
100
AcDbLine
 10
5.069022450103934
 20
5.92580110235349
 30
0.0
 11
5.070022450103934
 21
5.91280110235349
 31
0.0
  0
LINE
  5
1B0
330
1F
100
AcDbEntity
  8
Object
100
AcDbLine
 10
5.039022450103934
 20
5.94680110235349
 30
0.0
 11
5.007022450103934
 21
5.94680110235349
 31
0.0
  0
LINE
  5
1B1
330
1F
100
AcDbEntity
  8
Object
100
AcDbLine
 10
4.981022450103934
 20
5.93280110235349
 30
0.0
 11
4.992022450103934
 21
5.94280110235349
 31
0.0
  0
LINE
  5
1B2
330
1F
100
AcDbEntity
  8
Object
100
AcDbLine
 10
4.992022450103934
 20
5.94280110235349
 30
0.0
 11
5.007022450103934
 21
5.94680110235349
 31
0.0
  0
LINE
  5
1B3
330
1F
100
AcDbEntity
  8
Object
100
AcDbLine
 10
5.058022450103934
 20
5.77680110235349
 30
0.0
 11
5.070022450103934
 21
5.91280110235349
 31
0.0
  0
LINE
  5
1B4
330
1F
100
AcDbEntity
  8
Object
100
AcDbLine
 10
4.981022450103934
 20
5.93280110235349
 30
0.0
 11
4.976022450103934
 21
5.91880110235349
 31
0.0
  0
LINE
  5
1B5
330
1F
100
AcDbEntity
  8
Object
100
AcDbLine
 10
4.976022450103934
 20
5.91880110235349
 30
0.0
 11
4.964022450103934
 21
5.78580110235349
 31
0.0
  0
LINE
  5
1B6
330
1F
100
AcDbEntity
  8
Object
100
AcDbLine
 10
5.058022450103934
 20
5.77680110235349
 30
0.0
 11
5.046022450103934
 21
5.70880110235349
 31
0.0
  0
LINE
  5
1B7
330
1F
100
AcDbEntity
  8
Object
100
AcDbLine
 10
5.046022450103934
 20
5.70880110235349
 30
0.0
 11
5.021022450103934
 21
5.64380110235349
 31
0.0
  0
LINE
  5
1B8
330
1F
100
AcDbEntity
  8
Object
100
AcDbLine
 10
4.964022450103934
 20
5.78580110235349
 30
0.0
 11
4.953022450103934
 21
5.72780110235349
 31
0.0
  0
LINE
  5
1B9
330
1F
100
AcDbEntity
  8
Object
100
AcDbLine
 10
4.953022450103934
 20
5.72780110235349
 30
0.0
 11
4.929022450103934
 21
5.67280110235349
 31
0.0
  0
LINE
  5
1BA
330
1F
100
AcDbEntity
  8
Object
100
AcDbLine
 10
5.021022450103934
 20
5.64380110235349
 30
0.0
 11
4.985022450103934
 21
5.58480110235349
 31
0.0
  0
LINE
  5
1BB
330
1F
100
AcDbEntity
  8
Object
100
AcDbLine
 10
4.985022450103934
 20
5.58480110235349
 30
0.0
 11
4.938022450103934
 21
5.53380110235349
 31
0.0
  0
LINE
  5
1BC
330
1F
100
AcDbEntity
  8
Object
100
AcDbLine
 10
4.929022450103934
 20
5.67280110235349
 30
0.0
 11
4.895022450103934
 21
5.62480110235349
 31
0.0
  0
LINE
  5
1BD
330
1F
100
AcDbEntity
  8
Object
100
AcDbLine
 10
4.895022450103934
 20
5.62480110235349
 30
0.0
 11
4.852022450103934
 21
5.58480110235349
 31
0.0
  0
LINE
  5
1BE
330
1F
100
AcDbEntity
  8
Object
100
AcDbLine
 10
4.938022450103934
 20
5.53380110235349
 30
0.0
 11
4.883022450103934
 21
5.49180110235349
 31
0.0
  0
LINE
  5
1BF
330
1F
100
AcDbEntity
  8
Object
100
AcDbLine
 10
4.883022450103934
 20
5.49180110235349
 30
0.0
 11
4.821022450103934
 21
5.460801102353491
 31
0.0
  0
LINE
  5
1C0
330
1F
100
AcDbEntity
  8
Object
100
AcDbLine
 10
4.852022450103934
 20
5.58480110235349
 30
0.0
 11
4.800022450103934
 21
5.55480110235349
 31
0.0
  0
LINE
  5
1C1
330
1F
100
AcDbEntity
  8
Object
100
AcDbLine
 10
4.800022450103934
 20
5.55480110235349
 30
0.0
 11
4.744022450103934
 21
5.53580110235349
 31
0.0
  0
LINE
  5
1C2
330
1F
100
AcDbEntity
  8
Object
100
AcDbLine
 10
4.754022450103934
 20
5.44180110235349
 30
0.0
 11
4.821022450103934
 21
5.460801102353491
 31
0.0
  0
LINE
  5
1C3
330
1F
100
AcDbEntity
  8
Object
100
AcDbLine
 10
4.744022450103934
 20
5.53580110235349
 30
0.0
 11
4.685022450103934
 21
5.52980110235349
 31
0.0
  0
LINE
  5
1C4
330
1F
100
AcDbEntity
  8
Object
100
AcDbLine
 10
4.685022450103934
 20
5.434801102353491
 30
0.0
 11
4.754022450103934
 21
5.44180110235349
 31
0.0
  0
LINE
  5
1C5
330
1F
100
AcDbEntity
  8
Object
100
AcDbLine
 10
2.811022450103934
 20
4.83480110235349
 30
0.0
 11
2.803022450103934
 21
4.84380110235349
 31
0.0
  0
LINE
  5
1C6
330
1F
100
AcDbEntity
  8
Object
100
AcDbLine
 10
2.803022450103934
 20
4.84380110235349
 30
0.0
 11
2.791022450103934
 21
4.84880110235349
 31
0.0
  0
LINE
  5
1C7
330
1F
100
AcDbEntity
  8
Object
100
AcDbLine
 10
2.811022450103934
 20
4.83480110235349
 30
0.0
 11
2.813022450103934
 21
4.82180110235349
 31
0.0
  0
LINE
  5
1C8
330
1F
100
AcDbEntity
  8
Object
100
AcDbLine
 10
2.813022450103934
 20
4.82180110235349
 30
0.0
 11
2.809022450103935
 21
4.81080110235349
 31
0.0
  0
LINE
  5
1C9
330
1F
100
AcDbEntity
  8
Object
100
AcDbLine
 10
2.809022450103935
 20
4.81080110235349
 30
0.0
 11
2.800022450103934
 21
4.80180110235349
 31
0.0
  0
LINE
  5
1CA
330
1F
100
AcDbEntity
  8
Object
100
AcDbLine
 10
2.800022450103934
 20
4.80180110235349
 30
0.0
 11
2.788022450103934
 21
4.79880110235349
 31
0.0
  0
LINE
  5
1CB
330
1F
100
AcDbEntity
  8
Object
100
AcDbLine
 10
2.788022450103934
 20
4.79880110235349
 30
0.0
 11
2.787022450103934
 21
4.79880110235349
 31
0.0
  0
LINE
  5
1CC
330
1F
100
AcDbEntity
  8
Object
100
AcDbLine
 10
2.787022450103934
 20
4.79880110235349
 30
0.0
 11
2.786022450103934
 21
4.79880110235349
 31
0.0
  0
LINE
  5
1CD
330
1F
100
AcDbEntity
  8
Object
100
AcDbLine
 10
2.786022450103934
 20
4.79880110235349
 30
0.0
 11
2.785022450103934
 21
4.79880110235349
 31
0.0
  0
LINE
  5
1CE
330
1F
100
AcDbEntity
  8
Object
100
AcDbLine
 10
2.757022450103934
 20
5.434801102353491
 30
0.0
 11
4.685022450103934
 21
5.434801102353491
 31
0.0
  0
LINE
  5
1CF
330
1F
100
AcDbEntity
  8
Object
100
AcDbLine
 10
2.791022450103934
 20
4.84880110235349
 30
0.0
 11
2.744022450103934
 21
4.86080110235349
 31
0.0
  0
LINE
  5
1D0
330
1F
100
AcDbEntity
  8
Object
100
AcDbLine
 10
2.785022450103934
 20
4.79880110235349
 30
0.0
 11
2.731022450103934
 21
4.81180110235349
 31
0.0
  0
LINE
  5
1D1
330
1F
100
AcDbEntity
  8
Object
100
AcDbLine
 10
2.731022450103934
 20
4.81180110235349
 30
0.0
 11
2.683022450103934
 21
4.83780110235349
 31
0.0
  0
LINE
  5
1D2
330
1F
100
AcDbEntity
  8
Object
100
AcDbLine
 10
2.744022450103934
 20
4.86080110235349
 30
0.0
 11
2.701022450103934
 21
4.88580110235349
 31
0.0
  0
LINE
  5
1D3
330
1F
100
AcDbEntity
  8
Object
100
AcDbLine
 10
2.736022450103934
 20
5.29880110235349
 30
0.0
 11
2.742022450103934
 21
5.42080110235349
 31
0.0
  0
LINE
  5
1D4
330
1F
100
AcDbEntity
  8
Object
100
AcDbLine
 10
2.681022450103935
 20
5.41980110235349
 30
0.0
 11
2.681022450103935
 21
5.30580110235349
 31
0.0
  0
LINE
  5
1D5
330
1F
100
AcDbEntity
  8
Object
100
AcDbLine
 10
2.742022450103934
 20
5.42080110235349
 30
0.0
 11
2.745022450103935
 21
5.42780110235349
 31
0.0
  0
LINE
  5
1D6
330
1F
100
AcDbEntity
  8
Object
100
AcDbLine
 10
2.679022450103934
 20
5.42780110235349
 30
0.0
 11
2.681022450103935
 21
5.41980110235349
 31
0.0
  0
LINE
  5
1D7
330
1F
100
AcDbEntity
  8
Object
100
AcDbLine
 10
2.681022450103935
 20
5.30580110235349
 30
0.0
 11
2.676022450103934
 21
5.25980110235349
 31
0.0
  0
LINE
  5
1D8
330
1F
100
AcDbEntity
  8
Object
100
AcDbLine
 10
2.727022450103934
 20
5.24480110235349
 30
0.0
 11
2.736022450103934
 21
5.29880110235349
 31
0.0
  0
LINE
  5
1D9
330
1F
100
AcDbEntity
  8
Object
100
AcDbLine
 10
2.674022450103934
 20
5.43280110235349
 30
0.0
 11
2.679022450103934
 21
5.42780110235349
 31
0.0
  0
LINE
  5
1DA
330
1F
100
AcDbEntity
  8
Object
100
AcDbLine
 10
2.745022450103935
 20
5.42780110235349
 30
0.0
 11
2.750022450103934
 21
5.43280110235349
 31
0.0
  0
LINE
  5
1DB
330
1F
100
AcDbEntity
  8
Object
100
AcDbLine
 10
2.750022450103934
 20
5.43280110235349
 30
0.0
 11
2.757022450103934
 21
5.434801102353491
 31
0.0
  0
LINE
  5
1DC
330
1F
100
AcDbEntity
  8
Object
100
AcDbLine
 10
2.666022450103934
 20
5.434801102353491
 30
0.0
 11
2.674022450103934
 21
5.43280110235349
 31
0.0
  0
LINE
  5
1DD
330
1F
100
AcDbEntity
  8
Object
100
AcDbLine
 10
2.727022450103934
 20
5.24480110235349
 30
0.0
 11
2.706022450103934
 21
5.19380110235349
 31
0.0
  0
LINE
  5
1DE
330
1F
100
AcDbEntity
  8
Object
100
AcDbLine
 10
2.706022450103934
 20
5.19380110235349
 30
0.0
 11
2.675022450103934
 21
5.14780110235349
 31
0.0
  0
LINE
  5
1DF
330
1F
100
AcDbEntity
  8
Object
100
AcDbLine
 10
2.676022450103934
 20
5.25980110235349
 30
0.0
 11
2.660022450103934
 21
5.21580110235349
 31
0.0
  0
LINE
  5
1E0
330
1F
100
AcDbEntity
  8
Object
100
AcDbLine
 10
2.701022450103934
 20
4.88580110235349
 30
0.0
 11
2.667022450103934
 21
4.92080110235349
 31
0.0
  0
LINE
  5
1E1
330
1F
100
AcDbEntity
  8
Object
100
AcDbLine
 10
2.641022450103934
 20
4.873801102353491
 30
0.0
 11
2.683022450103934
 21
4.83780110235349
 31
0.0
  0
LINE
  5
1E2
330
1F
100
AcDbEntity
  8
Object
100
AcDbLine
 10
2.660022450103934
 20
5.21580110235349
 30
0.0
 11
2.635022450103934
 21
5.17780110235349
 31
0.0
  0
LINE
  5
1E3
330
1F
100
AcDbEntity
  8
Object
100
AcDbLine
 10
2.609022450103934
 20
4.918801102353491
 30
0.0
 11
2.641022450103934
 21
4.873801102353491
 31
0.0
  0
LINE
  5
1E4
330
1F
100
AcDbEntity
  8
Object
100
AcDbLine
 10
2.667022450103934
 20
4.92080110235349
 30
0.0
 11
2.643022450103934
 21
4.963801102353491
 31
0.0
  0
LINE
  5
1E5
330
1F
100
AcDbEntity
  8
Object
100
AcDbLine
 10
2.649022450103935
 20
5.10680110235349
 30
0.0
 11
2.675022450103934
 21
5.14780110235349
 31
0.0
  0
LINE
  5
1E6
330
1F
100
AcDbEntity
  8
Object
100
AcDbLine
 10
2.635022450103934
 20
5.17780110235349
 30
0.0
 11
2.605022450103934
 21
5.13080110235349
 31
0.0
  0
LINE
  5
1E7
330
1F
100
AcDbEntity
  8
Object
100
AcDbLine
 10
2.643022450103934
 20
4.963801102353491
 30
0.0
 11
2.632022450103934
 21
5.011801102353491
 31
0.0
  0
LINE
  5
1E8
330
1F
100
AcDbEntity
  8
Object
100
AcDbLine
 10
2.589022450103934
 20
4.969801102353491
 30
0.0
 11
2.609022450103934
 21
4.918801102353491
 31
0.0
  0
LINE
  5
1E9
330
1F
100
AcDbEntity
  8
Object
100
AcDbLine
 10
2.605022450103934
 20
5.13080110235349
 30
0.0
 11
2.587022450103934
 21
5.078801102353491
 31
0.0
  0
LINE
  5
1EA
330
1F
100
AcDbEntity
  8
Object
100
AcDbLine
 10
2.634022450103934
 20
5.06080110235349
 30
0.0
 11
2.649022450103935
 21
5.10680110235349
 31
0.0
  0
LINE
  5
1EB
330
1F
100
AcDbEntity
  8
Object
100
AcDbLine
 10
2.581022450103934
 20
5.024801102353491
 30
0.0
 11
2.589022450103934
 21
4.969801102353491
 31
0.0
  0
LINE
  5
1EC
330
1F
100
AcDbEntity
  8
Object
100
AcDbLine
 10
2.632022450103934
 20
5.011801102353491
 30
0.0
 11
2.634022450103934
 21
5.06080110235349
 31
0.0
  0
LINE
  5
1ED
330
1F
100
AcDbEntity
  8
Object
100
AcDbLine
 10
2.587022450103934
 20
5.078801102353491
 30
0.0
 11
2.581022450103934
 21
5.024801102353491
 31
0.0
  0
LINE
  5
1EE
330
1F
100
AcDbEntity
  8
Object
100
AcDbLine
 10
2.528022450103934
 20
5.434801102353491
 30
0.0
 11
2.666022450103934
 21
5.434801102353491
 31
0.0
  0
LINE
  5
1EF
330
1F
100
AcDbEntity
  8
Object
100
AcDbLine
 10
4.685022450103934
 20
5.52980110235349
 30
0.0
 11
2.528022450103934
 21
5.52980110235349
 31
0.0
  0
LINE
  5
1F0
330
1F
100
AcDbEntity
  8
Object
100
AcDbLine
 10
2.466022450103935
 20
5.42780110235349
 30
0.0
 11
2.528022450103934
 21
5.434801102353491
 31
0.0
  0
LINE
  5
1F1
330
1F
100
AcDbEntity
  8
Object
100
AcDbLine
 10
2.528022450103934
 20
5.52980110235349
 30
0.0
 11
2.455022450103934
 21
5.52280110235349
 31
0.0
  0
LINE
  5
1F2
330
1F
100
AcDbEntity
  8
Object
100
AcDbLine
 10
2.455022450103934
 20
5.52280110235349
 30
0.0
 11
2.385022450103934
 21
5.50180110235349
 31
0.0
  0
LINE
  5
1F3
330
1F
100
AcDbEntity
  8
Object
100
AcDbLine
 10
2.407022450103934
 20
5.40680110235349
 30
0.0
 11
2.466022450103935
 21
5.42780110235349
 31
0.0
  0
LINE
  5
1F4
330
1F
100
AcDbEntity
  8
Object
100
AcDbLine
 10
2.351022450103934
 20
4.84980110235349
 30
0.0
 11
2.374022450103934
 21
4.84380110235349
 31
0.0
  0
LINE
  5
1F5
330
1F
100
AcDbEntity
  8
Object
100
AcDbLine
 10
2.374022450103934
 20
4.84380110235349
 30
0.0
 11
2.392022450103934
 21
4.825801102353491
 31
0.0
  0
LINE
  5
1F6
330
1F
100
AcDbEntity
  8
Object
100
AcDbLine
 10
2.392022450103934
 20
4.825801102353491
 30
0.0
 11
2.398022450103934
 21
4.80180110235349
 31
0.0
  0
LINE
  5
1F7
330
1F
100
AcDbEntity
  8
Object
100
AcDbLine
 10
2.398022450103934
 20
4.80180110235349
 30
0.0
 11
2.392022450103934
 21
4.77880110235349
 31
0.0
  0
LINE
  5
1F8
330
1F
100
AcDbEntity
  8
Object
100
AcDbLine
 10
2.392022450103934
 20
4.77880110235349
 30
0.0
 11
2.374022450103934
 21
4.76080110235349
 31
0.0
  0
LINE
  5
1F9
330
1F
100
AcDbEntity
  8
Object
100
AcDbLine
 10
2.374022450103934
 20
4.76080110235349
 30
0.0
 11
2.351022450103934
 21
4.75480110235349
 31
0.0
  0
LINE
  5
1FA
330
1F
100
AcDbEntity
  8
Object
100
AcDbLine
 10
2.351022450103934
 20
4.75480110235349
 30
0.0
 11
2.328022450103935
 21
4.75480110235349
 31
0.0
  0
LINE
  5
1FB
330
1F
100
AcDbEntity
  8
Object
100
AcDbLine
 10
2.351022450103934
 20
4.84980110235349
 30
0.0
 11
2.328022450103935
 21
4.84980110235349
 31
0.0
  0
LINE
  5
1FC
330
1F
100
AcDbEntity
  8
Object
100
AcDbLine
 10
2.385022450103934
 20
5.50180110235349
 30
0.0
 11
2.320022450103934
 21
5.466801102353491
 31
0.0
  0
LINE
  5
1FD
330
1F
100
AcDbEntity
  8
Object
100
AcDbLine
 10
2.353022450103934
 20
5.373801102353491
 30
0.0
 11
2.407022450103934
 21
5.40680110235349
 31
0.0
  0
LINE
  5
1FE
330
1F
100
AcDbEntity
  8
Object
100
AcDbLine
 10
2.328022450103935
 20
4.84980110235349
 30
0.0
 11
2.297022450103934
 21
4.85580110235349
 31
0.0
  0
LINE
  5
1FF
330
1F
100
AcDbEntity
  8
Object
100
AcDbLine
 10
2.283022450103934
 20
4.76080110235349
 30
0.0
 11
2.328022450103935
 21
4.75480110235349
 31
0.0
  0
LINE
  5
200
330
1F
100
AcDbEntity
  8
Object
100
AcDbLine
 10
2.320022450103934
 20
5.466801102353491
 30
0.0
 11
2.263022450103933
 21
5.41980110235349
 31
0.0
  0
LINE
  5
201
330
1F
100
AcDbEntity
  8
Object
100
AcDbLine
 10
2.309022450103935
 20
5.32980110235349
 30
0.0
 11
2.353022450103934
 21
5.373801102353491
 31
0.0
  0
LINE
  5
202
330
1F
100
AcDbEntity
  8
Object
100
AcDbLine
 10
2.241022450103934
 20
4.777801102353491
 30
0.0
 11
2.283022450103934
 21
4.76080110235349
 31
0.0
  0
LINE
  5
203
330
1F
100
AcDbEntity
  8
Object
100
AcDbLine
 10
2.297022450103934
 20
4.85580110235349
 30
0.0
 11
2.272022450103934
 21
4.87280110235349
 31
0.0
  0
LINE
  5
204
330
1F
100
AcDbEntity
  8
Object
100
AcDbLine
 10
2.276022450103934
 20
5.27680110235349
 30
0.0
 11
2.309022450103935
 21
5.32980110235349
 31
0.0
  0
LINE
  5
205
330
1F
100
AcDbEntity
  8
Object
100
AcDbLine
 10
2.263022450103933
 20
5.41980110235349
 30
0.0
 11
2.216022450103935
 21
5.36380110235349
 31
0.0
  0
LINE
  5
206
330
1F
100
AcDbEntity
  8
Object
100
AcDbLine
 10
2.204022450103934
 20
4.80580110235349
 30
0.0
 11
2.241022450103934
 21
4.777801102353491
 31
0.0
  0
LINE
  5
207
330
1F
100
AcDbEntity
  8
Object
100
AcDbLine
 10
2.216022450103935
 20
5.36380110235349
 30
0.0
 11
2.182022450103934
 21
5.29880110235349
 31
0.0
  0
LINE
  5
208
330
1F
100
AcDbEntity
  8
Object
100
AcDbLine
 10
2.255022450103934
 20
5.21780110235349
 30
0.0
 11
2.276022450103934
 21
5.27680110235349
 31
0.0
  0
LINE
  5
209
330
1F
100
AcDbEntity
  8
Object
100
AcDbLine
 10
2.272022450103934
 20
4.87280110235349
 30
0.0
 11
2.254022450103934
 21
4.89880110235349
 31
0.0
  0
LINE
  5
20A
330
1F
100
AcDbEntity
  8
Object
100
AcDbLine
 10
2.177022450103934
 20
4.841801102353491
 30
0.0
 11
2.204022450103934
 21
4.80580110235349
 31
0.0
  0
LINE
  5
20B
330
1F
100
AcDbEntity
  8
Object
100
AcDbLine
 10
2.248022450103935
 20
5.15480110235349
 30
0.0
 11
2.255022450103934
 21
5.21780110235349
 31
0.0
  0
LINE
  5
20C
330
1F
100
AcDbEntity
  8
Object
100
AcDbLine
 10
2.182022450103934
 20
5.29880110235349
 30
0.0
 11
2.160022450103934
 21
5.22780110235349
 31
0.0
  0
LINE
  5
20D
330
1F
100
AcDbEntity
  8
Object
100
AcDbLine
 10
2.159022450103934
 20
4.88480110235349
 30
0.0
 11
2.177022450103934
 21
4.841801102353491
 31
0.0
  0
LINE
  5
20E
330
1F
100
AcDbEntity
  8
Object
100
AcDbLine
 10
2.254022450103934
 20
4.89880110235349
 30
0.0
 11
2.248022450103935
 21
4.92980110235349
 31
0.0
  0
LINE
  5
20F
330
1F
100
AcDbEntity
  8
Object
100
AcDbLine
 10
2.160022450103934
 20
5.22780110235349
 30
0.0
 11
2.153022450103934
 21
5.15480110235349
 31
0.0
  0
LINE
  5
210
330
1F
100
AcDbEntity
  8
Object
100
AcDbLine
 10
2.248022450103935
 20
4.92980110235349
 30
0.0
 11
2.248022450103935
 21
5.15480110235349
 31
0.0
  0
LINE
  5
211
330
1F
100
AcDbEntity
  8
Object
100
AcDbLine
 10
2.159022450103934
 20
4.88480110235349
 30
0.0
 11
2.153022450103934
 21
4.92980110235349
 31
0.0
  0
LINE
  5
212
330
1F
100
AcDbEntity
  8
Object
100
AcDbLine
 10
2.153022450103934
 20
4.92980110235349
 30
0.0
 11
2.153022450103934
 21
5.15480110235349
 31
0.0
  0
LINE
  5
213
330
1F
100
AcDbEntity
  8
Object
100
AcDbLine
 10
2.736022450103934
 20
5.29880110235349
 30
0.0
 11
2.727022450103934
 21
5.24480110235349
 31
0.0
  0
LINE
  5
214
330
1F
100
AcDbEntity
  8
Object
100
AcDbLine
 10
2.727022450103934
 20
5.24480110235349
 30
0.0
 11
2.706022450103934
 21
5.19380110235349
 31
0.0
  0
LINE
  5
215
330
1F
100
AcDbEntity
  8
Object
100
AcDbLine
 10
2.706022450103934
 20
5.19380110235349
 30
0.0
 11
2.675022450103934
 21
5.14780110235349
 31
0.0
  0
LINE
  5
216
330
1F
100
AcDbEntity
  8
Object
100
AcDbLine
 10
2.788022450103934
 20
4.79880110235349
 30
0.0
 11
2.787022450103934
 21
4.79880110235349
 31
0.0
  0
LINE
  5
217
330
1F
100
AcDbEntity
  8
Object
100
AcDbLine
 10
2.787022450103934
 20
4.79880110235349
 30
0.0
 11
2.786022450103934
 21
4.79880110235349
 31
0.0
  0
LINE
  5
218
330
1F
100
AcDbEntity
  8
Object
100
AcDbLine
 10
2.786022450103934
 20
4.79880110235349
 30
0.0
 11
2.785022450103934
 21
4.79880110235349
 31
0.0
  0
LINE
  5
219
330
1F
100
AcDbEntity
  8
Object
100
AcDbLine
 10
2.681022450103935
 20
5.41980110235349
 30
0.0
 11
2.679022450103934
 21
5.42780110235349
 31
0.0
  0
LINE
  5
21A
330
1F
100
AcDbEntity
  8
Object
100
AcDbLine
 10
2.679022450103934
 20
5.42780110235349
 30
0.0
 11
2.674022450103934
 21
5.43280110235349
 31
0.0
  0
LINE
  5
21B
330
1F
100
AcDbEntity
  8
Object
100
AcDbLine
 10
2.674022450103934
 20
5.43280110235349
 30
0.0
 11
2.666022450103934
 21
5.434801102353491
 31
0.0
  0
LINE
  5
21C
330
1F
100
AcDbEntity
  8
Object
100
AcDbLine
 10
2.392022450103934
 20
4.825801102353491
 30
0.0
 11
2.398022450103934
 21
4.80180110235349
 31
0.0
  0
LINE
  5
21D
330
1F
100
AcDbEntity
  8
Object
100
AcDbLine
 10
2.398022450103934
 20
4.80180110235349
 30
0.0
 11
2.392022450103934
 21
4.77880110235349
 31
0.0
  0
LINE
  5
21E
330
1F
100
AcDbEntity
  8
Object
100
AcDbLine
 10
2.392022450103934
 20
4.77880110235349
 30
0.0
 11
2.374022450103934
 21
4.76080110235349
 31
0.0
  0
LINE
  5
21F
330
1F
100
AcDbEntity
  8
Object
100
AcDbLine
 10
2.392022450103934
 20
4.825801102353491
 30
0.0
 11
2.374022450103934
 21
4.84380110235349
 31
0.0
  0
LINE
  5
220
330
1F
100
AcDbEntity
  8
Object
100
AcDbLine
 10
2.374022450103934
 20
4.84380110235349
 30
0.0
 11
2.351022450103934
 21
4.84980110235349
 31
0.0
  0
LINE
  5
221
330
1F
100
AcDbEntity
  8
Object
100
AcDbLine
 10
2.351022450103934
 20
4.75480110235349
 30
0.0
 11
2.374022450103934
 21
4.76080110235349
 31
0.0
  0
LINE
  5
222
330
1F
100
AcDbEntity
  8
Object
100
AcDbLine
 10
2.328022450103935
 20
4.75480110235349
 30
0.0
 11
2.283022450103934
 21
4.76080110235349
 31
0.0
  0
LINE
  5
223
330
1F
100
AcDbEntity
  8
Object
100
AcDbLine
 10
2.283022450103934
 20
4.76080110235349
 30
0.0
 11
2.241022450103934
 21
4.777801102353491
 31
0.0
  0
LINE
  5
224
330
1F
100
AcDbEntity
  8
Object
100
AcDbLine
 10
2.241022450103934
 20
4.777801102353491
 30
0.0
 11
2.204022450103934
 21
4.80580110235349
 31
0.0
  0
LINE
  5
225
330
1F
100
AcDbEntity
  8
Object
100
AcDbLine
 10
2.204022450103934
 20
4.80580110235349
 30
0.0
 11
2.177022450103934
 21
4.841801102353491
 31
0.0
  0
LINE
  5
226
330
1F
100
AcDbEntity
  8
Object
100
AcDbLine
 10
2.177022450103934
 20
4.841801102353491
 30
0.0
 11
2.159022450103934
 21
4.88480110235349
 31
0.0
  0
LINE
  5
227
330
1F
100
AcDbEntity
  8
Object
100
AcDbLine
 10
2.159022450103934
 20
4.88480110235349
 30
0.0
 11
2.153022450103934
 21
4.92980110235349
 31
0.0
  0
LINE
  5
228
330
1F
100
AcDbEntity
  8
Object
100
AcDbLine
 10
5.058022450103934
 20
5.77680110235349
 30
0.0
 11
5.046022450103934
 21
5.70880110235349
 31
0.0
  0
LINE
  5
229
330
1F
100
AcDbEntity
  8
Object
100
AcDbLine
 10
5.046022450103934
 20
5.70880110235349
 30
0.0
 11
5.021022450103934
 21
5.64380110235349
 31
0.0
  0
LINE
  5
22A
330
1F
100
AcDbEntity
  8
Object
100
AcDbLine
 10
5.021022450103934
 20
5.64380110235349
 30
0.0
 11
4.985022450103934
 21
5.58480110235349
 31
0.0
  0
LINE
  5
22B
330
1F
100
AcDbEntity
  8
Object
100
AcDbLine
 10
4.985022450103934
 20
5.58480110235349
 30
0.0
 11
4.938022450103934
 21
5.53380110235349
 31
0.0
  0
LINE
  5
22C
330
1F
100
AcDbEntity
  8
Object
100
AcDbLine
 10
4.938022450103934
 20
5.53380110235349
 30
0.0
 11
4.883022450103934
 21
5.49180110235349
 31
0.0
  0
LINE
  5
22D
330
1F
100
AcDbEntity
  8
Object
100
AcDbLine
 10
4.883022450103934
 20
5.49180110235349
 30
0.0
 11
4.821022450103934
 21
5.460801102353491
 31
0.0
  0
LINE
  5
22E
330
1F
100
AcDbEntity
  8
Object
100
AcDbLine
 10
4.821022450103934
 20
5.460801102353491
 30
0.0
 11
4.754022450103934
 21
5.44180110235349
 31
0.0
  0
LINE
  5
22F
330
1F
100
AcDbEntity
  8
Object
100
AcDbLine
 10
4.754022450103934
 20
5.44180110235349
 30
0.0
 11
4.685022450103934
 21
5.434801102353491
 31
0.0
  0
LINE
  5
230
330
1F
100
AcDbEntity
  8
Object
100
AcDbLine
 10
2.328022450103935
 20
4.84980110235349
 30
0.0
 11
2.297022450103934
 21
4.85580110235349
 31
0.0
  0
LINE
  5
231
330
1F
100
AcDbEntity
  8
Object
100
AcDbLine
 10
2.297022450103934
 20
4.85580110235349
 30
0.0
 11
2.272022450103934
 21
4.87280110235349
 31
0.0
  0
LINE
  5
232
330
1F
100
AcDbEntity
  8
Object
100
AcDbLine
 10
2.272022450103934
 20
4.87280110235349
 30
0.0
 11
2.254022450103934
 21
4.89880110235349
 31
0.0
  0
LINE
  5
233
330
1F
100
AcDbEntity
  8
Object
100
AcDbLine
 10
2.254022450103934
 20
4.89880110235349
 30
0.0
 11
2.248022450103935
 21
4.92980110235349
 31
0.0
  0
LINE
  5
234
330
1F
100
AcDbEntity
  8
Object
100
AcDbLine
 10
2.153022450103934
 20
5.15480110235349
 30
0.0
 11
2.153022450103934
 21
4.92980110235349
 31
0.0
  0
LINE
  5
235
330
1F
100
AcDbEntity
  8
Object
100
AcDbLine
 10
2.757022450103934
 20
5.434801102353491
 30
0.0
 11
2.750022450103934
 21
5.43280110235349
 31
0.0
  0
LINE
  5
236
330
1F
100
AcDbEntity
  8
Object
100
AcDbLine
 10
2.750022450103934
 20
5.43280110235349
 30
0.0
 11
2.745022450103935
 21
5.42780110235349
 31
0.0
  0
LINE
  5
237
330
1F
100
AcDbEntity
  8
Object
100
AcDbLine
 10
2.745022450103935
 20
5.42780110235349
 30
0.0
 11
2.742022450103934
 21
5.42080110235349
 31
0.0
  0
LINE
  5
238
330
1F
100
AcDbEntity
  8
Object
100
AcDbLine
 10
5.070022450103934
 20
5.91280110235349
 30
0.0
 11
5.069022450103934
 21
5.92580110235349
 31
0.0
  0
LINE
  5
239
102
{ACAD_REACTORS
330
42B
102
}
330
1F
100
AcDbEntity
  8
Object
100
AcDbLine
 10
5.069022450103934
 20
5.92580110235349
 30
0.0
 11
5.062022450103934
 21
5.936801102353491
 31
0.0
  0
LINE
  5
23A
330
1F
100
AcDbEntity
  8
Object
100
AcDbLine
 10
5.062022450103934
 20
5.936801102353491
 30
0.0
 11
5.052022450103934
 21
5.94380110235349
 31
0.0
  0
LINE
  5
23B
330
1F
100
AcDbEntity
  8
Object
100
AcDbLine
 10
5.052022450103934
 20
5.94380110235349
 30
0.0
 11
5.039022450103934
 21
5.94680110235349
 31
0.0
  0
LINE
  5
23C
330
1F
100
AcDbEntity
  8
Object
100
AcDbLine
 10
2.528022450103934
 20
5.434801102353491
 30
0.0
 11
2.666022450103934
 21
5.434801102353491
 31
0.0
  0
LINE
  5
23D
330
1F
100
AcDbEntity
  8
Object
100
AcDbLine
 10
2.757022450103934
 20
5.434801102353491
 30
0.0
 11
4.685022450103934
 21
5.434801102353491
 31
0.0
  0
LINE
  5
23E
330
1F
100
AcDbEntity
  8
Object
100
AcDbLine
 10
2.736022450103934
 20
5.29880110235349
 30
0.0
 11
2.742022450103934
 21
5.42080110235349
 31
0.0
  0
LINE
  5
23F
330
1F
100
AcDbEntity
  8
Object
100
AcDbLine
 10
4.976022450103934
 20
5.91880110235349
 30
0.0
 11
4.964022450103934
 21
5.78580110235349
 31
0.0
  0
LINE
  5
240
330
1F
100
AcDbEntity
  8
Object
100
AcDbLine
 10
4.964022450103934
 20
5.78580110235349
 30
0.0
 11
4.953022450103934
 21
5.72780110235349
 31
0.0
  0
LINE
  5
241
330
1F
100
AcDbEntity
  8
Object
100
AcDbLine
 10
4.953022450103934
 20
5.72780110235349
 30
0.0
 11
4.929022450103934
 21
5.67280110235349
 31
0.0
  0
LINE
  5
242
330
1F
100
AcDbEntity
  8
Object
100
AcDbLine
 10
4.929022450103934
 20
5.67280110235349
 30
0.0
 11
4.895022450103934
 21
5.62480110235349
 31
0.0
  0
LINE
  5
243
330
1F
100
AcDbEntity
  8
Object
100
AcDbLine
 10
4.895022450103934
 20
5.62480110235349
 30
0.0
 11
4.852022450103934
 21
5.58480110235349
 31
0.0
  0
LINE
  5
244
330
1F
100
AcDbEntity
  8
Object
100
AcDbLine
 10
4.852022450103934
 20
5.58480110235349
 30
0.0
 11
4.800022450103934
 21
5.55480110235349
 31
0.0
  0
LINE
  5
245
330
1F
100
AcDbEntity
  8
Object
100
AcDbLine
 10
4.800022450103934
 20
5.55480110235349
 30
0.0
 11
4.744022450103934
 21
5.53580110235349
 31
0.0
  0
LINE
  5
246
330
1F
100
AcDbEntity
  8
Object
100
AcDbLine
 10
4.744022450103934
 20
5.53580110235349
 30
0.0
 11
4.685022450103934
 21
5.52980110235349
 31
0.0
  0
LINE
  5
247
330
1F
100
AcDbEntity
  8
Object
100
AcDbLine
 10
2.528022450103934
 20
5.434801102353491
 30
0.0
 11
2.466022450103935
 21
5.42780110235349
 31
0.0
  0
LINE
  5
248
330
1F
100
AcDbEntity
  8
Object
100
AcDbLine
 10
2.466022450103935
 20
5.42780110235349
 30
0.0
 11
2.407022450103934
 21
5.40680110235349
 31
0.0
  0
LINE
  5
249
330
1F
100
AcDbEntity
  8
Object
100
AcDbLine
 10
2.407022450103934
 20
5.40680110235349
 30
0.0
 11
2.353022450103934
 21
5.373801102353491
 31
0.0
  0
LINE
  5
24A
330
1F
100
AcDbEntity
  8
Object
100
AcDbLine
 10
2.353022450103934
 20
5.373801102353491
 30
0.0
 11
2.309022450103935
 21
5.32980110235349
 31
0.0
  0
LINE
  5
24B
330
1F
100
AcDbEntity
  8
Object
100
AcDbLine
 10
2.309022450103935
 20
5.32980110235349
 30
0.0
 11
2.276022450103934
 21
5.27680110235349
 31
0.0
  0
LINE
  5
24C
330
1F
100
AcDbEntity
  8
Object
100
AcDbLine
 10
2.276022450103934
 20
5.27680110235349
 30
0.0
 11
2.255022450103934
 21
5.21780110235349
 31
0.0
  0
LINE
  5
24D
330
1F
100
AcDbEntity
  8
Object
100
AcDbLine
 10
2.255022450103934
 20
5.21780110235349
 30
0.0
 11
2.248022450103935
 21
5.15480110235349
 31
0.0
  0
LINE
  5
24E
330
1F
100
AcDbEntity
  8
Object
100
AcDbLine
 10
4.685022450103934
 20
5.52980110235349
 30
0.0
 11
2.528022450103934
 21
5.52980110235349
 31
0.0
  0
LINE
  5
24F
330
1F
100
AcDbEntity
  8
Object
100
AcDbLine
 10
5.039022450103934
 20
5.94680110235349
 30
0.0
 11
5.007022450103934
 21
5.94680110235349
 31
0.0
  0
LINE
  5
250
330
1F
100
AcDbEntity
  8
Object
100
AcDbLine
 10
2.785022450103934
 20
4.79880110235349
 30
0.0
 11
2.731022450103934
 21
4.81180110235349
 31
0.0
  0
LINE
  5
251
330
1F
100
AcDbEntity
  8
Object
100
AcDbLine
 10
2.731022450103934
 20
4.81180110235349
 30
0.0
 11
2.683022450103934
 21
4.83780110235349
 31
0.0
  0
LINE
  5
252
330
1F
100
AcDbEntity
  8
Object
100
AcDbLine
 10
2.683022450103934
 20
4.83780110235349
 30
0.0
 11
2.641022450103934
 21
4.873801102353491
 31
0.0
  0
LINE
  5
253
330
1F
100
AcDbEntity
  8
Object
100
AcDbLine
 10
2.641022450103934
 20
4.873801102353491
 30
0.0
 11
2.609022450103934
 21
4.918801102353491
 31
0.0
  0
LINE
  5
254
330
1F
100
AcDbEntity
  8
Object
100
AcDbLine
 10
2.635022450103934
 20
5.17780110235349
 30
0.0
 11
2.605022450103934
 21
5.13080110235349
 31
0.0
  0
LINE
  5
255
330
1F
100
AcDbEntity
  8
Object
100
AcDbLine
 10
2.589022450103934
 20
4.969801102353491
 30
0.0
 11
2.609022450103934
 21
4.918801102353491
 31
0.0
  0
LINE
  5
256
330
1F
100
AcDbEntity
  8
Object
100
AcDbLine
 10
2.605022450103934
 20
5.13080110235349
 30
0.0
 11
2.587022450103934
 21
5.078801102353491
 31
0.0
  0
LINE
  5
257
330
1F
100
AcDbEntity
  8
Object
100
AcDbLine
 10
2.587022450103934
 20
5.078801102353491
 30
0.0
 11
2.581022450103934
 21
5.024801102353491
 31
0.0
  0
LINE
  5
258
330
1F
100
AcDbEntity
  8
Object
100
AcDbLine
 10
2.581022450103934
 20
5.024801102353491
 30
0.0
 11
2.589022450103934
 21
4.969801102353491
 31
0.0
  0
LINE
  5
259
330
1F
100
AcDbEntity
  8
Object
100
AcDbLine
 10
2.681022450103935
 20
5.30580110235349
 30
0.0
 11
2.676022450103934
 21
5.25980110235349
 31
0.0
  0
LINE
  5
25A
330
1F
100
AcDbEntity
  8
Object
100
AcDbLine
 10
2.676022450103934
 20
5.25980110235349
 30
0.0
 11
2.660022450103934
 21
5.21580110235349
 31
0.0
  0
LINE
  5
25B
330
1F
100
AcDbEntity
  8
Object
100
AcDbLine
 10
2.660022450103934
 20
5.21580110235349
 30
0.0
 11
2.635022450103934
 21
5.17780110235349
 31
0.0
  0
LINE
  5
25C
330
1F
100
AcDbEntity
  8
Object
100
AcDbLine
 10
2.248022450103935
 20
4.92980110235349
 30
0.0
 11
2.248022450103935
 21
5.15480110235349
 31
0.0
  0
LINE
  5
25D
330
1F
100
AcDbEntity
  8
Object
100
AcDbLine
 10
2.528022450103934
 20
5.52980110235349
 30
0.0
 11
2.455022450103934
 21
5.52280110235349
 31
0.0
  0
LINE
  5
25E
330
1F
100
AcDbEntity
  8
Object
100
AcDbLine
 10
2.455022450103934
 20
5.52280110235349
 30
0.0
 11
2.385022450103934
 21
5.50180110235349
 31
0.0
  0
LINE
  5
25F
330
1F
100
AcDbEntity
  8
Object
100
AcDbLine
 10
2.385022450103934
 20
5.50180110235349
 30
0.0
 11
2.320022450103934
 21
5.466801102353491
 31
0.0
  0
LINE
  5
260
330
1F
100
AcDbEntity
  8
Object
100
AcDbLine
 10
2.320022450103934
 20
5.466801102353491
 30
0.0
 11
2.263022450103933
 21
5.41980110235349
 31
0.0
  0
LINE
  5
261
330
1F
100
AcDbEntity
  8
Object
100
AcDbLine
 10
2.263022450103933
 20
5.41980110235349
 30
0.0
 11
2.216022450103935
 21
5.36380110235349
 31
0.0
  0
LINE
  5
262
330
1F
100
AcDbEntity
  8
Object
100
AcDbLine
 10
2.216022450103935
 20
5.36380110235349
 30
0.0
 11
2.182022450103934
 21
5.29880110235349
 31
0.0
  0
LINE
  5
263
330
1F
100
AcDbEntity
  8
Object
100
AcDbLine
 10
2.182022450103934
 20
5.29880110235349
 30
0.0
 11
2.160022450103934
 21
5.22780110235349
 31
0.0
  0
LINE
  5
264
102
{ACAD_REACTORS
330
357
102
}
330
1F
100
AcDbEntity
  8
Object
100
AcDbLine
 10
2.160022450103934
 20
5.22780110235349
 30
0.0
 11
2.153022450103934
 21
5.15480110235349
 31
0.0
  0
LINE
  5
265
330
1F
100
AcDbEntity
  8
Object
100
AcDbLine
 10
2.351022450103934
 20
4.84980110235349
 30
0.0
 11
2.328022450103935
 21
4.84980110235349
 31
0.0
  0
LINE
  5
266
330
1F
100
AcDbEntity
  8
Object
100
AcDbLine
 10
2.328022450103935
 20
4.75480110235349
 30
0.0
 11
2.351022450103934
 21
4.75480110235349
 31
0.0
  0
LINE
  5
267
330
1F
100
AcDbEntity
  8
Object
100
AcDbLine
 10
5.007022450103934
 20
5.94680110235349
 30
0.0
 11
4.992022450103934
 21
5.94280110235349
 31
0.0
  0
LINE
  5
268
330
1F
100
AcDbEntity
  8
Object
100
AcDbLine
 10
4.992022450103934
 20
5.94280110235349
 30
0.0
 11
4.981022450103934
 21
5.93280110235349
 31
0.0
  0
LINE
  5
269
330
1F
100
AcDbEntity
  8
Object
100
AcDbLine
 10
4.981022450103934
 20
5.93280110235349
 30
0.0
 11
4.976022450103934
 21
5.91880110235349
 31
0.0
  0
LINE
  5
26A
330
1F
100
AcDbEntity
  8
Object
100
AcDbLine
 10
2.681022450103935
 20
5.41980110235349
 30
0.0
 11
2.681022450103935
 21
5.30580110235349
 31
0.0
  0
LINE
  5
26B
330
1F
100
AcDbEntity
  8
Object
100
AcDbLine
 10
5.058022450103934
 20
5.77680110235349
 30
0.0
 11
5.070022450103934
 21
5.91280110235349
 31
0.0
  0
LINE
  5
26C
330
1F
100
AcDbEntity
  8
Object
100
AcDbLine
 10
8.738022450103935
 20
5.15480110235349
 30
0.0
 11
8.730022450103934
 21
5.22780110235349
 31
0.0
  0
LINE
  5
26D
330
1F
100
AcDbEntity
  8
Object
100
AcDbLine
 10
8.730022450103934
 20
5.22780110235349
 30
0.0
 11
8.709022450103935
 21
5.29880110235349
 31
0.0
  0
LINE
  5
26E
330
1F
100
AcDbEntity
  8
Object
100
AcDbLine
 10
8.709022450103935
 20
5.29880110235349
 30
0.0
 11
8.674022450103935
 21
5.36380110235349
 31
0.0
  0
LINE
  5
26F
330
1F
100
AcDbEntity
  8
Object
100
AcDbLine
 10
8.674022450103935
 20
5.36380110235349
 30
0.0
 11
8.628022450103934
 21
5.41980110235349
 31
0.0
  0
LINE
  5
270
330
1F
100
AcDbEntity
  8
Object
100
AcDbLine
 10
8.628022450103934
 20
5.41980110235349
 30
0.0
 11
8.571022450103935
 21
5.466801102353491
 31
0.0
  0
LINE
  5
271
330
1F
100
AcDbEntity
  8
Object
100
AcDbLine
 10
8.571022450103935
 20
5.466801102353491
 30
0.0
 11
8.506022450103934
 21
5.50180110235349
 31
0.0
  0
LINE
  5
272
330
1F
100
AcDbEntity
  8
Object
100
AcDbLine
 10
8.506022450103934
 20
5.50180110235349
 30
0.0
 11
8.436022450103934
 21
5.52280110235349
 31
0.0
  0
LINE
  5
273
330
1F
100
AcDbEntity
  8
Object
100
AcDbLine
 10
8.436022450103934
 20
5.52280110235349
 30
0.0
 11
8.363022450103935
 21
5.52980110235349
 31
0.0
  0
LINE
  5
274
330
1F
100
AcDbEntity
  8
Object
100
AcDbLine
 10
8.738022450103935
 20
4.92980110235349
 30
0.0
 11
8.738022450103935
 21
5.15480110235349
 31
0.0
  0
LINE
  5
275
330
1F
100
AcDbEntity
  8
Object
100
AcDbLine
 10
8.738022450103935
 20
5.15480110235349
 30
0.0
 11
8.730022450103934
 21
5.22780110235349
 31
0.0
  0
LINE
  5
276
330
1F
100
AcDbEntity
  8
Object
100
AcDbLine
 10
8.643022450103934
 20
5.15480110235349
 30
0.0
 11
8.643022450103934
 21
4.92980110235349
 31
0.0
  0
LINE
  5
277
102
{ACAD_REACTORS
330
357
102
}
330
1F
100
AcDbEntity
  8
Object
100
AcDbLine
 10
8.738022450103935
 20
5.15480110235349
 30
0.0
 11
8.738022450103935
 21
4.92980110235349
 31
0.0
  0
LINE
  5
278
330
1F
100
AcDbEntity
  8
Object
100
AcDbLine
 10
8.738022450103935
 20
4.92980110235349
 30
0.0
 11
8.732022450103935
 21
4.88480110235349
 31
0.0
  0
LINE
  5
279
330
1F
100
AcDbEntity
  8
Object
100
AcDbLine
 10
8.732022450103935
 20
4.88480110235349
 30
0.0
 11
8.714022450103934
 21
4.841801102353491
 31
0.0
  0
LINE
  5
27A
330
1F
100
AcDbEntity
  8
Object
100
AcDbLine
 10
8.643022450103934
 20
4.92980110235349
 30
0.0
 11
8.636022450103935
 21
4.89880110235349
 31
0.0
  0
LINE
  5
27B
330
1F
100
AcDbEntity
  8
Object
100
AcDbLine
 10
8.730022450103934
 20
5.22780110235349
 30
0.0
 11
8.709022450103935
 21
5.29880110235349
 31
0.0
  0
LINE
  5
27C
330
1F
100
AcDbEntity
  8
Object
100
AcDbLine
 10
8.636022450103935
 20
5.21780110235349
 30
0.0
 11
8.643022450103934
 21
5.15480110235349
 31
0.0
  0
LINE
  5
27D
330
1F
100
AcDbEntity
  8
Object
100
AcDbLine
 10
8.636022450103935
 20
4.89880110235349
 30
0.0
 11
8.619022450103935
 21
4.87280110235349
 31
0.0
  0
LINE
  5
27E
330
1F
100
AcDbEntity
  8
Object
100
AcDbLine
 10
8.714022450103934
 20
4.841801102353491
 30
0.0
 11
8.686022450103934
 21
4.80580110235349
 31
0.0
  0
LINE
  5
27F
330
1F
100
AcDbEntity
  8
Object
100
AcDbLine
 10
8.686022450103934
 20
4.80580110235349
 30
0.0
 11
8.650022450103934
 21
4.777801102353491
 31
0.0
  0
LINE
  5
280
330
1F
100
AcDbEntity
  8
Object
100
AcDbLine
 10
8.615022450103934
 20
5.27680110235349
 30
0.0
 11
8.636022450103935
 21
5.21780110235349
 31
0.0
  0
LINE
  5
281
330
1F
100
AcDbEntity
  8
Object
100
AcDbLine
 10
8.709022450103935
 20
5.29880110235349
 30
0.0
 11
8.674022450103935
 21
5.36380110235349
 31
0.0
  0
LINE
  5
282
330
1F
100
AcDbEntity
  8
Object
100
AcDbLine
 10
8.608022450103934
 20
4.76080110235349
 30
0.0
 11
8.650022450103934
 21
4.777801102353491
 31
0.0
  0
LINE
  5
283
330
1F
100
AcDbEntity
  8
Object
100
AcDbLine
 10
8.619022450103935
 20
4.87280110235349
 30
0.0
 11
8.593022450103934
 21
4.85580110235349
 31
0.0
  0
LINE
  5
284
330
1F
100
AcDbEntity
  8
Object
100
AcDbLine
 10
8.674022450103935
 20
5.36380110235349
 30
0.0
 11
8.628022450103934
 21
5.41980110235349
 31
0.0
  0
LINE
  5
285
330
1F
100
AcDbEntity
  8
Object
100
AcDbLine
 10
8.581022450103935
 20
5.32980110235349
 30
0.0
 11
8.615022450103934
 21
5.27680110235349
 31
0.0
  0
LINE
  5
286
330
1F
100
AcDbEntity
  8
Object
100
AcDbLine
 10
8.593022450103934
 20
4.85580110235349
 30
0.0
 11
8.563022450103934
 21
4.84980110235349
 31
0.0
  0
LINE
  5
287
330
1F
100
AcDbEntity
  8
Object
100
AcDbLine
 10
8.608022450103934
 20
4.76080110235349
 30
0.0
 11
8.563022450103934
 21
4.75480110235349
 31
0.0
  0
LINE
  5
288
330
1F
100
AcDbEntity
  8
Object
100
AcDbLine
 10
8.563022450103934
 20
4.75480110235349
 30
0.0
 11
8.540022450103935
 21
4.75480110235349
 31
0.0
  0
LINE
  5
289
330
1F
100
AcDbEntity
  8
Object
100
AcDbLine
 10
8.563022450103934
 20
4.84980110235349
 30
0.0
 11
8.540022450103935
 21
4.84980110235349
 31
0.0
  0
LINE
  5
28A
330
1F
100
AcDbEntity
  8
Object
100
AcDbLine
 10
8.537022450103934
 20
5.373801102353491
 30
0.0
 11
8.581022450103935
 21
5.32980110235349
 31
0.0
  0
LINE
  5
28B
330
1F
100
AcDbEntity
  8
Object
100
AcDbLine
 10
8.628022450103934
 20
5.41980110235349
 30
0.0
 11
8.571022450103935
 21
5.466801102353491
 31
0.0
  0
LINE
  5
28C
330
1F
100
AcDbEntity
  8
Object
100
AcDbLine
 10
8.540022450103935
 20
4.75480110235349
 30
0.0
 11
8.516022450103934
 21
4.76080110235349
 31
0.0
  0
LINE
  5
28D
330
1F
100
AcDbEntity
  8
Object
100
AcDbLine
 10
8.516022450103934
 20
4.76080110235349
 30
0.0
 11
8.499022450103934
 21
4.77880110235349
 31
0.0
  0
LINE
  5
28E
330
1F
100
AcDbEntity
  8
Object
100
AcDbLine
 10
8.499022450103934
 20
4.825801102353491
 30
0.0
 11
8.516022450103934
 21
4.84380110235349
 31
0.0
  0
LINE
  5
28F
330
1F
100
AcDbEntity
  8
Object
100
AcDbLine
 10
8.516022450103934
 20
4.84380110235349
 30
0.0
 11
8.540022450103935
 21
4.84980110235349
 31
0.0
  0
LINE
  5
290
330
1F
100
AcDbEntity
  8
Object
100
AcDbLine
 10
8.499022450103934
 20
4.77880110235349
 30
0.0
 11
8.493022450103934
 21
4.80180110235349
 31
0.0
  0
LINE
  5
291
330
1F
100
AcDbEntity
  8
Object
100
AcDbLine
 10
8.493022450103934
 20
4.80180110235349
 30
0.0
 11
8.499022450103934
 21
4.825801102353491
 31
0.0
  0
LINE
  5
292
330
1F
100
AcDbEntity
  8
Object
100
AcDbLine
 10
8.571022450103935
 20
5.466801102353491
 30
0.0
 11
8.506022450103934
 21
5.50180110235349
 31
0.0
  0
LINE
  5
293
330
1F
100
AcDbEntity
  8
Object
100
AcDbLine
 10
8.537022450103934
 20
5.373801102353491
 30
0.0
 11
8.484022450103934
 21
5.40680110235349
 31
0.0
  0
LINE
  5
294
330
1F
100
AcDbEntity
  8
Object
100
AcDbLine
 10
8.484022450103934
 20
5.40680110235349
 30
0.0
 11
8.425022450103934
 21
5.42780110235349
 31
0.0
  0
LINE
  5
295
330
1F
100
AcDbEntity
  8
Object
100
AcDbLine
 10
8.506022450103934
 20
5.50180110235349
 30
0.0
 11
8.436022450103934
 21
5.52280110235349
 31
0.0
  0
LINE
  5
296
330
1F
100
AcDbEntity
  8
Object
100
AcDbLine
 10
8.436022450103934
 20
5.52280110235349
 30
0.0
 11
8.363022450103935
 21
5.52980110235349
 31
0.0
  0
LINE
  5
297
330
1F
100
AcDbEntity
  8
Object
100
AcDbLine
 10
8.363022450103935
 20
5.434801102353491
 30
0.0
 11
8.425022450103934
 21
5.42780110235349
 31
0.0
  0
LINE
  5
298
330
1F
100
AcDbEntity
  8
Object
100
AcDbLine
 10
8.302022450103935
 20
4.969801102353491
 30
0.0
 11
8.310022450103934
 21
5.024801102353491
 31
0.0
  0
LINE
  5
299
330
1F
100
AcDbEntity
  8
Object
100
AcDbLine
 10
8.257022450103935
 20
5.06080110235349
 30
0.0
 11
8.259022450103934
 21
5.011801102353491
 31
0.0
  0
LINE
  5
29A
330
1F
100
AcDbEntity
  8
Object
100
AcDbLine
 10
8.310022450103934
 20
5.024801102353491
 30
0.0
 11
8.304022450103934
 21
5.078801102353491
 31
0.0
  0
LINE
  5
29B
330
1F
100
AcDbEntity
  8
Object
100
AcDbLine
 10
8.282022450103934
 20
4.918801102353491
 30
0.0
 11
8.302022450103935
 21
4.969801102353491
 31
0.0
  0
LINE
  5
29C
330
1F
100
AcDbEntity
  8
Object
100
AcDbLine
 10
8.259022450103934
 20
5.011801102353491
 30
0.0
 11
8.247022450103933
 21
4.963801102353491
 31
0.0
  0
LINE
  5
29D
330
1F
100
AcDbEntity
  8
Object
100
AcDbLine
 10
8.256022450103934
 20
5.17780110235349
 30
0.0
 11
8.286022450103935
 21
5.13080110235349
 31
0.0
  0
LINE
  5
29E
330
1F
100
AcDbEntity
  8
Object
100
AcDbLine
 10
8.286022450103935
 20
5.13080110235349
 30
0.0
 11
8.304022450103934
 21
5.078801102353491
 31
0.0
  0
LINE
  5
29F
330
1F
100
AcDbEntity
  8
Object
100
AcDbLine
 10
8.242022450103934
 20
5.10680110235349
 30
0.0
 11
8.257022450103935
 21
5.06080110235349
 31
0.0
  0
LINE
  5
2A0
330
1F
100
AcDbEntity
  8
Object
100
AcDbLine
 10
8.225022450103935
 20
5.434801102353491
 30
0.0
 11
8.363022450103935
 21
5.434801102353491
 31
0.0
  0
LINE
  5
2A1
330
1F
100
AcDbEntity
  8
Object
100
AcDbLine
 10
8.247022450103933
 20
4.963801102353491
 30
0.0
 11
8.224022450103934
 21
4.92080110235349
 31
0.0
  0
LINE
  5
2A2
330
1F
100
AcDbEntity
  8
Object
100
AcDbLine
 10
8.250022450103934
 20
4.873801102353491
 30
0.0
 11
8.282022450103934
 21
4.918801102353491
 31
0.0
  0
LINE
  5
2A3
330
1F
100
AcDbEntity
  8
Object
100
AcDbLine
 10
8.215022450103933
 20
5.14780110235349
 30
0.0
 11
8.242022450103934
 21
5.10680110235349
 31
0.0
  0
LINE
  5
2A4
330
1F
100
AcDbEntity
  8
Object
100
AcDbLine
 10
8.256022450103934
 20
5.17780110235349
 30
0.0
 11
8.231022450103933
 21
5.21580110235349
 31
0.0
  0
LINE
  5
2A5
330
1F
100
AcDbEntity
  8
Object
100
AcDbLine
 10
8.208022450103934
 20
4.83780110235349
 30
0.0
 11
8.250022450103934
 21
4.873801102353491
 31
0.0
  0
LINE
  5
2A6
330
1F
100
AcDbEntity
  8
Object
100
AcDbLine
 10
8.224022450103934
 20
4.92080110235349
 30
0.0
 11
8.189022450103934
 21
4.88580110235349
 31
0.0
  0
LINE
  5
2A7
330
1F
100
AcDbEntity
  8
Object
100
AcDbLine
 10
8.184022450103935
 20
5.19380110235349
 30
0.0
 11
8.215022450103933
 21
5.14780110235349
 31
0.0
  0
LINE
  5
2A8
330
1F
100
AcDbEntity
  8
Object
100
AcDbLine
 10
8.231022450103933
 20
5.21580110235349
 30
0.0
 11
8.215022450103933
 21
5.25980110235349
 31
0.0
  0
LINE
  5
2A9
330
1F
100
AcDbEntity
  8
Object
100
AcDbLine
 10
8.184022450103935
 20
5.19380110235349
 30
0.0
 11
8.164022450103935
 21
5.24480110235349
 31
0.0
  0
LINE
  5
2AA
330
1F
100
AcDbEntity
  8
Object
100
AcDbLine
 10
8.164022450103935
 20
5.24480110235349
 30
0.0
 11
8.155022450103935
 21
5.29880110235349
 31
0.0
  0
LINE
  5
2AB
330
1F
100
AcDbEntity
  8
Object
100
AcDbLine
 10
8.215022450103933
 20
5.25980110235349
 30
0.0
 11
8.210022450103934
 21
5.30580110235349
 31
0.0
  0
LINE
  5
2AC
330
1F
100
AcDbEntity
  8
Object
100
AcDbLine
 10
8.212022450103935
 20
5.42780110235349
 30
0.0
 11
8.210022450103934
 21
5.41980110235349
 31
0.0
  0
LINE
  5
2AD
330
1F
100
AcDbEntity
  8
Object
100
AcDbLine
 10
8.210022450103934
 20
5.41980110235349
 30
0.0
 11
8.210022450103934
 21
5.30580110235349
 31
0.0
  0
LINE
  5
2AE
330
1F
100
AcDbEntity
  8
Object
100
AcDbLine
 10
8.148022450103933
 20
5.42080110235349
 30
0.0
 11
8.155022450103935
 21
5.29880110235349
 31
0.0
  0
LINE
  5
2AF
330
1F
100
AcDbEntity
  8
Object
100
AcDbLine
 10
8.189022450103934
 20
4.88580110235349
 30
0.0
 11
8.147022450103934
 21
4.86080110235349
 31
0.0
  0
LINE
  5
2B0
330
1F
100
AcDbEntity
  8
Object
100
AcDbLine
 10
8.159022450103934
 20
4.81180110235349
 30
0.0
 11
8.208022450103934
 21
4.83780110235349
 31
0.0
  0
LINE
  5
2B1
330
1F
100
AcDbEntity
  8
Object
100
AcDbLine
 10
8.212022450103935
 20
5.42780110235349
 30
0.0
 11
8.217022450103934
 21
5.43280110235349
 31
0.0
  0
LINE
  5
2B2
330
1F
100
AcDbEntity
  8
Object
100
AcDbLine
 10
8.148022450103933
 20
5.42080110235349
 30
0.0
 11
8.146022450103934
 21
5.42780110235349
 31
0.0
  0
LINE
  5
2B3
330
1F
100
AcDbEntity
  8
Object
100
AcDbLine
 10
8.146022450103934
 20
5.42780110235349
 30
0.0
 11
8.141022450103935
 21
5.43280110235349
 31
0.0
  0
LINE
  5
2B4
330
1F
100
AcDbEntity
  8
Object
100
AcDbLine
 10
8.217022450103934
 20
5.43280110235349
 30
0.0
 11
8.225022450103935
 21
5.434801102353491
 31
0.0
  0
LINE
  5
2B5
330
1F
100
AcDbEntity
  8
Object
100
AcDbLine
 10
8.133022450103934
 20
5.434801102353491
 30
0.0
 11
8.141022450103935
 21
5.43280110235349
 31
0.0
  0
LINE
  5
2B6
330
1F
100
AcDbEntity
  8
Object
100
AcDbLine
 10
8.106022450103935
 20
4.79880110235349
 30
0.0
 11
8.159022450103934
 21
4.81180110235349
 31
0.0
  0
LINE
  5
2B7
330
1F
100
AcDbEntity
  8
Object
100
AcDbLine
 10
8.147022450103934
 20
4.86080110235349
 30
0.0
 11
8.100022450103935
 21
4.84880110235349
 31
0.0
  0
LINE
  5
2B8
330
1F
100
AcDbEntity
  8
Object
100
AcDbLine
 10
8.100022450103935
 20
4.84880110235349
 30
0.0
 11
8.088022450103935
 21
4.84380110235349
 31
0.0
  0
LINE
  5
2B9
330
1F
100
AcDbEntity
  8
Object
100
AcDbLine
 10
8.106022450103935
 20
4.79880110235349
 30
0.0
 11
8.105022450103934
 21
4.79880110235349
 31
0.0
  0
LINE
  5
2BA
330
1F
100
AcDbEntity
  8
Object
100
AcDbLine
 10
8.105022450103934
 20
4.79880110235349
 30
0.0
 11
8.104022450103935
 21
4.79880110235349
 31
0.0
  0
LINE
  5
2BB
330
1F
100
AcDbEntity
  8
Object
100
AcDbLine
 10
8.104022450103935
 20
4.79880110235349
 30
0.0
 11
8.103022450103935
 21
4.79880110235349
 31
0.0
  0
LINE
  5
2BC
330
1F
100
AcDbEntity
  8
Object
100
AcDbLine
 10
8.103022450103935
 20
4.79880110235349
 30
0.0
 11
8.091022450103935
 21
4.80180110235349
 31
0.0
  0
LINE
  5
2BD
330
1F
100
AcDbEntity
  8
Object
100
AcDbLine
 10
8.091022450103935
 20
4.80180110235349
 30
0.0
 11
8.082022450103934
 21
4.81080110235349
 31
0.0
  0
LINE
  5
2BE
330
1F
100
AcDbEntity
  8
Object
100
AcDbLine
 10
8.088022450103935
 20
4.84380110235349
 30
0.0
 11
8.080022450103935
 21
4.83480110235349
 31
0.0
  0
LINE
  5
2BF
330
1F
100
AcDbEntity
  8
Object
100
AcDbLine
 10
8.082022450103934
 20
4.81080110235349
 30
0.0
 11
8.078022450103933
 21
4.82180110235349
 31
0.0
  0
LINE
  5
2C0
330
1F
100
AcDbEntity
  8
Object
100
AcDbLine
 10
8.078022450103933
 20
4.82180110235349
 30
0.0
 11
8.080022450103935
 21
4.83480110235349
 31
0.0
  0
LINE
  5
2C1
330
1F
100
AcDbEntity
  8
Object
100
AcDbLine
 10
8.363022450103935
 20
5.52980110235349
 30
0.0
 11
6.205022450103935
 21
5.52980110235349
 31
0.0
  0
LINE
  5
2C2
330
1F
100
AcDbEntity
  8
Object
100
AcDbLine
 10
8.133022450103934
 20
5.434801102353491
 30
0.0
 11
6.206022450103934
 21
5.434801102353491
 31
0.0
  0
LINE
  5
2C3
330
1F
100
AcDbEntity
  8
Object
100
AcDbLine
 10
6.206022450103934
 20
5.434801102353491
 30
0.0
 11
6.137022450103934
 21
5.44180110235349
 31
0.0
  0
LINE
  5
2C4
330
1F
100
AcDbEntity
  8
Object
100
AcDbLine
 10
6.205022450103935
 20
5.52980110235349
 30
0.0
 11
6.146022450103934
 21
5.53580110235349
 31
0.0
  0
LINE
  5
2C5
330
1F
100
AcDbEntity
  8
Object
100
AcDbLine
 10
6.146022450103934
 20
5.53580110235349
 30
0.0
 11
6.090022450103934
 21
5.55480110235349
 31
0.0
  0
LINE
  5
2C6
330
1F
100
AcDbEntity
  8
Object
100
AcDbLine
 10
6.137022450103934
 20
5.44180110235349
 30
0.0
 11
6.070022450103934
 21
5.460801102353491
 31
0.0
  0
LINE
  5
2C7
330
1F
100
AcDbEntity
  8
Object
100
AcDbLine
 10
6.070022450103934
 20
5.460801102353491
 30
0.0
 11
6.008022450103934
 21
5.49180110235349
 31
0.0
  0
LINE
  5
2C8
330
1F
100
AcDbEntity
  8
Object
100
AcDbLine
 10
6.090022450103934
 20
5.55480110235349
 30
0.0
 11
6.039022450103934
 21
5.58480110235349
 31
0.0
  0
LINE
  5
2C9
330
1F
100
AcDbEntity
  8
Object
100
AcDbLine
 10
6.039022450103934
 20
5.58480110235349
 30
0.0
 11
5.995022450103935
 21
5.62480110235349
 31
0.0
  0
LINE
  5
2CA
330
1F
100
AcDbEntity
  8
Object
100
AcDbLine
 10
6.008022450103934
 20
5.49180110235349
 30
0.0
 11
5.952022450103934
 21
5.53380110235349
 31
0.0
  0
LINE
  5
2CB
330
1F
100
AcDbEntity
  8
Object
100
AcDbLine
 10
5.952022450103934
 20
5.53380110235349
 30
0.0
 11
5.906022450103934
 21
5.58480110235349
 31
0.0
  0
LINE
  5
2CC
330
1F
100
AcDbEntity
  8
Object
100
AcDbLine
 10
5.995022450103935
 20
5.62480110235349
 30
0.0
 11
5.961022450103934
 21
5.67280110235349
 31
0.0
  0
LINE
  5
2CD
330
1F
100
AcDbEntity
  8
Object
100
AcDbLine
 10
5.884022450103934
 20
5.94680110235349
 30
0.0
 11
5.899022450103935
 21
5.94280110235349
 31
0.0
  0
LINE
  5
2CE
330
1F
100
AcDbEntity
  8
Object
100
AcDbLine
 10
5.899022450103935
 20
5.94280110235349
 30
0.0
 11
5.910022450103935
 21
5.93280110235349
 31
0.0
  0
LINE
  5
2CF
330
1F
100
AcDbEntity
  8
Object
100
AcDbLine
 10
5.910022450103935
 20
5.93280110235349
 30
0.0
 11
5.915022450103935
 21
5.91880110235349
 31
0.0
  0
LINE
  5
2D0
330
1F
100
AcDbEntity
  8
Object
100
AcDbLine
 10
5.961022450103934
 20
5.67280110235349
 30
0.0
 11
5.938022450103934
 21
5.72780110235349
 31
0.0
  0
LINE
  5
2D1
330
1F
100
AcDbEntity
  8
Object
100
AcDbLine
 10
5.906022450103934
 20
5.58480110235349
 30
0.0
 11
5.869022450103934
 21
5.64380110235349
 31
0.0
  0
LINE
  5
2D2
330
1F
100
AcDbEntity
  8
Object
100
AcDbLine
 10
5.869022450103934
 20
5.64380110235349
 30
0.0
 11
5.845022450103934
 21
5.70880110235349
 31
0.0
  0
LINE
  5
2D3
330
1F
100
AcDbEntity
  8
Object
100
AcDbLine
 10
5.938022450103934
 20
5.72780110235349
 30
0.0
 11
5.926022450103935
 21
5.78580110235349
 31
0.0
  0
LINE
  5
2D4
330
1F
100
AcDbEntity
  8
Object
100
AcDbLine
 10
5.926022450103935
 20
5.78580110235349
 30
0.0
 11
5.915022450103935
 21
5.91880110235349
 31
0.0
  0
LINE
  5
2D5
330
1F
100
AcDbEntity
  8
Object
100
AcDbLine
 10
5.832022450103934
 20
5.77680110235349
 30
0.0
 11
5.845022450103934
 21
5.70880110235349
 31
0.0
  0
LINE
  5
2D6
330
1F
100
AcDbEntity
  8
Object
100
AcDbLine
 10
5.828022450103934
 20
5.936801102353491
 30
0.0
 11
5.839022450103934
 21
5.94380110235349
 31
0.0
  0
LINE
  5
2D7
330
1F
100
AcDbEntity
  8
Object
100
AcDbLine
 10
5.839022450103934
 20
5.94380110235349
 30
0.0
 11
5.851022450103934
 21
5.94680110235349
 31
0.0
  0
LINE
  5
2D8
330
1F
100
AcDbEntity
  8
Object
100
AcDbLine
 10
5.828022450103934
 20
5.936801102353491
 30
0.0
 11
5.822022450103935
 21
5.92580110235349
 31
0.0
  0
LINE
  5
2D9
330
1F
100
AcDbEntity
  8
Object
100
AcDbLine
 10
5.884022450103934
 20
5.94680110235349
 30
0.0
 11
5.851022450103934
 21
5.94680110235349
 31
0.0
  0
LINE
  5
2DA
330
1F
100
AcDbEntity
  8
Object
100
AcDbLine
 10
5.822022450103935
 20
5.92580110235349
 30
0.0
 11
5.820022450103934
 21
5.91280110235349
 31
0.0
  0
LINE
  5
2DB
330
1F
100
AcDbEntity
  8
Object
100
AcDbLine
 10
5.820022450103934
 20
5.91280110235349
 30
0.0
 11
5.832022450103934
 21
5.77680110235349
 31
0.0
  0
LINE
  5
2DC
330
1F
100
AcDbEntity
  8
Object
100
AcDbLine
 10
8.363022450103935
 20
5.52980110235349
 30
0.0
 11
6.205022450103935
 21
5.52980110235349
 31
0.0
  0
LINE
  5
2DD
330
1F
100
AcDbEntity
  8
Object
100
AcDbLine
 10
8.738022450103935
 20
4.92980110235349
 30
0.0
 11
8.732022450103935
 21
4.88480110235349
 31
0.0
  0
LINE
  5
2DE
330
1F
100
AcDbEntity
  8
Object
100
AcDbLine
 10
8.732022450103935
 20
4.88480110235349
 30
0.0
 11
8.714022450103934
 21
4.841801102353491
 31
0.0
  0
LINE
  5
2DF
330
1F
100
AcDbEntity
  8
Object
100
AcDbLine
 10
8.714022450103934
 20
4.841801102353491
 30
0.0
 11
8.686022450103934
 21
4.80580110235349
 31
0.0
  0
LINE
  5
2E0
330
1F
100
AcDbEntity
  8
Object
100
AcDbLine
 10
8.686022450103934
 20
4.80580110235349
 30
0.0
 11
8.650022450103934
 21
4.777801102353491
 31
0.0
  0
LINE
  5
2E1
330
1F
100
AcDbEntity
  8
Object
100
AcDbLine
 10
8.650022450103934
 20
4.777801102353491
 30
0.0
 11
8.608022450103934
 21
4.76080110235349
 31
0.0
  0
LINE
  5
2E2
330
1F
100
AcDbEntity
  8
Object
100
AcDbLine
 10
8.608022450103934
 20
4.76080110235349
 30
0.0
 11
8.563022450103934
 21
4.75480110235349
 31
0.0
  0
LINE
  5
2E3
330
1F
100
AcDbEntity
  8
Object
100
AcDbLine
 10
6.206022450103934
 20
5.434801102353491
 30
0.0
 11
6.137022450103934
 21
5.44180110235349
 31
0.0
  0
LINE
  5
2E4
330
1F
100
AcDbEntity
  8
Object
100
AcDbLine
 10
6.137022450103934
 20
5.44180110235349
 30
0.0
 11
6.070022450103934
 21
5.460801102353491
 31
0.0
  0
LINE
  5
2E5
330
1F
100
AcDbEntity
  8
Object
100
AcDbLine
 10
6.070022450103934
 20
5.460801102353491
 30
0.0
 11
6.008022450103934
 21
5.49180110235349
 31
0.0
  0
LINE
  5
2E6
330
1F
100
AcDbEntity
  8
Object
100
AcDbLine
 10
6.008022450103934
 20
5.49180110235349
 30
0.0
 11
5.952022450103934
 21
5.53380110235349
 31
0.0
  0
LINE
  5
2E7
330
1F
100
AcDbEntity
  8
Object
100
AcDbLine
 10
5.952022450103934
 20
5.53380110235349
 30
0.0
 11
5.906022450103934
 21
5.58480110235349
 31
0.0
  0
LINE
  5
2E8
330
1F
100
AcDbEntity
  8
Object
100
AcDbLine
 10
5.906022450103934
 20
5.58480110235349
 30
0.0
 11
5.869022450103934
 21
5.64380110235349
 31
0.0
  0
LINE
  5
2E9
330
1F
100
AcDbEntity
  8
Object
100
AcDbLine
 10
5.869022450103934
 20
5.64380110235349
 30
0.0
 11
5.845022450103934
 21
5.70880110235349
 31
0.0
  0
LINE
  5
2EA
330
1F
100
AcDbEntity
  8
Object
100
AcDbLine
 10
5.845022450103934
 20
5.70880110235349
 30
0.0
 11
5.832022450103934
 21
5.77680110235349
 31
0.0
  0
LINE
  5
2EB
330
1F
100
AcDbEntity
  8
Object
100
AcDbLine
 10
8.643022450103934
 20
5.15480110235349
 30
0.0
 11
8.643022450103934
 21
4.92980110235349
 31
0.0
  0
LINE
  5
2EC
330
1F
100
AcDbEntity
  8
Object
100
AcDbLine
 10
8.304022450103934
 20
5.078801102353491
 30
0.0
 11
8.310022450103934
 21
5.024801102353491
 31
0.0
  0
LINE
  5
2ED
330
1F
100
AcDbEntity
  8
Object
100
AcDbLine
 10
8.310022450103934
 20
5.024801102353491
 30
0.0
 11
8.302022450103935
 21
4.969801102353491
 31
0.0
  0
LINE
  5
2EE
330
1F
100
AcDbEntity
  8
Object
100
AcDbLine
 10
8.304022450103934
 20
5.078801102353491
 30
0.0
 11
8.286022450103935
 21
5.13080110235349
 31
0.0
  0
LINE
  5
2EF
330
1F
100
AcDbEntity
  8
Object
100
AcDbLine
 10
8.282022450103934
 20
4.918801102353491
 30
0.0
 11
8.302022450103935
 21
4.969801102353491
 31
0.0
  0
LINE
  5
2F0
330
1F
100
AcDbEntity
  8
Object
100
AcDbLine
 10
8.286022450103935
 20
5.13080110235349
 30
0.0
 11
8.256022450103934
 21
5.17780110235349
 31
0.0
  0
LINE
  5
2F1
330
1F
100
AcDbEntity
  8
Object
100
AcDbLine
 10
8.282022450103934
 20
4.918801102353491
 30
0.0
 11
8.250022450103934
 21
4.873801102353491
 31
0.0
  0
LINE
  5
2F2
330
1F
100
AcDbEntity
  8
Object
100
AcDbLine
 10
8.250022450103934
 20
4.873801102353491
 30
0.0
 11
8.208022450103934
 21
4.83780110235349
 31
0.0
  0
LINE
  5
2F3
330
1F
100
AcDbEntity
  8
Object
100
AcDbLine
 10
8.208022450103934
 20
4.83780110235349
 30
0.0
 11
8.159022450103934
 21
4.81180110235349
 31
0.0
  0
LINE
  5
2F4
330
1F
100
AcDbEntity
  8
Object
100
AcDbLine
 10
8.159022450103934
 20
4.81180110235349
 30
0.0
 11
8.106022450103935
 21
4.79880110235349
 31
0.0
  0
LINE
  5
2F5
330
1F
100
AcDbEntity
  8
Object
100
AcDbLine
 10
8.257022450103935
 20
5.06080110235349
 30
0.0
 11
8.259022450103934
 21
5.011801102353491
 31
0.0
  0
LINE
  5
2F6
330
1F
100
AcDbEntity
  8
Object
100
AcDbLine
 10
8.259022450103934
 20
5.011801102353491
 30
0.0
 11
8.247022450103933
 21
4.963801102353491
 31
0.0
  0
LINE
  5
2F7
330
1F
100
AcDbEntity
  8
Object
100
AcDbLine
 10
8.242022450103934
 20
5.10680110235349
 30
0.0
 11
8.257022450103935
 21
5.06080110235349
 31
0.0
  0
LINE
  5
2F8
330
1F
100
AcDbEntity
  8
Object
100
AcDbLine
 10
8.247022450103933
 20
4.963801102353491
 30
0.0
 11
8.224022450103934
 21
4.92080110235349
 31
0.0
  0
LINE
  5
2F9
330
1F
100
AcDbEntity
  8
Object
100
AcDbLine
 10
8.215022450103933
 20
5.14780110235349
 30
0.0
 11
8.242022450103934
 21
5.10680110235349
 31
0.0
  0
LINE
  5
2FA
330
1F
100
AcDbEntity
  8
Object
100
AcDbLine
 10
8.224022450103934
 20
4.92080110235349
 30
0.0
 11
8.189022450103934
 21
4.88580110235349
 31
0.0
  0
LINE
  5
2FB
330
1F
100
AcDbEntity
  8
Object
100
AcDbLine
 10
8.189022450103934
 20
4.88580110235349
 30
0.0
 11
8.147022450103934
 21
4.86080110235349
 31
0.0
  0
LINE
  5
2FC
330
1F
100
AcDbEntity
  8
Object
100
AcDbLine
 10
8.147022450103934
 20
4.86080110235349
 30
0.0
 11
8.100022450103935
 21
4.84880110235349
 31
0.0
  0
LINE
  5
2FD
330
1F
100
AcDbEntity
  8
Object
100
AcDbLine
 10
5.820022450103934
 20
5.91280110235349
 30
0.0
 11
5.832022450103934
 21
5.77680110235349
 31
0.0
  0
LINE
  5
2FE
330
1F
100
AcDbEntity
  8
Object
100
AcDbLine
 10
8.256022450103934
 20
5.17780110235349
 30
0.0
 11
8.231022450103933
 21
5.21580110235349
 31
0.0
  0
LINE
  5
2FF
330
1F
100
AcDbEntity
  8
Object
100
AcDbLine
 10
8.231022450103933
 20
5.21580110235349
 30
0.0
 11
8.215022450103933
 21
5.25980110235349
 31
0.0
  0
LINE
  5
300
330
1F
100
AcDbEntity
  8
Object
100
AcDbLine
 10
8.215022450103933
 20
5.25980110235349
 30
0.0
 11
8.210022450103934
 21
5.30580110235349
 31
0.0
  0
LINE
  5
301
330
1F
100
AcDbEntity
  8
Object
100
AcDbLine
 10
5.851022450103934
 20
5.94680110235349
 30
0.0
 11
5.839022450103934
 21
5.94380110235349
 31
0.0
  0
LINE
  5
302
330
1F
100
AcDbEntity
  8
Object
100
AcDbLine
 10
5.839022450103934
 20
5.94380110235349
 30
0.0
 11
5.828022450103934
 21
5.936801102353491
 31
0.0
  0
LINE
  5
303
330
1F
100
AcDbEntity
  8
Object
100
AcDbLine
 10
5.828022450103934
 20
5.936801102353491
 30
0.0
 11
5.822022450103935
 21
5.92580110235349
 31
0.0
  0
LINE
  5
304
102
{ACAD_REACTORS
330
42B
102
}
330
1F
100
AcDbEntity
  8
Object
100
AcDbLine
 10
5.822022450103935
 20
5.92580110235349
 30
0.0
 11
5.820022450103934
 21
5.91280110235349
 31
0.0
  0
LINE
  5
305
330
1F
100
AcDbEntity
  8
Object
100
AcDbLine
 10
8.148022450103933
 20
5.42080110235349
 30
0.0
 11
8.146022450103934
 21
5.42780110235349
 31
0.0
  0
LINE
  5
306
330
1F
100
AcDbEntity
  8
Object
100
AcDbLine
 10
8.146022450103934
 20
5.42780110235349
 30
0.0
 11
8.141022450103935
 21
5.43280110235349
 31
0.0
  0
LINE
  5
307
330
1F
100
AcDbEntity
  8
Object
100
AcDbLine
 10
8.141022450103935
 20
5.43280110235349
 30
0.0
 11
8.133022450103934
 21
5.434801102353491
 31
0.0
  0
LINE
  5
308
330
1F
100
AcDbEntity
  8
Object
100
AcDbLine
 10
6.205022450103935
 20
5.52980110235349
 30
0.0
 11
6.146022450103934
 21
5.53580110235349
 31
0.0
  0
LINE
  5
309
330
1F
100
AcDbEntity
  8
Object
100
AcDbLine
 10
6.146022450103934
 20
5.53580110235349
 30
0.0
 11
6.090022450103934
 21
5.55480110235349
 31
0.0
  0
LINE
  5
30A
330
1F
100
AcDbEntity
  8
Object
100
AcDbLine
 10
6.090022450103934
 20
5.55480110235349
 30
0.0
 11
6.039022450103934
 21
5.58480110235349
 31
0.0
  0
LINE
  5
30B
330
1F
100
AcDbEntity
  8
Object
100
AcDbLine
 10
6.039022450103934
 20
5.58480110235349
 30
0.0
 11
5.995022450103935
 21
5.62480110235349
 31
0.0
  0
LINE
  5
30C
330
1F
100
AcDbEntity
  8
Object
100
AcDbLine
 10
5.995022450103935
 20
5.62480110235349
 30
0.0
 11
5.961022450103934
 21
5.67280110235349
 31
0.0
  0
LINE
  5
30D
330
1F
100
AcDbEntity
  8
Object
100
AcDbLine
 10
5.961022450103934
 20
5.67280110235349
 30
0.0
 11
5.938022450103934
 21
5.72780110235349
 31
0.0
  0
LINE
  5
30E
330
1F
100
AcDbEntity
  8
Object
100
AcDbLine
 10
5.938022450103934
 20
5.72780110235349
 30
0.0
 11
5.926022450103935
 21
5.78580110235349
 31
0.0
  0
LINE
  5
30F
330
1F
100
AcDbEntity
  8
Object
100
AcDbLine
 10
8.106022450103935
 20
4.79880110235349
 30
0.0
 11
8.105022450103934
 21
4.79880110235349
 31
0.0
  0
LINE
  5
310
330
1F
100
AcDbEntity
  8
Object
100
AcDbLine
 10
8.105022450103934
 20
4.79880110235349
 30
0.0
 11
8.104022450103935
 21
4.79880110235349
 31
0.0
  0
LINE
  5
311
330
1F
100
AcDbEntity
  8
Object
100
AcDbLine
 10
8.104022450103935
 20
4.79880110235349
 30
0.0
 11
8.103022450103935
 21
4.79880110235349
 31
0.0
  0
LINE
  5
312
330
1F
100
AcDbEntity
  8
Object
100
AcDbLine
 10
6.206022450103934
 20
5.434801102353491
 30
0.0
 11
8.133022450103934
 21
5.434801102353491
 31
0.0
  0
LINE
  5
313
330
1F
100
AcDbEntity
  8
Object
100
AcDbLine
 10
8.643022450103934
 20
4.92980110235349
 30
0.0
 11
8.636022450103935
 21
4.89880110235349
 31
0.0
  0
LINE
  5
314
330
1F
100
AcDbEntity
  8
Object
100
AcDbLine
 10
8.636022450103935
 20
4.89880110235349
 30
0.0
 11
8.619022450103935
 21
4.87280110235349
 31
0.0
  0
LINE
  5
315
330
1F
100
AcDbEntity
  8
Object
100
AcDbLine
 10
8.619022450103935
 20
4.87280110235349
 30
0.0
 11
8.593022450103934
 21
4.85580110235349
 31
0.0
  0
LINE
  5
316
330
1F
100
AcDbEntity
  8
Object
100
AcDbLine
 10
8.593022450103934
 20
4.85580110235349
 30
0.0
 11
8.563022450103934
 21
4.84980110235349
 31
0.0
  0
LINE
  5
317
330
1F
100
AcDbEntity
  8
Object
100
AcDbLine
 10
8.225022450103935
 20
5.434801102353491
 30
0.0
 11
8.217022450103934
 21
5.43280110235349
 31
0.0
  0
LINE
  5
318
330
1F
100
AcDbEntity
  8
Object
100
AcDbLine
 10
8.217022450103934
 20
5.43280110235349
 30
0.0
 11
8.212022450103935
 21
5.42780110235349
 31
0.0
  0
LINE
  5
319
330
1F
100
AcDbEntity
  8
Object
100
AcDbLine
 10
8.212022450103935
 20
5.42780110235349
 30
0.0
 11
8.210022450103934
 21
5.41980110235349
 31
0.0
  0
LINE
  5
31A
330
1F
100
AcDbEntity
  8
Object
100
AcDbLine
 10
8.091022450103935
 20
4.80180110235349
 30
0.0
 11
8.103022450103935
 21
4.79880110235349
 31
0.0
  0
LINE
  5
31B
330
1F
100
AcDbEntity
  8
Object
100
AcDbLine
 10
8.100022450103935
 20
4.84880110235349
 30
0.0
 11
8.088022450103935
 21
4.84380110235349
 31
0.0
  0
LINE
  5
31C
330
1F
100
AcDbEntity
  8
Object
100
AcDbLine
 10
8.082022450103934
 20
4.81080110235349
 30
0.0
 11
8.091022450103935
 21
4.80180110235349
 31
0.0
  0
LINE
  5
31D
330
1F
100
AcDbEntity
  8
Object
100
AcDbLine
 10
8.088022450103935
 20
4.84380110235349
 30
0.0
 11
8.080022450103935
 21
4.83480110235349
 31
0.0
  0
LINE
  5
31E
330
1F
100
AcDbEntity
  8
Object
100
AcDbLine
 10
8.082022450103934
 20
4.81080110235349
 30
0.0
 11
8.078022450103933
 21
4.82180110235349
 31
0.0
  0
LINE
  5
31F
330
1F
100
AcDbEntity
  8
Object
100
AcDbLine
 10
8.078022450103933
 20
4.82180110235349
 30
0.0
 11
8.080022450103935
 21
4.83480110235349
 31
0.0
  0
LINE
  5
320
330
1F
100
AcDbEntity
  8
Object
100
AcDbLine
 10
5.926022450103935
 20
5.78580110235349
 30
0.0
 11
5.915022450103935
 21
5.91880110235349
 31
0.0
  0
LINE
  5
321
330
1F
100
AcDbEntity
  8
Object
100
AcDbLine
 10
8.563022450103934
 20
4.84980110235349
 30
0.0
 11
8.540022450103935
 21
4.84980110235349
 31
0.0
  0
LINE
  5
322
330
1F
100
AcDbEntity
  8
Object
100
AcDbLine
 10
8.148022450103933
 20
5.42080110235349
 30
0.0
 11
8.155022450103935
 21
5.29880110235349
 31
0.0
  0
LINE
  5
323
330
1F
100
AcDbEntity
  8
Object
100
AcDbLine
 10
5.915022450103935
 20
5.91880110235349
 30
0.0
 11
5.910022450103935
 21
5.93280110235349
 31
0.0
  0
LINE
  5
324
330
1F
100
AcDbEntity
  8
Object
100
AcDbLine
 10
5.910022450103935
 20
5.93280110235349
 30
0.0
 11
5.899022450103935
 21
5.94280110235349
 31
0.0
  0
LINE
  5
325
330
1F
100
AcDbEntity
  8
Object
100
AcDbLine
 10
5.899022450103935
 20
5.94280110235349
 30
0.0
 11
5.884022450103934
 21
5.94680110235349
 31
0.0
  0
LINE
  5
326
330
1F
100
AcDbEntity
  8
Object
100
AcDbLine
 10
8.643022450103934
 20
5.15480110235349
 30
0.0
 11
8.636022450103935
 21
5.21780110235349
 31
0.0
  0
LINE
  5
327
330
1F
100
AcDbEntity
  8
Object
100
AcDbLine
 10
8.636022450103935
 20
5.21780110235349
 30
0.0
 11
8.615022450103934
 21
5.27680110235349
 31
0.0
  0
LINE
  5
328
330
1F
100
AcDbEntity
  8
Object
100
AcDbLine
 10
8.615022450103934
 20
5.27680110235349
 30
0.0
 11
8.581022450103935
 21
5.32980110235349
 31
0.0
  0
LINE
  5
329
330
1F
100
AcDbEntity
  8
Object
100
AcDbLine
 10
8.581022450103935
 20
5.32980110235349
 30
0.0
 11
8.537022450103934
 21
5.373801102353491
 31
0.0
  0
LINE
  5
32A
330
1F
100
AcDbEntity
  8
Object
100
AcDbLine
 10
8.537022450103934
 20
5.373801102353491
 30
0.0
 11
8.484022450103934
 21
5.40680110235349
 31
0.0
  0
LINE
  5
32B
330
1F
100
AcDbEntity
  8
Object
100
AcDbLine
 10
8.484022450103934
 20
5.40680110235349
 30
0.0
 11
8.425022450103934
 21
5.42780110235349
 31
0.0
  0
LINE
  5
32C
330
1F
100
AcDbEntity
  8
Object
100
AcDbLine
 10
8.425022450103934
 20
5.42780110235349
 30
0.0
 11
8.363022450103935
 21
5.434801102353491
 31
0.0
  0
LINE
  5
32D
330
1F
100
AcDbEntity
  8
Object
100
AcDbLine
 10
8.210022450103934
 20
5.30580110235349
 30
0.0
 11
8.210022450103934
 21
5.41980110235349
 31
0.0
  0
LINE
  5
32E
330
1F
100
AcDbEntity
  8
Object
100
AcDbLine
 10
8.215022450103933
 20
5.14780110235349
 30
0.0
 11
8.184022450103935
 21
5.19380110235349
 31
0.0
  0
LINE
  5
32F
330
1F
100
AcDbEntity
  8
Object
100
AcDbLine
 10
8.184022450103935
 20
5.19380110235349
 30
0.0
 11
8.164022450103935
 21
5.24480110235349
 31
0.0
  0
LINE
  5
330
330
1F
100
AcDbEntity
  8
Object
100
AcDbLine
 10
8.164022450103935
 20
5.24480110235349
 30
0.0
 11
8.155022450103935
 21
5.29880110235349
 31
0.0
  0
LINE
  5
331
330
1F
100
AcDbEntity
  8
Object
100
AcDbLine
 10
8.225022450103935
 20
5.434801102353491
 30
0.0
 11
8.363022450103935
 21
5.434801102353491
 31
0.0
  0
LINE
  5
332
330
1F
100
AcDbEntity
  8
Object
100
AcDbLine
 10
8.516022450103934
 20
4.76080110235349
 30
0.0
 11
8.540022450103935
 21
4.75480110235349
 31
0.0
  0
LINE
  5
333
330
1F
100
AcDbEntity
  8
Object
100
AcDbLine
 10
8.540022450103935
 20
4.84980110235349
 30
0.0
 11
8.516022450103934
 21
4.84380110235349
 31
0.0
  0
LINE
  5
334
330
1F
100
AcDbEntity
  8
Object
100
AcDbLine
 10
8.516022450103934
 20
4.84380110235349
 30
0.0
 11
8.499022450103934
 21
4.825801102353491
 31
0.0
  0
LINE
  5
335
330
1F
100
AcDbEntity
  8
Object
100
AcDbLine
 10
8.516022450103934
 20
4.76080110235349
 30
0.0
 11
8.499022450103934
 21
4.77880110235349
 31
0.0
  0
LINE
  5
336
330
1F
100
AcDbEntity
  8
Object
100
AcDbLine
 10
8.499022450103934
 20
4.77880110235349
 30
0.0
 11
8.493022450103934
 21
4.80180110235349
 31
0.0
  0
LINE
  5
337
330
1F
100
AcDbEntity
  8
Object
100
AcDbLine
 10
8.493022450103934
 20
4.80180110235349
 30
0.0
 11
8.499022450103934
 21
4.825801102353491
 31
0.0
  0
LINE
  5
338
102
{ACAD_REACTORS
330
37E
102
}
330
1F
100
AcDbEntity
  8
Object
100
AcDbLine
 10
8.540022450103935
 20
4.75480110235349
 30
0.0
 11
8.563022450103934
 21
4.75480110235349
 31
0.0
  0
LINE
  5
339
102
{ACAD_REACTORS
330
37E
102
}
330
1F
100
AcDbEntity
  8
Object
100
AcDbLine
 10
5.884022450103934
 20
5.94680110235349
 30
0.0
 11
5.851022450103934
 21
5.94680110235349
 31
0.0
  0
DIMENSION
  5
33D
102
{ACAD_XDICTIONARY
360
34C
102
}
102
{ACAD_REACTORS
330
357
102
}
330
1F
100
AcDbEntity
  8
Dimension
100
AcDbDimension
  2
*D1
 10
8.738022450103935
 20
6.900952448542163
 30
0.0
 11
5.445522450103934
 21
6.900952448542163
 31
0.0
 70
   160
 71
     5
 42
6.585
  3
Standard
100
AcDbAlignedDimension
 13
2.153022450103934
 23
5.15480110235349
 33
0.0
 14
8.738022450103935
 24
5.15480110235349
 34
0.0
100
AcDbRotatedDimension
  0
DIMENSION
  5
365
102
{ACAD_XDICTIONARY
360
373
102
}
102
{ACAD_REACTORS
330
37E
102
}
330
1F
100
AcDbEntity
  8
Dimension
100
AcDbDimension
  2
*D2
 10
9.653578156544224
 20
5.946801102353489
 30
0.0
 11
9.653578156544222
 21
5.35080110235349
 31
0.0
 70
    32
 71
     5
 42
1.191999999999999
  3
Standard
100
AcDbAlignedDimension
 13
8.563022450103934
 23
4.75480110235349
 33
0.0
 14
5.884022450103934
 24
5.94680110235349
 34
0.0
 50
90.0
100
AcDbRotatedDimension
  0
TEXT
  5
3B2
330
1F
100
AcDbEntity
  8
Text
100
AcDbText
 10
4.937227265087035
 20
4.198569166438435
 30
0.0
 40
0.125
  1
FRONT VIEW
100
AcDbText
  0
TEXT
  5
3B3
330
1F
100
AcDbEntity
  8
Title Block
100
AcDbText
 10
6.776695012655547
 20
2.672489851525508
 30
0.0
 40
0.05
  1
FILENAME:
100
AcDbText
  0
TEXT
  5
3B4
330
1F
100
AcDbEntity
  8
Title Block
100
AcDbText
 10
6.769285028728251
 20
2.076224967549325
 30
0.0
 40
0.35
  1
PANDUIT
100
AcDbText
  0
TEXT
  5
3B5
330
1F
100
AcDbEntity
  8
Title Block
100
AcDbText
 10
8.721820398821382
 20
2.061410940562986
 30
0.0
 40
0.125
  1
CORP. TINLEY PARK, IL
100
AcDbText
  0
TEXT
  5
3B6
330
1F
100
AcDbEntity
  8
Title Block
100
AcDbText
 10
6.780399976708615
 20
1.91697409709392
 30
0.0
 40
0.05
  1
TITLE:
100
AcDbText
  0
MTEXT
  5
3B7
330
1F
100
AcDbEntity
  8
Title Block
100
AcDbMText
 10
8.0
 20
1.372215793536348
 30
0.0
 40
0.075
 41
2.5
 71
     5
 72
     5
  1
UNLESS OTHERWISE SPECIFIED,\PDIMENSIONAL TOLERANCES ARE:       
 73
     1
 44
1.0
1001
ACAD
1000
MTEXTBEGIN
1070
    73
1070
     1
1070
    44
1040
1.0
1070
    74
1070
     0
1000
MTEXTEND
  0
MTEXT
  5
3B8
330
1F
100
AcDbEntity
  8
Title Block
100
AcDbMText
 10
7.392379866610014
 20
1.131487708483632
 30
0.0
 40
0.075
 41
2.5
 71
     5
 72
     5
  1
(.X)\P(.XX)
 73
     1
 44
1.0
1001
ACAD
1000
MTEXTBEGIN
1070
    73
1070
     1
1070
    44
1040
1.0
1070
    74
1070
     0
1000
MTEXTEND
  0
MTEXT
  5
3B9
330
1F
100
AcDbEntity
  8
Title Block
100
AcDbMText
 10
8.400140053124118
 20
1.131487708483632
 30
0.0
 40
0.075
 41
2.5
 71
     5
 72
     5
  1
(.XXX)\PANGLES:
 73
     1
 44
1.0
1001
ACAD
1000
MTEXTBEGIN
1070
    73
1070
     1
1070
    44
1040
1.0
1070
    74
1070
     0
1000
MTEXTEND
  0
MTEXT
  5
3BA
330
1F
100
AcDbEntity
  8
Title Block
100
AcDbMText
 10
10.0
 20
1.25
 30
0.0
 40
0.06
 41
1.5
 71
     5
 72
     5
  1
UNLESS OTHERWISE SPECIFIED,\PALL DIMENSIONS ARE GIVEN IN INCHES, THIRD ANGLE PROJECTION
 73
     1
 44
1.0
1001
ACAD
1000
MTEXTBEGIN
1070
    73
1070
     1
1070
    44
1040
1.0
1070
    74
1070
     0
1000
MTEXTEND
  0
TEXT
  5
3BB
330
1F
100
AcDbEntity
  8
Title Block
100
AcDbText
 10
6.760764454306187
 20
0.9281373372752312
 30
0.0
 40
0.05
  1
DRAWN BY:
100
AcDbText
  0
TEXT
  5
3BC
330
1F
100
AcDbEntity
  8
Title Block
100
AcDbText
 10
6.764469474180437
 20
0.6811431865635028
 30
0.0
 40
0.05
  1
DATE:
100
AcDbText
  0
TEXT
  5
3BD
330
1F
100
AcDbEntity
  8
Title Block
100
AcDbText
 10
6.768174438233497
 20
0.4304455338317968
 30
0.0
 40
0.05
  1
CHECKED BY:
100
AcDbText
  0
TEXT
  5
3BE
330
1F
100
AcDbEntity
  8
Title Block
100
AcDbText
 10
7.520289593133067
 20
0.9281373372752312
 30
0.0
 40
0.05
  1
MATERIAL:
100
AcDbText
  0
TEXT
  5
3BF
330
1F
100
AcDbEntity
  8
Title Block
100
AcDbText
 10
9.265344938781542
 20
0.9281373372752312
 30
0.0
 40
0.05
  1
SCALE:
100
AcDbText
  0
TEXT
  5
3C0
330
1F
100
AcDbEntity
  8
Title Block
100
AcDbText
 10
9.265344938781542
 20
0.6725952630490007
 30
0.0
 40
0.05
  1
DRAWING NUMBER:
100
AcDbText
  0
TEXT
  5
3C1
330
1F
100
AcDbEntity
  8
Title Block
100
AcDbText
 10
10.34942622928998
 20
0.6762987650689816
 30
0.0
 40
0.05
  1
DRAWING
100
AcDbText
  0
TEXT
  5
3C2
330
1F
100
AcDbEntity
  8
Title Block
100
AcDbText
 10
10.42723125590085
 20
0.2811642688682026
 30
0.0
 40
0.05
  1
SIZE
100
AcDbText
  0
TEXT
  5
3C3
330
1F
100
AcDbEntity
  8
Title Block
100
AcDbText
 10
10.38647626056889
 20
0.3911285990572359
 30
0.0
 40
0.25
  1
A
100
AcDbText
  0
MTEXT
  5
3C4
330
1F
100
AcDbEntity
  8
Title Block
100
AcDbMText
 10
0.375
 20
0.375
 30
0.0
 40
0.05
 41
0.25
 71
     5
 72
     5
  1
REV
 73
     1
 44
1.0
1001
ACAD
1000
MTEXTBEGIN
1070
    73
1070
     1
1070
    44
1040
1.0
1070
    74
1070
     0
1000
MTEXTEND
  0
MTEXT
  5
3C5
330
1F
100
AcDbEntity
  8
Title Block
100
AcDbMText
 10
0.75
 20
0.375
 30
0.0
 40
0.05
 41
0.5
 71
     5
 72
     5
  1
DATE
 73
     1
 44
1.0
1001
ACAD
1000
MTEXTBEGIN
1070
    73
1070
     1
1070
    44
1040
1.0
1070
    74
1070
     0
1000
MTEXTEND
  0
MTEXT
  5
3C6
330
1F
100
AcDbEntity
  8
Title Block
100
AcDbMText
 10
1.189999999999999
 20
0.375
 30
0.0
 40
0.05
 41
0.38
 71
     5
 72
     5
  1
BY
 73
     1
 44
1.0
1001
ACAD
1000
MTEXTBEGIN
1070
    73
1070
     1
1070
    44
1040
1.0
1070
    74
1070
     0
1000
MTEXTEND
  0
MTEXT
  5
3C7
330
1F
100
AcDbEntity
  8
Title Block
100
AcDbMText
 10
1.564999999999999
 20
0.375
 30
0.0
 40
0.05
 41
0.38
 71
     5
 72
     5
  1
CHK
 73
     1
 44
1.0
1001
ACAD
1000
MTEXTBEGIN
1070
    73
1070
     1
1070
    44
1040
1.0
1070
    74
1070
     0
1000
MTEXTEND
  0
MTEXT
  5
3C8
330
1F
100
AcDbEntity
  8
Title Block
100
AcDbMText
 10
3.125
 20
0.375
 30
0.0
 40
0.05
 41
2.75
 71
     5
 72
     5
  1
DESCRIPTION
 73
     1
 44
1.0
1001
ACAD
1000
MTEXTBEGIN
1070
    73
1070
     1
1070
    44
1040
1.0
1070
    74
1070
     0
1000
MTEXTEND
  0
MTEXT
  5
3C9
330
1F
100
AcDbEntity
  8
Title Block
100
AcDbMText
 10
5.064999999999999
 20
0.375
 30
0.0
 40
0.05
 41
1.129999999999999
 71
     5
 72
     5
  1
ECN   -   R
 73
     1
 44
1.0
1001
ACAD
1000
MTEXTBEGIN
1070
    73
1070
     1
1070
    44
1040
1.0
1070
    74
1070
     0
1000
MTEXTEND
  0
MTEXT
  5
3CA
330
1F
100
AcDbEntity
  8
Title Block
100
AcDbMText
 10
5.815
 20
0.375
 30
0.0
 40
0.05
 41
0.38
 71
     5
 72
     5
  1
CUST
 73
     1
 44
1.0
1001
ACAD
1000
MTEXTBEGIN
1070
    73
1070
     1
1070
    44
1040
1.0
1070
    74
1070
     0
1000
MTEXTEND
  0
MTEXT
  5
3CB
330
1F
100
AcDbEntity
  8
Title Block
100
AcDbMText
 10
6.19
 20
0.375
 30
0.0
 40
0.05
 41
0.38
 71
     5
 72
     5
  1
SUP
 73
     1
 44
1.0
1001
ACAD
1000
MTEXTBEGIN
1070
    73
1070
     1
1070
    44
1040
1.0
1070
    74
1070
     0
1000
MTEXTEND
  0
LWPOLYLINE
  5
3CC
330
1F
100
AcDbEntity
  8
Title Block
100
AcDbPolyline
 90
        4
 70
     1
 43
0.01
 10
0.25
 20
8.250000000000001
 10
0.25
 20
0.25
 10
10.75
 20
0.25
 10
10.75
 20
8.25
  0
LINE
  5
3CD
330
1F
100
AcDbEntity
  8
Title Block
100
AcDbLine
 10
10.75
 20
2.749999999999999
 30
0.0
 11
0.25
 21
2.75
 31
0.0
  0
LINE
  5
3CE
330
1F
100
AcDbEntity
  8
Title Block
100
AcDbLine
 10
6.75
 20
2.75
 30
0.0
 11
6.75
 21
0.25
 31
0.0
  0
LINE
  5
3CF
330
1F
100
AcDbEntity
  8
Title Block
100
AcDbLine
 10
10.75
 20
2.499999999999999
 30
0.0
 11
0.25
 21
2.5
 31
0.0
  0
LINE
  5
3D0
330
1F
100
AcDbEntity
  8
Title Block
100
AcDbLine
 10
6.75
 20
2.25
 30
0.0
 11
0.25
 21
2.25
 31
0.0
  0
LINE
  5
3D1
330
1F
100
AcDbEntity
  8
Title Block
100
AcDbLine
 10
10.75
 20
1.999999999999999
 30
0.0
 11
0.25
 21
2.0
 31
0.0
  0
LINE
  5
3D2
330
1F
100
AcDbEntity
  8
Title Block
100
AcDbLine
 10
6.75
 20
1.75
 30
0.0
 11
0.25
 21
1.75
 31
0.0
  0
LINE
  5
3D3
330
1F
100
AcDbEntity
  8
Title Block
100
AcDbLine
 10
10.75
 20
1.499999999999999
 30
0.0
 11
0.25
 21
1.5
 31
0.0
  0
LINE
  5
3D4
330
1F
100
AcDbEntity
  8
Title Block
100
AcDbLine
 10
6.75
 20
1.25
 30
0.0
 11
0.25
 21
1.25
 31
0.0
  0
LINE
  5
3D5
330
1F
100
AcDbEntity
  8
Title Block
100
AcDbLine
 10
10.75
 20
0.9999999999999996
 30
0.0
 11
0.25
 21
1.0
 31
0.0
  0
LINE
  5
3D6
330
1F
100
AcDbEntity
  8
Title Block
100
AcDbLine
 10
7.5
 20
0.75
 30
0.0
 11
0.25
 21
0.7500000000000009
 31
0.0
  0
LINE
  5
3D7
330
1F
100
AcDbEntity
  8
Title Block
100
AcDbLine
 10
7.5
 20
0.5
 30
0.0
 11
0.25
 21
0.5000000000000009
 31
0.0
  0
LINE
  5
3D8
330
1F
100
AcDbEntity
  8
Title Block
100
AcDbLine
 10
0.25
 20
0.25
 30
0.0
 11
0.25
 21
2.75
 31
0.0
  0
LINE
  5
3D9
330
1F
100
AcDbEntity
  8
Title Block
100
AcDbLine
 10
0.5
 20
0.25
 30
0.0
 11
0.5
 21
2.750000000000001
 31
0.0
  0
LINE
  5
3DA
330
1F
100
AcDbEntity
  8
Title Block
100
AcDbLine
 10
1.0
 20
0.25
 30
0.0
 11
1.0
 21
2.750000000000001
 31
0.0
  0
LINE
  5
3DB
330
1F
100
AcDbEntity
  8
Title Block
100
AcDbLine
 10
1.375
 20
0.25
 30
0.0
 11
1.375
 21
2.750000000000001
 31
0.0
  0
LINE
  5
3DC
330
1F
100
AcDbEntity
  8
Title Block
100
AcDbLine
 10
1.75
 20
0.25
 30
0.0
 11
1.75
 21
2.750000000000001
 31
0.0
  0
LINE
  5
3DD
330
1F
100
AcDbEntity
  8
Title Block
100
AcDbLine
 10
6.375
 20
2.75
 30
0.0
 11
6.375
 21
0.25
 31
0.0
  0
LINE
  5
3DE
330
1F
100
AcDbEntity
  8
Title Block
100
AcDbLine
 10
6.0
 20
2.75
 30
0.0
 11
6.0
 21
0.25
 31
0.0
  0
LINE
  5
3DF
330
1F
100
AcDbEntity
  8
Title Block
100
AcDbLine
 10
5.625
 20
2.75
 30
0.0
 11
5.625
 21
0.25
 31
0.0
  0
LINE
  5
3E0
330
1F
100
AcDbEntity
  8
Title Block
100
AcDbLine
 10
5.25
 20
2.75
 30
0.0
 11
5.25
 21
0.5000000000000002
 31
0.0
  0
LINE
  5
3E1
330
1F
100
AcDbEntity
  8
Title Block
100
AcDbLine
 10
4.5
 20
2.75
 30
0.0
 11
4.5
 21
0.25
 31
0.0
  0
LINE
  5
3E2
330
1F
100
AcDbEntity
  8
Title Block
100
AcDbLine
 10
9.25
 20
0.75
 30
0.0
 11
9.25
 21
1.499999999999999
 31
0.0
  0
LINE
  5
3E3
330
1F
100
AcDbEntity
  8
Title Block
100
AcDbLine
 10
9.25
 20
0.75
 30
0.0
 11
9.25
 21
0.25
 31
0.0
  0
LINE
  5
3E4
330
1F
100
AcDbEntity
  8
Title Block
100
AcDbLine
 10
9.25
 20
0.75
 30
0.0
 11
10.75
 21
0.75
 31
0.0
  0
LINE
  5
3E5
330
1F
100
AcDbEntity
  8
Title Block
100
AcDbLine
 10
7.5
 20
0.5
 30
0.0
 11
7.5
 21
0.25
 31
0.0
  0
LINE
  5
3E6
330
1F
100
AcDbEntity
  8
Title Block
100
AcDbLine
 10
7.5
 20
0.5
 30
0.0
 11
7.5
 21
1.0
 31
0.0
  0
LINE
  5
3E7
330
1F
100
AcDbEntity
  8
Title Block
100
AcDbLine
 10
10.25
 20
0.75
 30
0.0
 11
10.25
 21
0.25
 31
0.0
  0
POINT
  5
3E8
330
1F
100
AcDbEntity
  8
Title Block
100
AcDbPoint
 10
11.0
 20
8.5
 30
0.0
  0
POINT
  5
3E9
330
1F
100
AcDbEntity
  8
Title Block
100
AcDbPoint
 10
11.0
 20
0.0
 30
0.0
  0
POINT
  5
3EA
330
1F
100
AcDbEntity
  8
Title Block
100
AcDbPoint
 10
0.0
 20
0.0
 30
0.0
  0
POINT
  5
3EB
330
1F
100
AcDbEntity
  8
Title Block
100
AcDbPoint
 10
0.0
 20
8.500000000000001
 30
0.0
  0
MTEXT
  5
3EC
330
1F
100
AcDbEntity
  8
Text
100
AcDbMText
 10
0.375
 20
0.6250000000000009
 30
0.0
 40
0.09
 41
0.25
 71
     5
 72
     5
  1
R
 73
     1
 44
1.0
1001
ACAD
1000
MTEXTBEGIN
1070
    73
1070
     1
1070
    44
1040
1.0
1070
    74
1070
     0
1000
MTEXTEND
  0
MTEXT
  5
3ED
330
1F
100
AcDbEntity
  8
Text
100
AcDbMText
 10
0.75
 20
0.6250000000000009
 30
0.0
 40
0.07
 41
0.5
 71
     5
 72
     5
  1
2-3-06
 73
     1
 44
1.0
1001
ACAD
1000
MTEXTBEGIN
1070
    73
1070
     1
1070
    44
1040
1.0
1070
    74
1070
     0
1000
MTEXTEND
  0
MTEXT
  5
3EE
330
1F
100
AcDbEntity
  8
Text
100
AcDbMText
 10
1.1875
 20
0.6250000000000009
 30
0.0
 40
0.09
 41
0.375
 71
     5
 72
     5
  1
MSO
 73
     1
 44
1.0
1001
ACAD
1000
MTEXTBEGIN
1070
    73
1070
     1
1070
    44
1040
1.0
1070
    74
1070
     0
1000
MTEXTEND
  0
MTEXT
  5
3EF
330
1F
100
AcDbEntity
  8
Text
100
AcDbMText
 10
1.5625
 20
0.6250000000000009
 30
0.0
 40
0.07
 41
0.375
 71
     5
 72
     5
  1
DJWA
 73
     1
 44
1.0
1001
ACAD
1000
MTEXTBEGIN
1070
    73
1070
     1
1070
    44
1040
1.0
1070
    74
1070
     0
1000
MTEXTEND
  0
MTEXT
  5
3F0
330
1F
100
AcDbEntity
  8
Text
100
AcDbMText
 10
3.125
 20
0.6250000000000005
 30
0.0
 40
0.09
 41
2.75
 71
     5
 72
     5
  1
DRAWING RELEASED
 73
     1
 44
1.0
1001
ACAD
1000
MTEXTBEGIN
1070
    73
1070
     1
1070
    44
1040
1.0
1070
    74
1070
     0
1000
MTEXTEND
  0
MTEXT
  5
3F1
330
1F
100
AcDbEntity
  8
Text
100
AcDbMText
 10
7.474999999999999
 20
0.85
 30
0.0
 40
0.09
 41
0.75
 71
     6
 72
     5
  1
MSO
 73
     1
 44
1.0
1001
ACAD
1000
MTEXTBEGIN
1070
    73
1070
     1
1070
    44
1040
1.0
1070
    74
1070
     0
1000
MTEXTEND
  0
MTEXT
  5
3F2
330
1F
100
AcDbEntity
  8
Text
100
AcDbMText
 10
7.474999999999999
 20
0.5999999999999999
 30
0.0
 40
0.09
 41
0.75
 71
     6
 72
     5
  1
2-3-06
 73
     1
 44
1.0
1001
ACAD
1000
MTEXTBEGIN
1070
    73
1070
     1
1070
    44
1040
1.0
1070
    74
1070
     0
1000
MTEXTEND
  0
MTEXT
  5
3F3
330
1F
100
AcDbEntity
  8
Text
100
AcDbMText
 10
7.474999999999999
 20
0.3500000000000001
 30
0.0
 40
0.09
 41
0.75
 71
     6
 72
     5
  1
DJWA
 73
     1
 44
1.0
1001
ACAD
1000
MTEXTBEGIN
1070
    73
1070
     1
1070
    44
1040
1.0
1070
    74
1070
     0
1000
MTEXTEND
  0
MTEXT
  5
3F4
330
1F
100
AcDbEntity
  8
Text
100
AcDbMText
 10
8.75
 20
2.625
 30
0.0
 40
0.09
 41
4.0
 71
     5
 72
     5
  1
FRSHC6.dwg
 73
     1
 44
1.0
1001
ACAD
1000
MTEXTBEGIN
1070
    73
1070
     1
1070
    44
1040
1.0
1070
    74
1070
     0
1000
MTEXTEND
  0
MTEXT
  5
3F5
330
1F
100
AcDbEntity
  8
Text
100
AcDbMText
 10
8.75
 20
1.75
 30
0.0
 40
0.09
 41
4.0
 71
     5
 72
     5
  1
FIBERRUNNER 6x4 SPLIT HINGED COVER\P(FRSHC6**2 FRSHC6**6)\PMARKETING DRAWING
 73
     1
 44
1.0
1001
ACAD
1000
MTEXTBEGIN
1070
    73
1070
     1
1070
    44
1040
1.0
1070
    74
1070
     0
1000
MTEXTEND
  0
MTEXT
  5
3F6
330
1F
100
AcDbEntity
  8
Text
100
AcDbMText
 10
10.0
 20
0.8749999999999998
 30
0.0
 40
0.12
 41
1.5
 71
     5
 72
     5
  1
FULL
 73
     1
 44
1.0
1001
ACAD
1000
MTEXTBEGIN
1070
    73
1070
     1
1070
    44
1040
1.0
1070
    74
1070
     0
1000
MTEXTEND
  0
MTEXT
  5
3F7
330
1F
100
AcDbEntity
  8
Text
100
AcDbMText
 10
9.75
 20
0.5
 30
0.0
 40
0.12
 41
1.0
 71
     5
 72
     5
  1
36897-1230
 73
     1
 44
1.0
1001
ACAD
1000
MTEXTBEGIN
1070
    73
1070
     1
1070
    44
1040
1.0
1070
    74
1070
     0
1000
MTEXTEND
  0
DIMENSION
  5
412
102
{ACAD_XDICTIONARY
360
420
102
}
102
{ACAD_REACTORS
330
42B
102
}
330
1F
100
AcDbEntity
  8
Dimension
100
AcDbDimension
  2
*D3
 10
5.822022450103935
 20
6.435466746760674
 30
0.0
 11
6.476298765893409
 21
6.435466746760674
 31
0.0
 70
    32
 71
     5
 42
0.7530000000000002
  3
Standard
100
AcDbAlignedDimension
 13
5.069022450103934
 23
5.92580110235349
 33
0.0
 14
5.822022450103935
 24
5.92580110235349
 34
0.0
100
AcDbRotatedDimension
  0
DIMENSION
  5
436
330
1F
100
AcDbEntity
  8
Dimension
100
AcDbDimension
  2
*D4
 10
7.102191887833988
 20
5.434801102353491
 30
0.0
 11
6.469955045728724
 21
5.059801102353493
 31
0.0
 70
    32
  1
0.10 [2.4mm]
 71
     5
 42
0.0949999999999989
  3
Standard
100
AcDbAlignedDimension
 13
7.102191887833988
 23
5.52980110235349
 33
0.0
 14
7.102191887833988
 24
5.434801102353491
 34
0.0
 50
90.0
100
AcDbRotatedDimension
1001
ACAD
1000
DSTYLE
1002
{
1070
    76
1070
     1
1070
    75
1070
     1
1002
}
  0
MTEXT
  5
486
330
1F
100
AcDbEntity
  8
Text
100
AcDbMText
 10
0.375
 20
0.8750000000000008
 30
0.0
 40
0.09
 41
0.25
 71
     5
 72
     5
  1
1
 73
     1
 44
1.0
1001
ACAD
1000
MTEXTBEGIN
1070
    73
1070
     1
1070
    44
1040
1.0
1070
    74
1070
     0
1000
MTEXTEND
  0
MTEXT
  5
487
330
1F
100
AcDbEntity
  8
Text
100
AcDbMText
 10
0.75
 20
0.8750000000000008
 30
0.0
 40
0.07
 41
0.5
 71
     5
 72
     5
  1
6-13-07
 73
     1
 44
1.0
1001
ACAD
1000
MTEXTBEGIN
1070
    73
1070
     1
1070
    44
1040
1.0
1070
    74
1070
     0
1000
MTEXTEND
  0
MTEXT
  5
488
330
1F
100
AcDbEntity
  8
Text
100
AcDbMText
 10
1.1875
 20
0.8750000000000008
 30
0.0
 40
0.09
 41
0.375
 71
     5
 72
     5
  1
DTP
 73
     1
 44
1.0
1001
ACAD
1000
MTEXTBEGIN
1070
    73
1070
     1
1070
    44
1040
1.0
1070
    74
1070
     0
1000
MTEXTEND
  0
MTEXT
  5
489
330
1F
100
AcDbEntity
  8
Text
100
AcDbMText
 10
1.5625
 20
0.8750000000000008
 30
0.0
 40
0.07
 41
0.375
 71
     5
 72
     5
  1
DJWA
 73
     1
 44
1.0
1001
ACAD
1000
MTEXTBEGIN
1070
    73
1070
     1
1070
    44
1040
1.0
1070
    74
1070
     0
1000
MTEXTEND
  0
MTEXT
  5
48A
330
1F
100
AcDbEntity
  8
Text
100
AcDbMText
 10
1.774999999999999
 20
0.8750000000000003
 30
0.0
 40
0.07
 41
2.75
 71
     4
 72
     5
  1
B. ADDED DIMENSIONS.\PA. REVISED PART NUMBER.
 73
     1
 44
1.0
1001
ACAD
1000
MTEXTBEGIN
1070
    73
1070
     1
1070
    44
1040
1.0
1070
    74
1070
     0
1000
MTEXTEND
  0
LINE
  5
48B
330
1F
100
AcDbEntity
  8
Text
100
AcDbLine
 10
6.79556936253482
 20
1.550810433088784
 30
0.0
 11
6.94556936253482
 21
1.810618054224116
 31
0.0
  0
LINE
  5
48C
330
1F
100
AcDbEntity
  8
Text
100
AcDbLine
 10
6.94556936253482
 20
1.810618054224116
 30
0.0
 11
7.09556936253482
 21
1.550810433088784
 31
0.0
  0
LINE
  5
48D
330
1F
100
AcDbEntity
  8
Text
100
AcDbLine
 10
7.09556936253482
 20
1.550810433088784
 30
0.0
 11
6.79556936253482
 21
1.550810433088784
 31
0.0
  0
TEXT
  5
48E
330
1F
100
AcDbEntity
  8
Text
100
AcDbText
 10
6.900882364308509
 20
1.611612923011991
 30
0.0
 40
0.09
  1
A
100
AcDbText
  0
LINE
  5
48F
330
1F
100
AcDbEntity
  8
Text
100
AcDbLine
 10
5.775249559063709
 20
4.952262223346501
 30
0.0
 11
5.925249559063709
 21
5.212069844481833
 31
0.0
  0
LINE
  5
490
330
1F
100
AcDbEntity
  8
Text
100
AcDbLine
 10
5.925249559063709
 20
5.212069844481833
 30
0.0
 11
6.075249559063709
 21
4.952262223346501
 31
0.0
  0
LINE
  5
491
330
1F
100
AcDbEntity
  8
Text
100
AcDbLine
 10
6.075249559063709
 20
4.952262223346501
 30
0.0
 11
5.775249559063709
 21
4.952262223346501
 31
0.0
  0
TEXT
  5
492
330
1F
100
AcDbEntity
  8
Text
100
AcDbText
 10
5.889050471165271
 20
4.99609572331448
 30
0.0
 40
0.09
  1
B
100
AcDbText
  0
LINE
  5
493
330
1F
100
AcDbEntity
  8
Text
100
AcDbLine
 10
6.896459508099106
 20
6.299252577802946
 30
0.0
 11
7.046459508099106
 21
6.559060198938277
 31
0.0
  0
LINE
  5
494
330
1F
100
AcDbEntity
  8
Text
100
AcDbLine
 10
7.046459508099106
 20
6.559060198938277
 30
0.0
 11
7.196459508099105
 21
6.299252577802946
 31
0.0
  0
LINE
  5
495
330
1F
100
AcDbEntity
  8
Text
100
AcDbLine
 10
7.196459508099105
 20
6.299252577802946
 30
0.0
 11
6.896459508099106
 21
6.299252577802946
 31
0.0
  0
TEXT
  5
496
330
1F
100
AcDbEntity
  8
Text
100
AcDbText
 10
7.014504359083717
 20
6.351570582896959
 30
0.0
 40
0.09
  1
B
100
AcDbText
  0
ENDSEC
  0
SECTION
  2
OBJECTS
  0
DICTIONARY
  5
C
330
0
100
AcDbDictionary
281
     1
  3
ACAD_COLOR
350
73
  3
ACAD_GROUP
350
D
  3
ACAD_LAYOUT
350
1A
  3
ACAD_MATERIAL
350
72
  3
ACAD_MLINESTYLE
350
17
  3
ACAD_PLOTSETTINGS
350
19
  3
ACAD_PLOTSTYLENAME
350
E
  3
ACAD_TABLESTYLE
350
86
  3
ACDBHEADERROUNDTRIPXREC
350
4AF
  3
AcDbVariableDictionary
350
66
  0
DICTIONARY
  5
3F8
330
1F
100
AcDbDictionary
280
     1
281
     1
  3
ACAD_SORTENTS
360
3F9
  0
DICTIONARY
  5
34C
330
33D
100
AcDbDictionary
280
     1
281
     1
  3
ACAD_DIMASSOC
360
357
  0
DICTIONARY
  5
373
330
365
100
AcDbDictionary
280
     1
281
     1
  3
ACAD_DIMASSOC
360
37E
  0
DICTIONARY
  5
420
330
412
100
AcDbDictionary
280
     1
281
     1
  3
ACAD_DIMASSOC
360
42B
  0
DICTIONARY
  5
73
102
{ACAD_REACTORS
330
C
102
}
330
C
100
AcDbDictionary
281
     1
  0
DICTIONARY
  5
D
102
{ACAD_REACTORS
330
C
102
}
330
C
100
AcDbDictionary
281
     1
  0
DICTIONARY
  5
1A
102
{ACAD_REACTORS
330
C
102
}
330
C
100
AcDbDictionary
281
     1
  3
Layout1
350
59
  3
Layout2
350
5E
  3
Model
350
22
  0
DICTIONARY
  5
72
102
{ACAD_REACTORS
330
C
102
}
330
C
100
AcDbDictionary
281
     1
  0
DICTIONARY
  5
17
102
{ACAD_REACTORS
330
C
102
}
330
C
100
AcDbDictionary
281
     1
  3
Standard
350
18
  0
DICTIONARY
  5
19
102
{ACAD_REACTORS
330
C
102
}
330
C
100
AcDbDictionary
281
     1
  0
ACDBDICTIONARYWDFLT
  5
E
102
{ACAD_REACTORS
330
C
102
}
330
C
100
AcDbDictionary
281
     1
  3
Normal
350
F
100
AcDbDictionaryWithDefault
340
F
  0
DICTIONARY
  5
86
102
{ACAD_REACTORS
330
C
102
}
330
C
100
AcDbDictionary
281
     1
  3
Standard
350
87
  0
DICTIONARY
  5
4AF
102
{ACAD_REACTORS
330
C
102
}
330
C
100
AcDbDictionary
281
     1
  0
DICTIONARY
  5
66
102
{ACAD_REACTORS
330
C
102
}
330
C
100
AcDbDictionary
281
     1
  3
CTABLESTYLE
350
33B
  3
DIMASSOC
350
67
  3
HIDETEXT
350
6B
  3
PROJECTNAME
350
4AD
  0
SORTENTSTABLE
  5
3F9
102
{ACAD_REACTORS
330
3F8
102
}
330
3F8
100
AcDbSortentsTable
330
1F
331
3F2
  5
1DD
331
1A1
  5
1E6
331
1C8
  5
20D
331
2FB
  5
3B6
331
2BC
  5
301
331
246
  5
28B
331
20F
  5
254
331
1D0
  5
215
331
285
  5
2CA
331
332
  5
3ED
331
3B9
  5
1A4
331
303
  5
3BE
331
2C4
  5
309
331
28D
  5
2D2
331
217
  5
25C
331
1D8
  5
21D
331
24E
  5
293
331
3C1
  5
1AC
331
2CC
  5
311
331
295
  5
2DA
331
256
  5
29B
331
1E0
  5
225
331
21F
  5
264
331
30B
  5
3C6
331
25E
  5
2A3
331
2D4
  5
319
331
3CB
  5
1B6
331
3D3
  5
1BE
331
3DB
  5
1C6
331
3E3
  5
1CE
331
1E8
  5
22D
331
1A9
  5
1EE
331
313
  5
3CE
331
29D
  5
2E2
331
266
  5
2AB
331
227
  5
26C
331
1B1
  5
1F6
331
1F0
  5
235
331
2DC
  5
321
331
31B
  5
3D6
331
2E4
  5
329
331
26E
  5
2B3
331
22F
  5
274
331
1B9
  5
1FE
331
1F8
  5
23D
331
2A5
  5
2EA
331
2EC
  5
331
331
2AD
  5
2F2
331
237
  5
27C
331
200
  5
245
331
1C1
  5
206
331
276
  5
2BB
331
323
  5
3DE
331
2F4
  5
339
331
2B5
  5
2FA
331
27E
  5
2C3
331
23F
  5
284
331
32B
  5
3E6
331
3EB
  5
1D6
331
3F3
  5
1DE
331
1A2
  5
1E7
331
208
  5
24D
331
1C9
  5
20E
331
3B2
  5
3F7
331
333
  5
3EE
331
2BD
  5
302
331
286
  5
2CB
331
210
  5
255
331
1D1
  5
216
331
247
  5
28C
331
2FC
  5
3B7
331
3BA
  5
1A5
331
304
  5
3BF
331
28E
  5
2D3
331
24F
  5
294
331
1D9
  5
21E
331
218
  5
25D
331
2C5
  5
30A
331
3C2
  5
1AD
331
30C
  5
3C7
331
2CD
  5
312
331
257
  5
29C
331
1E1
  5
226
331
296
  5
2DB
331
2D5
  5
31A
331
25F
  5
2A4
331
3CC
  5
1B7
331
3D4
  5
1BF
331
3DC
  5
1C7
331
3E4
  5
1CF
331
220
  5
265
331
1AA
  5
1EF
331
1E9
  5
22E
331
2DD
  5
322
331
29E
  5
2E3
331
228
  5
26D
331
1F1
  5
236
331
1B2
  5
1F7
331
267
  5
2AC
331
314
  5
3CF
331
31C
  5
3D7
331
2A6
  5
2EB
331
26F
  5
2B4
331
1F9
  5
23E
331
1BA
  5
1FF
331
230
  5
275
331
2E5
  5
32A
331
324
  5
3DF
331
2AE
  5
2F3
331
277
  5
2BC
331
238
  5
27D
331
1C2
  5
207
331
201
  5
246
331
2ED
  5
332
331
32C
  5
3E7
331
2F5
  5
33D
331
27F
  5
2C4
331
2B6
  5
2FB
331
3EC
  5
1D7
331
3F4
  5
1DF
331
1A3
  5
1E8
331
240
  5
285
331
1CA
  5
20F
331
209
  5
24E
331
3B3
  5
19E
331
2FD
  5
3B8
331
2BE
  5
303
331
248
  5
28D
331
211
  5
256
331
1D2
  5
217
331
287
  5
2CC
331
334
  5
3EF
331
3BB
  5
1A6
331
305
  5
3C0
331
2C6
  5
30B
331
28F
  5
2D4
331
219
  5
25E
331
1DA
  5
21F
331
250
  5
295
331
3C3
  5
1AE
331
2CE
  5
313
331
297
  5
2DC
331
1E2
  5
227
331
258
  5
29D
331
30D
  5
3C8
331
2D6
  5
31B
331
3CD
  5
1B8
331
3D5
  5
1C0
331
3DD
  5
1C8
331
3E5
  5
1D0
331
260
  5
2A5
331
1EA
  5
22F
331
1AB
  5
1F0
331
221
  5
266
331
315
  5
3D0
331
29F
  5
2E4
331
268
  5
2AD
331
229
  5
26E
331
1B3
  5
1F8
331
1F2
  5
237
331
2DE
  5
323
331
31D
  5
3D8
331
2E6
  5
32B
331
2A7
  5
2EC
331
231
  5
276
331
1BB
  5
200
331
1FA
  5
23F
331
270
  5
2B5
331
2EE
  5
333
331
2AF
  5
2F4
331
239
  5
27E
331
202
  5
247
331
1C3
  5
208
331
278
  5
2BD
331
325
  5
3E0
331
32D
  5
3E8
331
2B7
  5
2FC
331
2F6
  5
365
331
3ED
  5
1D8
331
3F5
  5
1E0
331
1A4
  5
1E9
331
280
  5
2C5
331
20A
  5
24F
331
1CB
  5
210
331
241
  5
286
331
3B4
  5
19F
331
335
  5
3F0
331
2BF
  5
304
331
288
  5
2CD
331
249
  5
28E
331
1D3
  5
218
331
212
  5
257
331
2FE
  5
3B9
331
3BC
  5
1A7
331
33D
  5
3F5
331
306
  5
3C1
331
2C7
  5
30C
331
251
  5
296
331
1DB
  5
220
331
21A
  5
25F
331
290
  5
2D5
331
3C4
  5
1AF
331
30E
  5
3C9
331
259
  5
29E
331
1E3
  5
228
331
2CF
  5
314
331
2D7
  5
31C
331
3CE
  5
1B9
331
3D6
  5
1C1
331
3DE
  5
1C9
331
3E6
  5
1D1
331
298
  5
2DD
331
222
  5
267
331
1EB
  5
230
331
1AC
  5
1F1
331
261
  5
2A6
331
2DF
  5
324
331
2A0
  5
2E5
331
22A
  5
26F
331
1F3
  5
238
331
1B4
  5
1F9
331
269
  5
2AE
331
316
  5
3D1
331
365
  5
3F6
331
31E
  5
3D9
331
2A8
  5
2ED
331
271
  5
2B6
331
1FB
  5
240
331
1BC
  5
201
331
232
  5
277
331
2E7
  5
32C
331
326
  5
3E1
331
2B0
  5
2F5
331
279
  5
2BE
331
23A
  5
27F
331
1C4
  5
209
331
203
  5
248
331
2EF
  5
334
331
32E
  5
3E9
331
2F7
  5
3B2
331
3EE
  5
1D9
331
3F6
  5
1E1
331
1A5
  5
1EA
331
2B8
  5
2FD
331
242
  5
287
331
1CC
  5
211
331
20B
  5
250
331
281
  5
2C6
331
3B5
  5
1A0
331
2FF
  5
3BA
331
2C0
  5
305
331
24A
  5
28F
331
213
  5
258
331
1D4
  5
219
331
289
  5
2CE
331
336
  5
3F1
331
3BD
  5
1A8
331
2C8
  5
30D
331
291
  5
2D6
331
252
  5
297
331
1DC
  5
221
331
21B
  5
260
331
307
  5
3C2
331
3C5
  5
1B0
331
2D0
  5
315
331
1E4
  5
229
331
25A
  5
29F
331
30F
  5
3CA
331
3CF
  5
1BA
331
3D7
  5
1C2
331
3DF
  5
1CA
331
3E7
  5
1D2
331
299
  5
2DE
331
262
  5
2A7
331
1EC
  5
231
331
1AD
  5
1F2
331
223
  5
268
331
2D8
  5
31D
331
317
  5
3D2
331
2E0
  5
325
331
26A
  5
2AF
331
22B
  5
270
331
1B5
  5
1FA
331
1F4
  5
239
331
2A1
  5
2E6
331
31F
  5
3DA
331
2E8
  5
32D
331
2A9
  5
2EE
331
233
  5
278
331
1FC
  5
241
331
1BD
  5
202
331
272
  5
2B7
331
2F0
  5
335
331
2B1
  5
2F6
331
23B
  5
280
331
204
  5
249
331
1C5
  5
20A
331
27A
  5
2BF
331
327
  5
3E2
331
32F
  5
3EA
331
3EF
  5
1DA
331
3F7
  5
1E2
331
19E
  5
1E3
331
1A6
  5
1EB
331
2B9
  5
2FE
331
282
  5
2C7
331
20C
  5
251
331
1CD
  5
212
331
243
  5
288
331
2F8
  5
3B3
331
3B6
  5
1A1
331
337
  5
3F2
331
2C1
  5
306
331
28A
  5
2CF
331
24B
  5
290
331
1D5
  5
21A
331
214
  5
259
331
300
  5
3BB
331
3BE
  5
1A9
331
308
  5
3C3
331
2C9
  5
30E
331
253
  5
298
331
1DD
  5
222
331
21C
  5
261
331
292
  5
2D7
331
3C6
  5
1B1
331
25B
  5
2A0
331
1E5
  5
22A
331
2D1
  5
316
331
3C8
  5
1B3
331
3D0
  5
1BB
331
3D8
  5
1C3
331
3E0
  5
1CB
331
2D9
  5
31E
331
29A
  5
2DF
331
224
  5
269
331
1ED
  5
232
331
1AE
  5
1F3
331
263
  5
2A8
331
310
  5
3CB
331
2E1
  5
326
331
2A2
  5
2E7
331
26B
  5
2B0
331
1F5
  5
23A
331
1B6
  5
1FB
331
22C
  5
271
331
318
  5
3D3
331
320
  5
3DB
331
2AA
  5
2EF
331
273
  5
2B8
331
1FD
  5
242
331
1BE
  5
203
331
234
  5
279
331
2E9
  5
32E
331
328
  5
3E3
331
2F1
  5
336
331
27B
  5
2C0
331
23C
  5
281
331
1C6
  5
20B
331
205
  5
24A
331
2B2
  5
2F7
331
3E8
  5
1D3
331
3F0
  5
1DB
331
19F
  5
1E4
331
1A7
  5
1EC
331
330
  5
3EB
331
2F9
  5
3B4
331
2BA
  5
2FF
331
244
  5
289
331
20D
  5
252
331
1CE
  5
213
331
283
  5
2C8
331
3B7
  5
1A2
331
301
  5
3BC
331
2C2
  5
307
331
24C
  5
291
331
215
  5
25A
331
1D6
  5
21B
331
28B
  5
2D0
331
338
  5
3F3
331
3BF
  5
1AA
331
2CA
  5
30F
331
293
  5
2D8
331
254
  5
299
331
1DE
  5
223
331
21D
  5
262
331
309
  5
3C4
331
3C7
  5
1B2
331
2D2
  5
317
331
1E6
  5
22B
331
25C
  5
2A1
331
3C9
  5
1B4
331
3D1
  5
1BC
331
3D9
  5
1C4
331
3E1
  5
1CC
331
311
  5
3CC
331
29B
  5
2E0
331
264
  5
2A9
331
1EE
  5
233
331
1AF
  5
1F4
331
225
  5
26A
331
2DA
  5
31F
331
319
  5
3D4
331
2E2
  5
327
331
26C
  5
2B1
331
22D
  5
272
331
1B7
  5
1FC
331
1F6
  5
23B
331
2A3
  5
2E8
331
2EA
  5
32F
331
2AB
  5
2F0
331
235
  5
27A
331
1FE
  5
243
331
1BF
  5
204
331
274
  5
2B9
331
321
  5
3DC
331
2F2
  5
337
331
2B3
  5
2F8
331
27C
  5
2C1
331
206
  5
24B
331
1C7
  5
20C
331
23D
  5
282
331
329
  5
3E4
331
3E9
  5
1D4
331
3F1
  5
1DC
331
1A0
  5
1E5
331
331
  5
3EC
331
2BB
  5
300
331
284
  5
2C9
331
20E
  5
253
331
1CF
  5
214
331
245
  5
28A
331
2FA
  5
3B5
331
3B8
  5
1A3
331
339
  5
3F4
331
302
  5
3BD
331
28C
  5
2D1
331
24D
  5
292
331
1D7
  5
21C
331
216
  5
25B
331
2C3
  5
308
331
3C0
  5
1AB
331
30A
  5
3C5
331
2CB
  5
310
331
255
  5
29A
331
21E
  5
263
331
1DF
  5
224
331
294
  5
2D9
331
25D
  5
2A2
331
1E7
  5
22C
331
2D3
  5
318
331
3CA
  5
1B5
331
3D2
  5
1BD
331
3DA
  5
1C5
331
3E2
  5
1CD
331
1A8
  5
1ED
331
2DB
  5
320
331
29C
  5
2E1
331
226
  5
26B
331
1EF
  5
234
331
1B0
  5
1F5
331
265
  5
2AA
331
312
  5
3CD
331
2E3
  5
328
331
2A4
  5
2E9
331
26D
  5
2B2
331
1F7
  5
23C
331
1B8
  5
1FD
331
22E
  5
273
331
31A
  5
3D5
331
322
  5
3DD
331
2AC
  5
2F1
331
275
  5
2BA
331
1FF
  5
244
331
1C0
  5
205
331
236
  5
27B
331
2EB
  5
330
331
32A
  5
3E5
331
2F3
  5
338
331
27D
  5
2C2
331
23E
  5
283
331
207
  5
24C
331
2B4
  5
2F9
331
3EA
  5
1D5
  0
DIMASSOC
  5
357
102
{ACAD_REACTORS
330
34C
102
}
330
34C
100
AcDbDimAssoc
330
33D
 90
        3
 70
     0
 71
     0
  1
AcDbOsnapPointRef
 72
     1
331
264
 73
     2
 91
        0
 40
1.0
 10
0.0
 20
0.0
 30
2.000000000000000E+50
 75
     0
  1
AcDbOsnapPointRef
 72
    13
331
277
 73
     2
 91
        0
 40
0.0
 10
0.0
 20
0.0
 30
2.000000000000000E+50
 75
     0
  0
DIMASSOC
  5
37E
102
{ACAD_REACTORS
330
373
102
}
330
373
100
AcDbDimAssoc
330
365
 90
        3
 70
     0
 71
     0
  1
AcDbOsnapPointRef
 72
     1
331
338
 73
     2
 91
        0
 40
1.0
 10
0.0
 20
0.0
 30
2.000000000000000E+50
 75
     0
  1
AcDbOsnapPointRef
 72
    13
331
339
 73
     2
 91
        0
 40
0.0
 10
0.0
 20
0.0
 30
2.000000000000000E+50
 75
     0
  0
DIMASSOC
  5
42B
102
{ACAD_REACTORS
330
420
102
}
330
420
100
AcDbDimAssoc
330
412
 90
        3
 70
     0
 71
     0
  1
AcDbOsnapPointRef
 72
    13
331
239
 73
     2
 91
        0
 40
0.0
 10
0.0
 20
0.0
 30
2.000000000000000E+50
 75
     0
  1
AcDbOsnapPointRef
 72
    13
331
304
 73
     2
 91
        0
 40
0.0
 10
0.0
 20
0.0
 30
2.000000000000000E+50
 75
     0
  0
LAYOUT
  5
59
102
{ACAD_XDICTIONARY
360
4B2
102
}
102
{ACAD_REACTORS
330
1A
102
}
330
1A
100
AcDbPlotSettings
  1

  2
None
  4

  6

 40
0.0
 41
0.0
 42
0.0
 43
0.0
 44
0.0
 45
0.0
 46
0.0
 47
0.0
 48
0.0
 49
0.0
140
0.0
141
0.0
142
1.0
143
1.0
 70
   688
 72
     0
 73
     0
 74
     5
  7

 75
    16
147
1.0
148
0.0
149
0.0
100
AcDbLayout
  1
Layout1
 70
     1
 71
     1
 10
0.0
 20
0.0
 11
12.0
 21
9.0
 12
0.0
 22
0.0
 32
0.0
 14
0.0
 24
0.0
 34
0.0
 15
0.0
 25
0.0
 35
0.0
146
0.0
 13
0.0
 23
0.0
 33
0.0
 16
1.0
 26
0.0
 36
0.0
 17
0.0
 27
1.0
 37
0.0
 76
     0
330
58
  0
LAYOUT
  5
5E
102
{ACAD_XDICTIONARY
360
4B4
102
}
102
{ACAD_REACTORS
330
1A
102
}
330
1A
100
AcDbPlotSettings
  1

  2
None
  4

  6

 40
0.0
 41
0.0
 42
0.0
 43
0.0
 44
0.0
 45
0.0
 46
0.0
 47
0.0
 48
0.0
 49
0.0
140
0.0
141
0.0
142
1.0
143
1.0
 70
   688
 72
     0
 73
     0
 74
     5
  7

 75
    16
147
1.0
148
0.0
149
0.0
100
AcDbLayout
  1
Layout2
 70
     1
 71
     2
 10
0.0
 20
0.0
 11
12.0
 21
9.0
 12
0.0
 22
0.0
 32
0.0
 14
0.0
 24
0.0
 34
0.0
 15
0.0
 25
0.0
 35
0.0
146
0.0
 13
0.0
 23
0.0
 33
0.0
 16
1.0
 26
0.0
 36
0.0
 17
0.0
 27
1.0
 37
0.0
 76
     0
330
5D
  0
LAYOUT
  5
22
102
{ACAD_XDICTIONARY
360
4B0
102
}
102
{ACAD_REACTORS
330
1A
102
}
330
1A
100
AcDbPlotSettings
  1

  2
none_device
  4
ANSI_A_(8.50_x_11.00_Inches)
  6

 40
6.349999904632568
 41
19.04999923706055
 42
6.350006103515625
 43
19.04998779296875
 44
215.8999938964844
 45
279.3999938964844
 46
0.0
 47
0.0
 48
0.0
 49
0.0
140
0.0
141
0.0
142
1.0
143
2.584895464708373
 70
 11952
 72
     0
 73
     1
 74
     0
  7

 75
     0
147
0.3868628397755418
148
0.0
149
0.0
100
AcDbLayout
  1
Model
 70
     1
 71
     0
 10
0.0
 20
0.0
 11
12.0
 21
9.0
 12
0.0
 22
0.0
 32
0.0
 14
0.0
 24
0.0
 34
0.0
 15
0.0
 25
0.0
 35
0.0
146
0.0
 13
0.0
 23
0.0
 33
0.0
 16
1.0
 26
0.0
 36
0.0
 17
0.0
 27
1.0
 37
0.0
 76
     0
330
1F
  0
MLINESTYLE
  5
18
102
{ACAD_REACTORS
330
17
102
}
330
17
100
AcDbMlineStyle
  2
STANDARD
 70
     0
  3

 62
   256
 51
90.0
 52
90.0
 71
     2
 49
0.5
 62
   256
  6
BYLAYER
 49
-0.5
 62
   256
  6
BYLAYER
  0
ACDBPLACEHOLDER
  5
F
102
{ACAD_REACTORS
330
E
102
}
330
E
  0
TABLESTYLE
  5
87
102
{ACAD_REACTORS
330
86
102
}
330
86
100
AcDbTableStyle
  3
Standard
 70
     0
 71
     0
 40
0.06
 41
0.06
280
     0
281
     0
  7
Standard
140
0.18
170
     2
 62
     0
 63
     7
283
     0
274
    -2
284
     1
 64
     0
275
    -2
285
     1
 65
     0
276
    -2
286
     1
 66
     0
277
    -2
287
     1
 67
     0
278
    -2
288
     1
 68
     0
279
    -2
289
     1
 69
     0
  7
Standard
140
0.25
170
     5
 62
     0
 63
     7
283
     0
274
    -2
284
     1
 64
     0
275
    -2
285
     1
 65
     0
276
    -2
286
     1
 66
     0
277
    -2
287
     1
 67
     0
278
    -2
288
     1
 68
     0
279
    -2
289
     1
 69
     0
  7
Standard
140
0.18
170
     5
 62
     0
 63
     7
283
     0
274
    -2
284
     1
 64
     0
275
    -2
285
     1
 65
     0
276
    -2
286
     1
 66
     0
277
    -2
287
     1
 67
     0
278
    -2
288
     1
 68
     0
279
    -2
289
     1
 69
     0
  0
DICTIONARYVAR
  5
33B
102
{ACAD_REACTORS
330
66
102
}
330
66
100
DictionaryVariables
280
     0
  1
STANDARD
  0
DICTIONARYVAR
  5
67
102
{ACAD_REACTORS
330
66
102
}
330
66
100
DictionaryVariables
280
     0
  1
2
  0
DICTIONARYVAR
  5
6B
102
{ACAD_REACTORS
330
66
102
}
330
66
100
DictionaryVariables
280
     0
  1
1
  0
DICTIONARYVAR
  5
4AD
102
{ACAD_REACTORS
330
66
102
}
330
66
100
DictionaryVariables
280
     0
  1

  0
DICTIONARY
  5
4B2
330
59
100
AcDbDictionary
280
     1
281
     1
  3
ACAD_XREC_ROUNDTRIP
360
4B3
  0
DICTIONARY
  5
4B4
330
5E
100
AcDbDictionary
280
     1
281
     1
  3
ACAD_XREC_ROUNDTRIP
360
4B5
  0
DICTIONARY
  5
4B0
330
22
100
AcDbDictionary
280
     1
281
     1
  3
ACAD_XREC_ROUNDTRIP
360
4B1
  0
XRECORD
  5
4B3
102
{ACAD_REACTORS
330
4B2
102
}
330
4B2
100
AcDbXrecord
280
     1
102
SHADEPLOT
 70
     0
102
SHADEPLOTRESLEVEL
 70
     2
102
SHADEPLOTCUSTOMDPI
 70
   300
  0
XRECORD
  5
4B5
102
{ACAD_REACTORS
330
4B4
102
}
330
4B4
100
AcDbXrecord
280
     1
102
SHADEPLOT
 70
     0
102
SHADEPLOTRESLEVEL
 70
     2
102
SHADEPLOTCUSTOMDPI
 70
   300
  0
XRECORD
  5
4B1
102
{ACAD_REACTORS
330
4B0
102
}
330
4B0
100
AcDbXrecord
280
     1
102
SHADEPLOT
 70
     0
102
SHADEPLOTRESLEVEL
 70
     2
102
SHADEPLOTCUSTOMDPI
 70
   300
  0
ENDSEC
  0
EOF
