  0
SECTION
  2
HEADER
  9
$ACADVER
  1
AC1015
  9
$ACADMAINTVER
 70
    20
  9
$DWGCODEPAGE
  3
ANSI_1252
  9
$INSBASE
 10
0.0
 20
0.0
 30
0.0
  9
$EXTMIN
 10
-0.075
 20
-0.075
 30
0.0
  9
$EXTMAX
 10
11.075
 20
8.575000000000001
 30
0.0
  9
$LIMMIN
 10
0.0
 20
0.0
  9
$LIMMAX
 10
12.0
 20
9.0
  9
$ORTHOMODE
 70
     0
  9
$REGENMODE
 70
     1
  9
$FILLMODE
 70
     1
  9
$QTEXTMODE
 70
     0
  9
$MIRRTEXT
 70
     1
  9
$LTSCALE
 40
1.0
  9
$ATTMODE
 70
     1
  9
$TEXTSIZE
 40
0.09
  9
$TRACEWID
 40
0.05
  9
$TEXTSTYLE
  7
STANDARD
  9
$CLAYER
  8
0
  9
$CELTYPE
  6
BYLAYER
  9
$CECOLOR
 62
   256
  9
$CELTSCALE
 40
1.0
  9
$DISPSILH
 70
     0
  9
$DIMSCALE
 40
1.0
  9
$DIMASZ
 40
0.125
  9
$DIMEXO
 40
0.0625
  9
$DIMDLI
 40
0.38
  9
$DIMRND
 40
0.0
  9
$DIMDLE
 40
0.0
  9
$DIMEXE
 40
0.125
  9
$DIMTP
 40
0.0
  9
$DIMTM
 40
0.0
  9
$DIMTXT
 40
0.09
  9
$DIMCEN
 40
0.09
  9
$DIMTSZ
 40
0.0
  9
$DIMTOL
 70
     0
  9
$DIMLIM
 70
     0
  9
$DIMTIH
 70
     1
  9
$DIMTOH
 70
     1
  9
$DIMSE1
 70
     0
  9
$DIMSE2
 70
     0
  9
$DIMTAD
 70
     0
  9
$DIMZIN
 70
     0
  9
$DIMBLK
  1

  9
$DIMASO
 70
     1
  9
$DIMSHO
 70
     1
  9
$DIMPOST
  1

  9
$DIMAPOST
  1
mm
  9
$DIMALT
 70
     1
  9
$DIMALTD
 70
     1
  9
$DIMALTF
 40
25.4
  9
$DIMLFAC
 40
1.0
  9
$DIMTOFL
 70
     0
  9
$DIMTVP
 40
0.0
  9
$DIMTIX
 70
     0
  9
$DIMSOXD
 70
     0
  9
$DIMSAH
 70
     0
  9
$DIMBLK1
  1

  9
$DIMBLK2
  1

  9
$DIMSTYLE
  2
STANDARD
  9
$DIMCLRD
 70
     0
  9
$DIMCLRE
 70
     0
  9
$DIMCLRT
 70
     0
  9
$DIMTFAC
 40
1.0
  9
$DIMGAP
 40
0.09
  9
$DIMJUST
 70
     0
  9
$DIMSD1
 70
     0
  9
$DIMSD2
 70
     0
  9
$DIMTOLJ
 70
     1
  9
$DIMTZIN
 70
     0
  9
$DIMALTZ
 70
     0
  9
$DIMALTTZ
 70
     0
  9
$DIMUPT
 70
     0
  9
$DIMDEC
 70
     2
  9
$DIMTDEC
 70
     2
  9
$DIMALTU
 70
     2
  9
$DIMALTTD
 70
     1
  9
$DIMTXSTY
  7
STANDARD
  9
$DIMAUNIT
 70
     0
  9
$DIMADEC
 70
     0
  9
$DIMALTRND
 40
0.0
  9
$DIMAZIN
 70
     0
  9
$DIMDSEP
 70
    46
  9
$DIMATFIT
 70
     3
  9
$DIMFRAC
 70
     0
  9
$DIMLDRBLK
  1

  9
$DIMLUNIT
 70
     2
  9
$DIMLWD
 70
    -2
  9
$DIMLWE
 70
    -2
  9
$DIMTMOVE
 70
     0
  9
$LUNITS
 70
     2
  9
$LUPREC
 70
     2
  9
$SKETCHINC
 40
0.1
  9
$FILLETRAD
 40
0.5
  9
$AUNITS
 70
     0
  9
$AUPREC
 70
     0
  9
$MENU
  1
.
  9
$ELEVATION
 40
0.0
  9
$PELEVATION
 40
0.0
  9
$THICKNESS
 40
0.0
  9
$LIMCHECK
 70
     0
  9
$CHAMFERA
 40
0.5
  9
$CHAMFERB
 40
0.5
  9
$CHAMFERC
 40
1.0
  9
$CHAMFERD
 40
0.0
  9
$SKPOLY
 70
     0
  9
$TDCREATE
 40
2451681.555436007
  9
$TDUCREATE
 40
2451681.763769340
  9
$TDUPDATE
 40
2454294.567684526
  9
$TDUUPDATE
 40
2454294.776017859
  9
$TDINDWG
 40
0.2256490509
  9
$TDUSRTIMER
 40
0.2256490509
  9
$USRTIMER
 70
     1
  9
$ANGBASE
 50
0.0
  9
$ANGDIR
 70
     0
  9
$PDMODE
 70
     2
  9
$PDSIZE
 40
0.075
  9
$PLINEWID
 40
0.0
  9
$SPLFRAME
 70
     0
  9
$SPLINETYPE
 70
     6
  9
$SPLINESEGS
 70
     8
  9
$HANDSEED
  5
816
  9
$SURFTAB1
 70
     6
  9
$SURFTAB2
 70
     6
  9
$SURFTYPE
 70
     6
  9
$SURFU
 70
     6
  9
$SURFV
 70
     6
  9
$UCSBASE
  2

  9
$UCSNAME
  2

  9
$UCSORG
 10
0.0
 20
0.0
 30
0.0
  9
$UCSXDIR
 10
1.0
 20
0.0
 30
0.0
  9
$UCSYDIR
 10
0.0
 20
1.0
 30
0.0
  9
$UCSORTHOREF
  2

  9
$UCSORTHOVIEW
 70
     0
  9
$UCSORGTOP
 10
0.0
 20
0.0
 30
0.0
  9
$UCSORGBOTTOM
 10
0.0
 20
0.0
 30
0.0
  9
$UCSORGLEFT
 10
0.0
 20
0.0
 30
0.0
  9
$UCSORGRIGHT
 10
0.0
 20
0.0
 30
0.0
  9
$UCSORGFRONT
 10
0.0
 20
0.0
 30
0.0
  9
$UCSORGBACK
 10
0.0
 20
0.0
 30
0.0
  9
$PUCSBASE
  2

  9
$PUCSNAME
  2

  9
$PUCSORG
 10
0.0
 20
0.0
 30
0.0
  9
$PUCSXDIR
 10
1.0
 20
0.0
 30
0.0
  9
$PUCSYDIR
 10
0.0
 20
1.0
 30
0.0
  9
$PUCSORTHOREF
  2

  9
$PUCSORTHOVIEW
 70
     0
  9
$PUCSORGTOP
 10
0.0
 20
0.0
 30
0.0
  9
$PUCSORGBOTTOM
 10
0.0
 20
0.0
 30
0.0
  9
$PUCSORGLEFT
 10
0.0
 20
0.0
 30
0.0
  9
$PUCSORGRIGHT
 10
0.0
 20
0.0
 30
0.0
  9
$PUCSORGFRONT
 10
0.0
 20
0.0
 30
0.0
  9
$PUCSORGBACK
 10
0.0
 20
0.0
 30
0.0
  9
$USERI1
 70
     0
  9
$USERI2
 70
     0
  9
$USERI3
 70
     0
  9
$USERI4
 70
     0
  9
$USERI5
 70
     0
  9
$USERR1
 40
0.0
  9
$USERR2
 40
0.0
  9
$USERR3
 40
0.0
  9
$USERR4
 40
0.0
  9
$USERR5
 40
0.0
  9
$WORLDVIEW
 70
     1
  9
$SHADEDGE
 70
     3
  9
$SHADEDIF
 70
    70
  9
$TILEMODE
 70
     1
  9
$MAXACTVP
 70
    48
  9
$PINSBASE
 10
0.0
 20
0.0
 30
0.0
  9
$PLIMCHECK
 70
     0
  9
$PEXTMIN
 10
1.000000000000000E+20
 20
1.000000000000000E+20
 30
1.000000000000000E+20
  9
$PEXTMAX
 10
-1.000000000000000E+20
 20
-1.000000000000000E+20
 30
-1.000000000000000E+20
  9
$PLIMMIN
 10
0.0
 20
0.0
  9
$PLIMMAX
 10
12.0
 20
9.0
  9
$UNITMODE
 70
     0
  9
$VISRETAIN
 70
     1
  9
$PLINEGEN
 70
     0
  9
$PSLTSCALE
 70
     1
  9
$TREEDEPTH
 70
  3020
  9
$CMLSTYLE
  2
STANDARD
  9
$CMLJUST
 70
     0
  9
$CMLSCALE
 40
1.0
  9
$PROXYGRAPHICS
 70
     1
  9
$MEASUREMENT
 70
     0
  9
$CELWEIGHT
370
    -1
  9
$ENDCAPS
280
     0
  9
$JOINSTYLE
280
     0
  9
$LWDISPLAY
290
     0
  9
$INSUNITS
 70
     0
  9
$HYPERLINKBASE
  1

  9
$STYLESHEET
  1

  9
$XEDIT
290
     1
  9
$CEPSNTYPE
380
     0
  9
$PSTYLEMODE
290
     1
  9
$FINGERPRINTGUID
  2
{0DBA2F4B-C1BF-4E7E-99F6-24CB8BD685C4}
  9
$VERSIONGUID
  2
{D92FDE08-2704-4E12-82D4-4150D4715743}
  9
$EXTNAMES
290
     1
  9
$PSVPSCALE
 40
0.0
  9
$OLESTARTUP
290
     0
  0
ENDSEC
  0
SECTION
  2
CLASSES
  0
CLASS
  1
ACDBDICTIONARYWDFLT
  2
AcDbDictionaryWithDefault
  3
ObjectDBX Classes
 90
        0
280
     0
281
     0
  0
CLASS
  1
TABLESTYLE
  2
AcDbTableStyle
  3
ObjectDBX Classes
 90
     2047
280
     0
281
     0
  0
CLASS
  1
DICTIONARYVAR
  2
AcDbDictionaryVar
  3
ObjectDBX Classes
 90
        0
280
     0
281
     0
  0
CLASS
  1
ACDBPLACEHOLDER
  2
AcDbPlaceHolder
  3
ObjectDBX Classes
 90
        0
280
     0
281
     0
  0
CLASS
  1
LAYOUT
  2
AcDbLayout
  3
ObjectDBX Classes
 90
        0
280
     0
281
     0
  0
ENDSEC
  0
SECTION
  2
TABLES
  0
TABLE
  2
VPORT
  5
8
330
0
100
AcDbSymbolTable
 70
     2
  0
VPORT
  5
810
330
8
100
AcDbSymbolTableRecord
100
AcDbViewportTableRecord
  2
*Active
 70
     0
 10
0.0
 20
0.0
 11
1.0
 21
1.0
 12
5.499834485850286
 22
4.554391431607214
 13
0.0
 23
0.0
 14
0.5
 24
0.5
 15
0.5
 25
0.5
 16
0.0
 26
0.0
 36
1.0
 17
0.0
 27
0.0
 37
0.0
 40
9.315343815646048
 41
1.499364675984752
 42
50.0
 43
0.0
 44
0.0
 50
0.0
 51
0.0
 71
     0
 72
   100
 73
     1
 74
     1
 75
     0
 76
     0
 77
     0
 78
     0
281
     0
 65
     1
110
0.0
120
0.0
130
0.0
111
1.0
121
0.0
131
0.0
112
0.0
122
1.0
132
0.0
 79
     0
146
0.0
  0
ENDTAB
  0
TABLE
  2
LTYPE
  5
5
330
0
100
AcDbSymbolTable
 70
     1
  0
LTYPE
  5
12
330
5
100
AcDbSymbolTableRecord
100
AcDbLinetypeTableRecord
  2
BYBLOCK
 70
     0
  3

 72
    65
 73
     0
 40
0.0
  0
LTYPE
  5
13
330
5
100
AcDbSymbolTableRecord
100
AcDbLinetypeTableRecord
  2
BYLAYER
 70
     0
  3

 72
    65
 73
     0
 40
0.0
  0
LTYPE
  5
14
330
5
100
AcDbSymbolTableRecord
100
AcDbLinetypeTableRecord
  2
CONTINUOUS
 70
     0
  3
Solid line
 72
    65
 73
     0
 40
0.0
  0
ENDTAB
  0
TABLE
  2
LAYER
  5
2
102
{ACAD_XDICTIONARY
360
126
102
}
330
0
100
AcDbSymbolTable
 70
     6
  0
LAYER
  5
E
330
2
100
AcDbSymbolTableRecord
100
AcDbLayerTableRecord
  2
0
 70
     0
 62
     7
  6
CONTINUOUS
370
    -3
390
DE
  0
LAYER
  5
20
330
2
100
AcDbSymbolTableRecord
100
AcDbLayerTableRecord
  2
Title Block
 70
     0
 62
     3
  6
CONTINUOUS
370
    -3
390
DE
  0
LAYER
  5
21
330
2
100
AcDbSymbolTableRecord
100
AcDbLayerTableRecord
  2
Dimension
 70
     0
 62
     6
  6
CONTINUOUS
370
    -3
390
DE
  0
LAYER
  5
22
330
2
100
AcDbSymbolTableRecord
100
AcDbLayerTableRecord
  2
Text
 70
     0
 62
     1
  6
CONTINUOUS
370
    -3
390
DE
  0
LAYER
  5
23D
330
2
100
AcDbSymbolTableRecord
100
AcDbLayerTableRecord
  2
Defpoints
 70
     0
 62
     7
  6
CONTINUOUS
290
     0
370
    -3
390
DE
  0
LAYER
  5
258
330
2
100
AcDbSymbolTableRecord
100
AcDbLayerTableRecord
  2
Object
 70
     0
 62
     5
  6
CONTINUOUS
370
    -3
390
DE
1001
AcAecLayerStandard
1000

1000

  0
ENDTAB
  0
TABLE
  2
STYLE
  5
3
330
0
100
AcDbSymbolTable
 70
     1
  0
STYLE
  5
F
330
3
100
AcDbSymbolTableRecord
100
AcDbTextStyleTableRecord
  2
STANDARD
 70
     0
 40
0.0
 41
1.0
 50
0.0
 71
     0
 42
0.09
  3
technic_.ttf
  4

1001
ACAD
1000
Technic
1071
      514
  0
ENDTAB
  0
TABLE
  2
VIEW
  5
6
330
0
100
AcDbSymbolTable
 70
     0
  0
ENDTAB
  0
TABLE
  2
UCS
  5
7
330
0
100
AcDbSymbolTable
 70
     0
  0
ENDTAB
  0
TABLE
  2
APPID
  5
9
330
0
100
AcDbSymbolTable
 70
     4
  0
APPID
  5
10
330
9
100
AcDbSymbolTableRecord
100
AcDbRegAppTableRecord
  2
ACAD
 70
     0
  0
APPID
  5
FA
330
9
100
AcDbSymbolTableRecord
100
AcDbRegAppTableRecord
  2
DCO15
 70
     0
  0
APPID
  5
125
330
9
100
AcDbSymbolTableRecord
100
AcDbRegAppTableRecord
  2
AcAecLayerStandard
 70
     0
  0
APPID
  5
14B
330
9
100
AcDbSymbolTableRecord
100
AcDbRegAppTableRecord
  2
ACAD_DSTYLE_DIMTEXT_FILL
 70
     0
  0
ENDTAB
  0
TABLE
  2
DIMSTYLE
  5
A
330
0
100
AcDbSymbolTable
 70
     1
100
AcDbDimStyleTable
 71
     1
340
1D
  0
DIMSTYLE
105
1D
102
{ACAD_REACTORS
330
7BE
330
7D8
330
7E6
102
}
330
A
100
AcDbSymbolTableRecord
100
AcDbDimStyleTableRecord
  2
STANDARD
 70
     0
  4
mm
 41
0.125
 44
0.125
140
0.09
170
     1
171
     1
271
     2
272
     2
274
     1
340
F
  0
ENDTAB
  0
TABLE
  2
BLOCK_RECORD
  5
1
330
0
100
AcDbSymbolTable
 70
     3
  0
BLOCK_RECORD
  5
18
330
1
100
AcDbSymbolTableRecord
100
AcDbBlockTableRecord
  2
*MODEL_SPACE
340
E5
  0
BLOCK_RECORD
  5
15
330
1
100
AcDbSymbolTableRecord
100
AcDbBlockTableRecord
  2
*PAPER_SPACE
340
E6
  0
BLOCK_RECORD
  5
7BF
330
1
100
AcDbSymbolTableRecord
100
AcDbBlockTableRecord
  2
*D0
340
0
  0
BLOCK_RECORD
  5
7D9
330
1
100
AcDbSymbolTableRecord
100
AcDbBlockTableRecord
  2
*D1
340
0
  0
BLOCK_RECORD
  5
7E7
330
1
100
AcDbSymbolTableRecord
100
AcDbBlockTableRecord
  2
*D2
340
0
  0
ENDTAB
  0
ENDSEC
  0
SECTION
  2
BLOCKS
  0
BLOCK
  5
19
330
18
100
AcDbEntity
  8
0
100
AcDbBlockBegin
  2
*MODEL_SPACE
 70
     0
 10
0.0
 20
0.0
 30
0.0
  3
*MODEL_SPACE
  1

  0
ENDBLK
  5
1A
330
18
100
AcDbEntity
  8
0
100
AcDbBlockEnd
  0
BLOCK
  5
16
330
15
100
AcDbEntity
 67
     1
  8
0
100
AcDbBlockBegin
  2
*PAPER_SPACE
 70
     0
 10
0.0
 20
0.0
 30
0.0
  3
*PAPER_SPACE
  1

  0
ENDBLK
  5
17
330
15
100
AcDbEntity
 67
     1
  8
0
100
AcDbBlockEnd
  0
BLOCK
  5
7CB
330
7BF
100
AcDbEntity
  8
0
100
AcDbBlockBegin
  2
*D0
 70
     1
 10
0.0
 20
0.0
 30
0.0
  3
*D0
  1

  0
LINE
  5
7CD
330
7BF
100
AcDbEntity
  8
Dimension
 62
     0
370
    -2
100
AcDbLine
 10
4.5945
 20
7.685924703604388
 30
0.0
 11
5.161589730280869
 21
7.685924703604388
 31
0.0
  0
LINE
  5
7CE
330
7BF
100
AcDbEntity
  8
Dimension
 62
     0
370
    -2
100
AcDbLine
 10
4.551499999999999
 20
7.105924703604388
 30
0.0
 11
5.161589730280869
 21
7.105924703604388
 31
0.0
  0
LINE
  5
7CF
330
7BF
100
AcDbEntity
  8
Dimension
 62
     0
370
    -2
100
AcDbLine
 10
5.036589730280869
 20
7.560924703604388
 30
0.0
 11
5.036589730280869
 21
7.230924703604388
 31
0.0
  0
LINE
  5
7D0
330
7BF
100
AcDbEntity
  8
Dimension
 62
     0
370
    -2
100
AcDbLine
 10
5.036589730280869
 20
7.105924703604388
 30
0.0
 11
5.036589730280869
 21
6.759680990496685
 31
0.0
  0
LINE
  5
7D1
330
7BF
100
AcDbEntity
  8
Dimension
 62
     0
370
    -2
100
AcDbLine
 10
5.036589730280869
 20
6.759680990496685
 30
0.0
 11
4.911589730280869
 21
6.759680990496685
 31
0.0
  0
SOLID
  5
7D2
330
7BF
100
AcDbEntity
  8
Dimension
 62
     0
100
AcDbTrace
 10
5.015756396947536
 20
7.560924703604388
 30
0.0
 11
5.057423063614202
 21
7.560924703604388
 31
0.0
 12
5.036589730280869
 22
7.685924703604388
 32
0.0
 13
5.036589730280869
 23
7.685924703604388
 33
0.0
  0
SOLID
  5
7D3
330
7BF
100
AcDbEntity
  8
Dimension
 62
     0
100
AcDbTrace
 10
5.015756396947536
 20
7.230924703604388
 30
0.0
 11
5.057423063614202
 21
7.230924703604388
 31
0.0
 12
5.036589730280869
 22
7.105924703604388
 32
0.0
 13
5.036589730280869
 23
7.105924703604388
 33
0.0
  0
MTEXT
  5
7D4
330
7BF
100
AcDbEntity
  8
Dimension
 62
     0
100
AcDbMText
 10
4.430208151333499
 20
6.759680990496686
 30
0.0
 40
0.09
 41
0.0
 71
     5
 72
     1
  1
\A1;0.58 [14.7mm]
 73
     1
 44
1.0
1001
ACAD
1000
MTEXTBEGIN
1070
    73
1070
     1
1070
    44
1040
1.0
1070
    74
1070
     0
1000
MTEXTEND
  0
POINT
  5
7D5
330
7BF
100
AcDbEntity
  8
Defpoints
 62
     0
100
AcDbPoint
 10
4.532
 20
7.685924703604388
 30
0.0
  0
POINT
  5
7D6
330
7BF
100
AcDbEntity
  8
Defpoints
 62
     0
100
AcDbPoint
 10
4.488999999999999
 20
7.105924703604388
 30
0.0
  0
POINT
  5
7D7
330
7BF
100
AcDbEntity
  8
Defpoints
 62
     0
100
AcDbPoint
 10
5.036589730280869
 20
7.105924703604388
 30
0.0
  0
ENDBLK
  5
7CC
330
7BF
100
AcDbEntity
  8
0
100
AcDbBlockEnd
  0
BLOCK
  5
7E4
330
7D9
100
AcDbEntity
  8
0
100
AcDbBlockBegin
  2
*D1
 70
     1
 10
0.0
 20
0.0
 30
0.0
  3
*D1
  1

  0
LINE
  5
7DA
330
7D9
100
AcDbEntity
  8
Dimension
 62
     0
370
    -2
100
AcDbLine
 10
2.168
 20
5.664424703604389
 30
0.0
 11
2.168
 21
6.243336142626159
 31
0.0
  0
LINE
  5
7DB
330
7D9
100
AcDbEntity
  8
Dimension
 62
     0
370
    -2
100
AcDbLine
 10
4.54
 20
5.66442470360439
 30
0.0
 11
4.54
 21
6.243336142626159
 31
0.0
  0
LINE
  5
7DC
330
7D9
100
AcDbEntity
  8
Dimension
 62
     0
370
    -2
100
AcDbLine
 10
2.293
 20
6.118336142626159
 30
0.0
 11
2.854065789473684
 21
6.118336142626159
 31
0.0
  0
LINE
  5
7DD
330
7D9
100
AcDbEntity
  8
Dimension
 62
     0
370
    -2
100
AcDbLine
 10
4.415
 20
6.118336142626159
 30
0.0
 11
3.853934210526316
 21
6.118336142626159
 31
0.0
  0
SOLID
  5
7DE
330
7D9
100
AcDbEntity
  8
Dimension
 62
     0
100
AcDbTrace
 10
2.293
 20
6.139169475959492
 30
0.0
 11
2.293
 21
6.097502809292826
 31
0.0
 12
2.168
 22
6.118336142626159
 32
0.0
 13
2.168
 23
6.118336142626159
 33
0.0
  0
SOLID
  5
7DF
330
7D9
100
AcDbEntity
  8
Dimension
 62
     0
100
AcDbTrace
 10
4.415
 20
6.139169475959492
 30
0.0
 11
4.415
 21
6.097502809292826
 31
0.0
 12
4.54
 22
6.118336142626159
 32
0.0
 13
4.54
 23
6.118336142626159
 33
0.0
  0
MTEXT
  5
7E0
330
7D9
100
AcDbEntity
  8
Dimension
 62
     0
100
AcDbMText
 10
3.354
 20
6.118336142626159
 30
0.0
 40
0.09
 41
0.0
 71
     5
 72
     1
  1
\A1;2.37 [60.2mm]
 73
     1
 44
1.0
1001
ACAD
1000
MTEXTBEGIN
1070
    73
1070
     1
1070
    44
1040
1.0
1070
    74
1070
     0
1000
MTEXTEND
  0
POINT
  5
7E1
330
7D9
100
AcDbEntity
  8
Defpoints
 62
     0
100
AcDbPoint
 10
2.168
 20
5.601924703604389
 30
0.0
  0
POINT
  5
7E2
330
7D9
100
AcDbEntity
  8
Defpoints
 62
     0
100
AcDbPoint
 10
4.54
 20
5.60192470360439
 30
0.0
  0
POINT
  5
7E3
330
7D9
100
AcDbEntity
  8
Defpoints
 62
     0
100
AcDbPoint
 10
4.54
 20
6.118336142626159
 30
0.0
  0
ENDBLK
  5
7E5
330
7D9
100
AcDbEntity
  8
0
100
AcDbBlockEnd
  0
BLOCK
  5
7F2
330
7E7
100
AcDbEntity
  8
0
100
AcDbBlockBegin
  2
*D2
 70
     1
 10
0.0
 20
0.0
 30
0.0
  3
*D2
  1

  0
LINE
  5
7F4
330
7E7
100
AcDbEntity
  8
Dimension
 62
     0
370
    -2
100
AcDbLine
 10
8.300499999999999
 20
5.715924703604389
 30
0.0
 11
7.332333457118462
 21
5.715924703604389
 31
0.0
  0
LINE
  5
7F5
330
7E7
100
AcDbEntity
  8
Dimension
 62
     0
370
    -2
100
AcDbLine
 10
8.3565
 20
3.576924703604388
 30
0.0
 11
7.332333457118462
 21
3.576924703604388
 31
0.0
  0
LINE
  5
7F6
330
7E7
100
AcDbEntity
  8
Dimension
 62
     0
370
    -2
100
AcDbLine
 10
7.457333457118462
 20
5.590924703604389
 30
0.0
 11
7.457333457118462
 21
4.799451019393861
 31
0.0
  0
LINE
  5
7F7
330
7E7
100
AcDbEntity
  8
Dimension
 62
     0
370
    -2
100
AcDbLine
 10
7.457333457118462
 20
3.701924703604388
 30
0.0
 11
7.457333457118462
 21
4.493398387814915
 31
0.0
  0
SOLID
  5
7F8
330
7E7
100
AcDbEntity
  8
Dimension
 62
     0
100
AcDbTrace
 10
7.436500123785129
 20
5.590924703604389
 30
0.0
 11
7.478166790451795
 21
5.590924703604389
 31
0.0
 12
7.457333457118462
 22
5.715924703604389
 32
0.0
 13
7.457333457118462
 23
5.715924703604389
 33
0.0
  0
SOLID
  5
7F9
330
7E7
100
AcDbEntity
  8
Dimension
 62
     0
100
AcDbTrace
 10
7.436500123785129
 20
3.701924703604388
 30
0.0
 11
7.478166790451795
 21
3.701924703604388
 31
0.0
 12
7.457333457118462
 22
3.576924703604388
 32
0.0
 13
7.457333457118462
 23
3.576924703604388
 33
0.0
  0
MTEXT
  5
7FA
330
7E7
100
AcDbEntity
  8
Dimension
 62
     0
100
AcDbMText
 10
7.457333457118461
 20
4.646424703604389
 30
0.0
 40
0.09
 41
0.0
 71
     5
 72
     1
  1
\A1;2.14 [54.3mm]
 73
     1
 44
1.0
1001
ACAD
1000
MTEXTBEGIN
1070
    73
1070
     1
1070
    44
1040
1.0
1070
    74
1070
     0
1000
MTEXTEND
  0
POINT
  5
7FB
330
7E7
100
AcDbEntity
  8
Defpoints
 62
     0
100
AcDbPoint
 10
8.362999999999999
 20
5.715924703604389
 30
0.0
  0
POINT
  5
7FC
330
7E7
100
AcDbEntity
  8
Defpoints
 62
     0
100
AcDbPoint
 10
8.419
 20
3.576924703604388
 30
0.0
  0
POINT
  5
7FD
330
7E7
100
AcDbEntity
  8
Defpoints
 62
     0
100
AcDbPoint
 10
7.457333457118462
 20
3.576924703604388
 30
0.0
  0
ENDBLK
  5
7F3
330
7E7
100
AcDbEntity
  8
0
100
AcDbBlockEnd
  0
ENDSEC
  0
SECTION
  2
ENTITIES
  0
TEXT
  5
51
330
18
100
AcDbEntity
  8
Title Block
100
AcDbText
 10
6.776695012655547
 20
2.672489851525508
 30
0.0
 40
0.05
  1
FILENAME:
100
AcDbText
  0
TEXT
  5
52
330
18
100
AcDbEntity
  8
Title Block
100
AcDbText
 10
6.769285028728251
 20
2.076224967549325
 30
0.0
 40
0.35
  1
PANDUIT
100
AcDbText
  0
TEXT
  5
53
330
18
100
AcDbEntity
  8
Title Block
100
AcDbText
 10
8.721820398821382
 20
2.061410940562986
 30
0.0
 40
0.125
  1
CORP. TINLEY PARK, IL
100
AcDbText
  0
TEXT
  5
54
330
18
100
AcDbEntity
  8
Title Block
100
AcDbText
 10
6.780399976708615
 20
1.91697409709392
 30
0.0
 40
0.05
  1
TITLE:
100
AcDbText
  0
MTEXT
  5
57
330
18
100
AcDbEntity
  8
Title Block
100
AcDbMText
 10
8.0
 20
1.372215793536348
 30
0.0
 40
0.075
 41
2.5
 71
     5
 72
     5
  1
UNLESS OTHERWISE SPECIFIED,\PDIMENSIONAL TOLERANCES ARE:       
 73
     1
 44
1.0
1001
ACAD
1000
MTEXTBEGIN
1070
    73
1070
     1
1070
    44
1040
1.0
1070
    74
1070
     0
1000
MTEXTEND
  0
MTEXT
  5
58
330
18
100
AcDbEntity
  8
Title Block
100
AcDbMText
 10
7.392379866610014
 20
1.131487708483632
 30
0.0
 40
0.075
 41
2.5
 71
     5
 72
     5
  1
(.X)\P(.XX)
 73
     1
 44
1.0
1001
ACAD
1000
MTEXTBEGIN
1070
    73
1070
     1
1070
    44
1040
1.0
1070
    74
1070
     0
1000
MTEXTEND
  0
MTEXT
  5
59
330
18
100
AcDbEntity
  8
Title Block
100
AcDbMText
 10
8.400140053124118
 20
1.131487708483632
 30
0.0
 40
0.075
 41
2.5
 71
     5
 72
     5
  1
(.XXX)\PANGLES:
 73
     1
 44
1.0
1001
ACAD
1000
MTEXTBEGIN
1070
    73
1070
     1
1070
    44
1040
1.0
1070
    74
1070
     0
1000
MTEXTEND
  0
MTEXT
  5
5A
330
18
100
AcDbEntity
  8
Title Block
100
AcDbMText
 10
10.0
 20
1.25
 30
0.0
 40
0.06
 41
1.5
 71
     5
 72
     5
  1
UNLESS OTHERWISE SPECIFIED,\PALL DIMENSIONS ARE GIVEN IN INCHES, THIRD ANGLE PROJECTION
 73
     1
 44
1.0
1001
ACAD
1000
MTEXTBEGIN
1070
    73
1070
     1
1070
    44
1040
1.0
1070
    74
1070
     0
1000
MTEXTEND
  0
TEXT
  5
5E
330
18
100
AcDbEntity
  8
Title Block
100
AcDbText
 10
6.760764454306187
 20
0.9281373372752312
 30
0.0
 40
0.05
  1
DRAWN BY:
100
AcDbText
  0
TEXT
  5
5F
330
18
100
AcDbEntity
  8
Title Block
100
AcDbText
 10
6.764469474180437
 20
0.6811431865635028
 30
0.0
 40
0.05
  1
DATE:
100
AcDbText
  0
TEXT
  5
60
330
18
100
AcDbEntity
  8
Title Block
100
AcDbText
 10
6.768174438233497
 20
0.4304455338317968
 30
0.0
 40
0.05
  1
CHECKED BY:
100
AcDbText
  0
TEXT
  5
62
330
18
100
AcDbEntity
  8
Title Block
100
AcDbText
 10
7.520289593133067
 20
0.9281373372752312
 30
0.0
 40
0.05
  1
MATERIAL:
100
AcDbText
  0
TEXT
  5
63
330
18
100
AcDbEntity
  8
Title Block
100
AcDbText
 10
9.265344938781542
 20
0.9281373372752312
 30
0.0
 40
0.05
  1
SCALE:
100
AcDbText
  0
TEXT
  5
64
330
18
100
AcDbEntity
  8
Title Block
100
AcDbText
 10
9.265344938781542
 20
0.6725952630490007
 30
0.0
 40
0.05
  1
DRAWING NUMBER:
100
AcDbText
  0
TEXT
  5
65
330
18
100
AcDbEntity
  8
Title Block
100
AcDbText
 10
10.34942622928998
 20
0.6762987650689816
 30
0.0
 40
0.05
  1
DRAWING
100
AcDbText
  0
TEXT
  5
66
330
18
100
AcDbEntity
  8
Title Block
100
AcDbText
 10
10.42723125590085
 20
0.2811642688682026
 30
0.0
 40
0.05
  1
SIZE
100
AcDbText
  0
TEXT
  5
67
330
18
100
AcDbEntity
  8
Title Block
100
AcDbText
 10
10.38647626056889
 20
0.3911285990572359
 30
0.0
 40
0.25
  1
A
100
AcDbText
  0
MTEXT
  5
68
330
18
100
AcDbEntity
  8
Title Block
100
AcDbMText
 10
0.375
 20
0.375
 30
0.0
 40
0.05
 41
0.25
 71
     5
 72
     5
  1
REV
 73
     1
 44
1.0
1001
ACAD
1000
MTEXTBEGIN
1070
    73
1070
     1
1070
    44
1040
1.0
1070
    74
1070
     0
1000
MTEXTEND
  0
MTEXT
  5
69
330
18
100
AcDbEntity
  8
Title Block
100
AcDbMText
 10
0.75
 20
0.375
 30
0.0
 40
0.05
 41
0.5
 71
     5
 72
     5
  1
DATE
 73
     1
 44
1.0
1001
ACAD
1000
MTEXTBEGIN
1070
    73
1070
     1
1070
    44
1040
1.0
1070
    74
1070
     0
1000
MTEXTEND
  0
MTEXT
  5
6A
330
18
100
AcDbEntity
  8
Title Block
100
AcDbMText
 10
1.189999999999999
 20
0.375
 30
0.0
 40
0.05
 41
0.38
 71
     5
 72
     5
  1
BY
 73
     1
 44
1.0
1001
ACAD
1000
MTEXTBEGIN
1070
    73
1070
     1
1070
    44
1040
1.0
1070
    74
1070
     0
1000
MTEXTEND
  0
MTEXT
  5
6B
330
18
100
AcDbEntity
  8
Title Block
100
AcDbMText
 10
1.564999999999999
 20
0.375
 30
0.0
 40
0.05
 41
0.38
 71
     5
 72
     5
  1
CHK
 73
     1
 44
1.0
1001
ACAD
1000
MTEXTBEGIN
1070
    73
1070
     1
1070
    44
1040
1.0
1070
    74
1070
     0
1000
MTEXTEND
  0
MTEXT
  5
6C
330
18
100
AcDbEntity
  8
Title Block
100
AcDbMText
 10
3.125
 20
0.375
 30
0.0
 40
0.05
 41
2.75
 71
     5
 72
     5
  1
DESCRIPTION
 73
     1
 44
1.0
1001
ACAD
1000
MTEXTBEGIN
1070
    73
1070
     1
1070
    44
1040
1.0
1070
    74
1070
     0
1000
MTEXTEND
  0
MTEXT
  5
6D
330
18
100
AcDbEntity
  8
Title Block
100
AcDbMText
 10
5.064999999999999
 20
0.375
 30
0.0
 40
0.05
 41
1.129999999999999
 71
     5
 72
     5
  1
ECN   -   R
 73
     1
 44
1.0
1001
ACAD
1000
MTEXTBEGIN
1070
    73
1070
     1
1070
    44
1040
1.0
1070
    74
1070
     0
1000
MTEXTEND
  0
MTEXT
  5
6E
330
18
100
AcDbEntity
  8
Title Block
100
AcDbMText
 10
5.815
 20
0.375
 30
0.0
 40
0.05
 41
0.38
 71
     5
 72
     5
  1
CUST
 73
     1
 44
1.0
1001
ACAD
1000
MTEXTBEGIN
1070
    73
1070
     1
1070
    44
1040
1.0
1070
    74
1070
     0
1000
MTEXTEND
  0
MTEXT
  5
6F
330
18
100
AcDbEntity
  8
Title Block
100
AcDbMText
 10
6.19
 20
0.375
 30
0.0
 40
0.05
 41
0.38
 71
     5
 72
     5
  1
SUP
 73
     1
 44
1.0
1001
ACAD
1000
MTEXTBEGIN
1070
    73
1070
     1
1070
    44
1040
1.0
1070
    74
1070
     0
1000
MTEXTEND
  0
LWPOLYLINE
  5
71
330
18
100
AcDbEntity
  8
Title Block
100
AcDbPolyline
 90
        4
 70
     1
 43
0.01
 10
0.25
 20
8.250000000000001
 10
0.25
 20
0.25
 10
10.75
 20
0.25
 10
10.75
 20
8.25
  0
LINE
  5
A5
330
18
100
AcDbEntity
  8
Title Block
100
AcDbLine
 10
10.75
 20
2.749999999999999
 30
0.0
 11
0.25
 21
2.75
 31
0.0
  0
LINE
  5
A6
330
18
100
AcDbEntity
  8
Title Block
100
AcDbLine
 10
6.75
 20
2.75
 30
0.0
 11
6.75
 21
0.25
 31
0.0
  0
LINE
  5
A7
330
18
100
AcDbEntity
  8
Title Block
100
AcDbLine
 10
10.75
 20
2.499999999999999
 30
0.0
 11
0.25
 21
2.5
 31
0.0
  0
LINE
  5
A8
330
18
100
AcDbEntity
  8
Title Block
100
AcDbLine
 10
6.75
 20
2.25
 30
0.0
 11
0.25
 21
2.25
 31
0.0
  0
LINE
  5
A9
330
18
100
AcDbEntity
  8
Title Block
100
AcDbLine
 10
10.75
 20
1.999999999999999
 30
0.0
 11
0.25
 21
2.0
 31
0.0
  0
LINE
  5
AA
330
18
100
AcDbEntity
  8
Title Block
100
AcDbLine
 10
6.75
 20
1.75
 30
0.0
 11
0.25
 21
1.75
 31
0.0
  0
LINE
  5
AB
330
18
100
AcDbEntity
  8
Title Block
100
AcDbLine
 10
10.75
 20
1.499999999999999
 30
0.0
 11
0.25
 21
1.5
 31
0.0
  0
LINE
  5
AC
330
18
100
AcDbEntity
  8
Title Block
100
AcDbLine
 10
6.75
 20
1.25
 30
0.0
 11
0.25
 21
1.25
 31
0.0
  0
LINE
  5
AD
330
18
100
AcDbEntity
  8
Title Block
100
AcDbLine
 10
10.75
 20
0.9999999999999996
 30
0.0
 11
0.25
 21
1.0
 31
0.0
  0
LINE
  5
AE
330
18
100
AcDbEntity
  8
Title Block
100
AcDbLine
 10
7.5
 20
0.75
 30
0.0
 11
0.25
 21
0.7500000000000009
 31
0.0
  0
LINE
  5
AF
330
18
100
AcDbEntity
  8
Title Block
100
AcDbLine
 10
7.5
 20
0.5
 30
0.0
 11
0.25
 21
0.5000000000000009
 31
0.0
  0
LINE
  5
B6
330
18
100
AcDbEntity
  8
Title Block
100
AcDbLine
 10
0.25
 20
0.25
 30
0.0
 11
0.25
 21
2.75
 31
0.0
  0
LINE
  5
BC
330
18
100
AcDbEntity
  8
Title Block
100
AcDbLine
 10
0.5
 20
0.25
 30
0.0
 11
0.5
 21
2.750000000000001
 31
0.0
  0
LINE
  5
BD
330
18
100
AcDbEntity
  8
Title Block
100
AcDbLine
 10
1.0
 20
0.25
 30
0.0
 11
1.0
 21
2.750000000000001
 31
0.0
  0
LINE
  5
C0
330
18
100
AcDbEntity
  8
Title Block
100
AcDbLine
 10
1.375
 20
0.25
 30
0.0
 11
1.375
 21
2.750000000000001
 31
0.0
  0
LINE
  5
C1
330
18
100
AcDbEntity
  8
Title Block
100
AcDbLine
 10
1.75
 20
0.25
 30
0.0
 11
1.75
 21
2.750000000000001
 31
0.0
  0
LINE
  5
C2
330
18
100
AcDbEntity
  8
Title Block
100
AcDbLine
 10
6.375
 20
2.75
 30
0.0
 11
6.375
 21
0.25
 31
0.0
  0
LINE
  5
C3
330
18
100
AcDbEntity
  8
Title Block
100
AcDbLine
 10
6.0
 20
2.75
 30
0.0
 11
6.0
 21
0.25
 31
0.0
  0
LINE
  5
C4
330
18
100
AcDbEntity
  8
Title Block
100
AcDbLine
 10
5.625
 20
2.75
 30
0.0
 11
5.625
 21
0.25
 31
0.0
  0
LINE
  5
C5
330
18
100
AcDbEntity
  8
Title Block
100
AcDbLine
 10
5.25
 20
2.75
 30
0.0
 11
5.25
 21
0.5000000000000002
 31
0.0
  0
LINE
  5
C6
330
18
100
AcDbEntity
  8
Title Block
100
AcDbLine
 10
4.5
 20
2.75
 30
0.0
 11
4.5
 21
0.25
 31
0.0
  0
LINE
  5
C7
330
18
100
AcDbEntity
  8
Title Block
100
AcDbLine
 10
9.25
 20
0.75
 30
0.0
 11
9.25
 21
1.499999999999999
 31
0.0
  0
LINE
  5
C8
330
18
100
AcDbEntity
  8
Title Block
100
AcDbLine
 10
9.25
 20
0.75
 30
0.0
 11
9.25
 21
0.25
 31
0.0
  0
LINE
  5
C9
330
18
100
AcDbEntity
  8
Title Block
100
AcDbLine
 10
9.25
 20
0.75
 30
0.0
 11
10.75
 21
0.75
 31
0.0
  0
LINE
  5
CA
330
18
100
AcDbEntity
  8
Title Block
100
AcDbLine
 10
7.5
 20
0.5
 30
0.0
 11
7.5
 21
0.25
 31
0.0
  0
LINE
  5
CB
330
18
100
AcDbEntity
  8
Title Block
100
AcDbLine
 10
7.5
 20
0.5
 30
0.0
 11
7.5
 21
1.0
 31
0.0
  0
LINE
  5
CD
330
18
100
AcDbEntity
  8
Title Block
100
AcDbLine
 10
10.25
 20
0.75
 30
0.0
 11
10.25
 21
0.25
 31
0.0
  0
POINT
  5
D0
330
18
100
AcDbEntity
  8
Title Block
100
AcDbPoint
 10
11.0
 20
8.5
 30
0.0
  0
POINT
  5
D2
330
18
100
AcDbEntity
  8
Title Block
100
AcDbPoint
 10
11.0
 20
0.0
 30
0.0
  0
POINT
  5
D4
330
18
100
AcDbEntity
  8
Title Block
100
AcDbPoint
 10
0.0
 20
0.0
 30
0.0
  0
POINT
  5
D6
330
18
100
AcDbEntity
  8
Title Block
100
AcDbPoint
 10
0.0
 20
8.500000000000001
 30
0.0
  0
MTEXT
  5
EC
330
18
100
AcDbEntity
  8
Text
100
AcDbMText
 10
0.375
 20
0.6250000000000009
 30
0.0
 40
0.09
 41
0.25
 71
     5
 72
     5
  1
R
 73
     1
 44
1.0
1001
ACAD
1000
MTEXTBEGIN
1070
    73
1070
     1
1070
    44
1040
1.0
1070
    74
1070
     0
1000
MTEXTEND
  0
MTEXT
  5
ED
330
18
100
AcDbEntity
  8
Text
100
AcDbMText
 10
0.75
 20
0.6250000000000009
 30
0.0
 40
0.07
 41
0.5
 71
     5
 72
     5
  1
7-11-07
 73
     1
 44
1.0
1001
ACAD
1000
MTEXTBEGIN
1070
    73
1070
     1
1070
    44
1040
1.0
1070
    74
1070
     0
1000
MTEXTEND
  0
MTEXT
  5
EE
330
18
100
AcDbEntity
  8
Text
100
AcDbMText
 10
1.1875
 20
0.6250000000000009
 30
0.0
 40
0.09
 41
0.375
 71
     5
 72
     5
  1
DTP
 73
     1
 44
1.0
1001
ACAD
1000
MTEXTBEGIN
1070
    73
1070
     1
1070
    44
1040
1.0
1070
    74
1070
     0
1000
MTEXTEND
  0
MTEXT
  5
F0
330
18
100
AcDbEntity
  8
Text
100
AcDbMText
 10
3.125
 20
0.6250000000000005
 30
0.0
 40
0.09
 41
2.75
 71
     5
 72
     5
  1
DRAWING RELEASED
 73
     1
 44
1.0
1001
ACAD
1000
MTEXTBEGIN
1070
    73
1070
     1
1070
    44
1040
1.0
1070
    74
1070
     0
1000
MTEXTEND
  0
MTEXT
  5
F6
330
18
100
AcDbEntity
  8
Text
100
AcDbMText
 10
7.474999999999999
 20
0.85
 30
0.0
 40
0.09
 41
0.75
 71
     6
 72
     5
  1
DTP
 73
     1
 44
1.0
1001
ACAD
1000
MTEXTBEGIN
1070
    73
1070
     1
1070
    44
1040
1.0
1070
    74
1070
     0
1000
MTEXTEND
  0
MTEXT
  5
F7
330
18
100
AcDbEntity
  8
Text
100
AcDbMText
 10
7.474999999999999
 20
0.5999999999999999
 30
0.0
 40
0.09
 41
0.75
 71
     6
 72
     5
  1
7-11-07
 73
     1
 44
1.0
1001
ACAD
1000
MTEXTBEGIN
1070
    73
1070
     1
1070
    44
1040
1.0
1070
    74
1070
     0
1000
MTEXTEND
  0
MTEXT
  5
FF
330
18
100
AcDbEntity
  8
Text
100
AcDbMText
 10
7.474999999999999
 20
0.3500000000000001
 30
0.0
 40
0.09
 41
0.75
 71
     6
 72
     5
  1
DJWA
 73
     1
 44
1.0
1001
ACAD
1000
MTEXTBEGIN
1070
    73
1070
     1
1070
    44
1040
1.0
1070
    74
1070
     0
1000
MTEXTEND
  0
MTEXT
  5
102
330
18
100
AcDbEntity
  8
Text
100
AcDbMText
 10
8.75
 20
2.625
 30
0.0
 40
0.09
 41
4.0
 71
     5
 72
     5
  1
FHDEC2X2.dwg
 73
     1
 44
1.0
1001
ACAD
1000
MTEXTBEGIN
1070
    73
1070
     1
1070
    44
1040
1.0
1070
    74
1070
     0
1000
MTEXTEND
  0
MTEXT
  5
103
330
18
100
AcDbEntity
  8
Text
100
AcDbMText
 10
8.75
 20
1.75
 30
0.0
 40
0.09
 41
4.0
 71
     5
 72
     5
  1
PANDUCT TYPES H AND HS 2x2 WIRING DUCT AND\PFIBERRUNNER 2x2 END CAP (FHDEC2X2)\PMARKETING DRAWING
 73
     1
 44
1.0
1001
ACAD
1000
MTEXTBEGIN
1070
    73
1070
     1
1070
    44
1040
1.0
1070
    74
1070
     0
1000
MTEXTEND
  0
MTEXT
  5
104
330
18
100
AcDbEntity
  8
Text
100
AcDbMText
 10
10.0
 20
0.8749999999999998
 30
0.0
 40
0.12
 41
1.5
 71
     5
 72
     5
  1
FULL
 73
     1
 44
1.0
1001
ACAD
1000
MTEXTBEGIN
1070
    73
1070
     1
1070
    44
1040
1.0
1070
    74
1070
     0
1000
MTEXTEND
  0
MTEXT
  5
105
330
18
100
AcDbEntity
  8
Text
100
AcDbMText
 10
9.75
 20
0.5
 30
0.0
 40
0.12
 41
1.0
 71
     5
 72
     5
  1
36897-684
 73
     1
 44
1.0
1001
ACAD
1000
MTEXTBEGIN
1070
    73
1070
     1
1070
    44
1040
1.0
1070
    74
1070
     0
1000
MTEXTEND
  0
TEXT
  5
2C7
330
18
100
AcDbEntity
  8
Text
100
AcDbText
 10
2.962063660649032
 20
6.735438879623742
 30
0.0
 40
0.125
  1
TOP VIEW
100
AcDbText
  0
TEXT
  5
2C8
330
18
100
AcDbEntity
  8
Text
100
AcDbText
 10
2.849037073562559
 20
3.250144356817799
 30
0.0
 40
0.125
  1
FRONT VIEW
100
AcDbText
  0
TEXT
  5
2C9
330
18
100
AcDbEntity
  8
Text
100
AcDbText
 10
7.900000104833598
 20
3.211484427370329
 30
0.0
 40
0.125
  1
RIGHT SIDE VIEW
100
AcDbText
  0
MTEXT
  5
2DB
330
18
100
AcDbEntity
  8
Text
100
AcDbMText
 10
1.560400281422708
 20
0.626249074032665
 30
0.0
 40
0.07
 41
0.375
 71
     5
 72
     5
  1
DJWA
 73
     1
 44
1.0
1001
ACAD
1000
MTEXTBEGIN
1070
    73
1070
     1
1070
    44
1040
1.0
1070
    74
1070
     0
1000
MTEXTEND
  0
LINE
  5
2E9
330
18
100
AcDbEntity
  8
Object
100
AcDbLine
 10
8.314
 20
3.646924703604388
 30
0.0
 11
8.314
 21
3.632924703604389
 31
0.0
  0
LINE
  5
2EA
330
18
100
AcDbEntity
  8
Object
100
AcDbLine
 10
8.314
 20
5.660924703604388
 30
0.0
 11
8.314
 21
5.646924703604389
 31
0.0
  0
LINE
  5
2EB
330
18
100
AcDbEntity
  8
Object
100
AcDbLine
 10
8.314
 20
5.646924703604389
 30
0.0
 11
8.314
 21
5.624924703604389
 31
0.0
  0
LINE
  5
2EC
330
18
100
AcDbEntity
  8
Object
100
AcDbLine
 10
8.314
 20
5.624924703604389
 30
0.0
 11
8.314
 21
5.600924703604388
 31
0.0
  0
LINE
  5
2ED
330
18
100
AcDbEntity
  8
Object
100
AcDbLine
 10
8.314
 20
3.692924703604389
 30
0.0
 11
8.314
 21
3.667924703604389
 31
0.0
  0
LINE
  5
2EE
330
18
100
AcDbEntity
  8
Object
100
AcDbLine
 10
8.314
 20
3.667924703604389
 30
0.0
 11
8.314
 21
3.646924703604388
 31
0.0
  0
LINE
  5
2EF
330
18
100
AcDbEntity
  8
Object
100
AcDbLine
 10
8.314
 20
3.632924703604389
 30
0.0
 11
8.314
 21
3.627924703604389
 31
0.0
  0
LINE
  5
2F0
330
18
100
AcDbEntity
  8
Object
100
AcDbLine
 10
8.314
 20
5.600924703604388
 30
0.0
 11
8.314
 21
3.692924703604389
 31
0.0
  0
LINE
  5
2F1
330
18
100
AcDbEntity
  8
Object
100
AcDbLine
 10
8.314
 20
5.665924703604389
 30
0.0
 11
8.314
 21
5.660924703604388
 31
0.0
  0
LINE
  5
2F2
330
18
100
AcDbEntity
  8
Object
100
AcDbLine
 10
8.338
 20
5.708924703604388
 30
0.0
 11
8.362999999999999
 21
5.715924703604389
 31
0.0
  0
LINE
  5
2F3
330
18
100
AcDbEntity
  8
Object
100
AcDbLine
 10
8.362999999999999
 20
5.715924703604389
 30
0.0
 11
8.362999999999999
 21
5.712924703604389
 31
0.0
  0
LINE
  5
2F4
330
18
100
AcDbEntity
  8
Object
100
AcDbLine
 10
8.362999999999999
 20
5.712924703604389
 30
0.0
 11
8.362
 21
5.706924703604388
 31
0.0
  0
LINE
  5
2F5
330
18
100
AcDbEntity
  8
Object
100
AcDbLine
 10
8.362
 20
5.706924703604388
 30
0.0
 11
8.362
 21
5.695924703604388
 31
0.0
  0
LINE
  5
2F6
330
18
100
AcDbEntity
  8
Object
100
AcDbLine
 10
8.362
 20
5.695924703604388
 30
0.0
 11
8.362
 21
5.681924703604389
 31
0.0
  0
LINE
  5
2F7
330
18
100
AcDbEntity
  8
Object
100
AcDbLine
 10
8.362
 20
5.681924703604389
 30
0.0
 11
8.338
 21
5.676924703604388
 31
0.0
  0
LINE
  5
2F8
330
18
100
AcDbEntity
  8
Object
100
AcDbLine
 10
8.338
 20
5.676924703604388
 30
0.0
 11
8.32
 21
5.663924703604388
 31
0.0
  0
LINE
  5
2F9
330
18
100
AcDbEntity
  8
Object
100
AcDbLine
 10
8.338
 20
5.708924703604388
 30
0.0
 11
8.32
 21
5.689924703604389
 31
0.0
  0
LINE
  5
2FA
330
18
100
AcDbEntity
  8
Object
100
AcDbLine
 10
8.32
 20
5.663924703604388
 30
0.0
 11
8.314
 21
5.646924703604389
 31
0.0
  0
LINE
  5
2FB
330
18
100
AcDbEntity
  8
Object
100
AcDbLine
 10
8.314
 20
5.646924703604389
 30
0.0
 11
8.314
 21
5.660924703604388
 31
0.0
  0
LINE
  5
2FC
330
18
100
AcDbEntity
  8
Object
100
AcDbLine
 10
8.314
 20
5.660924703604388
 30
0.0
 11
8.314
 21
5.665924703604389
 31
0.0
  0
LINE
  5
2FD
330
18
100
AcDbEntity
  8
Object
100
AcDbLine
 10
8.314
 20
5.665924703604389
 30
0.0
 11
8.32
 21
5.689924703604389
 31
0.0
  0
LINE
  5
2FE
330
18
100
AcDbEntity
  8
Object
100
AcDbLine
 10
8.338
 20
3.692924703604389
 30
0.0
 11
8.362999999999999
 21
3.692924703604389
 31
0.0
  0
LINE
  5
2FF
330
18
100
AcDbEntity
  8
Object
100
AcDbLine
 10
8.338
 20
5.600924703604388
 30
0.0
 11
8.362999999999999
 21
5.600924703604388
 31
0.0
  0
LINE
  5
300
330
18
100
AcDbEntity
  8
Object
100
AcDbLine
 10
8.362999999999999
 20
5.600924703604388
 30
0.0
 11
8.362999999999999
 21
3.692924703604389
 31
0.0
  0
LINE
  5
301
330
18
100
AcDbEntity
  8
Object
100
AcDbLine
 10
8.338
 20
5.600924703604388
 30
0.0
 11
8.32
 21
5.600924703604388
 31
0.0
  0
LINE
  5
302
330
18
100
AcDbEntity
  8
Object
100
AcDbLine
 10
8.338
 20
3.692924703604389
 30
0.0
 11
8.32
 21
3.692924703604389
 31
0.0
  0
LINE
  5
303
330
18
100
AcDbEntity
  8
Object
100
AcDbLine
 10
8.32
 20
3.692924703604389
 30
0.0
 11
8.314
 21
3.692924703604389
 31
0.0
  0
LINE
  5
304
330
18
100
AcDbEntity
  8
Object
100
AcDbLine
 10
8.314
 20
3.692924703604389
 30
0.0
 11
8.314
 21
5.600924703604388
 31
0.0
  0
LINE
  5
305
330
18
100
AcDbEntity
  8
Object
100
AcDbLine
 10
8.314
 20
5.600924703604388
 30
0.0
 11
8.32
 21
5.600924703604388
 31
0.0
  0
LINE
  5
306
330
18
100
AcDbEntity
  8
Object
100
AcDbLine
 10
8.362999999999999
 20
3.579924703604389
 30
0.0
 11
8.362999999999999
 21
3.577924703604388
 31
0.0
  0
LINE
  5
307
330
18
100
AcDbEntity
  8
Object
100
AcDbLine
 10
8.362999999999999
 20
3.577924703604388
 30
0.0
 11
8.338
 21
3.584924703604388
 31
0.0
  0
LINE
  5
308
330
18
100
AcDbEntity
  8
Object
100
AcDbLine
 10
8.338
 20
3.615924703604389
 30
0.0
 11
8.362
 21
3.610924703604388
 31
0.0
  0
LINE
  5
309
330
18
100
AcDbEntity
  8
Object
100
AcDbLine
 10
8.362
 20
3.610924703604388
 30
0.0
 11
8.362
 21
3.596924703604388
 31
0.0
  0
LINE
  5
30A
330
18
100
AcDbEntity
  8
Object
100
AcDbLine
 10
8.362
 20
3.596924703604388
 30
0.0
 11
8.362
 21
3.585924703604388
 31
0.0
  0
LINE
  5
30B
330
18
100
AcDbEntity
  8
Object
100
AcDbLine
 10
8.362
 20
3.585924703604388
 30
0.0
 11
8.362999999999999
 21
3.579924703604389
 31
0.0
  0
LINE
  5
30C
330
18
100
AcDbEntity
  8
Object
100
AcDbLine
 10
8.338
 20
3.615924703604389
 30
0.0
 11
8.32
 21
3.628924703604389
 31
0.0
  0
LINE
  5
30D
330
18
100
AcDbEntity
  8
Object
100
AcDbLine
 10
8.338
 20
3.584924703604388
 30
0.0
 11
8.32
 21
3.602924703604388
 31
0.0
  0
LINE
  5
30E
330
18
100
AcDbEntity
  8
Object
100
AcDbLine
 10
8.32
 20
3.602924703604388
 30
0.0
 11
8.314
 21
3.627924703604389
 31
0.0
  0
LINE
  5
30F
330
18
100
AcDbEntity
  8
Object
100
AcDbLine
 10
8.314
 20
3.627924703604389
 30
0.0
 11
8.314
 21
3.632924703604389
 31
0.0
  0
LINE
  5
310
330
18
100
AcDbEntity
  8
Object
100
AcDbLine
 10
8.314
 20
3.632924703604389
 30
0.0
 11
8.314
 21
3.646924703604388
 31
0.0
  0
LINE
  5
311
330
18
100
AcDbEntity
  8
Object
100
AcDbLine
 10
8.314
 20
3.646924703604388
 30
0.0
 11
8.32
 21
3.628924703604389
 31
0.0
  0
LINE
  5
312
330
18
100
AcDbEntity
  8
Object
100
AcDbLine
 10
8.362999999999999
 20
5.715924703604389
 30
0.0
 11
8.338
 21
5.708924703604388
 31
0.0
  0
LINE
  5
313
330
18
100
AcDbEntity
  8
Object
100
AcDbLine
 10
8.338
 20
5.708924703604388
 30
0.0
 11
8.32
 21
5.689924703604389
 31
0.0
  0
LINE
  5
314
330
18
100
AcDbEntity
  8
Object
100
AcDbLine
 10
8.32
 20
5.689924703604389
 30
0.0
 11
8.314
 21
5.665924703604389
 31
0.0
  0
LINE
  5
315
330
18
100
AcDbEntity
  8
Object
100
AcDbLine
 10
8.362999999999999
 20
5.600924703604388
 30
0.0
 11
8.362999999999999
 21
5.622924703604389
 31
0.0
  0
LINE
  5
316
330
18
100
AcDbEntity
  8
Object
100
AcDbLine
 10
8.362
 20
5.664924703604389
 30
0.0
 11
8.362
 21
5.644924703604388
 31
0.0
  0
LINE
  5
317
330
18
100
AcDbEntity
  8
Object
100
AcDbLine
 10
8.362
 20
5.644924703604388
 30
0.0
 11
8.362999999999999
 21
5.622924703604389
 31
0.0
  0
LINE
  5
318
330
18
100
AcDbEntity
  8
Object
100
AcDbLine
 10
8.362
 20
5.664924703604389
 30
0.0
 11
8.362
 21
5.681924703604389
 31
0.0
  0
LINE
  5
319
330
18
100
AcDbEntity
  8
Object
100
AcDbLine
 10
8.314
 20
5.600924703604388
 30
0.0
 11
8.314
 21
5.624924703604389
 31
0.0
  0
LINE
  5
31A
330
18
100
AcDbEntity
  8
Object
100
AcDbLine
 10
8.314
 20
5.624924703604389
 30
0.0
 11
8.314
 21
5.646924703604389
 31
0.0
  0
LINE
  5
31B
330
18
100
AcDbEntity
  8
Object
100
AcDbLine
 10
8.362999999999999
 20
3.577924703604388
 30
0.0
 11
8.338
 21
3.584924703604388
 31
0.0
  0
LINE
  5
31C
330
18
100
AcDbEntity
  8
Object
100
AcDbLine
 10
8.338
 20
3.584924703604388
 30
0.0
 11
8.32
 21
3.602924703604388
 31
0.0
  0
LINE
  5
31D
330
18
100
AcDbEntity
  8
Object
100
AcDbLine
 10
8.32
 20
3.602924703604388
 30
0.0
 11
8.314
 21
3.627924703604389
 31
0.0
  0
LINE
  5
31E
330
18
100
AcDbEntity
  8
Object
100
AcDbLine
 10
8.362999999999999
 20
3.692924703604389
 30
0.0
 11
8.362999999999999
 21
3.669924703604388
 31
0.0
  0
LINE
  5
31F
330
18
100
AcDbEntity
  8
Object
100
AcDbLine
 10
8.362999999999999
 20
3.669924703604388
 30
0.0
 11
8.362
 21
3.648924703604389
 31
0.0
  0
LINE
  5
320
330
18
100
AcDbEntity
  8
Object
100
AcDbLine
 10
8.362
 20
3.648924703604389
 30
0.0
 11
8.362
 21
3.628924703604389
 31
0.0
  0
LINE
  5
321
330
18
100
AcDbEntity
  8
Object
100
AcDbLine
 10
8.362
 20
3.628924703604389
 30
0.0
 11
8.362
 21
3.610924703604388
 31
0.0
  0
LINE
  5
322
330
18
100
AcDbEntity
  8
Object
100
AcDbLine
 10
8.314
 20
3.646924703604388
 30
0.0
 11
8.314
 21
3.667924703604389
 31
0.0
  0
LINE
  5
323
330
18
100
AcDbEntity
  8
Object
100
AcDbLine
 10
8.314
 20
3.667924703604389
 30
0.0
 11
8.314
 21
3.692924703604389
 31
0.0
  0
LINE
  5
324
330
18
100
AcDbEntity
  8
Object
100
AcDbLine
 10
8.362999999999999
 20
5.715924703604389
 30
0.0
 11
8.419
 21
5.716924703604388
 31
0.0
  0
LINE
  5
325
330
18
100
AcDbEntity
  8
Object
100
AcDbLine
 10
8.419
 20
5.716924703604388
 30
0.0
 11
8.419
 21
5.714924703604388
 31
0.0
  0
LINE
  5
326
330
18
100
AcDbEntity
  8
Object
100
AcDbLine
 10
8.419
 20
5.601924703604389
 30
0.0
 11
8.419
 21
5.621924703604388
 31
0.0
  0
LINE
  5
327
330
18
100
AcDbEntity
  8
Object
100
AcDbLine
 10
8.419
 20
5.621924703604388
 30
0.0
 11
8.419
 21
5.643924703604389
 31
0.0
  0
LINE
  5
328
330
18
100
AcDbEntity
  8
Object
100
AcDbLine
 10
8.419
 20
5.707924703604389
 30
0.0
 11
8.419
 21
5.714924703604388
 31
0.0
  0
LINE
  5
329
330
18
100
AcDbEntity
  8
Object
100
AcDbLine
 10
8.419
 20
5.663924703604388
 30
0.0
 11
8.419
 21
5.682924703604388
 31
0.0
  0
LINE
  5
32A
330
18
100
AcDbEntity
  8
Object
100
AcDbLine
 10
8.419
 20
5.707924703604389
 30
0.0
 11
8.419
 21
5.697924703604389
 31
0.0
  0
LINE
  5
32B
330
18
100
AcDbEntity
  8
Object
100
AcDbLine
 10
8.419
 20
5.697924703604389
 30
0.0
 11
8.419
 21
5.682924703604388
 31
0.0
  0
LINE
  5
32C
330
18
100
AcDbEntity
  8
Object
100
AcDbLine
 10
8.419
 20
5.643924703604389
 30
0.0
 11
8.419
 21
5.663924703604388
 31
0.0
  0
LINE
  5
32D
330
18
100
AcDbEntity
  8
Object
100
AcDbLine
 10
8.362999999999999
 20
5.600924703604388
 30
0.0
 11
8.419
 21
5.601924703604389
 31
0.0
  0
LINE
  5
32E
330
18
100
AcDbEntity
  8
Object
100
AcDbLine
 10
8.419
 20
5.601924703604389
 30
0.0
 11
8.419
 21
4.925924703604389
 31
0.0
  0
LINE
  5
32F
330
18
100
AcDbEntity
  8
Object
100
AcDbLine
 10
8.419
 20
4.925924703604389
 30
0.0
 11
8.419
 21
3.866924703604389
 31
0.0
  0
LINE
  5
330
330
18
100
AcDbEntity
  8
Object
100
AcDbLine
 10
8.419
 20
3.866924703604389
 30
0.0
 11
8.419
 21
3.691924703604388
 31
0.0
  0
LINE
  5
331
330
18
100
AcDbEntity
  8
Object
100
AcDbLine
 10
8.419
 20
3.691924703604388
 30
0.0
 11
8.362999999999999
 21
3.692924703604389
 31
0.0
  0
LINE
  5
332
330
18
100
AcDbEntity
  8
Object
100
AcDbLine
 10
8.419
 20
3.670924703604388
 30
0.0
 11
8.419
 21
3.691924703604388
 31
0.0
  0
LINE
  5
333
330
18
100
AcDbEntity
  8
Object
100
AcDbLine
 10
8.419
 20
3.578924703604388
 30
0.0
 11
8.419
 21
3.576924703604388
 31
0.0
  0
LINE
  5
334
330
18
100
AcDbEntity
  8
Object
100
AcDbLine
 10
8.419
 20
3.576924703604388
 30
0.0
 11
8.362999999999999
 21
3.577924703604388
 31
0.0
  0
LINE
  5
335
330
18
100
AcDbEntity
  8
Object
100
AcDbLine
 10
8.419
 20
3.648924703604389
 30
0.0
 11
8.419
 21
3.670924703604388
 31
0.0
  0
LINE
  5
336
330
18
100
AcDbEntity
  8
Object
100
AcDbLine
 10
8.419
 20
3.578924703604388
 30
0.0
 11
8.419
 21
3.584924703604388
 31
0.0
  0
LINE
  5
337
330
18
100
AcDbEntity
  8
Object
100
AcDbLine
 10
8.419
 20
3.594924703604388
 30
0.0
 11
8.419
 21
3.609924703604388
 31
0.0
  0
LINE
  5
338
330
18
100
AcDbEntity
  8
Object
100
AcDbLine
 10
8.419
 20
3.648924703604389
 30
0.0
 11
8.419
 21
3.628924703604389
 31
0.0
  0
LINE
  5
339
330
18
100
AcDbEntity
  8
Object
100
AcDbLine
 10
8.419
 20
3.628924703604389
 30
0.0
 11
8.419
 21
3.609924703604388
 31
0.0
  0
LINE
  5
33A
330
18
100
AcDbEntity
  8
Object
100
AcDbLine
 10
8.419
 20
3.584924703604388
 30
0.0
 11
8.419
 21
3.594924703604388
 31
0.0
  0
LINE
  5
33B
330
18
100
AcDbEntity
  8
Object
100
AcDbLine
 10
8.419
 20
5.716924703604388
 30
0.0
 11
8.362999999999999
 21
5.715924703604389
 31
0.0
  0
LINE
  5
33C
330
18
100
AcDbEntity
  8
Object
100
AcDbLine
 10
8.362999999999999
 20
3.577924703604388
 30
0.0
 11
8.419
 21
3.576924703604388
 31
0.0
  0
LINE
  5
33D
330
18
100
AcDbEntity
  8
Object
100
AcDbLine
 10
8.419
 20
3.670924703604388
 30
0.0
 11
8.419
 21
3.691924703604388
 31
0.0
  0
LINE
  5
33E
330
18
100
AcDbEntity
  8
Object
100
AcDbLine
 10
8.419
 20
3.576924703604388
 30
0.0
 11
8.419
 21
3.578924703604388
 31
0.0
  0
LINE
  5
33F
330
18
100
AcDbEntity
  8
Object
100
AcDbLine
 10
8.419
 20
3.628924703604389
 30
0.0
 11
8.419
 21
3.648924703604389
 31
0.0
  0
LINE
  5
340
330
18
100
AcDbEntity
  8
Object
100
AcDbLine
 10
8.419
 20
3.584924703604388
 30
0.0
 11
8.419
 21
3.594924703604388
 31
0.0
  0
LINE
  5
341
330
18
100
AcDbEntity
  8
Object
100
AcDbLine
 10
8.419
 20
3.594924703604388
 30
0.0
 11
8.419
 21
3.609924703604388
 31
0.0
  0
LINE
  5
342
330
18
100
AcDbEntity
  8
Object
100
AcDbLine
 10
8.419
 20
3.609924703604388
 30
0.0
 11
8.419
 21
3.628924703604389
 31
0.0
  0
LINE
  5
343
330
18
100
AcDbEntity
  8
Object
100
AcDbLine
 10
8.419
 20
3.578924703604388
 30
0.0
 11
8.419
 21
3.584924703604388
 31
0.0
  0
LINE
  5
344
330
18
100
AcDbEntity
  8
Object
100
AcDbLine
 10
8.419
 20
3.648924703604389
 30
0.0
 11
8.419
 21
3.670924703604388
 31
0.0
  0
LINE
  5
345
330
18
100
AcDbEntity
  8
Object
100
AcDbLine
 10
8.419
 20
3.691924703604388
 30
0.0
 11
8.419
 21
3.866924703604389
 31
0.0
  0
LINE
  5
346
330
18
100
AcDbEntity
  8
Object
100
AcDbLine
 10
8.419
 20
4.925924703604389
 30
0.0
 11
8.419
 21
5.601924703604389
 31
0.0
  0
LINE
  5
347
330
18
100
AcDbEntity
  8
Object
100
AcDbLine
 10
8.419
 20
5.601924703604389
 30
0.0
 11
8.419
 21
5.621924703604388
 31
0.0
  0
LINE
  5
348
330
18
100
AcDbEntity
  8
Object
100
AcDbLine
 10
8.419
 20
5.707924703604389
 30
0.0
 11
8.419
 21
5.714924703604388
 31
0.0
  0
LINE
  5
349
330
18
100
AcDbEntity
  8
Object
100
AcDbLine
 10
8.419
 20
5.643924703604389
 30
0.0
 11
8.419
 21
5.663924703604388
 31
0.0
  0
LINE
  5
34A
330
18
100
AcDbEntity
  8
Object
100
AcDbLine
 10
8.419
 20
5.697924703604389
 30
0.0
 11
8.419
 21
5.682924703604388
 31
0.0
  0
LINE
  5
34B
330
18
100
AcDbEntity
  8
Object
100
AcDbLine
 10
8.419
 20
5.682924703604388
 30
0.0
 11
8.419
 21
5.663924703604388
 31
0.0
  0
LINE
  5
34C
330
18
100
AcDbEntity
  8
Object
100
AcDbLine
 10
8.419
 20
5.697924703604389
 30
0.0
 11
8.419
 21
5.707924703604389
 31
0.0
  0
LINE
  5
34D
330
18
100
AcDbEntity
  8
Object
100
AcDbLine
 10
8.419
 20
5.621924703604388
 30
0.0
 11
8.419
 21
5.643924703604389
 31
0.0
  0
LINE
  5
34E
330
18
100
AcDbEntity
  8
Object
100
AcDbLine
 10
8.419
 20
5.714924703604388
 30
0.0
 11
8.419
 21
5.716924703604388
 31
0.0
  0
LINE
  5
34F
330
18
100
AcDbEntity
  8
Object
100
AcDbLine
 10
8.838
 20
4.867924703604389
 30
0.0
 11
8.868
 21
4.846924703604388
 31
0.0
  0
LINE
  5
350
330
18
100
AcDbEntity
  8
Object
100
AcDbLine
 10
8.868
 20
4.846924703604388
 30
0.0
 11
8.887
 21
4.815924703604388
 31
0.0
  0
LINE
  5
351
330
18
100
AcDbEntity
  8
Object
100
AcDbLine
 10
8.887
 20
3.976924703604388
 30
0.0
 11
8.868
 21
3.945924703604388
 31
0.0
  0
LINE
  5
352
330
18
100
AcDbEntity
  8
Object
100
AcDbLine
 10
8.868
 20
3.945924703604388
 30
0.0
 11
8.838
 21
3.924924703604388
 31
0.0
  0
LINE
  5
353
330
18
100
AcDbEntity
  8
Object
100
AcDbLine
 10
8.838
 20
4.867924703604389
 30
0.0
 11
8.804999999999999
 21
4.875924703604388
 31
0.0
  0
LINE
  5
354
330
18
100
AcDbEntity
  8
Object
100
AcDbLine
 10
8.894
 20
4.782924703604388
 30
0.0
 11
8.887
 21
4.815924703604388
 31
0.0
  0
LINE
  5
355
330
18
100
AcDbEntity
  8
Object
100
AcDbLine
 10
8.804999999999999
 20
3.916924703604388
 30
0.0
 11
8.838
 21
3.924924703604388
 31
0.0
  0
LINE
  5
356
330
18
100
AcDbEntity
  8
Object
100
AcDbLine
 10
8.887
 20
3.976924703604388
 30
0.0
 11
8.894
 21
4.010924703604389
 31
0.0
  0
LINE
  5
357
330
18
100
AcDbEntity
  8
Object
100
AcDbLine
 10
8.804999999999999
 20
4.875924703604388
 30
0.0
 11
8.448
 21
4.894924703604388
 31
0.0
  0
LINE
  5
358
330
18
100
AcDbEntity
  8
Object
100
AcDbLine
 10
8.894
 20
4.010924703604389
 30
0.0
 11
8.894
 21
4.782924703604388
 31
0.0
  0
LINE
  5
359
330
18
100
AcDbEntity
  8
Object
100
AcDbLine
 10
8.448
 20
3.897924703604389
 30
0.0
 11
8.804999999999999
 21
3.916924703604388
 31
0.0
  0
LINE
  5
35A
330
18
100
AcDbEntity
  8
Object
100
AcDbLine
 10
8.448
 20
4.894924703604388
 30
0.0
 11
8.436999999999999
 21
4.897924703604388
 31
0.0
  0
LINE
  5
35B
330
18
100
AcDbEntity
  8
Object
100
AcDbLine
 10
8.448
 20
3.897924703604389
 30
0.0
 11
8.436999999999999
 21
3.895924703604388
 31
0.0
  0
LINE
  5
35C
330
18
100
AcDbEntity
  8
Object
100
AcDbLine
 10
8.436999999999999
 20
3.895924703604388
 30
0.0
 11
8.426999999999999
 21
3.888924703604388
 31
0.0
  0
LINE
  5
35D
330
18
100
AcDbEntity
  8
Object
100
AcDbLine
 10
8.436999999999999
 20
4.897924703604388
 30
0.0
 11
8.426999999999999
 21
4.904924703604388
 31
0.0
  0
LINE
  5
35E
330
18
100
AcDbEntity
  8
Object
100
AcDbLine
 10
8.426999999999999
 20
4.904924703604388
 30
0.0
 11
8.420999999999999
 21
4.914924703604389
 31
0.0
  0
LINE
  5
35F
330
18
100
AcDbEntity
  8
Object
100
AcDbLine
 10
8.426999999999999
 20
3.888924703604388
 30
0.0
 11
8.420999999999999
 21
3.877924703604389
 31
0.0
  0
LINE
  5
360
330
18
100
AcDbEntity
  8
Object
100
AcDbLine
 10
8.420999999999999
 20
3.877924703604389
 30
0.0
 11
8.419
 21
3.866924703604389
 31
0.0
  0
LINE
  5
361
330
18
100
AcDbEntity
  8
Object
100
AcDbLine
 10
8.420999999999999
 20
4.914924703604389
 30
0.0
 11
8.419
 21
4.925924703604389
 31
0.0
  0
LINE
  5
362
330
18
100
AcDbEntity
  8
Object
100
AcDbLine
 10
8.894
 20
3.584924703604388
 30
0.0
 11
8.887
 21
3.584924703604388
 31
0.0
  0
LINE
  5
363
330
18
100
AcDbEntity
  8
Object
100
AcDbLine
 10
8.887
 20
3.584924703604388
 30
0.0
 11
8.868
 21
3.584924703604388
 31
0.0
  0
LINE
  5
364
330
18
100
AcDbEntity
  8
Object
100
AcDbLine
 10
8.868
 20
3.584924703604388
 30
0.0
 11
8.838
 21
3.583924703604389
 31
0.0
  0
LINE
  5
365
330
18
100
AcDbEntity
  8
Object
100
AcDbLine
 10
8.838
 20
3.583924703604389
 30
0.0
 11
8.804999999999999
 21
3.582924703604388
 31
0.0
  0
LINE
  5
366
330
18
100
AcDbEntity
  8
Object
100
AcDbLine
 10
8.804999999999999
 20
3.582924703604388
 30
0.0
 11
8.448
 21
3.576924703604388
 31
0.0
  0
LINE
  5
367
330
18
100
AcDbEntity
  8
Object
100
AcDbLine
 10
8.448
 20
3.576924703604388
 30
0.0
 11
8.436999999999999
 21
3.576924703604388
 31
0.0
  0
LINE
  5
368
330
18
100
AcDbEntity
  8
Object
100
AcDbLine
 10
8.436999999999999
 20
3.576924703604388
 30
0.0
 11
8.426999999999999
 21
3.576924703604388
 31
0.0
  0
LINE
  5
369
330
18
100
AcDbEntity
  8
Object
100
AcDbLine
 10
8.426999999999999
 20
3.576924703604388
 30
0.0
 11
8.420999999999999
 21
3.576924703604388
 31
0.0
  0
LINE
  5
36A
330
18
100
AcDbEntity
  8
Object
100
AcDbLine
 10
8.420999999999999
 20
3.576924703604388
 30
0.0
 11
8.419
 21
3.576924703604388
 31
0.0
  0
LINE
  5
36B
330
18
100
AcDbEntity
  8
Object
100
AcDbLine
 10
8.436999999999999
 20
3.576924703604388
 30
0.0
 11
8.448
 21
3.576924703604388
 31
0.0
  0
LINE
  5
36C
330
18
100
AcDbEntity
  8
Object
100
AcDbLine
 10
8.436999999999999
 20
3.672924703604389
 30
0.0
 11
8.448
 21
3.672924703604389
 31
0.0
  0
LINE
  5
36D
330
18
100
AcDbEntity
  8
Object
100
AcDbLine
 10
8.448
 20
3.672924703604389
 30
0.0
 11
8.448
 21
3.576924703604388
 31
0.0
  0
LINE
  5
36E
330
18
100
AcDbEntity
  8
Object
100
AcDbLine
 10
8.426999999999999
 20
3.576924703604388
 30
0.0
 11
8.436999999999999
 21
3.576924703604388
 31
0.0
  0
LINE
  5
36F
330
18
100
AcDbEntity
  8
Object
100
AcDbLine
 10
8.436999999999999
 20
3.672924703604389
 30
0.0
 11
8.426999999999999
 21
3.673924703604388
 31
0.0
  0
LINE
  5
370
330
18
100
AcDbEntity
  8
Object
100
AcDbLine
 10
8.426999999999999
 20
3.673924703604388
 30
0.0
 11
8.420999999999999
 21
3.673924703604388
 31
0.0
  0
LINE
  5
371
330
18
100
AcDbEntity
  8
Object
100
AcDbLine
 10
8.426999999999999
 20
3.576924703604388
 30
0.0
 11
8.420999999999999
 21
3.576924703604388
 31
0.0
  0
LINE
  5
372
330
18
100
AcDbEntity
  8
Object
100
AcDbLine
 10
8.420999999999999
 20
3.576924703604388
 30
0.0
 11
8.419
 21
3.576924703604388
 31
0.0
  0
LINE
  5
373
330
18
100
AcDbEntity
  8
Object
100
AcDbLine
 10
8.420999999999999
 20
3.673924703604388
 30
0.0
 11
8.419
 21
3.673924703604388
 31
0.0
  0
LINE
  5
374
330
18
100
AcDbEntity
  8
Object
100
AcDbLine
 10
8.769
 20
5.318924703604388
 30
0.0
 11
8.769
 21
5.191924703604389
 31
0.0
  0
LINE
  5
375
330
18
100
AcDbEntity
  8
Object
100
AcDbLine
 10
8.769
 20
5.191924703604389
 30
0.0
 11
8.419
 21
5.199924703604389
 31
0.0
  0
LINE
  5
376
330
18
100
AcDbEntity
  8
Object
100
AcDbLine
 10
8.769
 20
5.318924703604388
 30
0.0
 11
8.419
 21
5.331924703604388
 31
0.0
  0
LINE
  5
377
330
18
100
AcDbEntity
  8
Object
100
AcDbLine
 10
8.419
 20
3.752924703604389
 30
0.0
 11
8.665
 21
3.756924703604389
 31
0.0
  0
LINE
  5
378
330
18
100
AcDbEntity
  8
Object
100
AcDbLine
 10
8.894
 20
3.664924703604389
 30
0.0
 11
8.887
 21
3.664924703604389
 31
0.0
  0
LINE
  5
379
330
18
100
AcDbEntity
  8
Object
100
AcDbLine
 10
8.887
 20
3.664924703604389
 30
0.0
 11
8.868
 21
3.665924703604388
 31
0.0
  0
LINE
  5
37A
330
18
100
AcDbEntity
  8
Object
100
AcDbLine
 10
8.868
 20
3.665924703604388
 30
0.0
 11
8.838
 21
3.665924703604388
 31
0.0
  0
LINE
  5
37B
330
18
100
AcDbEntity
  8
Object
100
AcDbLine
 10
8.838
 20
3.665924703604388
 30
0.0
 11
8.804999999999999
 21
3.666924703604388
 31
0.0
  0
LINE
  5
37C
330
18
100
AcDbEntity
  8
Object
100
AcDbLine
 10
8.804999999999999
 20
3.666924703604388
 30
0.0
 11
8.448
 21
3.672924703604389
 31
0.0
  0
LINE
  5
37D
330
18
100
AcDbEntity
  8
Object
100
AcDbLine
 10
8.448
 20
3.672924703604389
 30
0.0
 11
8.436999999999999
 21
3.672924703604389
 31
0.0
  0
LINE
  5
37E
330
18
100
AcDbEntity
  8
Object
100
AcDbLine
 10
8.436999999999999
 20
3.672924703604389
 30
0.0
 11
8.426999999999999
 21
3.673924703604388
 31
0.0
  0
LINE
  5
37F
330
18
100
AcDbEntity
  8
Object
100
AcDbLine
 10
8.426999999999999
 20
3.673924703604388
 30
0.0
 11
8.420999999999999
 21
3.673924703604388
 31
0.0
  0
LINE
  5
380
330
18
100
AcDbEntity
  8
Object
100
AcDbLine
 10
8.420999999999999
 20
3.673924703604388
 30
0.0
 11
8.419
 21
3.673924703604388
 31
0.0
  0
LINE
  5
381
330
18
100
AcDbEntity
  8
Object
100
AcDbLine
 10
8.419
 20
5.035924703604388
 30
0.0
 11
8.769
 21
5.026924703604389
 31
0.0
  0
LINE
  5
382
330
18
100
AcDbEntity
  8
Object
100
AcDbLine
 10
8.419
 20
5.124924703604389
 30
0.0
 11
8.769
 21
5.115924703604388
 31
0.0
  0
LINE
  5
383
330
18
100
AcDbEntity
  8
Object
100
AcDbLine
 10
8.769
 20
5.115924703604388
 30
0.0
 11
8.769
 21
5.026924703604389
 31
0.0
  0
LINE
  5
384
330
18
100
AcDbEntity
  8
Object
100
AcDbLine
 10
8.769
 20
5.348924703604389
 30
0.0
 11
8.769
 21
5.379924703604388
 31
0.0
  0
LINE
  5
385
330
18
100
AcDbEntity
  8
Object
100
AcDbLine
 10
8.769
 20
5.409924703604389
 30
0.0
 11
8.769
 21
5.435924703604388
 31
0.0
  0
LINE
  5
386
330
18
100
AcDbEntity
  8
Object
100
AcDbLine
 10
8.769
 20
5.456924703604388
 30
0.0
 11
8.769
 21
5.472924703604388
 31
0.0
  0
LINE
  5
387
330
18
100
AcDbEntity
  8
Object
100
AcDbLine
 10
8.419
 20
5.496924703604388
 30
0.0
 11
8.769
 21
5.483924703604388
 31
0.0
  0
LINE
  5
388
330
18
100
AcDbEntity
  8
Object
100
AcDbLine
 10
8.769
 20
5.483924703604388
 30
0.0
 11
8.769
 21
5.481924703604389
 31
0.0
  0
LINE
  5
389
330
18
100
AcDbEntity
  8
Object
100
AcDbLine
 10
8.769
 20
5.481924703604389
 30
0.0
 11
8.769
 21
5.472924703604388
 31
0.0
  0
LINE
  5
38A
330
18
100
AcDbEntity
  8
Object
100
AcDbLine
 10
8.769
 20
5.435924703604388
 30
0.0
 11
8.769
 21
5.456924703604388
 31
0.0
  0
LINE
  5
38B
330
18
100
AcDbEntity
  8
Object
100
AcDbLine
 10
8.769
 20
5.379924703604388
 30
0.0
 11
8.769
 21
5.409924703604389
 31
0.0
  0
LINE
  5
38C
330
18
100
AcDbEntity
  8
Object
100
AcDbLine
 10
8.769
 20
5.318924703604388
 30
0.0
 11
8.769
 21
5.348924703604389
 31
0.0
  0
LINE
  5
38D
330
18
100
AcDbEntity
  8
Object
100
AcDbLine
 10
8.448
 20
3.897924703604389
 30
0.0
 11
8.436999999999999
 21
3.895924703604388
 31
0.0
  0
LINE
  5
38E
330
18
100
AcDbEntity
  8
Object
100
AcDbLine
 10
8.436999999999999
 20
3.895924703604388
 30
0.0
 11
8.426999999999999
 21
3.888924703604388
 31
0.0
  0
LINE
  5
38F
330
18
100
AcDbEntity
  8
Object
100
AcDbLine
 10
8.426999999999999
 20
3.888924703604388
 30
0.0
 11
8.420999999999999
 21
3.877924703604389
 31
0.0
  0
LINE
  5
390
330
18
100
AcDbEntity
  8
Object
100
AcDbLine
 10
8.420999999999999
 20
3.877924703604389
 30
0.0
 11
8.419
 21
3.866924703604389
 31
0.0
  0
LINE
  5
391
330
18
100
AcDbEntity
  8
Object
100
AcDbLine
 10
8.448
 20
4.894924703604388
 30
0.0
 11
8.436999999999999
 21
4.897924703604388
 31
0.0
  0
LINE
  5
392
330
18
100
AcDbEntity
  8
Object
100
AcDbLine
 10
8.436999999999999
 20
4.897924703604388
 30
0.0
 11
8.426999999999999
 21
4.904924703604388
 31
0.0
  0
LINE
  5
393
330
18
100
AcDbEntity
  8
Object
100
AcDbLine
 10
8.426999999999999
 20
4.904924703604388
 30
0.0
 11
8.420999999999999
 21
4.914924703604389
 31
0.0
  0
LINE
  5
394
330
18
100
AcDbEntity
  8
Object
100
AcDbLine
 10
8.420999999999999
 20
4.914924703604389
 30
0.0
 11
8.419
 21
4.925924703604389
 31
0.0
  0
LINE
  5
395
330
18
100
AcDbEntity
  8
Object
100
AcDbLine
 10
8.769
 20
5.026924703604389
 30
0.0
 11
8.769
 21
5.006924703604388
 31
0.0
  0
LINE
  5
396
330
18
100
AcDbEntity
  8
Object
100
AcDbLine
 10
8.769
 20
5.006924703604388
 30
0.0
 11
8.769
 21
4.972924703604388
 31
0.0
  0
LINE
  5
397
330
18
100
AcDbEntity
  8
Object
100
AcDbLine
 10
8.769
 20
4.972924703604388
 30
0.0
 11
8.769
 21
4.931924703604389
 31
0.0
  0
LINE
  5
398
330
18
100
AcDbEntity
  8
Object
100
AcDbLine
 10
8.769
 20
4.931924703604389
 30
0.0
 11
8.769
 21
4.887924703604388
 31
0.0
  0
LINE
  5
399
330
18
100
AcDbEntity
  8
Object
100
AcDbLine
 10
8.769
 20
4.887924703604388
 30
0.0
 11
8.445
 21
4.895924703604388
 31
0.0
  0
LINE
  5
39A
330
18
100
AcDbEntity
  8
Object
100
AcDbLine
 10
8.769
 20
5.167924703604389
 30
0.0
 11
8.769
 21
5.191924703604389
 31
0.0
  0
LINE
  5
39B
330
18
100
AcDbEntity
  8
Object
100
AcDbLine
 10
8.769
 20
5.115924703604388
 30
0.0
 11
8.769
 21
5.126924703604388
 31
0.0
  0
LINE
  5
39C
330
18
100
AcDbEntity
  8
Object
100
AcDbLine
 10
8.769
 20
5.167924703604389
 30
0.0
 11
8.769
 21
5.144924703604388
 31
0.0
  0
LINE
  5
39D
330
18
100
AcDbEntity
  8
Object
100
AcDbLine
 10
8.769
 20
5.144924703604388
 30
0.0
 11
8.769
 21
5.126924703604388
 31
0.0
  0
LINE
  5
39E
330
18
100
AcDbEntity
  8
Object
100
AcDbLine
 10
8.755
 20
3.782924703604388
 30
0.0
 11
8.762999999999999
 21
3.789924703604389
 31
0.0
  0
LINE
  5
39F
330
18
100
AcDbEntity
  8
Object
100
AcDbLine
 10
8.762999999999999
 20
3.789924703604389
 30
0.0
 11
8.766999999999999
 21
3.798924703604388
 31
0.0
  0
LINE
  5
3A0
330
18
100
AcDbEntity
  8
Object
100
AcDbLine
 10
8.769
 20
3.807924703604388
 30
0.0
 11
8.769
 21
3.868924703604388
 31
0.0
  0
LINE
  5
3A1
330
18
100
AcDbEntity
  8
Object
100
AcDbLine
 10
8.746999999999999
 20
3.778924703604388
 30
0.0
 11
8.755
 21
3.782924703604388
 31
0.0
  0
LINE
  5
3A2
330
18
100
AcDbEntity
  8
Object
100
AcDbLine
 10
8.766999999999999
 20
3.798924703604388
 30
0.0
 11
8.769
 21
3.807924703604388
 31
0.0
  0
LINE
  5
3A3
330
18
100
AcDbEntity
  8
Object
100
AcDbLine
 10
8.746999999999999
 20
3.778924703604388
 30
0.0
 11
8.672
 21
3.757924703604389
 31
0.0
  0
LINE
  5
3A4
330
18
100
AcDbEntity
  8
Object
100
AcDbLine
 10
8.672
 20
3.757924703604389
 30
0.0
 11
8.665
 21
3.756924703604389
 31
0.0
  0
LINE
  5
3A5
330
18
100
AcDbEntity
  8
Object
100
AcDbLine
 10
8.665
 20
3.756924703604389
 30
0.0
 11
8.419
 21
3.752924703604389
 31
0.0
  0
LINE
  5
3A6
330
18
100
AcDbEntity
  8
Object
100
AcDbLine
 10
8.769
 20
3.871924703604388
 30
0.0
 11
8.769
 21
3.879924703604388
 31
0.0
  0
LINE
  5
3A7
330
18
100
AcDbEntity
  8
Object
100
AcDbLine
 10
8.769
 20
3.914924703604389
 30
0.0
 11
8.769
 21
3.895924703604388
 31
0.0
  0
LINE
  5
3A8
330
18
100
AcDbEntity
  8
Object
100
AcDbLine
 10
8.769
 20
3.895924703604388
 30
0.0
 11
8.769
 21
3.879924703604388
 31
0.0
  0
LINE
  5
3A9
330
18
100
AcDbEntity
  8
Object
100
AcDbLine
 10
8.769
 20
3.871924703604388
 30
0.0
 11
8.769
 21
3.868924703604388
 31
0.0
  0
LINE
  5
3AA
330
18
100
AcDbEntity
  8
Object
100
AcDbLine
 10
8.769
 20
3.868924703604388
 30
0.0
 11
8.419
 21
3.856924703604388
 31
0.0
  0
LINE
  5
3AB
330
18
100
AcDbEntity
  8
Object
100
AcDbLine
 10
8.769
 20
4.877924703604389
 30
0.0
 11
8.769
 21
4.887924703604388
 31
0.0
  0
LINE
  5
3AC
330
18
100
AcDbEntity
  8
Object
100
AcDbLine
 10
8.419
 20
3.856924703604388
 30
0.0
 11
8.769
 21
3.868924703604388
 31
0.0
  0
LINE
  5
3AD
330
18
100
AcDbEntity
  8
Object
100
AcDbLine
 10
8.769
 20
5.483924703604388
 30
0.0
 11
8.419
 21
5.496924703604388
 31
0.0
  0
LINE
  5
3AE
330
18
100
AcDbEntity
  8
Object
100
AcDbLine
 10
8.894
 20
4.010924703604389
 30
0.0
 11
8.887
 21
3.976924703604388
 31
0.0
  0
LINE
  5
3AF
330
18
100
AcDbEntity
  8
Object
100
AcDbLine
 10
8.887
 20
3.976924703604388
 30
0.0
 11
8.868
 21
3.945924703604388
 31
0.0
  0
LINE
  5
3B0
330
18
100
AcDbEntity
  8
Object
100
AcDbLine
 10
8.868
 20
3.945924703604388
 30
0.0
 11
8.838
 21
3.924924703604388
 31
0.0
  0
LINE
  5
3B1
330
18
100
AcDbEntity
  8
Object
100
AcDbLine
 10
8.838
 20
3.924924703604388
 30
0.0
 11
8.804999999999999
 21
3.916924703604388
 31
0.0
  0
LINE
  5
3B2
330
18
100
AcDbEntity
  8
Object
100
AcDbLine
 10
8.894
 20
4.010924703604389
 30
0.0
 11
8.894
 21
4.782924703604388
 31
0.0
  0
LINE
  5
3B3
330
18
100
AcDbEntity
  8
Object
100
AcDbLine
 10
8.804999999999999
 20
4.875924703604388
 30
0.0
 11
8.448
 21
4.894924703604388
 31
0.0
  0
LINE
  5
3B4
330
18
100
AcDbEntity
  8
Object
100
AcDbLine
 10
8.894
 20
4.782924703604388
 30
0.0
 11
8.887
 21
4.815924703604388
 31
0.0
  0
LINE
  5
3B5
330
18
100
AcDbEntity
  8
Object
100
AcDbLine
 10
8.887
 20
4.815924703604388
 30
0.0
 11
8.868
 21
4.846924703604388
 31
0.0
  0
LINE
  5
3B6
330
18
100
AcDbEntity
  8
Object
100
AcDbLine
 10
8.868
 20
4.846924703604388
 30
0.0
 11
8.838
 21
4.867924703604389
 31
0.0
  0
LINE
  5
3B7
330
18
100
AcDbEntity
  8
Object
100
AcDbLine
 10
8.838
 20
4.867924703604389
 30
0.0
 11
8.804999999999999
 21
4.875924703604388
 31
0.0
  0
LINE
  5
3B8
330
18
100
AcDbEntity
  8
Object
100
AcDbLine
 10
8.448
 20
3.897924703604389
 30
0.0
 11
8.804999999999999
 21
3.916924703604388
 31
0.0
  0
LINE
  5
3B9
330
18
100
AcDbEntity
  8
Object
100
AcDbLine
 10
8.894
 20
3.584924703604388
 30
0.0
 11
8.894
 21
3.664924703604389
 31
0.0
  0
LINE
  5
3BA
330
18
100
AcDbEntity
  8
Object
100
AcDbLine
 10
8.448
 20
3.672924703604389
 30
0.0
 11
8.804999999999999
 21
3.666924703604388
 31
0.0
  0
LINE
  5
3BB
330
18
100
AcDbEntity
  8
Object
100
AcDbLine
 10
8.804999999999999
 20
3.666924703604388
 30
0.0
 11
8.804999999999999
 21
3.582924703604388
 31
0.0
  0
LINE
  5
3BC
330
18
100
AcDbEntity
  8
Object
100
AcDbLine
 10
8.804999999999999
 20
3.582924703604388
 30
0.0
 11
8.448
 21
3.576924703604388
 31
0.0
  0
LINE
  5
3BD
330
18
100
AcDbEntity
  8
Object
100
AcDbLine
 10
8.887
 20
3.664924703604389
 30
0.0
 11
8.894
 21
3.664924703604389
 31
0.0
  0
LINE
  5
3BE
330
18
100
AcDbEntity
  8
Object
100
AcDbLine
 10
8.894
 20
3.664924703604389
 30
0.0
 11
8.894
 21
3.584924703604388
 31
0.0
  0
LINE
  5
3BF
330
18
100
AcDbEntity
  8
Object
100
AcDbLine
 10
8.894
 20
3.584924703604388
 30
0.0
 11
8.887
 21
3.584924703604388
 31
0.0
  0
LINE
  5
3C0
330
18
100
AcDbEntity
  8
Object
100
AcDbLine
 10
8.887
 20
3.664924703604389
 30
0.0
 11
8.868
 21
3.665924703604388
 31
0.0
  0
LINE
  5
3C1
330
18
100
AcDbEntity
  8
Object
100
AcDbLine
 10
8.868
 20
3.584924703604388
 30
0.0
 11
8.887
 21
3.584924703604388
 31
0.0
  0
LINE
  5
3C2
330
18
100
AcDbEntity
  8
Object
100
AcDbLine
 10
8.868
 20
3.665924703604388
 30
0.0
 11
8.838
 21
3.665924703604388
 31
0.0
  0
LINE
  5
3C3
330
18
100
AcDbEntity
  8
Object
100
AcDbLine
 10
8.868
 20
3.584924703604388
 30
0.0
 11
8.838
 21
3.583924703604389
 31
0.0
  0
LINE
  5
3C4
330
18
100
AcDbEntity
  8
Object
100
AcDbLine
 10
8.838
 20
3.583924703604389
 30
0.0
 11
8.804999999999999
 21
3.582924703604388
 31
0.0
  0
LINE
  5
3C5
330
18
100
AcDbEntity
  8
Object
100
AcDbLine
 10
8.838
 20
3.665924703604388
 30
0.0
 11
8.804999999999999
 21
3.666924703604388
 31
0.0
  0
LINE
  5
3C6
330
18
100
AcDbEntity
  8
Object
100
AcDbLine
 10
8.769
 20
5.191924703604389
 30
0.0
 11
8.769
 21
5.318924703604388
 31
0.0
  0
LINE
  5
3C7
330
18
100
AcDbEntity
  8
Object
100
AcDbLine
 10
8.769
 20
5.144924703604388
 30
0.0
 11
8.769
 21
5.167924703604389
 31
0.0
  0
LINE
  5
3C8
330
18
100
AcDbEntity
  8
Object
100
AcDbLine
 10
8.769
 20
3.868924703604388
 30
0.0
 11
8.769
 21
3.871924703604388
 31
0.0
  0
LINE
  5
3C9
330
18
100
AcDbEntity
  8
Object
100
AcDbLine
 10
8.769
 20
3.879924703604388
 30
0.0
 11
8.769
 21
3.895924703604388
 31
0.0
  0
LINE
  5
3CA
330
18
100
AcDbEntity
  8
Object
100
AcDbLine
 10
8.769
 20
3.895924703604388
 30
0.0
 11
8.769
 21
3.914924703604389
 31
0.0
  0
LINE
  5
3CB
330
18
100
AcDbEntity
  8
Object
100
AcDbLine
 10
8.769
 20
3.871924703604388
 30
0.0
 11
8.769
 21
3.879924703604388
 31
0.0
  0
LINE
  5
3CC
330
18
100
AcDbEntity
  8
Object
100
AcDbLine
 10
8.769
 20
4.877924703604389
 30
0.0
 11
8.769
 21
4.887924703604388
 31
0.0
  0
LINE
  5
3CD
330
18
100
AcDbEntity
  8
Object
100
AcDbLine
 10
8.769
 20
4.887924703604388
 30
0.0
 11
8.769
 21
4.931924703604389
 31
0.0
  0
LINE
  5
3CE
330
18
100
AcDbEntity
  8
Object
100
AcDbLine
 10
8.769
 20
4.931924703604389
 30
0.0
 11
8.769
 21
4.972924703604388
 31
0.0
  0
LINE
  5
3CF
330
18
100
AcDbEntity
  8
Object
100
AcDbLine
 10
8.769
 20
4.972924703604388
 30
0.0
 11
8.769
 21
5.006924703604388
 31
0.0
  0
LINE
  5
3D0
330
18
100
AcDbEntity
  8
Object
100
AcDbLine
 10
8.769
 20
5.006924703604388
 30
0.0
 11
8.769
 21
5.026924703604389
 31
0.0
  0
LINE
  5
3D1
330
18
100
AcDbEntity
  8
Object
100
AcDbLine
 10
8.769
 20
5.026924703604389
 30
0.0
 11
8.769
 21
5.115924703604388
 31
0.0
  0
LINE
  5
3D2
330
18
100
AcDbEntity
  8
Object
100
AcDbLine
 10
8.769
 20
5.167924703604389
 30
0.0
 11
8.769
 21
5.191924703604389
 31
0.0
  0
LINE
  5
3D3
330
18
100
AcDbEntity
  8
Object
100
AcDbLine
 10
8.769
 20
5.318924703604388
 30
0.0
 11
8.769
 21
5.348924703604389
 31
0.0
  0
LINE
  5
3D4
330
18
100
AcDbEntity
  8
Object
100
AcDbLine
 10
8.769
 20
5.472924703604388
 30
0.0
 11
8.769
 21
5.481924703604389
 31
0.0
  0
LINE
  5
3D5
330
18
100
AcDbEntity
  8
Object
100
AcDbLine
 10
8.769
 20
5.379924703604388
 30
0.0
 11
8.769
 21
5.409924703604389
 31
0.0
  0
LINE
  5
3D6
330
18
100
AcDbEntity
  8
Object
100
AcDbLine
 10
8.769
 20
5.409924703604389
 30
0.0
 11
8.769
 21
5.435924703604388
 31
0.0
  0
LINE
  5
3D7
330
18
100
AcDbEntity
  8
Object
100
AcDbLine
 10
8.769
 20
5.435924703604388
 30
0.0
 11
8.769
 21
5.456924703604388
 31
0.0
  0
LINE
  5
3D8
330
18
100
AcDbEntity
  8
Object
100
AcDbLine
 10
8.769
 20
5.456924703604388
 30
0.0
 11
8.769
 21
5.472924703604388
 31
0.0
  0
LINE
  5
3D9
330
18
100
AcDbEntity
  8
Object
100
AcDbLine
 10
8.769
 20
5.348924703604389
 30
0.0
 11
8.769
 21
5.379924703604388
 31
0.0
  0
LINE
  5
3DA
330
18
100
AcDbEntity
  8
Object
100
AcDbLine
 10
8.769
 20
5.481924703604389
 30
0.0
 11
8.769
 21
5.483924703604388
 31
0.0
  0
LINE
  5
3DB
330
18
100
AcDbEntity
  8
Object
100
AcDbLine
 10
8.769
 20
3.807924703604388
 30
0.0
 11
8.769
 21
3.868924703604388
 31
0.0
  0
LINE
  5
3DC
330
18
100
AcDbEntity
  8
Object
100
AcDbLine
 10
8.769
 20
5.144924703604388
 30
0.0
 11
8.769
 21
5.126924703604388
 31
0.0
  0
LINE
  5
3DD
330
18
100
AcDbEntity
  8
Object
100
AcDbLine
 10
8.769
 20
5.126924703604388
 30
0.0
 11
8.769
 21
5.115924703604388
 31
0.0
  0
LINE
  5
3DE
330
18
100
AcDbEntity
  8
Object
100
AcDbLine
 10
8.665
 20
3.756924703604389
 30
0.0
 11
8.672
 21
3.757924703604389
 31
0.0
  0
LINE
  5
3DF
330
18
100
AcDbEntity
  8
Object
100
AcDbLine
 10
8.769
 20
3.807924703604388
 30
0.0
 11
8.766999999999999
 21
3.798924703604388
 31
0.0
  0
LINE
  5
3E0
330
18
100
AcDbEntity
  8
Object
100
AcDbLine
 10
8.766999999999999
 20
3.798924703604388
 30
0.0
 11
8.762999999999999
 21
3.789924703604389
 31
0.0
  0
LINE
  5
3E1
330
18
100
AcDbEntity
  8
Object
100
AcDbLine
 10
8.762999999999999
 20
3.789924703604389
 30
0.0
 11
8.755
 21
3.782924703604388
 31
0.0
  0
LINE
  5
3E2
330
18
100
AcDbEntity
  8
Object
100
AcDbLine
 10
8.755
 20
3.782924703604388
 30
0.0
 11
8.746999999999999
 21
3.778924703604388
 31
0.0
  0
LINE
  5
3E3
330
18
100
AcDbEntity
  8
Object
100
AcDbLine
 10
8.746999999999999
 20
3.778924703604388
 30
0.0
 11
8.672
 21
3.757924703604389
 31
0.0
  0
LINE
  5
3E4
330
18
100
AcDbEntity
  8
Object
100
AcDbLine
 10
8.769
 20
5.105924703604388
 30
0.0
 11
8.777000000000001
 21
5.105924703604388
 31
0.0
  0
LINE
  5
3E5
330
18
100
AcDbEntity
  8
Object
100
AcDbLine
 10
8.777000000000001
 20
5.105924703604388
 30
0.0
 11
8.777000000000001
 21
5.097924703604388
 31
0.0
  0
LINE
  5
3E6
330
18
100
AcDbEntity
  8
Object
100
AcDbLine
 10
8.777000000000001
 20
5.005924703604389
 30
0.0
 11
8.777000000000001
 21
5.045924703604388
 31
0.0
  0
LINE
  5
3E7
330
18
100
AcDbEntity
  8
Object
100
AcDbLine
 10
8.777000000000001
 20
5.097924703604388
 30
0.0
 11
8.777000000000001
 21
5.076924703604388
 31
0.0
  0
LINE
  5
3E8
330
18
100
AcDbEntity
  8
Object
100
AcDbLine
 10
8.777000000000001
 20
5.076924703604388
 30
0.0
 11
8.777000000000001
 21
5.045924703604388
 31
0.0
  0
LINE
  5
3E9
330
18
100
AcDbEntity
  8
Object
100
AcDbLine
 10
8.777000000000001
 20
4.964924703604388
 30
0.0
 11
8.777000000000001
 21
5.005924703604389
 31
0.0
  0
LINE
  5
3EA
330
18
100
AcDbEntity
  8
Object
100
AcDbLine
 10
8.777000000000001
 20
4.877924703604389
 30
0.0
 11
8.777000000000001
 21
4.893924703604389
 31
0.0
  0
LINE
  5
3EB
330
18
100
AcDbEntity
  8
Object
100
AcDbLine
 10
8.777000000000001
 20
4.964924703604388
 30
0.0
 11
8.777000000000001
 21
4.925924703604389
 31
0.0
  0
LINE
  5
3EC
330
18
100
AcDbEntity
  8
Object
100
AcDbLine
 10
8.777000000000001
 20
4.925924703604389
 30
0.0
 11
8.777000000000001
 21
4.893924703604389
 31
0.0
  0
LINE
  5
3ED
330
18
100
AcDbEntity
  8
Object
100
AcDbLine
 10
8.777000000000001
 20
5.097924703604388
 30
0.0
 11
8.777000000000001
 21
5.105924703604388
 31
0.0
  0
LINE
  5
3EE
330
18
100
AcDbEntity
  8
Object
100
AcDbLine
 10
8.777000000000001
 20
4.893924703604389
 30
0.0
 11
8.777000000000001
 21
4.925924703604389
 31
0.0
  0
LINE
  5
3EF
330
18
100
AcDbEntity
  8
Object
100
AcDbLine
 10
8.777000000000001
 20
4.964924703604388
 30
0.0
 11
8.777000000000001
 21
5.005924703604389
 31
0.0
  0
LINE
  5
3F0
330
18
100
AcDbEntity
  8
Object
100
AcDbLine
 10
8.777000000000001
 20
5.045924703604388
 30
0.0
 11
8.777000000000001
 21
5.076924703604388
 31
0.0
  0
LINE
  5
3F1
330
18
100
AcDbEntity
  8
Object
100
AcDbLine
 10
8.777000000000001
 20
5.076924703604388
 30
0.0
 11
8.777000000000001
 21
5.097924703604388
 31
0.0
  0
LINE
  5
3F2
330
18
100
AcDbEntity
  8
Object
100
AcDbLine
 10
8.777000000000001
 20
5.005924703604389
 30
0.0
 11
8.777000000000001
 21
5.045924703604388
 31
0.0
  0
LINE
  5
3F3
330
18
100
AcDbEntity
  8
Object
100
AcDbLine
 10
8.777000000000001
 20
4.925924703604389
 30
0.0
 11
8.777000000000001
 21
4.964924703604388
 31
0.0
  0
LINE
  5
3F4
330
18
100
AcDbEntity
  8
Object
100
AcDbLine
 10
8.777000000000001
 20
4.877924703604389
 30
0.0
 11
8.777000000000001
 21
4.893924703604389
 31
0.0
  0
LINE
  5
3F5
330
18
100
AcDbEntity
  8
Object
100
AcDbLine
 10
3.599
 20
4.512924703604388
 30
0.0
 11
3.597999999999999
 21
4.507924703604389
 31
0.0
  0
LINE
  5
3F6
330
18
100
AcDbEntity
  8
Object
100
AcDbLine
 10
3.597999999999999
 20
4.507924703604389
 30
0.0
 11
3.593999999999999
 21
4.503924703604388
 31
0.0
  0
LINE
  5
3F7
330
18
100
AcDbEntity
  8
Object
100
AcDbLine
 10
3.593999999999999
 20
4.503924703604388
 30
0.0
 11
3.589999999999999
 21
4.502924703604389
 31
0.0
  0
LINE
  5
3F8
330
18
100
AcDbEntity
  8
Object
100
AcDbLine
 10
3.589999999999999
 20
4.502924703604389
 30
0.0
 11
3.576999999999999
 21
4.502924703604389
 31
0.0
  0
LINE
  5
3F9
330
18
100
AcDbEntity
  8
Object
100
AcDbLine
 10
4.134999999999999
 20
4.931924703604389
 30
0.0
 11
4.147
 21
4.920924703604388
 31
0.0
  0
LINE
  5
3FA
330
18
100
AcDbEntity
  8
Object
100
AcDbLine
 10
4.147
 20
4.920924703604388
 30
0.0
 11
4.153999999999999
 21
4.905924703604389
 31
0.0
  0
LINE
  5
3FB
330
18
100
AcDbEntity
  8
Object
100
AcDbLine
 10
4.153999999999999
 20
4.905924703604389
 30
0.0
 11
4.157
 21
4.889924703604389
 31
0.0
  0
LINE
  5
3FC
330
18
100
AcDbEntity
  8
Object
100
AcDbLine
 10
4.134999999999999
 20
4.931924703604389
 30
0.0
 11
4.121
 21
4.939924703604388
 31
0.0
  0
LINE
  5
3FD
330
18
100
AcDbEntity
  8
Object
100
AcDbLine
 10
4.157
 20
4.030924703604389
 30
0.0
 11
4.152
 21
4.004924703604388
 31
0.0
  0
LINE
  5
3FE
330
18
100
AcDbEntity
  8
Object
100
AcDbLine
 10
4.152
 20
4.004924703604388
 30
0.0
 11
4.136
 21
3.980924703604388
 31
0.0
  0
LINE
  5
3FF
330
18
100
AcDbEntity
  8
Object
100
AcDbLine
 10
4.136
 20
3.980924703604388
 30
0.0
 11
4.113
 21
3.964924703604388
 31
0.0
  0
LINE
  5
400
330
18
100
AcDbEntity
  8
Object
100
AcDbLine
 10
4.113
 20
3.964924703604388
 30
0.0
 11
4.086999999999999
 21
3.960924703604388
 31
0.0
  0
LINE
  5
401
330
18
100
AcDbEntity
  8
Object
100
AcDbLine
 10
4.157
 20
4.030924703604389
 30
0.0
 11
4.157
 21
4.889924703604389
 31
0.0
  0
LINE
  5
402
330
18
100
AcDbEntity
  8
Object
100
AcDbLine
 10
4.121
 20
4.939924703604388
 30
0.0
 11
3.862999999999999
 21
5.028924703604388
 31
0.0
  0
LINE
  5
403
330
18
100
AcDbEntity
  8
Object
100
AcDbLine
 10
3.862999999999999
 20
5.028924703604388
 30
0.0
 11
3.839
 21
5.038924703604388
 31
0.0
  0
LINE
  5
404
330
18
100
AcDbEntity
  8
Object
100
AcDbLine
 10
3.839
 20
5.038924703604388
 30
0.0
 11
3.816
 21
5.052924703604388
 31
0.0
  0
LINE
  5
405
330
18
100
AcDbEntity
  8
Object
100
AcDbLine
 10
3.701
 20
5.387924703604388
 30
0.0
 11
3.725
 21
5.371924703604388
 31
0.0
  0
LINE
  5
406
330
18
100
AcDbEntity
  8
Object
100
AcDbLine
 10
3.725
 20
5.371924703604388
 30
0.0
 11
3.74
 21
5.347924703604388
 31
0.0
  0
LINE
  5
407
330
18
100
AcDbEntity
  8
Object
100
AcDbLine
 10
3.74
 20
5.347924703604388
 30
0.0
 11
3.745
 21
5.322924703604389
 31
0.0
  0
LINE
  5
408
330
18
100
AcDbEntity
  8
Object
100
AcDbLine
 10
3.701
 20
5.387924703604388
 30
0.0
 11
3.675
 21
5.392924703604388
 31
0.0
  0
LINE
  5
409
330
18
100
AcDbEntity
  8
Object
100
AcDbLine
 10
3.745
 20
5.193924703604388
 30
0.0
 11
3.745
 21
5.322924703604389
 31
0.0
  0
LINE
  5
40A
330
18
100
AcDbEntity
  8
Object
100
AcDbLine
 10
3.816
 20
5.052924703604388
 30
0.0
 11
3.796
 21
5.070924703604388
 31
0.0
  0
LINE
  5
40B
330
18
100
AcDbEntity
  8
Object
100
AcDbLine
 10
3.796
 20
5.070924703604388
 30
0.0
 11
3.778
 21
5.092924703604388
 31
0.0
  0
LINE
  5
40C
330
18
100
AcDbEntity
  8
Object
100
AcDbLine
 10
3.778
 20
5.092924703604388
 30
0.0
 11
3.762999999999999
 21
5.115924703604388
 31
0.0
  0
LINE
  5
40D
330
18
100
AcDbEntity
  8
Object
100
AcDbLine
 10
3.762999999999999
 20
5.115924703604388
 30
0.0
 11
3.753
 21
5.141924703604388
 31
0.0
  0
LINE
  5
40E
330
18
100
AcDbEntity
  8
Object
100
AcDbLine
 10
2.968999999999999
 20
5.347924703604388
 30
0.0
 11
2.983999999999999
 21
5.371924703604388
 31
0.0
  0
LINE
  5
40F
330
18
100
AcDbEntity
  8
Object
100
AcDbLine
 10
2.983999999999999
 20
5.371924703604388
 30
0.0
 11
3.008
 21
5.387924703604388
 31
0.0
  0
LINE
  5
410
330
18
100
AcDbEntity
  8
Object
100
AcDbLine
 10
3.675
 20
5.392924703604388
 30
0.0
 11
3.034
 21
5.392924703604388
 31
0.0
  0
LINE
  5
411
330
18
100
AcDbEntity
  8
Object
100
AcDbLine
 10
3.034
 20
5.392924703604388
 30
0.0
 11
3.008
 21
5.387924703604388
 31
0.0
  0
LINE
  5
412
330
18
100
AcDbEntity
  8
Object
100
AcDbLine
 10
3.745
 20
5.193924703604388
 30
0.0
 11
3.746999999999999
 21
5.167924703604389
 31
0.0
  0
LINE
  5
413
330
18
100
AcDbEntity
  8
Object
100
AcDbLine
 10
3.746999999999999
 20
5.167924703604389
 30
0.0
 11
3.753
 21
5.141924703604388
 31
0.0
  0
LINE
  5
414
330
18
100
AcDbEntity
  8
Object
100
AcDbLine
 10
2.955999999999999
 20
5.141924703604388
 30
0.0
 11
2.946
 21
5.115924703604388
 31
0.0
  0
LINE
  5
415
330
18
100
AcDbEntity
  8
Object
100
AcDbLine
 10
2.931
 20
5.092924703604388
 30
0.0
 11
2.913
 21
5.070924703604388
 31
0.0
  0
LINE
  5
416
330
18
100
AcDbEntity
  8
Object
100
AcDbLine
 10
2.891999999999999
 20
5.052924703604388
 30
0.0
 11
2.87
 21
5.038924703604388
 31
0.0
  0
LINE
  5
417
330
18
100
AcDbEntity
  8
Object
100
AcDbLine
 10
2.621999999999999
 20
3.960924703604388
 30
0.0
 11
4.086999999999999
 21
3.960924703604388
 31
0.0
  0
LINE
  5
418
330
18
100
AcDbEntity
  8
Object
100
AcDbLine
 10
2.572999999999999
 20
3.980924703604388
 30
0.0
 11
2.596
 21
3.964924703604388
 31
0.0
  0
LINE
  5
419
330
18
100
AcDbEntity
  8
Object
100
AcDbLine
 10
2.561999999999999
 20
4.920924703604388
 30
0.0
 11
2.573999999999999
 21
4.931924703604389
 31
0.0
  0
LINE
  5
41A
330
18
100
AcDbEntity
  8
Object
100
AcDbLine
 10
2.573999999999999
 20
4.931924703604389
 30
0.0
 11
2.587
 21
4.939924703604388
 31
0.0
  0
LINE
  5
41B
330
18
100
AcDbEntity
  8
Object
100
AcDbLine
 10
2.596
 20
3.964924703604388
 30
0.0
 11
2.621999999999999
 21
3.960924703604388
 31
0.0
  0
LINE
  5
41C
330
18
100
AcDbEntity
  8
Object
100
AcDbLine
 10
3.599
 20
4.644924703604388
 30
0.0
 11
3.599
 21
4.512924703604388
 31
0.0
  0
LINE
  5
41D
330
18
100
AcDbEntity
  8
Object
100
AcDbLine
 10
3.599
 20
4.512924703604388
 30
0.0
 11
3.599
 21
4.644924703604388
 31
0.0
  0
LINE
  5
41E
330
18
100
AcDbEntity
  8
Object
100
AcDbLine
 10
3.599
 20
4.644924703604388
 30
0.0
 11
3.637
 21
4.644924703604388
 31
0.0
  0
LINE
  5
41F
330
18
100
AcDbEntity
  8
Object
100
AcDbLine
 10
3.637
 20
4.644924703604388
 30
0.0
 11
3.637
 21
4.493924703604388
 31
0.0
  0
LINE
  5
420
330
18
100
AcDbEntity
  8
Object
100
AcDbLine
 10
3.637
 20
4.493924703604388
 30
0.0
 11
3.633
 21
4.476924703604389
 31
0.0
  0
LINE
  5
421
330
18
100
AcDbEntity
  8
Object
100
AcDbLine
 10
3.599
 20
4.512924703604388
 30
0.0
 11
3.597999999999999
 21
4.507924703604389
 31
0.0
  0
LINE
  5
422
330
18
100
AcDbEntity
  8
Object
100
AcDbLine
 10
3.597999999999999
 20
4.507924703604389
 30
0.0
 11
3.593999999999999
 21
4.503924703604388
 31
0.0
  0
LINE
  5
423
330
18
100
AcDbEntity
  8
Object
100
AcDbLine
 10
3.633
 20
4.476924703604389
 30
0.0
 11
3.620999999999999
 21
4.464924703604388
 31
0.0
  0
LINE
  5
424
330
18
100
AcDbEntity
  8
Object
100
AcDbLine
 10
3.620999999999999
 20
4.464924703604388
 30
0.0
 11
3.604999999999999
 21
4.460924703604389
 31
0.0
  0
LINE
  5
425
330
18
100
AcDbEntity
  8
Object
100
AcDbLine
 10
3.593999999999999
 20
4.503924703604388
 30
0.0
 11
3.589999999999999
 21
4.502924703604389
 31
0.0
  0
LINE
  5
426
330
18
100
AcDbEntity
  8
Object
100
AcDbLine
 10
3.589999999999999
 20
4.502924703604389
 30
0.0
 11
3.576999999999999
 21
4.502924703604389
 31
0.0
  0
LINE
  5
427
330
18
100
AcDbEntity
  8
Object
100
AcDbLine
 10
3.568
 20
4.507924703604389
 30
0.0
 11
3.572
 21
4.503924703604388
 31
0.0
  0
LINE
  5
428
330
18
100
AcDbEntity
  8
Object
100
AcDbLine
 10
3.572
 20
4.503924703604388
 30
0.0
 11
3.576999999999999
 21
4.502924703604389
 31
0.0
  0
LINE
  5
429
330
18
100
AcDbEntity
  8
Object
100
AcDbLine
 10
3.604999999999999
 20
4.460924703604389
 30
0.0
 11
3.539
 21
4.460924703604389
 31
0.0
  0
LINE
  5
42A
330
18
100
AcDbEntity
  8
Object
100
AcDbLine
 10
3.539
 20
4.460924703604389
 30
0.0
 11
3.523
 21
4.464924703604388
 31
0.0
  0
LINE
  5
42B
330
18
100
AcDbEntity
  8
Object
100
AcDbLine
 10
3.523
 20
4.464924703604388
 30
0.0
 11
3.511
 21
4.476924703604389
 31
0.0
  0
LINE
  5
42C
330
18
100
AcDbEntity
  8
Object
100
AcDbLine
 10
3.506
 20
4.493924703604388
 30
0.0
 11
3.506
 21
4.644924703604388
 31
0.0
  0
LINE
  5
42D
330
18
100
AcDbEntity
  8
Object
100
AcDbLine
 10
3.506
 20
4.644924703604388
 30
0.0
 11
3.567
 21
4.644924703604388
 31
0.0
  0
LINE
  5
42E
330
18
100
AcDbEntity
  8
Object
100
AcDbLine
 10
3.567
 20
4.644924703604388
 30
0.0
 11
3.567
 21
4.512924703604388
 31
0.0
  0
LINE
  5
42F
330
18
100
AcDbEntity
  8
Object
100
AcDbLine
 10
3.567
 20
4.512924703604388
 30
0.0
 11
3.568
 21
4.507924703604389
 31
0.0
  0
LINE
  5
430
330
18
100
AcDbEntity
  8
Object
100
AcDbLine
 10
3.506
 20
4.493924703604388
 30
0.0
 11
3.511
 21
4.476924703604389
 31
0.0
  0
LINE
  5
431
330
18
100
AcDbEntity
  8
Object
100
AcDbLine
 10
3.576999999999999
 20
4.502924703604389
 30
0.0
 11
3.572
 21
4.503924703604388
 31
0.0
  0
LINE
  5
432
330
18
100
AcDbEntity
  8
Object
100
AcDbLine
 10
3.572
 20
4.503924703604388
 30
0.0
 11
3.568
 21
4.507924703604389
 31
0.0
  0
LINE
  5
433
330
18
100
AcDbEntity
  8
Object
100
AcDbLine
 10
3.568
 20
4.507924703604389
 30
0.0
 11
3.567
 21
4.512924703604388
 31
0.0
  0
LINE
  5
434
330
18
100
AcDbEntity
  8
Object
100
AcDbLine
 10
3.669
 20
4.460924703604389
 30
0.0
 11
3.718999999999999
 21
4.460924703604389
 31
0.0
  0
LINE
  5
435
330
18
100
AcDbEntity
  8
Object
100
AcDbLine
 10
3.862999999999999
 20
5.028924703604388
 30
0.0
 11
3.865
 21
5.032924703604388
 31
0.0
  0
LINE
  5
436
330
18
100
AcDbEntity
  8
Object
100
AcDbLine
 10
3.822
 20
5.060924703604388
 30
0.0
 11
3.866
 21
5.037924703604389
 31
0.0
  0
LINE
  5
437
330
18
100
AcDbEntity
  8
Object
100
AcDbLine
 10
3.866
 20
5.037924703604389
 30
0.0
 11
3.866
 21
5.036924703604388
 31
0.0
  0
LINE
  5
438
330
18
100
AcDbEntity
  8
Object
100
AcDbLine
 10
3.866
 20
5.036924703604388
 30
0.0
 11
3.865
 21
5.032924703604388
 31
0.0
  0
LINE
  5
439
330
18
100
AcDbEntity
  8
Object
100
AcDbLine
 10
3.822
 20
5.060924703604388
 30
0.0
 11
3.802999999999999
 21
5.077924703604388
 31
0.0
  0
LINE
  5
43A
330
18
100
AcDbEntity
  8
Object
100
AcDbLine
 10
3.802999999999999
 20
5.077924703604388
 30
0.0
 11
3.821
 21
5.060924703604388
 31
0.0
  0
LINE
  5
43B
330
18
100
AcDbEntity
  8
Object
100
AcDbLine
 10
3.785
 20
5.096924703604388
 30
0.0
 11
3.802999999999999
 21
5.077924703604388
 31
0.0
  0
LINE
  5
43C
330
18
100
AcDbEntity
  8
Object
100
AcDbLine
 10
3.802999999999999
 20
5.077924703604388
 30
0.0
 11
3.786
 21
5.097924703604388
 31
0.0
  0
LINE
  5
43D
330
18
100
AcDbEntity
  8
Object
100
AcDbLine
 10
3.786
 20
5.097924703604388
 30
0.0
 11
3.772
 21
5.120924703604389
 31
0.0
  0
LINE
  5
43E
330
18
100
AcDbEntity
  8
Object
100
AcDbLine
 10
3.772
 20
5.120924703604389
 30
0.0
 11
3.785
 21
5.096924703604388
 31
0.0
  0
LINE
  5
43F
330
18
100
AcDbEntity
  8
Object
100
AcDbLine
 10
3.762
 20
5.142924703604388
 30
0.0
 11
3.772
 21
5.120924703604389
 31
0.0
  0
LINE
  5
440
330
18
100
AcDbEntity
  8
Object
100
AcDbLine
 10
3.772
 20
5.120924703604389
 30
0.0
 11
3.762999999999999
 21
5.144924703604388
 31
0.0
  0
LINE
  5
441
330
18
100
AcDbEntity
  8
Object
100
AcDbLine
 10
3.762999999999999
 20
5.144924703604388
 30
0.0
 11
3.754999999999999
 21
5.193924703604388
 31
0.0
  0
LINE
  5
442
330
18
100
AcDbEntity
  8
Object
100
AcDbLine
 10
3.754999999999999
 20
5.193924703604388
 30
0.0
 11
3.754
 21
5.193924703604388
 31
0.0
  0
LINE
  5
443
330
18
100
AcDbEntity
  8
Object
100
AcDbLine
 10
3.754
 20
5.193924703604388
 30
0.0
 11
3.75
 21
5.193924703604388
 31
0.0
  0
LINE
  5
444
330
18
100
AcDbEntity
  8
Object
100
AcDbLine
 10
3.75
 20
5.193924703604388
 30
0.0
 11
3.745
 21
5.193924703604388
 31
0.0
  0
LINE
  5
445
330
18
100
AcDbEntity
  8
Object
100
AcDbLine
 10
2.621999999999999
 20
3.960924703604388
 30
0.0
 11
2.621999999999999
 21
3.955924703604388
 31
0.0
  0
LINE
  5
446
330
18
100
AcDbEntity
  8
Object
100
AcDbLine
 10
2.621999999999999
 20
3.955924703604388
 30
0.0
 11
2.621999999999999
 21
3.951924703604388
 31
0.0
  0
LINE
  5
447
330
18
100
AcDbEntity
  8
Object
100
AcDbLine
 10
2.621999999999999
 20
3.951924703604388
 30
0.0
 11
2.621999999999999
 21
3.950924703604389
 31
0.0
  0
LINE
  5
448
330
18
100
AcDbEntity
  8
Object
100
AcDbLine
 10
2.621999999999999
 20
3.950924703604389
 30
0.0
 11
2.592999999999999
 21
3.955924703604388
 31
0.0
  0
LINE
  5
449
330
18
100
AcDbEntity
  8
Object
100
AcDbLine
 10
2.592999999999999
 20
3.955924703604388
 30
0.0
 11
2.575
 21
3.967924703604388
 31
0.0
  0
LINE
  5
44A
330
18
100
AcDbEntity
  8
Object
100
AcDbLine
 10
2.575
 20
3.967924703604388
 30
0.0
 11
2.592999999999999
 21
3.955924703604388
 31
0.0
  0
LINE
  5
44B
330
18
100
AcDbEntity
  8
Object
100
AcDbLine
 10
2.575
 20
3.967924703604388
 30
0.0
 11
2.565999999999999
 21
3.973924703604388
 31
0.0
  0
LINE
  5
44C
330
18
100
AcDbEntity
  8
Object
100
AcDbLine
 10
2.565999999999999
 20
3.973924703604388
 30
0.0
 11
2.592999999999999
 21
3.955924703604388
 31
0.0
  0
LINE
  5
44D
330
18
100
AcDbEntity
  8
Object
100
AcDbLine
 10
2.572999999999999
 20
3.980924703604388
 30
0.0
 11
2.556999999999999
 21
4.004924703604388
 31
0.0
  0
LINE
  5
44E
330
18
100
AcDbEntity
  8
Object
100
AcDbLine
 10
2.565999999999999
 20
3.973924703604388
 30
0.0
 11
2.575
 21
3.967924703604388
 31
0.0
  0
LINE
  5
44F
330
18
100
AcDbEntity
  8
Object
100
AcDbLine
 10
2.547
 20
4.030924703604389
 30
0.0
 11
2.552
 21
4.030924703604389
 31
0.0
  0
LINE
  5
450
330
18
100
AcDbEntity
  8
Object
100
AcDbLine
 10
2.552
 20
4.030924703604389
 30
0.0
 11
2.556999999999999
 21
4.004924703604388
 31
0.0
  0
LINE
  5
451
330
18
100
AcDbEntity
  8
Object
100
AcDbLine
 10
2.547
 20
4.030924703604389
 30
0.0
 11
2.544
 21
4.030924703604389
 31
0.0
  0
LINE
  5
452
330
18
100
AcDbEntity
  8
Object
100
AcDbLine
 10
2.544
 20
4.030924703604389
 30
0.0
 11
2.542
 21
4.030924703604389
 31
0.0
  0
LINE
  5
453
330
18
100
AcDbEntity
  8
Object
100
AcDbLine
 10
3.034
 20
5.392924703604388
 30
0.0
 11
3.034
 21
5.397924703604388
 31
0.0
  0
LINE
  5
454
330
18
100
AcDbEntity
  8
Object
100
AcDbLine
 10
3.004
 20
5.396924703604389
 30
0.0
 11
3.034
 21
5.402924703604388
 31
0.0
  0
LINE
  5
455
330
18
100
AcDbEntity
  8
Object
100
AcDbLine
 10
3.034
 20
5.402924703604388
 30
0.0
 11
3.034
 21
5.400924703604388
 31
0.0
  0
LINE
  5
456
330
18
100
AcDbEntity
  8
Object
100
AcDbLine
 10
3.034
 20
5.400924703604388
 30
0.0
 11
3.034
 21
5.397924703604388
 31
0.0
  0
LINE
  5
457
330
18
100
AcDbEntity
  8
Object
100
AcDbLine
 10
3.004
 20
5.396924703604389
 30
0.0
 11
2.976999999999999
 21
5.378924703604388
 31
0.0
  0
LINE
  5
458
330
18
100
AcDbEntity
  8
Object
100
AcDbLine
 10
2.976999999999999
 20
5.378924703604388
 30
0.0
 11
2.971
 21
5.369924703604389
 31
0.0
  0
LINE
  5
459
330
18
100
AcDbEntity
  8
Object
100
AcDbLine
 10
2.971
 20
5.369924703604389
 30
0.0
 11
2.976999999999999
 21
5.378924703604388
 31
0.0
  0
LINE
  5
45A
330
18
100
AcDbEntity
  8
Object
100
AcDbLine
 10
2.964
 20
5.322924703604389
 30
0.0
 11
2.968999999999999
 21
5.347924703604388
 31
0.0
  0
LINE
  5
45B
330
18
100
AcDbEntity
  8
Object
100
AcDbLine
 10
2.971
 20
5.369924703604389
 30
0.0
 11
2.958999999999999
 21
5.351924703604389
 31
0.0
  0
LINE
  5
45C
330
18
100
AcDbEntity
  8
Object
100
AcDbLine
 10
2.958999999999999
 20
5.351924703604389
 30
0.0
 11
2.976999999999999
 21
5.378924703604388
 31
0.0
  0
LINE
  5
45D
330
18
100
AcDbEntity
  8
Object
100
AcDbLine
 10
2.958999999999999
 20
5.322924703604389
 30
0.0
 11
2.964
 21
5.322924703604389
 31
0.0
  0
LINE
  5
45E
330
18
100
AcDbEntity
  8
Object
100
AcDbLine
 10
2.971
 20
5.369924703604389
 30
0.0
 11
2.958999999999999
 21
5.351924703604389
 31
0.0
  0
LINE
  5
45F
330
18
100
AcDbEntity
  8
Object
100
AcDbLine
 10
2.958999999999999
 20
5.322924703604389
 30
0.0
 11
2.955
 21
5.322924703604389
 31
0.0
  0
LINE
  5
460
330
18
100
AcDbEntity
  8
Object
100
AcDbLine
 10
2.955
 20
5.322924703604389
 30
0.0
 11
2.954
 21
5.322924703604389
 31
0.0
  0
LINE
  5
461
330
18
100
AcDbEntity
  8
Object
100
AcDbLine
 10
2.926999999999999
 20
4.460924703604389
 30
0.0
 11
2.926999999999999
 21
4.535924703604388
 31
0.0
  0
LINE
  5
462
330
18
100
AcDbEntity
  8
Object
100
AcDbLine
 10
3.754
 20
5.322924703604389
 30
0.0
 11
3.754999999999999
 21
5.322924703604389
 31
0.0
  0
LINE
  5
463
330
18
100
AcDbEntity
  8
Object
100
AcDbLine
 10
3.754999999999999
 20
5.322924703604389
 30
0.0
 11
3.749
 21
5.351924703604389
 31
0.0
  0
LINE
  5
464
330
18
100
AcDbEntity
  8
Object
100
AcDbLine
 10
3.754
 20
5.322924703604389
 30
0.0
 11
3.75
 21
5.322924703604389
 31
0.0
  0
LINE
  5
465
330
18
100
AcDbEntity
  8
Object
100
AcDbLine
 10
3.75
 20
5.322924703604389
 30
0.0
 11
3.745
 21
5.322924703604389
 31
0.0
  0
LINE
  5
466
330
18
100
AcDbEntity
  8
Object
100
AcDbLine
 10
3.749
 20
5.351924703604389
 30
0.0
 11
3.732
 21
5.378924703604388
 31
0.0
  0
LINE
  5
467
330
18
100
AcDbEntity
  8
Object
100
AcDbLine
 10
3.732
 20
5.378924703604388
 30
0.0
 11
3.705
 21
5.396924703604389
 31
0.0
  0
LINE
  5
468
330
18
100
AcDbEntity
  8
Object
100
AcDbLine
 10
3.705
 20
5.396924703604389
 30
0.0
 11
3.675
 21
5.402924703604388
 31
0.0
  0
LINE
  5
469
330
18
100
AcDbEntity
  8
Object
100
AcDbLine
 10
3.442
 20
4.644924703604388
 30
0.0
 11
3.338
 21
4.644924703604388
 31
0.0
  0
LINE
  5
46A
330
18
100
AcDbEntity
  8
Object
100
AcDbLine
 10
3.165999999999999
 20
4.524924703604389
 30
0.0
 11
3.112
 21
4.644924703604388
 31
0.0
  0
LINE
  5
46B
330
18
100
AcDbEntity
  8
Object
100
AcDbLine
 10
3.539
 20
4.460924703604389
 30
0.0
 11
3.523
 21
4.464924703604388
 31
0.0
  0
LINE
  5
46C
330
18
100
AcDbEntity
  8
Object
100
AcDbLine
 10
3.523
 20
4.464924703604388
 30
0.0
 11
3.511
 21
4.476924703604389
 31
0.0
  0
LINE
  5
46D
330
18
100
AcDbEntity
  8
Object
100
AcDbLine
 10
3.511
 20
4.476924703604389
 30
0.0
 11
3.506
 21
4.493924703604388
 31
0.0
  0
LINE
  5
46E
330
18
100
AcDbEntity
  8
Object
100
AcDbLine
 10
3.887
 20
4.644924703604388
 30
0.0
 11
3.750999999999999
 21
4.644924703604388
 31
0.0
  0
LINE
  5
46F
330
18
100
AcDbEntity
  8
Object
100
AcDbLine
 10
3.845
 20
4.460924703604389
 30
0.0
 11
3.845
 21
4.606924703604388
 31
0.0
  0
LINE
  5
470
330
18
100
AcDbEntity
  8
Object
100
AcDbLine
 10
3.750999999999999
 20
4.606924703604388
 30
0.0
 11
3.788
 21
4.606924703604388
 31
0.0
  0
LINE
  5
471
330
18
100
AcDbEntity
  8
Object
100
AcDbLine
 10
3.788
 20
4.460924703604389
 30
0.0
 11
3.845
 21
4.460924703604389
 31
0.0
  0
LINE
  5
472
330
18
100
AcDbEntity
  8
Object
100
AcDbLine
 10
2.587
 20
4.939924703604388
 30
0.0
 11
2.585999999999999
 21
4.943924703604388
 31
0.0
  0
LINE
  5
473
330
18
100
AcDbEntity
  8
Object
100
AcDbLine
 10
2.568
 20
4.940924703604388
 30
0.0
 11
2.584
 21
4.948924703604388
 31
0.0
  0
LINE
  5
474
330
18
100
AcDbEntity
  8
Object
100
AcDbLine
 10
2.584
 20
4.948924703604388
 30
0.0
 11
2.584999999999999
 21
4.947924703604389
 31
0.0
  0
LINE
  5
475
330
18
100
AcDbEntity
  8
Object
100
AcDbLine
 10
2.584999999999999
 20
4.947924703604389
 30
0.0
 11
2.585999999999999
 21
4.943924703604388
 31
0.0
  0
LINE
  5
476
330
18
100
AcDbEntity
  8
Object
100
AcDbLine
 10
2.568
 20
4.940924703604388
 30
0.0
 11
2.554
 21
4.925924703604389
 31
0.0
  0
LINE
  5
477
330
18
100
AcDbEntity
  8
Object
100
AcDbLine
 10
2.561999999999999
 20
4.920924703604388
 30
0.0
 11
2.554
 21
4.905924703604389
 31
0.0
  0
LINE
  5
478
330
18
100
AcDbEntity
  8
Object
100
AcDbLine
 10
2.554
 20
4.905924703604389
 30
0.0
 11
2.552
 21
4.889924703604389
 31
0.0
  0
LINE
  5
479
330
18
100
AcDbEntity
  8
Object
100
AcDbLine
 10
4.166999999999999
 20
4.030924703604389
 30
0.0
 11
4.166999999999999
 21
4.889924703604389
 31
0.0
  0
LINE
  5
47A
330
18
100
AcDbEntity
  8
Object
100
AcDbLine
 10
3.022
 20
4.543924703604389
 30
0.0
 11
2.987
 21
4.460924703604389
 31
0.0
  0
LINE
  5
47B
330
18
100
AcDbEntity
  8
Object
100
AcDbLine
 10
3.26
 20
4.569924703604389
 30
0.0
 11
3.226999999999999
 21
4.644924703604388
 31
0.0
  0
LINE
  5
47C
330
18
100
AcDbEntity
  8
Object
100
AcDbLine
 10
2.984999999999999
 20
4.700924703604389
 30
0.0
 11
2.818999999999999
 21
4.700924703604389
 31
0.0
  0
LINE
  5
47D
330
18
100
AcDbEntity
  8
Object
100
AcDbLine
 10
3.135
 20
4.460924703604389
 30
0.0
 11
3.217
 21
4.460924703604389
 31
0.0
  0
LINE
  5
47E
330
18
100
AcDbEntity
  8
Object
100
AcDbLine
 10
3.718999999999999
 20
4.644924703604388
 30
0.0
 11
3.669
 21
4.644924703604388
 31
0.0
  0
LINE
  5
47F
330
18
100
AcDbEntity
  8
Object
100
AcDbLine
 10
3.887
 20
4.606924703604388
 30
0.0
 11
3.887
 21
4.644924703604388
 31
0.0
  0
LINE
  5
480
330
18
100
AcDbEntity
  8
Object
100
AcDbLine
 10
3.675
 20
5.397924703604388
 30
0.0
 11
3.675
 21
5.400924703604388
 31
0.0
  0
LINE
  5
481
330
18
100
AcDbEntity
  8
Object
100
AcDbLine
 10
3.675
 20
5.400924703604388
 30
0.0
 11
3.675
 21
5.402924703604388
 31
0.0
  0
LINE
  5
482
330
18
100
AcDbEntity
  8
Object
100
AcDbLine
 10
3.675
 20
5.392924703604388
 30
0.0
 11
3.675
 21
5.397924703604388
 31
0.0
  0
LINE
  5
483
330
18
100
AcDbEntity
  8
Object
100
AcDbLine
 10
3.306
 20
4.460924703604389
 30
0.0
 11
3.306
 21
4.644924703604388
 31
0.0
  0
LINE
  5
484
330
18
100
AcDbEntity
  8
Object
100
AcDbLine
 10
3.718999999999999
 20
4.460924703604389
 30
0.0
 11
3.718999999999999
 21
4.644924703604388
 31
0.0
  0
LINE
  5
485
330
18
100
AcDbEntity
  8
Object
100
AcDbLine
 10
2.958999999999999
 20
5.193924703604388
 30
0.0
 11
2.964
 21
5.193924703604388
 31
0.0
  0
LINE
  5
486
330
18
100
AcDbEntity
  8
Object
100
AcDbLine
 10
2.964
 20
5.193924703604388
 30
0.0
 11
2.962
 21
5.167924703604389
 31
0.0
  0
LINE
  5
487
330
18
100
AcDbEntity
  8
Object
100
AcDbLine
 10
2.958999999999999
 20
5.193924703604388
 30
0.0
 11
2.955
 21
5.193924703604388
 31
0.0
  0
LINE
  5
488
330
18
100
AcDbEntity
  8
Object
100
AcDbLine
 10
2.955
 20
5.193924703604388
 30
0.0
 11
2.954
 21
5.193924703604388
 31
0.0
  0
LINE
  5
489
330
18
100
AcDbEntity
  8
Object
100
AcDbLine
 10
2.955999999999999
 20
5.141924703604388
 30
0.0
 11
2.962
 21
5.167924703604389
 31
0.0
  0
LINE
  5
48A
330
18
100
AcDbEntity
  8
Object
100
AcDbLine
 10
2.931
 20
5.092924703604388
 30
0.0
 11
2.946
 21
5.115924703604388
 31
0.0
  0
LINE
  5
48B
330
18
100
AcDbEntity
  8
Object
100
AcDbLine
 10
2.947
 20
5.142924703604388
 30
0.0
 11
2.937
 21
5.120924703604389
 31
0.0
  0
LINE
  5
48C
330
18
100
AcDbEntity
  8
Object
100
AcDbLine
 10
2.937
 20
5.120924703604389
 30
0.0
 11
2.923999999999999
 21
5.096924703604388
 31
0.0
  0
LINE
  5
48D
330
18
100
AcDbEntity
  8
Object
100
AcDbLine
 10
2.923
 20
5.097924703604388
 30
0.0
 11
2.906
 21
5.077924703604388
 31
0.0
  0
LINE
  5
48E
330
18
100
AcDbEntity
  8
Object
100
AcDbLine
 10
2.891999999999999
 20
5.052924703604388
 30
0.0
 11
2.913
 21
5.070924703604388
 31
0.0
  0
LINE
  5
48F
330
18
100
AcDbEntity
  8
Object
100
AcDbLine
 10
2.923999999999999
 20
5.096924703604388
 30
0.0
 11
2.906
 21
5.077924703604388
 31
0.0
  0
LINE
  5
490
330
18
100
AcDbEntity
  8
Object
100
AcDbLine
 10
2.906
 20
5.077924703604388
 30
0.0
 11
2.887
 21
5.060924703604388
 31
0.0
  0
LINE
  5
491
330
18
100
AcDbEntity
  8
Object
100
AcDbLine
 10
2.887999999999999
 20
5.060924703604388
 30
0.0
 11
2.906
 21
5.077924703604388
 31
0.0
  0
LINE
  5
492
330
18
100
AcDbEntity
  8
Object
100
AcDbLine
 10
2.846
 20
5.028924703604388
 30
0.0
 11
2.87
 21
5.038924703604388
 31
0.0
  0
LINE
  5
493
330
18
100
AcDbEntity
  8
Object
100
AcDbLine
 10
2.887
 20
5.060924703604388
 30
0.0
 11
2.842999999999999
 21
5.037924703604389
 31
0.0
  0
LINE
  5
494
330
18
100
AcDbEntity
  8
Object
100
AcDbLine
 10
3.338
 20
4.460924703604389
 30
0.0
 11
3.442
 21
4.460924703604389
 31
0.0
  0
LINE
  5
495
330
18
100
AcDbEntity
  8
Object
100
AcDbLine
 10
2.818999999999999
 20
4.460924703604389
 30
0.0
 11
2.926999999999999
 21
4.460924703604389
 31
0.0
  0
LINE
  5
496
330
18
100
AcDbEntity
  8
Object
100
AcDbLine
 10
3.022
 20
4.543924703604389
 30
0.0
 11
3.01
 21
4.539924703604389
 31
0.0
  0
LINE
  5
497
330
18
100
AcDbEntity
  8
Object
100
AcDbLine
 10
3.01
 20
4.539924703604389
 30
0.0
 11
2.998
 21
4.536924703604388
 31
0.0
  0
LINE
  5
498
330
18
100
AcDbEntity
  8
Object
100
AcDbLine
 10
2.998
 20
4.536924703604388
 30
0.0
 11
2.984999999999999
 21
4.535924703604388
 31
0.0
  0
LINE
  5
499
330
18
100
AcDbEntity
  8
Object
100
AcDbLine
 10
3.040999999999999
 20
4.460924703604389
 30
0.0
 11
3.052
 21
4.486924703604389
 31
0.0
  0
LINE
  5
49A
330
18
100
AcDbEntity
  8
Object
100
AcDbLine
 10
3.217
 20
4.538924703604388
 30
0.0
 11
3.250999999999999
 21
4.460924703604389
 31
0.0
  0
LINE
  5
49B
330
18
100
AcDbEntity
  8
Object
100
AcDbLine
 10
3.306
 20
4.644924703604388
 30
0.0
 11
3.26
 21
4.644924703604388
 31
0.0
  0
LINE
  5
49C
330
18
100
AcDbEntity
  8
Object
100
AcDbLine
 10
3.064
 20
4.644924703604388
 30
0.0
 11
3.046
 21
4.673924703604388
 31
0.0
  0
LINE
  5
49D
330
18
100
AcDbEntity
  8
Object
100
AcDbLine
 10
3.046
 20
4.673924703604388
 30
0.0
 11
3.019
 21
4.693924703604388
 31
0.0
  0
LINE
  5
49E
330
18
100
AcDbEntity
  8
Object
100
AcDbLine
 10
3.019
 20
4.693924703604388
 30
0.0
 11
2.984999999999999
 21
4.700924703604389
 31
0.0
  0
LINE
  5
49F
330
18
100
AcDbEntity
  8
Object
100
AcDbLine
 10
3.637
 20
4.644924703604388
 30
0.0
 11
3.599
 21
4.644924703604388
 31
0.0
  0
LINE
  5
4A0
330
18
100
AcDbEntity
  8
Object
100
AcDbLine
 10
3.474
 20
4.493924703604388
 30
0.0
 11
3.474
 21
4.611924703604389
 31
0.0
  0
LINE
  5
4A1
330
18
100
AcDbEntity
  8
Object
100
AcDbLine
 10
3.217
 20
4.460924703604389
 30
0.0
 11
3.217
 21
4.538924703604388
 31
0.0
  0
LINE
  5
4A2
330
18
100
AcDbEntity
  8
Object
100
AcDbLine
 10
3.165999999999999
 20
4.644924703604388
 30
0.0
 11
3.165999999999999
 21
4.524924703604389
 31
0.0
  0
LINE
  5
4A3
330
18
100
AcDbEntity
  8
Object
100
AcDbLine
 10
2.818999999999999
 20
4.700924703604389
 30
0.0
 11
2.818999999999999
 21
4.460924703604389
 31
0.0
  0
LINE
  5
4A4
330
18
100
AcDbEntity
  8
Object
100
AcDbLine
 10
3.567
 20
4.512924703604388
 30
0.0
 11
3.567
 21
4.644924703604388
 31
0.0
  0
LINE
  5
4A5
330
18
100
AcDbEntity
  8
Object
100
AcDbLine
 10
3.845
 20
4.606924703604388
 30
0.0
 11
3.887
 21
4.606924703604388
 31
0.0
  0
LINE
  5
4A6
330
18
100
AcDbEntity
  8
Object
100
AcDbLine
 10
2.843999999999999
 20
5.032924703604388
 30
0.0
 11
2.846
 21
5.028924703604388
 31
0.0
  0
LINE
  5
4A7
330
18
100
AcDbEntity
  8
Object
100
AcDbLine
 10
2.846
 20
5.028924703604388
 30
0.0
 11
2.587
 21
4.939924703604388
 31
0.0
  0
LINE
  5
4A8
330
18
100
AcDbEntity
  8
Object
100
AcDbLine
 10
2.843999999999999
 20
5.032924703604388
 30
0.0
 11
2.842999999999999
 21
5.036924703604388
 31
0.0
  0
LINE
  5
4A9
330
18
100
AcDbEntity
  8
Object
100
AcDbLine
 10
2.584
 20
4.948924703604388
 30
0.0
 11
2.842999999999999
 21
5.037924703604389
 31
0.0
  0
LINE
  5
4AA
330
18
100
AcDbEntity
  8
Object
100
AcDbLine
 10
2.842999999999999
 20
5.037924703604389
 30
0.0
 11
2.842999999999999
 21
5.036924703604388
 31
0.0
  0
LINE
  5
4AB
330
18
100
AcDbEntity
  8
Object
100
AcDbLine
 10
3.121999999999999
 20
4.486924703604389
 30
0.0
 11
3.135
 21
4.460924703604389
 31
0.0
  0
LINE
  5
4AC
330
18
100
AcDbEntity
  8
Object
100
AcDbLine
 10
3.637
 20
4.493924703604388
 30
0.0
 11
3.633
 21
4.476924703604389
 31
0.0
  0
LINE
  5
4AD
330
18
100
AcDbEntity
  8
Object
100
AcDbLine
 10
3.633
 20
4.476924703604389
 30
0.0
 11
3.620999999999999
 21
4.464924703604388
 31
0.0
  0
LINE
  5
4AE
330
18
100
AcDbEntity
  8
Object
100
AcDbLine
 10
3.620999999999999
 20
4.464924703604388
 30
0.0
 11
3.604999999999999
 21
4.460924703604389
 31
0.0
  0
LINE
  5
4AF
330
18
100
AcDbEntity
  8
Object
100
AcDbLine
 10
3.750999999999999
 20
4.644924703604388
 30
0.0
 11
3.750999999999999
 21
4.606924703604388
 31
0.0
  0
LINE
  5
4B0
330
18
100
AcDbEntity
  8
Object
100
AcDbLine
 10
4.123999999999999
 20
4.947924703604389
 30
0.0
 11
4.125
 21
4.948924703604388
 31
0.0
  0
LINE
  5
4B1
330
18
100
AcDbEntity
  8
Object
100
AcDbLine
 10
4.125
 20
4.948924703604388
 30
0.0
 11
3.866
 21
5.037924703604389
 31
0.0
  0
LINE
  5
4B2
330
18
100
AcDbEntity
  8
Object
100
AcDbLine
 10
4.123999999999999
 20
4.947924703604389
 30
0.0
 11
4.123
 21
4.943924703604388
 31
0.0
  0
LINE
  5
4B3
330
18
100
AcDbEntity
  8
Object
100
AcDbLine
 10
4.123
 20
4.943924703604388
 30
0.0
 11
4.121
 21
4.939924703604388
 31
0.0
  0
LINE
  5
4B4
330
18
100
AcDbEntity
  8
Object
100
AcDbLine
 10
3.338
 20
4.644924703604388
 30
0.0
 11
3.338
 21
4.460924703604389
 31
0.0
  0
LINE
  5
4B5
330
18
100
AcDbEntity
  8
Object
100
AcDbLine
 10
2.926999999999999
 20
4.535924703604388
 30
0.0
 11
2.984999999999999
 21
4.535924703604388
 31
0.0
  0
LINE
  5
4B6
330
18
100
AcDbEntity
  8
Object
100
AcDbLine
 10
3.052
 20
4.486924703604389
 30
0.0
 11
3.121999999999999
 21
4.486924703604389
 31
0.0
  0
LINE
  5
4B7
330
18
100
AcDbEntity
  8
Object
100
AcDbLine
 10
3.26
 20
4.644924703604388
 30
0.0
 11
3.26
 21
4.569924703604389
 31
0.0
  0
LINE
  5
4B8
330
18
100
AcDbEntity
  8
Object
100
AcDbLine
 10
3.112
 20
4.644924703604388
 30
0.0
 11
3.064
 21
4.644924703604388
 31
0.0
  0
LINE
  5
4B9
330
18
100
AcDbEntity
  8
Object
100
AcDbLine
 10
4.163999999999999
 20
4.908924703604388
 30
0.0
 11
4.166999999999999
 21
4.889924703604389
 31
0.0
  0
LINE
  5
4BA
330
18
100
AcDbEntity
  8
Object
100
AcDbLine
 10
4.166999999999999
 20
4.889924703604389
 30
0.0
 11
4.165
 21
4.889924703604389
 31
0.0
  0
LINE
  5
4BB
330
18
100
AcDbEntity
  8
Object
100
AcDbLine
 10
4.165
 20
4.889924703604389
 30
0.0
 11
4.161999999999999
 21
4.889924703604389
 31
0.0
  0
LINE
  5
4BC
330
18
100
AcDbEntity
  8
Object
100
AcDbLine
 10
4.163999999999999
 20
4.908924703604388
 30
0.0
 11
4.155
 21
4.925924703604389
 31
0.0
  0
LINE
  5
4BD
330
18
100
AcDbEntity
  8
Object
100
AcDbLine
 10
4.157
 20
4.889924703604389
 30
0.0
 11
4.161999999999999
 21
4.889924703604389
 31
0.0
  0
LINE
  5
4BE
330
18
100
AcDbEntity
  8
Object
100
AcDbLine
 10
4.155
 20
4.925924703604389
 30
0.0
 11
4.141
 21
4.940924703604388
 31
0.0
  0
LINE
  5
4BF
330
18
100
AcDbEntity
  8
Object
100
AcDbLine
 10
4.141
 20
4.940924703604388
 30
0.0
 11
4.125
 21
4.948924703604388
 31
0.0
  0
LINE
  5
4C0
330
18
100
AcDbEntity
  8
Object
100
AcDbLine
 10
4.086999999999999
 20
3.951924703604388
 30
0.0
 11
4.086999999999999
 21
3.955924703604388
 31
0.0
  0
LINE
  5
4C1
330
18
100
AcDbEntity
  8
Object
100
AcDbLine
 10
4.086999999999999
 20
3.955924703604388
 30
0.0
 11
4.086999999999999
 21
3.960924703604388
 31
0.0
  0
LINE
  5
4C2
330
18
100
AcDbEntity
  8
Object
100
AcDbLine
 10
4.086999999999999
 20
3.950924703604389
 30
0.0
 11
4.086999999999999
 21
3.951924703604388
 31
0.0
  0
LINE
  5
4C3
330
18
100
AcDbEntity
  8
Object
100
AcDbLine
 10
2.987
 20
4.460924703604389
 30
0.0
 11
3.040999999999999
 21
4.460924703604389
 31
0.0
  0
LINE
  5
4C4
330
18
100
AcDbEntity
  8
Object
100
AcDbLine
 10
3.567
 20
4.644924703604388
 30
0.0
 11
3.506
 21
4.644924703604388
 31
0.0
  0
LINE
  5
4C5
330
18
100
AcDbEntity
  8
Object
100
AcDbLine
 10
3.669
 20
4.644924703604388
 30
0.0
 11
3.669
 21
4.460924703604389
 31
0.0
  0
LINE
  5
4C6
330
18
100
AcDbEntity
  8
Object
100
AcDbLine
 10
3.474
 20
4.493924703604388
 30
0.0
 11
3.47
 21
4.476924703604389
 31
0.0
  0
LINE
  5
4C7
330
18
100
AcDbEntity
  8
Object
100
AcDbLine
 10
3.47
 20
4.476924703604389
 30
0.0
 11
3.458
 21
4.464924703604388
 31
0.0
  0
LINE
  5
4C8
330
18
100
AcDbEntity
  8
Object
100
AcDbLine
 10
3.458
 20
4.464924703604388
 30
0.0
 11
3.442
 21
4.460924703604389
 31
0.0
  0
LINE
  5
4C9
330
18
100
AcDbEntity
  8
Object
100
AcDbLine
 10
3.250999999999999
 20
4.460924703604389
 30
0.0
 11
3.306
 21
4.460924703604389
 31
0.0
  0
LINE
  5
4CA
330
18
100
AcDbEntity
  8
Object
100
AcDbLine
 10
3.226999999999999
 20
4.644924703604388
 30
0.0
 11
3.165999999999999
 21
4.644924703604388
 31
0.0
  0
LINE
  5
4CB
330
18
100
AcDbEntity
  8
Object
100
AcDbLine
 10
3.506
 20
4.644924703604388
 30
0.0
 11
3.506
 21
4.493924703604388
 31
0.0
  0
LINE
  5
4CC
330
18
100
AcDbEntity
  8
Object
100
AcDbLine
 10
3.788
 20
4.606924703604388
 30
0.0
 11
3.788
 21
4.460924703604389
 31
0.0
  0
LINE
  5
4CD
330
18
100
AcDbEntity
  8
Object
100
AcDbLine
 10
3.754999999999999
 20
5.193924703604388
 30
0.0
 11
3.754999999999999
 21
5.322924703604389
 31
0.0
  0
LINE
  5
4CE
330
18
100
AcDbEntity
  8
Object
100
AcDbLine
 10
3.637
 20
4.493924703604388
 30
0.0
 11
3.637
 21
4.644924703604388
 31
0.0
  0
LINE
  5
4CF
330
18
100
AcDbEntity
  8
Object
100
AcDbLine
 10
2.964
 20
5.193924703604388
 30
0.0
 11
2.964
 21
5.322924703604389
 31
0.0
  0
LINE
  5
4D0
330
18
100
AcDbEntity
  8
Object
100
AcDbLine
 10
3.474
 20
4.611924703604389
 30
0.0
 11
3.47
 21
4.627924703604389
 31
0.0
  0
LINE
  5
4D1
330
18
100
AcDbEntity
  8
Object
100
AcDbLine
 10
3.47
 20
4.627924703604389
 30
0.0
 11
3.458
 21
4.639924703604389
 31
0.0
  0
LINE
  5
4D2
330
18
100
AcDbEntity
  8
Object
100
AcDbLine
 10
3.458
 20
4.639924703604389
 30
0.0
 11
3.442
 21
4.644924703604388
 31
0.0
  0
LINE
  5
4D3
330
18
100
AcDbEntity
  8
Object
100
AcDbLine
 10
3.539
 20
4.460924703604389
 30
0.0
 11
3.604999999999999
 21
4.460924703604389
 31
0.0
  0
LINE
  5
4D4
330
18
100
AcDbEntity
  8
Object
100
AcDbLine
 10
2.547
 20
4.889924703604389
 30
0.0
 11
2.552
 21
4.889924703604389
 31
0.0
  0
LINE
  5
4D5
330
18
100
AcDbEntity
  8
Object
100
AcDbLine
 10
2.552
 20
4.889924703604389
 30
0.0
 11
2.552
 21
4.030924703604389
 31
0.0
  0
LINE
  5
4D6
330
18
100
AcDbEntity
  8
Object
100
AcDbLine
 10
2.547
 20
4.889924703604389
 30
0.0
 11
2.544
 21
4.889924703604389
 31
0.0
  0
LINE
  5
4D7
330
18
100
AcDbEntity
  8
Object
100
AcDbLine
 10
2.544
 20
4.889924703604389
 30
0.0
 11
2.542
 21
4.889924703604389
 31
0.0
  0
LINE
  5
4D8
330
18
100
AcDbEntity
  8
Object
100
AcDbLine
 10
4.165
 20
4.030924703604389
 30
0.0
 11
4.166999999999999
 21
4.030924703604389
 31
0.0
  0
LINE
  5
4D9
330
18
100
AcDbEntity
  8
Object
100
AcDbLine
 10
4.166999999999999
 20
4.030924703604389
 30
0.0
 11
4.161
 21
4.000924703604388
 31
0.0
  0
LINE
  5
4DA
330
18
100
AcDbEntity
  8
Object
100
AcDbLine
 10
4.165
 20
4.030924703604389
 30
0.0
 11
4.161999999999999
 21
4.030924703604389
 31
0.0
  0
LINE
  5
4DB
330
18
100
AcDbEntity
  8
Object
100
AcDbLine
 10
4.161999999999999
 20
4.030924703604389
 30
0.0
 11
4.157
 21
4.030924703604389
 31
0.0
  0
LINE
  5
4DC
330
18
100
AcDbEntity
  8
Object
100
AcDbLine
 10
4.161
 20
4.000924703604388
 30
0.0
 11
4.142999999999999
 21
3.973924703604388
 31
0.0
  0
LINE
  5
4DD
330
18
100
AcDbEntity
  8
Object
100
AcDbLine
 10
4.142999999999999
 20
3.973924703604388
 30
0.0
 11
4.115999999999999
 21
3.955924703604388
 31
0.0
  0
LINE
  5
4DE
330
18
100
AcDbEntity
  8
Object
100
AcDbLine
 10
4.115999999999999
 20
3.955924703604388
 30
0.0
 11
4.086999999999999
 21
3.950924703604389
 31
0.0
  0
LINE
  5
4DF
330
18
100
AcDbEntity
  8
Object
100
AcDbLine
 10
3.669
 20
4.460924703604389
 30
0.0
 11
3.669
 21
4.644924703604388
 31
0.0
  0
LINE
  5
4E0
330
18
100
AcDbEntity
  8
Object
100
AcDbLine
 10
3.669
 20
4.644924703604388
 30
0.0
 11
3.718999999999999
 21
4.644924703604388
 31
0.0
  0
LINE
  5
4E1
330
18
100
AcDbEntity
  8
Object
100
AcDbLine
 10
3.718999999999999
 20
4.644924703604388
 30
0.0
 11
3.718999999999999
 21
4.460924703604389
 31
0.0
  0
LINE
  5
4E2
330
18
100
AcDbEntity
  8
Object
100
AcDbLine
 10
3.718999999999999
 20
4.460924703604389
 30
0.0
 11
3.669
 21
4.460924703604389
 31
0.0
  0
LINE
  5
4E3
330
18
100
AcDbEntity
  8
Object
100
AcDbLine
 10
3.866
 20
5.037924703604389
 30
0.0
 11
3.878999999999999
 21
5.046924703604389
 31
0.0
  0
LINE
  5
4E4
330
18
100
AcDbEntity
  8
Object
100
AcDbLine
 10
3.785
 20
5.129924703604388
 30
0.0
 11
3.774999999999999
 21
5.153924703604388
 31
0.0
  0
LINE
  5
4E5
330
18
100
AcDbEntity
  8
Object
100
AcDbLine
 10
3.754999999999999
 20
5.193924703604388
 30
0.0
 11
3.768
 21
5.202924703604388
 31
0.0
  0
LINE
  5
4E6
330
18
100
AcDbEntity
  8
Object
100
AcDbLine
 10
3.768
 20
5.202924703604388
 30
0.0
 11
3.774999999999999
 21
5.153924703604388
 31
0.0
  0
LINE
  5
4E7
330
18
100
AcDbEntity
  8
Object
100
AcDbLine
 10
2.608999999999999
 20
3.937924703604388
 30
0.0
 11
2.621999999999999
 21
3.950924703604389
 31
0.0
  0
LINE
  5
4E8
330
18
100
AcDbEntity
  8
Object
100
AcDbLine
 10
2.592999999999999
 20
3.955924703604388
 30
0.0
 11
2.565999999999999
 21
3.973924703604388
 31
0.0
  0
LINE
  5
4E9
330
18
100
AcDbEntity
  8
Object
100
AcDbLine
 10
2.565999999999999
 20
3.973924703604388
 30
0.0
 11
2.548
 21
4.000924703604388
 31
0.0
  0
LINE
  5
4EA
330
18
100
AcDbEntity
  8
Object
100
AcDbLine
 10
2.53
 20
4.017924703604388
 30
0.0
 11
2.542
 21
4.030924703604389
 31
0.0
  0
LINE
  5
4EB
330
18
100
AcDbEntity
  8
Object
100
AcDbLine
 10
2.542
 20
4.030924703604389
 30
0.0
 11
2.548
 21
4.000924703604388
 31
0.0
  0
LINE
  5
4EC
330
18
100
AcDbEntity
  8
Object
100
AcDbLine
 10
3.034
 20
5.402924703604388
 30
0.0
 11
3.020999999999999
 21
5.414924703604389
 31
0.0
  0
LINE
  5
4ED
330
18
100
AcDbEntity
  8
Object
100
AcDbLine
 10
2.976999999999999
 20
5.378924703604388
 30
0.0
 11
2.958999999999999
 21
5.351924703604389
 31
0.0
  0
LINE
  5
4EE
330
18
100
AcDbEntity
  8
Object
100
AcDbLine
 10
2.958999999999999
 20
5.351924703604389
 30
0.0
 11
2.954
 21
5.322924703604389
 31
0.0
  0
LINE
  5
4EF
330
18
100
AcDbEntity
  8
Object
100
AcDbLine
 10
2.954
 20
5.322924703604389
 30
0.0
 11
2.941
 21
5.334924703604388
 31
0.0
  0
LINE
  5
4F0
330
18
100
AcDbEntity
  8
Object
100
AcDbLine
 10
3.26
 20
4.569924703604389
 30
0.0
 11
3.26
 21
4.644924703604388
 31
0.0
  0
LINE
  5
4F1
330
18
100
AcDbEntity
  8
Object
100
AcDbLine
 10
3.26
 20
4.644924703604388
 30
0.0
 11
3.306
 21
4.644924703604388
 31
0.0
  0
LINE
  5
4F2
330
18
100
AcDbEntity
  8
Object
100
AcDbLine
 10
3.306
 20
4.644924703604388
 30
0.0
 11
3.306
 21
4.460924703604389
 31
0.0
  0
LINE
  5
4F3
330
18
100
AcDbEntity
  8
Object
100
AcDbLine
 10
3.306
 20
4.460924703604389
 30
0.0
 11
3.250999999999999
 21
4.460924703604389
 31
0.0
  0
LINE
  5
4F4
330
18
100
AcDbEntity
  8
Object
100
AcDbLine
 10
3.26
 20
4.569924703604389
 30
0.0
 11
3.226999999999999
 21
4.644924703604388
 31
0.0
  0
LINE
  5
4F5
330
18
100
AcDbEntity
  8
Object
100
AcDbLine
 10
3.217
 20
4.538924703604388
 30
0.0
 11
3.250999999999999
 21
4.460924703604389
 31
0.0
  0
LINE
  5
4F6
330
18
100
AcDbEntity
  8
Object
100
AcDbLine
 10
3.165999999999999
 20
4.524924703604389
 30
0.0
 11
3.165999999999999
 21
4.644924703604388
 31
0.0
  0
LINE
  5
4F7
330
18
100
AcDbEntity
  8
Object
100
AcDbLine
 10
3.165999999999999
 20
4.644924703604388
 30
0.0
 11
3.226999999999999
 21
4.644924703604388
 31
0.0
  0
LINE
  5
4F8
330
18
100
AcDbEntity
  8
Object
100
AcDbLine
 10
3.217
 20
4.538924703604388
 30
0.0
 11
3.217
 21
4.460924703604389
 31
0.0
  0
LINE
  5
4F9
330
18
100
AcDbEntity
  8
Object
100
AcDbLine
 10
3.217
 20
4.460924703604389
 30
0.0
 11
3.135
 21
4.460924703604389
 31
0.0
  0
LINE
  5
4FA
330
18
100
AcDbEntity
  8
Object
100
AcDbLine
 10
3.135
 20
4.460924703604389
 30
0.0
 11
3.121999999999999
 21
4.486924703604389
 31
0.0
  0
LINE
  5
4FB
330
18
100
AcDbEntity
  8
Object
100
AcDbLine
 10
3.165999999999999
 20
4.524924703604389
 30
0.0
 11
3.112
 21
4.644924703604388
 31
0.0
  0
LINE
  5
4FC
330
18
100
AcDbEntity
  8
Object
100
AcDbLine
 10
3.087
 20
4.578924703604388
 30
0.0
 11
3.109999999999999
 21
4.526924703604389
 31
0.0
  0
LINE
  5
4FD
330
18
100
AcDbEntity
  8
Object
100
AcDbLine
 10
3.112
 20
4.644924703604388
 30
0.0
 11
3.064
 21
4.644924703604388
 31
0.0
  0
LINE
  5
4FE
330
18
100
AcDbEntity
  8
Object
100
AcDbLine
 10
3.109999999999999
 20
4.526924703604389
 30
0.0
 11
3.064
 21
4.526924703604389
 31
0.0
  0
LINE
  5
4FF
330
18
100
AcDbEntity
  8
Object
100
AcDbLine
 10
3.052
 20
4.486924703604389
 30
0.0
 11
3.121999999999999
 21
4.486924703604389
 31
0.0
  0
LINE
  5
500
330
18
100
AcDbEntity
  8
Object
100
AcDbLine
 10
3.064
 20
4.526924703604389
 30
0.0
 11
3.087
 21
4.578924703604388
 31
0.0
  0
LINE
  5
501
330
18
100
AcDbEntity
  8
Object
100
AcDbLine
 10
3.052
 20
4.486924703604389
 30
0.0
 11
3.040999999999999
 21
4.460924703604389
 31
0.0
  0
LINE
  5
502
330
18
100
AcDbEntity
  8
Object
100
AcDbLine
 10
3.040999999999999
 20
4.460924703604389
 30
0.0
 11
2.987
 21
4.460924703604389
 31
0.0
  0
LINE
  5
503
330
18
100
AcDbEntity
  8
Object
100
AcDbLine
 10
2.987
 20
4.460924703604389
 30
0.0
 11
3.022
 21
4.543924703604389
 31
0.0
  0
LINE
  5
504
330
18
100
AcDbEntity
  8
Object
100
AcDbLine
 10
2.962
 20
4.646924703604389
 30
0.0
 11
2.962
 21
4.585924703604389
 31
0.0
  0
LINE
  5
505
330
18
100
AcDbEntity
  8
Object
100
AcDbLine
 10
3.01
 20
4.539924703604389
 30
0.0
 11
3.022
 21
4.543924703604389
 31
0.0
  0
LINE
  5
506
330
18
100
AcDbEntity
  8
Object
100
AcDbLine
 10
3.019
 20
4.693924703604388
 30
0.0
 11
3.046
 21
4.673924703604388
 31
0.0
  0
LINE
  5
507
330
18
100
AcDbEntity
  8
Object
100
AcDbLine
 10
3.046
 20
4.673924703604388
 30
0.0
 11
3.064
 21
4.644924703604388
 31
0.0
  0
LINE
  5
508
330
18
100
AcDbEntity
  8
Object
100
AcDbLine
 10
3.019
 20
4.693924703604388
 30
0.0
 11
2.984999999999999
 21
4.700924703604389
 31
0.0
  0
LINE
  5
509
330
18
100
AcDbEntity
  8
Object
100
AcDbLine
 10
2.959999999999999
 20
4.652924703604389
 30
0.0
 11
2.962
 21
4.646924703604389
 31
0.0
  0
LINE
  5
50A
330
18
100
AcDbEntity
  8
Object
100
AcDbLine
 10
2.962
 20
4.585924703604389
 30
0.0
 11
2.959999999999999
 21
4.579924703604389
 31
0.0
  0
LINE
  5
50B
330
18
100
AcDbEntity
  8
Object
100
AcDbLine
 10
3.01
 20
4.539924703604389
 30
0.0
 11
2.998
 21
4.536924703604388
 31
0.0
  0
LINE
  5
50C
330
18
100
AcDbEntity
  8
Object
100
AcDbLine
 10
2.998
 20
4.536924703604388
 30
0.0
 11
2.984999999999999
 21
4.535924703604388
 31
0.0
  0
LINE
  5
50D
330
18
100
AcDbEntity
  8
Object
100
AcDbLine
 10
2.959999999999999
 20
4.579924703604389
 30
0.0
 11
2.955999999999999
 21
4.575924703604389
 31
0.0
  0
LINE
  5
50E
330
18
100
AcDbEntity
  8
Object
100
AcDbLine
 10
2.955999999999999
 20
4.656924703604389
 30
0.0
 11
2.959999999999999
 21
4.652924703604389
 31
0.0
  0
LINE
  5
50F
330
18
100
AcDbEntity
  8
Object
100
AcDbLine
 10
2.955999999999999
 20
4.575924703604389
 30
0.0
 11
2.95
 21
4.573924703604388
 31
0.0
  0
LINE
  5
510
330
18
100
AcDbEntity
  8
Object
100
AcDbLine
 10
2.95
 20
4.658924703604388
 30
0.0
 11
2.955999999999999
 21
4.656924703604389
 31
0.0
  0
LINE
  5
511
330
18
100
AcDbEntity
  8
Object
100
AcDbLine
 10
2.95
 20
4.573924703604388
 30
0.0
 11
2.926999999999999
 21
4.573924703604388
 31
0.0
  0
LINE
  5
512
330
18
100
AcDbEntity
  8
Object
100
AcDbLine
 10
2.926999999999999
 20
4.658924703604388
 30
0.0
 11
2.95
 21
4.658924703604388
 31
0.0
  0
LINE
  5
513
330
18
100
AcDbEntity
  8
Object
100
AcDbLine
 10
2.926999999999999
 20
4.535924703604388
 30
0.0
 11
2.984999999999999
 21
4.535924703604388
 31
0.0
  0
LINE
  5
514
330
18
100
AcDbEntity
  8
Object
100
AcDbLine
 10
2.926999999999999
 20
4.573924703604388
 30
0.0
 11
2.926999999999999
 21
4.658924703604388
 31
0.0
  0
LINE
  5
515
330
18
100
AcDbEntity
  8
Object
100
AcDbLine
 10
2.984999999999999
 20
4.700924703604389
 30
0.0
 11
2.818999999999999
 21
4.700924703604389
 31
0.0
  0
LINE
  5
516
330
18
100
AcDbEntity
  8
Object
100
AcDbLine
 10
2.818999999999999
 20
4.700924703604389
 30
0.0
 11
2.818999999999999
 21
4.460924703604389
 31
0.0
  0
LINE
  5
517
330
18
100
AcDbEntity
  8
Object
100
AcDbLine
 10
2.926999999999999
 20
4.535924703604388
 30
0.0
 11
2.926999999999999
 21
4.460924703604389
 31
0.0
  0
LINE
  5
518
330
18
100
AcDbEntity
  8
Object
100
AcDbLine
 10
2.926999999999999
 20
4.460924703604389
 30
0.0
 11
2.818999999999999
 21
4.460924703604389
 31
0.0
  0
LINE
  5
519
330
18
100
AcDbEntity
  8
Object
100
AcDbLine
 10
3.762
 20
5.364924703604389
 30
0.0
 11
3.768
 21
5.334924703604388
 31
0.0
  0
LINE
  5
51A
330
18
100
AcDbEntity
  8
Object
100
AcDbLine
 10
3.768
 20
5.334924703604388
 30
0.0
 11
3.754999999999999
 21
5.322924703604389
 31
0.0
  0
LINE
  5
51B
330
18
100
AcDbEntity
  8
Object
100
AcDbLine
 10
3.762
 20
5.364924703604389
 30
0.0
 11
3.744
 21
5.391924703604389
 31
0.0
  0
LINE
  5
51C
330
18
100
AcDbEntity
  8
Object
100
AcDbLine
 10
3.744
 20
5.391924703604389
 30
0.0
 11
3.717
 21
5.409924703604389
 31
0.0
  0
LINE
  5
51D
330
18
100
AcDbEntity
  8
Object
100
AcDbLine
 10
3.717
 20
5.409924703604389
 30
0.0
 11
3.688
 21
5.414924703604389
 31
0.0
  0
LINE
  5
51E
330
18
100
AcDbEntity
  8
Object
100
AcDbLine
 10
3.474
 20
4.493924703604388
 30
0.0
 11
3.474
 21
4.611924703604389
 31
0.0
  0
LINE
  5
51F
330
18
100
AcDbEntity
  8
Object
100
AcDbLine
 10
3.421
 20
4.596924703604388
 30
0.0
 11
3.421
 21
4.512924703604388
 31
0.0
  0
LINE
  5
520
330
18
100
AcDbEntity
  8
Object
100
AcDbLine
 10
3.442
 20
4.644924703604388
 30
0.0
 11
3.458
 21
4.639924703604389
 31
0.0
  0
LINE
  5
521
330
18
100
AcDbEntity
  8
Object
100
AcDbLine
 10
3.458
 20
4.639924703604389
 30
0.0
 11
3.47
 21
4.627924703604389
 31
0.0
  0
LINE
  5
522
330
18
100
AcDbEntity
  8
Object
100
AcDbLine
 10
3.47
 20
4.627924703604389
 30
0.0
 11
3.474
 21
4.611924703604389
 31
0.0
  0
LINE
  5
523
330
18
100
AcDbEntity
  8
Object
100
AcDbLine
 10
3.419999999999999
 20
4.601924703604389
 30
0.0
 11
3.421
 21
4.596924703604388
 31
0.0
  0
LINE
  5
524
330
18
100
AcDbEntity
  8
Object
100
AcDbLine
 10
3.421
 20
4.512924703604388
 30
0.0
 11
3.419999999999999
 21
4.507924703604389
 31
0.0
  0
LINE
  5
525
330
18
100
AcDbEntity
  8
Object
100
AcDbLine
 10
3.474
 20
4.493924703604388
 30
0.0
 11
3.47
 21
4.476924703604389
 31
0.0
  0
LINE
  5
526
330
18
100
AcDbEntity
  8
Object
100
AcDbLine
 10
3.47
 20
4.476924703604389
 30
0.0
 11
3.458
 21
4.464924703604388
 31
0.0
  0
LINE
  5
527
330
18
100
AcDbEntity
  8
Object
100
AcDbLine
 10
3.458
 20
4.464924703604388
 30
0.0
 11
3.442
 21
4.460924703604389
 31
0.0
  0
LINE
  5
528
330
18
100
AcDbEntity
  8
Object
100
AcDbLine
 10
3.415999999999999
 20
4.604924703604389
 30
0.0
 11
3.419999999999999
 21
4.601924703604389
 31
0.0
  0
LINE
  5
529
330
18
100
AcDbEntity
  8
Object
100
AcDbLine
 10
3.419999999999999
 20
4.507924703604389
 30
0.0
 11
3.415999999999999
 21
4.503924703604388
 31
0.0
  0
LINE
  5
52A
330
18
100
AcDbEntity
  8
Object
100
AcDbLine
 10
3.411999999999999
 20
4.605924703604388
 30
0.0
 11
3.415999999999999
 21
4.604924703604389
 31
0.0
  0
LINE
  5
52B
330
18
100
AcDbEntity
  8
Object
100
AcDbLine
 10
3.415999999999999
 20
4.503924703604388
 30
0.0
 11
3.411999999999999
 21
4.502924703604389
 31
0.0
  0
LINE
  5
52C
330
18
100
AcDbEntity
  8
Object
100
AcDbLine
 10
3.393
 20
4.605924703604388
 30
0.0
 11
3.411999999999999
 21
4.605924703604388
 31
0.0
  0
LINE
  5
52D
330
18
100
AcDbEntity
  8
Object
100
AcDbLine
 10
3.411999999999999
 20
4.502924703604389
 30
0.0
 11
3.393
 21
4.502924703604389
 31
0.0
  0
LINE
  5
52E
330
18
100
AcDbEntity
  8
Object
100
AcDbLine
 10
3.442
 20
4.644924703604388
 30
0.0
 11
3.338
 21
4.644924703604388
 31
0.0
  0
LINE
  5
52F
330
18
100
AcDbEntity
  8
Object
100
AcDbLine
 10
3.442
 20
4.460924703604389
 30
0.0
 11
3.338
 21
4.460924703604389
 31
0.0
  0
LINE
  5
530
330
18
100
AcDbEntity
  8
Object
100
AcDbLine
 10
3.338
 20
4.460924703604389
 30
0.0
 11
3.338
 21
4.644924703604388
 31
0.0
  0
LINE
  5
531
330
18
100
AcDbEntity
  8
Object
100
AcDbLine
 10
3.393
 20
4.502924703604389
 30
0.0
 11
3.393
 21
4.605924703604388
 31
0.0
  0
LINE
  5
532
330
18
100
AcDbEntity
  8
Object
100
AcDbLine
 10
3.887
 20
4.644924703604388
 30
0.0
 11
3.887
 21
4.606924703604388
 31
0.0
  0
LINE
  5
533
330
18
100
AcDbEntity
  8
Object
100
AcDbLine
 10
3.887
 20
4.606924703604388
 30
0.0
 11
3.845
 21
4.606924703604388
 31
0.0
  0
LINE
  5
534
330
18
100
AcDbEntity
  8
Object
100
AcDbLine
 10
3.788
 20
4.606924703604388
 30
0.0
 11
3.788
 21
4.460924703604389
 31
0.0
  0
LINE
  5
535
330
18
100
AcDbEntity
  8
Object
100
AcDbLine
 10
3.845
 20
4.606924703604388
 30
0.0
 11
3.845
 21
4.460924703604389
 31
0.0
  0
LINE
  5
536
330
18
100
AcDbEntity
  8
Object
100
AcDbLine
 10
3.845
 20
4.460924703604389
 30
0.0
 11
3.788
 21
4.460924703604389
 31
0.0
  0
LINE
  5
537
330
18
100
AcDbEntity
  8
Object
100
AcDbLine
 10
3.788
 20
4.606924703604388
 30
0.0
 11
3.750999999999999
 21
4.606924703604388
 31
0.0
  0
LINE
  5
538
330
18
100
AcDbEntity
  8
Object
100
AcDbLine
 10
3.750999999999999
 20
4.606924703604388
 30
0.0
 11
3.750999999999999
 21
4.644924703604388
 31
0.0
  0
LINE
  5
539
330
18
100
AcDbEntity
  8
Object
100
AcDbLine
 10
3.750999999999999
 20
4.644924703604388
 30
0.0
 11
3.887
 21
4.644924703604388
 31
0.0
  0
LINE
  5
53A
330
18
100
AcDbEntity
  8
Object
100
AcDbLine
 10
2.584
 20
4.948924703604388
 30
0.0
 11
2.572
 21
4.957924703604389
 31
0.0
  0
LINE
  5
53B
330
18
100
AcDbEntity
  8
Object
100
AcDbLine
 10
2.554
 20
4.925924703604389
 30
0.0
 11
2.544999999999999
 21
4.908924703604388
 31
0.0
  0
LINE
  5
53C
330
18
100
AcDbEntity
  8
Object
100
AcDbLine
 10
2.544999999999999
 20
4.908924703604388
 30
0.0
 11
2.542
 21
4.889924703604389
 31
0.0
  0
LINE
  5
53D
330
18
100
AcDbEntity
  8
Object
100
AcDbLine
 10
4.179
 20
4.017924703604388
 30
0.0
 11
4.179
 21
4.898924703604389
 31
0.0
  0
LINE
  5
53E
330
18
100
AcDbEntity
  8
Object
100
AcDbLine
 10
3.688
 20
5.414924703604389
 30
0.0
 11
3.675
 21
5.402924703604388
 31
0.0
  0
LINE
  5
53F
330
18
100
AcDbEntity
  8
Object
100
AcDbLine
 10
3.675
 20
5.402924703604388
 30
0.0
 11
3.034
 21
5.402924703604388
 31
0.0
  0
LINE
  5
540
330
18
100
AcDbEntity
  8
Object
100
AcDbLine
 10
2.941
 20
5.202924703604388
 30
0.0
 11
2.954
 21
5.193924703604388
 31
0.0
  0
LINE
  5
541
330
18
100
AcDbEntity
  8
Object
100
AcDbLine
 10
2.954
 20
5.193924703604388
 30
0.0
 11
2.946
 21
5.144924703604388
 31
0.0
  0
LINE
  5
542
330
18
100
AcDbEntity
  8
Object
100
AcDbLine
 10
2.946
 20
5.144924703604388
 30
0.0
 11
2.937
 21
5.120924703604389
 31
0.0
  0
LINE
  5
543
330
18
100
AcDbEntity
  8
Object
100
AcDbLine
 10
2.934
 20
5.153924703604388
 30
0.0
 11
2.923999999999999
 21
5.129924703604388
 31
0.0
  0
LINE
  5
544
330
18
100
AcDbEntity
  8
Object
100
AcDbLine
 10
2.923999999999999
 20
5.129924703604388
 30
0.0
 11
2.910999999999999
 21
5.106924703604388
 31
0.0
  0
LINE
  5
545
330
18
100
AcDbEntity
  8
Object
100
AcDbLine
 10
2.923
 20
5.097924703604388
 30
0.0
 11
2.937
 21
5.120924703604389
 31
0.0
  0
LINE
  5
546
330
18
100
AcDbEntity
  8
Object
100
AcDbLine
 10
2.910999999999999
 20
5.106924703604388
 30
0.0
 11
2.894
 21
5.086924703604388
 31
0.0
  0
LINE
  5
547
330
18
100
AcDbEntity
  8
Object
100
AcDbLine
 10
2.894
 20
5.086924703604388
 30
0.0
 11
2.874
 21
5.069924703604389
 31
0.0
  0
LINE
  5
548
330
18
100
AcDbEntity
  8
Object
100
AcDbLine
 10
2.874
 20
5.069924703604389
 30
0.0
 11
2.83
 21
5.046924703604389
 31
0.0
  0
LINE
  5
549
330
18
100
AcDbEntity
  8
Object
100
AcDbLine
 10
2.83
 20
5.046924703604389
 30
0.0
 11
2.842999999999999
 21
5.037924703604389
 31
0.0
  0
LINE
  5
54A
330
18
100
AcDbEntity
  8
Object
100
AcDbLine
 10
3.878999999999999
 20
5.046924703604389
 30
0.0
 11
4.137
 21
4.957924703604389
 31
0.0
  0
LINE
  5
54B
330
18
100
AcDbEntity
  8
Object
100
AcDbLine
 10
4.137
 20
4.957924703604389
 30
0.0
 11
4.125
 21
4.948924703604388
 31
0.0
  0
LINE
  5
54C
330
18
100
AcDbEntity
  8
Object
100
AcDbLine
 10
4.176
 20
4.917924703604389
 30
0.0
 11
4.179
 21
4.898924703604389
 31
0.0
  0
LINE
  5
54D
330
18
100
AcDbEntity
  8
Object
100
AcDbLine
 10
4.179
 20
4.898924703604389
 30
0.0
 11
4.166999999999999
 21
4.889924703604389
 31
0.0
  0
LINE
  5
54E
330
18
100
AcDbEntity
  8
Object
100
AcDbLine
 10
4.176
 20
4.917924703604389
 30
0.0
 11
4.168
 21
4.934924703604389
 31
0.0
  0
LINE
  5
54F
330
18
100
AcDbEntity
  8
Object
100
AcDbLine
 10
4.168
 20
4.934924703604389
 30
0.0
 11
4.153999999999999
 21
4.949924703604389
 31
0.0
  0
LINE
  5
550
330
18
100
AcDbEntity
  8
Object
100
AcDbLine
 10
4.153999999999999
 20
4.949924703604389
 30
0.0
 11
4.137
 21
4.957924703604389
 31
0.0
  0
LINE
  5
551
330
18
100
AcDbEntity
  8
Object
100
AcDbLine
 10
2.621999999999999
 20
3.950924703604389
 30
0.0
 11
4.086999999999999
 21
3.950924703604389
 31
0.0
  0
LINE
  5
552
330
18
100
AcDbEntity
  8
Object
100
AcDbLine
 10
4.086999999999999
 20
3.950924703604389
 30
0.0
 11
4.099
 21
3.937924703604388
 31
0.0
  0
LINE
  5
553
330
18
100
AcDbEntity
  8
Object
100
AcDbLine
 10
3.768
 20
5.202924703604388
 30
0.0
 11
3.768
 21
5.334924703604388
 31
0.0
  0
LINE
  5
554
330
18
100
AcDbEntity
  8
Object
100
AcDbLine
 10
2.954
 20
5.193924703604388
 30
0.0
 11
2.954
 21
5.322924703604389
 31
0.0
  0
LINE
  5
555
330
18
100
AcDbEntity
  8
Object
100
AcDbLine
 10
2.53
 20
4.898924703604389
 30
0.0
 11
2.542
 21
4.889924703604389
 31
0.0
  0
LINE
  5
556
330
18
100
AcDbEntity
  8
Object
100
AcDbLine
 10
2.542
 20
4.889924703604389
 30
0.0
 11
2.542
 21
4.030924703604389
 31
0.0
  0
LINE
  5
557
330
18
100
AcDbEntity
  8
Object
100
AcDbLine
 10
4.166999999999999
 20
4.030924703604389
 30
0.0
 11
4.179
 21
4.017924703604388
 31
0.0
  0
LINE
  5
558
330
18
100
AcDbEntity
  8
Object
100
AcDbLine
 10
4.179
 20
4.017924703604388
 30
0.0
 11
4.174
 21
3.987924703604388
 31
0.0
  0
LINE
  5
559
330
18
100
AcDbEntity
  8
Object
100
AcDbLine
 10
4.174
 20
3.987924703604388
 30
0.0
 11
4.155999999999999
 21
3.960924703604388
 31
0.0
  0
LINE
  5
55A
330
18
100
AcDbEntity
  8
Object
100
AcDbLine
 10
4.469999999999999
 20
5.646924703604389
 30
0.0
 11
4.485
 21
5.624924703604389
 31
0.0
  0
LINE
  5
55B
330
18
100
AcDbEntity
  8
Object
100
AcDbLine
 10
4.485
 20
5.624924703604389
 30
0.0
 11
4.488999999999999
 21
5.600924703604388
 31
0.0
  0
LINE
  5
55C
330
18
100
AcDbEntity
  8
Object
100
AcDbLine
 10
4.488999999999999
 20
3.692924703604389
 30
0.0
 11
4.485
 21
3.667924703604389
 31
0.0
  0
LINE
  5
55D
330
18
100
AcDbEntity
  8
Object
100
AcDbLine
 10
4.485
 20
3.667924703604389
 30
0.0
 11
4.469999999999999
 21
3.646924703604388
 31
0.0
  0
LINE
  5
55E
330
18
100
AcDbEntity
  8
Object
100
AcDbLine
 10
4.469999999999999
 20
5.646924703604389
 30
0.0
 11
4.448999999999999
 21
5.660924703604388
 31
0.0
  0
LINE
  5
55F
330
18
100
AcDbEntity
  8
Object
100
AcDbLine
 10
4.448999999999999
 20
3.632924703604389
 30
0.0
 11
4.469999999999999
 21
3.646924703604388
 31
0.0
  0
LINE
  5
560
330
18
100
AcDbEntity
  8
Object
100
AcDbLine
 10
4.448999999999999
 20
5.660924703604388
 30
0.0
 11
4.424
 21
5.665924703604389
 31
0.0
  0
LINE
  5
561
330
18
100
AcDbEntity
  8
Object
100
AcDbLine
 10
4.424
 20
3.627924703604389
 30
0.0
 11
4.448999999999999
 21
3.632924703604389
 31
0.0
  0
LINE
  5
562
330
18
100
AcDbEntity
  8
Object
100
AcDbLine
 10
4.488999999999999
 20
3.692924703604389
 30
0.0
 11
4.488999999999999
 21
5.600924703604388
 31
0.0
  0
LINE
  5
563
330
18
100
AcDbEntity
  8
Object
100
AcDbLine
 10
4.155999999999999
 20
3.960924703604388
 30
0.0
 11
4.129
 21
3.943924703604388
 31
0.0
  0
LINE
  5
564
330
18
100
AcDbEntity
  8
Object
100
AcDbLine
 10
4.129
 20
3.943924703604388
 30
0.0
 11
4.099
 21
3.937924703604388
 31
0.0
  0
LINE
  5
565
330
18
100
AcDbEntity
  8
Object
100
AcDbLine
 10
3.878999999999999
 20
5.046924703604389
 30
0.0
 11
3.834999999999999
 21
5.069924703604389
 31
0.0
  0
LINE
  5
566
330
18
100
AcDbEntity
  8
Object
100
AcDbLine
 10
3.834999999999999
 20
5.069924703604389
 30
0.0
 11
3.814999999999999
 21
5.086924703604388
 31
0.0
  0
LINE
  5
567
330
18
100
AcDbEntity
  8
Object
100
AcDbLine
 10
3.814999999999999
 20
5.086924703604388
 30
0.0
 11
3.798
 21
5.106924703604388
 31
0.0
  0
LINE
  5
568
330
18
100
AcDbEntity
  8
Object
100
AcDbLine
 10
3.798
 20
5.106924703604388
 30
0.0
 11
3.785
 21
5.129924703604388
 31
0.0
  0
LINE
  5
569
330
18
100
AcDbEntity
  8
Object
100
AcDbLine
 10
2.934
 20
5.153924703604388
 30
0.0
 11
2.941
 21
5.202924703604388
 31
0.0
  0
LINE
  5
56A
330
18
100
AcDbEntity
  8
Object
100
AcDbLine
 10
2.941
 20
5.202924703604388
 30
0.0
 11
2.941
 21
5.334924703604388
 31
0.0
  0
LINE
  5
56B
330
18
100
AcDbEntity
  8
Object
100
AcDbLine
 10
3.020999999999999
 20
5.414924703604389
 30
0.0
 11
3.688
 21
5.414924703604389
 31
0.0
  0
LINE
  5
56C
330
18
100
AcDbEntity
  8
Object
100
AcDbLine
 10
4.424
 20
5.665924703604389
 30
0.0
 11
2.284
 21
5.665924703604389
 31
0.0
  0
LINE
  5
56D
330
18
100
AcDbEntity
  8
Object
100
AcDbLine
 10
2.964999999999999
 20
5.391924703604389
 30
0.0
 11
2.947
 21
5.364924703604389
 31
0.0
  0
LINE
  5
56E
330
18
100
AcDbEntity
  8
Object
100
AcDbLine
 10
2.947
 20
5.364924703604389
 30
0.0
 11
2.941
 21
5.334924703604388
 31
0.0
  0
LINE
  5
56F
330
18
100
AcDbEntity
  8
Object
100
AcDbLine
 10
2.964999999999999
 20
5.391924703604389
 30
0.0
 11
2.991999999999999
 21
5.409924703604389
 31
0.0
  0
LINE
  5
570
330
18
100
AcDbEntity
  8
Object
100
AcDbLine
 10
2.991999999999999
 20
5.409924703604389
 30
0.0
 11
3.020999999999999
 21
5.414924703604389
 31
0.0
  0
LINE
  5
571
330
18
100
AcDbEntity
  8
Object
100
AcDbLine
 10
2.552999999999999
 20
3.960924703604388
 30
0.0
 11
2.58
 21
3.943924703604388
 31
0.0
  0
LINE
  5
572
330
18
100
AcDbEntity
  8
Object
100
AcDbLine
 10
2.58
 20
3.943924703604388
 30
0.0
 11
2.608999999999999
 21
3.937924703604388
 31
0.0
  0
LINE
  5
573
330
18
100
AcDbEntity
  8
Object
100
AcDbLine
 10
2.608999999999999
 20
3.937924703604388
 30
0.0
 11
4.099
 21
3.937924703604388
 31
0.0
  0
LINE
  5
574
330
18
100
AcDbEntity
  8
Object
100
AcDbLine
 10
2.284
 20
3.627924703604389
 30
0.0
 11
4.424
 21
3.627924703604389
 31
0.0
  0
LINE
  5
575
330
18
100
AcDbEntity
  8
Object
100
AcDbLine
 10
2.259
 20
5.660924703604388
 30
0.0
 11
2.237999999999999
 21
5.646924703604389
 31
0.0
  0
LINE
  5
576
330
18
100
AcDbEntity
  8
Object
100
AcDbLine
 10
2.237999999999999
 20
5.646924703604389
 30
0.0
 11
2.224
 21
5.624924703604389
 31
0.0
  0
LINE
  5
577
330
18
100
AcDbEntity
  8
Object
100
AcDbLine
 10
2.284
 20
5.665924703604389
 30
0.0
 11
2.259
 21
5.660924703604388
 31
0.0
  0
LINE
  5
578
330
18
100
AcDbEntity
  8
Object
100
AcDbLine
 10
2.83
 20
5.046924703604389
 30
0.0
 11
2.572
 21
4.957924703604389
 31
0.0
  0
LINE
  5
579
330
18
100
AcDbEntity
  8
Object
100
AcDbLine
 10
2.572
 20
4.957924703604389
 30
0.0
 11
2.555
 21
4.949924703604389
 31
0.0
  0
LINE
  5
57A
330
18
100
AcDbEntity
  8
Object
100
AcDbLine
 10
2.555
 20
4.949924703604389
 30
0.0
 11
2.540999999999999
 21
4.934924703604389
 31
0.0
  0
LINE
  5
57B
330
18
100
AcDbEntity
  8
Object
100
AcDbLine
 10
2.540999999999999
 20
4.934924703604389
 30
0.0
 11
2.532
 21
4.917924703604389
 31
0.0
  0
LINE
  5
57C
330
18
100
AcDbEntity
  8
Object
100
AcDbLine
 10
2.532
 20
4.917924703604389
 30
0.0
 11
2.53
 21
4.898924703604389
 31
0.0
  0
LINE
  5
57D
330
18
100
AcDbEntity
  8
Object
100
AcDbLine
 10
2.284
 20
3.627924703604389
 30
0.0
 11
2.259
 21
3.632924703604389
 31
0.0
  0
LINE
  5
57E
330
18
100
AcDbEntity
  8
Object
100
AcDbLine
 10
2.259
 20
3.632924703604389
 30
0.0
 11
2.237999999999999
 21
3.646924703604388
 31
0.0
  0
LINE
  5
57F
330
18
100
AcDbEntity
  8
Object
100
AcDbLine
 10
2.53
 20
4.898924703604389
 30
0.0
 11
2.53
 21
4.017924703604388
 31
0.0
  0
LINE
  5
580
330
18
100
AcDbEntity
  8
Object
100
AcDbLine
 10
2.53
 20
4.017924703604388
 30
0.0
 11
2.535
 21
3.987924703604388
 31
0.0
  0
LINE
  5
581
330
18
100
AcDbEntity
  8
Object
100
AcDbLine
 10
2.535
 20
3.987924703604388
 30
0.0
 11
2.552999999999999
 21
3.960924703604388
 31
0.0
  0
LINE
  5
582
330
18
100
AcDbEntity
  8
Object
100
AcDbLine
 10
2.962
 20
4.585924703604389
 30
0.0
 11
2.959999999999999
 21
4.579924703604389
 31
0.0
  0
LINE
  5
583
330
18
100
AcDbEntity
  8
Object
100
AcDbLine
 10
2.959999999999999
 20
4.579924703604389
 30
0.0
 11
2.955999999999999
 21
4.575924703604389
 31
0.0
  0
LINE
  5
584
330
18
100
AcDbEntity
  8
Object
100
AcDbLine
 10
2.955999999999999
 20
4.575924703604389
 30
0.0
 11
2.95
 21
4.573924703604388
 31
0.0
  0
LINE
  5
585
330
18
100
AcDbEntity
  8
Object
100
AcDbLine
 10
3.109999999999999
 20
4.526924703604389
 30
0.0
 11
3.064
 21
4.526924703604389
 31
0.0
  0
LINE
  5
586
330
18
100
AcDbEntity
  8
Object
100
AcDbLine
 10
2.962
 20
4.646924703604389
 30
0.0
 11
2.962
 21
4.585924703604389
 31
0.0
  0
LINE
  5
587
330
18
100
AcDbEntity
  8
Object
100
AcDbLine
 10
2.95
 20
4.573924703604388
 30
0.0
 11
2.926999999999999
 21
4.573924703604388
 31
0.0
  0
LINE
  5
588
330
18
100
AcDbEntity
  8
Object
100
AcDbLine
 10
2.926999999999999
 20
4.658924703604388
 30
0.0
 11
2.95
 21
4.658924703604388
 31
0.0
  0
LINE
  5
589
330
18
100
AcDbEntity
  8
Object
100
AcDbLine
 10
3.064
 20
4.526924703604389
 30
0.0
 11
3.087
 21
4.578924703604388
 31
0.0
  0
LINE
  5
58A
330
18
100
AcDbEntity
  8
Object
100
AcDbLine
 10
2.926999999999999
 20
4.573924703604388
 30
0.0
 11
2.926999999999999
 21
4.658924703604388
 31
0.0
  0
LINE
  5
58B
330
18
100
AcDbEntity
  8
Object
100
AcDbLine
 10
2.962
 20
4.646924703604389
 30
0.0
 11
2.959999999999999
 21
4.652924703604389
 31
0.0
  0
LINE
  5
58C
330
18
100
AcDbEntity
  8
Object
100
AcDbLine
 10
2.959999999999999
 20
4.652924703604389
 30
0.0
 11
2.955999999999999
 21
4.656924703604389
 31
0.0
  0
LINE
  5
58D
330
18
100
AcDbEntity
  8
Object
100
AcDbLine
 10
2.955999999999999
 20
4.656924703604389
 30
0.0
 11
2.95
 21
4.658924703604388
 31
0.0
  0
LINE
  5
58E
330
18
100
AcDbEntity
  8
Object
100
AcDbLine
 10
3.087
 20
4.578924703604388
 30
0.0
 11
3.109999999999999
 21
4.526924703604389
 31
0.0
  0
LINE
  5
58F
330
18
100
AcDbEntity
  8
Object
100
AcDbLine
 10
3.421
 20
4.512924703604388
 30
0.0
 11
3.419999999999999
 21
4.507924703604389
 31
0.0
  0
LINE
  5
590
330
18
100
AcDbEntity
  8
Object
100
AcDbLine
 10
3.419999999999999
 20
4.507924703604389
 30
0.0
 11
3.415999999999999
 21
4.503924703604388
 31
0.0
  0
LINE
  5
591
330
18
100
AcDbEntity
  8
Object
100
AcDbLine
 10
3.415999999999999
 20
4.503924703604388
 30
0.0
 11
3.411999999999999
 21
4.502924703604389
 31
0.0
  0
LINE
  5
592
330
18
100
AcDbEntity
  8
Object
100
AcDbLine
 10
3.421
 20
4.596924703604388
 30
0.0
 11
3.421
 21
4.512924703604388
 31
0.0
  0
LINE
  5
593
330
18
100
AcDbEntity
  8
Object
100
AcDbLine
 10
3.393
 20
4.605924703604388
 30
0.0
 11
3.393
 21
4.502924703604389
 31
0.0
  0
LINE
  5
594
330
18
100
AcDbEntity
  8
Object
100
AcDbLine
 10
3.393
 20
4.502924703604389
 30
0.0
 11
3.411999999999999
 21
4.502924703604389
 31
0.0
  0
LINE
  5
595
330
18
100
AcDbEntity
  8
Object
100
AcDbLine
 10
3.393
 20
4.605924703604388
 30
0.0
 11
3.411999999999999
 21
4.605924703604388
 31
0.0
  0
LINE
  5
596
330
18
100
AcDbEntity
  8
Object
100
AcDbLine
 10
3.421
 20
4.596924703604388
 30
0.0
 11
3.419999999999999
 21
4.601924703604389
 31
0.0
  0
LINE
  5
597
330
18
100
AcDbEntity
  8
Object
100
AcDbLine
 10
3.419999999999999
 20
4.601924703604389
 30
0.0
 11
3.415999999999999
 21
4.604924703604389
 31
0.0
  0
LINE
  5
598
330
18
100
AcDbEntity
  8
Object
100
AcDbLine
 10
3.415999999999999
 20
4.604924703604389
 30
0.0
 11
3.411999999999999
 21
4.605924703604388
 31
0.0
  0
LINE
  5
599
330
18
100
AcDbEntity
  8
Object
100
AcDbLine
 10
4.488999999999999
 20
5.695924703604388
 30
0.0
 11
4.506
 21
5.681924703604389
 31
0.0
  0
LINE
  5
59A
330
18
100
AcDbEntity
  8
Object
100
AcDbLine
 10
4.506
 20
5.681924703604389
 30
0.0
 11
4.501
 21
5.676924703604388
 31
0.0
  0
LINE
  5
59B
330
18
100
AcDbEntity
  8
Object
100
AcDbLine
 10
4.488999999999999
 20
5.695924703604388
 30
0.0
 11
4.467999999999999
 21
5.706924703604388
 31
0.0
  0
LINE
  5
59C
330
18
100
AcDbEntity
  8
Object
100
AcDbLine
 10
4.501
 20
5.676924703604388
 30
0.0
 11
4.488
 21
5.663924703604388
 31
0.0
  0
LINE
  5
59D
330
18
100
AcDbEntity
  8
Object
100
AcDbLine
 10
4.488
 20
5.663924703604388
 30
0.0
 11
4.469999999999999
 21
5.646924703604389
 31
0.0
  0
LINE
  5
59E
330
18
100
AcDbEntity
  8
Object
100
AcDbLine
 10
4.467999999999999
 20
5.706924703604388
 30
0.0
 11
4.447
 21
5.712924703604389
 31
0.0
  0
LINE
  5
59F
330
18
100
AcDbEntity
  8
Object
100
AcDbLine
 10
4.447
 20
5.712924703604389
 30
0.0
 11
4.424
 21
5.715924703604389
 31
0.0
  0
LINE
  5
5A0
330
18
100
AcDbEntity
  8
Object
100
AcDbLine
 10
2.237999999999999
 20
5.646924703604389
 30
0.0
 11
2.221
 21
5.663924703604388
 31
0.0
  0
LINE
  5
5A1
330
18
100
AcDbEntity
  8
Object
100
AcDbLine
 10
2.221
 20
5.663924703604388
 30
0.0
 11
2.208
 21
5.676924703604388
 31
0.0
  0
LINE
  5
5A2
330
18
100
AcDbEntity
  8
Object
100
AcDbLine
 10
2.218999999999999
 20
5.600924703604388
 30
0.0
 11
2.224
 21
5.624924703604389
 31
0.0
  0
LINE
  5
5A3
330
18
100
AcDbEntity
  8
Object
100
AcDbLine
 10
2.189
 20
5.664924703604389
 30
0.0
 11
2.202999999999999
 21
5.681924703604389
 31
0.0
  0
LINE
  5
5A4
330
18
100
AcDbEntity
  8
Object
100
AcDbLine
 10
2.202999999999999
 20
5.681924703604389
 30
0.0
 11
2.208
 21
5.676924703604388
 31
0.0
  0
LINE
  5
5A5
330
18
100
AcDbEntity
  8
Object
100
AcDbLine
 10
2.189
 20
5.664924703604389
 30
0.0
 11
2.177999999999999
 21
5.644924703604388
 31
0.0
  0
LINE
  5
5A6
330
18
100
AcDbEntity
  8
Object
100
AcDbLine
 10
2.177999999999999
 20
5.644924703604388
 30
0.0
 11
2.172
 21
5.622924703604389
 31
0.0
  0
LINE
  5
5A7
330
18
100
AcDbEntity
  8
Object
100
AcDbLine
 10
2.172
 20
5.622924703604389
 30
0.0
 11
2.169
 21
5.600924703604388
 31
0.0
  0
LINE
  5
5A8
330
18
100
AcDbEntity
  8
Object
100
AcDbLine
 10
4.532
 20
3.692924703604389
 30
0.0
 11
4.538999999999999
 21
3.692924703604389
 31
0.0
  0
LINE
  5
5A9
330
18
100
AcDbEntity
  8
Object
100
AcDbLine
 10
4.532
 20
5.600924703604388
 30
0.0
 11
4.538999999999999
 21
5.600924703604388
 31
0.0
  0
LINE
  5
5AA
330
18
100
AcDbEntity
  8
Object
100
AcDbLine
 10
4.538999999999999
 20
5.600924703604388
 30
0.0
 11
4.538999999999999
 21
3.692924703604389
 31
0.0
  0
LINE
  5
5AB
330
18
100
AcDbEntity
  8
Object
100
AcDbLine
 10
4.514
 20
5.600924703604388
 30
0.0
 11
4.488999999999999
 21
5.600924703604388
 31
0.0
  0
LINE
  5
5AC
330
18
100
AcDbEntity
  8
Object
100
AcDbLine
 10
4.501
 20
3.615924703604389
 30
0.0
 11
4.506
 21
3.610924703604388
 31
0.0
  0
LINE
  5
5AD
330
18
100
AcDbEntity
  8
Object
100
AcDbLine
 10
4.506
 20
3.610924703604388
 30
0.0
 11
4.488999999999999
 21
3.596924703604388
 31
0.0
  0
LINE
  5
5AE
330
18
100
AcDbEntity
  8
Object
100
AcDbLine
 10
4.488999999999999
 20
3.596924703604388
 30
0.0
 11
4.467999999999999
 21
3.585924703604388
 31
0.0
  0
LINE
  5
5AF
330
18
100
AcDbEntity
  8
Object
100
AcDbLine
 10
4.501
 20
3.615924703604389
 30
0.0
 11
4.488
 21
3.628924703604389
 31
0.0
  0
LINE
  5
5B0
330
18
100
AcDbEntity
  8
Object
100
AcDbLine
 10
4.488
 20
3.628924703604389
 30
0.0
 11
4.469999999999999
 21
3.646924703604388
 31
0.0
  0
LINE
  5
5B1
330
18
100
AcDbEntity
  8
Object
100
AcDbLine
 10
4.467999999999999
 20
3.585924703604388
 30
0.0
 11
4.447
 21
3.579924703604389
 31
0.0
  0
LINE
  5
5B2
330
18
100
AcDbEntity
  8
Object
100
AcDbLine
 10
4.447
 20
3.579924703604389
 30
0.0
 11
4.424
 21
3.577924703604388
 31
0.0
  0
LINE
  5
5B3
330
18
100
AcDbEntity
  8
Object
100
AcDbLine
 10
2.262
 20
5.712924703604389
 30
0.0
 11
2.284
 21
5.715924703604389
 31
0.0
  0
LINE
  5
5B4
330
18
100
AcDbEntity
  8
Object
100
AcDbLine
 10
2.284
 20
5.715924703604389
 30
0.0
 11
2.284
 21
5.708924703604388
 31
0.0
  0
LINE
  5
5B5
330
18
100
AcDbEntity
  8
Object
100
AcDbLine
 10
2.284
 20
5.665924703604389
 30
0.0
 11
2.284
 21
5.689924703604389
 31
0.0
  0
LINE
  5
5B6
330
18
100
AcDbEntity
  8
Object
100
AcDbLine
 10
2.284
 20
5.689924703604389
 30
0.0
 11
2.284
 21
5.708924703604388
 31
0.0
  0
LINE
  5
5B7
330
18
100
AcDbEntity
  8
Object
100
AcDbLine
 10
2.262
 20
5.712924703604389
 30
0.0
 11
2.24
 21
5.706924703604388
 31
0.0
  0
LINE
  5
5B8
330
18
100
AcDbEntity
  8
Object
100
AcDbLine
 10
2.24
 20
5.706924703604388
 30
0.0
 11
2.22
 21
5.695924703604388
 31
0.0
  0
LINE
  5
5B9
330
18
100
AcDbEntity
  8
Object
100
AcDbLine
 10
4.424
 20
5.689924703604389
 30
0.0
 11
4.424
 21
5.708924703604388
 31
0.0
  0
LINE
  5
5BA
330
18
100
AcDbEntity
  8
Object
100
AcDbLine
 10
4.424
 20
5.708924703604388
 30
0.0
 11
4.424
 21
5.715924703604389
 31
0.0
  0
LINE
  5
5BB
330
18
100
AcDbEntity
  8
Object
100
AcDbLine
 10
4.424
 20
5.665924703604389
 30
0.0
 11
4.424
 21
5.689924703604389
 31
0.0
  0
LINE
  5
5BC
330
18
100
AcDbEntity
  8
Object
100
AcDbLine
 10
4.538999999999999
 20
5.600924703604388
 30
0.0
 11
4.536999999999999
 21
5.622924703604389
 31
0.0
  0
LINE
  5
5BD
330
18
100
AcDbEntity
  8
Object
100
AcDbLine
 10
4.536999999999999
 20
5.622924703604389
 30
0.0
 11
4.530999999999999
 21
5.644924703604388
 31
0.0
  0
LINE
  5
5BE
330
18
100
AcDbEntity
  8
Object
100
AcDbLine
 10
4.530999999999999
 20
5.644924703604388
 30
0.0
 11
4.52
 21
5.664924703604389
 31
0.0
  0
LINE
  5
5BF
330
18
100
AcDbEntity
  8
Object
100
AcDbLine
 10
4.514
 20
5.600924703604388
 30
0.0
 11
4.532
 21
5.600924703604388
 31
0.0
  0
LINE
  5
5C0
330
18
100
AcDbEntity
  8
Object
100
AcDbLine
 10
4.52
 20
5.664924703604389
 30
0.0
 11
4.506
 21
5.681924703604389
 31
0.0
  0
LINE
  5
5C1
330
18
100
AcDbEntity
  8
Object
100
AcDbLine
 10
4.424
 20
3.584924703604388
 30
0.0
 11
4.424
 21
3.602924703604388
 31
0.0
  0
LINE
  5
5C2
330
18
100
AcDbEntity
  8
Object
100
AcDbLine
 10
4.424
 20
3.602924703604388
 30
0.0
 11
4.424
 21
3.627924703604389
 31
0.0
  0
LINE
  5
5C3
330
18
100
AcDbEntity
  8
Object
100
AcDbLine
 10
4.424
 20
3.584924703604388
 30
0.0
 11
4.424
 21
3.577924703604388
 31
0.0
  0
LINE
  5
5C4
330
18
100
AcDbEntity
  8
Object
100
AcDbLine
 10
4.424
 20
3.577924703604388
 30
0.0
 11
2.284
 21
3.577924703604388
 31
0.0
  0
LINE
  5
5C5
330
18
100
AcDbEntity
  8
Object
100
AcDbLine
 10
2.224
 20
3.667924703604389
 30
0.0
 11
2.237999999999999
 21
3.646924703604388
 31
0.0
  0
LINE
  5
5C6
330
18
100
AcDbEntity
  8
Object
100
AcDbLine
 10
2.237999999999999
 20
3.646924703604388
 30
0.0
 11
2.221
 21
3.628924703604389
 31
0.0
  0
LINE
  5
5C7
330
18
100
AcDbEntity
  8
Object
100
AcDbLine
 10
2.221
 20
3.628924703604389
 30
0.0
 11
2.208
 21
3.615924703604389
 31
0.0
  0
LINE
  5
5C8
330
18
100
AcDbEntity
  8
Object
100
AcDbLine
 10
2.195
 20
3.692924703604389
 30
0.0
 11
2.218999999999999
 21
3.692924703604389
 31
0.0
  0
LINE
  5
5C9
330
18
100
AcDbEntity
  8
Object
100
AcDbLine
 10
2.218999999999999
 20
3.692924703604389
 30
0.0
 11
2.224
 21
3.667924703604389
 31
0.0
  0
LINE
  5
5CA
330
18
100
AcDbEntity
  8
Object
100
AcDbLine
 10
2.208
 20
3.615924703604389
 30
0.0
 11
2.202999999999999
 21
3.610924703604388
 31
0.0
  0
LINE
  5
5CB
330
18
100
AcDbEntity
  8
Object
100
AcDbLine
 10
2.202999999999999
 20
3.610924703604388
 30
0.0
 11
2.189
 21
3.628924703604389
 31
0.0
  0
LINE
  5
5CC
330
18
100
AcDbEntity
  8
Object
100
AcDbLine
 10
2.189
 20
3.628924703604389
 30
0.0
 11
2.177999999999999
 21
3.648924703604389
 31
0.0
  0
LINE
  5
5CD
330
18
100
AcDbEntity
  8
Object
100
AcDbLine
 10
2.195
 20
3.692924703604389
 30
0.0
 11
2.176
 21
3.692924703604389
 31
0.0
  0
LINE
  5
5CE
330
18
100
AcDbEntity
  8
Object
100
AcDbLine
 10
2.177999999999999
 20
3.648924703604389
 30
0.0
 11
2.172
 21
3.669924703604388
 31
0.0
  0
LINE
  5
5CF
330
18
100
AcDbEntity
  8
Object
100
AcDbLine
 10
2.172
 20
3.669924703604388
 30
0.0
 11
2.169
 21
3.692924703604389
 31
0.0
  0
LINE
  5
5D0
330
18
100
AcDbEntity
  8
Object
100
AcDbLine
 10
2.169
 20
3.692924703604389
 30
0.0
 11
2.176
 21
3.692924703604389
 31
0.0
  0
LINE
  5
5D1
330
18
100
AcDbEntity
  8
Object
100
AcDbLine
 10
2.195
 20
5.600924703604388
 30
0.0
 11
2.218999999999999
 21
5.600924703604388
 31
0.0
  0
LINE
  5
5D2
330
18
100
AcDbEntity
  8
Object
100
AcDbLine
 10
2.218999999999999
 20
5.600924703604388
 30
0.0
 11
2.218999999999999
 21
3.692924703604389
 31
0.0
  0
LINE
  5
5D3
330
18
100
AcDbEntity
  8
Object
100
AcDbLine
 10
2.195
 20
5.600924703604388
 30
0.0
 11
2.176
 21
5.600924703604388
 31
0.0
  0
LINE
  5
5D4
330
18
100
AcDbEntity
  8
Object
100
AcDbLine
 10
2.176
 20
5.600924703604388
 30
0.0
 11
2.169
 21
5.600924703604388
 31
0.0
  0
LINE
  5
5D5
330
18
100
AcDbEntity
  8
Object
100
AcDbLine
 10
4.538999999999999
 20
3.692924703604389
 30
0.0
 11
4.536999999999999
 21
3.669924703604388
 31
0.0
  0
LINE
  5
5D6
330
18
100
AcDbEntity
  8
Object
100
AcDbLine
 10
4.536999999999999
 20
3.669924703604388
 30
0.0
 11
4.530999999999999
 21
3.648924703604389
 31
0.0
  0
LINE
  5
5D7
330
18
100
AcDbEntity
  8
Object
100
AcDbLine
 10
4.530999999999999
 20
3.648924703604389
 30
0.0
 11
4.52
 21
3.628924703604389
 31
0.0
  0
LINE
  5
5D8
330
18
100
AcDbEntity
  8
Object
100
AcDbLine
 10
4.532
 20
3.692924703604389
 30
0.0
 11
4.514
 21
3.692924703604389
 31
0.0
  0
LINE
  5
5D9
330
18
100
AcDbEntity
  8
Object
100
AcDbLine
 10
4.506
 20
3.610924703604388
 30
0.0
 11
4.52
 21
3.628924703604389
 31
0.0
  0
LINE
  5
5DA
330
18
100
AcDbEntity
  8
Object
100
AcDbLine
 10
4.514
 20
3.692924703604389
 30
0.0
 11
4.488999999999999
 21
3.692924703604389
 31
0.0
  0
LINE
  5
5DB
330
18
100
AcDbEntity
  8
Object
100
AcDbLine
 10
2.284
 20
3.584924703604388
 30
0.0
 11
2.284
 21
3.577924703604388
 31
0.0
  0
LINE
  5
5DC
330
18
100
AcDbEntity
  8
Object
100
AcDbLine
 10
2.284
 20
3.577924703604388
 30
0.0
 11
2.262
 21
3.579924703604389
 31
0.0
  0
LINE
  5
5DD
330
18
100
AcDbEntity
  8
Object
100
AcDbLine
 10
2.284
 20
3.627924703604389
 30
0.0
 11
2.284
 21
3.602924703604388
 31
0.0
  0
LINE
  5
5DE
330
18
100
AcDbEntity
  8
Object
100
AcDbLine
 10
2.284
 20
3.602924703604388
 30
0.0
 11
2.284
 21
3.584924703604388
 31
0.0
  0
LINE
  5
5DF
330
18
100
AcDbEntity
  8
Object
100
AcDbLine
 10
2.262
 20
3.579924703604389
 30
0.0
 11
2.24
 21
3.585924703604388
 31
0.0
  0
LINE
  5
5E0
330
18
100
AcDbEntity
  8
Object
100
AcDbLine
 10
2.24
 20
3.585924703604388
 30
0.0
 11
2.22
 21
3.596924703604388
 31
0.0
  0
LINE
  5
5E1
330
18
100
AcDbEntity
  8
Object
100
AcDbLine
 10
4.538999999999999
 20
5.600924703604388
 30
0.0
 11
4.54
 21
5.601924703604389
 31
0.0
  0
LINE
  5
5E2
330
18
100
AcDbEntity
  8
Object
100
AcDbLine
 10
4.506999999999999
 20
5.682924703604388
 30
0.0
 11
4.488
 21
5.697924703604389
 31
0.0
  0
LINE
  5
5E3
330
18
100
AcDbEntity
  8
Object
100
AcDbLine
 10
4.488
 20
5.697924703604389
 30
0.0
 11
4.467999999999999
 21
5.707924703604389
 31
0.0
  0
LINE
  5
5E4
330
18
100
AcDbEntity
  8
Object
100
AcDbLine
 10
4.445999999999999
 20
5.714924703604388
 30
0.0
 11
4.424999999999999
 21
5.716924703604388
 31
0.0
  0
LINE
  5
5E5
330
18
100
AcDbEntity
  8
Object
100
AcDbLine
 10
2.284
 20
5.715924703604389
 30
0.0
 11
2.282999999999999
 21
5.716924703604388
 31
0.0
  0
LINE
  5
5E6
330
18
100
AcDbEntity
  8
Object
100
AcDbLine
 10
2.202999999999999
 20
5.681924703604389
 30
0.0
 11
2.22
 21
5.695924703604388
 31
0.0
  0
LINE
  5
5E7
330
18
100
AcDbEntity
  8
Object
100
AcDbLine
 10
2.201999999999999
 20
5.682924703604388
 30
0.0
 11
2.186999999999999
 21
5.663924703604388
 31
0.0
  0
LINE
  5
5E8
330
18
100
AcDbEntity
  8
Object
100
AcDbLine
 10
2.186999999999999
 20
5.663924703604388
 30
0.0
 11
2.176
 21
5.643924703604389
 31
0.0
  0
LINE
  5
5E9
330
18
100
AcDbEntity
  8
Object
100
AcDbLine
 10
2.176
 20
5.643924703604389
 30
0.0
 11
2.169999999999999
 21
5.621924703604388
 31
0.0
  0
LINE
  5
5EA
330
18
100
AcDbEntity
  8
Object
100
AcDbLine
 10
2.169999999999999
 20
5.621924703604388
 30
0.0
 11
2.168
 21
5.601924703604389
 31
0.0
  0
LINE
  5
5EB
330
18
100
AcDbEntity
  8
Object
100
AcDbLine
 10
4.54
 20
3.866924703604389
 30
0.0
 11
4.54
 21
4.925924703604389
 31
0.0
  0
LINE
  5
5EC
330
18
100
AcDbEntity
  8
Object
100
AcDbLine
 10
4.54
 20
3.691924703604388
 30
0.0
 11
4.538999999999999
 21
3.692924703604389
 31
0.0
  0
LINE
  5
5ED
330
18
100
AcDbEntity
  8
Object
100
AcDbLine
 10
4.506999999999999
 20
3.609924703604388
 30
0.0
 11
4.488
 21
3.594924703604388
 31
0.0
  0
LINE
  5
5EE
330
18
100
AcDbEntity
  8
Object
100
AcDbLine
 10
4.488
 20
3.594924703604388
 30
0.0
 11
4.467999999999999
 21
3.584924703604388
 31
0.0
  0
LINE
  5
5EF
330
18
100
AcDbEntity
  8
Object
100
AcDbLine
 10
4.467999999999999
 20
3.584924703604388
 30
0.0
 11
4.445999999999999
 21
3.578924703604388
 31
0.0
  0
LINE
  5
5F0
330
18
100
AcDbEntity
  8
Object
100
AcDbLine
 10
4.445999999999999
 20
3.578924703604388
 30
0.0
 11
4.424999999999999
 21
3.576924703604388
 31
0.0
  0
LINE
  5
5F1
330
18
100
AcDbEntity
  8
Object
100
AcDbLine
 10
4.424999999999999
 20
5.716924703604388
 30
0.0
 11
4.424
 21
5.715924703604389
 31
0.0
  0
LINE
  5
5F2
330
18
100
AcDbEntity
  8
Object
100
AcDbLine
 10
4.424
 20
5.715924703604389
 30
0.0
 11
2.284
 21
5.715924703604389
 31
0.0
  0
LINE
  5
5F3
330
18
100
AcDbEntity
  8
Object
100
AcDbLine
 10
4.424
 20
3.577924703604388
 30
0.0
 11
4.424999999999999
 21
3.576924703604388
 31
0.0
  0
LINE
  5
5F4
330
18
100
AcDbEntity
  8
Object
100
AcDbLine
 10
4.424999999999999
 20
3.576924703604388
 30
0.0
 11
4.134
 21
3.576924703604388
 31
0.0
  0
LINE
  5
5F5
330
18
100
AcDbEntity
  8
Object
100
AcDbLine
 10
4.134
 20
3.576924703604388
 30
0.0
 11
2.575
 21
3.576924703604388
 31
0.0
  0
LINE
  5
5F6
330
18
100
AcDbEntity
  8
Object
100
AcDbLine
 10
2.575
 20
3.576924703604388
 30
0.0
 11
2.282999999999999
 21
3.576924703604388
 31
0.0
  0
LINE
  5
5F7
330
18
100
AcDbEntity
  8
Object
100
AcDbLine
 10
2.282999999999999
 20
3.576924703604388
 30
0.0
 11
2.284
 21
3.577924703604388
 31
0.0
  0
LINE
  5
5F8
330
18
100
AcDbEntity
  8
Object
100
AcDbLine
 10
2.22
 20
3.596924703604388
 30
0.0
 11
2.202999999999999
 21
3.610924703604388
 31
0.0
  0
LINE
  5
5F9
330
18
100
AcDbEntity
  8
Object
100
AcDbLine
 10
2.201999999999999
 20
3.609924703604388
 30
0.0
 11
2.186999999999999
 21
3.628924703604389
 31
0.0
  0
LINE
  5
5FA
330
18
100
AcDbEntity
  8
Object
100
AcDbLine
 10
2.186999999999999
 20
3.628924703604389
 30
0.0
 11
2.176
 21
3.648924703604389
 31
0.0
  0
LINE
  5
5FB
330
18
100
AcDbEntity
  8
Object
100
AcDbLine
 10
2.176
 20
3.648924703604389
 30
0.0
 11
2.169999999999999
 21
3.670924703604388
 31
0.0
  0
LINE
  5
5FC
330
18
100
AcDbEntity
  8
Object
100
AcDbLine
 10
2.169999999999999
 20
3.670924703604388
 30
0.0
 11
2.168
 21
3.691924703604388
 31
0.0
  0
LINE
  5
5FD
330
18
100
AcDbEntity
  8
Object
100
AcDbLine
 10
2.168
 20
3.691924703604388
 30
0.0
 11
2.169
 21
3.692924703604389
 31
0.0
  0
LINE
  5
5FE
330
18
100
AcDbEntity
  8
Object
100
AcDbLine
 10
2.168
 20
4.925924703604389
 30
0.0
 11
2.168
 21
5.601924703604389
 31
0.0
  0
LINE
  5
5FF
330
18
100
AcDbEntity
  8
Object
100
AcDbLine
 10
2.168
 20
5.601924703604389
 30
0.0
 11
2.169
 21
5.600924703604388
 31
0.0
  0
LINE
  5
600
330
18
100
AcDbEntity
  8
Object
100
AcDbLine
 10
2.169
 20
5.600924703604388
 30
0.0
 11
2.169
 21
3.692924703604389
 31
0.0
  0
LINE
  5
601
330
18
100
AcDbEntity
  8
Object
100
AcDbLine
 10
2.168
 20
4.925924703604389
 30
0.0
 11
2.168
 21
3.866924703604389
 31
0.0
  0
LINE
  5
602
330
18
100
AcDbEntity
  8
Object
100
AcDbLine
 10
2.168
 20
3.866924703604389
 30
0.0
 11
2.168
 21
3.691924703604388
 31
0.0
  0
LINE
  5
603
330
18
100
AcDbEntity
  8
Object
100
AcDbLine
 10
4.522
 20
5.663924703604388
 30
0.0
 11
4.506999999999999
 21
5.682924703604388
 31
0.0
  0
LINE
  5
604
330
18
100
AcDbEntity
  8
Object
100
AcDbLine
 10
4.506999999999999
 20
3.609924703604388
 30
0.0
 11
4.522
 21
3.628924703604389
 31
0.0
  0
LINE
  5
605
330
18
100
AcDbEntity
  8
Object
100
AcDbLine
 10
4.532
 20
5.643924703604389
 30
0.0
 11
4.522
 21
5.663924703604388
 31
0.0
  0
LINE
  5
606
330
18
100
AcDbEntity
  8
Object
100
AcDbLine
 10
4.522
 20
3.628924703604389
 30
0.0
 11
4.532
 21
3.648924703604389
 31
0.0
  0
LINE
  5
607
330
18
100
AcDbEntity
  8
Object
100
AcDbLine
 10
4.467999999999999
 20
5.707924703604389
 30
0.0
 11
4.445999999999999
 21
5.714924703604388
 31
0.0
  0
LINE
  5
608
330
18
100
AcDbEntity
  8
Object
100
AcDbLine
 10
4.538999999999999
 20
5.621924703604388
 30
0.0
 11
4.532
 21
5.643924703604389
 31
0.0
  0
LINE
  5
609
330
18
100
AcDbEntity
  8
Object
100
AcDbLine
 10
4.532
 20
3.648924703604389
 30
0.0
 11
4.538999999999999
 21
3.670924703604388
 31
0.0
  0
LINE
  5
60A
330
18
100
AcDbEntity
  8
Object
100
AcDbLine
 10
4.54
 20
4.925924703604389
 30
0.0
 11
4.54
 21
5.601924703604389
 31
0.0
  0
LINE
  5
60B
330
18
100
AcDbEntity
  8
Object
100
AcDbLine
 10
4.54
 20
3.691924703604388
 30
0.0
 11
4.54
 21
3.866924703604389
 31
0.0
  0
LINE
  5
60C
330
18
100
AcDbEntity
  8
Object
100
AcDbLine
 10
4.54
 20
5.601924703604389
 30
0.0
 11
4.538999999999999
 21
5.621924703604388
 31
0.0
  0
LINE
  5
60D
330
18
100
AcDbEntity
  8
Object
100
AcDbLine
 10
4.538999999999999
 20
3.670924703604388
 30
0.0
 11
4.54
 21
3.691924703604388
 31
0.0
  0
LINE
  5
60E
330
18
100
AcDbEntity
  8
Object
100
AcDbLine
 10
4.424999999999999
 20
5.716924703604388
 30
0.0
 11
2.282999999999999
 21
5.716924703604388
 31
0.0
  0
LINE
  5
60F
330
18
100
AcDbEntity
  8
Object
100
AcDbLine
 10
2.240999999999999
 20
5.707924703604389
 30
0.0
 11
2.22
 21
5.697924703604389
 31
0.0
  0
LINE
  5
610
330
18
100
AcDbEntity
  8
Object
100
AcDbLine
 10
2.22
 20
5.697924703604389
 30
0.0
 11
2.201999999999999
 21
5.682924703604388
 31
0.0
  0
LINE
  5
611
330
18
100
AcDbEntity
  8
Object
100
AcDbLine
 10
2.201999999999999
 20
3.609924703604388
 30
0.0
 11
2.22
 21
3.594924703604388
 31
0.0
  0
LINE
  5
612
330
18
100
AcDbEntity
  8
Object
100
AcDbLine
 10
2.22
 20
3.594924703604388
 30
0.0
 11
2.240999999999999
 21
3.584924703604388
 31
0.0
  0
LINE
  5
613
330
18
100
AcDbEntity
  8
Object
100
AcDbLine
 10
2.262
 20
5.714924703604388
 30
0.0
 11
2.240999999999999
 21
5.707924703604389
 31
0.0
  0
LINE
  5
614
330
18
100
AcDbEntity
  8
Object
100
AcDbLine
 10
2.240999999999999
 20
3.584924703604388
 30
0.0
 11
2.262
 21
3.578924703604388
 31
0.0
  0
LINE
  5
615
330
18
100
AcDbEntity
  8
Object
100
AcDbLine
 10
2.282999999999999
 20
5.716924703604388
 30
0.0
 11
2.262
 21
5.714924703604388
 31
0.0
  0
LINE
  5
616
330
18
100
AcDbEntity
  8
Object
100
AcDbLine
 10
2.262
 20
3.578924703604388
 30
0.0
 11
2.282999999999999
 21
3.576924703604388
 31
0.0
  0
LINE
  5
617
330
18
100
AcDbEntity
  8
Object
100
AcDbLine
 10
4.488999999999999
 20
7.105924703604388
 30
0.0
 11
4.485
 21
7.105924703604388
 31
0.0
  0
LINE
  5
618
330
18
100
AcDbEntity
  8
Object
100
AcDbLine
 10
4.485
 20
7.105924703604388
 30
0.0
 11
4.469999999999999
 21
7.105924703604388
 31
0.0
  0
LINE
  5
619
330
18
100
AcDbEntity
  8
Object
100
AcDbLine
 10
4.469999999999999
 20
7.105924703604388
 30
0.0
 11
4.448999999999999
 21
7.105924703604388
 31
0.0
  0
LINE
  5
61A
330
18
100
AcDbEntity
  8
Object
100
AcDbLine
 10
4.448999999999999
 20
7.105924703604388
 30
0.0
 11
4.424
 21
7.105924703604388
 31
0.0
  0
LINE
  5
61B
330
18
100
AcDbEntity
  8
Object
100
AcDbLine
 10
4.424
 20
7.105924703604388
 30
0.0
 11
2.284
 21
7.105924703604388
 31
0.0
  0
LINE
  5
61C
330
18
100
AcDbEntity
  8
Object
100
AcDbLine
 10
2.284
 20
7.105924703604388
 30
0.0
 11
2.259
 21
7.105924703604388
 31
0.0
  0
LINE
  5
61D
330
18
100
AcDbEntity
  8
Object
100
AcDbLine
 10
2.259
 20
7.105924703604388
 30
0.0
 11
2.237999999999999
 21
7.105924703604388
 31
0.0
  0
LINE
  5
61E
330
18
100
AcDbEntity
  8
Object
100
AcDbLine
 10
2.237999999999999
 20
7.105924703604388
 30
0.0
 11
2.224
 21
7.105924703604388
 31
0.0
  0
LINE
  5
61F
330
18
100
AcDbEntity
  8
Object
100
AcDbLine
 10
2.224
 20
7.105924703604388
 30
0.0
 11
2.218999999999999
 21
7.105924703604388
 31
0.0
  0
LINE
  5
620
330
18
100
AcDbEntity
  8
Object
100
AcDbLine
 10
4.488999999999999
 20
7.154924703604389
 30
0.0
 11
4.506
 21
7.153924703604388
 31
0.0
  0
LINE
  5
621
330
18
100
AcDbEntity
  8
Object
100
AcDbLine
 10
4.506
 20
7.153924703604388
 30
0.0
 11
4.501
 21
7.129924703604388
 31
0.0
  0
LINE
  5
622
330
18
100
AcDbEntity
  8
Object
100
AcDbLine
 10
4.488999999999999
 20
7.154924703604389
 30
0.0
 11
4.467999999999999
 21
7.154924703604389
 31
0.0
  0
LINE
  5
623
330
18
100
AcDbEntity
  8
Object
100
AcDbLine
 10
4.501
 20
7.129924703604388
 30
0.0
 11
4.488
 21
7.111924703604389
 31
0.0
  0
LINE
  5
624
330
18
100
AcDbEntity
  8
Object
100
AcDbLine
 10
4.488
 20
7.111924703604389
 30
0.0
 11
4.469999999999999
 21
7.105924703604388
 31
0.0
  0
LINE
  5
625
330
18
100
AcDbEntity
  8
Object
100
AcDbLine
 10
4.469999999999999
 20
7.105924703604388
 30
0.0
 11
4.448999999999999
 21
7.105924703604388
 31
0.0
  0
LINE
  5
626
330
18
100
AcDbEntity
  8
Object
100
AcDbLine
 10
4.467999999999999
 20
7.154924703604389
 30
0.0
 11
4.447
 21
7.154924703604389
 31
0.0
  0
LINE
  5
627
330
18
100
AcDbEntity
  8
Object
100
AcDbLine
 10
4.447
 20
7.154924703604389
 30
0.0
 11
4.424
 21
7.154924703604389
 31
0.0
  0
LINE
  5
628
330
18
100
AcDbEntity
  8
Object
100
AcDbLine
 10
4.424
 20
7.105924703604388
 30
0.0
 11
4.448999999999999
 21
7.105924703604388
 31
0.0
  0
LINE
  5
629
330
18
100
AcDbEntity
  8
Object
100
AcDbLine
 10
2.221
 20
7.111924703604389
 30
0.0
 11
2.237999999999999
 21
7.105924703604388
 31
0.0
  0
LINE
  5
62A
330
18
100
AcDbEntity
  8
Object
100
AcDbLine
 10
2.237999999999999
 20
7.105924703604388
 30
0.0
 11
2.224
 21
7.105924703604388
 31
0.0
  0
LINE
  5
62B
330
18
100
AcDbEntity
  8
Object
100
AcDbLine
 10
2.221
 20
7.111924703604389
 30
0.0
 11
2.208
 21
7.129924703604388
 31
0.0
  0
LINE
  5
62C
330
18
100
AcDbEntity
  8
Object
100
AcDbLine
 10
2.224
 20
7.105924703604388
 30
0.0
 11
2.218999999999999
 21
7.105924703604388
 31
0.0
  0
LINE
  5
62D
330
18
100
AcDbEntity
  8
Object
100
AcDbLine
 10
2.218999999999999
 20
7.105924703604388
 30
0.0
 11
2.195
 21
7.111924703604389
 31
0.0
  0
LINE
  5
62E
330
18
100
AcDbEntity
  8
Object
100
AcDbLine
 10
2.189
 20
7.154924703604389
 30
0.0
 11
2.202999999999999
 21
7.153924703604388
 31
0.0
  0
LINE
  5
62F
330
18
100
AcDbEntity
  8
Object
100
AcDbLine
 10
2.202999999999999
 20
7.153924703604388
 30
0.0
 11
2.208
 21
7.129924703604388
 31
0.0
  0
LINE
  5
630
330
18
100
AcDbEntity
  8
Object
100
AcDbLine
 10
2.189
 20
7.154924703604389
 30
0.0
 11
2.177999999999999
 21
7.154924703604389
 31
0.0
  0
LINE
  5
631
330
18
100
AcDbEntity
  8
Object
100
AcDbLine
 10
2.176
 20
7.129924703604388
 30
0.0
 11
2.195
 21
7.111924703604389
 31
0.0
  0
LINE
  5
632
330
18
100
AcDbEntity
  8
Object
100
AcDbLine
 10
2.177999999999999
 20
7.154924703604389
 30
0.0
 11
2.172
 21
7.154924703604389
 31
0.0
  0
LINE
  5
633
330
18
100
AcDbEntity
  8
Object
100
AcDbLine
 10
2.176
 20
7.129924703604388
 30
0.0
 11
2.169
 21
7.154924703604389
 31
0.0
  0
LINE
  5
634
330
18
100
AcDbEntity
  8
Object
100
AcDbLine
 10
2.169
 20
7.154924703604389
 30
0.0
 11
2.172
 21
7.154924703604389
 31
0.0
  0
LINE
  5
635
330
18
100
AcDbEntity
  8
Object
100
AcDbLine
 10
4.538999999999999
 20
7.154924703604389
 30
0.0
 11
4.532
 21
7.129924703604388
 31
0.0
  0
LINE
  5
636
330
18
100
AcDbEntity
  8
Object
100
AcDbLine
 10
4.532
 20
7.129924703604388
 30
0.0
 11
4.514
 21
7.111924703604389
 31
0.0
  0
LINE
  5
637
330
18
100
AcDbEntity
  8
Object
100
AcDbLine
 10
4.514
 20
7.111924703604389
 30
0.0
 11
4.488999999999999
 21
7.105924703604388
 31
0.0
  0
LINE
  5
638
330
18
100
AcDbEntity
  8
Object
100
AcDbLine
 10
2.262
 20
7.154924703604389
 30
0.0
 11
2.284
 21
7.154924703604389
 31
0.0
  0
LINE
  5
639
330
18
100
AcDbEntity
  8
Object
100
AcDbLine
 10
2.284
 20
7.154924703604389
 30
0.0
 11
2.284
 21
7.129924703604388
 31
0.0
  0
LINE
  5
63A
330
18
100
AcDbEntity
  8
Object
100
AcDbLine
 10
2.284
 20
7.111924703604389
 30
0.0
 11
2.284
 21
7.105924703604388
 31
0.0
  0
LINE
  5
63B
330
18
100
AcDbEntity
  8
Object
100
AcDbLine
 10
2.284
 20
7.105924703604388
 30
0.0
 11
2.259
 21
7.105924703604388
 31
0.0
  0
LINE
  5
63C
330
18
100
AcDbEntity
  8
Object
100
AcDbLine
 10
2.284
 20
7.111924703604389
 30
0.0
 11
2.284
 21
7.129924703604388
 31
0.0
  0
LINE
  5
63D
330
18
100
AcDbEntity
  8
Object
100
AcDbLine
 10
2.262
 20
7.154924703604389
 30
0.0
 11
2.24
 21
7.154924703604389
 31
0.0
  0
LINE
  5
63E
330
18
100
AcDbEntity
  8
Object
100
AcDbLine
 10
2.237999999999999
 20
7.105924703604388
 30
0.0
 11
2.259
 21
7.105924703604388
 31
0.0
  0
LINE
  5
63F
330
18
100
AcDbEntity
  8
Object
100
AcDbLine
 10
2.24
 20
7.154924703604389
 30
0.0
 11
2.22
 21
7.154924703604389
 31
0.0
  0
LINE
  5
640
330
18
100
AcDbEntity
  8
Object
100
AcDbLine
 10
4.424
 20
7.154924703604389
 30
0.0
 11
4.424
 21
7.129924703604388
 31
0.0
  0
LINE
  5
641
330
18
100
AcDbEntity
  8
Object
100
AcDbLine
 10
4.424
 20
7.129924703604388
 30
0.0
 11
4.424
 21
7.111924703604389
 31
0.0
  0
LINE
  5
642
330
18
100
AcDbEntity
  8
Object
100
AcDbLine
 10
4.424
 20
7.111924703604389
 30
0.0
 11
4.424
 21
7.105924703604388
 31
0.0
  0
LINE
  5
643
330
18
100
AcDbEntity
  8
Object
100
AcDbLine
 10
4.424
 20
7.105924703604388
 30
0.0
 11
2.284
 21
7.105924703604388
 31
0.0
  0
LINE
  5
644
330
18
100
AcDbEntity
  8
Object
100
AcDbLine
 10
4.536999999999999
 20
7.154924703604389
 30
0.0
 11
4.538999999999999
 21
7.154924703604389
 31
0.0
  0
LINE
  5
645
330
18
100
AcDbEntity
  8
Object
100
AcDbLine
 10
4.538999999999999
 20
7.154924703604389
 30
0.0
 11
4.532
 21
7.129924703604388
 31
0.0
  0
LINE
  5
646
330
18
100
AcDbEntity
  8
Object
100
AcDbLine
 10
4.536999999999999
 20
7.154924703604389
 30
0.0
 11
4.530999999999999
 21
7.154924703604389
 31
0.0
  0
LINE
  5
647
330
18
100
AcDbEntity
  8
Object
100
AcDbLine
 10
4.530999999999999
 20
7.154924703604389
 30
0.0
 11
4.52
 21
7.154924703604389
 31
0.0
  0
LINE
  5
648
330
18
100
AcDbEntity
  8
Object
100
AcDbLine
 10
4.514
 20
7.111924703604389
 30
0.0
 11
4.532
 21
7.129924703604388
 31
0.0
  0
LINE
  5
649
330
18
100
AcDbEntity
  8
Object
100
AcDbLine
 10
4.52
 20
7.154924703604389
 30
0.0
 11
4.506
 21
7.153924703604388
 31
0.0
  0
LINE
  5
64A
330
18
100
AcDbEntity
  8
Object
100
AcDbLine
 10
4.514
 20
7.111924703604389
 30
0.0
 11
4.488999999999999
 21
7.105924703604388
 31
0.0
  0
LINE
  5
64B
330
18
100
AcDbEntity
  8
Object
100
AcDbLine
 10
4.488999999999999
 20
7.105924703604388
 30
0.0
 11
4.485
 21
7.105924703604388
 31
0.0
  0
LINE
  5
64C
330
18
100
AcDbEntity
  8
Object
100
AcDbLine
 10
4.485
 20
7.105924703604388
 30
0.0
 11
4.469999999999999
 21
7.105924703604388
 31
0.0
  0
LINE
  5
64D
330
18
100
AcDbEntity
  8
Object
100
AcDbLine
 10
2.218999999999999
 20
7.105924703604388
 30
0.0
 11
2.195
 21
7.111924703604389
 31
0.0
  0
LINE
  5
64E
330
18
100
AcDbEntity
  8
Object
100
AcDbLine
 10
2.195
 20
7.111924703604389
 30
0.0
 11
2.176
 21
7.129924703604388
 31
0.0
  0
LINE
  5
64F
330
18
100
AcDbEntity
  8
Object
100
AcDbLine
 10
2.176
 20
7.129924703604388
 30
0.0
 11
2.169
 21
7.154924703604389
 31
0.0
  0
LINE
  5
650
330
18
100
AcDbEntity
  8
Object
100
AcDbLine
 10
4.538999999999999
 20
7.210924703604389
 30
0.0
 11
4.54
 21
7.210924703604389
 31
0.0
  0
LINE
  5
651
330
18
100
AcDbEntity
  8
Object
100
AcDbLine
 10
4.54
 20
7.210924703604389
 30
0.0
 11
4.538999999999999
 21
7.154924703604389
 31
0.0
  0
LINE
  5
652
330
18
100
AcDbEntity
  8
Object
100
AcDbLine
 10
4.538999999999999
 20
7.210924703604389
 30
0.0
 11
4.532
 21
7.210924703604389
 31
0.0
  0
LINE
  5
653
330
18
100
AcDbEntity
  8
Object
100
AcDbLine
 10
4.532
 20
7.210924703604389
 30
0.0
 11
4.522
 21
7.210924703604389
 31
0.0
  0
LINE
  5
654
330
18
100
AcDbEntity
  8
Object
100
AcDbLine
 10
4.522
 20
7.210924703604389
 30
0.0
 11
4.506999999999999
 21
7.210924703604389
 31
0.0
  0
LINE
  5
655
330
18
100
AcDbEntity
  8
Object
100
AcDbLine
 10
4.506999999999999
 20
7.210924703604389
 30
0.0
 11
4.488
 21
7.210924703604389
 31
0.0
  0
LINE
  5
656
330
18
100
AcDbEntity
  8
Object
100
AcDbLine
 10
4.488
 20
7.210924703604389
 30
0.0
 11
4.467999999999999
 21
7.210924703604389
 31
0.0
  0
LINE
  5
657
330
18
100
AcDbEntity
  8
Object
100
AcDbLine
 10
4.467999999999999
 20
7.210924703604389
 30
0.0
 11
4.445999999999999
 21
7.210924703604389
 31
0.0
  0
LINE
  5
658
330
18
100
AcDbEntity
  8
Object
100
AcDbLine
 10
4.445999999999999
 20
7.210924703604389
 30
0.0
 11
4.424999999999999
 21
7.210924703604389
 31
0.0
  0
LINE
  5
659
330
18
100
AcDbEntity
  8
Object
100
AcDbLine
 10
2.262
 20
7.210924703604389
 30
0.0
 11
2.282999999999999
 21
7.210924703604389
 31
0.0
  0
LINE
  5
65A
330
18
100
AcDbEntity
  8
Object
100
AcDbLine
 10
2.282999999999999
 20
7.210924703604389
 30
0.0
 11
2.284
 21
7.154924703604389
 31
0.0
  0
LINE
  5
65B
330
18
100
AcDbEntity
  8
Object
100
AcDbLine
 10
2.262
 20
7.210924703604389
 30
0.0
 11
2.240999999999999
 21
7.210924703604389
 31
0.0
  0
LINE
  5
65C
330
18
100
AcDbEntity
  8
Object
100
AcDbLine
 10
2.240999999999999
 20
7.210924703604389
 30
0.0
 11
2.22
 21
7.210924703604389
 31
0.0
  0
LINE
  5
65D
330
18
100
AcDbEntity
  8
Object
100
AcDbLine
 10
2.202999999999999
 20
7.153924703604388
 30
0.0
 11
2.22
 21
7.154924703604389
 31
0.0
  0
LINE
  5
65E
330
18
100
AcDbEntity
  8
Object
100
AcDbLine
 10
2.22
 20
7.210924703604389
 30
0.0
 11
2.201999999999999
 21
7.210924703604389
 31
0.0
  0
LINE
  5
65F
330
18
100
AcDbEntity
  8
Object
100
AcDbLine
 10
2.201999999999999
 20
7.210924703604389
 30
0.0
 11
2.186999999999999
 21
7.210924703604389
 31
0.0
  0
LINE
  5
660
330
18
100
AcDbEntity
  8
Object
100
AcDbLine
 10
2.186999999999999
 20
7.210924703604389
 30
0.0
 11
2.176
 21
7.210924703604389
 31
0.0
  0
LINE
  5
661
330
18
100
AcDbEntity
  8
Object
100
AcDbLine
 10
2.176
 20
7.210924703604389
 30
0.0
 11
2.169999999999999
 21
7.210924703604389
 31
0.0
  0
LINE
  5
662
330
18
100
AcDbEntity
  8
Object
100
AcDbLine
 10
2.169
 20
7.154924703604389
 30
0.0
 11
2.168
 21
7.210924703604389
 31
0.0
  0
LINE
  5
663
330
18
100
AcDbEntity
  8
Object
100
AcDbLine
 10
2.168
 20
7.210924703604389
 30
0.0
 11
2.169999999999999
 21
7.210924703604389
 31
0.0
  0
LINE
  5
664
330
18
100
AcDbEntity
  8
Object
100
AcDbLine
 10
4.538999999999999
 20
7.154924703604389
 30
0.0
 11
4.54
 21
7.210924703604389
 31
0.0
  0
LINE
  5
665
330
18
100
AcDbEntity
  8
Object
100
AcDbLine
 10
2.282999999999999
 20
7.210924703604389
 30
0.0
 11
4.424999999999999
 21
7.210924703604389
 31
0.0
  0
LINE
  5
666
330
18
100
AcDbEntity
  8
Object
100
AcDbLine
 10
4.424999999999999
 20
7.210924703604389
 30
0.0
 11
4.424
 21
7.154924703604389
 31
0.0
  0
LINE
  5
667
330
18
100
AcDbEntity
  8
Object
100
AcDbLine
 10
4.424
 20
7.154924703604389
 30
0.0
 11
2.284
 21
7.154924703604389
 31
0.0
  0
LINE
  5
668
330
18
100
AcDbEntity
  8
Object
100
AcDbLine
 10
2.168
 20
7.210924703604389
 30
0.0
 11
2.169
 21
7.154924703604389
 31
0.0
  0
LINE
  5
669
330
18
100
AcDbEntity
  8
Object
100
AcDbLine
 10
4.54
 20
7.210924703604389
 30
0.0
 11
4.538999999999999
 21
7.210924703604389
 31
0.0
  0
LINE
  5
66A
330
18
100
AcDbEntity
  8
Object
100
AcDbLine
 10
4.538999999999999
 20
7.210924703604389
 30
0.0
 11
4.532
 21
7.210924703604389
 31
0.0
  0
LINE
  5
66B
330
18
100
AcDbEntity
  8
Object
100
AcDbLine
 10
4.532
 20
7.210924703604389
 30
0.0
 11
4.522
 21
7.210924703604389
 31
0.0
  0
LINE
  5
66C
330
18
100
AcDbEntity
  8
Object
100
AcDbLine
 10
4.522
 20
7.210924703604389
 30
0.0
 11
4.506999999999999
 21
7.210924703604389
 31
0.0
  0
LINE
  5
66D
330
18
100
AcDbEntity
  8
Object
100
AcDbLine
 10
4.506999999999999
 20
7.210924703604389
 30
0.0
 11
4.488
 21
7.210924703604389
 31
0.0
  0
LINE
  5
66E
330
18
100
AcDbEntity
  8
Object
100
AcDbLine
 10
4.488
 20
7.210924703604389
 30
0.0
 11
4.467999999999999
 21
7.210924703604389
 31
0.0
  0
LINE
  5
66F
330
18
100
AcDbEntity
  8
Object
100
AcDbLine
 10
4.467999999999999
 20
7.210924703604389
 30
0.0
 11
4.445999999999999
 21
7.210924703604389
 31
0.0
  0
LINE
  5
670
330
18
100
AcDbEntity
  8
Object
100
AcDbLine
 10
4.445999999999999
 20
7.210924703604389
 30
0.0
 11
4.424999999999999
 21
7.210924703604389
 31
0.0
  0
LINE
  5
671
330
18
100
AcDbEntity
  8
Object
100
AcDbLine
 10
4.424999999999999
 20
7.210924703604389
 30
0.0
 11
2.282999999999999
 21
7.210924703604389
 31
0.0
  0
LINE
  5
672
330
18
100
AcDbEntity
  8
Object
100
AcDbLine
 10
2.282999999999999
 20
7.210924703604389
 30
0.0
 11
2.262
 21
7.210924703604389
 31
0.0
  0
LINE
  5
673
330
18
100
AcDbEntity
  8
Object
100
AcDbLine
 10
2.262
 20
7.210924703604389
 30
0.0
 11
2.240999999999999
 21
7.210924703604389
 31
0.0
  0
LINE
  5
674
330
18
100
AcDbEntity
  8
Object
100
AcDbLine
 10
2.240999999999999
 20
7.210924703604389
 30
0.0
 11
2.22
 21
7.210924703604389
 31
0.0
  0
LINE
  5
675
330
18
100
AcDbEntity
  8
Object
100
AcDbLine
 10
2.22
 20
7.210924703604389
 30
0.0
 11
2.201999999999999
 21
7.210924703604389
 31
0.0
  0
LINE
  5
676
330
18
100
AcDbEntity
  8
Object
100
AcDbLine
 10
2.201999999999999
 20
7.210924703604389
 30
0.0
 11
2.186999999999999
 21
7.210924703604389
 31
0.0
  0
LINE
  5
677
330
18
100
AcDbEntity
  8
Object
100
AcDbLine
 10
2.186999999999999
 20
7.210924703604389
 30
0.0
 11
2.176
 21
7.210924703604389
 31
0.0
  0
LINE
  5
678
330
18
100
AcDbEntity
  8
Object
100
AcDbLine
 10
2.176
 20
7.210924703604389
 30
0.0
 11
2.169999999999999
 21
7.210924703604389
 31
0.0
  0
LINE
  5
679
330
18
100
AcDbEntity
  8
Object
100
AcDbLine
 10
2.169999999999999
 20
7.210924703604389
 30
0.0
 11
2.168
 21
7.210924703604389
 31
0.0
  0
LINE
  5
67A
330
18
100
AcDbEntity
  8
Object
100
AcDbLine
 10
4.54
 20
7.218924703604389
 30
0.0
 11
4.54
 21
7.212924703604389
 31
0.0
  0
LINE
  5
67B
330
18
100
AcDbEntity
  8
Object
100
AcDbLine
 10
4.54
 20
7.212924703604389
 30
0.0
 11
4.54
 21
7.210924703604389
 31
0.0
  0
LINE
  5
67C
330
18
100
AcDbEntity
  8
Object
100
AcDbLine
 10
4.54
 20
7.218924703604389
 30
0.0
 11
4.54
 21
7.228924703604389
 31
0.0
  0
LINE
  5
67D
330
18
100
AcDbEntity
  8
Object
100
AcDbLine
 10
4.54
 20
7.228924703604389
 30
0.0
 11
4.54
 21
7.239924703604389
 31
0.0
  0
LINE
  5
67E
330
18
100
AcDbEntity
  8
Object
100
AcDbLine
 10
4.54
 20
7.239924703604389
 30
0.0
 11
4.533999999999999
 21
7.596924703604389
 31
0.0
  0
LINE
  5
67F
330
18
100
AcDbEntity
  8
Object
100
AcDbLine
 10
4.533999999999999
 20
7.596924703604389
 30
0.0
 11
4.533
 21
7.629924703604388
 31
0.0
  0
LINE
  5
680
330
18
100
AcDbEntity
  8
Object
100
AcDbLine
 10
4.533
 20
7.629924703604388
 30
0.0
 11
4.533
 21
7.659924703604389
 31
0.0
  0
LINE
  5
681
330
18
100
AcDbEntity
  8
Object
100
AcDbLine
 10
4.533
 20
7.659924703604389
 30
0.0
 11
4.532
 21
7.679924703604388
 31
0.0
  0
LINE
  5
682
330
18
100
AcDbEntity
  8
Object
100
AcDbLine
 10
4.532
 20
7.679924703604388
 30
0.0
 11
4.532
 21
7.685924703604388
 31
0.0
  0
LINE
  5
683
330
18
100
AcDbEntity
  8
Object
100
AcDbLine
 10
2.176999999999999
 20
7.685924703604388
 30
0.0
 11
2.176999999999999
 21
7.679924703604388
 31
0.0
  0
LINE
  5
684
330
18
100
AcDbEntity
  8
Object
100
AcDbLine
 10
2.176999999999999
 20
7.679924703604388
 30
0.0
 11
2.176
 21
7.659924703604389
 31
0.0
  0
LINE
  5
685
330
18
100
AcDbEntity
  8
Object
100
AcDbLine
 10
2.176
 20
7.659924703604389
 30
0.0
 11
2.176
 21
7.629924703604388
 31
0.0
  0
LINE
  5
686
330
18
100
AcDbEntity
  8
Object
100
AcDbLine
 10
2.176
 20
7.629924703604388
 30
0.0
 11
2.175
 21
7.596924703604389
 31
0.0
  0
LINE
  5
687
330
18
100
AcDbEntity
  8
Object
100
AcDbLine
 10
2.175
 20
7.596924703604389
 30
0.0
 11
2.169
 21
7.239924703604389
 31
0.0
  0
LINE
  5
688
330
18
100
AcDbEntity
  8
Object
100
AcDbLine
 10
2.169
 20
7.239924703604389
 30
0.0
 11
2.169
 21
7.228924703604389
 31
0.0
  0
LINE
  5
689
330
18
100
AcDbEntity
  8
Object
100
AcDbLine
 10
2.169
 20
7.228924703604389
 30
0.0
 11
2.169
 21
7.218924703604389
 31
0.0
  0
LINE
  5
68A
330
18
100
AcDbEntity
  8
Object
100
AcDbLine
 10
2.169
 20
7.218924703604389
 30
0.0
 11
2.168
 21
7.212924703604389
 31
0.0
  0
LINE
  5
68B
330
18
100
AcDbEntity
  8
Object
100
AcDbLine
 10
2.168
 20
7.212924703604389
 30
0.0
 11
2.168
 21
7.210924703604389
 31
0.0
  0
LINE
  5
68C
330
18
100
AcDbEntity
  8
Object
100
AcDbLine
 10
3.849
 20
7.210924703604389
 30
0.0
 11
3.837
 21
7.560924703604388
 31
0.0
  0
LINE
  5
68D
330
18
100
AcDbEntity
  8
Object
100
AcDbLine
 10
2.265
 20
7.228924703604389
 30
0.0
 11
2.265
 21
7.239924703604389
 31
0.0
  0
LINE
  5
68E
330
18
100
AcDbEntity
  8
Object
100
AcDbLine
 10
2.169
 20
7.228924703604389
 30
0.0
 11
2.169
 21
7.239924703604389
 31
0.0
  0
LINE
  5
68F
330
18
100
AcDbEntity
  8
Object
100
AcDbLine
 10
2.169
 20
7.239924703604389
 30
0.0
 11
2.265
 21
7.239924703604389
 31
0.0
  0
LINE
  5
690
330
18
100
AcDbEntity
  8
Object
100
AcDbLine
 10
2.169
 20
7.228924703604389
 30
0.0
 11
2.169
 21
7.218924703604389
 31
0.0
  0
LINE
  5
691
330
18
100
AcDbEntity
  8
Object
100
AcDbLine
 10
2.265
 20
7.228924703604389
 30
0.0
 11
2.265
 21
7.218924703604389
 31
0.0
  0
LINE
  5
692
330
18
100
AcDbEntity
  8
Object
100
AcDbLine
 10
2.265
 20
7.218924703604389
 30
0.0
 11
2.265
 21
7.212924703604389
 31
0.0
  0
LINE
  5
693
330
18
100
AcDbEntity
  8
Object
100
AcDbLine
 10
2.168
 20
7.210924703604389
 30
0.0
 11
2.168
 21
7.212924703604389
 31
0.0
  0
LINE
  5
694
330
18
100
AcDbEntity
  8
Object
100
AcDbLine
 10
2.168
 20
7.212924703604389
 30
0.0
 11
2.169
 21
7.218924703604389
 31
0.0
  0
LINE
  5
695
330
18
100
AcDbEntity
  8
Object
100
AcDbLine
 10
2.265
 20
7.210924703604389
 30
0.0
 11
2.265
 21
7.212924703604389
 31
0.0
  0
LINE
  5
696
330
18
100
AcDbEntity
  8
Object
100
AcDbLine
 10
4.024
 20
7.679924703604388
 30
0.0
 11
4.054999999999999
 21
7.659924703604389
 31
0.0
  0
LINE
  5
697
330
18
100
AcDbEntity
  8
Object
100
AcDbLine
 10
4.054999999999999
 20
7.659924703604389
 30
0.0
 11
4.076
 21
7.629924703604388
 31
0.0
  0
LINE
  5
698
330
18
100
AcDbEntity
  8
Object
100
AcDbLine
 10
4.076
 20
7.629924703604388
 30
0.0
 11
4.084
 21
7.596924703604389
 31
0.0
  0
LINE
  5
699
330
18
100
AcDbEntity
  8
Object
100
AcDbLine
 10
4.024
 20
7.679924703604388
 30
0.0
 11
3.991
 21
7.685924703604388
 31
0.0
  0
LINE
  5
69A
330
18
100
AcDbEntity
  8
Object
100
AcDbLine
 10
4.086
 20
7.560924703604388
 30
0.0
 11
4.084
 21
7.596924703604389
 31
0.0
  0
LINE
  5
69B
330
18
100
AcDbEntity
  8
Object
100
AcDbLine
 10
2.633
 20
7.629924703604388
 30
0.0
 11
2.653999999999999
 21
7.659924703604389
 31
0.0
  0
LINE
  5
69C
330
18
100
AcDbEntity
  8
Object
100
AcDbLine
 10
2.653999999999999
 20
7.659924703604389
 30
0.0
 11
2.685
 21
7.679924703604388
 31
0.0
  0
LINE
  5
69D
330
18
100
AcDbEntity
  8
Object
100
AcDbLine
 10
2.685
 20
7.679924703604388
 30
0.0
 11
2.717999999999999
 21
7.685924703604388
 31
0.0
  0
LINE
  5
69E
330
18
100
AcDbEntity
  8
Object
100
AcDbLine
 10
2.633
 20
7.629924703604388
 30
0.0
 11
2.625
 21
7.596924703604389
 31
0.0
  0
LINE
  5
69F
330
18
100
AcDbEntity
  8
Object
100
AcDbLine
 10
2.625
 20
7.596924703604389
 30
0.0
 11
2.623
 21
7.560924703604388
 31
0.0
  0
LINE
  5
6A0
330
18
100
AcDbEntity
  8
Object
100
AcDbLine
 10
3.991
 20
7.685924703604388
 30
0.0
 11
2.717999999999999
 21
7.685924703604388
 31
0.0
  0
LINE
  5
6A1
330
18
100
AcDbEntity
  8
Object
100
AcDbLine
 10
2.347999999999999
 20
7.456924703604388
 30
0.0
 11
2.343999999999999
 21
7.210924703604389
 31
0.0
  0
LINE
  5
6A2
330
18
100
AcDbEntity
  8
Object
100
AcDbLine
 10
4.161
 20
7.210924703604389
 30
0.0
 11
4.149
 21
7.560924703604388
 31
0.0
  0
LINE
  5
6A3
330
18
100
AcDbEntity
  8
Object
100
AcDbLine
 10
4.149
 20
7.560924703604388
 30
0.0
 11
3.891
 21
7.560924703604388
 31
0.0
  0
LINE
  5
6A4
330
18
100
AcDbEntity
  8
Object
100
AcDbLine
 10
4.365
 20
7.210924703604389
 30
0.0
 11
4.36
 21
7.456924703604388
 31
0.0
  0
LINE
  5
6A5
330
18
100
AcDbEntity
  8
Object
100
AcDbLine
 10
2.459999999999999
 20
7.560924703604388
 30
0.0
 11
2.447999999999999
 21
7.210924703604389
 31
0.0
  0
LINE
  5
6A6
330
18
100
AcDbEntity
  8
Object
100
AcDbLine
 10
4.451999999999999
 20
7.685924703604388
 30
0.0
 11
4.451999999999999
 21
7.679924703604388
 31
0.0
  0
LINE
  5
6A7
330
18
100
AcDbEntity
  8
Object
100
AcDbLine
 10
4.451999999999999
 20
7.679924703604388
 30
0.0
 11
4.451
 21
7.659924703604389
 31
0.0
  0
LINE
  5
6A8
330
18
100
AcDbEntity
  8
Object
100
AcDbLine
 10
4.451
 20
7.659924703604389
 30
0.0
 11
4.451
 21
7.629924703604388
 31
0.0
  0
LINE
  5
6A9
330
18
100
AcDbEntity
  8
Object
100
AcDbLine
 10
4.451
 20
7.629924703604388
 30
0.0
 11
4.45
 21
7.596924703604389
 31
0.0
  0
LINE
  5
6AA
330
18
100
AcDbEntity
  8
Object
100
AcDbLine
 10
4.45
 20
7.596924703604389
 30
0.0
 11
4.443999999999999
 21
7.239924703604389
 31
0.0
  0
LINE
  5
6AB
330
18
100
AcDbEntity
  8
Object
100
AcDbLine
 10
4.443999999999999
 20
7.239924703604389
 30
0.0
 11
4.443999999999999
 21
7.228924703604389
 31
0.0
  0
LINE
  5
6AC
330
18
100
AcDbEntity
  8
Object
100
AcDbLine
 10
4.443999999999999
 20
7.228924703604389
 30
0.0
 11
4.443999999999999
 21
7.218924703604389
 31
0.0
  0
LINE
  5
6AD
330
18
100
AcDbEntity
  8
Object
100
AcDbLine
 10
4.443999999999999
 20
7.218924703604389
 30
0.0
 11
4.443
 21
7.212924703604389
 31
0.0
  0
LINE
  5
6AE
330
18
100
AcDbEntity
  8
Object
100
AcDbLine
 10
4.443
 20
7.212924703604389
 30
0.0
 11
4.443
 21
7.210924703604389
 31
0.0
  0
LINE
  5
6AF
330
18
100
AcDbEntity
  8
Object
100
AcDbLine
 10
3.833999999999999
 20
7.560924703604388
 30
0.0
 11
3.837
 21
7.560924703604388
 31
0.0
  0
LINE
  5
6B0
330
18
100
AcDbEntity
  8
Object
100
AcDbLine
 10
3.837
 20
7.560924703604388
 30
0.0
 11
3.849
 21
7.210924703604389
 31
0.0
  0
LINE
  5
6B1
330
18
100
AcDbEntity
  8
Object
100
AcDbLine
 10
3.833999999999999
 20
7.560924703604388
 30
0.0
 11
3.825
 21
7.560924703604388
 31
0.0
  0
LINE
  5
6B2
330
18
100
AcDbEntity
  8
Object
100
AcDbLine
 10
3.825
 20
7.560924703604388
 30
0.0
 11
3.81
 21
7.560924703604388
 31
0.0
  0
LINE
  5
6B3
330
18
100
AcDbEntity
  8
Object
100
AcDbLine
 10
3.81
 20
7.560924703604388
 30
0.0
 11
3.788
 21
7.560924703604388
 31
0.0
  0
LINE
  5
6B4
330
18
100
AcDbEntity
  8
Object
100
AcDbLine
 10
3.788
 20
7.560924703604388
 30
0.0
 11
3.762
 21
7.560924703604388
 31
0.0
  0
LINE
  5
6B5
330
18
100
AcDbEntity
  8
Object
100
AcDbLine
 10
3.762
 20
7.560924703604388
 30
0.0
 11
3.733
 21
7.560924703604388
 31
0.0
  0
LINE
  5
6B6
330
18
100
AcDbEntity
  8
Object
100
AcDbLine
 10
3.733
 20
7.560924703604388
 30
0.0
 11
3.701999999999999
 21
7.560924703604388
 31
0.0
  0
LINE
  5
6B7
330
18
100
AcDbEntity
  8
Object
100
AcDbLine
 10
3.701999999999999
 20
7.560924703604388
 30
0.0
 11
3.672
 21
7.560924703604388
 31
0.0
  0
LINE
  5
6B8
330
18
100
AcDbEntity
  8
Object
100
AcDbLine
 10
4.443999999999999
 20
7.239924703604389
 30
0.0
 11
4.443999999999999
 21
7.228924703604389
 31
0.0
  0
LINE
  5
6B9
330
18
100
AcDbEntity
  8
Object
100
AcDbLine
 10
4.54
 20
7.218924703604389
 30
0.0
 11
4.54
 21
7.228924703604389
 31
0.0
  0
LINE
  5
6BA
330
18
100
AcDbEntity
  8
Object
100
AcDbLine
 10
4.443999999999999
 20
7.239924703604389
 30
0.0
 11
4.54
 21
7.239924703604389
 31
0.0
  0
LINE
  5
6BB
330
18
100
AcDbEntity
  8
Object
100
AcDbLine
 10
4.54
 20
7.239924703604389
 30
0.0
 11
4.54
 21
7.228924703604389
 31
0.0
  0
LINE
  5
6BC
330
18
100
AcDbEntity
  8
Object
100
AcDbLine
 10
4.443999999999999
 20
7.228924703604389
 30
0.0
 11
4.443999999999999
 21
7.218924703604389
 31
0.0
  0
LINE
  5
6BD
330
18
100
AcDbEntity
  8
Object
100
AcDbLine
 10
4.54
 20
7.218924703604389
 30
0.0
 11
4.54
 21
7.212924703604389
 31
0.0
  0
LINE
  5
6BE
330
18
100
AcDbEntity
  8
Object
100
AcDbLine
 10
4.54
 20
7.212924703604389
 30
0.0
 11
4.54
 21
7.210924703604389
 31
0.0
  0
LINE
  5
6BF
330
18
100
AcDbEntity
  8
Object
100
AcDbLine
 10
4.443
 20
7.210924703604389
 30
0.0
 11
4.443
 21
7.212924703604389
 31
0.0
  0
LINE
  5
6C0
330
18
100
AcDbEntity
  8
Object
100
AcDbLine
 10
4.443
 20
7.212924703604389
 30
0.0
 11
4.443999999999999
 21
7.218924703604389
 31
0.0
  0
LINE
  5
6C1
330
18
100
AcDbEntity
  8
Object
100
AcDbLine
 10
2.871999999999999
 20
7.560924703604388
 30
0.0
 11
2.867999999999999
 21
7.560924703604388
 31
0.0
  0
LINE
  5
6C2
330
18
100
AcDbEntity
  8
Object
100
AcDbLine
 10
2.867999999999999
 20
7.560924703604388
 30
0.0
 11
2.857
 21
7.560924703604388
 31
0.0
  0
LINE
  5
6C3
330
18
100
AcDbEntity
  8
Object
100
AcDbLine
 10
2.857
 20
7.560924703604388
 30
0.0
 11
2.839
 21
7.560924703604388
 31
0.0
  0
LINE
  5
6C4
330
18
100
AcDbEntity
  8
Object
100
AcDbLine
 10
2.839
 20
7.560924703604388
 30
0.0
 11
2.817999999999999
 21
7.560924703604388
 31
0.0
  0
LINE
  5
6C5
330
18
100
AcDbEntity
  8
Object
100
AcDbLine
 10
4.241999999999999
 20
7.560924703604388
 30
0.0
 11
4.248
 21
7.560924703604388
 31
0.0
  0
LINE
  5
6C6
330
18
100
AcDbEntity
  8
Object
100
AcDbLine
 10
4.248
 20
7.560924703604388
 30
0.0
 11
4.261
 21
7.210924703604389
 31
0.0
  0
LINE
  5
6C7
330
18
100
AcDbEntity
  8
Object
100
AcDbLine
 10
4.241999999999999
 20
7.560924703604388
 30
0.0
 11
4.221
 21
7.560924703604388
 31
0.0
  0
LINE
  5
6C8
330
18
100
AcDbEntity
  8
Object
100
AcDbLine
 10
4.221
 20
7.560924703604388
 30
0.0
 11
4.187999999999999
 21
7.560924703604388
 31
0.0
  0
LINE
  5
6C9
330
18
100
AcDbEntity
  8
Object
100
AcDbLine
 10
4.187999999999999
 20
7.560924703604388
 30
0.0
 11
4.149
 21
7.560924703604388
 31
0.0
  0
LINE
  5
6CA
330
18
100
AcDbEntity
  8
Object
100
AcDbLine
 10
2.871999999999999
 20
7.560924703604388
 30
0.0
 11
2.859999999999999
 21
7.210924703604389
 31
0.0
  0
LINE
  5
6CB
330
18
100
AcDbEntity
  8
Object
100
AcDbLine
 10
3.007
 20
7.560924703604388
 30
0.0
 11
3.036999999999999
 21
7.560924703604388
 31
0.0
  0
LINE
  5
6CC
330
18
100
AcDbEntity
  8
Object
100
AcDbLine
 10
3.036999999999999
 20
7.560924703604388
 30
0.0
 11
3.024999999999999
 21
7.210924703604389
 31
0.0
  0
LINE
  5
6CD
330
18
100
AcDbEntity
  8
Object
100
AcDbLine
 10
3.007
 20
7.560924703604388
 30
0.0
 11
2.975999999999999
 21
7.560924703604388
 31
0.0
  0
LINE
  5
6CE
330
18
100
AcDbEntity
  8
Object
100
AcDbLine
 10
2.975999999999999
 20
7.560924703604388
 30
0.0
 11
2.947
 21
7.560924703604388
 31
0.0
  0
LINE
  5
6CF
330
18
100
AcDbEntity
  8
Object
100
AcDbLine
 10
2.947
 20
7.560924703604388
 30
0.0
 11
2.919999999999999
 21
7.560924703604388
 31
0.0
  0
LINE
  5
6D0
330
18
100
AcDbEntity
  8
Object
100
AcDbLine
 10
2.919999999999999
 20
7.560924703604388
 30
0.0
 11
2.899
 21
7.560924703604388
 31
0.0
  0
LINE
  5
6D1
330
18
100
AcDbEntity
  8
Object
100
AcDbLine
 10
2.899
 20
7.560924703604388
 30
0.0
 11
2.883999999999999
 21
7.560924703604388
 31
0.0
  0
LINE
  5
6D2
330
18
100
AcDbEntity
  8
Object
100
AcDbLine
 10
2.883999999999999
 20
7.560924703604388
 30
0.0
 11
2.875
 21
7.560924703604388
 31
0.0
  0
LINE
  5
6D3
330
18
100
AcDbEntity
  8
Object
100
AcDbLine
 10
2.859999999999999
 20
7.210924703604389
 30
0.0
 11
2.871999999999999
 21
7.560924703604388
 31
0.0
  0
LINE
  5
6D4
330
18
100
AcDbEntity
  8
Object
100
AcDbLine
 10
2.871999999999999
 20
7.560924703604388
 30
0.0
 11
2.875
 21
7.560924703604388
 31
0.0
  0
LINE
  5
6D5
330
18
100
AcDbEntity
  8
Object
100
AcDbLine
 10
3.903
 20
7.210924703604389
 30
0.0
 11
3.891
 21
7.560924703604388
 31
0.0
  0
LINE
  5
6D6
330
18
100
AcDbEntity
  8
Object
100
AcDbLine
 10
3.891
 20
7.560924703604388
 30
0.0
 11
3.869
 21
7.560924703604388
 31
0.0
  0
LINE
  5
6D7
330
18
100
AcDbEntity
  8
Object
100
AcDbLine
 10
3.869
 20
7.560924703604388
 30
0.0
 11
3.851999999999999
 21
7.560924703604388
 31
0.0
  0
LINE
  5
6D8
330
18
100
AcDbEntity
  8
Object
100
AcDbLine
 10
3.851999999999999
 20
7.560924703604388
 30
0.0
 11
3.839999999999999
 21
7.560924703604388
 31
0.0
  0
LINE
  5
6D9
330
18
100
AcDbEntity
  8
Object
100
AcDbLine
 10
3.839999999999999
 20
7.560924703604388
 30
0.0
 11
3.837
 21
7.560924703604388
 31
0.0
  0
LINE
  5
6DA
330
18
100
AcDbEntity
  8
Object
100
AcDbLine
 10
2.520999999999999
 20
7.560924703604388
 30
0.0
 11
2.56
 21
7.560924703604388
 31
0.0
  0
LINE
  5
6DB
330
18
100
AcDbEntity
  8
Object
100
AcDbLine
 10
2.56
 20
7.560924703604388
 30
0.0
 11
2.548
 21
7.210924703604389
 31
0.0
  0
LINE
  5
6DC
330
18
100
AcDbEntity
  8
Object
100
AcDbLine
 10
2.520999999999999
 20
7.560924703604388
 30
0.0
 11
2.487999999999999
 21
7.560924703604388
 31
0.0
  0
LINE
  5
6DD
330
18
100
AcDbEntity
  8
Object
100
AcDbLine
 10
2.487999999999999
 20
7.560924703604388
 30
0.0
 11
2.467
 21
7.560924703604388
 31
0.0
  0
LINE
  5
6DE
330
18
100
AcDbEntity
  8
Object
100
AcDbLine
 10
2.447999999999999
 20
7.210924703604389
 30
0.0
 11
2.459999999999999
 21
7.560924703604388
 31
0.0
  0
LINE
  5
6DF
330
18
100
AcDbEntity
  8
Object
100
AcDbLine
 10
2.459999999999999
 20
7.560924703604388
 30
0.0
 11
2.467
 21
7.560924703604388
 31
0.0
  0
LINE
  5
6E0
330
18
100
AcDbEntity
  8
Object
100
AcDbLine
 10
2.56
 20
7.560924703604388
 30
0.0
 11
2.817999999999999
 21
7.560924703604388
 31
0.0
  0
LINE
  5
6E1
330
18
100
AcDbEntity
  8
Object
100
AcDbLine
 10
2.817999999999999
 20
7.560924703604388
 30
0.0
 11
2.806
 21
7.210924703604389
 31
0.0
  0
LINE
  5
6E2
330
18
100
AcDbEntity
  8
Object
100
AcDbLine
 10
4.261
 20
7.210924703604389
 30
0.0
 11
4.248
 21
7.560924703604388
 31
0.0
  0
LINE
  5
6E3
330
18
100
AcDbEntity
  8
Object
100
AcDbLine
 10
2.265
 20
7.210924703604389
 30
0.0
 11
2.265
 21
7.212924703604389
 31
0.0
  0
LINE
  5
6E4
330
18
100
AcDbEntity
  8
Object
100
AcDbLine
 10
2.265
 20
7.212924703604389
 30
0.0
 11
2.265
 21
7.218924703604389
 31
0.0
  0
LINE
  5
6E5
330
18
100
AcDbEntity
  8
Object
100
AcDbLine
 10
2.265
 20
7.218924703604389
 30
0.0
 11
2.265
 21
7.228924703604389
 31
0.0
  0
LINE
  5
6E6
330
18
100
AcDbEntity
  8
Object
100
AcDbLine
 10
2.265
 20
7.228924703604389
 30
0.0
 11
2.265
 21
7.239924703604389
 31
0.0
  0
LINE
  5
6E7
330
18
100
AcDbEntity
  8
Object
100
AcDbLine
 10
2.265
 20
7.239924703604389
 30
0.0
 11
2.259
 21
7.596924703604389
 31
0.0
  0
LINE
  5
6E8
330
18
100
AcDbEntity
  8
Object
100
AcDbLine
 10
2.259
 20
7.596924703604389
 30
0.0
 11
2.258
 21
7.629924703604388
 31
0.0
  0
LINE
  5
6E9
330
18
100
AcDbEntity
  8
Object
100
AcDbLine
 10
2.258
 20
7.629924703604388
 30
0.0
 11
2.258
 21
7.659924703604389
 31
0.0
  0
LINE
  5
6EA
330
18
100
AcDbEntity
  8
Object
100
AcDbLine
 10
2.258
 20
7.659924703604389
 30
0.0
 11
2.256999999999999
 21
7.679924703604388
 31
0.0
  0
LINE
  5
6EB
330
18
100
AcDbEntity
  8
Object
100
AcDbLine
 10
2.256999999999999
 20
7.679924703604388
 30
0.0
 11
2.256999999999999
 21
7.685924703604388
 31
0.0
  0
LINE
  5
6EC
330
18
100
AcDbEntity
  8
Object
100
AcDbLine
 10
2.399999999999999
 20
7.560924703604388
 30
0.0
 11
2.391
 21
7.558924703604389
 31
0.0
  0
LINE
  5
6ED
330
18
100
AcDbEntity
  8
Object
100
AcDbLine
 10
2.375
 20
7.547924703604389
 30
0.0
 11
2.382
 21
7.554924703604388
 31
0.0
  0
LINE
  5
6EE
330
18
100
AcDbEntity
  8
Object
100
AcDbLine
 10
2.382
 20
7.554924703604388
 30
0.0
 11
2.391
 21
7.558924703604389
 31
0.0
  0
LINE
  5
6EF
330
18
100
AcDbEntity
  8
Object
100
AcDbLine
 10
2.375
 20
7.547924703604389
 30
0.0
 11
2.370999999999999
 21
7.538924703604388
 31
0.0
  0
LINE
  5
6F0
330
18
100
AcDbEntity
  8
Object
100
AcDbLine
 10
2.459999999999999
 20
7.560924703604388
 30
0.0
 11
2.399999999999999
 21
7.560924703604388
 31
0.0
  0
LINE
  5
6F1
330
18
100
AcDbEntity
  8
Object
100
AcDbLine
 10
2.370999999999999
 20
7.538924703604388
 30
0.0
 11
2.35
 21
7.464924703604388
 31
0.0
  0
LINE
  5
6F2
330
18
100
AcDbEntity
  8
Object
100
AcDbLine
 10
2.35
 20
7.464924703604388
 30
0.0
 11
2.347999999999999
 21
7.456924703604388
 31
0.0
  0
LINE
  5
6F3
330
18
100
AcDbEntity
  8
Object
100
AcDbLine
 10
2.347999999999999
 20
7.456924703604388
 30
0.0
 11
2.343999999999999
 21
7.210924703604389
 31
0.0
  0
LINE
  5
6F4
330
18
100
AcDbEntity
  8
Object
100
AcDbLine
 10
3.684
 20
7.210924703604389
 30
0.0
 11
3.672
 21
7.560924703604388
 31
0.0
  0
LINE
  5
6F5
330
18
100
AcDbEntity
  8
Object
100
AcDbLine
 10
3.672
 20
7.560924703604388
 30
0.0
 11
3.036999999999999
 21
7.560924703604388
 31
0.0
  0
LINE
  5
6F6
330
18
100
AcDbEntity
  8
Object
100
AcDbLine
 10
4.318
 20
7.558924703604389
 30
0.0
 11
4.326999999999999
 21
7.554924703604388
 31
0.0
  0
LINE
  5
6F7
330
18
100
AcDbEntity
  8
Object
100
AcDbLine
 10
4.326999999999999
 20
7.554924703604388
 30
0.0
 11
4.334
 21
7.547924703604389
 31
0.0
  0
LINE
  5
6F8
330
18
100
AcDbEntity
  8
Object
100
AcDbLine
 10
4.318
 20
7.558924703604389
 30
0.0
 11
4.309
 21
7.560924703604388
 31
0.0
  0
LINE
  5
6F9
330
18
100
AcDbEntity
  8
Object
100
AcDbLine
 10
4.338
 20
7.538924703604388
 30
0.0
 11
4.334
 21
7.547924703604389
 31
0.0
  0
LINE
  5
6FA
330
18
100
AcDbEntity
  8
Object
100
AcDbLine
 10
4.365
 20
7.210924703604389
 30
0.0
 11
4.36
 21
7.456924703604388
 31
0.0
  0
LINE
  5
6FB
330
18
100
AcDbEntity
  8
Object
100
AcDbLine
 10
4.338
 20
7.538924703604388
 30
0.0
 11
4.358999999999999
 21
7.464924703604388
 31
0.0
  0
LINE
  5
6FC
330
18
100
AcDbEntity
  8
Object
100
AcDbLine
 10
4.358999999999999
 20
7.464924703604388
 30
0.0
 11
4.36
 21
7.456924703604388
 31
0.0
  0
LINE
  5
6FD
330
18
100
AcDbEntity
  8
Object
100
AcDbLine
 10
4.309
 20
7.560924703604388
 30
0.0
 11
4.248
 21
7.560924703604388
 31
0.0
  0
LINE
  5
6FE
330
18
100
AcDbEntity
  8
Object
100
AcDbLine
 10
4.532
 20
7.685924703604388
 30
0.0
 11
4.451999999999999
 21
7.685924703604388
 31
0.0
  0
LINE
  5
6FF
330
18
100
AcDbEntity
  8
Object
100
AcDbLine
 10
4.45
 20
7.596924703604389
 30
0.0
 11
4.533999999999999
 21
7.596924703604389
 31
0.0
  0
LINE
  5
700
330
18
100
AcDbEntity
  8
Object
100
AcDbLine
 10
4.533999999999999
 20
7.596924703604389
 30
0.0
 11
4.54
 21
7.239924703604389
 31
0.0
  0
LINE
  5
701
330
18
100
AcDbEntity
  8
Object
100
AcDbLine
 10
4.45
 20
7.596924703604389
 30
0.0
 11
4.443999999999999
 21
7.239924703604389
 31
0.0
  0
LINE
  5
702
330
18
100
AcDbEntity
  8
Object
100
AcDbLine
 10
4.532
 20
7.685924703604388
 30
0.0
 11
4.532
 21
7.679924703604388
 31
0.0
  0
LINE
  5
703
330
18
100
AcDbEntity
  8
Object
100
AcDbLine
 10
4.532
 20
7.679924703604388
 30
0.0
 11
4.533
 21
7.659924703604389
 31
0.0
  0
LINE
  5
704
330
18
100
AcDbEntity
  8
Object
100
AcDbLine
 10
4.451999999999999
 20
7.679924703604388
 30
0.0
 11
4.451999999999999
 21
7.685924703604388
 31
0.0
  0
LINE
  5
705
330
18
100
AcDbEntity
  8
Object
100
AcDbLine
 10
4.451999999999999
 20
7.685924703604388
 30
0.0
 11
4.532
 21
7.685924703604388
 31
0.0
  0
LINE
  5
706
330
18
100
AcDbEntity
  8
Object
100
AcDbLine
 10
4.533
 20
7.629924703604388
 30
0.0
 11
4.533
 21
7.659924703604389
 31
0.0
  0
LINE
  5
707
330
18
100
AcDbEntity
  8
Object
100
AcDbLine
 10
4.451999999999999
 20
7.679924703604388
 30
0.0
 11
4.451
 21
7.659924703604389
 31
0.0
  0
LINE
  5
708
330
18
100
AcDbEntity
  8
Object
100
AcDbLine
 10
4.451
 20
7.659924703604389
 30
0.0
 11
4.451
 21
7.629924703604388
 31
0.0
  0
LINE
  5
709
330
18
100
AcDbEntity
  8
Object
100
AcDbLine
 10
4.451
 20
7.629924703604388
 30
0.0
 11
4.45
 21
7.596924703604389
 31
0.0
  0
LINE
  5
70A
330
18
100
AcDbEntity
  8
Object
100
AcDbLine
 10
4.533999999999999
 20
7.596924703604389
 30
0.0
 11
4.533
 21
7.629924703604388
 31
0.0
  0
LINE
  5
70B
330
18
100
AcDbEntity
  8
Object
100
AcDbLine
 10
3.991
 20
7.685924703604388
 30
0.0
 11
2.717999999999999
 21
7.685924703604388
 31
0.0
  0
LINE
  5
70C
330
18
100
AcDbEntity
  8
Object
100
AcDbLine
 10
4.086
 20
7.560924703604388
 30
0.0
 11
4.084
 21
7.596924703604389
 31
0.0
  0
LINE
  5
70D
330
18
100
AcDbEntity
  8
Object
100
AcDbLine
 10
2.717999999999999
 20
7.685924703604388
 30
0.0
 11
2.685
 21
7.679924703604388
 31
0.0
  0
LINE
  5
70E
330
18
100
AcDbEntity
  8
Object
100
AcDbLine
 10
2.685
 20
7.679924703604388
 30
0.0
 11
2.653999999999999
 21
7.659924703604389
 31
0.0
  0
LINE
  5
70F
330
18
100
AcDbEntity
  8
Object
100
AcDbLine
 10
2.653999999999999
 20
7.659924703604389
 30
0.0
 11
2.633
 21
7.629924703604388
 31
0.0
  0
LINE
  5
710
330
18
100
AcDbEntity
  8
Object
100
AcDbLine
 10
2.633
 20
7.629924703604388
 30
0.0
 11
2.625
 21
7.596924703604389
 31
0.0
  0
LINE
  5
711
330
18
100
AcDbEntity
  8
Object
100
AcDbLine
 10
2.625
 20
7.596924703604389
 30
0.0
 11
2.623
 21
7.560924703604388
 31
0.0
  0
LINE
  5
712
330
18
100
AcDbEntity
  8
Object
100
AcDbLine
 10
4.084
 20
7.596924703604389
 30
0.0
 11
4.076
 21
7.629924703604388
 31
0.0
  0
LINE
  5
713
330
18
100
AcDbEntity
  8
Object
100
AcDbLine
 10
4.076
 20
7.629924703604388
 30
0.0
 11
4.054999999999999
 21
7.659924703604389
 31
0.0
  0
LINE
  5
714
330
18
100
AcDbEntity
  8
Object
100
AcDbLine
 10
4.054999999999999
 20
7.659924703604389
 30
0.0
 11
4.024
 21
7.679924703604388
 31
0.0
  0
LINE
  5
715
330
18
100
AcDbEntity
  8
Object
100
AcDbLine
 10
4.024
 20
7.679924703604388
 30
0.0
 11
3.991
 21
7.685924703604388
 31
0.0
  0
LINE
  5
716
330
18
100
AcDbEntity
  8
Object
100
AcDbLine
 10
2.176999999999999
 20
7.679924703604388
 30
0.0
 11
2.176999999999999
 21
7.685924703604388
 31
0.0
  0
LINE
  5
717
330
18
100
AcDbEntity
  8
Object
100
AcDbLine
 10
2.176999999999999
 20
7.685924703604388
 30
0.0
 11
2.256999999999999
 21
7.685924703604388
 31
0.0
  0
LINE
  5
718
330
18
100
AcDbEntity
  8
Object
100
AcDbLine
 10
2.256999999999999
 20
7.685924703604388
 30
0.0
 11
2.256999999999999
 21
7.679924703604388
 31
0.0
  0
LINE
  5
719
330
18
100
AcDbEntity
  8
Object
100
AcDbLine
 10
2.176999999999999
 20
7.679924703604388
 30
0.0
 11
2.176
 21
7.659924703604389
 31
0.0
  0
LINE
  5
71A
330
18
100
AcDbEntity
  8
Object
100
AcDbLine
 10
2.256999999999999
 20
7.679924703604388
 30
0.0
 11
2.258
 21
7.659924703604389
 31
0.0
  0
LINE
  5
71B
330
18
100
AcDbEntity
  8
Object
100
AcDbLine
 10
2.258
 20
7.659924703604389
 30
0.0
 11
2.258
 21
7.629924703604388
 31
0.0
  0
LINE
  5
71C
330
18
100
AcDbEntity
  8
Object
100
AcDbLine
 10
2.176
 20
7.659924703604389
 30
0.0
 11
2.176
 21
7.629924703604388
 31
0.0
  0
LINE
  5
71D
330
18
100
AcDbEntity
  8
Object
100
AcDbLine
 10
2.176
 20
7.629924703604388
 30
0.0
 11
2.175
 21
7.596924703604389
 31
0.0
  0
LINE
  5
71E
330
18
100
AcDbEntity
  8
Object
100
AcDbLine
 10
2.259
 20
7.596924703604389
 30
0.0
 11
2.258
 21
7.629924703604388
 31
0.0
  0
LINE
  5
71F
330
18
100
AcDbEntity
  8
Object
100
AcDbLine
 10
2.256999999999999
 20
7.685924703604388
 30
0.0
 11
2.176999999999999
 21
7.685924703604388
 31
0.0
  0
LINE
  5
720
330
18
100
AcDbEntity
  8
Object
100
AcDbLine
 10
2.265
 20
7.239924703604389
 30
0.0
 11
2.259
 21
7.596924703604389
 31
0.0
  0
LINE
  5
721
330
18
100
AcDbEntity
  8
Object
100
AcDbLine
 10
2.169
 20
7.239924703604389
 30
0.0
 11
2.175
 21
7.596924703604389
 31
0.0
  0
LINE
  5
722
330
18
100
AcDbEntity
  8
Object
100
AcDbLine
 10
2.175
 20
7.596924703604389
 30
0.0
 11
2.259
 21
7.596924703604389
 31
0.0
  0
LINE
  5
723
330
18
100
AcDbEntity
  8
Object
100
AcDbLine
 10
4.309
 20
7.560924703604388
 30
0.0
 11
4.248
 21
7.560924703604388
 31
0.0
  0
LINE
  5
724
330
18
100
AcDbEntity
  8
Object
100
AcDbLine
 10
4.248
 20
7.560924703604388
 30
0.0
 11
4.241999999999999
 21
7.560924703604388
 31
0.0
  0
LINE
  5
725
330
18
100
AcDbEntity
  8
Object
100
AcDbLine
 10
4.241999999999999
 20
7.560924703604388
 30
0.0
 11
4.221
 21
7.560924703604388
 31
0.0
  0
LINE
  5
726
330
18
100
AcDbEntity
  8
Object
100
AcDbLine
 10
4.221
 20
7.560924703604388
 30
0.0
 11
4.187999999999999
 21
7.560924703604388
 31
0.0
  0
LINE
  5
727
330
18
100
AcDbEntity
  8
Object
100
AcDbLine
 10
4.187999999999999
 20
7.560924703604388
 30
0.0
 11
4.149
 21
7.560924703604388
 31
0.0
  0
LINE
  5
728
330
18
100
AcDbEntity
  8
Object
100
AcDbLine
 10
4.149
 20
7.560924703604388
 30
0.0
 11
3.891
 21
7.560924703604388
 31
0.0
  0
LINE
  5
729
330
18
100
AcDbEntity
  8
Object
100
AcDbLine
 10
3.891
 20
7.560924703604388
 30
0.0
 11
3.869
 21
7.560924703604388
 31
0.0
  0
LINE
  5
72A
330
18
100
AcDbEntity
  8
Object
100
AcDbLine
 10
3.869
 20
7.560924703604388
 30
0.0
 11
3.851999999999999
 21
7.560924703604388
 31
0.0
  0
LINE
  5
72B
330
18
100
AcDbEntity
  8
Object
100
AcDbLine
 10
3.851999999999999
 20
7.560924703604388
 30
0.0
 11
3.839999999999999
 21
7.560924703604388
 31
0.0
  0
LINE
  5
72C
330
18
100
AcDbEntity
  8
Object
100
AcDbLine
 10
3.839999999999999
 20
7.560924703604388
 30
0.0
 11
3.837
 21
7.560924703604388
 31
0.0
  0
LINE
  5
72D
330
18
100
AcDbEntity
  8
Object
100
AcDbLine
 10
3.837
 20
7.560924703604388
 30
0.0
 11
3.833999999999999
 21
7.560924703604388
 31
0.0
  0
LINE
  5
72E
330
18
100
AcDbEntity
  8
Object
100
AcDbLine
 10
3.833999999999999
 20
7.560924703604388
 30
0.0
 11
3.825
 21
7.560924703604388
 31
0.0
  0
LINE
  5
72F
330
18
100
AcDbEntity
  8
Object
100
AcDbLine
 10
3.825
 20
7.560924703604388
 30
0.0
 11
3.81
 21
7.560924703604388
 31
0.0
  0
LINE
  5
730
330
18
100
AcDbEntity
  8
Object
100
AcDbLine
 10
3.81
 20
7.560924703604388
 30
0.0
 11
3.788
 21
7.560924703604388
 31
0.0
  0
LINE
  5
731
330
18
100
AcDbEntity
  8
Object
100
AcDbLine
 10
3.788
 20
7.560924703604388
 30
0.0
 11
3.762
 21
7.560924703604388
 31
0.0
  0
LINE
  5
732
330
18
100
AcDbEntity
  8
Object
100
AcDbLine
 10
3.762
 20
7.560924703604388
 30
0.0
 11
3.733
 21
7.560924703604388
 31
0.0
  0
LINE
  5
733
330
18
100
AcDbEntity
  8
Object
100
AcDbLine
 10
3.733
 20
7.560924703604388
 30
0.0
 11
3.701999999999999
 21
7.560924703604388
 31
0.0
  0
LINE
  5
734
330
18
100
AcDbEntity
  8
Object
100
AcDbLine
 10
3.701999999999999
 20
7.560924703604388
 30
0.0
 11
3.672
 21
7.560924703604388
 31
0.0
  0
LINE
  5
735
330
18
100
AcDbEntity
  8
Object
100
AcDbLine
 10
3.672
 20
7.560924703604388
 30
0.0
 11
3.036999999999999
 21
7.560924703604388
 31
0.0
  0
LINE
  5
736
330
18
100
AcDbEntity
  8
Object
100
AcDbLine
 10
3.036999999999999
 20
7.560924703604388
 30
0.0
 11
3.007
 21
7.560924703604388
 31
0.0
  0
LINE
  5
737
330
18
100
AcDbEntity
  8
Object
100
AcDbLine
 10
3.007
 20
7.560924703604388
 30
0.0
 11
2.975999999999999
 21
7.560924703604388
 31
0.0
  0
LINE
  5
738
330
18
100
AcDbEntity
  8
Object
100
AcDbLine
 10
2.975999999999999
 20
7.560924703604388
 30
0.0
 11
2.947
 21
7.560924703604388
 31
0.0
  0
LINE
  5
739
330
18
100
AcDbEntity
  8
Object
100
AcDbLine
 10
2.947
 20
7.560924703604388
 30
0.0
 11
2.919999999999999
 21
7.560924703604388
 31
0.0
  0
LINE
  5
73A
330
18
100
AcDbEntity
  8
Object
100
AcDbLine
 10
2.919999999999999
 20
7.560924703604388
 30
0.0
 11
2.899
 21
7.560924703604388
 31
0.0
  0
LINE
  5
73B
330
18
100
AcDbEntity
  8
Object
100
AcDbLine
 10
2.899
 20
7.560924703604388
 30
0.0
 11
2.883999999999999
 21
7.560924703604388
 31
0.0
  0
LINE
  5
73C
330
18
100
AcDbEntity
  8
Object
100
AcDbLine
 10
2.883999999999999
 20
7.560924703604388
 30
0.0
 11
2.875
 21
7.560924703604388
 31
0.0
  0
LINE
  5
73D
330
18
100
AcDbEntity
  8
Object
100
AcDbLine
 10
2.875
 20
7.560924703604388
 30
0.0
 11
2.871999999999999
 21
7.560924703604388
 31
0.0
  0
LINE
  5
73E
330
18
100
AcDbEntity
  8
Object
100
AcDbLine
 10
2.871999999999999
 20
7.560924703604388
 30
0.0
 11
2.867999999999999
 21
7.560924703604388
 31
0.0
  0
LINE
  5
73F
330
18
100
AcDbEntity
  8
Object
100
AcDbLine
 10
2.867999999999999
 20
7.560924703604388
 30
0.0
 11
2.857
 21
7.560924703604388
 31
0.0
  0
LINE
  5
740
330
18
100
AcDbEntity
  8
Object
100
AcDbLine
 10
2.857
 20
7.560924703604388
 30
0.0
 11
2.839
 21
7.560924703604388
 31
0.0
  0
LINE
  5
741
330
18
100
AcDbEntity
  8
Object
100
AcDbLine
 10
2.839
 20
7.560924703604388
 30
0.0
 11
2.817999999999999
 21
7.560924703604388
 31
0.0
  0
LINE
  5
742
330
18
100
AcDbEntity
  8
Object
100
AcDbLine
 10
2.817999999999999
 20
7.560924703604388
 30
0.0
 11
2.56
 21
7.560924703604388
 31
0.0
  0
LINE
  5
743
330
18
100
AcDbEntity
  8
Object
100
AcDbLine
 10
2.56
 20
7.560924703604388
 30
0.0
 11
2.520999999999999
 21
7.560924703604388
 31
0.0
  0
LINE
  5
744
330
18
100
AcDbEntity
  8
Object
100
AcDbLine
 10
2.520999999999999
 20
7.560924703604388
 30
0.0
 11
2.487999999999999
 21
7.560924703604388
 31
0.0
  0
LINE
  5
745
330
18
100
AcDbEntity
  8
Object
100
AcDbLine
 10
2.487999999999999
 20
7.560924703604388
 30
0.0
 11
2.467
 21
7.560924703604388
 31
0.0
  0
LINE
  5
746
330
18
100
AcDbEntity
  8
Object
100
AcDbLine
 10
2.467
 20
7.560924703604388
 30
0.0
 11
2.459999999999999
 21
7.560924703604388
 31
0.0
  0
LINE
  5
747
330
18
100
AcDbEntity
  8
Object
100
AcDbLine
 10
2.459999999999999
 20
7.560924703604388
 30
0.0
 11
2.399999999999999
 21
7.560924703604388
 31
0.0
  0
LINE
  5
748
330
18
100
AcDbEntity
  8
Object
100
AcDbLine
 10
2.399999999999999
 20
7.560924703604388
 30
0.0
 11
2.391
 21
7.558924703604389
 31
0.0
  0
LINE
  5
749
330
18
100
AcDbEntity
  8
Object
100
AcDbLine
 10
2.391
 20
7.558924703604389
 30
0.0
 11
2.382
 21
7.554924703604388
 31
0.0
  0
LINE
  5
74A
330
18
100
AcDbEntity
  8
Object
100
AcDbLine
 10
2.382
 20
7.554924703604388
 30
0.0
 11
2.375
 21
7.547924703604389
 31
0.0
  0
LINE
  5
74B
330
18
100
AcDbEntity
  8
Object
100
AcDbLine
 10
2.375
 20
7.547924703604389
 30
0.0
 11
2.370999999999999
 21
7.538924703604388
 31
0.0
  0
LINE
  5
74C
330
18
100
AcDbEntity
  8
Object
100
AcDbLine
 10
2.370999999999999
 20
7.538924703604388
 30
0.0
 11
2.35
 21
7.464924703604388
 31
0.0
  0
LINE
  5
74D
330
18
100
AcDbEntity
  8
Object
100
AcDbLine
 10
2.35
 20
7.464924703604388
 30
0.0
 11
2.347999999999999
 21
7.456924703604388
 31
0.0
  0
LINE
  5
74E
330
18
100
AcDbEntity
  8
Object
100
AcDbLine
 10
4.36
 20
7.456924703604388
 30
0.0
 11
4.358999999999999
 21
7.464924703604388
 31
0.0
  0
LINE
  5
74F
330
18
100
AcDbEntity
  8
Object
100
AcDbLine
 10
4.338
 20
7.538924703604388
 30
0.0
 11
4.334
 21
7.547924703604389
 31
0.0
  0
LINE
  5
750
330
18
100
AcDbEntity
  8
Object
100
AcDbLine
 10
4.334
 20
7.547924703604389
 30
0.0
 11
4.326999999999999
 21
7.554924703604388
 31
0.0
  0
LINE
  5
751
330
18
100
AcDbEntity
  8
Object
100
AcDbLine
 10
4.326999999999999
 20
7.554924703604388
 30
0.0
 11
4.318
 21
7.558924703604389
 31
0.0
  0
LINE
  5
752
330
18
100
AcDbEntity
  8
Object
100
AcDbLine
 10
4.318
 20
7.558924703604389
 30
0.0
 11
4.309
 21
7.560924703604388
 31
0.0
  0
LINE
  5
753
330
18
100
AcDbEntity
  8
Object
100
AcDbLine
 10
4.358999999999999
 20
7.464924703604388
 30
0.0
 11
4.338
 21
7.538924703604388
 31
0.0
  0
LINE
  5
754
330
18
100
AcDbEntity
  8
Object
100
AcDbLine
 10
2.898
 20
7.560924703604388
 30
0.0
 11
2.898
 21
7.568924703604388
 31
0.0
  0
LINE
  5
755
330
18
100
AcDbEntity
  8
Object
100
AcDbLine
 10
3.620999999999999
 20
7.560924703604388
 30
0.0
 11
3.620999999999999
 21
7.568924703604388
 31
0.0
  0
LINE
  5
756
330
18
100
AcDbEntity
  8
Object
100
AcDbLine
 10
3.817999999999999
 20
7.568924703604388
 30
0.0
 11
3.909
 21
7.568924703604388
 31
0.0
  0
LINE
  5
757
330
18
100
AcDbEntity
  8
Object
100
AcDbLine
 10
3.909
 20
7.568924703604388
 30
0.0
 11
3.909
 21
7.560924703604388
 31
0.0
  0
LINE
  5
758
330
18
100
AcDbEntity
  8
Object
100
AcDbLine
 10
3.817999999999999
 20
7.568924703604388
 30
0.0
 11
3.817999999999999
 21
7.560924703604388
 31
0.0
  0
LINE
  5
759
330
18
100
AcDbEntity
  8
Object
100
AcDbLine
 10
2.942999999999999
 20
7.568924703604388
 30
0.0
 11
2.962
 21
7.568924703604388
 31
0.0
  0
LINE
  5
75A
330
18
100
AcDbEntity
  8
Object
100
AcDbLine
 10
2.962
 20
7.568924703604388
 30
0.0
 11
2.962
 21
7.560924703604388
 31
0.0
  0
LINE
  5
75B
330
18
100
AcDbEntity
  8
Object
100
AcDbLine
 10
2.942999999999999
 20
7.568924703604388
 30
0.0
 11
2.942999999999999
 21
7.560924703604388
 31
0.0
  0
LINE
  5
75C
330
18
100
AcDbEntity
  8
Object
100
AcDbLine
 10
3.516
 20
7.568924703604388
 30
0.0
 11
3.516
 21
7.560924703604388
 31
0.0
  0
LINE
  5
75D
330
18
100
AcDbEntity
  8
Object
100
AcDbLine
 10
3.756
 20
7.568924703604388
 30
0.0
 11
3.756
 21
7.560924703604388
 31
0.0
  0
LINE
  5
75E
330
18
100
AcDbEntity
  8
Object
100
AcDbLine
 10
2.793
 20
7.568924703604388
 30
0.0
 11
2.793
 21
7.560924703604388
 31
0.0
  0
LINE
  5
75F
330
18
100
AcDbEntity
  8
Object
100
AcDbLine
 10
3.193
 20
7.560924703604388
 30
0.0
 11
3.193
 21
7.568924703604388
 31
0.0
  0
LINE
  5
760
330
18
100
AcDbEntity
  8
Object
100
AcDbLine
 10
3.088
 20
7.568924703604388
 30
0.0
 11
3.088
 21
7.560924703604388
 31
0.0
  0
LINE
  5
761
330
18
100
AcDbEntity
  8
Object
100
AcDbLine
 10
3.475
 20
7.560924703604388
 30
0.0
 11
3.475
 21
7.568924703604388
 31
0.0
  0
LINE
  5
762
330
18
100
AcDbEntity
  8
Object
100
AcDbLine
 10
3.544
 20
7.568924703604388
 30
0.0
 11
3.620999999999999
 21
7.568924703604388
 31
0.0
  0
LINE
  5
763
330
18
100
AcDbEntity
  8
Object
100
AcDbLine
 10
3.620999999999999
 20
7.568924703604388
 30
0.0
 11
3.620999999999999
 21
7.560924703604388
 31
0.0
  0
LINE
  5
764
330
18
100
AcDbEntity
  8
Object
100
AcDbLine
 10
3.313
 20
7.568924703604388
 30
0.0
 11
3.354
 21
7.568924703604388
 31
0.0
  0
LINE
  5
765
330
18
100
AcDbEntity
  8
Object
100
AcDbLine
 10
3.354
 20
7.568924703604388
 30
0.0
 11
3.354
 21
7.560924703604388
 31
0.0
  0
LINE
  5
766
330
18
100
AcDbEntity
  8
Object
100
AcDbLine
 10
3.313
 20
7.568924703604388
 30
0.0
 11
3.277
 21
7.568924703604388
 31
0.0
  0
LINE
  5
767
330
18
100
AcDbEntity
  8
Object
100
AcDbLine
 10
3.277
 20
7.568924703604388
 30
0.0
 11
3.25
 21
7.568924703604388
 31
0.0
  0
LINE
  5
768
330
18
100
AcDbEntity
  8
Object
100
AcDbLine
 10
3.236
 20
7.560924703604388
 30
0.0
 11
3.236
 21
7.568924703604388
 31
0.0
  0
LINE
  5
769
330
18
100
AcDbEntity
  8
Object
100
AcDbLine
 10
3.236
 20
7.568924703604388
 30
0.0
 11
3.25
 21
7.568924703604388
 31
0.0
  0
LINE
  5
76A
330
18
100
AcDbEntity
  8
Object
100
AcDbLine
 10
3.236
 20
7.568924703604388
 30
0.0
 11
3.236
 21
7.560924703604388
 31
0.0
  0
LINE
  5
76B
330
18
100
AcDbEntity
  8
Object
100
AcDbLine
 10
3.516
 20
7.568924703604388
 30
0.0
 11
3.544
 21
7.568924703604388
 31
0.0
  0
LINE
  5
76C
330
18
100
AcDbEntity
  8
Object
100
AcDbLine
 10
3.544
 20
7.568924703604388
 30
0.0
 11
3.544
 21
7.560924703604388
 31
0.0
  0
LINE
  5
76D
330
18
100
AcDbEntity
  8
Object
100
AcDbLine
 10
3.516
 20
7.568924703604388
 30
0.0
 11
3.516
 21
7.560924703604388
 31
0.0
  0
LINE
  5
76E
330
18
100
AcDbEntity
  8
Object
100
AcDbLine
 10
3.756
 20
7.568924703604388
 30
0.0
 11
3.770999999999999
 21
7.568924703604388
 31
0.0
  0
LINE
  5
76F
330
18
100
AcDbEntity
  8
Object
100
AcDbLine
 10
3.770999999999999
 20
7.568924703604388
 30
0.0
 11
3.770999999999999
 21
7.560924703604388
 31
0.0
  0
LINE
  5
770
330
18
100
AcDbEntity
  8
Object
100
AcDbLine
 10
3.756
 20
7.568924703604388
 30
0.0
 11
3.756
 21
7.560924703604388
 31
0.0
  0
LINE
  5
771
330
18
100
AcDbEntity
  8
Object
100
AcDbLine
 10
3.472999999999999
 20
7.560924703604388
 30
0.0
 11
3.472999999999999
 21
7.568924703604388
 31
0.0
  0
LINE
  5
772
330
18
100
AcDbEntity
  8
Object
100
AcDbLine
 10
3.472999999999999
 20
7.568924703604388
 30
0.0
 11
3.458
 21
7.568924703604388
 31
0.0
  0
LINE
  5
773
330
18
100
AcDbEntity
  8
Object
100
AcDbLine
 10
3.472999999999999
 20
7.560924703604388
 30
0.0
 11
3.472999999999999
 21
7.568924703604388
 31
0.0
  0
LINE
  5
774
330
18
100
AcDbEntity
  8
Object
100
AcDbLine
 10
3.458
 20
7.568924703604388
 30
0.0
 11
3.431999999999999
 21
7.568924703604388
 31
0.0
  0
LINE
  5
775
330
18
100
AcDbEntity
  8
Object
100
AcDbLine
 10
3.431999999999999
 20
7.568924703604388
 30
0.0
 11
3.395
 21
7.568924703604388
 31
0.0
  0
LINE
  5
776
330
18
100
AcDbEntity
  8
Object
100
AcDbLine
 10
3.395
 20
7.568924703604388
 30
0.0
 11
3.354
 21
7.568924703604388
 31
0.0
  0
LINE
  5
777
330
18
100
AcDbEntity
  8
Object
100
AcDbLine
 10
3.475
 20
7.560924703604388
 30
0.0
 11
3.475
 21
7.568924703604388
 31
0.0
  0
LINE
  5
778
330
18
100
AcDbEntity
  8
Object
100
AcDbLine
 10
3.475
 20
7.568924703604388
 30
0.0
 11
3.472999999999999
 21
7.568924703604388
 31
0.0
  0
LINE
  5
779
330
18
100
AcDbEntity
  8
Object
100
AcDbLine
 10
3.043
 20
7.560924703604388
 30
0.0
 11
3.043
 21
7.568924703604388
 31
0.0
  0
LINE
  5
77A
330
18
100
AcDbEntity
  8
Object
100
AcDbLine
 10
3.681999999999999
 20
7.560924703604388
 30
0.0
 11
3.681999999999999
 21
7.568924703604388
 31
0.0
  0
LINE
  5
77B
330
18
100
AcDbEntity
  8
Object
100
AcDbLine
 10
3.043
 20
7.568924703604388
 30
0.0
 11
3.024999999999999
 21
7.568924703604388
 31
0.0
  0
LINE
  5
77C
330
18
100
AcDbEntity
  8
Object
100
AcDbLine
 10
3.115
 20
7.568924703604388
 30
0.0
 11
3.167
 21
7.568924703604388
 31
0.0
  0
LINE
  5
77D
330
18
100
AcDbEntity
  8
Object
100
AcDbLine
 10
3.167
 20
7.568924703604388
 30
0.0
 11
3.167
 21
7.560924703604388
 31
0.0
  0
LINE
  5
77E
330
18
100
AcDbEntity
  8
Object
100
AcDbLine
 10
2.871999999999999
 20
7.568924703604388
 30
0.0
 11
2.898
 21
7.568924703604388
 31
0.0
  0
LINE
  5
77F
330
18
100
AcDbEntity
  8
Object
100
AcDbLine
 10
2.898
 20
7.568924703604388
 30
0.0
 11
2.898
 21
7.560924703604388
 31
0.0
  0
LINE
  5
780
330
18
100
AcDbEntity
  8
Object
100
AcDbLine
 10
3.088
 20
7.568924703604388
 30
0.0
 11
3.115
 21
7.568924703604388
 31
0.0
  0
LINE
  5
781
330
18
100
AcDbEntity
  8
Object
100
AcDbLine
 10
3.115
 20
7.568924703604388
 30
0.0
 11
3.115
 21
7.560924703604388
 31
0.0
  0
LINE
  5
782
330
18
100
AcDbEntity
  8
Object
100
AcDbLine
 10
3.088
 20
7.568924703604388
 30
0.0
 11
3.088
 21
7.560924703604388
 31
0.0
  0
LINE
  5
783
330
18
100
AcDbEntity
  8
Object
100
AcDbLine
 10
3.167
 20
7.568924703604388
 30
0.0
 11
3.193
 21
7.568924703604388
 31
0.0
  0
LINE
  5
784
330
18
100
AcDbEntity
  8
Object
100
AcDbLine
 10
3.193
 20
7.568924703604388
 30
0.0
 11
3.193
 21
7.560924703604388
 31
0.0
  0
LINE
  5
785
330
18
100
AcDbEntity
  8
Object
100
AcDbLine
 10
3.681999999999999
 20
7.560924703604388
 30
0.0
 11
3.681999999999999
 21
7.568924703604388
 31
0.0
  0
LINE
  5
786
330
18
100
AcDbEntity
  8
Object
100
AcDbLine
 10
3.665999999999999
 20
7.560924703604388
 30
0.0
 11
3.665999999999999
 21
7.568924703604388
 31
0.0
  0
LINE
  5
787
330
18
100
AcDbEntity
  8
Object
100
AcDbLine
 10
3.665999999999999
 20
7.568924703604388
 30
0.0
 11
3.681999999999999
 21
7.568924703604388
 31
0.0
  0
LINE
  5
788
330
18
100
AcDbEntity
  8
Object
100
AcDbLine
 10
3.817999999999999
 20
7.568924703604388
 30
0.0
 11
3.817999999999999
 21
7.560924703604388
 31
0.0
  0
LINE
  5
789
330
18
100
AcDbEntity
  8
Object
100
AcDbLine
 10
2.818999999999999
 20
7.568924703604388
 30
0.0
 11
2.871999999999999
 21
7.568924703604388
 31
0.0
  0
LINE
  5
78A
330
18
100
AcDbEntity
  8
Object
100
AcDbLine
 10
2.871999999999999
 20
7.568924703604388
 30
0.0
 11
2.871999999999999
 21
7.560924703604388
 31
0.0
  0
LINE
  5
78B
330
18
100
AcDbEntity
  8
Object
100
AcDbLine
 10
3.665999999999999
 20
7.568924703604388
 30
0.0
 11
3.665999999999999
 21
7.560924703604388
 31
0.0
  0
LINE
  5
78C
330
18
100
AcDbEntity
  8
Object
100
AcDbLine
 10
3.756
 20
7.568924703604388
 30
0.0
 11
3.681999999999999
 21
7.568924703604388
 31
0.0
  0
LINE
  5
78D
330
18
100
AcDbEntity
  8
Object
100
AcDbLine
 10
3.770999999999999
 20
7.560924703604388
 30
0.0
 11
3.770999999999999
 21
7.568924703604388
 31
0.0
  0
LINE
  5
78E
330
18
100
AcDbEntity
  8
Object
100
AcDbLine
 10
2.992999999999999
 20
7.568924703604388
 30
0.0
 11
3.024999999999999
 21
7.568924703604388
 31
0.0
  0
LINE
  5
78F
330
18
100
AcDbEntity
  8
Object
100
AcDbLine
 10
3.024999999999999
 20
7.568924703604388
 30
0.0
 11
3.024999999999999
 21
7.560924703604388
 31
0.0
  0
LINE
  5
790
330
18
100
AcDbEntity
  8
Object
100
AcDbLine
 10
3.909
 20
7.560924703604388
 30
0.0
 11
3.909
 21
7.568924703604388
 31
0.0
  0
LINE
  5
791
330
18
100
AcDbEntity
  8
Object
100
AcDbLine
 10
2.793
 20
7.568924703604388
 30
0.0
 11
2.818999999999999
 21
7.568924703604388
 31
0.0
  0
LINE
  5
792
330
18
100
AcDbEntity
  8
Object
100
AcDbLine
 10
2.818999999999999
 20
7.568924703604388
 30
0.0
 11
2.818999999999999
 21
7.560924703604388
 31
0.0
  0
LINE
  5
793
330
18
100
AcDbEntity
  8
Object
100
AcDbLine
 10
2.793
 20
7.568924703604388
 30
0.0
 11
2.793
 21
7.560924703604388
 31
0.0
  0
LINE
  5
794
330
18
100
AcDbEntity
  8
Object
100
AcDbLine
 10
2.962
 20
7.568924703604388
 30
0.0
 11
2.992999999999999
 21
7.568924703604388
 31
0.0
  0
LINE
  5
795
330
18
100
AcDbEntity
  8
Object
100
AcDbLine
 10
2.992999999999999
 20
7.568924703604388
 30
0.0
 11
2.992999999999999
 21
7.560924703604388
 31
0.0
  0
LINE
  5
796
330
18
100
AcDbEntity
  8
Object
100
AcDbLine
 10
2.898
 20
7.568924703604388
 30
0.0
 11
2.871999999999999
 21
7.568924703604388
 31
0.0
  0
LINE
  5
797
330
18
100
AcDbEntity
  8
Object
100
AcDbLine
 10
2.871999999999999
 20
7.568924703604388
 30
0.0
 11
2.818999999999999
 21
7.568924703604388
 31
0.0
  0
LINE
  5
798
330
18
100
AcDbEntity
  8
Object
100
AcDbLine
 10
2.818999999999999
 20
7.568924703604388
 30
0.0
 11
2.793
 21
7.568924703604388
 31
0.0
  0
LINE
  5
799
330
18
100
AcDbEntity
  8
Object
100
AcDbLine
 10
3.193
 20
7.568924703604388
 30
0.0
 11
3.167
 21
7.568924703604388
 31
0.0
  0
LINE
  5
79A
330
18
100
AcDbEntity
  8
Object
100
AcDbLine
 10
3.167
 20
7.568924703604388
 30
0.0
 11
3.115
 21
7.568924703604388
 31
0.0
  0
LINE
  5
79B
330
18
100
AcDbEntity
  8
Object
100
AcDbLine
 10
3.115
 20
7.568924703604388
 30
0.0
 11
3.088
 21
7.568924703604388
 31
0.0
  0
LINE
  5
79C
330
18
100
AcDbEntity
  8
Object
100
AcDbLine
 10
3.620999999999999
 20
7.568924703604388
 30
0.0
 11
3.544
 21
7.568924703604388
 31
0.0
  0
LINE
  5
79D
330
18
100
AcDbEntity
  8
Object
100
AcDbLine
 10
3.544
 20
7.568924703604388
 30
0.0
 11
3.516
 21
7.568924703604388
 31
0.0
  0
LINE
  5
79E
330
18
100
AcDbEntity
  8
Object
100
AcDbLine
 10
3.909
 20
7.568924703604388
 30
0.0
 11
3.817999999999999
 21
7.568924703604388
 31
0.0
  0
LINE
  5
79F
330
18
100
AcDbEntity
  8
Object
100
AcDbLine
 10
3.043
 20
7.568924703604388
 30
0.0
 11
3.024999999999999
 21
7.568924703604388
 31
0.0
  0
LINE
  5
7A0
330
18
100
AcDbEntity
  8
Object
100
AcDbLine
 10
3.024999999999999
 20
7.568924703604388
 30
0.0
 11
2.992999999999999
 21
7.568924703604388
 31
0.0
  0
LINE
  5
7A1
330
18
100
AcDbEntity
  8
Object
100
AcDbLine
 10
2.992999999999999
 20
7.568924703604388
 30
0.0
 11
2.962
 21
7.568924703604388
 31
0.0
  0
LINE
  5
7A2
330
18
100
AcDbEntity
  8
Object
100
AcDbLine
 10
2.962
 20
7.568924703604388
 30
0.0
 11
2.942999999999999
 21
7.568924703604388
 31
0.0
  0
LINE
  5
7A3
330
18
100
AcDbEntity
  8
Object
100
AcDbLine
 10
3.475
 20
7.568924703604388
 30
0.0
 11
3.472999999999999
 21
7.568924703604388
 31
0.0
  0
LINE
  5
7A4
330
18
100
AcDbEntity
  8
Object
100
AcDbLine
 10
3.770999999999999
 20
7.568924703604388
 30
0.0
 11
3.756
 21
7.568924703604388
 31
0.0
  0
LINE
  5
7A5
330
18
100
AcDbEntity
  8
Object
100
AcDbLine
 10
3.756
 20
7.568924703604388
 30
0.0
 11
3.681999999999999
 21
7.568924703604388
 31
0.0
  0
LINE
  5
7A6
330
18
100
AcDbEntity
  8
Object
100
AcDbLine
 10
3.681999999999999
 20
7.568924703604388
 30
0.0
 11
3.665999999999999
 21
7.568924703604388
 31
0.0
  0
LINE
  5
7A7
330
18
100
AcDbEntity
  8
Object
100
AcDbLine
 10
3.472999999999999
 20
7.568924703604388
 30
0.0
 11
3.458
 21
7.568924703604388
 31
0.0
  0
LINE
  5
7A8
330
18
100
AcDbEntity
  8
Object
100
AcDbLine
 10
3.458
 20
7.568924703604388
 30
0.0
 11
3.431999999999999
 21
7.568924703604388
 31
0.0
  0
LINE
  5
7A9
330
18
100
AcDbEntity
  8
Object
100
AcDbLine
 10
3.431999999999999
 20
7.568924703604388
 30
0.0
 11
3.395
 21
7.568924703604388
 31
0.0
  0
LINE
  5
7AA
330
18
100
AcDbEntity
  8
Object
100
AcDbLine
 10
3.395
 20
7.568924703604388
 30
0.0
 11
3.354
 21
7.568924703604388
 31
0.0
  0
LINE
  5
7AB
330
18
100
AcDbEntity
  8
Object
100
AcDbLine
 10
3.354
 20
7.568924703604388
 30
0.0
 11
3.313
 21
7.568924703604388
 31
0.0
  0
LINE
  5
7AC
330
18
100
AcDbEntity
  8
Object
100
AcDbLine
 10
3.313
 20
7.568924703604388
 30
0.0
 11
3.277
 21
7.568924703604388
 31
0.0
  0
LINE
  5
7AD
330
18
100
AcDbEntity
  8
Object
100
AcDbLine
 10
3.277
 20
7.568924703604388
 30
0.0
 11
3.25
 21
7.568924703604388
 31
0.0
  0
LINE
  5
7AE
330
18
100
AcDbEntity
  8
Object
100
AcDbLine
 10
3.25
 20
7.568924703604388
 30
0.0
 11
3.236
 21
7.568924703604388
 31
0.0
  0
DIMENSION
  5
7BE
330
18
100
AcDbEntity
  8
Dimension
100
AcDbDimension
  2
*D0
 10
5.036589730280869
 20
7.105924703604388
 30
0.0
 11
4.430208151333499
 21
6.759680990496686
 31
0.0
 70
   160
 71
     5
 42
0.5800000000000001
  3
STANDARD
100
AcDbAlignedDimension
 13
4.532
 23
7.685924703604388
 33
0.0
 14
4.488999999999999
 24
7.105924703604388
 34
0.0
 50
90.0
100
AcDbRotatedDimension
  0
DIMENSION
  5
7D8
330
18
100
AcDbEntity
  8
Dimension
100
AcDbDimension
  2
*D1
 10
4.54
 20
6.118336142626159
 30
0.0
 11
3.354
 21
6.118336142626159
 31
0.0
 70
    32
 71
     5
 42
2.372
  3
STANDARD
100
AcDbAlignedDimension
 13
2.168
 23
5.601924703604389
 33
0.0
 14
4.54
 24
5.60192470360439
 34
0.0
100
AcDbRotatedDimension
  0
DIMENSION
  5
7E6
330
18
100
AcDbEntity
  8
Dimension
100
AcDbDimension
  2
*D2
 10
7.457333457118462
 20
3.576924703604388
 30
0.0
 11
7.457333457118461
 21
4.646424703604389
 31
0.0
 70
    32
 71
     5
 42
2.139
  3
STANDARD
100
AcDbAlignedDimension
 13
8.362999999999999
 23
5.715924703604389
 33
0.0
 14
8.419
 24
3.576924703604388
 34
0.0
 50
90.0
100
AcDbRotatedDimension
  0
ENDSEC
  0
SECTION
  2
OBJECTS
  0
DICTIONARY
  5
C
330
0
100
AcDbDictionary
281
     1
  3
ACAD_COLOR
350
E0
  3
ACAD_GROUP
350
D
  3
ACAD_LAYOUT
350
E3
  3
ACAD_MATERIAL
350
DF
  3
ACAD_MLINESTYLE
350
1B
  3
ACAD_PLOTSETTINGS
350
E4
  3
ACAD_PLOTSTYLENAME
350
DD
  3
ACAD_TABLESTYLE
350
E1
  3
ACDBHEADERROUNDTRIPXREC
350
811
  3
AcDbVariableDictionary
350
FD
  3
ASE_INDEX_DICTIONARY
350
11B
  0
DICTIONARY
  5
126
330
2
100
AcDbDictionary
280
     1
281
     1
  3
ACAD_LAYERFILTERS
360
25B
  3
ACLYDICTIONARY
360
25A
  0
DICTIONARY
  5
E0
102
{ACAD_REACTORS
330
C
102
}
330
C
100
AcDbDictionary
281
     1
  0
DICTIONARY
  5
D
102
{ACAD_REACTORS
330
C
102
}
330
C
100
AcDbDictionary
281
     1
  0
DICTIONARY
  5
E3
102
{ACAD_REACTORS
330
C
102
}
330
C
100
AcDbDictionary
281
     1
  3
Layout1
350
E6
  3
Model
350
E5
  0
DICTIONARY
  5
DF
102
{ACAD_REACTORS
330
C
102
}
330
C
100
AcDbDictionary
281
     1
  0
DICTIONARY
  5
1B
102
{ACAD_REACTORS
330
C
102
}
330
C
100
AcDbDictionary
281
     1
  3
STANDARD
350
1C
  0
DICTIONARY
  5
E4
102
{ACAD_REACTORS
330
C
102
}
330
C
100
AcDbDictionary
281
     1
  0
ACDBDICTIONARYWDFLT
  5
DD
102
{ACAD_REACTORS
330
C
102
}
330
C
100
AcDbDictionary
281
     1
  3
Normal
350
DE
100
AcDbDictionaryWithDefault
340
DE
  0
DICTIONARY
  5
E1
102
{ACAD_REACTORS
330
C
102
}
330
C
100
AcDbDictionary
281
     1
  3
Standard
350
E2
  0
DICTIONARY
  5
811
102
{ACAD_REACTORS
330
C
102
}
330
C
100
AcDbDictionary
281
     1
  0
DICTIONARY
  5
FD
102
{ACAD_REACTORS
330
C
102
}
330
C
100
AcDbDictionary
281
     1
  3
CTABLESTYLE
350
FE
  3
DIMASSOC
350
80E
  3
PROJECTNAME
350
80F
  0
DICTIONARY
  5
11B
102
{ACAD_REACTORS
330
C
102
}
330
C
100
AcDbDictionary
281
     1
  3
ASEBlockHierarchyIndexRecord
350
11C
1001
DCO15
1040
1529147986.867
  0
DICTIONARY
  5
25B
102
{ACAD_REACTORS
330
126
102
}
330
126
100
AcDbDictionary
281
     1
  0
DICTIONARY
  5
25A
102
{ACAD_REACTORS
330
126
102
}
330
126
100
AcDbDictionary
281
     1
1001
ACAD
1000
<All
  0
LAYOUT
  5
E6
102
{ACAD_XDICTIONARY
360
814
102
}
102
{ACAD_REACTORS
330
E3
102
}
330
E3
100
AcDbPlotSettings
  1

  2
\\RSENG\RSplotter4NT
  4

  6

 40
0.0
 41
0.0
 42
0.0
 43
0.0
 44
0.0
 45
0.0
 46
0.0
 47
0.0
 48
0.0
 49
0.0
140
0.0
141
0.0
142
1.0
143
1.0
 70
   688
 72
     0
 73
     0
 74
     5
  7
Symantec Fax Starter Edition
 75
    16
147
1.0
148
0.0
149
0.0
100
AcDbLayout
  1
Layout1
 70
     1
 71
     1
 10
0.0
 20
0.0
 11
12.0
 21
9.0
 12
0.0
 22
0.0
 32
0.0
 14
1.000000000000000E+20
 24
1.000000000000000E+20
 34
1.000000000000000E+20
 15
-1.000000000000000E+20
 25
-1.000000000000000E+20
 35
-1.000000000000000E+20
146
0.0
 13
0.0
 23
0.0
 33
0.0
 16
1.0
 26
0.0
 36
0.0
 17
0.0
 27
1.0
 37
0.0
 76
     0
330
15
  0
LAYOUT
  5
E5
102
{ACAD_XDICTIONARY
360
812
102
}
102
{ACAD_REACTORS
330
E3
102
}
330
E3
100
AcDbPlotSettings
  1

  2
\\RSENG\RSplotter4NT
  4

  6

 40
0.0
 41
0.0
 42
0.0
 43
0.0
 44
0.0
 45
0.0
 46
0.0
 47
0.0
 48
0.0
 49
0.0
140
0.0
141
0.0
142
1.0
143
1.0
 70
  1712
 72
     0
 73
     0
 74
     0
  7
Symantec Fax Starter Edition
 75
     0
147
1.0
148
0.0
149
0.0
100
AcDbLayout
  1
Model
 70
     1
 71
     0
 10
0.0
 20
0.0
 11
12.0
 21
9.0
 12
0.0
 22
0.0
 32
0.0
 14
0.0
 24
0.0
 34
0.0
 15
0.0
 25
0.0
 35
0.0
146
0.0
 13
0.0
 23
0.0
 33
0.0
 16
1.0
 26
0.0
 36
0.0
 17
0.0
 27
1.0
 37
0.0
 76
     0
330
18
  0
MLINESTYLE
  5
1C
102
{ACAD_REACTORS
330
1B
102
}
330
1B
100
AcDbMlineStyle
  2
STANDARD
 70
     0
  3

 62
   256
 51
90.0
 52
90.0
 71
     2
 49
0.5
 62
   256
  6
BYLAYER
 49
-0.5
 62
   256
  6
BYLAYER
  0
ACDBPLACEHOLDER
  5
DE
102
{ACAD_REACTORS
330
DD
102
}
330
DD
  0
TABLESTYLE
  5
E2
102
{ACAD_REACTORS
330
E1
102
}
330
E1
100
AcDbTableStyle
  3
Standard
 70
     0
 71
     0
 40
0.06
 41
0.06
280
     0
281
     0
  7
STANDARD
140
0.18
170
     2
 62
     0
 63
     7
283
     0
274
    -2
284
     1
 64
     0
275
    -2
285
     1
 65
     0
276
    -2
286
     1
 66
     0
277
    -2
287
     1
 67
     0
278
    -2
288
     1
 68
     0
279
    -2
289
     1
 69
     0
  7
STANDARD
140
0.25
170
     5
 62
     0
 63
     7
283
     0
274
    -2
284
     1
 64
     0
275
    -2
285
     1
 65
     0
276
    -2
286
     1
 66
     0
277
    -2
287
     1
 67
     0
278
    -2
288
     1
 68
     0
279
    -2
289
     1
 69
     0
  7
STANDARD
140
0.18
170
     5
 62
     0
 63
     7
283
     0
274
    -2
284
     1
 64
     0
275
    -2
285
     1
 65
     0
276
    -2
286
     1
 66
     0
277
    -2
287
     1
 67
     0
278
    -2
288
     1
 68
     0
279
    -2
289
     1
 69
     0
  0
DICTIONARYVAR
  5
FE
102
{ACAD_REACTORS
330
FD
102
}
330
FD
100
DictionaryVariables
280
     0
  1
STANDARD
  0
DICTIONARYVAR
  5
80E
102
{ACAD_REACTORS
330
FD
102
}
330
FD
100
DictionaryVariables
280
     0
  1
1
  0
DICTIONARYVAR
  5
80F
102
{ACAD_REACTORS
330
FD
102
}
330
FD
100
DictionaryVariables
280
     0
  1

  0
XRECORD
  5
11C
102
{ACAD_REACTORS
330
11B
102
}
330
11B
100
AcDbXrecord
280
     1
  0
DICTIONARY
  5
814
330
E6
100
AcDbDictionary
280
     1
281
     1
  3
ACAD_XREC_ROUNDTRIP
360
815
  0
DICTIONARY
  5
812
330
E5
100
AcDbDictionary
280
     1
281
     1
  3
ACAD_XREC_ROUNDTRIP
360
813
  0
XRECORD
  5
815
102
{ACAD_REACTORS
330
814
102
}
330
814
100
AcDbXrecord
280
     1
102
SHADEPLOT
 70
     0
102
SHADEPLOTRESLEVEL
 70
     2
102
SHADEPLOTCUSTOMDPI
 70
   300
  0
XRECORD
  5
813
102
{ACAD_REACTORS
330
812
102
}
330
812
100
AcDbXrecord
280
     1
102
SHADEPLOT
 70
     0
102
SHADEPLOTRESLEVEL
 70
     2
102
SHADEPLOTCUSTOMDPI
 70
   300
  0
ENDSEC
  0
EOF
