  0
SECTION
  2
HEADER
  9
$ACADVER
  1
AC1015
  9
$ACADMAINTVER
 70
    20
  9
$DWGCODEPAGE
  3
ANSI_1252
  9
$INSBASE
 10
0.0
 20
0.0
 30
0.0
  9
$EXTMIN
 10
-0.075
 20
-0.075
 30
0.0
  9
$EXTMAX
 10
22.075
 20
17.075
 30
0.0
  9
$LIMMIN
 10
0.0
 20
0.0
  9
$LIMMAX
 10
12.0
 20
9.0
  9
$ORTHOMODE
 70
     0
  9
$REGENMODE
 70
     1
  9
$FILLMODE
 70
     1
  9
$QTEXTMODE
 70
     0
  9
$MIRRTEXT
 70
     1
  9
$LTSCALE
 40
1.0
  9
$ATTMODE
 70
     1
  9
$TEXTSIZE
 40
0.09
  9
$TRACEWID
 40
0.05
  9
$TEXTSTYLE
  7
STANDARD
  9
$CLAYER
  8
0
  9
$CELTYPE
  6
BYLAYER
  9
$CECOLOR
 62
   256
  9
$CELTSCALE
 40
1.0
  9
$DISPSILH
 70
     0
  9
$DIMSCALE
 40
1.0
  9
$DIMASZ
 40
0.125
  9
$DIMEXO
 40
0.0625
  9
$DIMDLI
 40
0.38
  9
$DIMRND
 40
0.0
  9
$DIMDLE
 40
0.0
  9
$DIMEXE
 40
0.125
  9
$DIMTP
 40
0.0
  9
$DIMTM
 40
0.0
  9
$DIMTXT
 40
0.09
  9
$DIMCEN
 40
0.09
  9
$DIMTSZ
 40
0.0
  9
$DIMTOL
 70
     0
  9
$DIMLIM
 70
     0
  9
$DIMTIH
 70
     1
  9
$DIMTOH
 70
     1
  9
$DIMSE1
 70
     0
  9
$DIMSE2
 70
     0
  9
$DIMTAD
 70
     0
  9
$DIMZIN
 70
     0
  9
$DIMBLK
  1

  9
$DIMASO
 70
     1
  9
$DIMSHO
 70
     1
  9
$DIMPOST
  1

  9
$DIMAPOST
  1
mm
  9
$DIMALT
 70
     1
  9
$DIMALTD
 70
     1
  9
$DIMALTF
 40
25.4
  9
$DIMLFAC
 40
1.0
  9
$DIMTOFL
 70
     0
  9
$DIMTVP
 40
0.0
  9
$DIMTIX
 70
     0
  9
$DIMSOXD
 70
     0
  9
$DIMSAH
 70
     0
  9
$DIMBLK1
  1

  9
$DIMBLK2
  1

  9
$DIMSTYLE
  2
STANDARD
  9
$DIMCLRD
 70
     0
  9
$DIMCLRE
 70
     0
  9
$DIMCLRT
 70
     0
  9
$DIMTFAC
 40
1.0
  9
$DIMGAP
 40
0.09
  9
$DIMJUST
 70
     0
  9
$DIMSD1
 70
     0
  9
$DIMSD2
 70
     0
  9
$DIMTOLJ
 70
     1
  9
$DIMTZIN
 70
     0
  9
$DIMALTZ
 70
     0
  9
$DIMALTTZ
 70
     0
  9
$DIMUPT
 70
     0
  9
$DIMDEC
 70
     2
  9
$DIMTDEC
 70
     2
  9
$DIMALTU
 70
     2
  9
$DIMALTTD
 70
     1
  9
$DIMTXSTY
  7
STANDARD
  9
$DIMAUNIT
 70
     0
  9
$DIMADEC
 70
     0
  9
$DIMALTRND
 40
0.0
  9
$DIMAZIN
 70
     0
  9
$DIMDSEP
 70
    46
  9
$DIMATFIT
 70
     3
  9
$DIMFRAC
 70
     0
  9
$DIMLDRBLK
  1

  9
$DIMLUNIT
 70
     2
  9
$DIMLWD
 70
    -2
  9
$DIMLWE
 70
    -2
  9
$DIMTMOVE
 70
     0
  9
$LUNITS
 70
     2
  9
$LUPREC
 70
     2
  9
$SKETCHINC
 40
0.1
  9
$FILLETRAD
 40
0.5
  9
$AUNITS
 70
     0
  9
$AUPREC
 70
     0
  9
$MENU
  1
.
  9
$ELEVATION
 40
0.0
  9
$PELEVATION
 40
0.0
  9
$THICKNESS
 40
0.0
  9
$LIMCHECK
 70
     0
  9
$CHAMFERA
 40
0.5
  9
$CHAMFERB
 40
0.5
  9
$CHAMFERC
 40
1.0
  9
$CHAMFERD
 40
0.0
  9
$SKPOLY
 70
     0
  9
$TDCREATE
 40
2451681.555436007
  9
$TDUCREATE
 40
2451681.763769340
  9
$TDUPDATE
 40
2454294.553617280
  9
$TDUUPDATE
 40
2454294.761950614
  9
$TDINDWG
 40
0.2108345255
  9
$TDUSRTIMER
 40
0.2108345255
  9
$USRTIMER
 70
     1
  9
$ANGBASE
 50
0.0
  9
$ANGDIR
 70
     0
  9
$PDMODE
 70
     2
  9
$PDSIZE
 40
0.075
  9
$PLINEWID
 40
0.0
  9
$SPLFRAME
 70
     0
  9
$SPLINETYPE
 70
     6
  9
$SPLINESEGS
 70
     8
  9
$HANDSEED
  5
AC3
  9
$SURFTAB1
 70
     6
  9
$SURFTAB2
 70
     6
  9
$SURFTYPE
 70
     6
  9
$SURFU
 70
     6
  9
$SURFV
 70
     6
  9
$UCSBASE
  2

  9
$UCSNAME
  2

  9
$UCSORG
 10
0.0
 20
0.0
 30
0.0
  9
$UCSXDIR
 10
1.0
 20
0.0
 30
0.0
  9
$UCSYDIR
 10
0.0
 20
1.0
 30
0.0
  9
$UCSORTHOREF
  2

  9
$UCSORTHOVIEW
 70
     0
  9
$UCSORGTOP
 10
0.0
 20
0.0
 30
0.0
  9
$UCSORGBOTTOM
 10
0.0
 20
0.0
 30
0.0
  9
$UCSORGLEFT
 10
0.0
 20
0.0
 30
0.0
  9
$UCSORGRIGHT
 10
0.0
 20
0.0
 30
0.0
  9
$UCSORGFRONT
 10
0.0
 20
0.0
 30
0.0
  9
$UCSORGBACK
 10
0.0
 20
0.0
 30
0.0
  9
$PUCSBASE
  2

  9
$PUCSNAME
  2

  9
$PUCSORG
 10
0.0
 20
0.0
 30
0.0
  9
$PUCSXDIR
 10
1.0
 20
0.0
 30
0.0
  9
$PUCSYDIR
 10
0.0
 20
1.0
 30
0.0
  9
$PUCSORTHOREF
  2

  9
$PUCSORTHOVIEW
 70
     0
  9
$PUCSORGTOP
 10
0.0
 20
0.0
 30
0.0
  9
$PUCSORGBOTTOM
 10
0.0
 20
0.0
 30
0.0
  9
$PUCSORGLEFT
 10
0.0
 20
0.0
 30
0.0
  9
$PUCSORGRIGHT
 10
0.0
 20
0.0
 30
0.0
  9
$PUCSORGFRONT
 10
0.0
 20
0.0
 30
0.0
  9
$PUCSORGBACK
 10
0.0
 20
0.0
 30
0.0
  9
$USERI1
 70
     0
  9
$USERI2
 70
     0
  9
$USERI3
 70
     0
  9
$USERI4
 70
     0
  9
$USERI5
 70
     0
  9
$USERR1
 40
0.0
  9
$USERR2
 40
0.0
  9
$USERR3
 40
0.0
  9
$USERR4
 40
0.0
  9
$USERR5
 40
0.0
  9
$WORLDVIEW
 70
     1
  9
$SHADEDGE
 70
     3
  9
$SHADEDIF
 70
    70
  9
$TILEMODE
 70
     1
  9
$MAXACTVP
 70
    48
  9
$PINSBASE
 10
0.0
 20
0.0
 30
0.0
  9
$PLIMCHECK
 70
     0
  9
$PEXTMIN
 10
1.000000000000000E+20
 20
1.000000000000000E+20
 30
1.000000000000000E+20
  9
$PEXTMAX
 10
-1.000000000000000E+20
 20
-1.000000000000000E+20
 30
-1.000000000000000E+20
  9
$PLIMMIN
 10
0.0
 20
0.0
  9
$PLIMMAX
 10
12.0
 20
9.0
  9
$UNITMODE
 70
     0
  9
$VISRETAIN
 70
     1
  9
$PLINEGEN
 70
     0
  9
$PSLTSCALE
 70
     1
  9
$TREEDEPTH
 70
  3020
  9
$CMLSTYLE
  2
STANDARD
  9
$CMLJUST
 70
     0
  9
$CMLSCALE
 40
1.0
  9
$PROXYGRAPHICS
 70
     1
  9
$MEASUREMENT
 70
     0
  9
$CELWEIGHT
370
    -1
  9
$ENDCAPS
280
     0
  9
$JOINSTYLE
280
     0
  9
$LWDISPLAY
290
     0
  9
$INSUNITS
 70
     0
  9
$HYPERLINKBASE
  1

  9
$STYLESHEET
  1

  9
$XEDIT
290
     1
  9
$CEPSNTYPE
380
     0
  9
$PSTYLEMODE
290
     1
  9
$FINGERPRINTGUID
  2
{71EC7F31-AA06-4ECF-8D30-7E7FC2EDBC33}
  9
$VERSIONGUID
  2
{8310E86A-FCC6-4850-B204-5326D5272479}
  9
$EXTNAMES
290
     1
  9
$PSVPSCALE
 40
0.0
  9
$OLESTARTUP
290
     0
  0
ENDSEC
  0
SECTION
  2
CLASSES
  0
CLASS
  1
ACDBDICTIONARYWDFLT
  2
AcDbDictionaryWithDefault
  3
ObjectDBX Classes
 90
        0
280
     0
281
     0
  0
CLASS
  1
TABLESTYLE
  2
AcDbTableStyle
  3
ObjectDBX Classes
 90
     2047
280
     0
281
     0
  0
CLASS
  1
DICTIONARYVAR
  2
AcDbDictionaryVar
  3
ObjectDBX Classes
 90
        0
280
     0
281
     0
  0
CLASS
  1
ACDBPLACEHOLDER
  2
AcDbPlaceHolder
  3
ObjectDBX Classes
 90
        0
280
     0
281
     0
  0
CLASS
  1
LAYOUT
  2
AcDbLayout
  3
ObjectDBX Classes
 90
        0
280
     0
281
     0
  0
ENDSEC
  0
SECTION
  2
TABLES
  0
TABLE
  2
VPORT
  5
8
330
0
100
AcDbSymbolTable
 70
     2
  0
VPORT
  5
ABD
330
8
100
AcDbSymbolTableRecord
100
AcDbViewportTableRecord
  2
*Active
 70
     0
 10
0.0
 20
0.0
 11
1.0
 21
1.0
 12
11.00000010314714
 22
9.103929070580019
 13
0.0
 23
0.0
 14
0.5
 24
0.5
 15
0.5
 25
0.5
 16
0.0
 26
0.0
 36
1.0
 17
0.0
 27
0.0
 37
0.0
 40
18.4699008689387
 41
1.499364675984752
 42
50.0
 43
0.0
 44
0.0
 50
0.0
 51
0.0
 71
     0
 72
   100
 73
     1
 74
     1
 75
     0
 76
     0
 77
     0
 78
     0
281
     0
 65
     1
110
0.0
120
0.0
130
0.0
111
1.0
121
0.0
131
0.0
112
0.0
122
1.0
132
0.0
 79
     0
146
0.0
  0
ENDTAB
  0
TABLE
  2
LTYPE
  5
5
330
0
100
AcDbSymbolTable
 70
     1
  0
LTYPE
  5
12
330
5
100
AcDbSymbolTableRecord
100
AcDbLinetypeTableRecord
  2
BYBLOCK
 70
     0
  3

 72
    65
 73
     0
 40
0.0
  0
LTYPE
  5
13
330
5
100
AcDbSymbolTableRecord
100
AcDbLinetypeTableRecord
  2
BYLAYER
 70
     0
  3

 72
    65
 73
     0
 40
0.0
  0
LTYPE
  5
14
330
5
100
AcDbSymbolTableRecord
100
AcDbLinetypeTableRecord
  2
CONTINUOUS
 70
     0
  3
Solid line
 72
    65
 73
     0
 40
0.0
  0
ENDTAB
  0
TABLE
  2
LAYER
  5
2
102
{ACAD_XDICTIONARY
360
154
102
}
330
0
100
AcDbSymbolTable
 70
     6
  0
LAYER
  5
E
330
2
100
AcDbSymbolTableRecord
100
AcDbLayerTableRecord
  2
0
 70
     0
 62
     7
  6
CONTINUOUS
370
    -3
390
10B
  0
LAYER
  5
20
330
2
100
AcDbSymbolTableRecord
100
AcDbLayerTableRecord
  2
Title Block
 70
     0
 62
     3
  6
CONTINUOUS
370
    -3
390
10B
  0
LAYER
  5
21
330
2
100
AcDbSymbolTableRecord
100
AcDbLayerTableRecord
  2
Dimension
 70
     0
 62
     6
  6
CONTINUOUS
370
    -3
390
10B
  0
LAYER
  5
22
330
2
100
AcDbSymbolTableRecord
100
AcDbLayerTableRecord
  2
Text
 70
     0
 62
     1
  6
CONTINUOUS
370
    -3
390
10B
  0
LAYER
  5
23
330
2
100
AcDbSymbolTableRecord
100
AcDbLayerTableRecord
  2
Object
 70
     0
 62
     5
  6
CONTINUOUS
370
    -3
390
10B
  0
LAYER
  5
179
330
2
100
AcDbSymbolTableRecord
100
AcDbLayerTableRecord
  2
Defpoints
 70
     0
 62
     7
  6
CONTINUOUS
290
     0
370
    -3
390
10B
  0
ENDTAB
  0
TABLE
  2
STYLE
  5
3
330
0
100
AcDbSymbolTable
 70
     1
  0
STYLE
  5
F
330
3
100
AcDbSymbolTableRecord
100
AcDbTextStyleTableRecord
  2
STANDARD
 70
     0
 40
0.0
 41
1.0
 50
0.0
 71
     0
 42
0.09
  3
technic_.ttf
  4

1001
ACAD
1000
Technic
1071
      514
  0
ENDTAB
  0
TABLE
  2
VIEW
  5
6
330
0
100
AcDbSymbolTable
 70
     0
  0
ENDTAB
  0
TABLE
  2
UCS
  5
7
330
0
100
AcDbSymbolTable
 70
     0
  0
ENDTAB
  0
TABLE
  2
APPID
  5
9
330
0
100
AcDbSymbolTable
 70
     4
  0
APPID
  5
10
330
9
100
AcDbSymbolTableRecord
100
AcDbRegAppTableRecord
  2
ACAD
 70
     0
  0
APPID
  5
149
330
9
100
AcDbSymbolTableRecord
100
AcDbRegAppTableRecord
  2
DCO15
 70
     0
  0
APPID
  5
153
330
9
100
AcDbSymbolTableRecord
100
AcDbRegAppTableRecord
  2
AcAecLayerStandard
 70
     0
  0
APPID
  5
1A9
330
9
100
AcDbSymbolTableRecord
100
AcDbRegAppTableRecord
  2
ACAD_DSTYLE_DIMTEXT_FILL
 70
     0
  0
ENDTAB
  0
TABLE
  2
DIMSTYLE
  5
A
330
0
100
AcDbSymbolTable
 70
     1
100
AcDbDimStyleTable
 71
     1
340
1D
  0
DIMSTYLE
105
1D
102
{ACAD_REACTORS
330
A53
330
A98
102
}
330
A
100
AcDbSymbolTableRecord
100
AcDbDimStyleTableRecord
  2
STANDARD
 70
     0
  4
mm
 41
0.125
 44
0.125
140
0.09
170
     1
171
     1
271
     2
272
     2
274
     1
340
F
  0
ENDTAB
  0
TABLE
  2
BLOCK_RECORD
  5
1
330
0
100
AcDbSymbolTable
 70
     2
  0
BLOCK_RECORD
  5
18
330
1
100
AcDbSymbolTableRecord
100
AcDbBlockTableRecord
  2
*MODEL_SPACE
340
112
  0
BLOCK_RECORD
  5
15
330
1
100
AcDbSymbolTableRecord
100
AcDbBlockTableRecord
  2
*PAPER_SPACE
340
113
  0
BLOCK_RECORD
  5
A54
330
1
100
AcDbSymbolTableRecord
100
AcDbBlockTableRecord
  2
*D0
340
0
  0
BLOCK_RECORD
  5
A99
330
1
100
AcDbSymbolTableRecord
100
AcDbBlockTableRecord
  2
*D1
340
0
  0
ENDTAB
  0
ENDSEC
  0
SECTION
  2
BLOCKS
  0
BLOCK
  5
19
330
18
100
AcDbEntity
  8
0
100
AcDbBlockBegin
  2
*MODEL_SPACE
 70
     0
 10
0.0
 20
0.0
 30
0.0
  3
*MODEL_SPACE
  1

  0
ENDBLK
  5
1A
330
18
100
AcDbEntity
  8
0
100
AcDbBlockEnd
  0
BLOCK
  5
16
330
15
100
AcDbEntity
 67
     1
  8
0
100
AcDbBlockBegin
  2
*PAPER_SPACE
 70
     0
 10
0.0
 20
0.0
 30
0.0
  3
*PAPER_SPACE
  1

  0
ENDBLK
  5
17
330
15
100
AcDbEntity
 67
     1
  8
0
100
AcDbBlockEnd
  0
BLOCK
  5
A5F
330
A54
100
AcDbEntity
  8
0
100
AcDbBlockBegin
  2
*D0
 70
     1
 10
0.0
 20
0.0
 30
0.0
  3
*D0
  1

  0
LINE
  5
A8D
330
A54
100
AcDbEntity
  8
Dimension
 62
     0
370
    -2
100
AcDbLine
 10
16.604
 20
12.3155
 30
0.0
 11
16.604
 21
13.31128929668146
 31
0.0
  0
LINE
  5
A8E
330
A54
100
AcDbEntity
  8
Dimension
 62
     0
370
    -2
100
AcDbLine
 10
18.701
 20
12.1015
 30
0.0
 11
18.701
 21
13.31128929668146
 31
0.0
  0
LINE
  5
A8F
330
A54
100
AcDbEntity
  8
Dimension
 62
     0
370
    -2
100
AcDbLine
 10
16.729
 20
13.18628929668146
 30
0.0
 11
17.15756578947368
 21
13.18628929668146
 31
0.0
  0
LINE
  5
A90
330
A54
100
AcDbEntity
  8
Dimension
 62
     0
370
    -2
100
AcDbLine
 10
18.576
 20
13.18628929668146
 30
0.0
 11
18.14743421052632
 21
13.18628929668146
 31
0.0
  0
SOLID
  5
A91
330
A54
100
AcDbEntity
  8
Dimension
 62
     0
100
AcDbTrace
 10
16.729
 20
13.20712263001479
 30
0.0
 11
16.729
 21
13.16545596334812
 31
0.0
 12
16.604
 22
13.18628929668146
 32
0.0
 13
16.604
 23
13.18628929668146
 33
0.0
  0
SOLID
  5
A92
330
A54
100
AcDbEntity
  8
Dimension
 62
     0
100
AcDbTrace
 10
18.576
 20
13.20712263001479
 30
0.0
 11
18.576
 21
13.16545596334812
 31
0.0
 12
18.701
 22
13.18628929668146
 32
0.0
 13
18.701
 23
13.18628929668146
 33
0.0
  0
MTEXT
  5
A93
330
A54
100
AcDbEntity
  8
Dimension
 62
     0
100
AcDbMText
 10
17.6525
 20
13.18628929668146
 30
0.0
 40
0.09
 41
0.0
 71
     5
 72
     1
  1
\A1;2.08 [52.8mm]
 73
     1
 44
1.0
1001
ACAD
1000
MTEXTBEGIN
1070
    73
1070
     1
1070
    44
1040
1.0
1070
    74
1070
     0
1000
MTEXTEND
  0
POINT
  5
A94
330
A54
100
AcDbEntity
  8
Defpoints
 62
     0
100
AcDbPoint
 10
16.604
 20
12.253
 30
0.0
  0
POINT
  5
A95
330
A54
100
AcDbEntity
  8
Defpoints
 62
     0
100
AcDbPoint
 10
18.701
 20
12.039
 30
0.0
  0
POINT
  5
A96
330
A54
100
AcDbEntity
  8
Defpoints
 62
     0
100
AcDbPoint
 10
18.701
 20
13.18628929668146
 30
0.0
  0
ENDBLK
  5
A60
330
A54
100
AcDbEntity
  8
0
100
AcDbBlockEnd
  0
BLOCK
  5
AA4
330
A99
100
AcDbEntity
  8
0
100
AcDbBlockBegin
  2
*D1
 70
     1
 10
0.0
 20
0.0
 30
0.0
  3
*D1
  1

  0
LINE
  5
AA7
330
A99
100
AcDbEntity
  8
Dimension
 62
     0
370
    -2
100
AcDbLine
 10
3.258
 20
7.9435
 30
0.0
 11
3.258
 21
13.30013672917243
 31
0.0
  0
LINE
  5
AA8
330
A99
100
AcDbEntity
  8
Dimension
 62
     0
370
    -2
100
AcDbLine
 10
10.548
 20
12.3565
 30
0.0
 11
10.548
 21
13.30013672917243
 31
0.0
  0
LINE
  5
AA9
330
A99
100
AcDbEntity
  8
Dimension
 62
     0
370
    -2
100
AcDbLine
 10
3.383
 20
13.17513672917243
 30
0.0
 11
6.400763157894737
 21
13.17513672917243
 31
0.0
  0
LINE
  5
AAA
330
A99
100
AcDbEntity
  8
Dimension
 62
     0
370
    -2
100
AcDbLine
 10
10.423
 20
13.17513672917243
 30
0.0
 11
7.405236842105263
 21
13.17513672917243
 31
0.0
  0
SOLID
  5
AAB
330
A99
100
AcDbEntity
  8
Dimension
 62
     0
100
AcDbTrace
 10
3.383
 20
13.19597006250576
 30
0.0
 11
3.383
 21
13.15430339583909
 31
0.0
 12
3.258
 22
13.17513672917243
 32
0.0
 13
3.258
 23
13.17513672917243
 33
0.0
  0
SOLID
  5
AAC
330
A99
100
AcDbEntity
  8
Dimension
 62
     0
100
AcDbTrace
 10
10.423
 20
13.19597006250576
 30
0.0
 11
10.423
 21
13.15430339583909
 31
0.0
 12
10.548
 22
13.17513672917243
 32
0.0
 13
10.548
 23
13.17513672917243
 33
0.0
  0
MTEXT
  5
AAD
330
A99
100
AcDbEntity
  8
Dimension
 62
     0
100
AcDbMText
 10
6.903
 20
13.17513672917243
 30
0.0
 40
0.09
 41
0.0
 71
     5
 72
     1
  1
\A1;7.29 [185.1mm]
 73
     1
 44
1.0
1001
ACAD
1000
MTEXTBEGIN
1070
    73
1070
     1
1070
    44
1040
1.0
1070
    74
1070
     0
1000
MTEXTEND
  0
POINT
  5
AAE
330
A99
100
AcDbEntity
  8
Defpoints
 62
     0
100
AcDbPoint
 10
3.258
 20
7.881
 30
0.0
  0
POINT
  5
AAF
330
A99
100
AcDbEntity
  8
Defpoints
 62
     0
100
AcDbPoint
 10
10.548
 20
12.294
 30
0.0
  0
POINT
  5
AB0
330
A99
100
AcDbEntity
  8
Defpoints
 62
     0
100
AcDbPoint
 10
10.548
 20
13.17513672917243
 30
0.0
  0
ENDBLK
  5
AA5
330
A99
100
AcDbEntity
  8
0
100
AcDbBlockEnd
  0
ENDSEC
  0
SECTION
  2
ENTITIES
  0
TEXT
  5
51
330
18
100
AcDbEntity
  8
Title Block
100
AcDbText
 10
17.77669501265554
 20
2.672489851525508
 30
0.0
 40
0.05
  1
FILENAME:
100
AcDbText
  0
TEXT
  5
52
330
18
100
AcDbEntity
  8
Title Block
100
AcDbText
 10
17.76928502872825
 20
2.076224967549325
 30
0.0
 40
0.35
  1
PANDUIT
100
AcDbText
  0
TEXT
  5
53
330
18
100
AcDbEntity
  8
Title Block
100
AcDbText
 10
19.72182039882138
 20
2.061410940562986
 30
0.0
 40
0.125
  1
CORP. TINLEY PARK, IL
100
AcDbText
  0
TEXT
  5
54
330
18
100
AcDbEntity
  8
Title Block
100
AcDbText
 10
17.78039997670861
 20
1.91697409709392
 30
0.0
 40
0.05
  1
TITLE:
100
AcDbText
  0
MTEXT
  5
57
330
18
100
AcDbEntity
  8
Title Block
100
AcDbMText
 10
19.0
 20
1.372215793536348
 30
0.0
 40
0.075
 41
2.5
 71
     5
 72
     5
  1
UNLESS OTHERWISE SPECIFIED,\PDIMENSIONAL TOLERANCES ARE:       
 73
     1
 44
1.0
1001
ACAD
1000
MTEXTBEGIN
1070
    73
1070
     1
1070
    44
1040
1.0
1070
    74
1070
     0
1000
MTEXTEND
  0
MTEXT
  5
58
330
18
100
AcDbEntity
  8
Title Block
100
AcDbMText
 10
18.39237986661001
 20
1.131487708483632
 30
0.0
 40
0.075
 41
2.5
 71
     5
 72
     5
  1
(.X)\P(.XX)
 73
     1
 44
1.0
1001
ACAD
1000
MTEXTBEGIN
1070
    73
1070
     1
1070
    44
1040
1.0
1070
    74
1070
     0
1000
MTEXTEND
  0
MTEXT
  5
59
330
18
100
AcDbEntity
  8
Title Block
100
AcDbMText
 10
19.40014005312411
 20
1.131487708483632
 30
0.0
 40
0.075
 41
2.5
 71
     5
 72
     5
  1
(.XXX)\PANGLES:
 73
     1
 44
1.0
1001
ACAD
1000
MTEXTBEGIN
1070
    73
1070
     1
1070
    44
1040
1.0
1070
    74
1070
     0
1000
MTEXTEND
  0
MTEXT
  5
5A
330
18
100
AcDbEntity
  8
Title Block
100
AcDbMText
 10
21.0
 20
1.25
 30
0.0
 40
0.06
 41
1.5
 71
     5
 72
     5
  1
UNLESS OTHERWISE SPECIFIED,\PALL DIMENSIONS ARE GIVEN IN INCHES, THIRD ANGLE PROJECTION
 73
     1
 44
1.0
1001
ACAD
1000
MTEXTBEGIN
1070
    73
1070
     1
1070
    44
1040
1.0
1070
    74
1070
     0
1000
MTEXTEND
  0
TEXT
  5
5E
330
18
100
AcDbEntity
  8
Title Block
100
AcDbText
 10
17.76076445430618
 20
0.9281373372752312
 30
0.0
 40
0.05
  1
DRAWN BY:
100
AcDbText
  0
TEXT
  5
5F
330
18
100
AcDbEntity
  8
Title Block
100
AcDbText
 10
17.76446947418043
 20
0.6811431865635028
 30
0.0
 40
0.05
  1
DATE:
100
AcDbText
  0
TEXT
  5
60
330
18
100
AcDbEntity
  8
Title Block
100
AcDbText
 10
17.76817443823349
 20
0.4304455338317968
 30
0.0
 40
0.05
  1
CHECKED BY:
100
AcDbText
  0
TEXT
  5
62
330
18
100
AcDbEntity
  8
Title Block
100
AcDbText
 10
18.52028959313306
 20
0.9281373372752312
 30
0.0
 40
0.05
  1
MATERIAL:
100
AcDbText
  0
TEXT
  5
63
330
18
100
AcDbEntity
  8
Title Block
100
AcDbText
 10
20.26534493878154
 20
0.9281373372752312
 30
0.0
 40
0.05
  1
SCALE:
100
AcDbText
  0
TEXT
  5
64
330
18
100
AcDbEntity
  8
Title Block
100
AcDbText
 10
20.26534493878154
 20
0.6725952630490007
 30
0.0
 40
0.05
  1
DRAWING NUMBER:
100
AcDbText
  0
TEXT
  5
65
330
18
100
AcDbEntity
  8
Title Block
100
AcDbText
 10
21.34942622928997
 20
0.6762987650689816
 30
0.0
 40
0.05
  1
DRAWING
100
AcDbText
  0
TEXT
  5
66
330
18
100
AcDbEntity
  8
Title Block
100
AcDbText
 10
21.42723125590085
 20
0.2811642688682026
 30
0.0
 40
0.05
  1
SIZE
100
AcDbText
  0
TEXT
  5
67
330
18
100
AcDbEntity
  8
Title Block
100
AcDbText
 10
21.39373130657865
 20
0.3826699445861052
 30
0.0
 40
0.25
  1
C
100
AcDbText
  0
MTEXT
  5
68
330
18
100
AcDbEntity
  8
Title Block
100
AcDbMText
 10
11.37499999999999
 20
0.375
 30
0.0
 40
0.05
 41
0.25
 71
     5
 72
     5
  1
REV
 73
     1
 44
1.0
1001
ACAD
1000
MTEXTBEGIN
1070
    73
1070
     1
1070
    44
1040
1.0
1070
    74
1070
     0
1000
MTEXTEND
  0
MTEXT
  5
69
330
18
100
AcDbEntity
  8
Title Block
100
AcDbMText
 10
11.74999999999999
 20
0.375
 30
0.0
 40
0.05
 41
0.5
 71
     5
 72
     5
  1
DATE
 73
     1
 44
1.0
1001
ACAD
1000
MTEXTBEGIN
1070
    73
1070
     1
1070
    44
1040
1.0
1070
    74
1070
     0
1000
MTEXTEND
  0
MTEXT
  5
6A
330
18
100
AcDbEntity
  8
Title Block
100
AcDbMText
 10
12.18999999999999
 20
0.375
 30
0.0
 40
0.05
 41
0.38
 71
     5
 72
     5
  1
BY
 73
     1
 44
1.0
1001
ACAD
1000
MTEXTBEGIN
1070
    73
1070
     1
1070
    44
1040
1.0
1070
    74
1070
     0
1000
MTEXTEND
  0
MTEXT
  5
6B
330
18
100
AcDbEntity
  8
Title Block
100
AcDbMText
 10
12.56499999999999
 20
0.375
 30
0.0
 40
0.05
 41
0.38
 71
     5
 72
     5
  1
CHK
 73
     1
 44
1.0
1001
ACAD
1000
MTEXTBEGIN
1070
    73
1070
     1
1070
    44
1040
1.0
1070
    74
1070
     0
1000
MTEXTEND
  0
MTEXT
  5
6C
330
18
100
AcDbEntity
  8
Title Block
100
AcDbMText
 10
14.12499999999999
 20
0.375
 30
0.0
 40
0.05
 41
2.75
 71
     5
 72
     5
  1
DESCRIPTION
 73
     1
 44
1.0
1001
ACAD
1000
MTEXTBEGIN
1070
    73
1070
     1
1070
    44
1040
1.0
1070
    74
1070
     0
1000
MTEXTEND
  0
MTEXT
  5
6D
330
18
100
AcDbEntity
  8
Title Block
100
AcDbMText
 10
16.065
 20
0.375
 30
0.0
 40
0.05
 41
1.129999999999999
 71
     5
 72
     5
  1
ECN   -   R
 73
     1
 44
1.0
1001
ACAD
1000
MTEXTBEGIN
1070
    73
1070
     1
1070
    44
1040
1.0
1070
    74
1070
     0
1000
MTEXTEND
  0
MTEXT
  5
6E
330
18
100
AcDbEntity
  8
Title Block
100
AcDbMText
 10
16.81499999999999
 20
0.375
 30
0.0
 40
0.05
 41
0.38
 71
     5
 72
     5
  1
CUST
 73
     1
 44
1.0
1001
ACAD
1000
MTEXTBEGIN
1070
    73
1070
     1
1070
    44
1040
1.0
1070
    74
1070
     0
1000
MTEXTEND
  0
MTEXT
  5
6F
330
18
100
AcDbEntity
  8
Title Block
100
AcDbMText
 10
17.19
 20
0.375
 30
0.0
 40
0.05
 41
0.38
 71
     5
 72
     5
  1
SUP
 73
     1
 44
1.0
1001
ACAD
1000
MTEXTBEGIN
1070
    73
1070
     1
1070
    44
1040
1.0
1070
    74
1070
     0
1000
MTEXTEND
  0
LINE
  5
A5
330
18
100
AcDbEntity
  8
Title Block
100
AcDbLine
 10
21.75
 20
2.749999999999999
 30
0.0
 11
11.25
 21
2.75
 31
0.0
  0
LINE
  5
A6
330
18
100
AcDbEntity
  8
Title Block
100
AcDbLine
 10
17.74999999999999
 20
2.75
 30
0.0
 11
17.74999999999999
 21
0.25
 31
0.0
  0
LINE
  5
A7
330
18
100
AcDbEntity
  8
Title Block
100
AcDbLine
 10
21.75
 20
2.499999999999999
 30
0.0
 11
11.25
 21
2.5
 31
0.0
  0
LINE
  5
A8
330
18
100
AcDbEntity
  8
Title Block
100
AcDbLine
 10
17.74999999999999
 20
2.25
 30
0.0
 11
11.25
 21
2.25
 31
0.0
  0
LINE
  5
A9
330
18
100
AcDbEntity
  8
Title Block
100
AcDbLine
 10
21.75
 20
1.999999999999999
 30
0.0
 11
11.25
 21
2.0
 31
0.0
  0
LINE
  5
AA
330
18
100
AcDbEntity
  8
Title Block
100
AcDbLine
 10
17.74999999999999
 20
1.75
 30
0.0
 11
11.25
 21
1.75
 31
0.0
  0
LINE
  5
AB
330
18
100
AcDbEntity
  8
Title Block
100
AcDbLine
 10
21.75
 20
1.499999999999999
 30
0.0
 11
11.25
 21
1.5
 31
0.0
  0
LINE
  5
AC
330
18
100
AcDbEntity
  8
Title Block
100
AcDbLine
 10
17.74999999999999
 20
1.25
 30
0.0
 11
11.25
 21
1.25
 31
0.0
  0
LINE
  5
AD
330
18
100
AcDbEntity
  8
Title Block
100
AcDbLine
 10
21.75
 20
0.9999999999999996
 30
0.0
 11
11.25
 21
1.0
 31
0.0
  0
LINE
  5
AE
330
18
100
AcDbEntity
  8
Title Block
100
AcDbLine
 10
18.49999999999999
 20
0.75
 30
0.0
 11
11.25
 21
0.7500000000000009
 31
0.0
  0
LINE
  5
AF
330
18
100
AcDbEntity
  8
Title Block
100
AcDbLine
 10
18.49999999999999
 20
0.5
 30
0.0
 11
11.25
 21
0.5000000000000009
 31
0.0
  0
LINE
  5
B6
330
18
100
AcDbEntity
  8
Title Block
100
AcDbLine
 10
11.25
 20
0.25
 30
0.0
 11
11.25
 21
2.75
 31
0.0
  0
LINE
  5
BC
330
18
100
AcDbEntity
  8
Title Block
100
AcDbLine
 10
11.49999999999999
 20
0.25
 30
0.0
 11
11.49999999999999
 21
2.750000000000001
 31
0.0
  0
LINE
  5
BD
330
18
100
AcDbEntity
  8
Title Block
100
AcDbLine
 10
11.99999999999999
 20
0.25
 30
0.0
 11
11.99999999999999
 21
2.750000000000001
 31
0.0
  0
LINE
  5
C0
330
18
100
AcDbEntity
  8
Title Block
100
AcDbLine
 10
12.375
 20
0.25
 30
0.0
 11
12.375
 21
2.750000000000001
 31
0.0
  0
LINE
  5
C1
330
18
100
AcDbEntity
  8
Title Block
100
AcDbLine
 10
12.74999999999999
 20
0.25
 30
0.0
 11
12.74999999999999
 21
2.750000000000001
 31
0.0
  0
LINE
  5
C2
330
18
100
AcDbEntity
  8
Title Block
100
AcDbLine
 10
17.375
 20
2.75
 30
0.0
 11
17.375
 21
0.25
 31
0.0
  0
LINE
  5
C3
330
18
100
AcDbEntity
  8
Title Block
100
AcDbLine
 10
17.0
 20
2.75
 30
0.0
 11
17.0
 21
0.25
 31
0.0
  0
LINE
  5
C4
330
18
100
AcDbEntity
  8
Title Block
100
AcDbLine
 10
16.62499999999999
 20
2.75
 30
0.0
 11
16.62499999999999
 21
0.25
 31
0.0
  0
LINE
  5
C5
330
18
100
AcDbEntity
  8
Title Block
100
AcDbLine
 10
16.25
 20
2.75
 30
0.0
 11
16.25
 21
0.5000000000000002
 31
0.0
  0
LINE
  5
C6
330
18
100
AcDbEntity
  8
Title Block
100
AcDbLine
 10
15.5
 20
2.75
 30
0.0
 11
15.5
 21
0.25
 31
0.0
  0
LINE
  5
C7
330
18
100
AcDbEntity
  8
Title Block
100
AcDbLine
 10
20.25
 20
0.75
 30
0.0
 11
20.25
 21
1.499999999999999
 31
0.0
  0
LINE
  5
C8
330
18
100
AcDbEntity
  8
Title Block
100
AcDbLine
 10
20.25
 20
0.75
 30
0.0
 11
20.25
 21
0.25
 31
0.0
  0
LINE
  5
C9
330
18
100
AcDbEntity
  8
Title Block
100
AcDbLine
 10
20.25
 20
0.75
 30
0.0
 11
21.75
 21
0.75
 31
0.0
  0
LINE
  5
CA
330
18
100
AcDbEntity
  8
Title Block
100
AcDbLine
 10
18.49999999999999
 20
0.5
 30
0.0
 11
18.49999999999999
 21
0.25
 31
0.0
  0
LINE
  5
CB
330
18
100
AcDbEntity
  8
Title Block
100
AcDbLine
 10
18.49999999999999
 20
0.5
 30
0.0
 11
18.49999999999999
 21
1.0
 31
0.0
  0
LINE
  5
CD
330
18
100
AcDbEntity
  8
Title Block
100
AcDbLine
 10
21.25
 20
0.75
 30
0.0
 11
21.25
 21
0.25
 31
0.0
  0
LWPOLYLINE
  5
F8
330
18
100
AcDbEntity
  8
Title Block
100
AcDbPolyline
 90
        4
 70
     1
 43
0.01
 10
21.75
 20
16.75
 10
21.75
 20
0.25
 10
0.25
 20
0.25
 10
0.250000000000001
 20
16.75
  0
POINT
  5
FC
330
18
100
AcDbEntity
  8
Title Block
100
AcDbPoint
 10
22.0
 20
0.0
 30
0.0
  0
POINT
  5
FF
330
18
100
AcDbEntity
  8
Title Block
100
AcDbPoint
 10
22.0
 20
17.0
 30
0.0
  0
POINT
  5
102
330
18
100
AcDbEntity
  8
Title Block
100
AcDbPoint
 10
0.000000000000001
 20
17.0
 30
0.0
  0
POINT
  5
105
330
18
100
AcDbEntity
  8
Title Block
100
AcDbPoint
 10
0.0
 20
0.0
 30
0.0
  0
MTEXT
  5
12C
330
18
100
AcDbEntity
  8
Text
100
AcDbMText
 10
11.37324893148254
 20
0.6275685908585027
 30
0.0
 40
0.09
 41
0.25
 71
     5
 72
     5
  1
R
 73
     1
 44
1.0
1001
ACAD
1000
MTEXTBEGIN
1070
    73
1070
     1
1070
    44
1040
1.0
1070
    74
1070
     0
1000
MTEXTEND
  0
MTEXT
  5
12D
330
18
100
AcDbEntity
  8
Text
100
AcDbMText
 10
11.74824893148254
 20
0.6275685908585027
 30
0.0
 40
0.07
 41
0.5
 71
     5
 72
     5
  1
12-27-00
 73
     1
 44
1.0
1001
ACAD
1000
MTEXTBEGIN
1070
    73
1070
     1
1070
    44
1040
1.0
1070
    74
1070
     0
1000
MTEXTEND
  0
MTEXT
  5
12E
330
18
100
AcDbEntity
  8
Text
100
AcDbMText
 10
12.18574893148254
 20
0.6275685908585027
 30
0.0
 40
0.09
 41
0.375
 71
     5
 72
     5
  1
MSO
 73
     1
 44
1.0
1001
ACAD
1000
MTEXTBEGIN
1070
    73
1070
     1
1070
    44
1040
1.0
1070
    74
1070
     0
1000
MTEXTEND
  0
MTEXT
  5
130
330
18
100
AcDbEntity
  8
Text
100
AcDbMText
 10
14.12324893148254
 20
0.6275685908585023
 30
0.0
 40
0.09
 41
2.75
 71
     5
 72
     5
  1
DRAWING RELEASED
 73
     1
 44
1.0
1001
ACAD
1000
MTEXTBEGIN
1070
    73
1070
     1
1070
    44
1040
1.0
1070
    74
1070
     0
1000
MTEXTEND
  0
MTEXT
  5
133
330
18
100
AcDbEntity
  8
Text
100
AcDbMText
 10
18.47324893148254
 20
0.8525685908585018
 30
0.0
 40
0.09
 41
0.75
 71
     6
 72
     5
  1
MSO
 73
     1
 44
1.0
1001
ACAD
1000
MTEXTBEGIN
1070
    73
1070
     1
1070
    44
1040
1.0
1070
    74
1070
     0
1000
MTEXTEND
  0
MTEXT
  5
134
330
18
100
AcDbEntity
  8
Text
100
AcDbMText
 10
18.47324893148254
 20
0.6025685908585017
 30
0.0
 40
0.09
 41
0.75
 71
     6
 72
     5
  1
12-27-00
 73
     1
 44
1.0
1001
ACAD
1000
MTEXTBEGIN
1070
    73
1070
     1
1070
    44
1040
1.0
1070
    74
1070
     0
1000
MTEXTEND
  0
MTEXT
  5
135
330
18
100
AcDbEntity
  8
Text
100
AcDbMText
 10
18.47324893148254
 20
0.3525685908585019
 30
0.0
 40
0.09
 41
0.75
 71
     6
 72
     5
  1
HIW
 73
     1
 44
1.0
1001
ACAD
1000
MTEXTBEGIN
1070
    73
1070
     1
1070
    44
1040
1.0
1070
    74
1070
     0
1000
MTEXTEND
  0
MTEXT
  5
136
330
18
100
AcDbEntity
  8
Text
100
AcDbMText
 10
19.74824893148254
 20
2.627568590858501
 30
0.0
 40
0.09
 41
4.0
 71
     5
 72
     5
  1
FRA2X2.dwg
 73
     1
 44
1.0
1001
ACAD
1000
MTEXTBEGIN
1070
    73
1070
     1
1070
    44
1040
1.0
1070
    74
1070
     0
1000
MTEXTEND
  0
MTEXT
  5
137
330
18
100
AcDbEntity
  8
Text
100
AcDbMText
 10
19.74824893148254
 20
1.752568590858501
 30
0.0
 40
0.09
 41
4.0
 71
     5
 72
     5
  1
FIBER-DUCT 2x2 AND FIBERRUNNER 2x2 HORIZONTAL\PRIGHT ANGLE FITTING (FRA2X2)\PMARKETING DRAWING
 73
     1
 44
1.0
1001
ACAD
1000
MTEXTBEGIN
1070
    73
1070
     1
1070
    44
1040
1.0
1070
    74
1070
     0
1000
MTEXTEND
  0
MTEXT
  5
138
330
18
100
AcDbEntity
  8
Text
100
AcDbMText
 10
20.99824893148254
 20
0.8775685908585016
 30
0.0
 40
0.12
 41
1.5
 71
     5
 72
     5
  1
FULL
 73
     1
 44
1.0
1001
ACAD
1000
MTEXTBEGIN
1070
    73
1070
     1
1070
    44
1040
1.0
1070
    74
1070
     0
1000
MTEXTEND
  0
MTEXT
  5
139
330
18
100
AcDbEntity
  8
Text
100
AcDbMText
 10
20.74824893148254
 20
0.5025685908585018
 30
0.0
 40
0.12
 41
1.0
 71
     5
 72
     5
  1
36897-607
 73
     1
 44
1.0
1001
ACAD
1000
MTEXTBEGIN
1070
    73
1070
     1
1070
    44
1040
1.0
1070
    74
1070
     0
1000
MTEXTEND
  0
TEXT
  5
2AC
330
18
100
AcDbEntity
  8
Text
100
AcDbText
 10
6.571552260580041
 20
4.413354698252483
 30
0.0
 40
0.125
  1
TOP VIEW
100
AcDbText
  0
TEXT
  5
2AD
330
18
100
AcDbEntity
  8
Text
100
AcDbText
 10
17.12244945788938
 20
4.40489064882707
 30
0.0
 40
0.125
  1
FRONT VIEW
100
AcDbText
  0
MTEXT
  5
2BE
330
18
100
AcDbEntity
  8
Text
100
AcDbMText
 10
12.5604002814227
 20
0.626249074032665
 30
0.0
 40
0.09
 41
0.375
 71
     5
 72
     5
  1
HIW
 73
     1
 44
1.0
1001
ACAD
1000
MTEXTBEGIN
1070
    73
1070
     1
1070
    44
1040
1.0
1070
    74
1070
     0
1000
MTEXTEND
  0
LINE
  5
2CD
330
18
100
AcDbEntity
  8
Object
100
AcDbLine
 10
18.541
 20
5.118
 30
0.0
 11
18.541
 21
5.099
 31
0.0
  0
LINE
  5
2CE
330
18
100
AcDbEntity
  8
Object
100
AcDbLine
 10
18.541
 20
5.099
 30
0.0
 11
18.541
 21
5.084999999999999
 31
0.0
  0
LINE
  5
2CF
330
18
100
AcDbEntity
  8
Object
100
AcDbLine
 10
18.541
 20
5.084999999999999
 30
0.0
 11
18.541
 21
5.078999999999999
 31
0.0
  0
LINE
  5
2D0
330
18
100
AcDbEntity
  8
Object
100
AcDbLine
 10
18.621
 20
5.118999999999999
 30
0.0
 11
18.621
 21
5.113999999999999
 31
0.0
  0
LINE
  5
2D1
330
18
100
AcDbEntity
  8
Object
100
AcDbLine
 10
18.621
 20
5.113999999999999
 30
0.0
 11
18.621
 21
5.110999999999999
 31
0.0
  0
LINE
  5
2D2
330
18
100
AcDbEntity
  8
Object
100
AcDbLine
 10
18.621
 20
5.118999999999999
 30
0.0
 11
18.621
 21
6.594
 31
0.0
  0
LINE
  5
2D3
330
18
100
AcDbEntity
  8
Object
100
AcDbLine
 10
18.621
 20
5.108999999999999
 30
0.0
 11
18.621
 21
5.110999999999999
 31
0.0
  0
LINE
  5
2D4
330
18
100
AcDbEntity
  8
Object
100
AcDbLine
 10
18.591
 20
6.600999999999999
 30
0.0
 11
18.591
 21
6.597
 31
0.0
  0
LINE
  5
2D5
330
18
100
AcDbEntity
  8
Object
100
AcDbLine
 10
18.591
 20
6.597
 30
0.0
 11
18.591
 21
6.592
 31
0.0
  0
LINE
  5
2D6
330
18
100
AcDbEntity
  8
Object
100
AcDbLine
 10
18.591
 20
6.600999999999999
 30
0.0
 11
18.591
 21
6.602
 31
0.0
  0
LINE
  5
2D7
330
18
100
AcDbEntity
  8
Object
100
AcDbLine
 10
18.591
 20
6.602
 30
0.0
 11
18.587
 21
6.602
 31
0.0
  0
LINE
  5
2D8
330
18
100
AcDbEntity
  8
Object
100
AcDbLine
 10
18.541
 20
5.078999999999999
 30
0.0
 11
18.591
 21
5.078999999999999
 31
0.0
  0
LINE
  5
2D9
330
18
100
AcDbEntity
  8
Object
100
AcDbLine
 10
17.938
 20
8.083999999999999
 30
0.0
 11
17.941
 21
8.070999999999999
 31
0.0
  0
LINE
  5
2DA
330
18
100
AcDbEntity
  8
Object
100
AcDbLine
 10
17.941
 20
8.070999999999999
 30
0.0
 11
17.938
 21
8.057999999999999
 31
0.0
  0
LINE
  5
2DB
330
18
100
AcDbEntity
  8
Object
100
AcDbLine
 10
17.93
 20
8.093999999999999
 30
0.0
 11
17.938
 21
8.083999999999999
 31
0.0
  0
LINE
  5
2DC
330
18
100
AcDbEntity
  8
Object
100
AcDbLine
 10
17.938
 20
8.057999999999999
 30
0.0
 11
17.93
 21
8.048999999999999
 31
0.0
  0
LINE
  5
2DD
330
18
100
AcDbEntity
  8
Object
100
AcDbLine
 10
17.921
 20
8.098
 30
0.0
 11
17.93
 21
8.093999999999999
 31
0.0
  0
LINE
  5
2DE
330
18
100
AcDbEntity
  8
Object
100
AcDbLine
 10
17.93
 20
8.048999999999999
 30
0.0
 11
17.921
 21
8.044
 31
0.0
  0
LINE
  5
2DF
330
18
100
AcDbEntity
  8
Object
100
AcDbLine
 10
17.913
 20
8.099999999999999
 30
0.0
 11
17.921
 21
8.098
 31
0.0
  0
LINE
  5
2E0
330
18
100
AcDbEntity
  8
Object
100
AcDbLine
 10
17.921
 20
8.044
 30
0.0
 11
17.913
 21
8.043000000000001
 31
0.0
  0
LINE
  5
2E1
330
18
100
AcDbEntity
  8
Object
100
AcDbLine
 10
17.536
 20
8.105999999999999
 30
0.0
 11
17.913
 21
8.099999999999999
 31
0.0
  0
LINE
  5
2E2
330
18
100
AcDbEntity
  8
Object
100
AcDbLine
 10
17.913
 20
8.043000000000001
 30
0.0
 11
16.954
 21
8.025999999999999
 31
0.0
  0
LINE
  5
2E3
330
18
100
AcDbEntity
  8
Object
100
AcDbLine
 10
18.541
 20
11.697
 30
0.0
 11
16.721
 21
11.697
 31
0.0
  0
LINE
  5
2E4
330
18
100
AcDbEntity
  8
Object
100
AcDbLine
 10
18.541
 20
6.591
 30
0.0
 11
18.591
 21
6.592
 31
0.0
  0
LINE
  5
2E5
330
18
100
AcDbEntity
  8
Object
100
AcDbLine
 10
18.591
 20
6.592
 30
0.0
 11
18.591
 21
5.118999999999999
 31
0.0
  0
LINE
  5
2E6
330
18
100
AcDbEntity
  8
Object
100
AcDbLine
 10
18.591
 20
5.118999999999999
 30
0.0
 11
18.541
 21
5.118999999999999
 31
0.0
  0
LINE
  5
2E7
330
18
100
AcDbEntity
  8
Object
100
AcDbLine
 10
18.701
 20
6.605999999999999
 30
0.0
 11
18.699
 21
6.605999999999999
 31
0.0
  0
LINE
  5
2E8
330
18
100
AcDbEntity
  8
Object
100
AcDbLine
 10
18.699
 20
6.605999999999999
 30
0.0
 11
18.693
 21
6.605999999999999
 31
0.0
  0
LINE
  5
2E9
330
18
100
AcDbEntity
  8
Object
100
AcDbLine
 10
18.693
 20
6.605999999999999
 30
0.0
 11
18.681
 21
6.605999999999999
 31
0.0
  0
LINE
  5
2EA
330
18
100
AcDbEntity
  8
Object
100
AcDbLine
 10
18.681
 20
6.605999999999999
 30
0.0
 11
18.665
 21
6.605
 31
0.0
  0
LINE
  5
2EB
330
18
100
AcDbEntity
  8
Object
100
AcDbLine
 10
18.665
 20
6.605
 30
0.0
 11
18.646
 21
6.604
 31
0.0
  0
LINE
  5
2EC
330
18
100
AcDbEntity
  8
Object
100
AcDbLine
 10
18.646
 20
6.604
 30
0.0
 11
18.624
 21
6.602999999999999
 31
0.0
  0
LINE
  5
2ED
330
18
100
AcDbEntity
  8
Object
100
AcDbLine
 10
18.613
 20
6.602999999999999
 30
0.0
 11
18.606
 21
6.602999999999999
 31
0.0
  0
LINE
  5
2EE
330
18
100
AcDbEntity
  8
Object
100
AcDbLine
 10
18.601
 20
6.602999999999999
 30
0.0
 11
18.624
 21
6.602999999999999
 31
0.0
  0
LINE
  5
2EF
330
18
100
AcDbEntity
  8
Object
100
AcDbLine
 10
18.606
 20
6.602999999999999
 30
0.0
 11
18.591
 21
6.602
 31
0.0
  0
LINE
  5
2F0
330
18
100
AcDbEntity
  8
Object
100
AcDbLine
 10
18.578
 20
6.602
 30
0.0
 11
18.601
 21
6.602999999999999
 31
0.0
  0
LINE
  5
2F1
330
18
100
AcDbEntity
  8
Object
100
AcDbLine
 10
18.591
 20
6.602
 30
0.0
 11
18.587
 21
6.602
 31
0.0
  0
LINE
  5
2F2
330
18
100
AcDbEntity
  8
Object
100
AcDbLine
 10
18.541
 20
6.600999999999999
 30
0.0
 11
18.578
 21
6.602
 31
0.0
  0
LINE
  5
2F3
330
18
100
AcDbEntity
  8
Object
100
AcDbLine
 10
18.541
 20
5.099
 30
0.0
 11
18.541
 21
5.084999999999999
 31
0.0
  0
LINE
  5
2F4
330
18
100
AcDbEntity
  8
Object
100
AcDbLine
 10
18.591
 20
5.099
 30
0.0
 11
18.591
 21
5.084999999999999
 31
0.0
  0
LINE
  5
2F5
330
18
100
AcDbEntity
  8
Object
100
AcDbLine
 10
18.591
 20
5.084999999999999
 30
0.0
 11
18.591
 21
5.078999999999999
 31
0.0
  0
LINE
  5
2F6
330
18
100
AcDbEntity
  8
Object
100
AcDbLine
 10
18.591
 20
5.078999999999999
 30
0.0
 11
18.541
 21
5.078999999999999
 31
0.0
  0
LINE
  5
2F7
330
18
100
AcDbEntity
  8
Object
100
AcDbLine
 10
18.541
 20
5.078999999999999
 30
0.0
 11
18.541
 21
5.084999999999999
 31
0.0
  0
LINE
  5
2F8
330
18
100
AcDbEntity
  8
Object
100
AcDbLine
 10
18.591
 20
5.099
 30
0.0
 11
18.591
 21
5.118999999999999
 31
0.0
  0
LINE
  5
2F9
330
18
100
AcDbEntity
  8
Object
100
AcDbLine
 10
18.541
 20
5.118
 30
0.0
 11
18.541
 21
5.099
 31
0.0
  0
LINE
  5
2FA
330
18
100
AcDbEntity
  8
Object
100
AcDbLine
 10
18.63
 20
6.602999999999999
 30
0.0
 11
18.626
 21
6.602
 31
0.0
  0
LINE
  5
2FB
330
18
100
AcDbEntity
  8
Object
100
AcDbLine
 10
18.626
 20
6.602
 30
0.0
 11
18.623
 21
6.599
 31
0.0
  0
LINE
  5
2FC
330
18
100
AcDbEntity
  8
Object
100
AcDbLine
 10
18.623
 20
6.599
 30
0.0
 11
18.621
 21
6.594
 31
0.0
  0
LINE
  5
2FD
330
18
100
AcDbEntity
  8
Object
100
AcDbLine
 10
18.617
 20
5.094
 30
0.0
 11
18.606
 21
5.083
 31
0.0
  0
LINE
  5
2FE
330
18
100
AcDbEntity
  8
Object
100
AcDbLine
 10
18.606
 20
5.083
 30
0.0
 11
18.591
 21
5.078999999999999
 31
0.0
  0
LINE
  5
2FF
330
18
100
AcDbEntity
  8
Object
100
AcDbLine
 10
18.621
 20
5.108999999999999
 30
0.0
 11
18.621
 21
5.110999999999999
 31
0.0
  0
LINE
  5
300
330
18
100
AcDbEntity
  8
Object
100
AcDbLine
 10
18.621
 20
5.110999999999999
 30
0.0
 11
18.621
 21
5.113999999999999
 31
0.0
  0
LINE
  5
301
330
18
100
AcDbEntity
  8
Object
100
AcDbLine
 10
18.621
 20
5.113999999999999
 30
0.0
 11
18.621
 21
5.118999999999999
 31
0.0
  0
LINE
  5
302
330
18
100
AcDbEntity
  8
Object
100
AcDbLine
 10
18.621
 20
5.118999999999999
 30
0.0
 11
18.617
 21
5.118999999999999
 31
0.0
  0
LINE
  5
303
330
18
100
AcDbEntity
  8
Object
100
AcDbLine
 10
18.621
 20
5.108999999999999
 30
0.0
 11
18.621
 21
5.107
 31
0.0
  0
LINE
  5
304
330
18
100
AcDbEntity
  8
Object
100
AcDbLine
 10
18.621
 20
5.107
 30
0.0
 11
18.617
 21
5.094
 31
0.0
  0
LINE
  5
305
330
18
100
AcDbEntity
  8
Object
100
AcDbLine
 10
18.617
 20
5.094
 30
0.0
 11
18.606
 21
5.083
 31
0.0
  0
LINE
  5
306
330
18
100
AcDbEntity
  8
Object
100
AcDbLine
 10
18.617
 20
5.118999999999999
 30
0.0
 11
18.606
 21
5.118999999999999
 31
0.0
  0
LINE
  5
307
330
18
100
AcDbEntity
  8
Object
100
AcDbLine
 10
18.591
 20
5.078999999999999
 30
0.0
 11
18.606
 21
5.083
 31
0.0
  0
LINE
  5
308
330
18
100
AcDbEntity
  8
Object
100
AcDbLine
 10
18.606
 20
5.118999999999999
 30
0.0
 11
18.591
 21
5.118999999999999
 31
0.0
  0
LINE
  5
309
330
18
100
AcDbEntity
  8
Object
100
AcDbLine
 10
18.619
 20
6.594
 30
0.0
 11
18.621
 21
6.594
 31
0.0
  0
LINE
  5
30A
330
18
100
AcDbEntity
  8
Object
100
AcDbLine
 10
18.621
 20
6.594
 30
0.0
 11
18.621
 21
5.118999999999999
 31
0.0
  0
LINE
  5
30B
330
18
100
AcDbEntity
  8
Object
100
AcDbLine
 10
18.619
 20
6.594
 30
0.0
 11
18.612
 21
6.592999999999999
 31
0.0
  0
LINE
  5
30C
330
18
100
AcDbEntity
  8
Object
100
AcDbLine
 10
18.612
 20
6.592999999999999
 30
0.0
 11
18.602
 21
6.592999999999999
 31
0.0
  0
LINE
  5
30D
330
18
100
AcDbEntity
  8
Object
100
AcDbLine
 10
18.602
 20
6.592999999999999
 30
0.0
 11
18.591
 21
6.592
 31
0.0
  0
LINE
  5
30E
330
18
100
AcDbEntity
  8
Object
100
AcDbLine
 10
18.63
 20
6.602999999999999
 30
0.0
 11
18.626
 21
6.602
 31
0.0
  0
LINE
  5
30F
330
18
100
AcDbEntity
  8
Object
100
AcDbLine
 10
18.626
 20
6.602
 30
0.0
 11
18.623
 21
6.599
 31
0.0
  0
LINE
  5
310
330
18
100
AcDbEntity
  8
Object
100
AcDbLine
 10
18.623
 20
6.599
 30
0.0
 11
18.621
 21
6.594
 31
0.0
  0
LINE
  5
311
330
18
100
AcDbEntity
  8
Object
100
AcDbLine
 10
18.613
 20
6.602999999999999
 30
0.0
 11
18.606
 21
6.602999999999999
 31
0.0
  0
LINE
  5
312
330
18
100
AcDbEntity
  8
Object
100
AcDbLine
 10
18.606
 20
6.602999999999999
 30
0.0
 11
18.591
 21
6.602
 31
0.0
  0
LINE
  5
313
330
18
100
AcDbEntity
  8
Object
100
AcDbLine
 10
17.938
 20
8.083999999999999
 30
0.0
 11
17.941
 21
8.070999999999999
 31
0.0
  0
LINE
  5
314
330
18
100
AcDbEntity
  8
Object
100
AcDbLine
 10
17.941
 20
8.070999999999999
 30
0.0
 11
17.938
 21
8.057999999999999
 31
0.0
  0
LINE
  5
315
330
18
100
AcDbEntity
  8
Object
100
AcDbLine
 10
17.938
 20
8.057999999999999
 30
0.0
 11
17.93
 21
8.048999999999999
 31
0.0
  0
LINE
  5
316
330
18
100
AcDbEntity
  8
Object
100
AcDbLine
 10
17.938
 20
8.083999999999999
 30
0.0
 11
17.93
 21
8.093999999999999
 31
0.0
  0
LINE
  5
317
330
18
100
AcDbEntity
  8
Object
100
AcDbLine
 10
17.921
 20
8.098
 30
0.0
 11
17.93
 21
8.093999999999999
 31
0.0
  0
LINE
  5
318
330
18
100
AcDbEntity
  8
Object
100
AcDbLine
 10
17.921
 20
8.044
 30
0.0
 11
17.93
 21
8.048999999999999
 31
0.0
  0
LINE
  5
319
330
18
100
AcDbEntity
  8
Object
100
AcDbLine
 10
17.917
 20
8.098
 30
0.0
 11
17.926
 21
8.098
 31
0.0
  0
LINE
  5
31A
330
18
100
AcDbEntity
  8
Object
100
AcDbLine
 10
17.921
 20
8.044
 30
0.0
 11
17.913
 21
8.043000000000001
 31
0.0
  0
LINE
  5
31B
330
18
100
AcDbEntity
  8
Object
100
AcDbLine
 10
17.913
 20
8.099999999999999
 30
0.0
 11
17.921
 21
8.098
 31
0.0
  0
LINE
  5
31C
330
18
100
AcDbEntity
  8
Object
100
AcDbLine
 10
17.921
 20
8.098
 30
0.0
 11
17.913
 21
8.099999999999999
 31
0.0
  0
LINE
  5
31D
330
18
100
AcDbEntity
  8
Object
100
AcDbLine
 10
17.913
 20
8.099999999999999
 30
0.0
 11
17.921
 21
8.098
 31
0.0
  0
LINE
  5
31E
330
18
100
AcDbEntity
  8
Object
100
AcDbLine
 10
17.921
 20
8.044
 30
0.0
 11
17.913
 21
8.043000000000001
 31
0.0
  0
LINE
  5
31F
330
18
100
AcDbEntity
  8
Object
100
AcDbLine
 10
17.913
 20
8.043000000000001
 30
0.0
 11
17.921
 21
8.044
 31
0.0
  0
LINE
  5
320
330
18
100
AcDbEntity
  8
Object
100
AcDbLine
 10
17.921
 20
8.044
 30
0.0
 11
17.913
 21
8.043000000000001
 31
0.0
  0
LINE
  5
321
330
18
100
AcDbEntity
  8
Object
100
AcDbLine
 10
17.913
 20
8.099999999999999
 30
0.0
 11
17.921
 21
8.098
 31
0.0
  0
LINE
  5
322
330
18
100
AcDbEntity
  8
Object
100
AcDbLine
 10
17.913
 20
8.099999999999999
 30
0.0
 11
17.536
 21
8.105999999999999
 31
0.0
  0
LINE
  5
323
330
18
100
AcDbEntity
  8
Object
100
AcDbLine
 10
16.954
 20
8.115999999999999
 30
0.0
 11
17.913
 21
8.099999999999999
 31
0.0
  0
LINE
  5
324
330
18
100
AcDbEntity
  8
Object
100
AcDbLine
 10
17.913
 20
8.043000000000001
 30
0.0
 11
16.954
 21
8.025999999999999
 31
0.0
  0
LINE
  5
325
330
18
100
AcDbEntity
  8
Object
100
AcDbLine
 10
16.954
 20
8.025999999999999
 30
0.0
 11
17.913
 21
8.043000000000001
 31
0.0
  0
LINE
  5
326
330
18
100
AcDbEntity
  8
Object
100
AcDbLine
 10
16.851
 20
5.078999999999999
 30
0.0
 11
16.851
 21
5.078
 31
0.0
  0
LINE
  5
327
330
18
100
AcDbEntity
  8
Object
100
AcDbLine
 10
16.721
 20
10.197
 30
0.0
 11
16.721
 21
11.697
 31
0.0
  0
LINE
  5
328
330
18
100
AcDbEntity
  8
Object
100
AcDbLine
 10
16.721
 20
11.697
 30
0.0
 11
16.706
 21
11.697
 31
0.0
  0
LINE
  5
329
330
18
100
AcDbEntity
  8
Object
100
AcDbLine
 10
16.706
 20
11.697
 30
0.0
 11
16.695
 21
11.697
 31
0.0
  0
LINE
  5
32A
330
18
100
AcDbEntity
  8
Object
100
AcDbLine
 10
16.695
 20
11.697
 30
0.0
 11
16.691
 21
11.697
 31
0.0
  0
LINE
  5
32B
330
18
100
AcDbEntity
  8
Object
100
AcDbLine
 10
16.691
 20
11.697
 30
0.0
 11
16.691
 21
10.167
 31
0.0
  0
LINE
  5
32C
330
18
100
AcDbEntity
  8
Object
100
AcDbLine
 10
18.701
 20
8.673
 30
0.0
 11
18.701
 21
8.840999999999999
 31
0.0
  0
LINE
  5
32D
330
18
100
AcDbEntity
  8
Object
100
AcDbLine
 10
18.701
 20
6.605999999999999
 30
0.0
 11
18.701
 21
8.152000000000001
 31
0.0
  0
LINE
  5
32E
330
18
100
AcDbEntity
  8
Object
100
AcDbLine
 10
18.701
 20
8.152000000000001
 30
0.0
 11
18.701
 21
8.326999999999999
 31
0.0
  0
LINE
  5
32F
330
18
100
AcDbEntity
  8
Object
100
AcDbLine
 10
18.701
 20
8.326999999999999
 30
0.0
 11
18.701
 21
8.500999999999999
 31
0.0
  0
LINE
  5
330
330
18
100
AcDbEntity
  8
Object
100
AcDbLine
 10
18.701
 20
8.500999999999999
 30
0.0
 11
18.701
 21
8.673
 31
0.0
  0
LINE
  5
331
330
18
100
AcDbEntity
  8
Object
100
AcDbLine
 10
18.701
 20
8.840999999999999
 30
0.0
 11
18.701
 21
9.005
 31
0.0
  0
LINE
  5
332
330
18
100
AcDbEntity
  8
Object
100
AcDbLine
 10
18.701
 20
9.005
 30
0.0
 11
18.701
 21
9.162
 31
0.0
  0
LINE
  5
333
330
18
100
AcDbEntity
  8
Object
100
AcDbLine
 10
18.701
 20
9.162
 30
0.0
 11
18.701
 21
9.313
 31
0.0
  0
LINE
  5
334
330
18
100
AcDbEntity
  8
Object
100
AcDbLine
 10
18.701
 20
9.313
 30
0.0
 11
18.701
 21
9.455999999999999
 31
0.0
  0
LINE
  5
335
330
18
100
AcDbEntity
  8
Object
100
AcDbLine
 10
18.701
 20
9.455999999999999
 30
0.0
 11
18.701
 21
9.589999999999999
 31
0.0
  0
LINE
  5
336
330
18
100
AcDbEntity
  8
Object
100
AcDbLine
 10
18.701
 20
9.589999999999999
 30
0.0
 11
18.701
 21
9.714
 31
0.0
  0
LINE
  5
337
330
18
100
AcDbEntity
  8
Object
100
AcDbLine
 10
18.701
 20
9.714
 30
0.0
 11
18.701
 21
9.826999999999999
 31
0.0
  0
LINE
  5
338
330
18
100
AcDbEntity
  8
Object
100
AcDbLine
 10
18.701
 20
9.826999999999999
 30
0.0
 11
18.701
 21
9.929
 31
0.0
  0
LINE
  5
339
330
18
100
AcDbEntity
  8
Object
100
AcDbLine
 10
18.701
 20
9.929
 30
0.0
 11
18.701
 21
10.019
 31
0.0
  0
LINE
  5
33A
330
18
100
AcDbEntity
  8
Object
100
AcDbLine
 10
18.701
 20
10.019
 30
0.0
 11
18.701
 21
10.096
 31
0.0
  0
LINE
  5
33B
330
18
100
AcDbEntity
  8
Object
100
AcDbLine
 10
18.701
 20
10.096
 30
0.0
 11
18.701
 21
10.16
 31
0.0
  0
LINE
  5
33C
330
18
100
AcDbEntity
  8
Object
100
AcDbLine
 10
18.701
 20
10.16
 30
0.0
 11
18.701
 21
10.21
 31
0.0
  0
LINE
  5
33D
330
18
100
AcDbEntity
  8
Object
100
AcDbLine
 10
18.701
 20
10.21
 30
0.0
 11
18.701
 21
10.246
 31
0.0
  0
LINE
  5
33E
330
18
100
AcDbEntity
  8
Object
100
AcDbLine
 10
18.701
 20
10.246
 30
0.0
 11
18.701
 21
10.267
 31
0.0
  0
LINE
  5
33F
330
18
100
AcDbEntity
  8
Object
100
AcDbLine
 10
18.701
 20
10.267
 30
0.0
 11
18.701
 21
10.275
 31
0.0
  0
LINE
  5
340
330
18
100
AcDbEntity
  8
Object
100
AcDbLine
 10
18.701
 20
10.275
 30
0.0
 11
18.701
 21
12.039
 31
0.0
  0
LINE
  5
341
330
18
100
AcDbEntity
  8
Object
100
AcDbLine
 10
18.578
 20
8.152000000000001
 30
0.0
 11
18.578
 21
6.602
 31
0.0
  0
LINE
  5
342
330
18
100
AcDbEntity
  8
Object
100
AcDbLine
 10
18.578
 20
6.602
 30
0.0
 11
18.541
 21
6.600999999999999
 31
0.0
  0
LINE
  5
343
330
18
100
AcDbEntity
  8
Object
100
AcDbLine
 10
18.541
 20
6.773
 30
0.0
 11
18.541
 21
6.761
 31
0.0
  0
LINE
  5
344
330
18
100
AcDbEntity
  8
Object
100
AcDbLine
 10
17.913
 20
8.099999999999999
 30
0.0
 11
17.921
 21
8.098
 31
0.0
  0
LINE
  5
345
330
18
100
AcDbEntity
  8
Object
100
AcDbLine
 10
17.921
 20
8.044
 30
0.0
 11
17.913
 21
8.043000000000001
 31
0.0
  0
LINE
  5
346
330
18
100
AcDbEntity
  8
Object
100
AcDbLine
 10
16.954
 20
6.799999999999999
 30
0.0
 11
18.541
 21
6.773
 31
0.0
  0
LINE
  5
347
330
18
100
AcDbEntity
  8
Object
100
AcDbLine
 10
17.913
 20
8.043000000000001
 30
0.0
 11
16.954
 21
8.025999999999999
 31
0.0
  0
LINE
  5
348
330
18
100
AcDbEntity
  8
Object
100
AcDbLine
 10
16.954
 20
8.115999999999999
 30
0.0
 11
17.913
 21
8.099999999999999
 31
0.0
  0
LINE
  5
349
330
18
100
AcDbEntity
  8
Object
100
AcDbLine
 10
18.578
 20
8.152000000000001
 30
0.0
 11
16.954
 21
8.152000000000001
 31
0.0
  0
LINE
  5
34A
330
18
100
AcDbEntity
  8
Object
100
AcDbLine
 10
18.541
 20
5.118
 30
0.0
 11
18.541
 21
6.709999999999999
 31
0.0
  0
LINE
  5
34B
330
18
100
AcDbEntity
  8
Object
100
AcDbLine
 10
18.541
 20
6.709999999999999
 30
0.0
 11
18.541
 21
6.751999999999999
 31
0.0
  0
LINE
  5
34C
330
18
100
AcDbEntity
  8
Object
100
AcDbLine
 10
18.541
 20
6.751999999999999
 30
0.0
 11
18.541
 21
6.761
 31
0.0
  0
LINE
  5
34D
330
18
100
AcDbEntity
  8
Object
100
AcDbLine
 10
18.541
 20
6.761
 30
0.0
 11
18.541
 21
6.773
 31
0.0
  0
LINE
  5
34E
330
18
100
AcDbEntity
  8
Object
100
AcDbLine
 10
18.541
 20
6.773
 30
0.0
 11
18.541
 21
6.761
 31
0.0
  0
LINE
  5
34F
330
18
100
AcDbEntity
  8
Object
100
AcDbLine
 10
18.701
 20
8.152000000000001
 30
0.0
 11
18.701
 21
6.605999999999999
 31
0.0
  0
LINE
  5
350
330
18
100
AcDbEntity
  8
Object
100
AcDbLine
 10
18.701
 20
6.605999999999999
 30
0.0
 11
18.699
 21
6.605999999999999
 31
0.0
  0
LINE
  5
351
330
18
100
AcDbEntity
  8
Object
100
AcDbLine
 10
18.701
 20
8.152000000000001
 30
0.0
 11
18.695
 21
8.152000000000001
 31
0.0
  0
LINE
  5
352
330
18
100
AcDbEntity
  8
Object
100
AcDbLine
 10
18.693
 20
6.605999999999999
 30
0.0
 11
18.699
 21
6.605999999999999
 31
0.0
  0
LINE
  5
353
330
18
100
AcDbEntity
  8
Object
100
AcDbLine
 10
18.695
 20
8.152000000000001
 30
0.0
 11
18.678
 21
8.152000000000001
 31
0.0
  0
LINE
  5
354
330
18
100
AcDbEntity
  8
Object
100
AcDbLine
 10
18.693
 20
6.605999999999999
 30
0.0
 11
18.681
 21
6.605999999999999
 31
0.0
  0
LINE
  5
355
330
18
100
AcDbEntity
  8
Object
100
AcDbLine
 10
18.681
 20
6.605999999999999
 30
0.0
 11
18.665
 21
6.605
 31
0.0
  0
LINE
  5
356
330
18
100
AcDbEntity
  8
Object
100
AcDbLine
 10
18.678
 20
8.152000000000001
 30
0.0
 11
18.651
 21
8.152000000000001
 31
0.0
  0
LINE
  5
357
330
18
100
AcDbEntity
  8
Object
100
AcDbLine
 10
18.665
 20
6.605
 30
0.0
 11
18.646
 21
6.604
 31
0.0
  0
LINE
  5
358
330
18
100
AcDbEntity
  8
Object
100
AcDbLine
 10
18.646
 20
6.604
 30
0.0
 11
18.624
 21
6.602999999999999
 31
0.0
  0
LINE
  5
359
330
18
100
AcDbEntity
  8
Object
100
AcDbLine
 10
18.651
 20
8.152000000000001
 30
0.0
 11
18.617
 21
8.152000000000001
 31
0.0
  0
LINE
  5
35A
330
18
100
AcDbEntity
  8
Object
100
AcDbLine
 10
18.601
 20
6.602999999999999
 30
0.0
 11
18.624
 21
6.602999999999999
 31
0.0
  0
LINE
  5
35B
330
18
100
AcDbEntity
  8
Object
100
AcDbLine
 10
18.617
 20
8.152000000000001
 30
0.0
 11
18.578
 21
8.152000000000001
 31
0.0
  0
LINE
  5
35C
330
18
100
AcDbEntity
  8
Object
100
AcDbLine
 10
18.578
 20
6.602
 30
0.0
 11
18.601
 21
6.602999999999999
 31
0.0
  0
LINE
  5
35D
330
18
100
AcDbEntity
  8
Object
100
AcDbLine
 10
16.691
 20
6.987
 30
0.0
 11
16.691
 21
6.985
 31
0.0
  0
LINE
  5
35E
330
18
100
AcDbEntity
  8
Object
100
AcDbLine
 10
16.691
 20
7.931
 30
0.0
 11
16.691
 21
7.927
 31
0.0
  0
LINE
  5
35F
330
18
100
AcDbEntity
  8
Object
100
AcDbLine
 10
16.691
 20
7.927
 30
0.0
 11
16.691
 21
7.924
 31
0.0
  0
LINE
  5
360
330
18
100
AcDbEntity
  8
Object
100
AcDbLine
 10
16.691
 20
7.924
 30
0.0
 11
16.691
 21
7.921
 31
0.0
  0
LINE
  5
361
330
18
100
AcDbEntity
  8
Object
100
AcDbLine
 10
16.691
 20
7.921
 30
0.0
 11
16.691
 21
7.918
 31
0.0
  0
LINE
  5
362
330
18
100
AcDbEntity
  8
Object
100
AcDbLine
 10
16.691
 20
7.895
 30
0.0
 11
16.691
 21
7.908999999999999
 31
0.0
  0
LINE
  5
363
330
18
100
AcDbEntity
  8
Object
100
AcDbLine
 10
16.691
 20
7.908999999999999
 30
0.0
 11
16.691
 21
7.918
 31
0.0
  0
LINE
  5
364
330
18
100
AcDbEntity
  8
Object
100
AcDbLine
 10
16.691
 20
7.895
 30
0.0
 11
16.691
 21
7.881
 31
0.0
  0
LINE
  5
365
330
18
100
AcDbEntity
  8
Object
100
AcDbLine
 10
16.691
 20
7.025
 30
0.0
 11
16.691
 21
7.009999999999999
 31
0.0
  0
LINE
  5
366
330
18
100
AcDbEntity
  8
Object
100
AcDbLine
 10
16.691
 20
7.009999999999999
 30
0.0
 11
16.691
 21
6.996
 31
0.0
  0
LINE
  5
367
330
18
100
AcDbEntity
  8
Object
100
AcDbLine
 10
16.691
 20
6.996
 30
0.0
 11
16.691
 21
6.987
 31
0.0
  0
LINE
  5
368
330
18
100
AcDbEntity
  8
Object
100
AcDbLine
 10
16.691
 20
6.985
 30
0.0
 11
16.691
 21
6.983999999999999
 31
0.0
  0
LINE
  5
369
330
18
100
AcDbEntity
  8
Object
100
AcDbLine
 10
16.687
 20
7.921
 30
0.0
 11
16.696
 21
7.921
 31
0.0
  0
LINE
  5
36A
330
18
100
AcDbEntity
  8
Object
100
AcDbLine
 10
16.691
 20
7.881
 30
0.0
 11
16.691
 21
7.025
 31
0.0
  0
LINE
  5
36B
330
18
100
AcDbEntity
  8
Object
100
AcDbLine
 10
16.691
 20
6.983999999999999
 30
0.0
 11
16.691
 21
6.982
 31
0.0
  0
LINE
  5
36C
330
18
100
AcDbEntity
  8
Object
100
AcDbLine
 10
16.691
 20
6.982
 30
0.0
 11
16.691
 21
6.977999999999999
 31
0.0
  0
LINE
  5
36D
330
18
100
AcDbEntity
  8
Object
100
AcDbLine
 10
16.691
 20
6.977999999999999
 30
0.0
 11
16.691
 21
6.975
 31
0.0
  0
LINE
  5
36E
330
18
100
AcDbEntity
  8
Object
100
AcDbLine
 10
16.691
 20
6.975
 30
0.0
 11
16.691
 21
6.956999999999999
 31
0.0
  0
LINE
  5
36F
330
18
100
AcDbEntity
  8
Object
100
AcDbLine
 10
16.691
 20
7.95
 30
0.0
 11
16.691
 21
7.931
 31
0.0
  0
LINE
  5
370
330
18
100
AcDbEntity
  8
Object
100
AcDbLine
 10
16.771
 20
7.027
 30
0.0
 11
16.771
 21
7.878
 31
0.0
  0
LINE
  5
371
330
18
100
AcDbEntity
  8
Object
100
AcDbLine
 10
16.771
 20
7.921
 30
0.0
 11
16.771
 21
7.924
 31
0.0
  0
LINE
  5
372
330
18
100
AcDbEntity
  8
Object
100
AcDbLine
 10
16.771
 20
6.980999999999999
 30
0.0
 11
16.771
 21
6.985
 31
0.0
  0
LINE
  5
373
330
18
100
AcDbEntity
  8
Object
100
AcDbLine
 10
16.771
 20
6.987
 30
0.0
 11
16.771
 21
6.99
 31
0.0
  0
LINE
  5
374
330
18
100
AcDbEntity
  8
Object
100
AcDbLine
 10
16.771
 20
7.012999999999999
 30
0.0
 11
16.771
 21
6.999
 31
0.0
  0
LINE
  5
375
330
18
100
AcDbEntity
  8
Object
100
AcDbLine
 10
16.771
 20
6.999
 30
0.0
 11
16.771
 21
6.99
 31
0.0
  0
LINE
  5
376
330
18
100
AcDbEntity
  8
Object
100
AcDbLine
 10
16.771
 20
7.012999999999999
 30
0.0
 11
16.771
 21
7.027
 31
0.0
  0
LINE
  5
377
330
18
100
AcDbEntity
  8
Object
100
AcDbLine
 10
16.771
 20
6.985
 30
0.0
 11
16.771
 21
6.987
 31
0.0
  0
LINE
  5
378
330
18
100
AcDbEntity
  8
Object
100
AcDbLine
 10
16.771
 20
7.878
 30
0.0
 11
16.771
 21
7.892999999999999
 31
0.0
  0
LINE
  5
379
330
18
100
AcDbEntity
  8
Object
100
AcDbLine
 10
16.771
 20
7.892999999999999
 30
0.0
 11
16.771
 21
7.906
 31
0.0
  0
LINE
  5
37A
330
18
100
AcDbEntity
  8
Object
100
AcDbLine
 10
16.771
 20
7.906
 30
0.0
 11
16.771
 21
7.915
 31
0.0
  0
LINE
  5
37B
330
18
100
AcDbEntity
  8
Object
100
AcDbLine
 10
16.771
 20
7.915
 30
0.0
 11
16.771
 21
7.918
 31
0.0
  0
LINE
  5
37C
330
18
100
AcDbEntity
  8
Object
100
AcDbLine
 10
16.771
 20
7.918
 30
0.0
 11
16.771
 21
7.921
 31
0.0
  0
LINE
  5
37D
330
18
100
AcDbEntity
  8
Object
100
AcDbLine
 10
16.771
 20
7.924
 30
0.0
 11
16.771
 21
7.927999999999999
 31
0.0
  0
LINE
  5
37E
330
18
100
AcDbEntity
  8
Object
100
AcDbLine
 10
16.771
 20
7.927999999999999
 30
0.0
 11
16.771
 21
7.943999999999999
 31
0.0
  0
LINE
  5
37F
330
18
100
AcDbEntity
  8
Object
100
AcDbLine
 10
16.771
 20
6.980999999999999
 30
0.0
 11
16.771
 21
6.977
 31
0.0
  0
LINE
  5
380
330
18
100
AcDbEntity
  8
Object
100
AcDbLine
 10
16.771
 20
6.977
 30
0.0
 11
16.771
 21
6.963
 31
0.0
  0
LINE
  5
381
330
18
100
AcDbEntity
  8
Object
100
AcDbLine
 10
16.691
 20
6.956999999999999
 30
0.0
 11
16.691
 21
6.975
 31
0.0
  0
LINE
  5
382
330
18
100
AcDbEntity
  8
Object
100
AcDbLine
 10
16.691
 20
6.975
 30
0.0
 11
16.771
 21
6.977
 31
0.0
  0
LINE
  5
383
330
18
100
AcDbEntity
  8
Object
100
AcDbLine
 10
16.771
 20
6.977
 30
0.0
 11
16.771
 21
6.963
 31
0.0
  0
LINE
  5
384
330
18
100
AcDbEntity
  8
Object
100
AcDbLine
 10
18.541
 20
10.229
 30
0.0
 11
16.851
 21
10.2
 31
0.0
  0
LINE
  5
385
330
18
100
AcDbEntity
  8
Object
100
AcDbLine
 10
16.851
 20
10.2
 30
0.0
 11
16.721
 21
10.197
 31
0.0
  0
LINE
  5
386
330
18
100
AcDbEntity
  8
Object
100
AcDbLine
 10
16.771
 20
7.943999999999999
 30
0.0
 11
16.771
 21
7.927999999999999
 31
0.0
  0
LINE
  5
387
330
18
100
AcDbEntity
  8
Object
100
AcDbLine
 10
16.771
 20
7.927999999999999
 30
0.0
 11
16.691
 21
7.931
 31
0.0
  0
LINE
  5
388
330
18
100
AcDbEntity
  8
Object
100
AcDbLine
 10
16.691
 20
7.931
 30
0.0
 11
16.691
 21
7.95
 31
0.0
  0
LINE
  5
389
330
18
100
AcDbEntity
  8
Object
100
AcDbLine
 10
18.541
 20
6.751999999999999
 30
0.0
 11
18.541
 21
6.709999999999999
 31
0.0
  0
LINE
  5
38A
330
18
100
AcDbEntity
  8
Object
100
AcDbLine
 10
18.541
 20
6.709999999999999
 30
0.0
 11
18.539
 21
6.698999999999999
 31
0.0
  0
LINE
  5
38B
330
18
100
AcDbEntity
  8
Object
100
AcDbLine
 10
16.954
 20
6.778999999999999
 30
0.0
 11
18.541
 21
6.751999999999999
 31
0.0
  0
LINE
  5
38C
330
18
100
AcDbEntity
  8
Object
100
AcDbLine
 10
18.541
 20
6.751999999999999
 30
0.0
 11
18.541
 21
6.761
 31
0.0
  0
LINE
  5
38D
330
18
100
AcDbEntity
  8
Object
100
AcDbLine
 10
18.541
 20
6.761
 30
0.0
 11
18.541
 21
6.773
 31
0.0
  0
LINE
  5
38E
330
18
100
AcDbEntity
  8
Object
100
AcDbLine
 10
18.502
 20
5.092999999999999
 30
0.0
 11
18.501
 21
5.081999999999999
 31
0.0
  0
LINE
  5
38F
330
18
100
AcDbEntity
  8
Object
100
AcDbLine
 10
18.501
 20
5.081999999999999
 30
0.0
 11
18.501
 21
5.078
 31
0.0
  0
LINE
  5
390
330
18
100
AcDbEntity
  8
Object
100
AcDbLine
 10
18.501
 20
5.078
 30
0.0
 11
16.851
 21
5.078
 31
0.0
  0
LINE
  5
391
330
18
100
AcDbEntity
  8
Object
100
AcDbLine
 10
16.851
 20
5.078
 30
0.0
 11
16.851
 21
5.078999999999999
 31
0.0
  0
LINE
  5
392
330
18
100
AcDbEntity
  8
Object
100
AcDbLine
 10
18.502
 20
5.092999999999999
 30
0.0
 11
18.502
 21
5.108
 31
0.0
  0
LINE
  5
393
330
18
100
AcDbEntity
  8
Object
100
AcDbLine
 10
18.502
 20
5.108
 30
0.0
 11
16.954
 21
5.108
 31
0.0
  0
LINE
  5
394
330
18
100
AcDbEntity
  8
Object
100
AcDbLine
 10
18.511
 20
5.113999999999999
 30
0.0
 11
18.509
 21
5.110999999999999
 31
0.0
  0
LINE
  5
395
330
18
100
AcDbEntity
  8
Object
100
AcDbLine
 10
18.509
 20
5.110999999999999
 30
0.0
 11
18.505
 21
5.108999999999999
 31
0.0
  0
LINE
  5
396
330
18
100
AcDbEntity
  8
Object
100
AcDbLine
 10
18.511
 20
5.113999999999999
 30
0.0
 11
18.512
 21
5.118
 31
0.0
  0
LINE
  5
397
330
18
100
AcDbEntity
  8
Object
100
AcDbLine
 10
18.502
 20
5.108
 30
0.0
 11
18.505
 21
5.108999999999999
 31
0.0
  0
LINE
  5
398
330
18
100
AcDbEntity
  8
Object
100
AcDbLine
 10
18.512
 20
5.118
 30
0.0
 11
18.512
 21
6.669
 31
0.0
  0
LINE
  5
399
330
18
100
AcDbEntity
  8
Object
100
AcDbLine
 10
18.512
 20
6.669
 30
0.0
 11
16.954
 21
6.695999999999999
 31
0.0
  0
LINE
  5
39A
330
18
100
AcDbEntity
  8
Object
100
AcDbLine
 10
17.656
 20
5.988
 30
0.0
 11
17.607
 21
5.98
 31
0.0
  0
LINE
  5
39B
330
18
100
AcDbEntity
  8
Object
100
AcDbLine
 10
17.607
 20
5.98
 30
0.0
 11
17.562
 21
5.956999999999999
 31
0.0
  0
LINE
  5
39C
330
18
100
AcDbEntity
  8
Object
100
AcDbLine
 10
17.562
 20
5.956999999999999
 30
0.0
 11
17.527
 21
5.921999999999999
 31
0.0
  0
LINE
  5
39D
330
18
100
AcDbEntity
  8
Object
100
AcDbLine
 10
17.527
 20
5.921999999999999
 30
0.0
 11
17.504
 21
5.876999999999999
 31
0.0
  0
LINE
  5
39E
330
18
100
AcDbEntity
  8
Object
100
AcDbLine
 10
17.504
 20
5.876999999999999
 30
0.0
 11
17.496
 21
5.828
 31
0.0
  0
LINE
  5
39F
330
18
100
AcDbEntity
  8
Object
100
AcDbLine
 10
17.496
 20
5.828
 30
0.0
 11
17.504
 21
5.778
 31
0.0
  0
LINE
  5
3A0
330
18
100
AcDbEntity
  8
Object
100
AcDbLine
 10
17.504
 20
5.778
 30
0.0
 11
17.527
 21
5.733999999999999
 31
0.0
  0
LINE
  5
3A1
330
18
100
AcDbEntity
  8
Object
100
AcDbLine
 10
17.527
 20
5.733999999999999
 30
0.0
 11
17.562
 21
5.698
 31
0.0
  0
LINE
  5
3A2
330
18
100
AcDbEntity
  8
Object
100
AcDbLine
 10
17.562
 20
5.698
 30
0.0
 11
17.607
 21
5.676
 31
0.0
  0
LINE
  5
3A3
330
18
100
AcDbEntity
  8
Object
100
AcDbLine
 10
17.607
 20
5.676
 30
0.0
 11
17.656
 21
5.668
 31
0.0
  0
LINE
  5
3A4
330
18
100
AcDbEntity
  8
Object
100
AcDbLine
 10
16.851
 20
5.078
 30
0.0
 11
18.501
 21
5.078
 31
0.0
  0
LINE
  5
3A5
330
18
100
AcDbEntity
  8
Object
100
AcDbLine
 10
17.807
 20
5.876999999999999
 30
0.0
 11
17.815
 21
5.828
 31
0.0
  0
LINE
  5
3A6
330
18
100
AcDbEntity
  8
Object
100
AcDbLine
 10
17.815
 20
5.828
 30
0.0
 11
17.807
 21
5.778
 31
0.0
  0
LINE
  5
3A7
330
18
100
AcDbEntity
  8
Object
100
AcDbLine
 10
17.784
 20
5.921999999999999
 30
0.0
 11
17.807
 21
5.876999999999999
 31
0.0
  0
LINE
  5
3A8
330
18
100
AcDbEntity
  8
Object
100
AcDbLine
 10
17.807
 20
5.778
 30
0.0
 11
17.784
 21
5.733999999999999
 31
0.0
  0
LINE
  5
3A9
330
18
100
AcDbEntity
  8
Object
100
AcDbLine
 10
17.749
 20
5.956999999999999
 30
0.0
 11
17.784
 21
5.921999999999999
 31
0.0
  0
LINE
  5
3AA
330
18
100
AcDbEntity
  8
Object
100
AcDbLine
 10
17.784
 20
5.733999999999999
 30
0.0
 11
17.749
 21
5.698
 31
0.0
  0
LINE
  5
3AB
330
18
100
AcDbEntity
  8
Object
100
AcDbLine
 10
17.704
 20
5.98
 30
0.0
 11
17.749
 21
5.956999999999999
 31
0.0
  0
LINE
  5
3AC
330
18
100
AcDbEntity
  8
Object
100
AcDbLine
 10
17.749
 20
5.698
 30
0.0
 11
17.704
 21
5.676
 31
0.0
  0
LINE
  5
3AD
330
18
100
AcDbEntity
  8
Object
100
AcDbLine
 10
17.655
 20
5.987
 30
0.0
 11
17.704
 21
5.98
 31
0.0
  0
LINE
  5
3AE
330
18
100
AcDbEntity
  8
Object
100
AcDbLine
 10
17.704
 20
5.676
 30
0.0
 11
17.655
 21
5.668
 31
0.0
  0
LINE
  5
3AF
330
18
100
AcDbEntity
  8
Object
100
AcDbLine
 10
18.512
 20
6.669
 30
0.0
 11
18.523
 21
6.679999999999999
 31
0.0
  0
LINE
  5
3B0
330
18
100
AcDbEntity
  8
Object
100
AcDbLine
 10
16.954
 20
6.717
 30
0.0
 11
18.533
 21
6.689
 31
0.0
  0
LINE
  5
3B1
330
18
100
AcDbEntity
  8
Object
100
AcDbLine
 10
18.533
 20
6.689
 30
0.0
 11
18.523
 21
6.679999999999999
 31
0.0
  0
LINE
  5
3B2
330
18
100
AcDbEntity
  8
Object
100
AcDbLine
 10
16.691
 20
12.146
 30
0.0
 11
16.691
 21
12.139
 31
0.0
  0
LINE
  5
3B3
330
18
100
AcDbEntity
  8
Object
100
AcDbLine
 10
16.691
 20
12.119
 30
0.0
 11
16.691
 21
12.086
 31
0.0
  0
LINE
  5
3B4
330
18
100
AcDbEntity
  8
Object
100
AcDbLine
 10
16.691
 20
12.041
 30
0.0
 11
16.691
 21
11.986
 31
0.0
  0
LINE
  5
3B5
330
18
100
AcDbEntity
  8
Object
100
AcDbLine
 10
16.691
 20
11.921
 30
0.0
 11
16.691
 21
11.85
 31
0.0
  0
LINE
  5
3B6
330
18
100
AcDbEntity
  8
Object
100
AcDbLine
 10
16.691
 20
11.775
 30
0.0
 11
16.691
 21
11.697
 31
0.0
  0
LINE
  5
3B7
330
18
100
AcDbEntity
  8
Object
100
AcDbLine
 10
16.691
 20
11.697
 30
0.0
 11
16.691
 21
10.167
 31
0.0
  0
LINE
  5
3B8
330
18
100
AcDbEntity
  8
Object
100
AcDbLine
 10
16.691
 20
11.85
 30
0.0
 11
16.691
 21
11.775
 31
0.0
  0
LINE
  5
3B9
330
18
100
AcDbEntity
  8
Object
100
AcDbLine
 10
16.691
 20
11.986
 30
0.0
 11
16.691
 21
11.921
 31
0.0
  0
LINE
  5
3BA
330
18
100
AcDbEntity
  8
Object
100
AcDbLine
 10
16.691
 20
12.086
 30
0.0
 11
16.691
 21
12.041
 31
0.0
  0
LINE
  5
3BB
330
18
100
AcDbEntity
  8
Object
100
AcDbLine
 10
16.691
 20
12.139
 30
0.0
 11
16.691
 21
12.119
 31
0.0
  0
LINE
  5
3BC
330
18
100
AcDbEntity
  8
Object
100
AcDbLine
 10
16.721
 20
11.906
 30
0.0
 11
16.721
 21
11.966
 31
0.0
  0
LINE
  5
3BD
330
18
100
AcDbEntity
  8
Object
100
AcDbLine
 10
16.721
 20
12.018
 30
0.0
 11
16.721
 21
12.06
 31
0.0
  0
LINE
  5
3BE
330
18
100
AcDbEntity
  8
Object
100
AcDbLine
 10
16.721
 20
12.06
 30
0.0
 11
16.721
 21
12.091
 31
0.0
  0
LINE
  5
3BF
330
18
100
AcDbEntity
  8
Object
100
AcDbLine
 10
16.721
 20
11.966
 30
0.0
 11
16.721
 21
12.018
 31
0.0
  0
LINE
  5
3C0
330
18
100
AcDbEntity
  8
Object
100
AcDbLine
 10
16.721
 20
12.091
 30
0.0
 11
16.721
 21
12.11
 31
0.0
  0
LINE
  5
3C1
330
18
100
AcDbEntity
  8
Object
100
AcDbLine
 10
16.721
 20
12.11
 30
0.0
 11
16.721
 21
12.116
 31
0.0
  0
LINE
  5
3C2
330
18
100
AcDbEntity
  8
Object
100
AcDbLine
 10
16.721
 20
11.77
 30
0.0
 11
16.721
 21
11.84
 31
0.0
  0
LINE
  5
3C3
330
18
100
AcDbEntity
  8
Object
100
AcDbLine
 10
16.721
 20
11.84
 30
0.0
 11
16.721
 21
11.906
 31
0.0
  0
LINE
  5
3C4
330
18
100
AcDbEntity
  8
Object
100
AcDbLine
 10
16.707
 20
12.12
 30
0.0
 11
16.706
 21
12.12
 31
0.0
  0
LINE
  5
3C5
330
18
100
AcDbEntity
  8
Object
100
AcDbLine
 10
16.721
 20
11.697
 30
0.0
 11
16.721
 21
11.77
 31
0.0
  0
LINE
  5
3C6
330
18
100
AcDbEntity
  8
Object
100
AcDbLine
 10
16.697
 20
12.129
 30
0.0
 11
16.695
 21
12.131
 31
0.0
  0
LINE
  5
3C7
330
18
100
AcDbEntity
  8
Object
100
AcDbLine
 10
16.706
 20
12.12
 30
0.0
 11
16.703
 21
12.122
 31
0.0
  0
LINE
  5
3C8
330
18
100
AcDbEntity
  8
Object
100
AcDbLine
 10
16.691
 20
11.986
 30
0.0
 11
16.691
 21
11.921
 31
0.0
  0
LINE
  5
3C9
330
18
100
AcDbEntity
  8
Object
100
AcDbLine
 10
16.691
 20
12.086
 30
0.0
 11
16.691
 21
12.041
 31
0.0
  0
LINE
  5
3CA
330
18
100
AcDbEntity
  8
Object
100
AcDbLine
 10
16.691
 20
12.139
 30
0.0
 11
16.691
 21
12.119
 31
0.0
  0
LINE
  5
3CB
330
18
100
AcDbEntity
  8
Object
100
AcDbLine
 10
16.691
 20
12.041
 30
0.0
 11
16.691
 21
11.986
 31
0.0
  0
LINE
  5
3CC
330
18
100
AcDbEntity
  8
Object
100
AcDbLine
 10
16.691
 20
12.119
 30
0.0
 11
16.691
 21
12.086
 31
0.0
  0
LINE
  5
3CD
330
18
100
AcDbEntity
  8
Object
100
AcDbLine
 10
16.691
 20
12.146
 30
0.0
 11
16.691
 21
12.139
 31
0.0
  0
LINE
  5
3CE
330
18
100
AcDbEntity
  8
Object
100
AcDbLine
 10
16.695
 20
12.131
 30
0.0
 11
16.695
 21
12.133
 31
0.0
  0
LINE
  5
3CF
330
18
100
AcDbEntity
  8
Object
100
AcDbLine
 10
16.691
 20
11.85
 30
0.0
 11
16.691
 21
11.775
 31
0.0
  0
LINE
  5
3D0
330
18
100
AcDbEntity
  8
Object
100
AcDbLine
 10
16.691
 20
11.775
 30
0.0
 11
16.691
 21
11.697
 31
0.0
  0
LINE
  5
3D1
330
18
100
AcDbEntity
  8
Object
100
AcDbLine
 10
16.691
 20
11.921
 30
0.0
 11
16.691
 21
11.85
 31
0.0
  0
LINE
  5
3D2
330
18
100
AcDbEntity
  8
Object
100
AcDbLine
 10
17.939
 20
12.095
 30
0.0
 11
17.938
 21
12.095
 31
0.0
  0
LINE
  5
3D3
330
18
100
AcDbEntity
  8
Object
100
AcDbLine
 10
17.938
 20
12.095
 30
0.0
 11
17.937
 21
12.095
 31
0.0
  0
LINE
  5
3D4
330
18
100
AcDbEntity
  8
Object
100
AcDbLine
 10
18.541
 20
12.084
 30
0.0
 11
16.851
 21
12.114
 31
0.0
  0
LINE
  5
3D5
330
18
100
AcDbEntity
  8
Object
100
AcDbLine
 10
16.851
 20
12.114
 30
0.0
 11
16.721
 21
12.116
 31
0.0
  0
LINE
  5
3D6
330
18
100
AcDbEntity
  8
Object
100
AcDbLine
 10
18.701
 20
10.275
 30
0.0
 11
18.699
 21
10.252
 31
0.0
  0
LINE
  5
3D7
330
18
100
AcDbEntity
  8
Object
100
AcDbLine
 10
18.699
 20
10.252
 30
0.0
 11
18.695
 21
10.236
 31
0.0
  0
LINE
  5
3D8
330
18
100
AcDbEntity
  8
Object
100
AcDbLine
 10
18.695
 20
10.236
 30
0.0
 11
18.699
 21
10.252
 31
0.0
  0
LINE
  5
3D9
330
18
100
AcDbEntity
  8
Object
100
AcDbLine
 10
18.696
 20
10.24
 30
0.0
 11
18.695
 21
10.236
 31
0.0
  0
LINE
  5
3DA
330
18
100
AcDbEntity
  8
Object
100
AcDbLine
 10
18.695
 20
10.236
 30
0.0
 11
18.693
 21
10.229
 31
0.0
  0
LINE
  5
3DB
330
18
100
AcDbEntity
  8
Object
100
AcDbLine
 10
18.693
 20
10.229
 30
0.0
 11
18.699
 21
10.252
 31
0.0
  0
LINE
  5
3DC
330
18
100
AcDbEntity
  8
Object
100
AcDbLine
 10
18.695
 20
10.236
 30
0.0
 11
18.693
 21
10.229
 31
0.0
  0
LINE
  5
3DD
330
18
100
AcDbEntity
  8
Object
100
AcDbLine
 10
18.693
 20
10.229
 30
0.0
 11
18.681
 21
10.207
 31
0.0
  0
LINE
  5
3DE
330
18
100
AcDbEntity
  8
Object
100
AcDbLine
 10
18.678
 20
10.203
 30
0.0
 11
18.678
 21
10.202
 31
0.0
  0
LINE
  5
3DF
330
18
100
AcDbEntity
  8
Object
100
AcDbLine
 10
18.695
 20
10.236
 30
0.0
 11
18.694
 21
10.234
 31
0.0
  0
LINE
  5
3E0
330
18
100
AcDbEntity
  8
Object
100
AcDbLine
 10
18.679
 20
10.204
 30
0.0
 11
18.678
 21
10.202
 31
0.0
  0
LINE
  5
3E1
330
18
100
AcDbEntity
  8
Object
100
AcDbLine
 10
18.678
 20
10.202
 30
0.0
 11
18.681
 21
10.207
 31
0.0
  0
LINE
  5
3E2
330
18
100
AcDbEntity
  8
Object
100
AcDbLine
 10
18.681
 20
10.207
 30
0.0
 11
18.678
 21
10.202
 31
0.0
  0
LINE
  5
3E3
330
18
100
AcDbEntity
  8
Object
100
AcDbLine
 10
18.678
 20
10.202
 30
0.0
 11
18.679
 21
10.204
 31
0.0
  0
LINE
  5
3E4
330
18
100
AcDbEntity
  8
Object
100
AcDbLine
 10
18.678
 20
10.202
 30
0.0
 11
18.665
 21
10.187
 31
0.0
  0
LINE
  5
3E5
330
18
100
AcDbEntity
  8
Object
100
AcDbLine
 10
18.665
 20
10.187
 30
0.0
 11
18.681
 21
10.207
 31
0.0
  0
LINE
  5
3E6
330
18
100
AcDbEntity
  8
Object
100
AcDbLine
 10
18.678
 20
10.202
 30
0.0
 11
18.665
 21
10.187
 31
0.0
  0
LINE
  5
3E7
330
18
100
AcDbEntity
  8
Object
100
AcDbLine
 10
18.665
 20
10.187
 30
0.0
 11
18.651
 21
10.174
 31
0.0
  0
LINE
  5
3E8
330
18
100
AcDbEntity
  8
Object
100
AcDbLine
 10
18.651
 20
10.174
 30
0.0
 11
18.665
 21
10.187
 31
0.0
  0
LINE
  5
3E9
330
18
100
AcDbEntity
  8
Object
100
AcDbLine
 10
18.655
 20
10.178
 30
0.0
 11
18.651
 21
10.174
 31
0.0
  0
LINE
  5
3EA
330
18
100
AcDbEntity
  8
Object
100
AcDbLine
 10
18.678
 20
10.202
 30
0.0
 11
18.674
 21
10.198
 31
0.0
  0
LINE
  5
3EB
330
18
100
AcDbEntity
  8
Object
100
AcDbLine
 10
18.651
 20
10.174
 30
0.0
 11
18.646
 21
10.171
 31
0.0
  0
LINE
  5
3EC
330
18
100
AcDbEntity
  8
Object
100
AcDbLine
 10
18.646
 20
10.171
 30
0.0
 11
18.665
 21
10.187
 31
0.0
  0
LINE
  5
3ED
330
18
100
AcDbEntity
  8
Object
100
AcDbLine
 10
18.651
 20
10.174
 30
0.0
 11
18.646
 21
10.171
 31
0.0
  0
LINE
  5
3EE
330
18
100
AcDbEntity
  8
Object
100
AcDbLine
 10
18.646
 20
10.171
 30
0.0
 11
18.624
 21
10.159
 31
0.0
  0
LINE
  5
3EF
330
18
100
AcDbEntity
  8
Object
100
AcDbLine
 10
18.651
 20
10.174
 30
0.0
 11
18.648
 21
10.173
 31
0.0
  0
LINE
  5
3F0
330
18
100
AcDbEntity
  8
Object
100
AcDbLine
 10
18.648
 20
10.173
 30
0.0
 11
18.651
 21
10.174
 31
0.0
  0
LINE
  5
3F1
330
18
100
AcDbEntity
  8
Object
100
AcDbLine
 10
18.62
 20
10.158
 30
0.0
 11
18.617
 21
10.156
 31
0.0
  0
LINE
  5
3F2
330
18
100
AcDbEntity
  8
Object
100
AcDbLine
 10
18.651
 20
10.174
 30
0.0
 11
18.648
 21
10.173
 31
0.0
  0
LINE
  5
3F3
330
18
100
AcDbEntity
  8
Object
100
AcDbLine
 10
18.617
 20
10.156
 30
0.0
 11
18.624
 21
10.159
 31
0.0
  0
LINE
  5
3F4
330
18
100
AcDbEntity
  8
Object
100
AcDbLine
 10
18.624
 20
10.159
 30
0.0
 11
18.617
 21
10.156
 31
0.0
  0
LINE
  5
3F5
330
18
100
AcDbEntity
  8
Object
100
AcDbLine
 10
18.617
 20
10.156
 30
0.0
 11
18.601
 21
10.152
 31
0.0
  0
LINE
  5
3F6
330
18
100
AcDbEntity
  8
Object
100
AcDbLine
 10
18.601
 20
10.152
 30
0.0
 11
18.617
 21
10.156
 31
0.0
  0
LINE
  5
3F7
330
18
100
AcDbEntity
  8
Object
100
AcDbLine
 10
18.601
 20
10.152
 30
0.0
 11
18.624
 21
10.159
 31
0.0
  0
LINE
  5
3F8
330
18
100
AcDbEntity
  8
Object
100
AcDbLine
 10
18.617
 20
10.156
 30
0.0
 11
18.61
 21
10.155
 31
0.0
  0
LINE
  5
3F9
330
18
100
AcDbEntity
  8
Object
100
AcDbLine
 10
18.578
 20
10.15
 30
0.0
 11
18.601
 21
10.152
 31
0.0
  0
LINE
  5
3FA
330
18
100
AcDbEntity
  8
Object
100
AcDbLine
 10
18.701
 20
10.275
 30
0.0
 11
18.701
 21
12.039
 31
0.0
  0
LINE
  5
3FB
330
18
100
AcDbEntity
  8
Object
100
AcDbLine
 10
18.619
 20
12.0
 30
0.0
 11
18.628
 21
11.986
 31
0.0
  0
LINE
  5
3FC
330
18
100
AcDbEntity
  8
Object
100
AcDbLine
 10
18.701
 20
12.039
 30
0.0
 11
18.699
 21
12.061
 31
0.0
  0
LINE
  5
3FD
330
18
100
AcDbEntity
  8
Object
100
AcDbLine
 10
18.699
 20
10.252
 30
0.0
 11
18.701
 21
10.275
 31
0.0
  0
LINE
  5
3FE
330
18
100
AcDbEntity
  8
Object
100
AcDbLine
 10
18.628
 20
10.327
 30
0.0
 11
18.619
 21
10.314
 31
0.0
  0
LINE
  5
3FF
330
18
100
AcDbEntity
  8
Object
100
AcDbLine
 10
18.646
 20
12.143
 30
0.0
 11
18.665
 21
12.126
 31
0.0
  0
LINE
  5
400
330
18
100
AcDbEntity
  8
Object
100
AcDbLine
 10
18.665
 20
12.126
 30
0.0
 11
18.681
 21
12.107
 31
0.0
  0
LINE
  5
401
330
18
100
AcDbEntity
  8
Object
100
AcDbLine
 10
18.681
 20
12.107
 30
0.0
 11
18.693
 21
12.084
 31
0.0
  0
LINE
  5
402
330
18
100
AcDbEntity
  8
Object
100
AcDbLine
 10
18.693
 20
12.084
 30
0.0
 11
18.699
 21
12.061
 31
0.0
  0
LINE
  5
403
330
18
100
AcDbEntity
  8
Object
100
AcDbLine
 10
18.606
 20
12.009
 30
0.0
 11
18.619
 21
12.0
 31
0.0
  0
LINE
  5
404
330
18
100
AcDbEntity
  8
Object
100
AcDbLine
 10
18.619
 20
10.314
 30
0.0
 11
18.606
 21
10.305
 31
0.0
  0
LINE
  5
405
330
18
100
AcDbEntity
  8
Object
100
AcDbLine
 10
18.699
 20
10.252
 30
0.0
 11
18.693
 21
10.229
 31
0.0
  0
LINE
  5
406
330
18
100
AcDbEntity
  8
Object
100
AcDbLine
 10
18.693
 20
10.229
 30
0.0
 11
18.681
 21
10.207
 31
0.0
  0
LINE
  5
407
330
18
100
AcDbEntity
  8
Object
100
AcDbLine
 10
18.681
 20
10.207
 30
0.0
 11
18.665
 21
10.187
 31
0.0
  0
LINE
  5
408
330
18
100
AcDbEntity
  8
Object
100
AcDbLine
 10
18.665
 20
10.187
 30
0.0
 11
18.646
 21
10.171
 31
0.0
  0
LINE
  5
409
330
18
100
AcDbEntity
  8
Object
100
AcDbLine
 10
18.591
 20
12.012
 30
0.0
 11
18.606
 21
12.009
 31
0.0
  0
LINE
  5
40A
330
18
100
AcDbEntity
  8
Object
100
AcDbLine
 10
18.606
 20
10.305
 30
0.0
 11
18.591
 21
10.302
 31
0.0
  0
LINE
  5
40B
330
18
100
AcDbEntity
  8
Object
100
AcDbLine
 10
18.591
 20
12.012
 30
0.0
 11
18.541
 21
12.012
 31
0.0
  0
LINE
  5
40C
330
18
100
AcDbEntity
  8
Object
100
AcDbLine
 10
18.541
 20
12.012
 30
0.0
 11
18.541
 21
12.084
 31
0.0
  0
LINE
  5
40D
330
18
100
AcDbEntity
  8
Object
100
AcDbLine
 10
18.541
 20
12.161
 30
0.0
 11
18.541
 21
12.154
 31
0.0
  0
LINE
  5
40E
330
18
100
AcDbEntity
  8
Object
100
AcDbLine
 10
18.541
 20
12.164
 30
0.0
 11
18.578
 21
12.164
 31
0.0
  0
LINE
  5
40F
330
18
100
AcDbEntity
  8
Object
100
AcDbLine
 10
18.578
 20
12.164
 30
0.0
 11
18.601
 21
12.161
 31
0.0
  0
LINE
  5
410
330
18
100
AcDbEntity
  8
Object
100
AcDbLine
 10
18.601
 20
12.161
 30
0.0
 11
18.624
 21
12.154
 31
0.0
  0
LINE
  5
411
330
18
100
AcDbEntity
  8
Object
100
AcDbLine
 10
18.624
 20
12.154
 30
0.0
 11
18.646
 21
12.143
 31
0.0
  0
LINE
  5
412
330
18
100
AcDbEntity
  8
Object
100
AcDbLine
 10
18.646
 20
10.171
 30
0.0
 11
18.624
 21
10.159
 31
0.0
  0
LINE
  5
413
330
18
100
AcDbEntity
  8
Object
100
AcDbLine
 10
18.624
 20
10.159
 30
0.0
 11
18.601
 21
10.152
 31
0.0
  0
LINE
  5
414
330
18
100
AcDbEntity
  8
Object
100
AcDbLine
 10
18.601
 20
10.152
 30
0.0
 11
18.578
 21
10.15
 31
0.0
  0
LINE
  5
415
330
18
100
AcDbEntity
  8
Object
100
AcDbLine
 10
18.578
 20
10.15
 30
0.0
 11
18.541
 21
10.149
 31
0.0
  0
LINE
  5
416
330
18
100
AcDbEntity
  8
Object
100
AcDbLine
 10
18.541
 20
10.159
 30
0.0
 11
18.541
 21
10.152
 31
0.0
  0
LINE
  5
417
330
18
100
AcDbEntity
  8
Object
100
AcDbLine
 10
18.541
 20
10.229
 30
0.0
 11
18.541
 21
10.302
 31
0.0
  0
LINE
  5
418
330
18
100
AcDbEntity
  8
Object
100
AcDbLine
 10
18.541
 20
10.302
 30
0.0
 11
18.591
 21
10.302
 31
0.0
  0
LINE
  5
419
330
18
100
AcDbEntity
  8
Object
100
AcDbLine
 10
18.701
 20
12.039
 30
0.0
 11
18.699
 21
12.061
 31
0.0
  0
LINE
  5
41A
330
18
100
AcDbEntity
  8
Object
100
AcDbLine
 10
18.699
 20
12.061
 30
0.0
 11
18.695
 21
12.077
 31
0.0
  0
LINE
  5
41B
330
18
100
AcDbEntity
  8
Object
100
AcDbLine
 10
18.695
 20
12.077
 30
0.0
 11
18.695
 21
12.073
 31
0.0
  0
LINE
  5
41C
330
18
100
AcDbEntity
  8
Object
100
AcDbLine
 10
18.699
 20
12.061
 30
0.0
 11
18.695
 21
12.077
 31
0.0
  0
LINE
  5
41D
330
18
100
AcDbEntity
  8
Object
100
AcDbLine
 10
18.695
 20
12.077
 30
0.0
 11
18.693
 21
12.084
 31
0.0
  0
LINE
  5
41E
330
18
100
AcDbEntity
  8
Object
100
AcDbLine
 10
18.693
 20
12.084
 30
0.0
 11
18.695
 21
12.077
 31
0.0
  0
LINE
  5
41F
330
18
100
AcDbEntity
  8
Object
100
AcDbLine
 10
18.699
 20
12.061
 30
0.0
 11
18.693
 21
12.084
 31
0.0
  0
LINE
  5
420
330
18
100
AcDbEntity
  8
Object
100
AcDbLine
 10
18.693
 20
12.084
 30
0.0
 11
18.681
 21
12.107
 31
0.0
  0
LINE
  5
421
330
18
100
AcDbEntity
  8
Object
100
AcDbLine
 10
18.679
 20
12.109
 30
0.0
 11
18.678
 21
12.112
 31
0.0
  0
LINE
  5
422
330
18
100
AcDbEntity
  8
Object
100
AcDbLine
 10
18.694
 20
12.078
 30
0.0
 11
18.695
 21
12.077
 31
0.0
  0
LINE
  5
423
330
18
100
AcDbEntity
  8
Object
100
AcDbLine
 10
18.678
 20
12.11
 30
0.0
 11
18.678
 21
12.112
 31
0.0
  0
LINE
  5
424
330
18
100
AcDbEntity
  8
Object
100
AcDbLine
 10
18.678
 20
12.112
 30
0.0
 11
18.679
 21
12.109
 31
0.0
  0
LINE
  5
425
330
18
100
AcDbEntity
  8
Object
100
AcDbLine
 10
18.681
 20
12.107
 30
0.0
 11
18.678
 21
12.112
 31
0.0
  0
LINE
  5
426
330
18
100
AcDbEntity
  8
Object
100
AcDbLine
 10
18.678
 20
12.112
 30
0.0
 11
18.681
 21
12.107
 31
0.0
  0
LINE
  5
427
330
18
100
AcDbEntity
  8
Object
100
AcDbLine
 10
18.681
 20
12.107
 30
0.0
 11
18.665
 21
12.126
 31
0.0
  0
LINE
  5
428
330
18
100
AcDbEntity
  8
Object
100
AcDbLine
 10
18.665
 20
12.126
 30
0.0
 11
18.678
 21
12.112
 31
0.0
  0
LINE
  5
429
330
18
100
AcDbEntity
  8
Object
100
AcDbLine
 10
18.678
 20
12.112
 30
0.0
 11
18.665
 21
12.126
 31
0.0
  0
LINE
  5
42A
330
18
100
AcDbEntity
  8
Object
100
AcDbLine
 10
18.665
 20
12.126
 30
0.0
 11
18.651
 21
12.139
 31
0.0
  0
LINE
  5
42B
330
18
100
AcDbEntity
  8
Object
100
AcDbLine
 10
18.651
 20
12.139
 30
0.0
 11
18.665
 21
12.126
 31
0.0
  0
LINE
  5
42C
330
18
100
AcDbEntity
  8
Object
100
AcDbLine
 10
18.674
 20
12.115
 30
0.0
 11
18.678
 21
12.112
 31
0.0
  0
LINE
  5
42D
330
18
100
AcDbEntity
  8
Object
100
AcDbLine
 10
18.651
 20
12.139
 30
0.0
 11
18.655
 21
12.135
 31
0.0
  0
LINE
  5
42E
330
18
100
AcDbEntity
  8
Object
100
AcDbLine
 10
18.665
 20
12.126
 30
0.0
 11
18.646
 21
12.143
 31
0.0
  0
LINE
  5
42F
330
18
100
AcDbEntity
  8
Object
100
AcDbLine
 10
18.646
 20
12.143
 30
0.0
 11
18.651
 21
12.139
 31
0.0
  0
LINE
  5
430
330
18
100
AcDbEntity
  8
Object
100
AcDbLine
 10
18.651
 20
12.139
 30
0.0
 11
18.646
 21
12.143
 31
0.0
  0
LINE
  5
431
330
18
100
AcDbEntity
  8
Object
100
AcDbLine
 10
18.646
 20
12.143
 30
0.0
 11
18.624
 21
12.154
 31
0.0
  0
LINE
  5
432
330
18
100
AcDbEntity
  8
Object
100
AcDbLine
 10
18.648
 20
12.14
 30
0.0
 11
18.651
 21
12.139
 31
0.0
  0
LINE
  5
433
330
18
100
AcDbEntity
  8
Object
100
AcDbLine
 10
18.651
 20
12.139
 30
0.0
 11
18.648
 21
12.14
 31
0.0
  0
LINE
  5
434
330
18
100
AcDbEntity
  8
Object
100
AcDbLine
 10
18.617
 20
12.157
 30
0.0
 11
18.624
 21
12.154
 31
0.0
  0
LINE
  5
435
330
18
100
AcDbEntity
  8
Object
100
AcDbLine
 10
18.624
 20
12.154
 30
0.0
 11
18.617
 21
12.157
 31
0.0
  0
LINE
  5
436
330
18
100
AcDbEntity
  8
Object
100
AcDbLine
 10
18.648
 20
12.14
 30
0.0
 11
18.651
 21
12.139
 31
0.0
  0
LINE
  5
437
330
18
100
AcDbEntity
  8
Object
100
AcDbLine
 10
18.62
 20
12.155
 30
0.0
 11
18.617
 21
12.157
 31
0.0
  0
LINE
  5
438
330
18
100
AcDbEntity
  8
Object
100
AcDbLine
 10
18.617
 20
12.157
 30
0.0
 11
18.601
 21
12.161
 31
0.0
  0
LINE
  5
439
330
18
100
AcDbEntity
  8
Object
100
AcDbLine
 10
18.601
 20
12.161
 30
0.0
 11
18.617
 21
12.157
 31
0.0
  0
LINE
  5
43A
330
18
100
AcDbEntity
  8
Object
100
AcDbLine
 10
18.624
 20
12.154
 30
0.0
 11
18.601
 21
12.161
 31
0.0
  0
LINE
  5
43B
330
18
100
AcDbEntity
  8
Object
100
AcDbLine
 10
18.61
 20
12.158
 30
0.0
 11
18.617
 21
12.157
 31
0.0
  0
LINE
  5
43C
330
18
100
AcDbEntity
  8
Object
100
AcDbLine
 10
18.601
 20
12.161
 30
0.0
 11
18.578
 21
12.164
 31
0.0
  0
LINE
  5
43D
330
18
100
AcDbEntity
  8
Object
100
AcDbLine
 10
18.695
 20
12.073
 30
0.0
 11
18.695
 21
12.077
 31
0.0
  0
LINE
  5
43E
330
18
100
AcDbEntity
  8
Object
100
AcDbLine
 10
18.695
 20
12.077
 30
0.0
 11
18.696
 21
12.07
 31
0.0
  0
LINE
  5
43F
330
18
100
AcDbEntity
  8
Object
100
AcDbLine
 10
18.695
 20
12.077
 30
0.0
 11
18.694
 21
12.078
 31
0.0
  0
LINE
  5
440
330
18
100
AcDbEntity
  8
Object
100
AcDbLine
 10
18.694
 20
12.078
 30
0.0
 11
18.695
 21
12.077
 31
0.0
  0
LINE
  5
441
330
18
100
AcDbEntity
  8
Object
100
AcDbLine
 10
18.678
 20
12.11
 30
0.0
 11
18.678
 21
12.112
 31
0.0
  0
LINE
  5
442
330
18
100
AcDbEntity
  8
Object
100
AcDbLine
 10
18.678
 20
12.112
 30
0.0
 11
18.679
 21
12.109
 31
0.0
  0
LINE
  5
443
330
18
100
AcDbEntity
  8
Object
100
AcDbLine
 10
18.655
 20
12.135
 30
0.0
 11
18.651
 21
12.139
 31
0.0
  0
LINE
  5
444
330
18
100
AcDbEntity
  8
Object
100
AcDbLine
 10
18.678
 20
12.112
 30
0.0
 11
18.674
 21
12.115
 31
0.0
  0
LINE
  5
445
330
18
100
AcDbEntity
  8
Object
100
AcDbLine
 10
18.62
 20
12.155
 30
0.0
 11
18.617
 21
12.157
 31
0.0
  0
LINE
  5
446
330
18
100
AcDbEntity
  8
Object
100
AcDbLine
 10
18.651
 20
12.139
 30
0.0
 11
18.648
 21
12.14
 31
0.0
  0
LINE
  5
447
330
18
100
AcDbEntity
  8
Object
100
AcDbLine
 10
18.617
 20
12.157
 30
0.0
 11
18.61
 21
12.158
 31
0.0
  0
LINE
  5
448
330
18
100
AcDbEntity
  8
Object
100
AcDbLine
 10
18.701
 20
10.16
 30
0.0
 11
18.701
 21
10.21
 31
0.0
  0
LINE
  5
449
330
18
100
AcDbEntity
  8
Object
100
AcDbLine
 10
18.701
 20
10.246
 30
0.0
 11
18.701
 21
10.267
 31
0.0
  0
LINE
  5
44A
330
18
100
AcDbEntity
  8
Object
100
AcDbLine
 10
18.701
 20
10.267
 30
0.0
 11
18.701
 21
10.275
 31
0.0
  0
LINE
  5
44B
330
18
100
AcDbEntity
  8
Object
100
AcDbLine
 10
18.701
 20
10.21
 30
0.0
 11
18.701
 21
10.246
 31
0.0
  0
LINE
  5
44C
330
18
100
AcDbEntity
  8
Object
100
AcDbLine
 10
18.701
 20
10.096
 30
0.0
 11
18.701
 21
10.16
 31
0.0
  0
LINE
  5
44D
330
18
100
AcDbEntity
  8
Object
100
AcDbLine
 10
18.701
 20
9.826999999999999
 30
0.0
 11
18.701
 21
9.929
 31
0.0
  0
LINE
  5
44E
330
18
100
AcDbEntity
  8
Object
100
AcDbLine
 10
18.701
 20
10.096
 30
0.0
 11
18.701
 21
10.019
 31
0.0
  0
LINE
  5
44F
330
18
100
AcDbEntity
  8
Object
100
AcDbLine
 10
18.701
 20
10.019
 30
0.0
 11
18.701
 21
9.929
 31
0.0
  0
LINE
  5
450
330
18
100
AcDbEntity
  8
Object
100
AcDbLine
 10
18.701
 20
9.714
 30
0.0
 11
18.701
 21
9.826999999999999
 31
0.0
  0
LINE
  5
451
330
18
100
AcDbEntity
  8
Object
100
AcDbLine
 10
18.701
 20
9.313
 30
0.0
 11
18.701
 21
9.455999999999999
 31
0.0
  0
LINE
  5
452
330
18
100
AcDbEntity
  8
Object
100
AcDbLine
 10
18.701
 20
9.714
 30
0.0
 11
18.701
 21
9.589999999999999
 31
0.0
  0
LINE
  5
453
330
18
100
AcDbEntity
  8
Object
100
AcDbLine
 10
18.701
 20
9.589999999999999
 30
0.0
 11
18.701
 21
9.455999999999999
 31
0.0
  0
LINE
  5
454
330
18
100
AcDbEntity
  8
Object
100
AcDbLine
 10
18.701
 20
9.005
 30
0.0
 11
18.701
 21
9.162
 31
0.0
  0
LINE
  5
455
330
18
100
AcDbEntity
  8
Object
100
AcDbLine
 10
18.701
 20
9.162
 30
0.0
 11
18.701
 21
9.313
 31
0.0
  0
LINE
  5
456
330
18
100
AcDbEntity
  8
Object
100
AcDbLine
 10
18.701
 20
8.673
 30
0.0
 11
18.701
 21
8.840999999999999
 31
0.0
  0
LINE
  5
457
330
18
100
AcDbEntity
  8
Object
100
AcDbLine
 10
18.701
 20
8.840999999999999
 30
0.0
 11
18.701
 21
9.005
 31
0.0
  0
LINE
  5
458
330
18
100
AcDbEntity
  8
Object
100
AcDbLine
 10
18.701
 20
8.326999999999999
 30
0.0
 11
18.701
 21
8.500999999999999
 31
0.0
  0
LINE
  5
459
330
18
100
AcDbEntity
  8
Object
100
AcDbLine
 10
18.701
 20
8.500999999999999
 30
0.0
 11
18.701
 21
8.673
 31
0.0
  0
LINE
  5
45A
330
18
100
AcDbEntity
  8
Object
100
AcDbLine
 10
18.701
 20
8.152000000000001
 30
0.0
 11
18.701
 21
8.326999999999999
 31
0.0
  0
LINE
  5
45B
330
18
100
AcDbEntity
  8
Object
100
AcDbLine
 10
18.696
 20
10.24
 30
0.0
 11
18.695
 21
10.236
 31
0.0
  0
LINE
  5
45C
330
18
100
AcDbEntity
  8
Object
100
AcDbLine
 10
18.695
 20
10.236
 30
0.0
 11
18.699
 21
10.252
 31
0.0
  0
LINE
  5
45D
330
18
100
AcDbEntity
  8
Object
100
AcDbLine
 10
18.678
 20
10.203
 30
0.0
 11
18.678
 21
10.202
 31
0.0
  0
LINE
  5
45E
330
18
100
AcDbEntity
  8
Object
100
AcDbLine
 10
18.694
 20
10.234
 30
0.0
 11
18.695
 21
10.236
 31
0.0
  0
LINE
  5
45F
330
18
100
AcDbEntity
  8
Object
100
AcDbLine
 10
18.695
 20
10.236
 30
0.0
 11
18.694
 21
10.233
 31
0.0
  0
LINE
  5
460
330
18
100
AcDbEntity
  8
Object
100
AcDbLine
 10
18.687
 20
10.219
 30
0.0
 11
18.684
 21
10.212
 31
0.0
  0
LINE
  5
461
330
18
100
AcDbEntity
  8
Object
100
AcDbLine
 10
18.684
 20
10.212
 30
0.0
 11
18.682
 21
10.208
 31
0.0
  0
LINE
  5
462
330
18
100
AcDbEntity
  8
Object
100
AcDbLine
 10
18.68
 20
10.205
 30
0.0
 11
18.678
 21
10.202
 31
0.0
  0
LINE
  5
463
330
18
100
AcDbEntity
  8
Object
100
AcDbLine
 10
18.678
 20
10.202
 30
0.0
 11
18.67
 21
10.193
 31
0.0
  0
LINE
  5
464
330
18
100
AcDbEntity
  8
Object
100
AcDbLine
 10
18.657
 20
10.178
 30
0.0
 11
18.663
 21
10.185
 31
0.0
  0
LINE
  5
465
330
18
100
AcDbEntity
  8
Object
100
AcDbLine
 10
18.655
 20
10.178
 30
0.0
 11
18.651
 21
10.174
 31
0.0
  0
LINE
  5
466
330
18
100
AcDbEntity
  8
Object
100
AcDbLine
 10
18.678
 20
10.202
 30
0.0
 11
18.674
 21
10.198
 31
0.0
  0
LINE
  5
467
330
18
100
AcDbEntity
  8
Object
100
AcDbLine
 10
18.651
 20
10.174
 30
0.0
 11
18.657
 21
10.178
 31
0.0
  0
LINE
  5
468
330
18
100
AcDbEntity
  8
Object
100
AcDbLine
 10
18.652
 20
10.175
 30
0.0
 11
18.65
 21
10.174
 31
0.0
  0
LINE
  5
469
330
18
100
AcDbEntity
  8
Object
100
AcDbLine
 10
18.648
 20
10.173
 30
0.0
 11
18.651
 21
10.174
 31
0.0
  0
LINE
  5
46A
330
18
100
AcDbEntity
  8
Object
100
AcDbLine
 10
18.623
 20
10.159
 30
0.0
 11
18.619
 21
10.157
 31
0.0
  0
LINE
  5
46B
330
18
100
AcDbEntity
  8
Object
100
AcDbLine
 10
18.619
 20
10.157
 30
0.0
 11
18.617
 21
10.156
 31
0.0
  0
LINE
  5
46C
330
18
100
AcDbEntity
  8
Object
100
AcDbLine
 10
18.617
 20
10.156
 30
0.0
 11
18.62
 21
10.158
 31
0.0
  0
LINE
  5
46D
330
18
100
AcDbEntity
  8
Object
100
AcDbLine
 10
18.651
 20
10.174
 30
0.0
 11
18.648
 21
10.173
 31
0.0
  0
LINE
  5
46E
330
18
100
AcDbEntity
  8
Object
100
AcDbLine
 10
18.619
 20
10.157
 30
0.0
 11
18.617
 21
10.156
 31
0.0
  0
LINE
  5
46F
330
18
100
AcDbEntity
  8
Object
100
AcDbLine
 10
18.617
 20
10.156
 30
0.0
 11
18.611
 21
10.155
 31
0.0
  0
LINE
  5
470
330
18
100
AcDbEntity
  8
Object
100
AcDbLine
 10
18.61
 20
10.155
 30
0.0
 11
18.617
 21
10.156
 31
0.0
  0
LINE
  5
471
330
18
100
AcDbEntity
  8
Object
100
AcDbLine
 10
18.617
 20
10.156
 30
0.0
 11
18.611
 21
10.155
 31
0.0
  0
LINE
  5
472
330
18
100
AcDbEntity
  8
Object
100
AcDbLine
 10
18.578
 20
10.142
 30
0.0
 11
18.578
 21
10.119
 31
0.0
  0
LINE
  5
473
330
18
100
AcDbEntity
  8
Object
100
AcDbLine
 10
18.578
 20
10.119
 30
0.0
 11
18.578
 21
10.082
 31
0.0
  0
LINE
  5
474
330
18
100
AcDbEntity
  8
Object
100
AcDbLine
 10
18.578
 20
10.142
 30
0.0
 11
18.578
 21
10.15
 31
0.0
  0
LINE
  5
475
330
18
100
AcDbEntity
  8
Object
100
AcDbLine
 10
18.578
 20
10.15
 30
0.0
 11
18.541
 21
10.149
 31
0.0
  0
LINE
  5
476
330
18
100
AcDbEntity
  8
Object
100
AcDbLine
 10
18.578
 20
10.029
 30
0.0
 11
18.578
 21
10.082
 31
0.0
  0
LINE
  5
477
330
18
100
AcDbEntity
  8
Object
100
AcDbLine
 10
18.578
 20
9.963
 30
0.0
 11
18.578
 21
9.881999999999999
 31
0.0
  0
LINE
  5
478
330
18
100
AcDbEntity
  8
Object
100
AcDbLine
 10
18.578
 20
9.881999999999999
 30
0.0
 11
18.578
 21
9.788
 31
0.0
  0
LINE
  5
479
330
18
100
AcDbEntity
  8
Object
100
AcDbLine
 10
18.578
 20
9.963
 30
0.0
 11
18.578
 21
10.029
 31
0.0
  0
LINE
  5
47A
330
18
100
AcDbEntity
  8
Object
100
AcDbLine
 10
18.578
 20
9.682
 30
0.0
 11
18.578
 21
9.788
 31
0.0
  0
LINE
  5
47B
330
18
100
AcDbEntity
  8
Object
100
AcDbLine
 10
18.578
 20
9.435999999999999
 30
0.0
 11
18.578
 21
9.564999999999999
 31
0.0
  0
LINE
  5
47C
330
18
100
AcDbEntity
  8
Object
100
AcDbLine
 10
18.578
 20
9.564999999999999
 30
0.0
 11
18.578
 21
9.682
 31
0.0
  0
LINE
  5
47D
330
18
100
AcDbEntity
  8
Object
100
AcDbLine
 10
18.578
 20
9.298
 30
0.0
 11
18.578
 21
9.150999999999999
 31
0.0
  0
LINE
  5
47E
330
18
100
AcDbEntity
  8
Object
100
AcDbLine
 10
18.578
 20
9.150999999999999
 30
0.0
 11
18.578
 21
8.996
 31
0.0
  0
LINE
  5
47F
330
18
100
AcDbEntity
  8
Object
100
AcDbLine
 10
18.578
 20
9.298
 30
0.0
 11
18.578
 21
9.435999999999999
 31
0.0
  0
LINE
  5
480
330
18
100
AcDbEntity
  8
Object
100
AcDbLine
 10
18.578
 20
8.996
 30
0.0
 11
18.578
 21
8.835
 31
0.0
  0
LINE
  5
481
330
18
100
AcDbEntity
  8
Object
100
AcDbLine
 10
18.578
 20
8.835
 30
0.0
 11
18.578
 21
8.669
 31
0.0
  0
LINE
  5
482
330
18
100
AcDbEntity
  8
Object
100
AcDbLine
 10
18.578
 20
8.669
 30
0.0
 11
18.578
 21
8.499
 31
0.0
  0
LINE
  5
483
330
18
100
AcDbEntity
  8
Object
100
AcDbLine
 10
18.578
 20
8.499
 30
0.0
 11
18.578
 21
8.326
 31
0.0
  0
LINE
  5
484
330
18
100
AcDbEntity
  8
Object
100
AcDbLine
 10
18.578
 20
8.326
 30
0.0
 11
18.578
 21
8.152000000000001
 31
0.0
  0
LINE
  5
485
330
18
100
AcDbEntity
  8
Object
100
AcDbLine
 10
18.541
 20
5.118
 30
0.0
 11
18.538
 21
5.102999999999999
 31
0.0
  0
LINE
  5
486
330
18
100
AcDbEntity
  8
Object
100
AcDbLine
 10
18.538
 20
5.102999999999999
 30
0.0
 11
18.53
 21
5.089999999999999
 31
0.0
  0
LINE
  5
487
330
18
100
AcDbEntity
  8
Object
100
AcDbLine
 10
18.53
 20
5.089999999999999
 30
0.0
 11
18.516
 21
5.081
 31
0.0
  0
LINE
  5
488
330
18
100
AcDbEntity
  8
Object
100
AcDbLine
 10
18.516
 20
5.081
 30
0.0
 11
18.501
 21
5.078
 31
0.0
  0
LINE
  5
489
330
18
100
AcDbEntity
  8
Object
100
AcDbLine
 10
18.541
 20
6.709999999999999
 30
0.0
 11
18.541
 21
5.118
 31
0.0
  0
LINE
  5
48A
330
18
100
AcDbEntity
  8
Object
100
AcDbLine
 10
18.541
 20
5.118
 30
0.0
 11
18.537
 21
5.118
 31
0.0
  0
LINE
  5
48B
330
18
100
AcDbEntity
  8
Object
100
AcDbLine
 10
18.539
 20
6.698999999999999
 30
0.0
 11
18.533
 21
6.689
 31
0.0
  0
LINE
  5
48C
330
18
100
AcDbEntity
  8
Object
100
AcDbLine
 10
18.578
 20
12.164
 30
0.0
 11
18.541
 21
12.164
 31
0.0
  0
LINE
  5
48D
330
18
100
AcDbEntity
  8
Object
100
AcDbLine
 10
16.71
 20
10.195
 30
0.0
 11
16.706
 21
10.193
 31
0.0
  0
LINE
  5
48E
330
18
100
AcDbEntity
  8
Object
100
AcDbLine
 10
16.706
 20
10.193
 30
0.0
 11
16.7
 21
10.188
 31
0.0
  0
LINE
  5
48F
330
18
100
AcDbEntity
  8
Object
100
AcDbLine
 10
16.7
 20
10.188
 30
0.0
 11
16.695
 21
10.182
 31
0.0
  0
LINE
  5
490
330
18
100
AcDbEntity
  8
Object
100
AcDbLine
 10
16.695
 20
10.182
 30
0.0
 11
16.693
 21
10.178
 31
0.0
  0
LINE
  5
491
330
18
100
AcDbEntity
  8
Object
100
AcDbLine
 10
18.541
 20
10.149
 30
0.0
 11
18.578
 21
10.15
 31
0.0
  0
LINE
  5
492
330
18
100
AcDbEntity
  8
Object
100
AcDbLine
 10
16.851
 20
10.119
 30
0.0
 11
16.781
 21
10.118
 31
0.0
  0
LINE
  5
493
330
18
100
AcDbEntity
  8
Object
100
AcDbLine
 10
16.781
 20
10.118
 30
0.0
 11
16.851
 21
10.12
 31
0.0
  0
LINE
  5
494
330
18
100
AcDbEntity
  8
Object
100
AcDbLine
 10
18.578
 20
10.15
 30
0.0
 11
18.541
 21
10.149
 31
0.0
  0
LINE
  5
495
330
18
100
AcDbEntity
  8
Object
100
AcDbLine
 10
16.771
 20
7.892999999999999
 30
0.0
 11
16.771
 21
7.906
 31
0.0
  0
LINE
  5
496
330
18
100
AcDbEntity
  8
Object
100
AcDbLine
 10
16.691
 20
7.895
 30
0.0
 11
16.691
 21
7.908999999999999
 31
0.0
  0
LINE
  5
497
330
18
100
AcDbEntity
  8
Object
100
AcDbLine
 10
16.691
 20
7.908999999999999
 30
0.0
 11
16.691
 21
7.918
 31
0.0
  0
LINE
  5
498
330
18
100
AcDbEntity
  8
Object
100
AcDbLine
 10
16.691
 20
7.918
 30
0.0
 11
16.691
 21
7.921
 31
0.0
  0
LINE
  5
499
330
18
100
AcDbEntity
  8
Object
100
AcDbLine
 10
16.691
 20
7.921
 30
0.0
 11
16.771
 21
7.918
 31
0.0
  0
LINE
  5
49A
330
18
100
AcDbEntity
  8
Object
100
AcDbLine
 10
16.771
 20
7.918
 30
0.0
 11
16.771
 21
7.915
 31
0.0
  0
LINE
  5
49B
330
18
100
AcDbEntity
  8
Object
100
AcDbLine
 10
16.771
 20
7.915
 30
0.0
 11
16.771
 21
7.906
 31
0.0
  0
LINE
  5
49C
330
18
100
AcDbEntity
  8
Object
100
AcDbLine
 10
16.691
 20
7.895
 30
0.0
 11
16.691
 21
7.881
 31
0.0
  0
LINE
  5
49D
330
18
100
AcDbEntity
  8
Object
100
AcDbLine
 10
16.771
 20
7.878
 30
0.0
 11
16.771
 21
7.892999999999999
 31
0.0
  0
LINE
  5
49E
330
18
100
AcDbEntity
  8
Object
100
AcDbLine
 10
16.691
 20
7.927
 30
0.0
 11
16.691
 21
7.924
 31
0.0
  0
LINE
  5
49F
330
18
100
AcDbEntity
  8
Object
100
AcDbLine
 10
16.771
 20
7.924
 30
0.0
 11
16.771
 21
7.921
 31
0.0
  0
LINE
  5
4A0
330
18
100
AcDbEntity
  8
Object
100
AcDbLine
 10
16.771
 20
7.921
 30
0.0
 11
16.771
 21
7.918
 31
0.0
  0
LINE
  5
4A1
330
18
100
AcDbEntity
  8
Object
100
AcDbLine
 10
16.691
 20
7.921
 30
0.0
 11
16.691
 21
7.924
 31
0.0
  0
LINE
  5
4A2
330
18
100
AcDbEntity
  8
Object
100
AcDbLine
 10
16.771
 20
7.924
 30
0.0
 11
16.771
 21
7.927999999999999
 31
0.0
  0
LINE
  5
4A3
330
18
100
AcDbEntity
  8
Object
100
AcDbLine
 10
16.691
 20
7.931
 30
0.0
 11
16.691
 21
7.927
 31
0.0
  0
LINE
  5
4A4
330
18
100
AcDbEntity
  8
Object
100
AcDbLine
 10
16.771
 20
7.918
 30
0.0
 11
16.691
 21
7.921
 31
0.0
  0
LINE
  5
4A5
330
18
100
AcDbEntity
  8
Object
100
AcDbLine
 10
16.771
 20
6.99
 30
0.0
 11
16.771
 21
6.999
 31
0.0
  0
LINE
  5
4A6
330
18
100
AcDbEntity
  8
Object
100
AcDbLine
 10
16.691
 20
6.987
 30
0.0
 11
16.691
 21
6.996
 31
0.0
  0
LINE
  5
4A7
330
18
100
AcDbEntity
  8
Object
100
AcDbLine
 10
16.691
 20
6.996
 30
0.0
 11
16.691
 21
7.009999999999999
 31
0.0
  0
LINE
  5
4A8
330
18
100
AcDbEntity
  8
Object
100
AcDbLine
 10
16.691
 20
7.009999999999999
 30
0.0
 11
16.691
 21
7.025
 31
0.0
  0
LINE
  5
4A9
330
18
100
AcDbEntity
  8
Object
100
AcDbLine
 10
16.691
 20
7.025
 30
0.0
 11
16.771
 21
7.027
 31
0.0
  0
LINE
  5
4AA
330
18
100
AcDbEntity
  8
Object
100
AcDbLine
 10
16.771
 20
7.027
 30
0.0
 11
16.771
 21
7.012999999999999
 31
0.0
  0
LINE
  5
4AB
330
18
100
AcDbEntity
  8
Object
100
AcDbLine
 10
16.771
 20
7.012999999999999
 30
0.0
 11
16.771
 21
6.999
 31
0.0
  0
LINE
  5
4AC
330
18
100
AcDbEntity
  8
Object
100
AcDbLine
 10
16.691
 20
6.987
 30
0.0
 11
16.691
 21
6.985
 31
0.0
  0
LINE
  5
4AD
330
18
100
AcDbEntity
  8
Object
100
AcDbLine
 10
16.771
 20
6.99
 30
0.0
 11
16.771
 21
6.987
 31
0.0
  0
LINE
  5
4AE
330
18
100
AcDbEntity
  8
Object
100
AcDbLine
 10
16.771
 20
6.987
 30
0.0
 11
16.691
 21
6.985
 31
0.0
  0
LINE
  5
4AF
330
18
100
AcDbEntity
  8
Object
100
AcDbLine
 10
16.691
 20
6.985
 30
0.0
 11
16.771
 21
6.987
 31
0.0
  0
LINE
  5
4B0
330
18
100
AcDbEntity
  8
Object
100
AcDbLine
 10
16.691
 20
6.983999999999999
 30
0.0
 11
16.691
 21
6.982
 31
0.0
  0
LINE
  5
4B1
330
18
100
AcDbEntity
  8
Object
100
AcDbLine
 10
16.771
 20
6.987
 30
0.0
 11
16.771
 21
6.985
 31
0.0
  0
LINE
  5
4B2
330
18
100
AcDbEntity
  8
Object
100
AcDbLine
 10
16.771
 20
6.985
 30
0.0
 11
16.771
 21
6.980999999999999
 31
0.0
  0
LINE
  5
4B3
330
18
100
AcDbEntity
  8
Object
100
AcDbLine
 10
16.771
 20
6.980999999999999
 30
0.0
 11
16.771
 21
6.977
 31
0.0
  0
LINE
  5
4B4
330
18
100
AcDbEntity
  8
Object
100
AcDbLine
 10
16.691
 20
6.975
 30
0.0
 11
16.691
 21
6.977999999999999
 31
0.0
  0
LINE
  5
4B5
330
18
100
AcDbEntity
  8
Object
100
AcDbLine
 10
16.691
 20
6.977999999999999
 30
0.0
 11
16.691
 21
6.982
 31
0.0
  0
LINE
  5
4B6
330
18
100
AcDbEntity
  8
Object
100
AcDbLine
 10
16.767
 20
6.987
 30
0.0
 11
16.776
 21
6.987
 31
0.0
  0
LINE
  5
4B7
330
18
100
AcDbEntity
  8
Object
100
AcDbLine
 10
16.691
 20
6.985
 30
0.0
 11
16.691
 21
6.983999999999999
 31
0.0
  0
LINE
  5
4B8
330
18
100
AcDbEntity
  8
Object
100
AcDbLine
 10
16.691
 20
7.025
 30
0.0
 11
16.691
 21
7.881
 31
0.0
  0
LINE
  5
4B9
330
18
100
AcDbEntity
  8
Object
100
AcDbLine
 10
16.691
 20
7.881
 30
0.0
 11
16.771
 21
7.878
 31
0.0
  0
LINE
  5
4BA
330
18
100
AcDbEntity
  8
Object
100
AcDbLine
 10
16.771
 20
7.878
 30
0.0
 11
16.771
 21
7.027
 31
0.0
  0
LINE
  5
4BB
330
18
100
AcDbEntity
  8
Object
100
AcDbLine
 10
16.851
 20
10.126
 30
0.0
 11
16.851
 21
10.13
 31
0.0
  0
LINE
  5
4BC
330
18
100
AcDbEntity
  8
Object
100
AcDbLine
 10
16.851
 20
10.13
 30
0.0
 11
16.851
 21
10.2
 31
0.0
  0
LINE
  5
4BD
330
18
100
AcDbEntity
  8
Object
100
AcDbLine
 10
16.851
 20
10.126
 30
0.0
 11
16.851
 21
10.122
 31
0.0
  0
LINE
  5
4BE
330
18
100
AcDbEntity
  8
Object
100
AcDbLine
 10
16.851
 20
10.122
 30
0.0
 11
16.851
 21
10.12
 31
0.0
  0
LINE
  5
4BF
330
18
100
AcDbEntity
  8
Object
100
AcDbLine
 10
16.851
 20
10.12
 30
0.0
 11
16.851
 21
10.07
 31
0.0
  0
LINE
  5
4C0
330
18
100
AcDbEntity
  8
Object
100
AcDbLine
 10
16.851
 20
10.07
 30
0.0
 11
16.851
 21
10.058
 31
0.0
  0
LINE
  5
4C1
330
18
100
AcDbEntity
  8
Object
100
AcDbLine
 10
16.721
 20
10.197
 30
0.0
 11
16.71
 21
10.195
 31
0.0
  0
LINE
  5
4C2
330
18
100
AcDbEntity
  8
Object
100
AcDbLine
 10
16.71
 20
10.195
 30
0.0
 11
16.7
 21
10.188
 31
0.0
  0
LINE
  5
4C3
330
18
100
AcDbEntity
  8
Object
100
AcDbLine
 10
16.7
 20
10.188
 30
0.0
 11
16.693
 21
10.178
 31
0.0
  0
LINE
  5
4C4
330
18
100
AcDbEntity
  8
Object
100
AcDbLine
 10
16.693
 20
10.178
 30
0.0
 11
16.691
 21
10.167
 31
0.0
  0
LINE
  5
4C5
330
18
100
AcDbEntity
  8
Object
100
AcDbLine
 10
16.781
 20
10.118
 30
0.0
 11
16.851
 21
10.119
 31
0.0
  0
LINE
  5
4C6
330
18
100
AcDbEntity
  8
Object
100
AcDbLine
 10
16.851
 20
10.2
 30
0.0
 11
18.541
 21
10.229
 31
0.0
  0
LINE
  5
4C7
330
18
100
AcDbEntity
  8
Object
100
AcDbLine
 10
18.541
 20
10.229
 30
0.0
 11
18.541
 21
10.159
 31
0.0
  0
LINE
  5
4C8
330
18
100
AcDbEntity
  8
Object
100
AcDbLine
 10
18.541
 20
10.159
 30
0.0
 11
16.851
 21
10.13
 31
0.0
  0
LINE
  5
4C9
330
18
100
AcDbEntity
  8
Object
100
AcDbLine
 10
16.851
 20
10.13
 30
0.0
 11
16.851
 21
10.2
 31
0.0
  0
LINE
  5
4CA
330
18
100
AcDbEntity
  8
Object
100
AcDbLine
 10
16.851
 20
10.12
 30
0.0
 11
16.781
 21
10.118
 31
0.0
  0
LINE
  5
4CB
330
18
100
AcDbEntity
  8
Object
100
AcDbLine
 10
16.781
 20
10.118
 30
0.0
 11
16.777
 21
10.118
 31
0.0
  0
LINE
  5
4CC
330
18
100
AcDbEntity
  8
Object
100
AcDbLine
 10
16.777
 20
10.118
 30
0.0
 11
16.774
 21
10.115
 31
0.0
  0
LINE
  5
4CD
330
18
100
AcDbEntity
  8
Object
100
AcDbLine
 10
16.851
 20
10.2
 30
0.0
 11
16.721
 21
10.197
 31
0.0
  0
LINE
  5
4CE
330
18
100
AcDbEntity
  8
Object
100
AcDbLine
 10
16.693
 20
10.178
 30
0.0
 11
16.7
 21
10.188
 31
0.0
  0
LINE
  5
4CF
330
18
100
AcDbEntity
  8
Object
100
AcDbLine
 10
16.7
 20
10.188
 30
0.0
 11
16.71
 21
10.195
 31
0.0
  0
LINE
  5
4D0
330
18
100
AcDbEntity
  8
Object
100
AcDbLine
 10
16.774
 20
10.115
 30
0.0
 11
16.772
 21
10.112
 31
0.0
  0
LINE
  5
4D1
330
18
100
AcDbEntity
  8
Object
100
AcDbLine
 10
16.772
 20
10.112
 30
0.0
 11
16.771
 21
10.108
 31
0.0
  0
LINE
  5
4D2
330
18
100
AcDbEntity
  8
Object
100
AcDbLine
 10
16.771
 20
10.108
 30
0.0
 11
16.771
 21
10.1
 31
0.0
  0
LINE
  5
4D3
330
18
100
AcDbEntity
  8
Object
100
AcDbLine
 10
16.691
 20
10.102
 30
0.0
 11
16.691
 21
10.167
 31
0.0
  0
LINE
  5
4D4
330
18
100
AcDbEntity
  8
Object
100
AcDbLine
 10
16.691
 20
10.167
 30
0.0
 11
16.693
 21
10.178
 31
0.0
  0
LINE
  5
4D5
330
18
100
AcDbEntity
  8
Object
100
AcDbLine
 10
16.721
 20
10.197
 30
0.0
 11
16.71
 21
10.195
 31
0.0
  0
LINE
  5
4D6
330
18
100
AcDbEntity
  8
Object
100
AcDbLine
 10
18.612
 20
11.992
 30
0.0
 11
18.612
 21
11.993
 31
0.0
  0
LINE
  5
4D7
330
18
100
AcDbEntity
  8
Object
100
AcDbLine
 10
18.612
 20
10.321
 30
0.0
 11
18.612
 21
10.322
 31
0.0
  0
LINE
  5
4D8
330
18
100
AcDbEntity
  8
Object
100
AcDbLine
 10
18.541
 20
10.312
 30
0.0
 11
18.541
 21
10.311
 31
0.0
  0
LINE
  5
4D9
330
18
100
AcDbEntity
  8
Object
100
AcDbLine
 10
18.541
 20
10.311
 30
0.0
 11
18.541
 21
10.309
 31
0.0
  0
LINE
  5
4DA
330
18
100
AcDbEntity
  8
Object
100
AcDbLine
 10
18.541
 20
10.309
 30
0.0
 11
18.541
 21
10.305
 31
0.0
  0
LINE
  5
4DB
330
18
100
AcDbEntity
  8
Object
100
AcDbLine
 10
18.541
 20
10.305
 30
0.0
 11
18.541
 21
10.302
 31
0.0
  0
LINE
  5
4DC
330
18
100
AcDbEntity
  8
Object
100
AcDbLine
 10
18.541
 20
10.302
 30
0.0
 11
18.541
 21
10.229
 31
0.0
  0
LINE
  5
4DD
330
18
100
AcDbEntity
  8
Object
100
AcDbLine
 10
18.541
 20
12.084
 30
0.0
 11
18.541
 21
12.012
 31
0.0
  0
LINE
  5
4DE
330
18
100
AcDbEntity
  8
Object
100
AcDbLine
 10
18.541
 20
12.012
 30
0.0
 11
18.541
 21
12.008
 31
0.0
  0
LINE
  5
4DF
330
18
100
AcDbEntity
  8
Object
100
AcDbLine
 10
18.541
 20
12.008
 30
0.0
 11
18.541
 21
12.005
 31
0.0
  0
LINE
  5
4E0
330
18
100
AcDbEntity
  8
Object
100
AcDbLine
 10
18.541
 20
12.005
 30
0.0
 11
18.541
 21
12.002
 31
0.0
  0
LINE
  5
4E1
330
18
100
AcDbEntity
  8
Object
100
AcDbLine
 10
18.541
 20
11.962
 30
0.0
 11
18.541
 21
11.982
 31
0.0
  0
LINE
  5
4E2
330
18
100
AcDbEntity
  8
Object
100
AcDbLine
 10
18.541
 20
11.982
 30
0.0
 11
18.541
 21
11.996
 31
0.0
  0
LINE
  5
4E3
330
18
100
AcDbEntity
  8
Object
100
AcDbLine
 10
18.541
 20
11.962
 30
0.0
 11
18.541
 21
10.352
 31
0.0
  0
LINE
  5
4E4
330
18
100
AcDbEntity
  8
Object
100
AcDbLine
 10
18.541
 20
10.317
 30
0.0
 11
18.541
 21
10.332
 31
0.0
  0
LINE
  5
4E5
330
18
100
AcDbEntity
  8
Object
100
AcDbLine
 10
18.541
 20
10.332
 30
0.0
 11
18.541
 21
10.352
 31
0.0
  0
LINE
  5
4E6
330
18
100
AcDbEntity
  8
Object
100
AcDbLine
 10
18.541
 20
10.317
 30
0.0
 11
18.541
 21
10.312
 31
0.0
  0
LINE
  5
4E7
330
18
100
AcDbEntity
  8
Object
100
AcDbLine
 10
18.541
 20
12.002
 30
0.0
 11
18.541
 21
11.996
 31
0.0
  0
LINE
  5
4E8
330
18
100
AcDbEntity
  8
Object
100
AcDbLine
 10
18.541
 20
5.118
 30
0.0
 11
18.538
 21
5.102999999999999
 31
0.0
  0
LINE
  5
4E9
330
18
100
AcDbEntity
  8
Object
100
AcDbLine
 10
18.538
 20
5.102999999999999
 30
0.0
 11
18.53
 21
5.089999999999999
 31
0.0
  0
LINE
  5
4EA
330
18
100
AcDbEntity
  8
Object
100
AcDbLine
 10
18.537
 20
5.118
 30
0.0
 11
18.527
 21
5.118
 31
0.0
  0
LINE
  5
4EB
330
18
100
AcDbEntity
  8
Object
100
AcDbLine
 10
18.516
 20
5.081
 30
0.0
 11
18.53
 21
5.089999999999999
 31
0.0
  0
LINE
  5
4EC
330
18
100
AcDbEntity
  8
Object
100
AcDbLine
 10
18.527
 20
5.118
 30
0.0
 11
18.512
 21
5.118
 31
0.0
  0
LINE
  5
4ED
330
18
100
AcDbEntity
  8
Object
100
AcDbLine
 10
18.501
 20
5.078
 30
0.0
 11
18.516
 21
5.081
 31
0.0
  0
LINE
  5
4EE
330
18
100
AcDbEntity
  8
Object
100
AcDbLine
 10
17.808
 20
5.876999999999999
 30
0.0
 11
17.816
 21
5.828
 31
0.0
  0
LINE
  5
4EF
330
18
100
AcDbEntity
  8
Object
100
AcDbLine
 10
17.816
 20
5.828
 30
0.0
 11
17.815
 21
5.828
 31
0.0
  0
LINE
  5
4F0
330
18
100
AcDbEntity
  8
Object
100
AcDbLine
 10
17.808
 20
5.876999999999999
 30
0.0
 11
17.786
 21
5.921999999999999
 31
0.0
  0
LINE
  5
4F1
330
18
100
AcDbEntity
  8
Object
100
AcDbLine
 10
17.786
 20
5.921999999999999
 30
0.0
 11
17.75
 21
5.956999999999999
 31
0.0
  0
LINE
  5
4F2
330
18
100
AcDbEntity
  8
Object
100
AcDbLine
 10
17.75
 20
5.956999999999999
 30
0.0
 11
17.706
 21
5.98
 31
0.0
  0
LINE
  5
4F3
330
18
100
AcDbEntity
  8
Object
100
AcDbLine
 10
17.706
 20
5.98
 30
0.0
 11
17.656
 21
5.988
 31
0.0
  0
LINE
  5
4F4
330
18
100
AcDbEntity
  8
Object
100
AcDbLine
 10
17.816
 20
5.828
 30
0.0
 11
17.808
 21
5.778
 31
0.0
  0
LINE
  5
4F5
330
18
100
AcDbEntity
  8
Object
100
AcDbLine
 10
17.808
 20
5.778
 30
0.0
 11
17.786
 21
5.733999999999999
 31
0.0
  0
LINE
  5
4F6
330
18
100
AcDbEntity
  8
Object
100
AcDbLine
 10
17.786
 20
5.733999999999999
 30
0.0
 11
17.75
 21
5.698
 31
0.0
  0
LINE
  5
4F7
330
18
100
AcDbEntity
  8
Object
100
AcDbLine
 10
17.75
 20
5.698
 30
0.0
 11
17.706
 21
5.676
 31
0.0
  0
LINE
  5
4F8
330
18
100
AcDbEntity
  8
Object
100
AcDbLine
 10
17.706
 20
5.676
 30
0.0
 11
17.656
 21
5.668
 31
0.0
  0
LINE
  5
4F9
330
18
100
AcDbEntity
  8
Object
100
AcDbLine
 10
18.578
 20
12.164
 30
0.0
 11
18.541
 21
12.164
 31
0.0
  0
LINE
  5
4FA
330
18
100
AcDbEntity
  8
Object
100
AcDbLine
 10
16.781
 20
12.195
 30
0.0
 11
16.851
 21
12.194
 31
0.0
  0
LINE
  5
4FB
330
18
100
AcDbEntity
  8
Object
100
AcDbLine
 10
16.851
 20
12.194
 30
0.0
 11
16.781
 21
12.195
 31
0.0
  0
LINE
  5
4FC
330
18
100
AcDbEntity
  8
Object
100
AcDbLine
 10
18.541
 20
12.164
 30
0.0
 11
18.578
 21
12.164
 31
0.0
  0
LINE
  5
4FD
330
18
100
AcDbEntity
  8
Object
100
AcDbLine
 10
16.71
 20
12.118
 30
0.0
 11
16.706
 21
12.12
 31
0.0
  0
LINE
  5
4FE
330
18
100
AcDbEntity
  8
Object
100
AcDbLine
 10
16.706
 20
12.12
 30
0.0
 11
16.71
 21
12.118
 31
0.0
  0
LINE
  5
4FF
330
18
100
AcDbEntity
  8
Object
100
AcDbLine
 10
16.707
 20
12.12
 30
0.0
 11
16.706
 21
12.12
 31
0.0
  0
LINE
  5
500
330
18
100
AcDbEntity
  8
Object
100
AcDbLine
 10
16.706
 20
12.12
 30
0.0
 11
16.7
 21
12.125
 31
0.0
  0
LINE
  5
501
330
18
100
AcDbEntity
  8
Object
100
AcDbLine
 10
16.7
 20
12.125
 30
0.0
 11
16.706
 21
12.12
 31
0.0
  0
LINE
  5
502
330
18
100
AcDbEntity
  8
Object
100
AcDbLine
 10
16.697
 20
12.129
 30
0.0
 11
16.695
 21
12.131
 31
0.0
  0
LINE
  5
503
330
18
100
AcDbEntity
  8
Object
100
AcDbLine
 10
16.706
 20
12.12
 30
0.0
 11
16.703
 21
12.122
 31
0.0
  0
LINE
  5
504
330
18
100
AcDbEntity
  8
Object
100
AcDbLine
 10
16.695
 20
12.131
 30
0.0
 11
16.7
 21
12.125
 31
0.0
  0
LINE
  5
505
330
18
100
AcDbEntity
  8
Object
100
AcDbLine
 10
16.7
 20
12.125
 30
0.0
 11
16.695
 21
12.131
 31
0.0
  0
LINE
  5
506
330
18
100
AcDbEntity
  8
Object
100
AcDbLine
 10
16.695
 20
12.131
 30
0.0
 11
16.693
 21
12.135
 31
0.0
  0
LINE
  5
507
330
18
100
AcDbEntity
  8
Object
100
AcDbLine
 10
16.693
 20
12.135
 30
0.0
 11
16.695
 21
12.131
 31
0.0
  0
LINE
  5
508
330
18
100
AcDbEntity
  8
Object
100
AcDbLine
 10
16.695
 20
12.131
 30
0.0
 11
16.695
 21
12.133
 31
0.0
  0
LINE
  5
509
330
18
100
AcDbEntity
  8
Object
100
AcDbLine
 10
16.781
 20
12.195
 30
0.0
 11
16.851
 21
12.194
 31
0.0
  0
LINE
  5
50A
330
18
100
AcDbEntity
  8
Object
100
AcDbLine
 10
16.851
 20
12.194
 30
0.0
 11
16.851
 21
12.193
 31
0.0
  0
LINE
  5
50B
330
18
100
AcDbEntity
  8
Object
100
AcDbLine
 10
16.851
 20
12.184
 30
0.0
 11
16.851
 21
12.114
 31
0.0
  0
LINE
  5
50C
330
18
100
AcDbEntity
  8
Object
100
AcDbLine
 10
16.851
 20
12.255
 30
0.0
 11
16.851
 21
12.244
 31
0.0
  0
LINE
  5
50D
330
18
100
AcDbEntity
  8
Object
100
AcDbLine
 10
16.851
 20
12.244
 30
0.0
 11
16.851
 21
12.194
 31
0.0
  0
LINE
  5
50E
330
18
100
AcDbEntity
  8
Object
100
AcDbLine
 10
16.851
 20
12.193
 30
0.0
 11
16.851
 21
12.191
 31
0.0
  0
LINE
  5
50F
330
18
100
AcDbEntity
  8
Object
100
AcDbLine
 10
16.851
 20
12.191
 30
0.0
 11
16.851
 21
12.188
 31
0.0
  0
LINE
  5
510
330
18
100
AcDbEntity
  8
Object
100
AcDbLine
 10
16.851
 20
12.188
 30
0.0
 11
16.851
 21
12.184
 31
0.0
  0
LINE
  5
511
330
18
100
AcDbEntity
  8
Object
100
AcDbLine
 10
16.851
 20
12.194
 30
0.0
 11
16.781
 21
12.195
 31
0.0
  0
LINE
  5
512
330
18
100
AcDbEntity
  8
Object
100
AcDbLine
 10
16.774
 20
12.198
 30
0.0
 11
16.777
 21
12.196
 31
0.0
  0
LINE
  5
513
330
18
100
AcDbEntity
  8
Object
100
AcDbLine
 10
16.777
 20
12.196
 30
0.0
 11
16.781
 21
12.195
 31
0.0
  0
LINE
  5
514
330
18
100
AcDbEntity
  8
Object
100
AcDbLine
 10
16.721
 20
12.116
 30
0.0
 11
16.851
 21
12.114
 31
0.0
  0
LINE
  5
515
330
18
100
AcDbEntity
  8
Object
100
AcDbLine
 10
16.71
 20
12.118
 30
0.0
 11
16.7
 21
12.125
 31
0.0
  0
LINE
  5
516
330
18
100
AcDbEntity
  8
Object
100
AcDbLine
 10
16.7
 20
12.125
 30
0.0
 11
16.693
 21
12.135
 31
0.0
  0
LINE
  5
517
330
18
100
AcDbEntity
  8
Object
100
AcDbLine
 10
16.71
 20
12.118
 30
0.0
 11
16.721
 21
12.116
 31
0.0
  0
LINE
  5
518
330
18
100
AcDbEntity
  8
Object
100
AcDbLine
 10
16.693
 20
12.135
 30
0.0
 11
16.691
 21
12.146
 31
0.0
  0
LINE
  5
519
330
18
100
AcDbEntity
  8
Object
100
AcDbLine
 10
16.691
 20
12.146
 30
0.0
 11
16.691
 21
12.214
 31
0.0
  0
LINE
  5
51A
330
18
100
AcDbEntity
  8
Object
100
AcDbLine
 10
16.771
 20
12.216
 30
0.0
 11
16.771
 21
12.205
 31
0.0
  0
LINE
  5
51B
330
18
100
AcDbEntity
  8
Object
100
AcDbLine
 10
16.771
 20
12.205
 30
0.0
 11
16.772
 21
12.201
 31
0.0
  0
LINE
  5
51C
330
18
100
AcDbEntity
  8
Object
100
AcDbLine
 10
16.772
 20
12.201
 30
0.0
 11
16.774
 21
12.198
 31
0.0
  0
LINE
  5
51D
330
18
100
AcDbEntity
  8
Object
100
AcDbLine
 10
16.721
 20
12.116
 30
0.0
 11
16.71
 21
12.118
 31
0.0
  0
LINE
  5
51E
330
18
100
AcDbEntity
  8
Object
100
AcDbLine
 10
16.71
 20
12.118
 30
0.0
 11
16.7
 21
12.125
 31
0.0
  0
LINE
  5
51F
330
18
100
AcDbEntity
  8
Object
100
AcDbLine
 10
16.7
 20
12.125
 30
0.0
 11
16.693
 21
12.135
 31
0.0
  0
LINE
  5
520
330
18
100
AcDbEntity
  8
Object
100
AcDbLine
 10
16.693
 20
12.135
 30
0.0
 11
16.691
 21
12.146
 31
0.0
  0
LINE
  5
521
330
18
100
AcDbEntity
  8
Object
100
AcDbLine
 10
17.939
 20
12.095
 30
0.0
 11
17.938
 21
12.095
 31
0.0
  0
LINE
  5
522
330
18
100
AcDbEntity
  8
Object
100
AcDbLine
 10
17.938
 20
12.095
 30
0.0
 11
17.937
 21
12.095
 31
0.0
  0
LINE
  5
523
330
18
100
AcDbEntity
  8
Object
100
AcDbLine
 10
18.541
 20
12.154
 30
0.0
 11
18.541
 21
12.084
 31
0.0
  0
LINE
  5
524
330
18
100
AcDbEntity
  8
Object
100
AcDbLine
 10
18.541
 20
12.084
 30
0.0
 11
16.851
 21
12.114
 31
0.0
  0
LINE
  5
525
330
18
100
AcDbEntity
  8
Object
100
AcDbLine
 10
16.851
 20
12.114
 30
0.0
 11
16.851
 21
12.184
 31
0.0
  0
LINE
  5
526
330
18
100
AcDbEntity
  8
Object
100
AcDbLine
 10
16.851
 20
12.184
 30
0.0
 11
18.541
 21
12.154
 31
0.0
  0
LINE
  5
527
330
18
100
AcDbEntity
  8
Object
100
AcDbLine
 10
18.541
 20
12.164
 30
0.0
 11
18.541
 21
12.215
 31
0.0
  0
LINE
  5
528
330
18
100
AcDbEntity
  8
Object
100
AcDbLine
 10
18.541
 20
12.158
 30
0.0
 11
18.541
 21
12.161
 31
0.0
  0
LINE
  5
529
330
18
100
AcDbEntity
  8
Object
100
AcDbLine
 10
18.541
 20
12.161
 30
0.0
 11
18.541
 21
12.164
 31
0.0
  0
LINE
  5
52A
330
18
100
AcDbEntity
  8
Object
100
AcDbLine
 10
18.541
 20
12.161
 30
0.0
 11
18.541
 21
12.154
 31
0.0
  0
LINE
  5
52B
330
18
100
AcDbEntity
  8
Object
100
AcDbLine
 10
18.541
 20
12.154
 30
0.0
 11
18.541
 21
12.158
 31
0.0
  0
LINE
  5
52C
330
18
100
AcDbEntity
  8
Object
100
AcDbLine
 10
18.541
 20
10.15
 30
0.0
 11
18.541
 21
10.152
 31
0.0
  0
LINE
  5
52D
330
18
100
AcDbEntity
  8
Object
100
AcDbLine
 10
18.541
 20
10.152
 30
0.0
 11
18.541
 21
10.155
 31
0.0
  0
LINE
  5
52E
330
18
100
AcDbEntity
  8
Object
100
AcDbLine
 10
18.541
 20
10.155
 30
0.0
 11
18.541
 21
10.159
 31
0.0
  0
LINE
  5
52F
330
18
100
AcDbEntity
  8
Object
100
AcDbLine
 10
18.541
 20
10.159
 30
0.0
 11
18.541
 21
10.152
 31
0.0
  0
LINE
  5
530
330
18
100
AcDbEntity
  8
Object
100
AcDbLine
 10
18.541
 20
10.15
 30
0.0
 11
18.541
 21
10.149
 31
0.0
  0
LINE
  5
531
330
18
100
AcDbEntity
  8
Object
100
AcDbLine
 10
18.541
 20
10.149
 30
0.0
 11
18.541
 21
10.098
 31
0.0
  0
LINE
  5
532
330
18
100
AcDbEntity
  8
Object
100
AcDbLine
 10
18.631
 20
11.972
 30
0.0
 11
18.628
 21
11.986
 31
0.0
  0
LINE
  5
533
330
18
100
AcDbEntity
  8
Object
100
AcDbLine
 10
18.626
 20
11.972
 30
0.0
 11
18.623
 21
11.972
 31
0.0
  0
LINE
  5
534
330
18
100
AcDbEntity
  8
Object
100
AcDbLine
 10
18.623
 20
11.972
 30
0.0
 11
18.621
 21
11.972
 31
0.0
  0
LINE
  5
535
330
18
100
AcDbEntity
  8
Object
100
AcDbLine
 10
18.621
 20
11.972
 30
0.0
 11
18.619
 21
11.983
 31
0.0
  0
LINE
  5
536
330
18
100
AcDbEntity
  8
Object
100
AcDbLine
 10
18.619
 20
11.983
 30
0.0
 11
18.618
 21
11.985
 31
0.0
  0
LINE
  5
537
330
18
100
AcDbEntity
  8
Object
100
AcDbLine
 10
18.614
 20
11.989
 30
0.0
 11
18.612
 21
11.993
 31
0.0
  0
LINE
  5
538
330
18
100
AcDbEntity
  8
Object
100
AcDbLine
 10
18.612
 20
11.993
 30
0.0
 11
18.609
 21
11.995
 31
0.0
  0
LINE
  5
539
330
18
100
AcDbEntity
  8
Object
100
AcDbLine
 10
18.604
 20
11.998
 30
0.0
 11
18.602
 21
12.0
 31
0.0
  0
LINE
  5
53A
330
18
100
AcDbEntity
  8
Object
100
AcDbLine
 10
18.602
 20
12.0
 30
0.0
 11
18.591
 21
12.002
 31
0.0
  0
LINE
  5
53B
330
18
100
AcDbEntity
  8
Object
100
AcDbLine
 10
18.541
 20
12.008
 30
0.0
 11
18.541
 21
12.005
 31
0.0
  0
LINE
  5
53C
330
18
100
AcDbEntity
  8
Object
100
AcDbLine
 10
18.591
 20
12.007
 30
0.0
 11
18.591
 21
12.003
 31
0.0
  0
LINE
  5
53D
330
18
100
AcDbEntity
  8
Object
100
AcDbLine
 10
18.591
 20
12.003
 30
0.0
 11
18.591
 21
12.002
 31
0.0
  0
LINE
  5
53E
330
18
100
AcDbEntity
  8
Object
100
AcDbLine
 10
18.541
 20
12.002
 30
0.0
 11
18.541
 21
12.005
 31
0.0
  0
LINE
  5
53F
330
18
100
AcDbEntity
  8
Object
100
AcDbLine
 10
18.591
 20
12.007
 30
0.0
 11
18.591
 21
12.012
 31
0.0
  0
LINE
  5
540
330
18
100
AcDbEntity
  8
Object
100
AcDbLine
 10
18.541
 20
12.012
 30
0.0
 11
18.541
 21
12.008
 31
0.0
  0
LINE
  5
541
330
18
100
AcDbEntity
  8
Object
100
AcDbLine
 10
18.626
 20
10.342
 30
0.0
 11
18.631
 21
10.342
 31
0.0
  0
LINE
  5
542
330
18
100
AcDbEntity
  8
Object
100
AcDbLine
 10
18.631
 20
10.342
 30
0.0
 11
18.628
 21
10.327
 31
0.0
  0
LINE
  5
543
330
18
100
AcDbEntity
  8
Object
100
AcDbLine
 10
18.626
 20
10.342
 30
0.0
 11
18.623
 21
10.342
 31
0.0
  0
LINE
  5
544
330
18
100
AcDbEntity
  8
Object
100
AcDbLine
 10
18.619
 20
10.331
 30
0.0
 11
18.621
 21
10.342
 31
0.0
  0
LINE
  5
545
330
18
100
AcDbEntity
  8
Object
100
AcDbLine
 10
18.621
 20
10.342
 30
0.0
 11
18.623
 21
10.342
 31
0.0
  0
LINE
  5
546
330
18
100
AcDbEntity
  8
Object
100
AcDbLine
 10
18.614
 20
10.324
 30
0.0
 11
18.612
 21
10.321
 31
0.0
  0
LINE
  5
547
330
18
100
AcDbEntity
  8
Object
100
AcDbLine
 10
18.619
 20
10.331
 30
0.0
 11
18.618
 21
10.328
 31
0.0
  0
LINE
  5
548
330
18
100
AcDbEntity
  8
Object
100
AcDbLine
 10
18.604
 20
10.315
 30
0.0
 11
18.602
 21
10.314
 31
0.0
  0
LINE
  5
549
330
18
100
AcDbEntity
  8
Object
100
AcDbLine
 10
18.612
 20
10.321
 30
0.0
 11
18.609
 21
10.318
 31
0.0
  0
LINE
  5
54A
330
18
100
AcDbEntity
  8
Object
100
AcDbLine
 10
18.602
 20
10.314
 30
0.0
 11
18.591
 21
10.312
 31
0.0
  0
LINE
  5
54B
330
18
100
AcDbEntity
  8
Object
100
AcDbLine
 10
18.541
 20
10.311
 30
0.0
 11
18.541
 21
10.309
 31
0.0
  0
LINE
  5
54C
330
18
100
AcDbEntity
  8
Object
100
AcDbLine
 10
18.591
 20
10.31
 30
0.0
 11
18.591
 21
10.307
 31
0.0
  0
LINE
  5
54D
330
18
100
AcDbEntity
  8
Object
100
AcDbLine
 10
18.591
 20
10.307
 30
0.0
 11
18.591
 21
10.302
 31
0.0
  0
LINE
  5
54E
330
18
100
AcDbEntity
  8
Object
100
AcDbLine
 10
18.541
 20
10.302
 30
0.0
 11
18.541
 21
10.305
 31
0.0
  0
LINE
  5
54F
330
18
100
AcDbEntity
  8
Object
100
AcDbLine
 10
18.541
 20
10.305
 30
0.0
 11
18.541
 21
10.309
 31
0.0
  0
LINE
  5
550
330
18
100
AcDbEntity
  8
Object
100
AcDbLine
 10
18.591
 20
10.31
 30
0.0
 11
18.591
 21
10.312
 31
0.0
  0
LINE
  5
551
330
18
100
AcDbEntity
  8
Object
100
AcDbLine
 10
18.541
 20
10.312
 30
0.0
 11
18.541
 21
10.311
 31
0.0
  0
LINE
  5
552
330
18
100
AcDbEntity
  8
Object
100
AcDbLine
 10
18.626
 20
11.972
 30
0.0
 11
18.631
 21
11.972
 31
0.0
  0
LINE
  5
553
330
18
100
AcDbEntity
  8
Object
100
AcDbLine
 10
18.631
 20
11.972
 30
0.0
 11
18.631
 21
10.342
 31
0.0
  0
LINE
  5
554
330
18
100
AcDbEntity
  8
Object
100
AcDbLine
 10
16.781
 20
10.118
 30
0.0
 11
16.777
 21
10.118
 31
0.0
  0
LINE
  5
555
330
18
100
AcDbEntity
  8
Object
100
AcDbLine
 10
16.777
 20
10.118
 30
0.0
 11
16.774
 21
10.115
 31
0.0
  0
LINE
  5
556
330
18
100
AcDbEntity
  8
Object
100
AcDbLine
 10
16.774
 20
10.115
 30
0.0
 11
16.772
 21
10.112
 31
0.0
  0
LINE
  5
557
330
18
100
AcDbEntity
  8
Object
100
AcDbLine
 10
16.772
 20
10.112
 30
0.0
 11
16.771
 21
10.108
 31
0.0
  0
LINE
  5
558
330
18
100
AcDbEntity
  8
Object
100
AcDbLine
 10
18.541
 20
10.149
 30
0.0
 11
18.538
 21
10.149
 31
0.0
  0
LINE
  5
559
330
18
100
AcDbEntity
  8
Object
100
AcDbLine
 10
18.538
 20
10.149
 30
0.0
 11
18.53
 21
10.149
 31
0.0
  0
LINE
  5
55A
330
18
100
AcDbEntity
  8
Object
100
AcDbLine
 10
18.53
 20
10.149
 30
0.0
 11
18.516
 21
10.149
 31
0.0
  0
LINE
  5
55B
330
18
100
AcDbEntity
  8
Object
100
AcDbLine
 10
18.516
 20
10.149
 30
0.0
 11
18.501
 21
10.148
 31
0.0
  0
LINE
  5
55C
330
18
100
AcDbEntity
  8
Object
100
AcDbLine
 10
17.671
 20
10.134
 30
0.0
 11
17.655
 21
10.134
 31
0.0
  0
LINE
  5
55D
330
18
100
AcDbEntity
  8
Object
100
AcDbLine
 10
17.655
 20
10.134
 30
0.0
 11
17.613
 21
10.133
 31
0.0
  0
LINE
  5
55E
330
18
100
AcDbEntity
  8
Object
100
AcDbLine
 10
18.501
 20
10.148
 30
0.0
 11
16.851
 21
10.12
 31
0.0
  0
LINE
  5
55F
330
18
100
AcDbEntity
  8
Object
100
AcDbLine
 10
16.851
 20
10.12
 30
0.0
 11
18.541
 21
10.149
 31
0.0
  0
LINE
  5
560
330
18
100
AcDbEntity
  8
Object
100
AcDbLine
 10
18.537
 20
10.084
 30
0.0
 11
18.539
 21
10.087
 31
0.0
  0
LINE
  5
561
330
18
100
AcDbEntity
  8
Object
100
AcDbLine
 10
18.533
 20
10.078
 30
0.0
 11
18.536
 21
10.082
 31
0.0
  0
LINE
  5
562
330
18
100
AcDbEntity
  8
Object
100
AcDbLine
 10
18.539
 20
10.087
 30
0.0
 11
18.541
 21
10.098
 31
0.0
  0
LINE
  5
563
330
18
100
AcDbEntity
  8
Object
100
AcDbLine
 10
18.531
 20
10.077
 30
0.0
 11
18.533
 21
10.078
 31
0.0
  0
LINE
  5
564
330
18
100
AcDbEntity
  8
Object
100
AcDbLine
 10
18.515
 20
10.069
 30
0.0
 11
18.523
 21
10.071
 31
0.0
  0
LINE
  5
565
330
18
100
AcDbEntity
  8
Object
100
AcDbLine
 10
18.528
 20
10.074
 30
0.0
 11
18.533
 21
10.078
 31
0.0
  0
LINE
  5
566
330
18
100
AcDbEntity
  8
Object
100
AcDbLine
 10
18.523
 20
10.071
 30
0.0
 11
18.525
 21
10.072
 31
0.0
  0
LINE
  5
567
330
18
100
AcDbEntity
  8
Object
100
AcDbLine
 10
18.511
 20
10.068
 30
0.0
 11
18.509
 21
10.068
 31
0.0
  0
LINE
  5
568
330
18
100
AcDbEntity
  8
Object
100
AcDbLine
 10
18.509
 20
10.068
 30
0.0
 11
18.505
 21
10.068
 31
0.0
  0
LINE
  5
569
330
18
100
AcDbEntity
  8
Object
100
AcDbLine
 10
18.505
 20
10.068
 30
0.0
 11
18.502
 21
10.068
 31
0.0
  0
LINE
  5
56A
330
18
100
AcDbEntity
  8
Object
100
AcDbLine
 10
17.816
 20
10.056
 30
0.0
 11
17.808
 21
10.056
 31
0.0
  0
LINE
  5
56B
330
18
100
AcDbEntity
  8
Object
100
AcDbLine
 10
17.808
 20
10.056
 30
0.0
 11
17.786
 21
10.056
 31
0.0
  0
LINE
  5
56C
330
18
100
AcDbEntity
  8
Object
100
AcDbLine
 10
17.786
 20
10.056
 30
0.0
 11
17.75
 21
10.055
 31
0.0
  0
LINE
  5
56D
330
18
100
AcDbEntity
  8
Object
100
AcDbLine
 10
17.75
 20
10.055
 30
0.0
 11
17.706
 21
10.054
 31
0.0
  0
LINE
  5
56E
330
18
100
AcDbEntity
  8
Object
100
AcDbLine
 10
17.706
 20
10.054
 30
0.0
 11
17.67
 21
10.054
 31
0.0
  0
LINE
  5
56F
330
18
100
AcDbEntity
  8
Object
100
AcDbLine
 10
17.622
 20
10.053
 30
0.0
 11
17.607
 21
10.053
 31
0.0
  0
LINE
  5
570
330
18
100
AcDbEntity
  8
Object
100
AcDbLine
 10
17.607
 20
10.053
 30
0.0
 11
17.562
 21
10.052
 31
0.0
  0
LINE
  5
571
330
18
100
AcDbEntity
  8
Object
100
AcDbLine
 10
17.562
 20
10.052
 30
0.0
 11
17.527
 21
10.051
 31
0.0
  0
LINE
  5
572
330
18
100
AcDbEntity
  8
Object
100
AcDbLine
 10
17.527
 20
10.051
 30
0.0
 11
17.504
 21
10.051
 31
0.0
  0
LINE
  5
573
330
18
100
AcDbEntity
  8
Object
100
AcDbLine
 10
17.504
 20
10.051
 30
0.0
 11
17.496
 21
10.051
 31
0.0
  0
LINE
  5
574
330
18
100
AcDbEntity
  8
Object
100
AcDbLine
 10
16.954
 20
10.041
 30
0.0
 11
18.502
 21
10.068
 31
0.0
  0
LINE
  5
575
330
18
100
AcDbEntity
  8
Object
100
AcDbLine
 10
16.851
 20
10.12
 30
0.0
 11
18.501
 21
10.148
 31
0.0
  0
LINE
  5
576
330
18
100
AcDbEntity
  8
Object
100
AcDbLine
 10
18.501
 20
10.148
 30
0.0
 11
18.501
 21
10.098
 31
0.0
  0
LINE
  5
577
330
18
100
AcDbEntity
  8
Object
100
AcDbLine
 10
18.501
 20
10.098
 30
0.0
 11
16.851
 21
10.07
 31
0.0
  0
LINE
  5
578
330
18
100
AcDbEntity
  8
Object
100
AcDbLine
 10
16.851
 20
10.07
 30
0.0
 11
16.851
 21
10.12
 31
0.0
  0
LINE
  5
579
330
18
100
AcDbEntity
  8
Object
100
AcDbLine
 10
18.541
 20
10.15
 30
0.0
 11
18.541
 21
10.152
 31
0.0
  0
LINE
  5
57A
330
18
100
AcDbEntity
  8
Object
100
AcDbLine
 10
16.851
 20
10.12
 30
0.0
 11
16.851
 21
10.122
 31
0.0
  0
LINE
  5
57B
330
18
100
AcDbEntity
  8
Object
100
AcDbLine
 10
16.851
 20
10.122
 30
0.0
 11
16.851
 21
10.126
 31
0.0
  0
LINE
  5
57C
330
18
100
AcDbEntity
  8
Object
100
AcDbLine
 10
16.851
 20
10.126
 30
0.0
 11
16.851
 21
10.13
 31
0.0
  0
LINE
  5
57D
330
18
100
AcDbEntity
  8
Object
100
AcDbLine
 10
18.541
 20
10.159
 30
0.0
 11
18.541
 21
10.155
 31
0.0
  0
LINE
  5
57E
330
18
100
AcDbEntity
  8
Object
100
AcDbLine
 10
18.541
 20
10.155
 30
0.0
 11
18.541
 21
10.152
 31
0.0
  0
LINE
  5
57F
330
18
100
AcDbEntity
  8
Object
100
AcDbLine
 10
16.847
 20
10.12
 30
0.0
 11
16.856
 21
10.12
 31
0.0
  0
LINE
  5
580
330
18
100
AcDbEntity
  8
Object
100
AcDbLine
 10
18.541
 20
10.15
 30
0.0
 11
18.541
 21
10.149
 31
0.0
  0
LINE
  5
581
330
18
100
AcDbEntity
  8
Object
100
AcDbLine
 10
18.541
 20
10.149
 30
0.0
 11
16.851
 21
10.12
 31
0.0
  0
LINE
  5
582
330
18
100
AcDbEntity
  8
Object
100
AcDbLine
 10
18.501
 20
10.083
 30
0.0
 11
18.502
 21
10.072
 31
0.0
  0
LINE
  5
583
330
18
100
AcDbEntity
  8
Object
100
AcDbLine
 10
18.502
 20
10.072
 30
0.0
 11
18.502
 21
10.068
 31
0.0
  0
LINE
  5
584
330
18
100
AcDbEntity
  8
Object
100
AcDbLine
 10
18.502
 20
10.068
 30
0.0
 11
16.954
 21
10.041
 31
0.0
  0
LINE
  5
585
330
18
100
AcDbEntity
  8
Object
100
AcDbLine
 10
18.501
 20
10.083
 30
0.0
 11
18.501
 21
10.098
 31
0.0
  0
LINE
  5
586
330
18
100
AcDbEntity
  8
Object
100
AcDbLine
 10
16.851
 20
10.07
 30
0.0
 11
16.851
 21
10.058
 31
0.0
  0
LINE
  5
587
330
18
100
AcDbEntity
  8
Object
100
AcDbLine
 10
16.691
 20
10.167
 30
0.0
 11
16.691
 21
10.102
 31
0.0
  0
LINE
  5
588
330
18
100
AcDbEntity
  8
Object
100
AcDbLine
 10
16.691
 20
10.031
 30
0.0
 11
16.691
 21
9.987
 31
0.0
  0
LINE
  5
589
330
18
100
AcDbEntity
  8
Object
100
AcDbLine
 10
16.691
 20
9.987
 30
0.0
 11
16.691
 21
9.971999999999999
 31
0.0
  0
LINE
  5
58A
330
18
100
AcDbEntity
  8
Object
100
AcDbLine
 10
16.691
 20
9.948999999999999
 30
0.0
 11
16.691
 21
9.958
 31
0.0
  0
LINE
  5
58B
330
18
100
AcDbEntity
  8
Object
100
AcDbLine
 10
16.691
 20
9.958
 30
0.0
 11
16.691
 21
9.971999999999999
 31
0.0
  0
LINE
  5
58C
330
18
100
AcDbEntity
  8
Object
100
AcDbLine
 10
16.691
 20
9.948999999999999
 30
0.0
 11
16.691
 21
9.947
 31
0.0
  0
LINE
  5
58D
330
18
100
AcDbEntity
  8
Object
100
AcDbLine
 10
16.771
 20
9.948999999999999
 30
0.0
 11
16.771
 21
9.951999999999999
 31
0.0
  0
LINE
  5
58E
330
18
100
AcDbEntity
  8
Object
100
AcDbLine
 10
16.771
 20
9.951999999999999
 30
0.0
 11
16.771
 21
9.961
 31
0.0
  0
LINE
  5
58F
330
18
100
AcDbEntity
  8
Object
100
AcDbLine
 10
16.771
 20
9.961
 30
0.0
 11
16.771
 21
9.974999999999999
 31
0.0
  0
LINE
  5
590
330
18
100
AcDbEntity
  8
Object
100
AcDbLine
 10
16.771
 20
9.974999999999999
 30
0.0
 11
16.771
 21
9.989
 31
0.0
  0
LINE
  5
591
330
18
100
AcDbEntity
  8
Object
100
AcDbLine
 10
16.771
 20
9.989
 30
0.0
 11
16.771
 21
10.028
 31
0.0
  0
LINE
  5
592
330
18
100
AcDbEntity
  8
Object
100
AcDbLine
 10
16.771
 20
10.1
 30
0.0
 11
16.771
 21
10.108
 31
0.0
  0
LINE
  5
593
330
18
100
AcDbEntity
  8
Object
100
AcDbLine
 10
18.591
 20
10.317
 30
0.0
 11
18.591
 21
10.332
 31
0.0
  0
LINE
  5
594
330
18
100
AcDbEntity
  8
Object
100
AcDbLine
 10
18.541
 20
10.332
 30
0.0
 11
18.541
 21
10.352
 31
0.0
  0
LINE
  5
595
330
18
100
AcDbEntity
  8
Object
100
AcDbLine
 10
18.541
 20
10.352
 30
0.0
 11
18.591
 21
10.352
 31
0.0
  0
LINE
  5
596
330
18
100
AcDbEntity
  8
Object
100
AcDbLine
 10
18.591
 20
10.352
 30
0.0
 11
18.591
 21
10.332
 31
0.0
  0
LINE
  5
597
330
18
100
AcDbEntity
  8
Object
100
AcDbLine
 10
18.541
 20
10.332
 30
0.0
 11
18.541
 21
10.317
 31
0.0
  0
LINE
  5
598
330
18
100
AcDbEntity
  8
Object
100
AcDbLine
 10
18.591
 20
10.317
 30
0.0
 11
18.591
 21
10.312
 31
0.0
  0
LINE
  5
599
330
18
100
AcDbEntity
  8
Object
100
AcDbLine
 10
18.591
 20
10.312
 30
0.0
 11
18.541
 21
10.312
 31
0.0
  0
LINE
  5
59A
330
18
100
AcDbEntity
  8
Object
100
AcDbLine
 10
18.541
 20
10.312
 30
0.0
 11
18.541
 21
10.317
 31
0.0
  0
LINE
  5
59B
330
18
100
AcDbEntity
  8
Object
100
AcDbLine
 10
18.591
 20
12.002
 30
0.0
 11
18.541
 21
12.002
 31
0.0
  0
LINE
  5
59C
330
18
100
AcDbEntity
  8
Object
100
AcDbLine
 10
18.541
 20
10.312
 30
0.0
 11
18.591
 21
10.312
 31
0.0
  0
LINE
  5
59D
330
18
100
AcDbEntity
  8
Object
100
AcDbLine
 10
18.591
 20
11.982
 30
0.0
 11
18.591
 21
11.996
 31
0.0
  0
LINE
  5
59E
330
18
100
AcDbEntity
  8
Object
100
AcDbLine
 10
18.541
 20
11.982
 30
0.0
 11
18.541
 21
11.996
 31
0.0
  0
LINE
  5
59F
330
18
100
AcDbEntity
  8
Object
100
AcDbLine
 10
18.541
 20
11.996
 30
0.0
 11
18.541
 21
12.002
 31
0.0
  0
LINE
  5
5A0
330
18
100
AcDbEntity
  8
Object
100
AcDbLine
 10
18.541
 20
12.002
 30
0.0
 11
18.591
 21
12.002
 31
0.0
  0
LINE
  5
5A1
330
18
100
AcDbEntity
  8
Object
100
AcDbLine
 10
18.591
 20
12.002
 30
0.0
 11
18.591
 21
11.996
 31
0.0
  0
LINE
  5
5A2
330
18
100
AcDbEntity
  8
Object
100
AcDbLine
 10
18.541
 20
11.982
 30
0.0
 11
18.541
 21
11.962
 31
0.0
  0
LINE
  5
5A3
330
18
100
AcDbEntity
  8
Object
100
AcDbLine
 10
18.591
 20
11.962
 30
0.0
 11
18.591
 21
11.982
 31
0.0
  0
LINE
  5
5A4
330
18
100
AcDbEntity
  8
Object
100
AcDbLine
 10
18.541
 20
10.352
 30
0.0
 11
18.541
 21
11.962
 31
0.0
  0
LINE
  5
5A5
330
18
100
AcDbEntity
  8
Object
100
AcDbLine
 10
18.541
 20
11.962
 30
0.0
 11
18.591
 21
11.962
 31
0.0
  0
LINE
  5
5A6
330
18
100
AcDbEntity
  8
Object
100
AcDbLine
 10
18.591
 20
11.962
 30
0.0
 11
18.591
 21
10.352
 31
0.0
  0
LINE
  5
5A7
330
18
100
AcDbEntity
  8
Object
100
AcDbLine
 10
16.781
 20
12.195
 30
0.0
 11
16.777
 21
12.196
 31
0.0
  0
LINE
  5
5A8
330
18
100
AcDbEntity
  8
Object
100
AcDbLine
 10
16.777
 20
12.196
 30
0.0
 11
16.774
 21
12.198
 31
0.0
  0
LINE
  5
5A9
330
18
100
AcDbEntity
  8
Object
100
AcDbLine
 10
16.774
 20
12.198
 30
0.0
 11
16.772
 21
12.201
 31
0.0
  0
LINE
  5
5AA
330
18
100
AcDbEntity
  8
Object
100
AcDbLine
 10
16.772
 20
12.201
 30
0.0
 11
16.771
 21
12.205
 31
0.0
  0
LINE
  5
5AB
330
18
100
AcDbEntity
  8
Object
100
AcDbLine
 10
16.691
 20
12.342
 30
0.0
 11
16.691
 21
12.327
 31
0.0
  0
LINE
  5
5AC
330
18
100
AcDbEntity
  8
Object
100
AcDbLine
 10
16.691
 20
12.367
 30
0.0
 11
16.691
 21
12.364
 31
0.0
  0
LINE
  5
5AD
330
18
100
AcDbEntity
  8
Object
100
AcDbLine
 10
16.691
 20
12.364
 30
0.0
 11
16.691
 21
12.355
 31
0.0
  0
LINE
  5
5AE
330
18
100
AcDbEntity
  8
Object
100
AcDbLine
 10
16.691
 20
12.355
 30
0.0
 11
16.691
 21
12.342
 31
0.0
  0
LINE
  5
5AF
330
18
100
AcDbEntity
  8
Object
100
AcDbLine
 10
16.691
 20
12.327
 30
0.0
 11
16.691
 21
12.285
 31
0.0
  0
LINE
  5
5B0
330
18
100
AcDbEntity
  8
Object
100
AcDbLine
 10
16.691
 20
12.214
 30
0.0
 11
16.691
 21
12.146
 31
0.0
  0
LINE
  5
5B1
330
18
100
AcDbEntity
  8
Object
100
AcDbLine
 10
16.771
 20
12.288
 30
0.0
 11
16.771
 21
12.324
 31
0.0
  0
LINE
  5
5B2
330
18
100
AcDbEntity
  8
Object
100
AcDbLine
 10
16.771
 20
12.324
 30
0.0
 11
16.771
 21
12.339
 31
0.0
  0
LINE
  5
5B3
330
18
100
AcDbEntity
  8
Object
100
AcDbLine
 10
16.771
 20
12.361
 30
0.0
 11
16.771
 21
12.352
 31
0.0
  0
LINE
  5
5B4
330
18
100
AcDbEntity
  8
Object
100
AcDbLine
 10
16.771
 20
12.352
 30
0.0
 11
16.771
 21
12.339
 31
0.0
  0
LINE
  5
5B5
330
18
100
AcDbEntity
  8
Object
100
AcDbLine
 10
16.771
 20
12.361
 30
0.0
 11
16.771
 21
12.364
 31
0.0
  0
LINE
  5
5B6
330
18
100
AcDbEntity
  8
Object
100
AcDbLine
 10
16.771
 20
12.205
 30
0.0
 11
16.771
 21
12.216
 31
0.0
  0
LINE
  5
5B7
330
18
100
AcDbEntity
  8
Object
100
AcDbLine
 10
18.541
 20
12.158
 30
0.0
 11
18.541
 21
12.161
 31
0.0
  0
LINE
  5
5B8
330
18
100
AcDbEntity
  8
Object
100
AcDbLine
 10
16.851
 20
12.188
 30
0.0
 11
16.851
 21
12.191
 31
0.0
  0
LINE
  5
5B9
330
18
100
AcDbEntity
  8
Object
100
AcDbLine
 10
16.851
 20
12.191
 30
0.0
 11
16.851
 21
12.193
 31
0.0
  0
LINE
  5
5BA
330
18
100
AcDbEntity
  8
Object
100
AcDbLine
 10
16.851
 20
12.193
 30
0.0
 11
16.851
 21
12.194
 31
0.0
  0
LINE
  5
5BB
330
18
100
AcDbEntity
  8
Object
100
AcDbLine
 10
16.851
 20
12.194
 30
0.0
 11
18.537
 21
12.164
 31
0.0
  0
LINE
  5
5BC
330
18
100
AcDbEntity
  8
Object
100
AcDbLine
 10
18.541
 20
12.164
 30
0.0
 11
18.541
 21
12.161
 31
0.0
  0
LINE
  5
5BD
330
18
100
AcDbEntity
  8
Object
100
AcDbLine
 10
16.851
 20
12.188
 30
0.0
 11
16.851
 21
12.184
 31
0.0
  0
LINE
  5
5BE
330
18
100
AcDbEntity
  8
Object
100
AcDbLine
 10
18.541
 20
12.154
 30
0.0
 11
18.541
 21
12.158
 31
0.0
  0
LINE
  5
5BF
330
18
100
AcDbEntity
  8
Object
100
AcDbLine
 10
18.541
 20
12.215
 30
0.0
 11
18.539
 21
12.226
 31
0.0
  0
LINE
  5
5C0
330
18
100
AcDbEntity
  8
Object
100
AcDbLine
 10
18.536
 20
12.231
 30
0.0
 11
18.533
 21
12.236
 31
0.0
  0
LINE
  5
5C1
330
18
100
AcDbEntity
  8
Object
100
AcDbLine
 10
18.539
 20
12.226
 30
0.0
 11
18.537
 21
12.229
 31
0.0
  0
LINE
  5
5C2
330
18
100
AcDbEntity
  8
Object
100
AcDbLine
 10
18.533
 20
12.236
 30
0.0
 11
18.531
 21
12.236
 31
0.0
  0
LINE
  5
5C3
330
18
100
AcDbEntity
  8
Object
100
AcDbLine
 10
18.512
 20
12.245
 30
0.0
 11
18.511
 21
12.245
 31
0.0
  0
LINE
  5
5C4
330
18
100
AcDbEntity
  8
Object
100
AcDbLine
 10
18.511
 20
12.245
 30
0.0
 11
18.509
 21
12.245
 31
0.0
  0
LINE
  5
5C5
330
18
100
AcDbEntity
  8
Object
100
AcDbLine
 10
18.509
 20
12.245
 30
0.0
 11
18.505
 21
12.245
 31
0.0
  0
LINE
  5
5C6
330
18
100
AcDbEntity
  8
Object
100
AcDbLine
 10
18.505
 20
12.245
 30
0.0
 11
18.502
 21
12.245
 31
0.0
  0
LINE
  5
5C7
330
18
100
AcDbEntity
  8
Object
100
AcDbLine
 10
17.816
 20
12.257
 30
0.0
 11
17.808
 21
12.257
 31
0.0
  0
LINE
  5
5C8
330
18
100
AcDbEntity
  8
Object
100
AcDbLine
 10
17.808
 20
12.257
 30
0.0
 11
17.786
 21
12.258
 31
0.0
  0
LINE
  5
5C9
330
18
100
AcDbEntity
  8
Object
100
AcDbLine
 10
17.786
 20
12.258
 30
0.0
 11
17.75
 21
12.258
 31
0.0
  0
LINE
  5
5CA
330
18
100
AcDbEntity
  8
Object
100
AcDbLine
 10
17.75
 20
12.258
 30
0.0
 11
17.746
 21
12.258
 31
0.0
  0
LINE
  5
5CB
330
18
100
AcDbEntity
  8
Object
100
AcDbLine
 10
17.622
 20
12.26
 30
0.0
 11
17.607
 21
12.261
 31
0.0
  0
LINE
  5
5CC
330
18
100
AcDbEntity
  8
Object
100
AcDbLine
 10
17.607
 20
12.261
 30
0.0
 11
17.599
 21
12.261
 31
0.0
  0
LINE
  5
5CD
330
18
100
AcDbEntity
  8
Object
100
AcDbLine
 10
17.542
 20
12.262
 30
0.0
 11
17.527
 21
12.262
 31
0.0
  0
LINE
  5
5CE
330
18
100
AcDbEntity
  8
Object
100
AcDbLine
 10
17.527
 20
12.262
 30
0.0
 11
17.504
 21
12.263
 31
0.0
  0
LINE
  5
5CF
330
18
100
AcDbEntity
  8
Object
100
AcDbLine
 10
17.504
 20
12.263
 30
0.0
 11
17.496
 21
12.263
 31
0.0
  0
LINE
  5
5D0
330
18
100
AcDbEntity
  8
Object
100
AcDbLine
 10
18.502
 20
12.245
 30
0.0
 11
16.954
 21
12.272
 31
0.0
  0
LINE
  5
5D1
330
18
100
AcDbEntity
  8
Object
100
AcDbLine
 10
18.508
 20
12.245
 30
0.0
 11
18.512
 21
12.245
 31
0.0
  0
LINE
  5
5D2
330
18
100
AcDbEntity
  8
Object
100
AcDbLine
 10
16.851
 20
12.194
 30
0.0
 11
16.851
 21
12.244
 31
0.0
  0
LINE
  5
5D3
330
18
100
AcDbEntity
  8
Object
100
AcDbLine
 10
16.851
 20
12.244
 30
0.0
 11
18.501
 21
12.215
 31
0.0
  0
LINE
  5
5D4
330
18
100
AcDbEntity
  8
Object
100
AcDbLine
 10
18.501
 20
12.215
 30
0.0
 11
18.501
 21
12.165
 31
0.0
  0
LINE
  5
5D5
330
18
100
AcDbEntity
  8
Object
100
AcDbLine
 10
18.501
 20
12.165
 30
0.0
 11
16.851
 21
12.194
 31
0.0
  0
LINE
  5
5D6
330
18
100
AcDbEntity
  8
Object
100
AcDbLine
 10
18.502
 20
12.241
 30
0.0
 11
18.501
 21
12.23
 31
0.0
  0
LINE
  5
5D7
330
18
100
AcDbEntity
  8
Object
100
AcDbLine
 10
18.501
 20
12.23
 30
0.0
 11
18.501
 21
12.215
 31
0.0
  0
LINE
  5
5D8
330
18
100
AcDbEntity
  8
Object
100
AcDbLine
 10
16.851
 20
12.255
 30
0.0
 11
16.851
 21
12.244
 31
0.0
  0
LINE
  5
5D9
330
18
100
AcDbEntity
  8
Object
100
AcDbLine
 10
18.502
 20
12.241
 30
0.0
 11
18.502
 21
12.245
 31
0.0
  0
LINE
  5
5DA
330
18
100
AcDbEntity
  8
Object
100
AcDbLine
 10
18.502
 20
12.245
 30
0.0
 11
16.954
 21
12.272
 31
0.0
  0
LINE
  5
5DB
330
18
100
AcDbEntity
  8
Object
100
AcDbLine
 10
18.541
 20
12.164
 30
0.0
 11
18.538
 21
12.164
 31
0.0
  0
LINE
  5
5DC
330
18
100
AcDbEntity
  8
Object
100
AcDbLine
 10
18.538
 20
12.164
 30
0.0
 11
18.53
 21
12.165
 31
0.0
  0
LINE
  5
5DD
330
18
100
AcDbEntity
  8
Object
100
AcDbLine
 10
18.53
 20
12.165
 30
0.0
 11
18.516
 21
12.165
 31
0.0
  0
LINE
  5
5DE
330
18
100
AcDbEntity
  8
Object
100
AcDbLine
 10
18.516
 20
12.165
 30
0.0
 11
18.501
 21
12.165
 31
0.0
  0
LINE
  5
5DF
330
18
100
AcDbEntity
  8
Object
100
AcDbLine
 10
17.671
 20
12.179
 30
0.0
 11
17.655
 21
12.18
 31
0.0
  0
LINE
  5
5E0
330
18
100
AcDbEntity
  8
Object
100
AcDbLine
 10
17.655
 20
12.18
 30
0.0
 11
17.613
 21
12.18
 31
0.0
  0
LINE
  5
5E1
330
18
100
AcDbEntity
  8
Object
100
AcDbLine
 10
18.501
 20
12.165
 30
0.0
 11
16.851
 21
12.194
 31
0.0
  0
LINE
  5
5E2
330
18
100
AcDbEntity
  8
Object
100
AcDbLine
 10
16.851
 20
12.194
 30
0.0
 11
18.537
 21
12.164
 31
0.0
  0
LINE
  5
5E3
330
18
100
AcDbEntity
  8
Object
100
AcDbLine
 10
18.524
 20
12.241
 30
0.0
 11
18.523
 21
12.242
 31
0.0
  0
LINE
  5
5E4
330
18
100
AcDbEntity
  8
Object
100
AcDbLine
 10
18.533
 20
12.236
 30
0.0
 11
18.529
 21
12.238
 31
0.0
  0
LINE
  5
5E5
330
18
100
AcDbEntity
  8
Object
100
AcDbLine
 10
18.523
 20
12.242
 30
0.0
 11
18.512
 21
12.245
 31
0.0
  0
LINE
  5
5E6
330
18
100
AcDbEntity
  8
Object
100
AcDbLine
 10
18.512
 20
12.245
 30
0.0
 11
18.508
 21
12.245
 31
0.0
  0
LINE
  5
5E7
330
18
100
AcDbEntity
  8
Object
100
AcDbLine
 10
18.541
 20
12.215
 30
0.0
 11
18.541
 21
12.164
 31
0.0
  0
LINE
  5
5E8
330
18
100
AcDbEntity
  8
Object
100
AcDbLine
 10
18.541
 20
12.164
 30
0.0
 11
18.538
 21
12.164
 31
0.0
  0
LINE
  5
5E9
330
18
100
AcDbEntity
  8
Object
100
AcDbLine
 10
18.538
 20
12.215
 30
0.0
 11
18.53
 21
12.215
 31
0.0
  0
LINE
  5
5EA
330
18
100
AcDbEntity
  8
Object
100
AcDbLine
 10
18.538
 20
12.164
 30
0.0
 11
18.53
 21
12.165
 31
0.0
  0
LINE
  5
5EB
330
18
100
AcDbEntity
  8
Object
100
AcDbLine
 10
18.53
 20
12.165
 30
0.0
 11
18.516
 21
12.165
 31
0.0
  0
LINE
  5
5EC
330
18
100
AcDbEntity
  8
Object
100
AcDbLine
 10
18.53
 20
12.215
 30
0.0
 11
18.516
 21
12.215
 31
0.0
  0
LINE
  5
5ED
330
18
100
AcDbEntity
  8
Object
100
AcDbLine
 10
18.501
 20
12.165
 30
0.0
 11
18.516
 21
12.165
 31
0.0
  0
LINE
  5
5EE
330
18
100
AcDbEntity
  8
Object
100
AcDbLine
 10
18.516
 20
12.215
 30
0.0
 11
18.501
 21
12.215
 31
0.0
  0
LINE
  5
5EF
330
18
100
AcDbEntity
  8
Object
100
AcDbLine
 10
18.539
 20
12.226
 30
0.0
 11
18.541
 21
12.215
 31
0.0
  0
LINE
  5
5F0
330
18
100
AcDbEntity
  8
Object
100
AcDbLine
 10
18.541
 20
12.215
 30
0.0
 11
18.539
 21
12.226
 31
0.0
  0
LINE
  5
5F1
330
18
100
AcDbEntity
  8
Object
100
AcDbLine
 10
18.539
 20
12.226
 30
0.0
 11
18.541
 21
12.215
 31
0.0
  0
LINE
  5
5F2
330
18
100
AcDbEntity
  8
Object
100
AcDbLine
 10
18.539
 20
12.226
 30
0.0
 11
18.537
 21
12.23
 31
0.0
  0
LINE
  5
5F3
330
18
100
AcDbEntity
  8
Object
100
AcDbLine
 10
18.537
 20
12.23
 30
0.0
 11
18.541
 21
12.215
 31
0.0
  0
LINE
  5
5F4
330
18
100
AcDbEntity
  8
Object
100
AcDbLine
 10
18.539
 20
12.226
 30
0.0
 11
18.537
 21
12.23
 31
0.0
  0
LINE
  5
5F5
330
18
100
AcDbEntity
  8
Object
100
AcDbLine
 10
18.537
 20
12.23
 30
0.0
 11
18.533
 21
12.236
 31
0.0
  0
LINE
  5
5F6
330
18
100
AcDbEntity
  8
Object
100
AcDbLine
 10
18.537
 20
12.229
 30
0.0
 11
18.539
 21
12.226
 31
0.0
  0
LINE
  5
5F7
330
18
100
AcDbEntity
  8
Object
100
AcDbLine
 10
18.536
 20
12.231
 30
0.0
 11
18.533
 21
12.236
 31
0.0
  0
LINE
  5
5F8
330
18
100
AcDbEntity
  8
Object
100
AcDbLine
 10
18.533
 20
12.236
 30
0.0
 11
18.537
 21
12.23
 31
0.0
  0
LINE
  5
5F9
330
18
100
AcDbEntity
  8
Object
100
AcDbLine
 10
18.533
 20
12.236
 30
0.0
 11
18.527
 21
12.241
 31
0.0
  0
LINE
  5
5FA
330
18
100
AcDbEntity
  8
Object
100
AcDbLine
 10
18.527
 20
12.241
 30
0.0
 11
18.533
 21
12.236
 31
0.0
  0
LINE
  5
5FB
330
18
100
AcDbEntity
  8
Object
100
AcDbLine
 10
18.537
 20
12.23
 30
0.0
 11
18.527
 21
12.241
 31
0.0
  0
LINE
  5
5FC
330
18
100
AcDbEntity
  8
Object
100
AcDbLine
 10
18.527
 20
12.241
 30
0.0
 11
18.523
 21
12.242
 31
0.0
  0
LINE
  5
5FD
330
18
100
AcDbEntity
  8
Object
100
AcDbLine
 10
18.529
 20
12.238
 30
0.0
 11
18.533
 21
12.236
 31
0.0
  0
LINE
  5
5FE
330
18
100
AcDbEntity
  8
Object
100
AcDbLine
 10
18.524
 20
12.241
 30
0.0
 11
18.523
 21
12.242
 31
0.0
  0
LINE
  5
5FF
330
18
100
AcDbEntity
  8
Object
100
AcDbLine
 10
18.523
 20
12.242
 30
0.0
 11
18.527
 21
12.241
 31
0.0
  0
LINE
  5
600
330
18
100
AcDbEntity
  8
Object
100
AcDbLine
 10
18.523
 20
12.242
 30
0.0
 11
18.512
 21
12.245
 31
0.0
  0
LINE
  5
601
330
18
100
AcDbEntity
  8
Object
100
AcDbLine
 10
18.512
 20
12.245
 30
0.0
 11
18.527
 21
12.241
 31
0.0
  0
LINE
  5
602
330
18
100
AcDbEntity
  8
Object
100
AcDbLine
 10
18.523
 20
12.242
 30
0.0
 11
18.512
 21
12.245
 31
0.0
  0
LINE
  5
603
330
18
100
AcDbEntity
  8
Object
100
AcDbLine
 10
18.512
 20
12.245
 30
0.0
 11
18.523
 21
12.242
 31
0.0
  0
LINE
  5
604
330
18
100
AcDbEntity
  8
Object
100
AcDbLine
 10
18.541
 20
10.098
 30
0.0
 11
18.539
 21
10.087
 31
0.0
  0
LINE
  5
605
330
18
100
AcDbEntity
  8
Object
100
AcDbLine
 10
18.539
 20
10.087
 30
0.0
 11
18.541
 21
10.098
 31
0.0
  0
LINE
  5
606
330
18
100
AcDbEntity
  8
Object
100
AcDbLine
 10
18.541
 20
10.098
 30
0.0
 11
18.539
 21
10.087
 31
0.0
  0
LINE
  5
607
330
18
100
AcDbEntity
  8
Object
100
AcDbLine
 10
18.541
 20
10.098
 30
0.0
 11
18.537
 21
10.084
 31
0.0
  0
LINE
  5
608
330
18
100
AcDbEntity
  8
Object
100
AcDbLine
 10
18.537
 20
10.084
 30
0.0
 11
18.539
 21
10.087
 31
0.0
  0
LINE
  5
609
330
18
100
AcDbEntity
  8
Object
100
AcDbLine
 10
18.539
 20
10.087
 30
0.0
 11
18.537
 21
10.084
 31
0.0
  0
LINE
  5
60A
330
18
100
AcDbEntity
  8
Object
100
AcDbLine
 10
18.536
 20
10.082
 30
0.0
 11
18.533
 21
10.078
 31
0.0
  0
LINE
  5
60B
330
18
100
AcDbEntity
  8
Object
100
AcDbLine
 10
18.539
 20
10.087
 30
0.0
 11
18.537
 21
10.084
 31
0.0
  0
LINE
  5
60C
330
18
100
AcDbEntity
  8
Object
100
AcDbLine
 10
18.537
 20
10.084
 30
0.0
 11
18.533
 21
10.078
 31
0.0
  0
LINE
  5
60D
330
18
100
AcDbEntity
  8
Object
100
AcDbLine
 10
18.533
 20
10.078
 30
0.0
 11
18.537
 21
10.084
 31
0.0
  0
LINE
  5
60E
330
18
100
AcDbEntity
  8
Object
100
AcDbLine
 10
18.527
 20
10.073
 30
0.0
 11
18.533
 21
10.078
 31
0.0
  0
LINE
  5
60F
330
18
100
AcDbEntity
  8
Object
100
AcDbLine
 10
18.533
 20
10.078
 30
0.0
 11
18.527
 21
10.073
 31
0.0
  0
LINE
  5
610
330
18
100
AcDbEntity
  8
Object
100
AcDbLine
 10
18.527
 20
10.073
 30
0.0
 11
18.537
 21
10.084
 31
0.0
  0
LINE
  5
611
330
18
100
AcDbEntity
  8
Object
100
AcDbLine
 10
18.527
 20
10.073
 30
0.0
 11
18.523
 21
10.071
 31
0.0
  0
LINE
  5
612
330
18
100
AcDbEntity
  8
Object
100
AcDbLine
 10
18.523
 20
10.071
 30
0.0
 11
18.527
 21
10.073
 31
0.0
  0
LINE
  5
613
330
18
100
AcDbEntity
  8
Object
100
AcDbLine
 10
18.525
 20
10.072
 30
0.0
 11
18.523
 21
10.071
 31
0.0
  0
LINE
  5
614
330
18
100
AcDbEntity
  8
Object
100
AcDbLine
 10
18.533
 20
10.078
 30
0.0
 11
18.528
 21
10.074
 31
0.0
  0
LINE
  5
615
330
18
100
AcDbEntity
  8
Object
100
AcDbLine
 10
18.523
 20
10.071
 30
0.0
 11
18.515
 21
10.069
 31
0.0
  0
LINE
  5
616
330
18
100
AcDbEntity
  8
Object
100
AcDbLine
 10
18.515
 20
10.069
 30
0.0
 11
18.523
 21
10.071
 31
0.0
  0
LINE
  5
617
330
18
100
AcDbEntity
  8
Object
100
AcDbLine
 10
18.523
 20
10.071
 30
0.0
 11
18.515
 21
10.069
 31
0.0
  0
LINE
  5
618
330
18
100
AcDbEntity
  8
Object
100
AcDbLine
 10
18.538
 20
10.149
 30
0.0
 11
18.541
 21
10.149
 31
0.0
  0
LINE
  5
619
330
18
100
AcDbEntity
  8
Object
100
AcDbLine
 10
18.541
 20
10.149
 30
0.0
 11
18.541
 21
10.098
 31
0.0
  0
LINE
  5
61A
330
18
100
AcDbEntity
  8
Object
100
AcDbLine
 10
18.538
 20
10.149
 30
0.0
 11
18.53
 21
10.149
 31
0.0
  0
LINE
  5
61B
330
18
100
AcDbEntity
  8
Object
100
AcDbLine
 10
18.538
 20
10.098
 30
0.0
 11
18.53
 21
10.098
 31
0.0
  0
LINE
  5
61C
330
18
100
AcDbEntity
  8
Object
100
AcDbLine
 10
18.53
 20
10.098
 30
0.0
 11
18.516
 21
10.098
 31
0.0
  0
LINE
  5
61D
330
18
100
AcDbEntity
  8
Object
100
AcDbLine
 10
18.53
 20
10.149
 30
0.0
 11
18.516
 21
10.149
 31
0.0
  0
LINE
  5
61E
330
18
100
AcDbEntity
  8
Object
100
AcDbLine
 10
18.516
 20
10.149
 30
0.0
 11
18.501
 21
10.148
 31
0.0
  0
LINE
  5
61F
330
18
100
AcDbEntity
  8
Object
100
AcDbLine
 10
18.501
 20
10.098
 30
0.0
 11
18.516
 21
10.098
 31
0.0
  0
LINE
  5
620
330
18
100
AcDbEntity
  8
Object
100
AcDbLine
 10
18.619
 20
11.983
 30
0.0
 11
18.621
 21
11.972
 31
0.0
  0
LINE
  5
621
330
18
100
AcDbEntity
  8
Object
100
AcDbLine
 10
18.621
 20
11.972
 30
0.0
 11
18.619
 21
11.983
 31
0.0
  0
LINE
  5
622
330
18
100
AcDbEntity
  8
Object
100
AcDbLine
 10
18.619
 20
11.983
 30
0.0
 11
18.621
 21
11.972
 31
0.0
  0
LINE
  5
623
330
18
100
AcDbEntity
  8
Object
100
AcDbLine
 10
18.619
 20
11.983
 30
0.0
 11
18.617
 21
11.987
 31
0.0
  0
LINE
  5
624
330
18
100
AcDbEntity
  8
Object
100
AcDbLine
 10
18.617
 20
11.987
 30
0.0
 11
18.619
 21
11.983
 31
0.0
  0
LINE
  5
625
330
18
100
AcDbEntity
  8
Object
100
AcDbLine
 10
18.617
 20
11.987
 30
0.0
 11
18.612
 21
11.993
 31
0.0
  0
LINE
  5
626
330
18
100
AcDbEntity
  8
Object
100
AcDbLine
 10
18.618
 20
11.985
 30
0.0
 11
18.619
 21
11.983
 31
0.0
  0
LINE
  5
627
330
18
100
AcDbEntity
  8
Object
100
AcDbLine
 10
18.614
 20
11.989
 30
0.0
 11
18.612
 21
11.993
 31
0.0
  0
LINE
  5
628
330
18
100
AcDbEntity
  8
Object
100
AcDbLine
 10
18.612
 20
11.993
 30
0.0
 11
18.617
 21
11.987
 31
0.0
  0
LINE
  5
629
330
18
100
AcDbEntity
  8
Object
100
AcDbLine
 10
18.617
 20
11.987
 30
0.0
 11
18.606
 21
11.998
 31
0.0
  0
LINE
  5
62A
330
18
100
AcDbEntity
  8
Object
100
AcDbLine
 10
18.606
 20
11.998
 30
0.0
 11
18.612
 21
11.993
 31
0.0
  0
LINE
  5
62B
330
18
100
AcDbEntity
  8
Object
100
AcDbLine
 10
18.612
 20
11.993
 30
0.0
 11
18.606
 21
11.998
 31
0.0
  0
LINE
  5
62C
330
18
100
AcDbEntity
  8
Object
100
AcDbLine
 10
18.606
 20
11.998
 30
0.0
 11
18.602
 21
12.0
 31
0.0
  0
LINE
  5
62D
330
18
100
AcDbEntity
  8
Object
100
AcDbLine
 10
18.602
 20
12.0
 30
0.0
 11
18.606
 21
11.998
 31
0.0
  0
LINE
  5
62E
330
18
100
AcDbEntity
  8
Object
100
AcDbLine
 10
18.609
 20
11.995
 30
0.0
 11
18.612
 21
11.993
 31
0.0
  0
LINE
  5
62F
330
18
100
AcDbEntity
  8
Object
100
AcDbLine
 10
18.602
 20
12.0
 30
0.0
 11
18.604
 21
11.998
 31
0.0
  0
LINE
  5
630
330
18
100
AcDbEntity
  8
Object
100
AcDbLine
 10
18.606
 20
11.998
 30
0.0
 11
18.591
 21
12.002
 31
0.0
  0
LINE
  5
631
330
18
100
AcDbEntity
  8
Object
100
AcDbLine
 10
18.591
 20
12.002
 30
0.0
 11
18.602
 21
12.0
 31
0.0
  0
LINE
  5
632
330
18
100
AcDbEntity
  8
Object
100
AcDbLine
 10
18.602
 20
12.0
 30
0.0
 11
18.591
 21
12.002
 31
0.0
  0
LINE
  5
633
330
18
100
AcDbEntity
  8
Object
100
AcDbLine
 10
18.591
 20
12.002
 30
0.0
 11
18.602
 21
12.0
 31
0.0
  0
LINE
  5
634
330
18
100
AcDbEntity
  8
Object
100
AcDbLine
 10
18.621
 20
10.342
 30
0.0
 11
18.619
 21
10.331
 31
0.0
  0
LINE
  5
635
330
18
100
AcDbEntity
  8
Object
100
AcDbLine
 10
18.619
 20
10.331
 30
0.0
 11
18.621
 21
10.342
 31
0.0
  0
LINE
  5
636
330
18
100
AcDbEntity
  8
Object
100
AcDbLine
 10
18.621
 20
10.342
 30
0.0
 11
18.619
 21
10.331
 31
0.0
  0
LINE
  5
637
330
18
100
AcDbEntity
  8
Object
100
AcDbLine
 10
18.619
 20
10.331
 30
0.0
 11
18.617
 21
10.327
 31
0.0
  0
LINE
  5
638
330
18
100
AcDbEntity
  8
Object
100
AcDbLine
 10
18.617
 20
10.327
 30
0.0
 11
18.619
 21
10.331
 31
0.0
  0
LINE
  5
639
330
18
100
AcDbEntity
  8
Object
100
AcDbLine
 10
18.617
 20
10.327
 30
0.0
 11
18.612
 21
10.321
 31
0.0
  0
LINE
  5
63A
330
18
100
AcDbEntity
  8
Object
100
AcDbLine
 10
18.612
 20
10.321
 30
0.0
 11
18.617
 21
10.327
 31
0.0
  0
LINE
  5
63B
330
18
100
AcDbEntity
  8
Object
100
AcDbLine
 10
18.614
 20
10.324
 30
0.0
 11
18.612
 21
10.321
 31
0.0
  0
LINE
  5
63C
330
18
100
AcDbEntity
  8
Object
100
AcDbLine
 10
18.619
 20
10.331
 30
0.0
 11
18.618
 21
10.328
 31
0.0
  0
LINE
  5
63D
330
18
100
AcDbEntity
  8
Object
100
AcDbLine
 10
18.612
 20
10.321
 30
0.0
 11
18.606
 21
10.316
 31
0.0
  0
LINE
  5
63E
330
18
100
AcDbEntity
  8
Object
100
AcDbLine
 10
18.606
 20
10.316
 30
0.0
 11
18.617
 21
10.327
 31
0.0
  0
LINE
  5
63F
330
18
100
AcDbEntity
  8
Object
100
AcDbLine
 10
18.612
 20
10.321
 30
0.0
 11
18.606
 21
10.316
 31
0.0
  0
LINE
  5
640
330
18
100
AcDbEntity
  8
Object
100
AcDbLine
 10
18.606
 20
10.316
 30
0.0
 11
18.602
 21
10.314
 31
0.0
  0
LINE
  5
641
330
18
100
AcDbEntity
  8
Object
100
AcDbLine
 10
18.602
 20
10.314
 30
0.0
 11
18.604
 21
10.315
 31
0.0
  0
LINE
  5
642
330
18
100
AcDbEntity
  8
Object
100
AcDbLine
 10
18.612
 20
10.321
 30
0.0
 11
18.609
 21
10.318
 31
0.0
  0
LINE
  5
643
330
18
100
AcDbEntity
  8
Object
100
AcDbLine
 10
18.606
 20
10.316
 30
0.0
 11
18.602
 21
10.314
 31
0.0
  0
LINE
  5
644
330
18
100
AcDbEntity
  8
Object
100
AcDbLine
 10
18.602
 20
10.314
 30
0.0
 11
18.591
 21
10.312
 31
0.0
  0
LINE
  5
645
330
18
100
AcDbEntity
  8
Object
100
AcDbLine
 10
18.591
 20
10.312
 30
0.0
 11
18.606
 21
10.316
 31
0.0
  0
LINE
  5
646
330
18
100
AcDbEntity
  8
Object
100
AcDbLine
 10
18.602
 20
10.314
 30
0.0
 11
18.591
 21
10.312
 31
0.0
  0
LINE
  5
647
330
18
100
AcDbEntity
  8
Object
100
AcDbLine
 10
18.591
 20
10.312
 30
0.0
 11
18.602
 21
10.314
 31
0.0
  0
LINE
  5
648
330
18
100
AcDbEntity
  8
Object
100
AcDbLine
 10
18.621
 20
10.352
 30
0.0
 11
18.621
 21
10.347
 31
0.0
  0
LINE
  5
649
330
18
100
AcDbEntity
  8
Object
100
AcDbLine
 10
18.621
 20
10.347
 30
0.0
 11
18.621
 21
10.343
 31
0.0
  0
LINE
  5
64A
330
18
100
AcDbEntity
  8
Object
100
AcDbLine
 10
18.621
 20
10.352
 30
0.0
 11
18.621
 21
11.962
 31
0.0
  0
LINE
  5
64B
330
18
100
AcDbEntity
  8
Object
100
AcDbLine
 10
18.621
 20
11.97
 30
0.0
 11
18.621
 21
11.967
 31
0.0
  0
LINE
  5
64C
330
18
100
AcDbEntity
  8
Object
100
AcDbLine
 10
18.621
 20
11.967
 30
0.0
 11
18.621
 21
11.962
 31
0.0
  0
LINE
  5
64D
330
18
100
AcDbEntity
  8
Object
100
AcDbLine
 10
18.621
 20
11.97
 30
0.0
 11
18.621
 21
11.972
 31
0.0
  0
LINE
  5
64E
330
18
100
AcDbEntity
  8
Object
100
AcDbLine
 10
18.621
 20
10.342
 30
0.0
 11
18.621
 21
10.343
 31
0.0
  0
LINE
  5
64F
330
18
100
AcDbEntity
  8
Object
100
AcDbLine
 10
17.816
 20
10.056
 30
0.0
 11
17.808
 21
10.056
 31
0.0
  0
LINE
  5
650
330
18
100
AcDbEntity
  8
Object
100
AcDbLine
 10
17.808
 20
10.056
 30
0.0
 11
17.786
 21
10.056
 31
0.0
  0
LINE
  5
651
330
18
100
AcDbEntity
  8
Object
100
AcDbLine
 10
17.786
 20
10.056
 30
0.0
 11
17.75
 21
10.055
 31
0.0
  0
LINE
  5
652
330
18
100
AcDbEntity
  8
Object
100
AcDbLine
 10
17.75
 20
10.055
 30
0.0
 11
17.706
 21
10.054
 31
0.0
  0
LINE
  5
653
330
18
100
AcDbEntity
  8
Object
100
AcDbLine
 10
17.706
 20
10.054
 30
0.0
 11
17.67
 21
10.054
 31
0.0
  0
LINE
  5
654
330
18
100
AcDbEntity
  8
Object
100
AcDbLine
 10
17.671
 20
10.134
 30
0.0
 11
17.655
 21
10.134
 31
0.0
  0
LINE
  5
655
330
18
100
AcDbEntity
  8
Object
100
AcDbLine
 10
17.607
 20
10.053
 30
0.0
 11
17.622
 21
10.053
 31
0.0
  0
LINE
  5
656
330
18
100
AcDbEntity
  8
Object
100
AcDbLine
 10
17.655
 20
10.134
 30
0.0
 11
17.613
 21
10.133
 31
0.0
  0
LINE
  5
657
330
18
100
AcDbEntity
  8
Object
100
AcDbLine
 10
17.607
 20
10.053
 30
0.0
 11
17.562
 21
10.052
 31
0.0
  0
LINE
  5
658
330
18
100
AcDbEntity
  8
Object
100
AcDbLine
 10
17.562
 20
10.052
 30
0.0
 11
17.527
 21
10.051
 31
0.0
  0
LINE
  5
659
330
18
100
AcDbEntity
  8
Object
100
AcDbLine
 10
17.527
 20
10.051
 30
0.0
 11
17.504
 21
10.051
 31
0.0
  0
LINE
  5
65A
330
18
100
AcDbEntity
  8
Object
100
AcDbLine
 10
17.504
 20
10.051
 30
0.0
 11
17.496
 21
10.051
 31
0.0
  0
LINE
  5
65B
330
18
100
AcDbEntity
  8
Object
100
AcDbLine
 10
18.538
 20
10.098
 30
0.0
 11
18.541
 21
10.098
 31
0.0
  0
LINE
  5
65C
330
18
100
AcDbEntity
  8
Object
100
AcDbLine
 10
18.541
 20
10.098
 30
0.0
 11
18.537
 21
10.084
 31
0.0
  0
LINE
  5
65D
330
18
100
AcDbEntity
  8
Object
100
AcDbLine
 10
18.537
 20
10.084
 30
0.0
 11
18.527
 21
10.073
 31
0.0
  0
LINE
  5
65E
330
18
100
AcDbEntity
  8
Object
100
AcDbLine
 10
18.527
 20
10.073
 30
0.0
 11
18.511
 21
10.068
 31
0.0
  0
LINE
  5
65F
330
18
100
AcDbEntity
  8
Object
100
AcDbLine
 10
18.511
 20
10.068
 30
0.0
 11
18.509
 21
10.068
 31
0.0
  0
LINE
  5
660
330
18
100
AcDbEntity
  8
Object
100
AcDbLine
 10
18.509
 20
10.068
 30
0.0
 11
18.505
 21
10.068
 31
0.0
  0
LINE
  5
661
330
18
100
AcDbEntity
  8
Object
100
AcDbLine
 10
18.505
 20
10.068
 30
0.0
 11
18.502
 21
10.068
 31
0.0
  0
LINE
  5
662
330
18
100
AcDbEntity
  8
Object
100
AcDbLine
 10
16.771
 20
9.951999999999999
 30
0.0
 11
16.771
 21
9.961
 31
0.0
  0
LINE
  5
663
330
18
100
AcDbEntity
  8
Object
100
AcDbLine
 10
16.691
 20
9.948999999999999
 30
0.0
 11
16.691
 21
9.958
 31
0.0
  0
LINE
  5
664
330
18
100
AcDbEntity
  8
Object
100
AcDbLine
 10
16.691
 20
9.958
 30
0.0
 11
16.691
 21
9.971999999999999
 31
0.0
  0
LINE
  5
665
330
18
100
AcDbEntity
  8
Object
100
AcDbLine
 10
16.691
 20
9.971999999999999
 30
0.0
 11
16.691
 21
9.987
 31
0.0
  0
LINE
  5
666
330
18
100
AcDbEntity
  8
Object
100
AcDbLine
 10
16.691
 20
9.987
 30
0.0
 11
16.771
 21
9.989
 31
0.0
  0
LINE
  5
667
330
18
100
AcDbEntity
  8
Object
100
AcDbLine
 10
16.771
 20
9.989
 30
0.0
 11
16.771
 21
9.974999999999999
 31
0.0
  0
LINE
  5
668
330
18
100
AcDbEntity
  8
Object
100
AcDbLine
 10
16.771
 20
9.974999999999999
 30
0.0
 11
16.771
 21
9.961
 31
0.0
  0
LINE
  5
669
330
18
100
AcDbEntity
  8
Object
100
AcDbLine
 10
16.691
 20
9.948999999999999
 30
0.0
 11
16.691
 21
9.947
 31
0.0
  0
LINE
  5
66A
330
18
100
AcDbEntity
  8
Object
100
AcDbLine
 10
16.771
 20
9.951999999999999
 30
0.0
 11
16.771
 21
9.948999999999999
 31
0.0
  0
LINE
  5
66B
330
18
100
AcDbEntity
  8
Object
100
AcDbLine
 10
16.771
 20
9.948999999999999
 30
0.0
 11
16.691
 21
9.947
 31
0.0
  0
LINE
  5
66C
330
18
100
AcDbEntity
  8
Object
100
AcDbLine
 10
16.691
 20
9.947
 30
0.0
 11
16.771
 21
9.948999999999999
 31
0.0
  0
LINE
  5
66D
330
18
100
AcDbEntity
  8
Object
100
AcDbLine
 10
16.691
 20
10.031
 30
0.0
 11
16.691
 21
9.987
 31
0.0
  0
LINE
  5
66E
330
18
100
AcDbEntity
  8
Object
100
AcDbLine
 10
16.771
 20
9.989
 30
0.0
 11
16.771
 21
10.028
 31
0.0
  0
LINE
  5
66F
330
18
100
AcDbEntity
  8
Object
100
AcDbLine
 10
18.621
 20
10.342
 30
0.0
 11
18.621
 21
10.343
 31
0.0
  0
LINE
  5
670
330
18
100
AcDbEntity
  8
Object
100
AcDbLine
 10
18.621
 20
10.352
 30
0.0
 11
18.621
 21
10.347
 31
0.0
  0
LINE
  5
671
330
18
100
AcDbEntity
  8
Object
100
AcDbLine
 10
18.621
 20
10.347
 30
0.0
 11
18.621
 21
10.343
 31
0.0
  0
LINE
  5
672
330
18
100
AcDbEntity
  8
Object
100
AcDbLine
 10
18.621
 20
10.352
 30
0.0
 11
18.617
 21
10.352
 31
0.0
  0
LINE
  5
673
330
18
100
AcDbEntity
  8
Object
100
AcDbLine
 10
18.621
 20
10.342
 30
0.0
 11
18.621
 21
10.34
 31
0.0
  0
LINE
  5
674
330
18
100
AcDbEntity
  8
Object
100
AcDbLine
 10
18.621
 20
10.34
 30
0.0
 11
18.617
 21
10.327
 31
0.0
  0
LINE
  5
675
330
18
100
AcDbEntity
  8
Object
100
AcDbLine
 10
18.617
 20
10.352
 30
0.0
 11
18.606
 21
10.352
 31
0.0
  0
LINE
  5
676
330
18
100
AcDbEntity
  8
Object
100
AcDbLine
 10
18.617
 20
10.327
 30
0.0
 11
18.606
 21
10.316
 31
0.0
  0
LINE
  5
677
330
18
100
AcDbEntity
  8
Object
100
AcDbLine
 10
18.606
 20
10.316
 30
0.0
 11
18.591
 21
10.312
 31
0.0
  0
LINE
  5
678
330
18
100
AcDbEntity
  8
Object
100
AcDbLine
 10
18.606
 20
10.352
 30
0.0
 11
18.591
 21
10.352
 31
0.0
  0
LINE
  5
679
330
18
100
AcDbEntity
  8
Object
100
AcDbLine
 10
18.621
 20
11.962
 30
0.0
 11
18.621
 21
11.967
 31
0.0
  0
LINE
  5
67A
330
18
100
AcDbEntity
  8
Object
100
AcDbLine
 10
18.621
 20
11.972
 30
0.0
 11
18.621
 21
11.97
 31
0.0
  0
LINE
  5
67B
330
18
100
AcDbEntity
  8
Object
100
AcDbLine
 10
18.621
 20
11.97
 30
0.0
 11
18.621
 21
11.967
 31
0.0
  0
LINE
  5
67C
330
18
100
AcDbEntity
  8
Object
100
AcDbLine
 10
18.621
 20
11.972
 30
0.0
 11
18.621
 21
11.974
 31
0.0
  0
LINE
  5
67D
330
18
100
AcDbEntity
  8
Object
100
AcDbLine
 10
18.621
 20
11.974
 30
0.0
 11
18.617
 21
11.987
 31
0.0
  0
LINE
  5
67E
330
18
100
AcDbEntity
  8
Object
100
AcDbLine
 10
18.617
 20
11.987
 30
0.0
 11
18.606
 21
11.998
 31
0.0
  0
LINE
  5
67F
330
18
100
AcDbEntity
  8
Object
100
AcDbLine
 10
18.606
 20
11.998
 30
0.0
 11
18.591
 21
12.002
 31
0.0
  0
LINE
  5
680
330
18
100
AcDbEntity
  8
Object
100
AcDbLine
 10
18.617
 20
11.962
 30
0.0
 11
18.621
 21
11.962
 31
0.0
  0
LINE
  5
681
330
18
100
AcDbEntity
  8
Object
100
AcDbLine
 10
18.621
 20
11.962
 30
0.0
 11
18.621
 21
10.352
 31
0.0
  0
LINE
  5
682
330
18
100
AcDbEntity
  8
Object
100
AcDbLine
 10
18.617
 20
11.962
 30
0.0
 11
18.606
 21
11.962
 31
0.0
  0
LINE
  5
683
330
18
100
AcDbEntity
  8
Object
100
AcDbLine
 10
18.606
 20
11.962
 30
0.0
 11
18.591
 21
11.962
 31
0.0
  0
LINE
  5
684
330
18
100
AcDbEntity
  8
Object
100
AcDbLine
 10
16.771
 20
12.364
 30
0.0
 11
16.691
 21
12.367
 31
0.0
  0
LINE
  5
685
330
18
100
AcDbEntity
  8
Object
100
AcDbLine
 10
16.771
 20
12.339
 30
0.0
 11
16.771
 21
12.352
 31
0.0
  0
LINE
  5
686
330
18
100
AcDbEntity
  8
Object
100
AcDbLine
 10
16.691
 20
12.342
 30
0.0
 11
16.691
 21
12.355
 31
0.0
  0
LINE
  5
687
330
18
100
AcDbEntity
  8
Object
100
AcDbLine
 10
16.691
 20
12.355
 30
0.0
 11
16.691
 21
12.364
 31
0.0
  0
LINE
  5
688
330
18
100
AcDbEntity
  8
Object
100
AcDbLine
 10
16.691
 20
12.364
 30
0.0
 11
16.691
 21
12.367
 31
0.0
  0
LINE
  5
689
330
18
100
AcDbEntity
  8
Object
100
AcDbLine
 10
16.691
 20
12.367
 30
0.0
 11
16.771
 21
12.364
 31
0.0
  0
LINE
  5
68A
330
18
100
AcDbEntity
  8
Object
100
AcDbLine
 10
16.771
 20
12.364
 30
0.0
 11
16.771
 21
12.361
 31
0.0
  0
LINE
  5
68B
330
18
100
AcDbEntity
  8
Object
100
AcDbLine
 10
16.771
 20
12.361
 30
0.0
 11
16.771
 21
12.352
 31
0.0
  0
LINE
  5
68C
330
18
100
AcDbEntity
  8
Object
100
AcDbLine
 10
16.691
 20
12.342
 30
0.0
 11
16.691
 21
12.327
 31
0.0
  0
LINE
  5
68D
330
18
100
AcDbEntity
  8
Object
100
AcDbLine
 10
16.771
 20
12.339
 30
0.0
 11
16.771
 21
12.324
 31
0.0
  0
LINE
  5
68E
330
18
100
AcDbEntity
  8
Object
100
AcDbLine
 10
16.771
 20
12.324
 30
0.0
 11
16.691
 21
12.327
 31
0.0
  0
LINE
  5
68F
330
18
100
AcDbEntity
  8
Object
100
AcDbLine
 10
16.691
 20
12.327
 30
0.0
 11
16.691
 21
12.285
 31
0.0
  0
LINE
  5
690
330
18
100
AcDbEntity
  8
Object
100
AcDbLine
 10
16.771
 20
12.288
 30
0.0
 11
16.771
 21
12.324
 31
0.0
  0
LINE
  5
691
330
18
100
AcDbEntity
  8
Object
100
AcDbLine
 10
18.537
 20
12.23
 30
0.0
 11
18.541
 21
12.215
 31
0.0
  0
LINE
  5
692
330
18
100
AcDbEntity
  8
Object
100
AcDbLine
 10
18.541
 20
12.215
 30
0.0
 11
18.538
 21
12.215
 31
0.0
  0
LINE
  5
693
330
18
100
AcDbEntity
  8
Object
100
AcDbLine
 10
18.537
 20
12.23
 30
0.0
 11
18.527
 21
12.241
 31
0.0
  0
LINE
  5
694
330
18
100
AcDbEntity
  8
Object
100
AcDbLine
 10
18.511
 20
12.245
 30
0.0
 11
18.512
 21
12.245
 31
0.0
  0
LINE
  5
695
330
18
100
AcDbEntity
  8
Object
100
AcDbLine
 10
18.512
 20
12.245
 30
0.0
 11
18.527
 21
12.241
 31
0.0
  0
LINE
  5
696
330
18
100
AcDbEntity
  8
Object
100
AcDbLine
 10
18.511
 20
12.245
 30
0.0
 11
18.509
 21
12.245
 31
0.0
  0
LINE
  5
697
330
18
100
AcDbEntity
  8
Object
100
AcDbLine
 10
18.509
 20
12.245
 30
0.0
 11
18.505
 21
12.245
 31
0.0
  0
LINE
  5
698
330
18
100
AcDbEntity
  8
Object
100
AcDbLine
 10
18.505
 20
12.245
 30
0.0
 11
18.502
 21
12.245
 31
0.0
  0
LINE
  5
699
330
18
100
AcDbEntity
  8
Object
100
AcDbLine
 10
17.816
 20
12.257
 30
0.0
 11
17.808
 21
12.257
 31
0.0
  0
LINE
  5
69A
330
18
100
AcDbEntity
  8
Object
100
AcDbLine
 10
17.808
 20
12.257
 30
0.0
 11
17.786
 21
12.258
 31
0.0
  0
LINE
  5
69B
330
18
100
AcDbEntity
  8
Object
100
AcDbLine
 10
17.786
 20
12.258
 30
0.0
 11
17.75
 21
12.258
 31
0.0
  0
LINE
  5
69C
330
18
100
AcDbEntity
  8
Object
100
AcDbLine
 10
17.75
 20
12.258
 30
0.0
 11
17.746
 21
12.258
 31
0.0
  0
LINE
  5
69D
330
18
100
AcDbEntity
  8
Object
100
AcDbLine
 10
17.671
 20
12.179
 30
0.0
 11
17.655
 21
12.18
 31
0.0
  0
LINE
  5
69E
330
18
100
AcDbEntity
  8
Object
100
AcDbLine
 10
17.655
 20
12.18
 30
0.0
 11
17.613
 21
12.18
 31
0.0
  0
LINE
  5
69F
330
18
100
AcDbEntity
  8
Object
100
AcDbLine
 10
17.622
 20
12.26
 30
0.0
 11
17.607
 21
12.261
 31
0.0
  0
LINE
  5
6A0
330
18
100
AcDbEntity
  8
Object
100
AcDbLine
 10
17.607
 20
12.261
 30
0.0
 11
17.599
 21
12.261
 31
0.0
  0
LINE
  5
6A1
330
18
100
AcDbEntity
  8
Object
100
AcDbLine
 10
17.542
 20
12.262
 30
0.0
 11
17.527
 21
12.262
 31
0.0
  0
LINE
  5
6A2
330
18
100
AcDbEntity
  8
Object
100
AcDbLine
 10
17.527
 20
12.262
 30
0.0
 11
17.504
 21
12.263
 31
0.0
  0
LINE
  5
6A3
330
18
100
AcDbEntity
  8
Object
100
AcDbLine
 10
17.504
 20
12.263
 30
0.0
 11
17.496
 21
12.263
 31
0.0
  0
LINE
  5
6A4
330
18
100
AcDbEntity
  8
Object
100
AcDbLine
 10
16.604
 20
7.943999999999999
 30
0.0
 11
16.674
 21
7.940999999999999
 31
0.0
  0
LINE
  5
6A5
330
18
100
AcDbEntity
  8
Object
100
AcDbLine
 10
16.674
 20
7.940999999999999
 30
0.0
 11
16.674
 21
6.967
 31
0.0
  0
LINE
  5
6A6
330
18
100
AcDbEntity
  8
Object
100
AcDbLine
 10
16.674
 20
6.967
 30
0.0
 11
16.604
 21
6.964
 31
0.0
  0
LINE
  5
6A7
330
18
100
AcDbEntity
  8
Object
100
AcDbLine
 10
16.604
 20
6.964
 30
0.0
 11
16.604
 21
7.943999999999999
 31
0.0
  0
LINE
  5
6A8
330
18
100
AcDbEntity
  8
Object
100
AcDbLine
 10
16.604
 20
10.063
 30
0.0
 11
16.604
 21
10.056
 31
0.0
  0
LINE
  5
6A9
330
18
100
AcDbEntity
  8
Object
100
AcDbLine
 10
16.604
 20
8.484999999999999
 30
0.0
 11
16.604
 21
8.32
 31
0.0
  0
LINE
  5
6AA
330
18
100
AcDbEntity
  8
Object
100
AcDbLine
 10
16.604
 20
9.997999999999999
 30
0.0
 11
16.604
 21
9.948
 31
0.0
  0
LINE
  5
6AB
330
18
100
AcDbEntity
  8
Object
100
AcDbLine
 10
16.604
 20
9.108
 30
0.0
 11
16.604
 21
8.961
 31
0.0
  0
LINE
  5
6AC
330
18
100
AcDbEntity
  8
Object
100
AcDbLine
 10
16.604
 20
12.253
 30
0.0
 11
16.604
 21
10.063
 31
0.0
  0
LINE
  5
6AD
330
18
100
AcDbEntity
  8
Object
100
AcDbLine
 10
16.604
 20
10.056
 30
0.0
 11
16.604
 21
10.034
 31
0.0
  0
LINE
  5
6AE
330
18
100
AcDbEntity
  8
Object
100
AcDbLine
 10
16.604
 20
10.034
 30
0.0
 11
16.604
 21
9.997999999999999
 31
0.0
  0
LINE
  5
6AF
330
18
100
AcDbEntity
  8
Object
100
AcDbLine
 10
16.604
 20
9.948
 30
0.0
 11
16.604
 21
9.884
 31
0.0
  0
LINE
  5
6B0
330
18
100
AcDbEntity
  8
Object
100
AcDbLine
 10
16.604
 20
9.884
 30
0.0
 11
16.604
 21
9.807999999999999
 31
0.0
  0
LINE
  5
6B1
330
18
100
AcDbEntity
  8
Object
100
AcDbLine
 10
16.604
 20
9.807999999999999
 30
0.0
 11
16.604
 21
9.717999999999999
 31
0.0
  0
LINE
  5
6B2
330
18
100
AcDbEntity
  8
Object
100
AcDbLine
 10
16.604
 20
9.717999999999999
 30
0.0
 11
16.604
 21
9.617
 31
0.0
  0
LINE
  5
6B3
330
18
100
AcDbEntity
  8
Object
100
AcDbLine
 10
16.604
 20
9.617
 30
0.0
 11
16.604
 21
9.503999999999999
 31
0.0
  0
LINE
  5
6B4
330
18
100
AcDbEntity
  8
Object
100
AcDbLine
 10
16.604
 20
9.503999999999999
 30
0.0
 11
16.604
 21
9.381
 31
0.0
  0
LINE
  5
6B5
330
18
100
AcDbEntity
  8
Object
100
AcDbLine
 10
16.604
 20
9.381
 30
0.0
 11
16.604
 21
9.249
 31
0.0
  0
LINE
  5
6B6
330
18
100
AcDbEntity
  8
Object
100
AcDbLine
 10
16.604
 20
9.249
 30
0.0
 11
16.604
 21
9.108
 31
0.0
  0
LINE
  5
6B7
330
18
100
AcDbEntity
  8
Object
100
AcDbLine
 10
16.604
 20
8.961
 30
0.0
 11
16.604
 21
8.807
 31
0.0
  0
LINE
  5
6B8
330
18
100
AcDbEntity
  8
Object
100
AcDbLine
 10
16.604
 20
8.807
 30
0.0
 11
16.604
 21
8.647999999999999
 31
0.0
  0
LINE
  5
6B9
330
18
100
AcDbEntity
  8
Object
100
AcDbLine
 10
16.604
 20
8.647999999999999
 30
0.0
 11
16.604
 21
8.484999999999999
 31
0.0
  0
LINE
  5
6BA
330
18
100
AcDbEntity
  8
Object
100
AcDbLine
 10
16.604
 20
8.32
 30
0.0
 11
16.604
 21
8.153
 31
0.0
  0
LINE
  5
6BB
330
18
100
AcDbEntity
  8
Object
100
AcDbLine
 10
16.604
 20
8.153
 30
0.0
 11
16.604
 21
7.953999999999999
 31
0.0
  0
LINE
  5
6BC
330
18
100
AcDbEntity
  8
Object
100
AcDbLine
 10
16.604
 20
7.953999999999999
 30
0.0
 11
16.604
 21
7.953
 31
0.0
  0
LINE
  5
6BD
330
18
100
AcDbEntity
  8
Object
100
AcDbLine
 10
16.604
 20
7.953
 30
0.0
 11
16.604
 21
7.951
 31
0.0
  0
LINE
  5
6BE
330
18
100
AcDbEntity
  8
Object
100
AcDbLine
 10
16.604
 20
7.951
 30
0.0
 11
16.604
 21
7.948
 31
0.0
  0
LINE
  5
6BF
330
18
100
AcDbEntity
  8
Object
100
AcDbLine
 10
16.604
 20
7.948
 30
0.0
 11
16.604
 21
7.943999999999999
 31
0.0
  0
LINE
  5
6C0
330
18
100
AcDbEntity
  8
Object
100
AcDbLine
 10
16.604
 20
6.964
 30
0.0
 11
16.604
 21
6.959999999999999
 31
0.0
  0
LINE
  5
6C1
330
18
100
AcDbEntity
  8
Object
100
AcDbLine
 10
16.604
 20
6.959999999999999
 30
0.0
 11
16.604
 21
6.956999999999999
 31
0.0
  0
LINE
  5
6C2
330
18
100
AcDbEntity
  8
Object
100
AcDbLine
 10
16.604
 20
6.955
 30
0.0
 11
16.604
 21
6.953999999999999
 31
0.0
  0
LINE
  5
6C3
330
18
100
AcDbEntity
  8
Object
100
AcDbLine
 10
16.604
 20
6.953999999999999
 30
0.0
 11
16.604
 21
5.078999999999999
 31
0.0
  0
LINE
  5
6C4
330
18
100
AcDbEntity
  8
Object
100
AcDbLine
 10
16.604
 20
6.956999999999999
 30
0.0
 11
16.604
 21
6.955
 31
0.0
  0
LINE
  5
6C5
330
18
100
AcDbEntity
  8
Object
100
AcDbLine
 10
16.604
 20
7.943999999999999
 30
0.0
 11
16.604
 21
6.964
 31
0.0
  0
LINE
  5
6C6
330
18
100
AcDbEntity
  8
Object
100
AcDbLine
 10
16.674
 20
6.956999999999999
 30
0.0
 11
16.674
 21
6.959999999999999
 31
0.0
  0
LINE
  5
6C7
330
18
100
AcDbEntity
  8
Object
100
AcDbLine
 10
16.604
 20
6.955
 30
0.0
 11
16.604
 21
6.956999999999999
 31
0.0
  0
LINE
  5
6C8
330
18
100
AcDbEntity
  8
Object
100
AcDbLine
 10
16.604
 20
6.956999999999999
 30
0.0
 11
16.604
 21
6.959999999999999
 31
0.0
  0
LINE
  5
6C9
330
18
100
AcDbEntity
  8
Object
100
AcDbLine
 10
16.604
 20
6.959999999999999
 30
0.0
 11
16.604
 21
6.964
 31
0.0
  0
LINE
  5
6CA
330
18
100
AcDbEntity
  8
Object
100
AcDbLine
 10
16.674
 20
6.967
 30
0.0
 11
16.674
 21
6.963
 31
0.0
  0
LINE
  5
6CB
330
18
100
AcDbEntity
  8
Object
100
AcDbLine
 10
16.674
 20
6.963
 30
0.0
 11
16.674
 21
6.959999999999999
 31
0.0
  0
LINE
  5
6CC
330
18
100
AcDbEntity
  8
Object
100
AcDbLine
 10
16.604
 20
6.955
 30
0.0
 11
16.604
 21
6.953999999999999
 31
0.0
  0
LINE
  5
6CD
330
18
100
AcDbEntity
  8
Object
100
AcDbLine
 10
16.674
 20
6.956999999999999
 30
0.0
 11
16.604
 21
6.953999999999999
 31
0.0
  0
LINE
  5
6CE
330
18
100
AcDbEntity
  8
Object
100
AcDbLine
 10
16.674
 20
7.945
 30
0.0
 11
16.674
 21
7.948999999999999
 31
0.0
  0
LINE
  5
6CF
330
18
100
AcDbEntity
  8
Object
100
AcDbLine
 10
16.604
 20
7.948
 30
0.0
 11
16.604
 21
7.951
 31
0.0
  0
LINE
  5
6D0
330
18
100
AcDbEntity
  8
Object
100
AcDbLine
 10
16.604
 20
7.951
 30
0.0
 11
16.604
 21
7.953
 31
0.0
  0
LINE
  5
6D1
330
18
100
AcDbEntity
  8
Object
100
AcDbLine
 10
16.604
 20
7.953
 30
0.0
 11
16.604
 21
7.953999999999999
 31
0.0
  0
LINE
  5
6D2
330
18
100
AcDbEntity
  8
Object
100
AcDbLine
 10
16.604
 20
7.953999999999999
 30
0.0
 11
16.674
 21
7.951
 31
0.0
  0
LINE
  5
6D3
330
18
100
AcDbEntity
  8
Object
100
AcDbLine
 10
16.674
 20
7.951
 30
0.0
 11
16.674
 21
7.948999999999999
 31
0.0
  0
LINE
  5
6D4
330
18
100
AcDbEntity
  8
Object
100
AcDbLine
 10
16.604
 20
7.948
 30
0.0
 11
16.604
 21
7.943999999999999
 31
0.0
  0
LINE
  5
6D5
330
18
100
AcDbEntity
  8
Object
100
AcDbLine
 10
16.674
 20
7.940999999999999
 30
0.0
 11
16.674
 21
7.945
 31
0.0
  0
LINE
  5
6D6
330
18
100
AcDbEntity
  8
Object
100
AcDbLine
 10
16.674
 20
7.945
 30
0.0
 11
16.674
 21
7.940999999999999
 31
0.0
  0
LINE
  5
6D7
330
18
100
AcDbEntity
  8
Object
100
AcDbLine
 10
16.674
 20
6.956999999999999
 30
0.0
 11
16.674
 21
6.959999999999999
 31
0.0
  0
LINE
  5
6D8
330
18
100
AcDbEntity
  8
Object
100
AcDbLine
 10
16.674
 20
6.959999999999999
 30
0.0
 11
16.674
 21
6.963
 31
0.0
  0
LINE
  5
6D9
330
18
100
AcDbEntity
  8
Object
100
AcDbLine
 10
16.674
 20
6.963
 30
0.0
 11
16.674
 21
6.967
 31
0.0
  0
LINE
  5
6DA
330
18
100
AcDbEntity
  8
Object
100
AcDbLine
 10
16.674
 20
6.967
 30
0.0
 11
16.674
 21
7.940999999999999
 31
0.0
  0
LINE
  5
6DB
330
18
100
AcDbEntity
  8
Object
100
AcDbLine
 10
16.674
 20
7.945
 30
0.0
 11
16.674
 21
7.948999999999999
 31
0.0
  0
LINE
  5
6DC
330
18
100
AcDbEntity
  8
Object
100
AcDbLine
 10
16.674
 20
7.948999999999999
 30
0.0
 11
16.674
 21
7.951
 31
0.0
  0
LINE
  5
6DD
330
18
100
AcDbEntity
  8
Object
100
AcDbLine
 10
16.674
 20
10.118
 30
0.0
 11
16.674
 21
12.199
 31
0.0
  0
LINE
  5
6DE
330
18
100
AcDbEntity
  8
Object
100
AcDbLine
 10
16.633
 20
8.153
 30
0.0
 11
16.633
 21
7.953
 31
0.0
  0
LINE
  5
6DF
330
18
100
AcDbEntity
  8
Object
100
AcDbLine
 10
16.633
 20
7.953
 30
0.0
 11
16.622
 21
7.953
 31
0.0
  0
LINE
  5
6E0
330
18
100
AcDbEntity
  8
Object
100
AcDbLine
 10
16.633
 20
8.153
 30
0.0
 11
16.618
 21
8.153
 31
0.0
  0
LINE
  5
6E1
330
18
100
AcDbEntity
  8
Object
100
AcDbLine
 10
16.612
 20
7.953999999999999
 30
0.0
 11
16.622
 21
7.953
 31
0.0
  0
LINE
  5
6E2
330
18
100
AcDbEntity
  8
Object
100
AcDbLine
 10
16.618
 20
8.153
 30
0.0
 11
16.608
 21
8.153
 31
0.0
  0
LINE
  5
6E3
330
18
100
AcDbEntity
  8
Object
100
AcDbLine
 10
16.606
 20
7.953999999999999
 30
0.0
 11
16.612
 21
7.953999999999999
 31
0.0
  0
LINE
  5
6E4
330
18
100
AcDbEntity
  8
Object
100
AcDbLine
 10
16.608
 20
8.153
 30
0.0
 11
16.604
 21
8.153
 31
0.0
  0
LINE
  5
6E5
330
18
100
AcDbEntity
  8
Object
100
AcDbLine
 10
16.606
 20
7.953999999999999
 30
0.0
 11
16.604
 21
7.953999999999999
 31
0.0
  0
LINE
  5
6E6
330
18
100
AcDbEntity
  8
Object
100
AcDbLine
 10
16.604
 20
7.953999999999999
 30
0.0
 11
16.604
 21
8.153
 31
0.0
  0
LINE
  5
6E7
330
18
100
AcDbEntity
  8
Object
100
AcDbLine
 10
16.622
 20
12.28
 30
0.0
 11
16.618
 21
12.278
 31
0.0
  0
LINE
  5
6E8
330
18
100
AcDbEntity
  8
Object
100
AcDbLine
 10
16.618
 20
12.278
 30
0.0
 11
16.612
 21
12.274
 31
0.0
  0
LINE
  5
6E9
330
18
100
AcDbEntity
  8
Object
100
AcDbLine
 10
16.612
 20
12.274
 30
0.0
 11
16.608
 21
12.267
 31
0.0
  0
LINE
  5
6EA
330
18
100
AcDbEntity
  8
Object
100
AcDbLine
 10
16.608
 20
12.267
 30
0.0
 11
16.606
 21
12.264
 31
0.0
  0
LINE
  5
6EB
330
18
100
AcDbEntity
  8
Object
100
AcDbLine
 10
16.633
 20
9.968999999999999
 30
0.0
 11
16.633
 21
10.005
 31
0.0
  0
LINE
  5
6EC
330
18
100
AcDbEntity
  8
Object
100
AcDbLine
 10
16.633
 20
9.856999999999999
 30
0.0
 11
16.633
 21
9.919999999999999
 31
0.0
  0
LINE
  5
6ED
330
18
100
AcDbEntity
  8
Object
100
AcDbLine
 10
16.633
 20
9.692999999999999
 30
0.0
 11
16.633
 21
9.782
 31
0.0
  0
LINE
  5
6EE
330
18
100
AcDbEntity
  8
Object
100
AcDbLine
 10
16.633
 20
10.033
 30
0.0
 11
16.633
 21
10.026
 31
0.0
  0
LINE
  5
6EF
330
18
100
AcDbEntity
  8
Object
100
AcDbLine
 10
16.633
 20
10.026
 30
0.0
 11
16.633
 21
10.005
 31
0.0
  0
LINE
  5
6F0
330
18
100
AcDbEntity
  8
Object
100
AcDbLine
 10
16.633
 20
9.919999999999999
 30
0.0
 11
16.633
 21
9.968999999999999
 31
0.0
  0
LINE
  5
6F1
330
18
100
AcDbEntity
  8
Object
100
AcDbLine
 10
16.633
 20
9.782
 30
0.0
 11
16.633
 21
9.856999999999999
 31
0.0
  0
LINE
  5
6F2
330
18
100
AcDbEntity
  8
Object
100
AcDbLine
 10
16.633
 20
9.483
 30
0.0
 11
16.633
 21
9.593999999999999
 31
0.0
  0
LINE
  5
6F3
330
18
100
AcDbEntity
  8
Object
100
AcDbLine
 10
16.633
 20
9.593999999999999
 30
0.0
 11
16.633
 21
9.692999999999999
 31
0.0
  0
LINE
  5
6F4
330
18
100
AcDbEntity
  8
Object
100
AcDbLine
 10
16.633
 20
9.483
 30
0.0
 11
16.633
 21
9.362
 31
0.0
  0
LINE
  5
6F5
330
18
100
AcDbEntity
  8
Object
100
AcDbLine
 10
16.633
 20
9.362
 30
0.0
 11
16.633
 21
9.231999999999999
 31
0.0
  0
LINE
  5
6F6
330
18
100
AcDbEntity
  8
Object
100
AcDbLine
 10
16.633
 20
8.948
 30
0.0
 11
16.633
 21
9.092999999999999
 31
0.0
  0
LINE
  5
6F7
330
18
100
AcDbEntity
  8
Object
100
AcDbLine
 10
16.633
 20
9.092999999999999
 30
0.0
 11
16.633
 21
9.231999999999999
 31
0.0
  0
LINE
  5
6F8
330
18
100
AcDbEntity
  8
Object
100
AcDbLine
 10
16.633
 20
8.64
 30
0.0
 11
16.633
 21
8.795999999999999
 31
0.0
  0
LINE
  5
6F9
330
18
100
AcDbEntity
  8
Object
100
AcDbLine
 10
16.633
 20
8.795999999999999
 30
0.0
 11
16.633
 21
8.948
 31
0.0
  0
LINE
  5
6FA
330
18
100
AcDbEntity
  8
Object
100
AcDbLine
 10
16.633
 20
8.317
 30
0.0
 11
16.633
 21
8.48
 31
0.0
  0
LINE
  5
6FB
330
18
100
AcDbEntity
  8
Object
100
AcDbLine
 10
16.633
 20
8.48
 30
0.0
 11
16.633
 21
8.64
 31
0.0
  0
LINE
  5
6FC
330
18
100
AcDbEntity
  8
Object
100
AcDbLine
 10
16.633
 20
8.153
 30
0.0
 11
16.633
 21
8.317
 31
0.0
  0
LINE
  5
6FD
330
18
100
AcDbEntity
  8
Object
100
AcDbLine
 10
16.604
 20
10.063
 30
0.0
 11
16.604
 21
10.056
 31
0.0
  0
LINE
  5
6FE
330
18
100
AcDbEntity
  8
Object
100
AcDbLine
 10
16.604
 20
10.056
 30
0.0
 11
16.604
 21
10.034
 31
0.0
  0
LINE
  5
6FF
330
18
100
AcDbEntity
  8
Object
100
AcDbLine
 10
16.604
 20
9.997999999999999
 30
0.0
 11
16.604
 21
9.948
 31
0.0
  0
LINE
  5
700
330
18
100
AcDbEntity
  8
Object
100
AcDbLine
 10
16.604
 20
9.884
 30
0.0
 11
16.604
 21
9.807999999999999
 31
0.0
  0
LINE
  5
701
330
18
100
AcDbEntity
  8
Object
100
AcDbLine
 10
16.604
 20
9.807999999999999
 30
0.0
 11
16.604
 21
9.717999999999999
 31
0.0
  0
LINE
  5
702
330
18
100
AcDbEntity
  8
Object
100
AcDbLine
 10
16.604
 20
9.948
 30
0.0
 11
16.604
 21
9.884
 31
0.0
  0
LINE
  5
703
330
18
100
AcDbEntity
  8
Object
100
AcDbLine
 10
16.604
 20
10.034
 30
0.0
 11
16.604
 21
9.997999999999999
 31
0.0
  0
LINE
  5
704
330
18
100
AcDbEntity
  8
Object
100
AcDbLine
 10
16.604
 20
9.717999999999999
 30
0.0
 11
16.604
 21
9.617
 31
0.0
  0
LINE
  5
705
330
18
100
AcDbEntity
  8
Object
100
AcDbLine
 10
16.604
 20
9.381
 30
0.0
 11
16.604
 21
9.503999999999999
 31
0.0
  0
LINE
  5
706
330
18
100
AcDbEntity
  8
Object
100
AcDbLine
 10
16.604
 20
9.503999999999999
 30
0.0
 11
16.604
 21
9.617
 31
0.0
  0
LINE
  5
707
330
18
100
AcDbEntity
  8
Object
100
AcDbLine
 10
16.604
 20
9.249
 30
0.0
 11
16.604
 21
9.108
 31
0.0
  0
LINE
  5
708
330
18
100
AcDbEntity
  8
Object
100
AcDbLine
 10
16.604
 20
9.108
 30
0.0
 11
16.604
 21
8.961
 31
0.0
  0
LINE
  5
709
330
18
100
AcDbEntity
  8
Object
100
AcDbLine
 10
16.604
 20
9.381
 30
0.0
 11
16.604
 21
9.249
 31
0.0
  0
LINE
  5
70A
330
18
100
AcDbEntity
  8
Object
100
AcDbLine
 10
16.604
 20
8.961
 30
0.0
 11
16.604
 21
8.807
 31
0.0
  0
LINE
  5
70B
330
18
100
AcDbEntity
  8
Object
100
AcDbLine
 10
16.604
 20
8.807
 30
0.0
 11
16.604
 21
8.647999999999999
 31
0.0
  0
LINE
  5
70C
330
18
100
AcDbEntity
  8
Object
100
AcDbLine
 10
16.604
 20
8.647999999999999
 30
0.0
 11
16.604
 21
8.484999999999999
 31
0.0
  0
LINE
  5
70D
330
18
100
AcDbEntity
  8
Object
100
AcDbLine
 10
16.604
 20
8.484999999999999
 30
0.0
 11
16.604
 21
8.32
 31
0.0
  0
LINE
  5
70E
330
18
100
AcDbEntity
  8
Object
100
AcDbLine
 10
16.604
 20
8.32
 30
0.0
 11
16.604
 21
8.153
 31
0.0
  0
LINE
  5
70F
330
18
100
AcDbEntity
  8
Object
100
AcDbLine
 10
16.688
 20
12.214
 30
0.0
 11
16.691
 21
12.214
 31
0.0
  0
LINE
  5
710
330
18
100
AcDbEntity
  8
Object
100
AcDbLine
 10
16.68
 20
12.21
 30
0.0
 11
16.682
 21
12.211
 31
0.0
  0
LINE
  5
711
330
18
100
AcDbEntity
  8
Object
100
AcDbLine
 10
16.607
 20
12.266
 30
0.0
 11
16.606
 21
12.264
 31
0.0
  0
LINE
  5
712
330
18
100
AcDbEntity
  8
Object
100
AcDbLine
 10
16.608
 20
12.268
 30
0.0
 11
16.612
 21
12.274
 31
0.0
  0
LINE
  5
713
330
18
100
AcDbEntity
  8
Object
100
AcDbLine
 10
16.612
 20
12.274
 30
0.0
 11
16.617
 21
12.277
 31
0.0
  0
LINE
  5
714
330
18
100
AcDbEntity
  8
Object
100
AcDbLine
 10
16.622
 20
12.28
 30
0.0
 11
16.619
 21
12.278
 31
0.0
  0
LINE
  5
715
330
18
100
AcDbEntity
  8
Object
100
AcDbLine
 10
16.675
 20
12.205
 30
0.0
 11
16.676
 21
12.206
 31
0.0
  0
LINE
  5
716
330
18
100
AcDbEntity
  8
Object
100
AcDbLine
 10
16.633
 20
12.283
 30
0.0
 11
16.622
 21
12.28
 31
0.0
  0
LINE
  5
717
330
18
100
AcDbEntity
  8
Object
100
AcDbLine
 10
16.606
 20
12.264
 30
0.0
 11
16.604
 21
12.253
 31
0.0
  0
LINE
  5
718
330
18
100
AcDbEntity
  8
Object
100
AcDbLine
 10
16.954
 20
12.237
 30
0.0
 11
16.952
 21
12.23
 31
0.0
  0
LINE
  5
719
330
18
100
AcDbEntity
  8
Object
100
AcDbLine
 10
16.952
 20
12.23
 30
0.0
 11
16.947
 21
12.224
 31
0.0
  0
LINE
  5
71A
330
18
100
AcDbEntity
  8
Object
100
AcDbLine
 10
16.947
 20
10.092
 30
0.0
 11
16.952
 21
10.086
 31
0.0
  0
LINE
  5
71B
330
18
100
AcDbEntity
  8
Object
100
AcDbLine
 10
16.952
 20
10.086
 30
0.0
 11
16.954
 21
10.079
 31
0.0
  0
LINE
  5
71C
330
18
100
AcDbEntity
  8
Object
100
AcDbLine
 10
16.939
 20
12.222
 30
0.0
 11
16.947
 21
12.224
 31
0.0
  0
LINE
  5
71D
330
18
100
AcDbEntity
  8
Object
100
AcDbLine
 10
16.954
 20
12.237
 30
0.0
 11
16.954
 21
12.294
 31
0.0
  0
LINE
  5
71E
330
18
100
AcDbEntity
  8
Object
100
AcDbLine
 10
16.947
 20
10.092
 30
0.0
 11
16.939
 21
10.094
 31
0.0
  0
LINE
  5
71F
330
18
100
AcDbEntity
  8
Object
100
AcDbLine
 10
16.954
 20
10.022
 30
0.0
 11
16.954
 21
10.079
 31
0.0
  0
LINE
  5
720
330
18
100
AcDbEntity
  8
Object
100
AcDbLine
 10
16.688
 20
12.214
 30
0.0
 11
16.939
 21
12.222
 31
0.0
  0
LINE
  5
721
330
18
100
AcDbEntity
  8
Object
100
AcDbLine
 10
16.939
 20
10.094
 30
0.0
 11
16.688
 21
10.103
 31
0.0
  0
LINE
  5
722
330
18
100
AcDbEntity
  8
Object
100
AcDbLine
 10
16.681
 20
12.211
 30
0.0
 11
16.688
 21
12.214
 31
0.0
  0
LINE
  5
723
330
18
100
AcDbEntity
  8
Object
100
AcDbLine
 10
16.954
 20
12.294
 30
0.0
 11
16.633
 21
12.283
 31
0.0
  0
LINE
  5
724
330
18
100
AcDbEntity
  8
Object
100
AcDbLine
 10
16.676
 20
12.206
 30
0.0
 11
16.681
 21
12.211
 31
0.0
  0
LINE
  5
725
330
18
100
AcDbEntity
  8
Object
100
AcDbLine
 10
16.676
 20
10.11
 30
0.0
 11
16.681
 21
10.105
 31
0.0
  0
LINE
  5
726
330
18
100
AcDbEntity
  8
Object
100
AcDbLine
 10
16.681
 20
10.105
 30
0.0
 11
16.688
 21
10.103
 31
0.0
  0
LINE
  5
727
330
18
100
AcDbEntity
  8
Object
100
AcDbLine
 10
16.633
 20
10.033
 30
0.0
 11
16.954
 21
10.022
 31
0.0
  0
LINE
  5
728
330
18
100
AcDbEntity
  8
Object
100
AcDbLine
 10
16.618
 20
12.278
 30
0.0
 11
16.608
 21
12.267
 31
0.0
  0
LINE
  5
729
330
18
100
AcDbEntity
  8
Object
100
AcDbLine
 10
16.608
 20
12.267
 30
0.0
 11
16.604
 21
12.253
 31
0.0
  0
LINE
  5
72A
330
18
100
AcDbEntity
  8
Object
100
AcDbLine
 10
16.633
 20
12.283
 30
0.0
 11
16.618
 21
12.278
 31
0.0
  0
LINE
  5
72B
330
18
100
AcDbEntity
  8
Object
100
AcDbLine
 10
16.674
 20
12.199
 30
0.0
 11
16.676
 21
12.206
 31
0.0
  0
LINE
  5
72C
330
18
100
AcDbEntity
  8
Object
100
AcDbLine
 10
16.676
 20
10.11
 30
0.0
 11
16.674
 21
10.118
 31
0.0
  0
LINE
  5
72D
330
18
100
AcDbEntity
  8
Object
100
AcDbLine
 10
16.618
 20
10.038
 30
0.0
 11
16.608
 21
10.049
 31
0.0
  0
LINE
  5
72E
330
18
100
AcDbEntity
  8
Object
100
AcDbLine
 10
16.608
 20
10.049
 30
0.0
 11
16.604
 21
10.063
 31
0.0
  0
LINE
  5
72F
330
18
100
AcDbEntity
  8
Object
100
AcDbLine
 10
16.604
 20
10.063
 30
0.0
 11
16.604
 21
12.253
 31
0.0
  0
LINE
  5
730
330
18
100
AcDbEntity
  8
Object
100
AcDbLine
 10
16.674
 20
10.118
 30
0.0
 11
16.674
 21
12.199
 31
0.0
  0
LINE
  5
731
330
18
100
AcDbEntity
  8
Object
100
AcDbLine
 10
16.618
 20
10.038
 30
0.0
 11
16.633
 21
10.033
 31
0.0
  0
LINE
  5
732
330
18
100
AcDbEntity
  8
Object
100
AcDbLine
 10
16.622
 20
12.28
 30
0.0
 11
16.633
 21
12.283
 31
0.0
  0
LINE
  5
733
330
18
100
AcDbEntity
  8
Object
100
AcDbLine
 10
16.633
 20
12.283
 30
0.0
 11
16.622
 21
12.28
 31
0.0
  0
LINE
  5
734
330
18
100
AcDbEntity
  8
Object
100
AcDbLine
 10
16.622
 20
12.28
 30
0.0
 11
16.633
 21
12.283
 31
0.0
  0
LINE
  5
735
330
18
100
AcDbEntity
  8
Object
100
AcDbLine
 10
16.622
 20
12.28
 30
0.0
 11
16.618
 21
12.278
 31
0.0
  0
LINE
  5
736
330
18
100
AcDbEntity
  8
Object
100
AcDbLine
 10
16.618
 20
12.278
 30
0.0
 11
16.633
 21
12.283
 31
0.0
  0
LINE
  5
737
330
18
100
AcDbEntity
  8
Object
100
AcDbLine
 10
16.622
 20
12.28
 30
0.0
 11
16.618
 21
12.278
 31
0.0
  0
LINE
  5
738
330
18
100
AcDbEntity
  8
Object
100
AcDbLine
 10
16.618
 20
12.278
 30
0.0
 11
16.612
 21
12.274
 31
0.0
  0
LINE
  5
739
330
18
100
AcDbEntity
  8
Object
100
AcDbLine
 10
16.619
 20
12.278
 30
0.0
 11
16.622
 21
12.28
 31
0.0
  0
LINE
  5
73A
330
18
100
AcDbEntity
  8
Object
100
AcDbLine
 10
16.617
 20
12.277
 30
0.0
 11
16.612
 21
12.274
 31
0.0
  0
LINE
  5
73B
330
18
100
AcDbEntity
  8
Object
100
AcDbLine
 10
16.612
 20
12.274
 30
0.0
 11
16.618
 21
12.278
 31
0.0
  0
LINE
  5
73C
330
18
100
AcDbEntity
  8
Object
100
AcDbLine
 10
16.612
 20
12.274
 30
0.0
 11
16.608
 21
12.267
 31
0.0
  0
LINE
  5
73D
330
18
100
AcDbEntity
  8
Object
100
AcDbLine
 10
16.608
 20
12.267
 30
0.0
 11
16.612
 21
12.274
 31
0.0
  0
LINE
  5
73E
330
18
100
AcDbEntity
  8
Object
100
AcDbLine
 10
16.618
 20
12.278
 30
0.0
 11
16.608
 21
12.267
 31
0.0
  0
LINE
  5
73F
330
18
100
AcDbEntity
  8
Object
100
AcDbLine
 10
16.608
 20
12.267
 30
0.0
 11
16.606
 21
12.264
 31
0.0
  0
LINE
  5
740
330
18
100
AcDbEntity
  8
Object
100
AcDbLine
 10
16.608
 20
12.268
 30
0.0
 11
16.612
 21
12.274
 31
0.0
  0
LINE
  5
741
330
18
100
AcDbEntity
  8
Object
100
AcDbLine
 10
16.607
 20
12.266
 30
0.0
 11
16.606
 21
12.264
 31
0.0
  0
LINE
  5
742
330
18
100
AcDbEntity
  8
Object
100
AcDbLine
 10
16.606
 20
12.264
 30
0.0
 11
16.608
 21
12.267
 31
0.0
  0
LINE
  5
743
330
18
100
AcDbEntity
  8
Object
100
AcDbLine
 10
16.606
 20
12.264
 30
0.0
 11
16.604
 21
12.253
 31
0.0
  0
LINE
  5
744
330
18
100
AcDbEntity
  8
Object
100
AcDbLine
 10
16.604
 20
12.253
 30
0.0
 11
16.608
 21
12.267
 31
0.0
  0
LINE
  5
745
330
18
100
AcDbEntity
  8
Object
100
AcDbLine
 10
16.606
 20
12.264
 30
0.0
 11
16.604
 21
12.253
 31
0.0
  0
LINE
  5
746
330
18
100
AcDbEntity
  8
Object
100
AcDbLine
 10
16.604
 20
12.253
 30
0.0
 11
16.606
 21
12.264
 31
0.0
  0
LINE
  5
747
330
18
100
AcDbEntity
  8
Object
100
AcDbLine
 10
16.622
 20
10.036
 30
0.0
 11
16.618
 21
10.038
 31
0.0
  0
LINE
  5
748
330
18
100
AcDbEntity
  8
Object
100
AcDbLine
 10
16.618
 20
10.038
 30
0.0
 11
16.612
 21
10.043
 31
0.0
  0
LINE
  5
749
330
18
100
AcDbEntity
  8
Object
100
AcDbLine
 10
16.612
 20
10.043
 30
0.0
 11
16.608
 21
10.049
 31
0.0
  0
LINE
  5
74A
330
18
100
AcDbEntity
  8
Object
100
AcDbLine
 10
16.608
 20
10.049
 30
0.0
 11
16.606
 21
10.053
 31
0.0
  0
LINE
  5
74B
330
18
100
AcDbEntity
  8
Object
100
AcDbLine
 10
16.691
 20
7.95
 30
0.0
 11
16.688
 21
7.951
 31
0.0
  0
LINE
  5
74C
330
18
100
AcDbEntity
  8
Object
100
AcDbLine
 10
16.688
 20
7.951
 30
0.0
 11
16.686
 21
7.951
 31
0.0
  0
LINE
  5
74D
330
18
100
AcDbEntity
  8
Object
100
AcDbLine
 10
16.676
 20
7.951
 30
0.0
 11
16.675
 21
7.951
 31
0.0
  0
LINE
  5
74E
330
18
100
AcDbEntity
  8
Object
100
AcDbLine
 10
16.675
 20
7.951
 30
0.0
 11
16.674
 21
7.951
 31
0.0
  0
LINE
  5
74F
330
18
100
AcDbEntity
  8
Object
100
AcDbLine
 10
16.764
 20
7.948
 30
0.0
 11
16.633
 21
7.953
 31
0.0
  0
LINE
  5
750
330
18
100
AcDbEntity
  8
Object
100
AcDbLine
 10
16.633
 20
7.953
 30
0.0
 11
16.622
 21
7.953
 31
0.0
  0
LINE
  5
751
330
18
100
AcDbEntity
  8
Object
100
AcDbLine
 10
16.622
 20
7.953
 30
0.0
 11
16.612
 21
7.953999999999999
 31
0.0
  0
LINE
  5
752
330
18
100
AcDbEntity
  8
Object
100
AcDbLine
 10
16.612
 20
7.953999999999999
 30
0.0
 11
16.606
 21
7.953999999999999
 31
0.0
  0
LINE
  5
753
330
18
100
AcDbEntity
  8
Object
100
AcDbLine
 10
16.606
 20
7.953999999999999
 30
0.0
 11
16.604
 21
7.953999999999999
 31
0.0
  0
LINE
  5
754
330
18
100
AcDbEntity
  8
Object
100
AcDbLine
 10
16.604
 20
7.953999999999999
 30
0.0
 11
16.674
 21
7.951
 31
0.0
  0
LINE
  5
755
330
18
100
AcDbEntity
  8
Object
100
AcDbLine
 10
16.622
 20
6.955
 30
0.0
 11
16.633
 21
6.955
 31
0.0
  0
LINE
  5
756
330
18
100
AcDbEntity
  8
Object
100
AcDbLine
 10
16.633
 20
6.955
 30
0.0
 11
16.633
 21
5.078999999999999
 31
0.0
  0
LINE
  5
757
330
18
100
AcDbEntity
  8
Object
100
AcDbLine
 10
16.633
 20
5.078999999999999
 30
0.0
 11
16.618
 21
5.078999999999999
 31
0.0
  0
LINE
  5
758
330
18
100
AcDbEntity
  8
Object
100
AcDbLine
 10
16.622
 20
6.955
 30
0.0
 11
16.612
 21
6.953999999999999
 31
0.0
  0
LINE
  5
759
330
18
100
AcDbEntity
  8
Object
100
AcDbLine
 10
16.608
 20
5.078999999999999
 30
0.0
 11
16.618
 21
5.078999999999999
 31
0.0
  0
LINE
  5
75A
330
18
100
AcDbEntity
  8
Object
100
AcDbLine
 10
16.612
 20
6.953999999999999
 30
0.0
 11
16.606
 21
6.953999999999999
 31
0.0
  0
LINE
  5
75B
330
18
100
AcDbEntity
  8
Object
100
AcDbLine
 10
16.608
 20
5.078999999999999
 30
0.0
 11
16.604
 21
5.078999999999999
 31
0.0
  0
LINE
  5
75C
330
18
100
AcDbEntity
  8
Object
100
AcDbLine
 10
16.604
 20
5.078999999999999
 30
0.0
 11
16.604
 21
6.953999999999999
 31
0.0
  0
LINE
  5
75D
330
18
100
AcDbEntity
  8
Object
100
AcDbLine
 10
16.604
 20
6.953999999999999
 30
0.0
 11
16.606
 21
6.953999999999999
 31
0.0
  0
LINE
  5
75E
330
18
100
AcDbEntity
  8
Object
100
AcDbLine
 10
16.691
 20
10.102
 30
0.0
 11
16.688
 21
10.103
 31
0.0
  0
LINE
  5
75F
330
18
100
AcDbEntity
  8
Object
100
AcDbLine
 10
16.681
 20
10.104
 30
0.0
 11
16.68
 21
10.106
 31
0.0
  0
LINE
  5
760
330
18
100
AcDbEntity
  8
Object
100
AcDbLine
 10
16.619
 20
10.037
 30
0.0
 11
16.622
 21
10.036
 31
0.0
  0
LINE
  5
761
330
18
100
AcDbEntity
  8
Object
100
AcDbLine
 10
16.616
 20
10.039
 30
0.0
 11
16.612
 21
10.043
 31
0.0
  0
LINE
  5
762
330
18
100
AcDbEntity
  8
Object
100
AcDbLine
 10
16.612
 20
10.043
 30
0.0
 11
16.609
 21
10.047
 31
0.0
  0
LINE
  5
763
330
18
100
AcDbEntity
  8
Object
100
AcDbLine
 10
16.606
 20
10.053
 30
0.0
 11
16.607
 21
10.05
 31
0.0
  0
LINE
  5
764
330
18
100
AcDbEntity
  8
Object
100
AcDbLine
 10
16.676
 20
10.109
 30
0.0
 11
16.675
 21
10.111
 31
0.0
  0
LINE
  5
765
330
18
100
AcDbEntity
  8
Object
100
AcDbLine
 10
16.604
 20
10.063
 30
0.0
 11
16.606
 21
10.053
 31
0.0
  0
LINE
  5
766
330
18
100
AcDbEntity
  8
Object
100
AcDbLine
 10
16.622
 20
10.036
 30
0.0
 11
16.633
 21
10.033
 31
0.0
  0
LINE
  5
767
330
18
100
AcDbEntity
  8
Object
100
AcDbLine
 10
16.691
 20
6.956999999999999
 30
0.0
 11
16.688
 21
6.956999999999999
 31
0.0
  0
LINE
  5
768
330
18
100
AcDbEntity
  8
Object
100
AcDbLine
 10
16.688
 20
6.956999999999999
 30
0.0
 11
16.686
 21
6.956999999999999
 31
0.0
  0
LINE
  5
769
330
18
100
AcDbEntity
  8
Object
100
AcDbLine
 10
16.676
 20
6.956999999999999
 30
0.0
 11
16.675
 21
6.956999999999999
 31
0.0
  0
LINE
  5
76A
330
18
100
AcDbEntity
  8
Object
100
AcDbLine
 10
16.675
 20
6.956999999999999
 30
0.0
 11
16.674
 21
6.956999999999999
 31
0.0
  0
LINE
  5
76B
330
18
100
AcDbEntity
  8
Object
100
AcDbLine
 10
16.764
 20
6.959999999999999
 30
0.0
 11
16.633
 21
6.955
 31
0.0
  0
LINE
  5
76C
330
18
100
AcDbEntity
  8
Object
100
AcDbLine
 10
16.633
 20
6.955
 30
0.0
 11
16.622
 21
6.955
 31
0.0
  0
LINE
  5
76D
330
18
100
AcDbEntity
  8
Object
100
AcDbLine
 10
16.622
 20
6.955
 30
0.0
 11
16.612
 21
6.953999999999999
 31
0.0
  0
LINE
  5
76E
330
18
100
AcDbEntity
  8
Object
100
AcDbLine
 10
16.612
 20
6.953999999999999
 30
0.0
 11
16.606
 21
6.953999999999999
 31
0.0
  0
LINE
  5
76F
330
18
100
AcDbEntity
  8
Object
100
AcDbLine
 10
16.606
 20
6.953999999999999
 30
0.0
 11
16.604
 21
6.953999999999999
 31
0.0
  0
LINE
  5
770
330
18
100
AcDbEntity
  8
Object
100
AcDbLine
 10
16.604
 20
6.953999999999999
 30
0.0
 11
16.674
 21
6.956999999999999
 31
0.0
  0
LINE
  5
771
330
18
100
AcDbEntity
  8
Object
100
AcDbLine
 10
16.633
 20
10.033
 30
0.0
 11
16.622
 21
10.036
 31
0.0
  0
LINE
  5
772
330
18
100
AcDbEntity
  8
Object
100
AcDbLine
 10
16.622
 20
10.036
 30
0.0
 11
16.633
 21
10.033
 31
0.0
  0
LINE
  5
773
330
18
100
AcDbEntity
  8
Object
100
AcDbLine
 10
16.633
 20
10.033
 30
0.0
 11
16.622
 21
10.036
 31
0.0
  0
LINE
  5
774
330
18
100
AcDbEntity
  8
Object
100
AcDbLine
 10
16.622
 20
10.036
 30
0.0
 11
16.618
 21
10.038
 31
0.0
  0
LINE
  5
775
330
18
100
AcDbEntity
  8
Object
100
AcDbLine
 10
16.618
 20
10.038
 30
0.0
 11
16.633
 21
10.033
 31
0.0
  0
LINE
  5
776
330
18
100
AcDbEntity
  8
Object
100
AcDbLine
 10
16.618
 20
10.038
 30
0.0
 11
16.622
 21
10.036
 31
0.0
  0
LINE
  5
777
330
18
100
AcDbEntity
  8
Object
100
AcDbLine
 10
16.616
 20
10.039
 30
0.0
 11
16.612
 21
10.043
 31
0.0
  0
LINE
  5
778
330
18
100
AcDbEntity
  8
Object
100
AcDbLine
 10
16.622
 20
10.036
 30
0.0
 11
16.619
 21
10.037
 31
0.0
  0
LINE
  5
779
330
18
100
AcDbEntity
  8
Object
100
AcDbLine
 10
16.612
 20
10.043
 30
0.0
 11
16.618
 21
10.038
 31
0.0
  0
LINE
  5
77A
330
18
100
AcDbEntity
  8
Object
100
AcDbLine
 10
16.618
 20
10.038
 30
0.0
 11
16.612
 21
10.043
 31
0.0
  0
LINE
  5
77B
330
18
100
AcDbEntity
  8
Object
100
AcDbLine
 10
16.612
 20
10.043
 30
0.0
 11
16.608
 21
10.049
 31
0.0
  0
LINE
  5
77C
330
18
100
AcDbEntity
  8
Object
100
AcDbLine
 10
16.608
 20
10.049
 30
0.0
 11
16.612
 21
10.043
 31
0.0
  0
LINE
  5
77D
330
18
100
AcDbEntity
  8
Object
100
AcDbLine
 10
16.618
 20
10.038
 30
0.0
 11
16.608
 21
10.049
 31
0.0
  0
LINE
  5
77E
330
18
100
AcDbEntity
  8
Object
100
AcDbLine
 10
16.608
 20
10.049
 30
0.0
 11
16.606
 21
10.053
 31
0.0
  0
LINE
  5
77F
330
18
100
AcDbEntity
  8
Object
100
AcDbLine
 10
16.606
 20
10.053
 30
0.0
 11
16.608
 21
10.049
 31
0.0
  0
LINE
  5
780
330
18
100
AcDbEntity
  8
Object
100
AcDbLine
 10
16.607
 20
10.05
 30
0.0
 11
16.606
 21
10.053
 31
0.0
  0
LINE
  5
781
330
18
100
AcDbEntity
  8
Object
100
AcDbLine
 10
16.612
 20
10.043
 30
0.0
 11
16.609
 21
10.047
 31
0.0
  0
LINE
  5
782
330
18
100
AcDbEntity
  8
Object
100
AcDbLine
 10
16.606
 20
10.053
 30
0.0
 11
16.604
 21
10.063
 31
0.0
  0
LINE
  5
783
330
18
100
AcDbEntity
  8
Object
100
AcDbLine
 10
16.604
 20
10.063
 30
0.0
 11
16.608
 21
10.049
 31
0.0
  0
LINE
  5
784
330
18
100
AcDbEntity
  8
Object
100
AcDbLine
 10
16.606
 20
10.053
 30
0.0
 11
16.604
 21
10.063
 31
0.0
  0
LINE
  5
785
330
18
100
AcDbEntity
  8
Object
100
AcDbLine
 10
16.604
 20
10.063
 30
0.0
 11
16.606
 21
10.053
 31
0.0
  0
LINE
  5
786
330
18
100
AcDbEntity
  8
Object
100
AcDbLine
 10
16.954
 20
5.078999999999999
 30
0.0
 11
16.633
 21
5.078999999999999
 31
0.0
  0
LINE
  5
787
330
18
100
AcDbEntity
  8
Object
100
AcDbLine
 10
16.633
 20
5.078999999999999
 30
0.0
 11
16.618
 21
5.078999999999999
 31
0.0
  0
LINE
  5
788
330
18
100
AcDbEntity
  8
Object
100
AcDbLine
 10
16.618
 20
5.078999999999999
 30
0.0
 11
16.608
 21
5.078999999999999
 31
0.0
  0
LINE
  5
789
330
18
100
AcDbEntity
  8
Object
100
AcDbLine
 10
16.608
 20
5.078999999999999
 30
0.0
 11
16.604
 21
5.078999999999999
 31
0.0
  0
LINE
  5
78A
330
18
100
AcDbEntity
  8
Object
100
AcDbLine
 10
16.686
 20
7.951
 30
0.0
 11
16.688
 21
7.951
 31
0.0
  0
LINE
  5
78B
330
18
100
AcDbEntity
  8
Object
100
AcDbLine
 10
16.676
 20
7.951
 30
0.0
 11
16.675
 21
7.951
 31
0.0
  0
LINE
  5
78C
330
18
100
AcDbEntity
  8
Object
100
AcDbLine
 10
16.675
 20
7.951
 30
0.0
 11
16.674
 21
7.951
 31
0.0
  0
LINE
  5
78D
330
18
100
AcDbEntity
  8
Object
100
AcDbLine
 10
16.688
 20
10.103
 30
0.0
 11
16.681
 21
10.105
 31
0.0
  0
LINE
  5
78E
330
18
100
AcDbEntity
  8
Object
100
AcDbLine
 10
16.68
 20
10.106
 30
0.0
 11
16.681
 21
10.104
 31
0.0
  0
LINE
  5
78F
330
18
100
AcDbEntity
  8
Object
100
AcDbLine
 10
16.681
 20
10.105
 30
0.0
 11
16.676
 21
10.11
 31
0.0
  0
LINE
  5
790
330
18
100
AcDbEntity
  8
Object
100
AcDbLine
 10
16.675
 20
10.111
 30
0.0
 11
16.676
 21
10.109
 31
0.0
  0
LINE
  5
791
330
18
100
AcDbEntity
  8
Object
100
AcDbLine
 10
16.676
 20
10.11
 30
0.0
 11
16.674
 21
10.118
 31
0.0
  0
LINE
  5
792
330
18
100
AcDbEntity
  8
Object
100
AcDbLine
 10
16.688
 20
12.096
 30
0.0
 11
16.688
 21
12.146
 31
0.0
  0
LINE
  5
793
330
18
100
AcDbEntity
  8
Object
100
AcDbLine
 10
16.688
 20
11.963
 30
0.0
 11
16.688
 21
12.035
 31
0.0
  0
LINE
  5
794
330
18
100
AcDbEntity
  8
Object
100
AcDbLine
 10
16.688
 20
12.214
 30
0.0
 11
16.688
 21
12.206
 31
0.0
  0
LINE
  5
795
330
18
100
AcDbEntity
  8
Object
100
AcDbLine
 10
16.688
 20
12.206
 30
0.0
 11
16.688
 21
12.183
 31
0.0
  0
LINE
  5
796
330
18
100
AcDbEntity
  8
Object
100
AcDbLine
 10
16.688
 20
12.183
 30
0.0
 11
16.688
 21
12.146
 31
0.0
  0
LINE
  5
797
330
18
100
AcDbEntity
  8
Object
100
AcDbLine
 10
16.688
 20
12.035
 30
0.0
 11
16.688
 21
12.096
 31
0.0
  0
LINE
  5
798
330
18
100
AcDbEntity
  8
Object
100
AcDbLine
 10
16.688
 20
11.8
 30
0.0
 11
16.688
 21
11.884
 31
0.0
  0
LINE
  5
799
330
18
100
AcDbEntity
  8
Object
100
AcDbLine
 10
16.688
 20
11.884
 30
0.0
 11
16.688
 21
11.963
 31
0.0
  0
LINE
  5
79A
330
18
100
AcDbEntity
  8
Object
100
AcDbLine
 10
16.688
 20
11.8
 30
0.0
 11
16.688
 21
11.713
 31
0.0
  0
LINE
  5
79B
330
18
100
AcDbEntity
  8
Object
100
AcDbLine
 10
16.688
 20
11.713
 30
0.0
 11
16.688
 21
10.103
 31
0.0
  0
LINE
  5
79C
330
18
100
AcDbEntity
  8
Object
100
AcDbLine
 10
16.688
 20
11.713
 30
0.0
 11
16.681
 21
11.713
 31
0.0
  0
LINE
  5
79D
330
18
100
AcDbEntity
  8
Object
100
AcDbLine
 10
16.681
 20
11.713
 30
0.0
 11
16.676
 21
11.713
 31
0.0
  0
LINE
  5
79E
330
18
100
AcDbEntity
  8
Object
100
AcDbLine
 10
16.676
 20
11.713
 30
0.0
 11
16.674
 21
11.713
 31
0.0
  0
LINE
  5
79F
330
18
100
AcDbEntity
  8
Object
100
AcDbLine
 10
16.688
 20
6.956999999999999
 30
0.0
 11
16.686
 21
6.956999999999999
 31
0.0
  0
LINE
  5
7A0
330
18
100
AcDbEntity
  8
Object
100
AcDbLine
 10
16.676
 20
6.956999999999999
 30
0.0
 11
16.675
 21
6.956999999999999
 31
0.0
  0
LINE
  5
7A1
330
18
100
AcDbEntity
  8
Object
100
AcDbLine
 10
16.675
 20
6.956999999999999
 30
0.0
 11
16.674
 21
6.956999999999999
 31
0.0
  0
LINE
  5
7A2
330
18
100
AcDbEntity
  8
Object
100
AcDbLine
 10
16.681
 20
12.211
 30
0.0
 11
16.688
 21
12.214
 31
0.0
  0
LINE
  5
7A3
330
18
100
AcDbEntity
  8
Object
100
AcDbLine
 10
16.682
 20
12.211
 30
0.0
 11
16.68
 21
12.21
 31
0.0
  0
LINE
  5
7A4
330
18
100
AcDbEntity
  8
Object
100
AcDbLine
 10
16.681
 20
12.211
 30
0.0
 11
16.676
 21
12.206
 31
0.0
  0
LINE
  5
7A5
330
18
100
AcDbEntity
  8
Object
100
AcDbLine
 10
16.676
 20
12.206
 30
0.0
 11
16.675
 21
12.205
 31
0.0
  0
LINE
  5
7A6
330
18
100
AcDbEntity
  8
Object
100
AcDbLine
 10
16.674
 20
12.199
 30
0.0
 11
16.676
 21
12.206
 31
0.0
  0
LINE
  5
7A7
330
18
100
AcDbEntity
  8
Object
100
AcDbLine
 10
16.633
 20
10.033
 30
0.0
 11
16.954
 21
10.022
 31
0.0
  0
LINE
  5
7A8
330
18
100
AcDbEntity
  8
Object
100
AcDbLine
 10
16.774
 20
10.1
 30
0.0
 11
16.773
 21
10.1
 31
0.0
  0
LINE
  5
7A9
330
18
100
AcDbEntity
  8
Object
100
AcDbLine
 10
16.773
 20
10.1
 30
0.0
 11
16.772
 21
10.1
 31
0.0
  0
LINE
  5
7AA
330
18
100
AcDbEntity
  8
Object
100
AcDbLine
 10
16.939
 20
10.094
 30
0.0
 11
16.688
 21
10.103
 31
0.0
  0
LINE
  5
7AB
330
18
100
AcDbEntity
  8
Object
100
AcDbLine
 10
16.688
 20
10.103
 30
0.0
 11
16.691
 21
10.102
 31
0.0
  0
LINE
  5
7AC
330
18
100
AcDbEntity
  8
Object
100
AcDbLine
 10
16.774
 20
7.937999999999999
 30
0.0
 11
16.774
 21
6.969999999999999
 31
0.0
  0
LINE
  5
7AD
330
18
100
AcDbEntity
  8
Object
100
AcDbLine
 10
16.954
 20
5.078999999999999
 30
0.0
 11
16.954
 21
8.153
 31
0.0
  0
LINE
  5
7AE
330
18
100
AcDbEntity
  8
Object
100
AcDbLine
 10
16.773
 20
7.942
 30
0.0
 11
16.774
 21
7.937999999999999
 31
0.0
  0
LINE
  5
7AF
330
18
100
AcDbEntity
  8
Object
100
AcDbLine
 10
16.774
 20
6.969999999999999
 30
0.0
 11
16.773
 21
6.966
 31
0.0
  0
LINE
  5
7B0
330
18
100
AcDbEntity
  8
Object
100
AcDbLine
 10
16.771
 20
7.945
 30
0.0
 11
16.773
 21
7.942
 31
0.0
  0
LINE
  5
7B1
330
18
100
AcDbEntity
  8
Object
100
AcDbLine
 10
16.773
 20
6.966
 30
0.0
 11
16.771
 21
6.963
 31
0.0
  0
LINE
  5
7B2
330
18
100
AcDbEntity
  8
Object
100
AcDbLine
 10
16.768
 20
7.948
 30
0.0
 11
16.771
 21
7.945
 31
0.0
  0
LINE
  5
7B3
330
18
100
AcDbEntity
  8
Object
100
AcDbLine
 10
16.771
 20
6.963
 30
0.0
 11
16.768
 21
6.961
 31
0.0
  0
LINE
  5
7B4
330
18
100
AcDbEntity
  8
Object
100
AcDbLine
 10
16.764
 20
7.948
 30
0.0
 11
16.768
 21
7.948
 31
0.0
  0
LINE
  5
7B5
330
18
100
AcDbEntity
  8
Object
100
AcDbLine
 10
16.768
 20
6.961
 30
0.0
 11
16.764
 21
6.959999999999999
 31
0.0
  0
LINE
  5
7B6
330
18
100
AcDbEntity
  8
Object
100
AcDbLine
 10
16.633
 20
7.953
 30
0.0
 11
16.764
 21
7.948
 31
0.0
  0
LINE
  5
7B7
330
18
100
AcDbEntity
  8
Object
100
AcDbLine
 10
16.954
 20
8.153
 30
0.0
 11
16.633
 21
8.153
 31
0.0
  0
LINE
  5
7B8
330
18
100
AcDbEntity
  8
Object
100
AcDbLine
 10
16.633
 20
5.078999999999999
 30
0.0
 11
16.954
 21
5.078999999999999
 31
0.0
  0
LINE
  5
7B9
330
18
100
AcDbEntity
  8
Object
100
AcDbLine
 10
16.764
 20
6.959999999999999
 30
0.0
 11
16.633
 21
6.955
 31
0.0
  0
LINE
  5
7BA
330
18
100
AcDbEntity
  8
Object
100
AcDbLine
 10
16.774
 20
12.288
 30
0.0
 11
16.773
 21
12.288
 31
0.0
  0
LINE
  5
7BB
330
18
100
AcDbEntity
  8
Object
100
AcDbLine
 10
16.773
 20
12.288
 30
0.0
 11
16.771
 21
12.288
 31
0.0
  0
LINE
  5
7BC
330
18
100
AcDbEntity
  8
Object
100
AcDbLine
 10
16.771
 20
12.288
 30
0.0
 11
16.768
 21
12.287
 31
0.0
  0
LINE
  5
7BD
330
18
100
AcDbEntity
  8
Object
100
AcDbLine
 10
16.954
 20
12.294
 30
0.0
 11
16.633
 21
12.283
 31
0.0
  0
LINE
  5
7BE
330
18
100
AcDbEntity
  8
Object
100
AcDbLine
 10
16.954
 20
9.826
 30
0.0
 11
16.954
 21
9.896
 31
0.0
  0
LINE
  5
7BF
330
18
100
AcDbEntity
  8
Object
100
AcDbLine
 10
16.954
 20
9.951
 30
0.0
 11
16.954
 21
9.99
 31
0.0
  0
LINE
  5
7C0
330
18
100
AcDbEntity
  8
Object
100
AcDbLine
 10
16.954
 20
10.022
 30
0.0
 11
16.954
 21
10.014
 31
0.0
  0
LINE
  5
7C1
330
18
100
AcDbEntity
  8
Object
100
AcDbLine
 10
16.954
 20
10.014
 30
0.0
 11
16.954
 21
9.99
 31
0.0
  0
LINE
  5
7C2
330
18
100
AcDbEntity
  8
Object
100
AcDbLine
 10
16.954
 20
9.896
 30
0.0
 11
16.954
 21
9.951
 31
0.0
  0
LINE
  5
7C3
330
18
100
AcDbEntity
  8
Object
100
AcDbLine
 10
16.954
 20
9.742
 30
0.0
 11
16.954
 21
9.826
 31
0.0
  0
LINE
  5
7C4
330
18
100
AcDbEntity
  8
Object
100
AcDbLine
 10
16.954
 20
9.412
 30
0.0
 11
16.954
 21
9.534
 31
0.0
  0
LINE
  5
7C5
330
18
100
AcDbEntity
  8
Object
100
AcDbLine
 10
16.954
 20
9.742
 30
0.0
 11
16.954
 21
9.644999999999999
 31
0.0
  0
LINE
  5
7C6
330
18
100
AcDbEntity
  8
Object
100
AcDbLine
 10
16.954
 20
9.644999999999999
 30
0.0
 11
16.954
 21
9.534
 31
0.0
  0
LINE
  5
7C7
330
18
100
AcDbEntity
  8
Object
100
AcDbLine
 10
16.954
 20
9.137
 30
0.0
 11
16.954
 21
9.279999999999999
 31
0.0
  0
LINE
  5
7C8
330
18
100
AcDbEntity
  8
Object
100
AcDbLine
 10
16.954
 20
9.279999999999999
 30
0.0
 11
16.954
 21
9.412
 31
0.0
  0
LINE
  5
7C9
330
18
100
AcDbEntity
  8
Object
100
AcDbLine
 10
16.954
 20
9.137
 30
0.0
 11
16.954
 21
8.986
 31
0.0
  0
LINE
  5
7CA
330
18
100
AcDbEntity
  8
Object
100
AcDbLine
 10
16.954
 20
8.986
 30
0.0
 11
16.954
 21
8.829
 31
0.0
  0
LINE
  5
7CB
330
18
100
AcDbEntity
  8
Object
100
AcDbLine
 10
16.954
 20
8.829
 30
0.0
 11
16.954
 21
8.665
 31
0.0
  0
LINE
  5
7CC
330
18
100
AcDbEntity
  8
Object
100
AcDbLine
 10
16.954
 20
8.665
 30
0.0
 11
16.954
 21
8.496999999999999
 31
0.0
  0
LINE
  5
7CD
330
18
100
AcDbEntity
  8
Object
100
AcDbLine
 10
16.954
 20
8.496999999999999
 30
0.0
 11
16.954
 21
8.326
 31
0.0
  0
LINE
  5
7CE
330
18
100
AcDbEntity
  8
Object
100
AcDbLine
 10
16.954
 20
8.326
 30
0.0
 11
16.954
 21
8.153
 31
0.0
  0
LINE
  5
7CF
330
18
100
AcDbEntity
  8
Object
100
AcDbLine
 10
16.691
 20
11.713
 30
0.0
 11
16.688
 21
11.713
 31
0.0
  0
LINE
  5
7D0
330
18
100
AcDbEntity
  8
Object
100
AcDbLine
 10
16.773
 20
12.216
 30
0.0
 11
16.774
 21
12.216
 31
0.0
  0
LINE
  5
7D1
330
18
100
AcDbEntity
  8
Object
100
AcDbLine
 10
16.774
 20
12.288
 30
0.0
 11
16.773
 21
12.288
 31
0.0
  0
LINE
  5
7D2
330
18
100
AcDbEntity
  8
Object
100
AcDbLine
 10
16.771
 20
12.216
 30
0.0
 11
16.773
 21
12.216
 31
0.0
  0
LINE
  5
7D3
330
18
100
AcDbEntity
  8
Object
100
AcDbLine
 10
16.773
 20
12.288
 30
0.0
 11
16.771
 21
12.288
 31
0.0
  0
LINE
  5
7D4
330
18
100
AcDbEntity
  8
Object
100
AcDbLine
 10
16.771
 20
12.288
 30
0.0
 11
16.768
 21
12.287
 31
0.0
  0
LINE
  5
7D5
330
18
100
AcDbEntity
  8
Object
100
AcDbLine
 10
16.774
 20
12.216
 30
0.0
 11
16.773
 21
12.216
 31
0.0
  0
LINE
  5
7D6
330
18
100
AcDbEntity
  8
Object
100
AcDbLine
 10
16.773
 20
12.216
 30
0.0
 11
16.771
 21
12.216
 31
0.0
  0
LINE
  5
7D7
330
18
100
AcDbEntity
  8
Object
100
AcDbLine
 10
16.691
 20
12.214
 30
0.0
 11
16.688
 21
12.214
 31
0.0
  0
LINE
  5
7D8
330
18
100
AcDbEntity
  8
Object
100
AcDbLine
 10
16.688
 20
12.214
 30
0.0
 11
16.939
 21
12.222
 31
0.0
  0
LINE
  5
7D9
330
18
100
AcDbEntity
  8
Object
100
AcDbLine
 10
16.954
 20
12.237
 30
0.0
 11
16.952
 21
12.23
 31
0.0
  0
LINE
  5
7DA
330
18
100
AcDbEntity
  8
Object
100
AcDbLine
 10
16.952
 20
12.23
 30
0.0
 11
16.947
 21
12.224
 31
0.0
  0
LINE
  5
7DB
330
18
100
AcDbEntity
  8
Object
100
AcDbLine
 10
16.947
 20
12.224
 30
0.0
 11
16.939
 21
12.222
 31
0.0
  0
LINE
  5
7DC
330
18
100
AcDbEntity
  8
Object
100
AcDbLine
 10
16.954
 20
10.079
 30
0.0
 11
16.952
 21
10.086
 31
0.0
  0
LINE
  5
7DD
330
18
100
AcDbEntity
  8
Object
100
AcDbLine
 10
16.952
 20
10.086
 30
0.0
 11
16.947
 21
10.092
 31
0.0
  0
LINE
  5
7DE
330
18
100
AcDbEntity
  8
Object
100
AcDbLine
 10
16.947
 20
10.092
 30
0.0
 11
16.939
 21
10.094
 31
0.0
  0
LINE
  5
7DF
330
18
100
AcDbEntity
  8
Object
100
AcDbLine
 10
16.954
 20
12.237
 30
0.0
 11
16.954
 21
12.294
 31
0.0
  0
LINE
  5
7E0
330
18
100
AcDbEntity
  8
Object
100
AcDbLine
 10
16.954
 20
9.951
 30
0.0
 11
16.954
 21
9.99
 31
0.0
  0
LINE
  5
7E1
330
18
100
AcDbEntity
  8
Object
100
AcDbLine
 10
16.954
 20
9.826
 30
0.0
 11
16.954
 21
9.896
 31
0.0
  0
LINE
  5
7E2
330
18
100
AcDbEntity
  8
Object
100
AcDbLine
 10
16.954
 20
9.644999999999999
 30
0.0
 11
16.954
 21
9.742
 31
0.0
  0
LINE
  5
7E3
330
18
100
AcDbEntity
  8
Object
100
AcDbLine
 10
16.954
 20
9.412
 30
0.0
 11
16.954
 21
9.534
 31
0.0
  0
LINE
  5
7E4
330
18
100
AcDbEntity
  8
Object
100
AcDbLine
 10
16.954
 20
9.137
 30
0.0
 11
16.954
 21
9.279999999999999
 31
0.0
  0
LINE
  5
7E5
330
18
100
AcDbEntity
  8
Object
100
AcDbLine
 10
16.954
 20
8.829
 30
0.0
 11
16.954
 21
8.986
 31
0.0
  0
LINE
  5
7E6
330
18
100
AcDbEntity
  8
Object
100
AcDbLine
 10
16.954
 20
8.496999999999999
 30
0.0
 11
16.954
 21
8.665
 31
0.0
  0
LINE
  5
7E7
330
18
100
AcDbEntity
  8
Object
100
AcDbLine
 10
16.954
 20
8.326
 30
0.0
 11
16.954
 21
8.153
 31
0.0
  0
LINE
  5
7E8
330
18
100
AcDbEntity
  8
Object
100
AcDbLine
 10
16.954
 20
8.153
 30
0.0
 11
16.954
 21
5.078999999999999
 31
0.0
  0
LINE
  5
7E9
330
18
100
AcDbEntity
  8
Object
100
AcDbLine
 10
16.954
 20
8.326
 30
0.0
 11
16.954
 21
8.496999999999999
 31
0.0
  0
LINE
  5
7EA
330
18
100
AcDbEntity
  8
Object
100
AcDbLine
 10
16.954
 20
8.665
 30
0.0
 11
16.954
 21
8.829
 31
0.0
  0
LINE
  5
7EB
330
18
100
AcDbEntity
  8
Object
100
AcDbLine
 10
16.954
 20
8.986
 30
0.0
 11
16.954
 21
9.137
 31
0.0
  0
LINE
  5
7EC
330
18
100
AcDbEntity
  8
Object
100
AcDbLine
 10
16.954
 20
9.279999999999999
 30
0.0
 11
16.954
 21
9.412
 31
0.0
  0
LINE
  5
7ED
330
18
100
AcDbEntity
  8
Object
100
AcDbLine
 10
16.954
 20
9.534
 30
0.0
 11
16.954
 21
9.644999999999999
 31
0.0
  0
LINE
  5
7EE
330
18
100
AcDbEntity
  8
Object
100
AcDbLine
 10
16.954
 20
9.742
 30
0.0
 11
16.954
 21
9.826
 31
0.0
  0
LINE
  5
7EF
330
18
100
AcDbEntity
  8
Object
100
AcDbLine
 10
16.954
 20
9.896
 30
0.0
 11
16.954
 21
9.951
 31
0.0
  0
LINE
  5
7F0
330
18
100
AcDbEntity
  8
Object
100
AcDbLine
 10
16.954
 20
9.99
 30
0.0
 11
16.954
 21
10.014
 31
0.0
  0
LINE
  5
7F1
330
18
100
AcDbEntity
  8
Object
100
AcDbLine
 10
16.954
 20
10.079
 30
0.0
 11
16.954
 21
10.022
 31
0.0
  0
LINE
  5
7F2
330
18
100
AcDbEntity
  8
Object
100
AcDbLine
 10
16.954
 20
10.022
 30
0.0
 11
16.954
 21
10.014
 31
0.0
  0
LINE
  5
7F3
330
18
100
AcDbEntity
  8
Object
100
AcDbLine
 10
16.688
 20
7.951
 30
0.0
 11
16.691
 21
7.95
 31
0.0
  0
LINE
  5
7F4
330
18
100
AcDbEntity
  8
Object
100
AcDbLine
 10
16.691
 20
6.956999999999999
 30
0.0
 11
16.688
 21
6.956999999999999
 31
0.0
  0
LINE
  5
7F5
330
18
100
AcDbEntity
  8
Object
100
AcDbLine
 10
16.774
 20
7.937999999999999
 30
0.0
 11
16.773
 21
7.942
 31
0.0
  0
LINE
  5
7F6
330
18
100
AcDbEntity
  8
Object
100
AcDbLine
 10
16.773
 20
7.942
 30
0.0
 11
16.771
 21
7.945
 31
0.0
  0
LINE
  5
7F7
330
18
100
AcDbEntity
  8
Object
100
AcDbLine
 10
16.771
 20
7.945
 30
0.0
 11
16.768
 21
7.948
 31
0.0
  0
LINE
  5
7F8
330
18
100
AcDbEntity
  8
Object
100
AcDbLine
 10
16.768
 20
7.948
 30
0.0
 11
16.764
 21
7.948
 31
0.0
  0
LINE
  5
7F9
330
18
100
AcDbEntity
  8
Object
100
AcDbLine
 10
16.774
 20
10.1
 30
0.0
 11
16.773
 21
10.1
 31
0.0
  0
LINE
  5
7FA
330
18
100
AcDbEntity
  8
Object
100
AcDbLine
 10
16.773
 20
10.1
 30
0.0
 11
16.772
 21
10.1
 31
0.0
  0
LINE
  5
7FB
330
18
100
AcDbEntity
  8
Object
100
AcDbLine
 10
16.774
 20
6.969999999999999
 30
0.0
 11
16.773
 21
6.966
 31
0.0
  0
LINE
  5
7FC
330
18
100
AcDbEntity
  8
Object
100
AcDbLine
 10
16.773
 20
6.966
 30
0.0
 11
16.771
 21
6.963
 31
0.0
  0
LINE
  5
7FD
330
18
100
AcDbEntity
  8
Object
100
AcDbLine
 10
16.771
 20
6.963
 30
0.0
 11
16.768
 21
6.961
 31
0.0
  0
LINE
  5
7FE
330
18
100
AcDbEntity
  8
Object
100
AcDbLine
 10
16.768
 20
6.961
 30
0.0
 11
16.764
 21
6.959999999999999
 31
0.0
  0
LINE
  5
7FF
330
18
100
AcDbEntity
  8
Object
100
AcDbLine
 10
16.774
 20
7.937999999999999
 30
0.0
 11
16.774
 21
6.969999999999999
 31
0.0
  0
LINE
  5
800
330
18
100
AcDbEntity
  8
Object
100
AcDbLine
 10
16.77
 20
12.216
 30
0.0
 11
16.779
 21
12.216
 31
0.0
  0
LINE
  5
801
330
18
100
AcDbEntity
  8
Object
100
AcDbLine
 10
5.506
 20
5.078
 30
0.0
 11
5.556
 21
5.078
 31
0.0
  0
LINE
  5
802
330
18
100
AcDbEntity
  8
Object
100
AcDbLine
 10
3.431
 20
5.078999999999999
 30
0.0
 11
3.431
 21
5.078
 31
0.0
  0
LINE
  5
803
330
18
100
AcDbEntity
  8
Object
100
AcDbLine
 10
3.431
 20
5.078
 30
0.0
 11
3.381
 21
5.078
 31
0.0
  0
LINE
  5
804
330
18
100
AcDbEntity
  8
Object
100
AcDbLine
 10
3.381
 20
5.078
 30
0.0
 11
3.371999999999999
 21
5.078999999999999
 31
0.0
  0
LINE
  5
805
330
18
100
AcDbEntity
  8
Object
100
AcDbLine
 10
5.653999999999999
 20
7.918
 30
0.0
 11
5.666999999999999
 21
7.908999999999999
 31
0.0
  0
LINE
  5
806
330
18
100
AcDbEntity
  8
Object
100
AcDbLine
 10
5.666999999999999
 20
7.908999999999999
 30
0.0
 11
5.676
 21
7.895
 31
0.0
  0
LINE
  5
807
330
18
100
AcDbEntity
  8
Object
100
AcDbLine
 10
5.676
 20
7.895
 30
0.0
 11
5.679
 21
7.881
 31
0.0
  0
LINE
  5
808
330
18
100
AcDbEntity
  8
Object
100
AcDbLine
 10
5.679
 20
7.025
 30
0.0
 11
5.676
 21
7.009999999999999
 31
0.0
  0
LINE
  5
809
330
18
100
AcDbEntity
  8
Object
100
AcDbLine
 10
5.676
 20
7.009999999999999
 30
0.0
 11
5.666999999999999
 21
6.996
 31
0.0
  0
LINE
  5
80A
330
18
100
AcDbEntity
  8
Object
100
AcDbLine
 10
5.666999999999999
 20
6.996
 30
0.0
 11
5.653999999999999
 21
6.987
 31
0.0
  0
LINE
  5
80B
330
18
100
AcDbEntity
  8
Object
100
AcDbLine
 10
5.653999999999999
 20
7.918
 30
0.0
 11
5.639
 21
7.921
 31
0.0
  0
LINE
  5
80C
330
18
100
AcDbEntity
  8
Object
100
AcDbLine
 10
5.639
 20
6.985
 30
0.0
 11
5.653999999999999
 21
6.987
 31
0.0
  0
LINE
  5
80D
330
18
100
AcDbEntity
  8
Object
100
AcDbLine
 10
5.639
 20
7.921
 30
0.0
 11
5.589
 21
7.921
 31
0.0
  0
LINE
  5
80E
330
18
100
AcDbEntity
  8
Object
100
AcDbLine
 10
5.589
 20
6.985
 30
0.0
 11
5.639
 21
6.985
 31
0.0
  0
LINE
  5
80F
330
18
100
AcDbEntity
  8
Object
100
AcDbLine
 10
5.589
 20
7.921
 30
0.0
 11
5.584999999999999
 21
7.921
 31
0.0
  0
LINE
  5
810
330
18
100
AcDbEntity
  8
Object
100
AcDbLine
 10
5.584999999999999
 20
6.983999999999999
 30
0.0
 11
5.589
 21
6.985
 31
0.0
  0
LINE
  5
811
330
18
100
AcDbEntity
  8
Object
100
AcDbLine
 10
5.679
 20
7.025
 30
0.0
 11
5.679
 21
7.881
 31
0.0
  0
LINE
  5
812
330
18
100
AcDbEntity
  8
Object
100
AcDbLine
 10
5.584999999999999
 20
7.921
 30
0.0
 11
5.581999999999999
 21
7.924
 31
0.0
  0
LINE
  5
813
330
18
100
AcDbEntity
  8
Object
100
AcDbLine
 10
5.581999999999999
 20
6.982
 30
0.0
 11
5.584999999999999
 21
6.983999999999999
 31
0.0
  0
LINE
  5
814
330
18
100
AcDbEntity
  8
Object
100
AcDbLine
 10
5.578999999999999
 20
7.931
 30
0.0
 11
5.58
 21
7.927
 31
0.0
  0
LINE
  5
815
330
18
100
AcDbEntity
  8
Object
100
AcDbLine
 10
5.58
 20
7.927
 30
0.0
 11
5.581999999999999
 21
7.924
 31
0.0
  0
LINE
  5
816
330
18
100
AcDbEntity
  8
Object
100
AcDbLine
 10
5.578999999999999
 20
7.931
 30
0.0
 11
5.578999999999999
 21
7.95
 31
0.0
  0
LINE
  5
817
330
18
100
AcDbEntity
  8
Object
100
AcDbLine
 10
5.581999999999999
 20
6.982
 30
0.0
 11
5.58
 21
6.977999999999999
 31
0.0
  0
LINE
  5
818
330
18
100
AcDbEntity
  8
Object
100
AcDbLine
 10
5.58
 20
6.977999999999999
 30
0.0
 11
5.578999999999999
 21
6.975
 31
0.0
  0
LINE
  5
819
330
18
100
AcDbEntity
  8
Object
100
AcDbLine
 10
5.578999999999999
 20
6.975
 30
0.0
 11
5.578999999999999
 21
6.956999999999999
 31
0.0
  0
LINE
  5
81A
330
18
100
AcDbEntity
  8
Object
100
AcDbLine
 10
5.564
 20
5.078999999999999
 30
0.0
 11
5.556
 21
5.078
 31
0.0
  0
LINE
  5
81B
330
18
100
AcDbEntity
  8
Object
100
AcDbLine
 10
5.556
 20
5.078
 30
0.0
 11
5.506
 21
5.078
 31
0.0
  0
LINE
  5
81C
330
18
100
AcDbEntity
  8
Object
100
AcDbLine
 10
5.506
 20
5.078
 30
0.0
 11
5.477
 21
5.078
 31
0.0
  0
LINE
  5
81D
330
18
100
AcDbEntity
  8
Object
100
AcDbLine
 10
5.506
 20
5.078999999999999
 30
0.0
 11
5.506
 21
5.078
 31
0.0
  0
LINE
  5
81E
330
18
100
AcDbEntity
  8
Object
100
AcDbLine
 10
5.506
 20
5.078
 30
0.0
 11
5.477
 21
5.078
 31
0.0
  0
LINE
  5
81F
330
18
100
AcDbEntity
  8
Object
100
AcDbLine
 10
5.477
 20
5.078
 30
0.0
 11
5.477
 21
5.078999999999999
 31
0.0
  0
LINE
  5
820
330
18
100
AcDbEntity
  8
Object
100
AcDbLine
 10
4.5
 20
12.257
 30
0.0
 11
4.498
 21
12.271
 31
0.0
  0
LINE
  5
821
330
18
100
AcDbEntity
  8
Object
100
AcDbLine
 10
4.488999999999999
 20
12.285
 30
0.0
 11
4.475
 21
12.294
 31
0.0
  0
LINE
  5
822
330
18
100
AcDbEntity
  8
Object
100
AcDbLine
 10
4.475
 20
12.294
 30
0.0
 11
4.461
 21
12.297
 31
0.0
  0
LINE
  5
823
330
18
100
AcDbEntity
  8
Object
100
AcDbLine
 10
4.5
 20
12.257
 30
0.0
 11
4.5
 21
12.207
 31
0.0
  0
LINE
  5
824
330
18
100
AcDbEntity
  8
Object
100
AcDbLine
 10
4.5
 20
12.207
 30
0.0
 11
4.501
 21
12.203
 31
0.0
  0
LINE
  5
825
330
18
100
AcDbEntity
  8
Object
100
AcDbLine
 10
4.461
 20
12.297
 30
0.0
 11
4.04
 21
12.297
 31
0.0
  0
LINE
  5
826
330
18
100
AcDbEntity
  8
Object
100
AcDbLine
 10
4.0
 20
12.203
 30
0.0
 11
4.0
 21
12.207
 31
0.0
  0
LINE
  5
827
330
18
100
AcDbEntity
  8
Object
100
AcDbLine
 10
4.0
 20
12.207
 30
0.0
 11
4.0
 21
12.257
 31
0.0
  0
LINE
  5
828
330
18
100
AcDbEntity
  8
Object
100
AcDbLine
 10
4.0
 20
12.257
 30
0.0
 11
4.003
 21
12.271
 31
0.0
  0
LINE
  5
829
330
18
100
AcDbEntity
  8
Object
100
AcDbLine
 10
4.003
 20
12.271
 30
0.0
 11
4.012
 21
12.285
 31
0.0
  0
LINE
  5
82A
330
18
100
AcDbEntity
  8
Object
100
AcDbLine
 10
4.012
 20
12.285
 30
0.0
 11
4.025999999999999
 21
12.294
 31
0.0
  0
LINE
  5
82B
330
18
100
AcDbEntity
  8
Object
100
AcDbLine
 10
4.025999999999999
 20
12.294
 30
0.0
 11
4.04
 21
12.297
 31
0.0
  0
LINE
  5
82C
330
18
100
AcDbEntity
  8
Object
100
AcDbLine
 10
4.0
 20
12.203
 30
0.0
 11
3.998
 21
12.2
 31
0.0
  0
LINE
  5
82D
330
18
100
AcDbEntity
  8
Object
100
AcDbLine
 10
4.501
 20
12.203
 30
0.0
 11
4.503
 21
12.2
 31
0.0
  0
LINE
  5
82E
330
18
100
AcDbEntity
  8
Object
100
AcDbLine
 10
4.503
 20
12.2
 30
0.0
 11
4.506999999999999
 21
12.197
 31
0.0
  0
LINE
  5
82F
330
18
100
AcDbEntity
  8
Object
100
AcDbLine
 10
3.998
 20
12.2
 30
0.0
 11
3.994
 21
12.197
 31
0.0
  0
LINE
  5
830
330
18
100
AcDbEntity
  8
Object
100
AcDbLine
 10
3.99
 20
12.197
 30
0.0
 11
3.971
 21
12.197
 31
0.0
  0
LINE
  5
831
330
18
100
AcDbEntity
  8
Object
100
AcDbLine
 10
4.509999999999999
 20
12.197
 30
0.0
 11
4.506999999999999
 21
12.197
 31
0.0
  0
LINE
  5
832
330
18
100
AcDbEntity
  8
Object
100
AcDbLine
 10
3.994
 20
12.197
 30
0.0
 11
3.99
 21
12.197
 31
0.0
  0
LINE
  5
833
330
18
100
AcDbEntity
  8
Object
100
AcDbLine
 10
3.358
 20
6.975
 30
0.0
 11
3.358
 21
6.956999999999999
 31
0.0
  0
LINE
  5
834
330
18
100
AcDbEntity
  8
Object
100
AcDbLine
 10
3.358
 20
7.95
 30
0.0
 11
3.358
 21
7.931
 31
0.0
  0
LINE
  5
835
330
18
100
AcDbEntity
  8
Object
100
AcDbLine
 10
3.358
 20
7.931
 30
0.0
 11
3.357
 21
7.927
 31
0.0
  0
LINE
  5
836
330
18
100
AcDbEntity
  8
Object
100
AcDbLine
 10
3.357
 20
6.977999999999999
 30
0.0
 11
3.358
 21
6.975
 31
0.0
  0
LINE
  5
837
330
18
100
AcDbEntity
  8
Object
100
AcDbLine
 10
3.357
 20
7.927
 30
0.0
 11
3.354999999999999
 21
7.924
 31
0.0
  0
LINE
  5
838
330
18
100
AcDbEntity
  8
Object
100
AcDbLine
 10
3.357
 20
6.977999999999999
 30
0.0
 11
3.354999999999999
 21
6.982
 31
0.0
  0
LINE
  5
839
330
18
100
AcDbEntity
  8
Object
100
AcDbLine
 10
3.354999999999999
 20
6.982
 30
0.0
 11
3.351999999999999
 21
6.983999999999999
 31
0.0
  0
LINE
  5
83A
330
18
100
AcDbEntity
  8
Object
100
AcDbLine
 10
3.354999999999999
 20
7.924
 30
0.0
 11
3.351999999999999
 21
7.921
 31
0.0
  0
LINE
  5
83B
330
18
100
AcDbEntity
  8
Object
100
AcDbLine
 10
3.261
 20
7.895
 30
0.0
 11
3.27
 21
7.908999999999999
 31
0.0
  0
LINE
  5
83C
330
18
100
AcDbEntity
  8
Object
100
AcDbLine
 10
3.27
 20
7.908999999999999
 30
0.0
 11
3.282999999999999
 21
7.918
 31
0.0
  0
LINE
  5
83D
330
18
100
AcDbEntity
  8
Object
100
AcDbLine
 10
3.282999999999999
 20
6.987
 30
0.0
 11
3.27
 21
6.996
 31
0.0
  0
LINE
  5
83E
330
18
100
AcDbEntity
  8
Object
100
AcDbLine
 10
3.27
 20
6.996
 30
0.0
 11
3.261
 21
7.009999999999999
 31
0.0
  0
LINE
  5
83F
330
18
100
AcDbEntity
  8
Object
100
AcDbLine
 10
3.261
 20
7.895
 30
0.0
 11
3.258
 21
7.881
 31
0.0
  0
LINE
  5
840
330
18
100
AcDbEntity
  8
Object
100
AcDbLine
 10
3.282999999999999
 20
7.918
 30
0.0
 11
3.298
 21
7.921
 31
0.0
  0
LINE
  5
841
330
18
100
AcDbEntity
  8
Object
100
AcDbLine
 10
3.298
 20
7.921
 30
0.0
 11
3.347999999999999
 21
7.921
 31
0.0
  0
LINE
  5
842
330
18
100
AcDbEntity
  8
Object
100
AcDbLine
 10
3.347999999999999
 20
7.921
 30
0.0
 11
3.351999999999999
 21
7.921
 31
0.0
  0
LINE
  5
843
330
18
100
AcDbEntity
  8
Object
100
AcDbLine
 10
3.351999999999999
 20
6.983999999999999
 30
0.0
 11
3.347999999999999
 21
6.985
 31
0.0
  0
LINE
  5
844
330
18
100
AcDbEntity
  8
Object
100
AcDbLine
 10
3.347999999999999
 20
6.985
 30
0.0
 11
3.298
 21
6.985
 31
0.0
  0
LINE
  5
845
330
18
100
AcDbEntity
  8
Object
100
AcDbLine
 10
3.298
 20
6.985
 30
0.0
 11
3.282999999999999
 21
6.987
 31
0.0
  0
LINE
  5
846
330
18
100
AcDbEntity
  8
Object
100
AcDbLine
 10
3.261
 20
7.009999999999999
 30
0.0
 11
3.258
 21
7.025
 31
0.0
  0
LINE
  5
847
330
18
100
AcDbEntity
  8
Object
100
AcDbLine
 10
3.258
 20
7.025
 30
0.0
 11
3.258
 21
7.881
 31
0.0
  0
LINE
  5
848
330
18
100
AcDbEntity
  8
Object
100
AcDbLine
 10
3.459999999999999
 20
5.078
 30
0.0
 11
3.431
 21
5.078
 31
0.0
  0
LINE
  5
849
330
18
100
AcDbEntity
  8
Object
100
AcDbLine
 10
3.431
 20
5.078
 30
0.0
 11
3.381
 21
5.078
 31
0.0
  0
LINE
  5
84A
330
18
100
AcDbEntity
  8
Object
100
AcDbLine
 10
3.431
 20
5.078
 30
0.0
 11
3.459999999999999
 21
5.078
 31
0.0
  0
LINE
  5
84B
330
18
100
AcDbEntity
  8
Object
100
AcDbLine
 10
4.53
 20
12.197
 30
0.0
 11
4.509999999999999
 21
12.197
 31
0.0
  0
LINE
  5
84C
330
18
100
AcDbEntity
  8
Object
100
AcDbLine
 10
4.498
 20
12.271
 30
0.0
 11
4.488999999999999
 21
12.285
 31
0.0
  0
LINE
  5
84D
330
18
100
AcDbEntity
  8
Object
100
AcDbLine
 10
8.650999999999999
 20
10.047
 30
0.0
 11
8.647
 21
10.046
 31
0.0
  0
LINE
  5
84E
330
18
100
AcDbEntity
  8
Object
100
AcDbLine
 10
8.647
 20
10.046
 30
0.0
 11
8.644
 21
10.044
 31
0.0
  0
LINE
  5
84F
330
18
100
AcDbEntity
  8
Object
100
AcDbLine
 10
8.637999999999999
 20
9.971999999999999
 30
0.0
 11
8.628999999999999
 21
9.958
 31
0.0
  0
LINE
  5
850
330
18
100
AcDbEntity
  8
Object
100
AcDbLine
 10
8.628999999999999
 20
9.958
 30
0.0
 11
8.615999999999999
 21
9.948999999999999
 31
0.0
  0
LINE
  5
851
330
18
100
AcDbEntity
  8
Object
100
AcDbLine
 10
8.641999999999999
 20
10.04
 30
0.0
 11
8.641
 21
10.037
 31
0.0
  0
LINE
  5
852
330
18
100
AcDbEntity
  8
Object
100
AcDbLine
 10
8.641
 20
10.037
 30
0.0
 11
8.641
 21
9.987
 31
0.0
  0
LINE
  5
853
330
18
100
AcDbEntity
  8
Object
100
AcDbLine
 10
8.641
 20
9.987
 30
0.0
 11
8.637999999999999
 21
9.971999999999999
 31
0.0
  0
LINE
  5
854
330
18
100
AcDbEntity
  8
Object
100
AcDbLine
 10
8.601
 20
9.947
 30
0.0
 11
8.615999999999999
 21
9.948999999999999
 31
0.0
  0
LINE
  5
855
330
18
100
AcDbEntity
  8
Object
100
AcDbLine
 10
7.745
 20
9.947
 30
0.0
 11
7.73
 21
9.948999999999999
 31
0.0
  0
LINE
  5
856
330
18
100
AcDbEntity
  8
Object
100
AcDbLine
 10
7.73
 20
9.948999999999999
 30
0.0
 11
7.717
 21
9.958
 31
0.0
  0
LINE
  5
857
330
18
100
AcDbEntity
  8
Object
100
AcDbLine
 10
7.717
 20
9.958
 30
0.0
 11
7.708
 21
9.971999999999999
 31
0.0
  0
LINE
  5
858
330
18
100
AcDbEntity
  8
Object
100
AcDbLine
 10
7.708
 20
9.971999999999999
 30
0.0
 11
7.705
 21
9.987
 31
0.0
  0
LINE
  5
859
330
18
100
AcDbEntity
  8
Object
100
AcDbLine
 10
7.705
 20
9.987
 30
0.0
 11
7.705
 21
10.037
 31
0.0
  0
LINE
  5
85A
330
18
100
AcDbEntity
  8
Object
100
AcDbLine
 10
7.745
 20
9.947
 30
0.0
 11
8.601
 21
9.947
 31
0.0
  0
LINE
  5
85B
330
18
100
AcDbEntity
  8
Object
100
AcDbLine
 10
7.703999999999999
 20
10.04
 30
0.0
 11
7.705
 21
10.037
 31
0.0
  0
LINE
  5
85C
330
18
100
AcDbEntity
  8
Object
100
AcDbLine
 10
8.641999999999999
 20
10.04
 30
0.0
 11
8.644
 21
10.044
 31
0.0
  0
LINE
  5
85D
330
18
100
AcDbEntity
  8
Object
100
AcDbLine
 10
7.703999999999999
 20
10.04
 30
0.0
 11
7.701999999999999
 21
10.044
 31
0.0
  0
LINE
  5
85E
330
18
100
AcDbEntity
  8
Object
100
AcDbLine
 10
7.701999999999999
 20
10.044
 30
0.0
 11
7.698999999999999
 21
10.046
 31
0.0
  0
LINE
  5
85F
330
18
100
AcDbEntity
  8
Object
100
AcDbLine
 10
7.698999999999999
 20
10.046
 30
0.0
 11
7.695
 21
10.047
 31
0.0
  0
LINE
  5
860
330
18
100
AcDbEntity
  8
Object
100
AcDbLine
 10
7.695
 20
10.047
 30
0.0
 11
7.676
 21
10.047
 31
0.0
  0
LINE
  5
861
330
18
100
AcDbEntity
  8
Object
100
AcDbLine
 10
8.650999999999999
 20
10.047
 30
0.0
 11
8.669999999999999
 21
10.047
 31
0.0
  0
LINE
  5
862
330
18
100
AcDbEntity
  8
Object
100
AcDbLine
 10
7.695
 20
12.267
 30
0.0
 11
7.676
 21
12.267
 31
0.0
  0
LINE
  5
863
330
18
100
AcDbEntity
  8
Object
100
AcDbLine
 10
8.650999999999999
 20
12.267
 30
0.0
 11
8.647
 21
12.268
 31
0.0
  0
LINE
  5
864
330
18
100
AcDbEntity
  8
Object
100
AcDbLine
 10
8.647
 20
12.268
 30
0.0
 11
8.644
 21
12.27
 31
0.0
  0
LINE
  5
865
330
18
100
AcDbEntity
  8
Object
100
AcDbLine
 10
8.615999999999999
 20
12.364
 30
0.0
 11
8.628999999999999
 21
12.355
 31
0.0
  0
LINE
  5
866
330
18
100
AcDbEntity
  8
Object
100
AcDbLine
 10
8.628999999999999
 20
12.355
 30
0.0
 11
8.637999999999999
 21
12.342
 31
0.0
  0
LINE
  5
867
330
18
100
AcDbEntity
  8
Object
100
AcDbLine
 10
8.615999999999999
 20
12.364
 30
0.0
 11
8.601
 21
12.367
 31
0.0
  0
LINE
  5
868
330
18
100
AcDbEntity
  8
Object
100
AcDbLine
 10
8.637999999999999
 20
12.342
 30
0.0
 11
8.641
 21
12.327
 31
0.0
  0
LINE
  5
869
330
18
100
AcDbEntity
  8
Object
100
AcDbLine
 10
8.641
 20
12.327
 30
0.0
 11
8.641
 21
12.277
 31
0.0
  0
LINE
  5
86A
330
18
100
AcDbEntity
  8
Object
100
AcDbLine
 10
8.641
 20
12.277
 30
0.0
 11
8.641999999999999
 21
12.273
 31
0.0
  0
LINE
  5
86B
330
18
100
AcDbEntity
  8
Object
100
AcDbLine
 10
7.708
 20
12.342
 30
0.0
 11
7.717
 21
12.355
 31
0.0
  0
LINE
  5
86C
330
18
100
AcDbEntity
  8
Object
100
AcDbLine
 10
7.717
 20
12.355
 30
0.0
 11
7.73
 21
12.364
 31
0.0
  0
LINE
  5
86D
330
18
100
AcDbEntity
  8
Object
100
AcDbLine
 10
7.73
 20
12.364
 30
0.0
 11
7.745
 21
12.367
 31
0.0
  0
LINE
  5
86E
330
18
100
AcDbEntity
  8
Object
100
AcDbLine
 10
7.705
 20
12.277
 30
0.0
 11
7.705
 21
12.327
 31
0.0
  0
LINE
  5
86F
330
18
100
AcDbEntity
  8
Object
100
AcDbLine
 10
7.705
 20
12.327
 30
0.0
 11
7.708
 21
12.342
 31
0.0
  0
LINE
  5
870
330
18
100
AcDbEntity
  8
Object
100
AcDbLine
 10
7.705
 20
12.277
 30
0.0
 11
7.703999999999999
 21
12.273
 31
0.0
  0
LINE
  5
871
330
18
100
AcDbEntity
  8
Object
100
AcDbLine
 10
8.601
 20
12.367
 30
0.0
 11
7.745
 21
12.367
 31
0.0
  0
LINE
  5
872
330
18
100
AcDbEntity
  8
Object
100
AcDbLine
 10
8.644
 20
12.27
 30
0.0
 11
8.641999999999999
 21
12.273
 31
0.0
  0
LINE
  5
873
330
18
100
AcDbEntity
  8
Object
100
AcDbLine
 10
7.703999999999999
 20
12.273
 30
0.0
 11
7.701999999999999
 21
12.27
 31
0.0
  0
LINE
  5
874
330
18
100
AcDbEntity
  8
Object
100
AcDbLine
 10
7.695
 20
12.267
 30
0.0
 11
7.698999999999999
 21
12.268
 31
0.0
  0
LINE
  5
875
330
18
100
AcDbEntity
  8
Object
100
AcDbLine
 10
7.698999999999999
 20
12.268
 30
0.0
 11
7.701999999999999
 21
12.27
 31
0.0
  0
LINE
  5
876
330
18
100
AcDbEntity
  8
Object
100
AcDbLine
 10
8.669999999999999
 20
12.267
 30
0.0
 11
8.650999999999999
 21
12.267
 31
0.0
  0
LINE
  5
877
330
18
100
AcDbEntity
  8
Object
100
AcDbLine
 10
5.49
 20
7.940999999999999
 30
0.0
 11
5.488
 21
7.943999999999999
 31
0.0
  0
LINE
  5
878
330
18
100
AcDbEntity
  8
Object
100
AcDbLine
 10
5.488
 20
6.964
 30
0.0
 11
5.49
 21
6.967
 31
0.0
  0
LINE
  5
879
330
18
100
AcDbEntity
  8
Object
100
AcDbLine
 10
10.548
 20
12.253
 30
0.0
 11
8.673
 21
12.253
 31
0.0
  0
LINE
  5
87A
330
18
100
AcDbEntity
  8
Object
100
AcDbLine
 10
8.673
 20
10.063
 30
0.0
 11
10.548
 21
10.063
 31
0.0
  0
LINE
  5
87B
330
18
100
AcDbEntity
  8
Object
100
AcDbLine
 10
10.548
 20
10.063
 30
0.0
 11
10.548
 21
12.253
 31
0.0
  0
LINE
  5
87C
330
18
100
AcDbEntity
  8
Object
100
AcDbLine
 10
8.669999999999999
 20
12.18
 30
0.0
 11
8.666999999999999
 21
12.178
 31
0.0
  0
LINE
  5
87D
330
18
100
AcDbEntity
  8
Object
100
AcDbLine
 10
8.669999999999999
 20
10.136
 30
0.0
 11
8.666999999999999
 21
10.138
 31
0.0
  0
LINE
  5
87E
330
18
100
AcDbEntity
  8
Object
100
AcDbLine
 10
8.666999999999999
 20
10.138
 30
0.0
 11
8.663
 21
10.139
 31
0.0
  0
LINE
  5
87F
330
18
100
AcDbEntity
  8
Object
100
AcDbLine
 10
8.666999999999999
 20
12.178
 30
0.0
 11
8.663
 21
12.177
 31
0.0
  0
LINE
  5
880
330
18
100
AcDbEntity
  8
Object
100
AcDbLine
 10
7.682999999999999
 20
10.139
 30
0.0
 11
8.663
 21
10.139
 31
0.0
  0
LINE
  5
881
330
18
100
AcDbEntity
  8
Object
100
AcDbLine
 10
8.663
 20
12.177
 30
0.0
 11
7.682999999999999
 21
12.177
 31
0.0
  0
LINE
  5
882
330
18
100
AcDbEntity
  8
Object
100
AcDbLine
 10
7.682999999999999
 20
12.177
 30
0.0
 11
7.679
 21
12.178
 31
0.0
  0
LINE
  5
883
330
18
100
AcDbEntity
  8
Object
100
AcDbLine
 10
7.682999999999999
 20
10.139
 30
0.0
 11
7.679
 21
10.138
 31
0.0
  0
LINE
  5
884
330
18
100
AcDbEntity
  8
Object
100
AcDbLine
 10
7.679
 20
10.138
 30
0.0
 11
7.676
 21
10.136
 31
0.0
  0
LINE
  5
885
330
18
100
AcDbEntity
  8
Object
100
AcDbLine
 10
7.676
 20
10.136
 30
0.0
 11
7.674
 21
10.133
 31
0.0
  0
LINE
  5
886
330
18
100
AcDbEntity
  8
Object
100
AcDbLine
 10
7.674
 20
10.133
 30
0.0
 11
7.673
 21
10.129
 31
0.0
  0
LINE
  5
887
330
18
100
AcDbEntity
  8
Object
100
AcDbLine
 10
7.673
 20
10.129
 30
0.0
 11
7.673
 21
10.063
 31
0.0
  0
LINE
  5
888
330
18
100
AcDbEntity
  8
Object
100
AcDbLine
 10
7.673
 20
10.063
 30
0.0
 11
7.474
 21
10.063
 31
0.0
  0
LINE
  5
889
330
18
100
AcDbEntity
  8
Object
100
AcDbLine
 10
7.474
 20
10.063
 30
0.0
 11
7.307
 21
10.056
 31
0.0
  0
LINE
  5
88A
330
18
100
AcDbEntity
  8
Object
100
AcDbLine
 10
7.679
 20
12.178
 30
0.0
 11
7.676
 21
12.18
 31
0.0
  0
LINE
  5
88B
330
18
100
AcDbEntity
  8
Object
100
AcDbLine
 10
7.142
 20
10.034
 30
0.0
 11
7.307
 21
10.056
 31
0.0
  0
LINE
  5
88C
330
18
100
AcDbEntity
  8
Object
100
AcDbLine
 10
7.676
 20
12.18
 30
0.0
 11
7.674
 21
12.183
 31
0.0
  0
LINE
  5
88D
330
18
100
AcDbEntity
  8
Object
100
AcDbLine
 10
7.142
 20
10.034
 30
0.0
 11
6.979
 21
9.997999999999999
 31
0.0
  0
LINE
  5
88E
330
18
100
AcDbEntity
  8
Object
100
AcDbLine
 10
6.979
 20
9.997999999999999
 30
0.0
 11
6.82
 21
9.948
 31
0.0
  0
LINE
  5
88F
330
18
100
AcDbEntity
  8
Object
100
AcDbLine
 10
6.82
 20
9.948
 30
0.0
 11
6.666
 21
9.884
 31
0.0
  0
LINE
  5
890
330
18
100
AcDbEntity
  8
Object
100
AcDbLine
 10
5.562999999999999
 20
8.153
 30
0.0
 11
5.562999999999999
 21
7.953999999999999
 31
0.0
  0
LINE
  5
891
330
18
100
AcDbEntity
  8
Object
100
AcDbLine
 10
5.562999999999999
 20
7.953999999999999
 30
0.0
 11
5.498
 21
7.953999999999999
 31
0.0
  0
LINE
  5
892
330
18
100
AcDbEntity
  8
Object
100
AcDbLine
 10
5.498
 20
6.953999999999999
 30
0.0
 11
5.562999999999999
 21
6.953999999999999
 31
0.0
  0
LINE
  5
893
330
18
100
AcDbEntity
  8
Object
100
AcDbLine
 10
5.562999999999999
 20
6.953999999999999
 30
0.0
 11
5.562999999999999
 21
5.078999999999999
 31
0.0
  0
LINE
  5
894
330
18
100
AcDbEntity
  8
Object
100
AcDbLine
 10
5.493999999999999
 20
7.953
 30
0.0
 11
5.498
 21
7.953999999999999
 31
0.0
  0
LINE
  5
895
330
18
100
AcDbEntity
  8
Object
100
AcDbLine
 10
5.498
 20
6.953999999999999
 30
0.0
 11
5.493999999999999
 21
6.955
 31
0.0
  0
LINE
  5
896
330
18
100
AcDbEntity
  8
Object
100
AcDbLine
 10
5.491
 20
7.951
 30
0.0
 11
5.493999999999999
 21
7.953
 31
0.0
  0
LINE
  5
897
330
18
100
AcDbEntity
  8
Object
100
AcDbLine
 10
5.493999999999999
 20
6.955
 30
0.0
 11
5.491
 21
6.956999999999999
 31
0.0
  0
LINE
  5
898
330
18
100
AcDbEntity
  8
Object
100
AcDbLine
 10
5.562999999999999
 20
8.153
 30
0.0
 11
5.570999999999999
 21
8.32
 31
0.0
  0
LINE
  5
899
330
18
100
AcDbEntity
  8
Object
100
AcDbLine
 10
5.488
 20
7.948
 30
0.0
 11
5.491
 21
7.951
 31
0.0
  0
LINE
  5
89A
330
18
100
AcDbEntity
  8
Object
100
AcDbLine
 10
7.673
 20
12.253
 30
0.0
 11
7.673
 21
12.187
 31
0.0
  0
LINE
  5
89B
330
18
100
AcDbEntity
  8
Object
100
AcDbLine
 10
7.673
 20
12.187
 30
0.0
 11
7.674
 21
12.183
 31
0.0
  0
LINE
  5
89C
330
18
100
AcDbEntity
  8
Object
100
AcDbLine
 10
7.673
 20
12.253
 30
0.0
 11
4.532
 21
12.253
 31
0.0
  0
LINE
  5
89D
330
18
100
AcDbEntity
  8
Object
100
AcDbLine
 10
6.666
 20
9.884
 30
0.0
 11
6.517999999999999
 21
9.807999999999999
 31
0.0
  0
LINE
  5
89E
330
18
100
AcDbEntity
  8
Object
100
AcDbLine
 10
6.517999999999999
 20
9.807999999999999
 30
0.0
 11
6.378
 21
9.717999999999999
 31
0.0
  0
LINE
  5
89F
330
18
100
AcDbEntity
  8
Object
100
AcDbLine
 10
6.378
 20
9.717999999999999
 30
0.0
 11
6.246
 21
9.617
 31
0.0
  0
LINE
  5
8A0
330
18
100
AcDbEntity
  8
Object
100
AcDbLine
 10
6.246
 20
9.617
 30
0.0
 11
6.123
 21
9.503999999999999
 31
0.0
  0
LINE
  5
8A1
330
18
100
AcDbEntity
  8
Object
100
AcDbLine
 10
4.528999999999999
 20
12.18
 30
0.0
 11
4.525999999999999
 21
12.178
 31
0.0
  0
LINE
  5
8A2
330
18
100
AcDbEntity
  8
Object
100
AcDbLine
 10
6.123
 20
9.503999999999999
 30
0.0
 11
6.009999999999999
 21
9.381
 31
0.0
  0
LINE
  5
8A3
330
18
100
AcDbEntity
  8
Object
100
AcDbLine
 10
6.009999999999999
 20
9.381
 30
0.0
 11
5.908999999999999
 21
9.249
 31
0.0
  0
LINE
  5
8A4
330
18
100
AcDbEntity
  8
Object
100
AcDbLine
 10
4.525999999999999
 20
12.178
 30
0.0
 11
4.522
 21
12.177
 31
0.0
  0
LINE
  5
8A5
330
18
100
AcDbEntity
  8
Object
100
AcDbLine
 10
5.818999999999999
 20
9.108
 30
0.0
 11
5.908999999999999
 21
9.249
 31
0.0
  0
LINE
  5
8A6
330
18
100
AcDbEntity
  8
Object
100
AcDbLine
 10
3.968999999999999
 20
12.183
 30
0.0
 11
3.968999999999999
 21
12.187
 31
0.0
  0
LINE
  5
8A7
330
18
100
AcDbEntity
  8
Object
100
AcDbLine
 10
3.913
 20
12.253
 30
0.0
 11
3.968999999999999
 21
12.253
 31
0.0
  0
LINE
  5
8A8
330
18
100
AcDbEntity
  8
Object
100
AcDbLine
 10
3.968999999999999
 20
12.253
 30
0.0
 11
3.968999999999999
 21
12.187
 31
0.0
  0
LINE
  5
8A9
330
18
100
AcDbEntity
  8
Object
100
AcDbLine
 10
3.913
 20
12.253
 30
0.0
 11
3.829
 21
12.246
 31
0.0
  0
LINE
  5
8AA
330
18
100
AcDbEntity
  8
Object
100
AcDbLine
 10
3.971
 20
12.18
 30
0.0
 11
3.968999999999999
 21
12.183
 31
0.0
  0
LINE
  5
8AB
330
18
100
AcDbEntity
  8
Object
100
AcDbLine
 10
3.829
 20
12.246
 30
0.0
 11
3.746999999999999
 21
12.226
 31
0.0
  0
LINE
  5
8AC
330
18
100
AcDbEntity
  8
Object
100
AcDbLine
 10
3.746999999999999
 20
12.226
 30
0.0
 11
3.668
 21
12.194
 31
0.0
  0
LINE
  5
8AD
330
18
100
AcDbEntity
  8
Object
100
AcDbLine
 10
3.975
 20
12.178
 30
0.0
 11
3.971
 21
12.18
 31
0.0
  0
LINE
  5
8AE
330
18
100
AcDbEntity
  8
Object
100
AcDbLine
 10
3.668
 20
12.194
 30
0.0
 11
3.596
 21
12.15
 31
0.0
  0
LINE
  5
8AF
330
18
100
AcDbEntity
  8
Object
100
AcDbLine
 10
3.596
 20
12.15
 30
0.0
 11
3.532
 21
12.095
 31
0.0
  0
LINE
  5
8B0
330
18
100
AcDbEntity
  8
Object
100
AcDbLine
 10
5.570999999999999
 20
8.32
 30
0.0
 11
5.592
 21
8.484999999999999
 31
0.0
  0
LINE
  5
8B1
330
18
100
AcDbEntity
  8
Object
100
AcDbLine
 10
5.488
 20
7.943999999999999
 30
0.0
 11
5.488
 21
7.948
 31
0.0
  0
LINE
  5
8B2
330
18
100
AcDbEntity
  8
Object
100
AcDbLine
 10
5.488
 20
6.964
 30
0.0
 11
5.488
 21
6.959999999999999
 31
0.0
  0
LINE
  5
8B3
330
18
100
AcDbEntity
  8
Object
100
AcDbLine
 10
5.488
 20
6.959999999999999
 30
0.0
 11
5.491
 21
6.956999999999999
 31
0.0
  0
LINE
  5
8B4
330
18
100
AcDbEntity
  8
Object
100
AcDbLine
 10
5.488
 20
6.964
 30
0.0
 11
5.488
 21
7.943999999999999
 31
0.0
  0
LINE
  5
8B5
330
18
100
AcDbEntity
  8
Object
100
AcDbLine
 10
5.679
 20
8.807
 30
0.0
 11
5.628
 21
8.647999999999999
 31
0.0
  0
LINE
  5
8B6
330
18
100
AcDbEntity
  8
Object
100
AcDbLine
 10
5.628
 20
8.647999999999999
 30
0.0
 11
5.592
 21
8.484999999999999
 31
0.0
  0
LINE
  5
8B7
330
18
100
AcDbEntity
  8
Object
100
AcDbLine
 10
5.679
 20
8.807
 30
0.0
 11
5.741999999999999
 21
8.961
 31
0.0
  0
LINE
  5
8B8
330
18
100
AcDbEntity
  8
Object
100
AcDbLine
 10
3.443
 20
7.953
 30
0.0
 11
3.446
 21
7.951
 31
0.0
  0
LINE
  5
8B9
330
18
100
AcDbEntity
  8
Object
100
AcDbLine
 10
3.975
 20
12.178
 30
0.0
 11
3.979
 21
12.177
 31
0.0
  0
LINE
  5
8BA
330
18
100
AcDbEntity
  8
Object
100
AcDbLine
 10
3.979
 20
12.177
 30
0.0
 11
4.522
 21
12.177
 31
0.0
  0
LINE
  5
8BB
330
18
100
AcDbEntity
  8
Object
100
AcDbLine
 10
5.741999999999999
 20
8.961
 30
0.0
 11
5.818999999999999
 21
9.108
 31
0.0
  0
LINE
  5
8BC
330
18
100
AcDbEntity
  8
Object
100
AcDbLine
 10
3.443
 20
7.953
 30
0.0
 11
3.439
 21
7.953999999999999
 31
0.0
  0
LINE
  5
8BD
330
18
100
AcDbEntity
  8
Object
100
AcDbLine
 10
3.439
 20
7.953999999999999
 30
0.0
 11
3.374
 21
7.953999999999999
 31
0.0
  0
LINE
  5
8BE
330
18
100
AcDbEntity
  8
Object
100
AcDbLine
 10
3.443
 20
6.955
 30
0.0
 11
3.439
 21
6.953999999999999
 31
0.0
  0
LINE
  5
8BF
330
18
100
AcDbEntity
  8
Object
100
AcDbLine
 10
3.439
 20
6.953999999999999
 30
0.0
 11
3.374
 21
6.953999999999999
 31
0.0
  0
LINE
  5
8C0
330
18
100
AcDbEntity
  8
Object
100
AcDbLine
 10
3.446
 20
6.956999999999999
 30
0.0
 11
3.443
 21
6.955
 31
0.0
  0
LINE
  5
8C1
330
18
100
AcDbEntity
  8
Object
100
AcDbLine
 10
3.374
 20
5.078999999999999
 30
0.0
 11
5.562999999999999
 21
5.078999999999999
 31
0.0
  0
LINE
  5
8C2
330
18
100
AcDbEntity
  8
Object
100
AcDbLine
 10
5.498
 20
6.953999999999999
 30
0.0
 11
5.5
 21
6.956999999999999
 31
0.0
  0
LINE
  5
8C3
330
18
100
AcDbEntity
  8
Object
100
AcDbLine
 10
5.498
 20
7.953999999999999
 30
0.0
 11
5.5
 21
7.951
 31
0.0
  0
LINE
  5
8C4
330
18
100
AcDbEntity
  8
Object
100
AcDbLine
 10
5.5
 20
7.951
 30
0.0
 11
5.496
 21
7.951
 31
0.0
  0
LINE
  5
8C5
330
18
100
AcDbEntity
  8
Object
100
AcDbLine
 10
5.496
 20
7.951
 30
0.0
 11
5.493
 21
7.948999999999999
 31
0.0
  0
LINE
  5
8C6
330
18
100
AcDbEntity
  8
Object
100
AcDbLine
 10
5.493
 20
7.948999999999999
 30
0.0
 11
5.491
 21
7.945
 31
0.0
  0
LINE
  5
8C7
330
18
100
AcDbEntity
  8
Object
100
AcDbLine
 10
8.670999999999999
 20
12.199
 30
0.0
 11
8.670999999999999
 21
12.19
 31
0.0
  0
LINE
  5
8C8
330
18
100
AcDbEntity
  8
Object
100
AcDbLine
 10
8.670999999999999
 20
10.127
 30
0.0
 11
8.670999999999999
 21
10.118
 31
0.0
  0
LINE
  5
8C9
330
18
100
AcDbEntity
  8
Object
100
AcDbLine
 10
8.670999999999999
 20
12.19
 30
0.0
 11
8.669999999999999
 21
12.186
 31
0.0
  0
LINE
  5
8CA
330
18
100
AcDbEntity
  8
Object
100
AcDbLine
 10
8.669999999999999
 20
10.13
 30
0.0
 11
8.670999999999999
 21
10.127
 31
0.0
  0
LINE
  5
8CB
330
18
100
AcDbEntity
  8
Object
100
AcDbLine
 10
8.669999999999999
 20
12.186
 30
0.0
 11
8.668000000000001
 21
12.182
 31
0.0
  0
LINE
  5
8CC
330
18
100
AcDbEntity
  8
Object
100
AcDbLine
 10
8.668000000000001
 20
10.134
 30
0.0
 11
8.669999999999999
 21
10.13
 31
0.0
  0
LINE
  5
8CD
330
18
100
AcDbEntity
  8
Object
100
AcDbLine
 10
8.668000000000001
 20
12.182
 30
0.0
 11
8.663999999999999
 21
12.18
 31
0.0
  0
LINE
  5
8CE
330
18
100
AcDbEntity
  8
Object
100
AcDbLine
 10
8.668000000000001
 20
10.134
 30
0.0
 11
8.663999999999999
 21
10.136
 31
0.0
  0
LINE
  5
8CF
330
18
100
AcDbEntity
  8
Object
100
AcDbLine
 10
8.663999999999999
 20
10.136
 30
0.0
 11
8.660999999999999
 21
10.137
 31
0.0
  0
LINE
  5
8D0
330
18
100
AcDbEntity
  8
Object
100
AcDbLine
 10
8.663999999999999
 20
12.18
 30
0.0
 11
8.660999999999999
 21
12.18
 31
0.0
  0
LINE
  5
8D1
330
18
100
AcDbEntity
  8
Object
100
AcDbLine
 10
7.685999999999999
 20
10.137
 30
0.0
 11
8.660999999999999
 21
10.137
 31
0.0
  0
LINE
  5
8D2
330
18
100
AcDbEntity
  8
Object
100
AcDbLine
 10
8.660999999999999
 20
12.18
 30
0.0
 11
7.685999999999999
 21
12.18
 31
0.0
  0
LINE
  5
8D3
330
18
100
AcDbEntity
  8
Object
100
AcDbLine
 10
7.676
 20
10.13
 30
0.0
 11
7.676
 21
10.127
 31
0.0
  0
LINE
  5
8D4
330
18
100
AcDbEntity
  8
Object
100
AcDbLine
 10
7.676
 20
10.127
 30
0.0
 11
7.676
 21
10.118
 31
0.0
  0
LINE
  5
8D5
330
18
100
AcDbEntity
  8
Object
100
AcDbLine
 10
7.676
 20
10.13
 30
0.0
 11
7.679
 21
10.134
 31
0.0
  0
LINE
  5
8D6
330
18
100
AcDbEntity
  8
Object
100
AcDbLine
 10
7.679
 20
10.134
 30
0.0
 11
7.682
 21
10.136
 31
0.0
  0
LINE
  5
8D7
330
18
100
AcDbEntity
  8
Object
100
AcDbLine
 10
7.682
 20
10.136
 30
0.0
 11
7.685999999999999
 21
10.137
 31
0.0
  0
LINE
  5
8D8
330
18
100
AcDbEntity
  8
Object
100
AcDbLine
 10
7.685999999999999
 20
12.18
 30
0.0
 11
7.682
 21
12.18
 31
0.0
  0
LINE
  5
8D9
330
18
100
AcDbEntity
  8
Object
100
AcDbLine
 10
7.682
 20
12.18
 30
0.0
 11
7.679
 21
12.182
 31
0.0
  0
LINE
  5
8DA
330
18
100
AcDbEntity
  8
Object
100
AcDbLine
 10
7.679
 20
12.182
 30
0.0
 11
7.676
 21
12.186
 31
0.0
  0
LINE
  5
8DB
330
18
100
AcDbEntity
  8
Object
100
AcDbLine
 10
5.5
 20
6.956999999999999
 30
0.0
 11
5.496
 21
6.956999999999999
 31
0.0
  0
LINE
  5
8DC
330
18
100
AcDbEntity
  8
Object
100
AcDbLine
 10
5.496
 20
6.956999999999999
 30
0.0
 11
5.493
 21
6.959999999999999
 31
0.0
  0
LINE
  5
8DD
330
18
100
AcDbEntity
  8
Object
100
AcDbLine
 10
7.676
 20
12.19
 30
0.0
 11
7.676
 21
12.199
 31
0.0
  0
LINE
  5
8DE
330
18
100
AcDbEntity
  8
Object
100
AcDbLine
 10
4.53
 20
12.199
 30
0.0
 11
4.53
 21
12.19
 31
0.0
  0
LINE
  5
8DF
330
18
100
AcDbEntity
  8
Object
100
AcDbLine
 10
7.676
 20
12.186
 30
0.0
 11
7.676
 21
12.19
 31
0.0
  0
LINE
  5
8E0
330
18
100
AcDbEntity
  8
Object
100
AcDbLine
 10
4.53
 20
12.19
 30
0.0
 11
4.528999999999999
 21
12.186
 31
0.0
  0
LINE
  5
8E1
330
18
100
AcDbEntity
  8
Object
100
AcDbLine
 10
4.528999999999999
 20
12.186
 30
0.0
 11
4.527
 21
12.182
 31
0.0
  0
LINE
  5
8E2
330
18
100
AcDbEntity
  8
Object
100
AcDbLine
 10
4.527
 20
12.182
 30
0.0
 11
4.524
 21
12.18
 31
0.0
  0
LINE
  5
8E3
330
18
100
AcDbEntity
  8
Object
100
AcDbLine
 10
4.524
 20
12.18
 30
0.0
 11
4.52
 21
12.18
 31
0.0
  0
LINE
  5
8E4
330
18
100
AcDbEntity
  8
Object
100
AcDbLine
 10
3.976999999999999
 20
12.18
 30
0.0
 11
3.974
 21
12.182
 31
0.0
  0
LINE
  5
8E5
330
18
100
AcDbEntity
  8
Object
100
AcDbLine
 10
3.974
 20
12.182
 30
0.0
 11
3.971999999999999
 21
12.186
 31
0.0
  0
LINE
  5
8E6
330
18
100
AcDbEntity
  8
Object
100
AcDbLine
 10
3.971999999999999
 20
12.186
 30
0.0
 11
3.971
 21
12.19
 31
0.0
  0
LINE
  5
8E7
330
18
100
AcDbEntity
  8
Object
100
AcDbLine
 10
3.971
 20
12.19
 30
0.0
 11
3.971
 21
12.199
 31
0.0
  0
LINE
  5
8E8
330
18
100
AcDbEntity
  8
Object
100
AcDbLine
 10
3.980999999999999
 20
12.18
 30
0.0
 11
3.976999999999999
 21
12.18
 31
0.0
  0
LINE
  5
8E9
330
18
100
AcDbEntity
  8
Object
100
AcDbLine
 10
3.447
 20
7.940999999999999
 30
0.0
 11
3.447
 21
6.967
 31
0.0
  0
LINE
  5
8EA
330
18
100
AcDbEntity
  8
Object
100
AcDbLine
 10
5.491
 20
6.963
 30
0.0
 11
5.49
 21
6.967
 31
0.0
  0
LINE
  5
8EB
330
18
100
AcDbEntity
  8
Object
100
AcDbLine
 10
5.49
 20
6.967
 30
0.0
 11
5.49
 21
7.940999999999999
 31
0.0
  0
LINE
  5
8EC
330
18
100
AcDbEntity
  8
Object
100
AcDbLine
 10
5.49
 20
7.940999999999999
 30
0.0
 11
5.491
 21
7.945
 31
0.0
  0
LINE
  5
8ED
330
18
100
AcDbEntity
  8
Object
100
AcDbLine
 10
3.446
 20
7.945
 30
0.0
 11
3.447
 21
7.940999999999999
 31
0.0
  0
LINE
  5
8EE
330
18
100
AcDbEntity
  8
Object
100
AcDbLine
 10
3.447
 20
6.967
 30
0.0
 11
3.446
 21
6.963
 31
0.0
  0
LINE
  5
8EF
330
18
100
AcDbEntity
  8
Object
100
AcDbLine
 10
3.443999999999999
 20
7.948999999999999
 30
0.0
 11
3.446
 21
7.945
 31
0.0
  0
LINE
  5
8F0
330
18
100
AcDbEntity
  8
Object
100
AcDbLine
 10
3.446
 20
6.963
 30
0.0
 11
3.443999999999999
 21
6.959999999999999
 31
0.0
  0
LINE
  5
8F1
330
18
100
AcDbEntity
  8
Object
100
AcDbLine
 10
5.493
 20
6.959999999999999
 30
0.0
 11
5.491
 21
6.963
 31
0.0
  0
LINE
  5
8F2
330
18
100
AcDbEntity
  8
Object
100
AcDbLine
 10
3.443999999999999
 20
7.948999999999999
 30
0.0
 11
3.441
 21
7.951
 31
0.0
  0
LINE
  5
8F3
330
18
100
AcDbEntity
  8
Object
100
AcDbLine
 10
3.441
 20
7.951
 30
0.0
 11
3.437
 21
7.951
 31
0.0
  0
LINE
  5
8F4
330
18
100
AcDbEntity
  8
Object
100
AcDbLine
 10
4.52
 20
12.18
 30
0.0
 11
3.980999999999999
 21
12.18
 31
0.0
  0
LINE
  5
8F5
330
18
100
AcDbEntity
  8
Object
100
AcDbLine
 10
3.427999999999999
 20
7.951
 30
0.0
 11
3.437
 21
7.951
 31
0.0
  0
LINE
  5
8F6
330
18
100
AcDbEntity
  8
Object
100
AcDbLine
 10
3.443999999999999
 20
6.959999999999999
 30
0.0
 11
3.441
 21
6.956999999999999
 31
0.0
  0
LINE
  5
8F7
330
18
100
AcDbEntity
  8
Object
100
AcDbLine
 10
3.441
 20
6.956999999999999
 30
0.0
 11
3.437
 21
6.956999999999999
 31
0.0
  0
LINE
  5
8F8
330
18
100
AcDbEntity
  8
Object
100
AcDbLine
 10
3.437
 20
6.956999999999999
 30
0.0
 11
3.427999999999999
 21
6.956999999999999
 31
0.0
  0
LINE
  5
8F9
330
18
100
AcDbEntity
  8
Object
100
AcDbLine
 10
7.679
 20
10.029
 30
0.0
 11
7.679
 21
10.047
 31
0.0
  0
LINE
  5
8FA
330
18
100
AcDbEntity
  8
Object
100
AcDbLine
 10
7.676
 20
10.127
 30
0.0
 11
7.673
 21
10.129
 31
0.0
  0
LINE
  5
8FB
330
18
100
AcDbEntity
  8
Object
100
AcDbLine
 10
5.592999999999999
 20
7.953
 30
0.0
 11
5.592999999999999
 21
8.153
 31
0.0
  0
LINE
  5
8FC
330
18
100
AcDbEntity
  8
Object
100
AcDbLine
 10
5.592999999999999
 20
8.153
 30
0.0
 11
5.589
 21
8.153
 31
0.0
  0
LINE
  5
8FD
330
18
100
AcDbEntity
  8
Object
100
AcDbLine
 10
5.589
 20
8.153
 30
0.0
 11
5.578
 21
8.153
 31
0.0
  0
LINE
  5
8FE
330
18
100
AcDbEntity
  8
Object
100
AcDbLine
 10
5.573999999999999
 20
7.953999999999999
 30
0.0
 11
5.584
 21
7.953999999999999
 31
0.0
  0
LINE
  5
8FF
330
18
100
AcDbEntity
  8
Object
100
AcDbLine
 10
5.578
 20
8.153
 30
0.0
 11
5.562999999999999
 21
8.153
 31
0.0
  0
LINE
  5
900
330
18
100
AcDbEntity
  8
Object
100
AcDbLine
 10
5.562999999999999
 20
7.953999999999999
 30
0.0
 11
5.573999999999999
 21
7.953999999999999
 31
0.0
  0
LINE
  5
901
330
18
100
AcDbEntity
  8
Object
100
AcDbLine
 10
8.663
 20
12.177
 30
0.0
 11
8.660999999999999
 21
12.18
 31
0.0
  0
LINE
  5
902
330
18
100
AcDbEntity
  8
Object
100
AcDbLine
 10
8.660999999999999
 20
10.137
 30
0.0
 11
8.663
 21
10.139
 31
0.0
  0
LINE
  5
903
330
18
100
AcDbEntity
  8
Object
100
AcDbLine
 10
3.968999999999999
 20
12.264
 30
0.0
 11
3.968999999999999
 21
12.274
 31
0.0
  0
LINE
  5
904
330
18
100
AcDbEntity
  8
Object
100
AcDbLine
 10
3.913
 20
12.283
 30
0.0
 11
3.97
 21
12.283
 31
0.0
  0
LINE
  5
905
330
18
100
AcDbEntity
  8
Object
100
AcDbLine
 10
3.97
 20
12.283
 30
0.0
 11
3.968999999999999
 21
12.28
 31
0.0
  0
LINE
  5
906
330
18
100
AcDbEntity
  8
Object
100
AcDbLine
 10
3.968999999999999
 20
12.28
 30
0.0
 11
3.968999999999999
 21
12.274
 31
0.0
  0
LINE
  5
907
330
18
100
AcDbEntity
  8
Object
100
AcDbLine
 10
3.968999999999999
 20
12.253
 30
0.0
 11
3.968999999999999
 21
12.264
 31
0.0
  0
LINE
  5
908
330
18
100
AcDbEntity
  8
Object
100
AcDbLine
 10
3.979
 20
12.177
 30
0.0
 11
3.980999999999999
 21
12.18
 31
0.0
  0
LINE
  5
909
330
18
100
AcDbEntity
  8
Object
100
AcDbLine
 10
3.971
 20
12.19
 30
0.0
 11
3.968999999999999
 21
12.187
 31
0.0
  0
LINE
  5
90A
330
18
100
AcDbEntity
  8
Object
100
AcDbLine
 10
8.672
 20
12.183
 30
0.0
 11
8.673
 21
12.187
 31
0.0
  0
LINE
  5
90B
330
18
100
AcDbEntity
  8
Object
100
AcDbLine
 10
8.673
 20
12.187
 30
0.0
 11
8.670999999999999
 21
12.19
 31
0.0
  0
LINE
  5
90C
330
18
100
AcDbEntity
  8
Object
100
AcDbLine
 10
8.669999999999999
 20
12.18
 30
0.0
 11
8.672
 21
12.183
 31
0.0
  0
LINE
  5
90D
330
18
100
AcDbEntity
  8
Object
100
AcDbLine
 10
3.374
 20
6.953999999999999
 30
0.0
 11
3.374
 21
5.078999999999999
 31
0.0
  0
LINE
  5
90E
330
18
100
AcDbEntity
  8
Object
100
AcDbLine
 10
3.374
 20
5.078999999999999
 30
0.0
 11
3.358999999999999
 21
5.078999999999999
 31
0.0
  0
LINE
  5
90F
330
18
100
AcDbEntity
  8
Object
100
AcDbLine
 10
3.358999999999999
 20
5.078999999999999
 30
0.0
 11
3.347999999999999
 21
5.078999999999999
 31
0.0
  0
LINE
  5
910
330
18
100
AcDbEntity
  8
Object
100
AcDbLine
 10
3.353
 20
6.953999999999999
 30
0.0
 11
3.346
 21
6.955
 31
0.0
  0
LINE
  5
911
330
18
100
AcDbEntity
  8
Object
100
AcDbLine
 10
3.343999999999999
 20
5.078999999999999
 30
0.0
 11
3.347999999999999
 21
5.078999999999999
 31
0.0
  0
LINE
  5
912
330
18
100
AcDbEntity
  8
Object
100
AcDbLine
 10
3.346
 20
6.955
 30
0.0
 11
3.343999999999999
 21
6.955
 31
0.0
  0
LINE
  5
913
330
18
100
AcDbEntity
  8
Object
100
AcDbLine
 10
4.532
 20
12.274
 30
0.0
 11
4.532
 21
12.264
 31
0.0
  0
LINE
  5
914
330
18
100
AcDbEntity
  8
Object
100
AcDbLine
 10
7.673
 20
12.274
 30
0.0
 11
7.674
 21
12.28
 31
0.0
  0
LINE
  5
915
330
18
100
AcDbEntity
  8
Object
100
AcDbLine
 10
4.532
 20
12.28
 30
0.0
 11
4.532
 21
12.274
 31
0.0
  0
LINE
  5
916
330
18
100
AcDbEntity
  8
Object
100
AcDbLine
 10
7.673
 20
12.274
 30
0.0
 11
7.673
 21
12.264
 31
0.0
  0
LINE
  5
917
330
18
100
AcDbEntity
  8
Object
100
AcDbLine
 10
7.673
 20
12.264
 30
0.0
 11
7.673
 21
12.253
 31
0.0
  0
LINE
  5
918
330
18
100
AcDbEntity
  8
Object
100
AcDbLine
 10
4.530999999999999
 20
12.283
 30
0.0
 11
4.532
 21
12.28
 31
0.0
  0
LINE
  5
919
330
18
100
AcDbEntity
  8
Object
100
AcDbLine
 10
7.674
 20
12.28
 30
0.0
 11
7.674
 21
12.283
 31
0.0
  0
LINE
  5
91A
330
18
100
AcDbEntity
  8
Object
100
AcDbLine
 10
8.672
 20
10.133
 30
0.0
 11
8.673
 21
10.129
 31
0.0
  0
LINE
  5
91B
330
18
100
AcDbEntity
  8
Object
100
AcDbLine
 10
8.673
 20
10.129
 30
0.0
 11
8.670999999999999
 21
10.127
 31
0.0
  0
LINE
  5
91C
330
18
100
AcDbEntity
  8
Object
100
AcDbLine
 10
8.672
 20
10.133
 30
0.0
 11
8.669999999999999
 21
10.136
 31
0.0
  0
LINE
  5
91D
330
18
100
AcDbEntity
  8
Object
100
AcDbLine
 10
7.474
 20
10.033
 30
0.0
 11
7.474
 21
10.038
 31
0.0
  0
LINE
  5
91E
330
18
100
AcDbEntity
  8
Object
100
AcDbLine
 10
7.474
 20
10.063
 30
0.0
 11
7.474
 21
10.049
 31
0.0
  0
LINE
  5
91F
330
18
100
AcDbEntity
  8
Object
100
AcDbLine
 10
7.474
 20
10.049
 30
0.0
 11
7.474
 21
10.038
 31
0.0
  0
LINE
  5
920
330
18
100
AcDbEntity
  8
Object
100
AcDbLine
 10
7.474
 20
10.033
 30
0.0
 11
7.31
 21
10.026
 31
0.0
  0
LINE
  5
921
330
18
100
AcDbEntity
  8
Object
100
AcDbLine
 10
7.31
 20
10.026
 30
0.0
 11
7.147
 21
10.005
 31
0.0
  0
LINE
  5
922
330
18
100
AcDbEntity
  8
Object
100
AcDbLine
 10
7.147
 20
10.005
 30
0.0
 11
6.987
 21
9.968999999999999
 31
0.0
  0
LINE
  5
923
330
18
100
AcDbEntity
  8
Object
100
AcDbLine
 10
6.987
 20
9.968999999999999
 30
0.0
 11
6.831
 21
9.919999999999999
 31
0.0
  0
LINE
  5
924
330
18
100
AcDbEntity
  8
Object
100
AcDbLine
 10
6.831
 20
9.919999999999999
 30
0.0
 11
6.679
 21
9.856999999999999
 31
0.0
  0
LINE
  5
925
330
18
100
AcDbEntity
  8
Object
100
AcDbLine
 10
6.679
 20
9.856999999999999
 30
0.0
 11
6.533
 21
9.782
 31
0.0
  0
LINE
  5
926
330
18
100
AcDbEntity
  8
Object
100
AcDbLine
 10
6.533
 20
9.782
 30
0.0
 11
6.395
 21
9.692999999999999
 31
0.0
  0
LINE
  5
927
330
18
100
AcDbEntity
  8
Object
100
AcDbLine
 10
6.395
 20
9.692999999999999
 30
0.0
 11
6.265
 21
9.593999999999999
 31
0.0
  0
LINE
  5
928
330
18
100
AcDbEntity
  8
Object
100
AcDbLine
 10
6.265
 20
9.593999999999999
 30
0.0
 11
6.144
 21
9.483
 31
0.0
  0
LINE
  5
929
330
18
100
AcDbEntity
  8
Object
100
AcDbLine
 10
6.144
 20
9.483
 30
0.0
 11
6.033
 21
9.362
 31
0.0
  0
LINE
  5
92A
330
18
100
AcDbEntity
  8
Object
100
AcDbLine
 10
6.033
 20
9.362
 30
0.0
 11
5.932999999999999
 21
9.231999999999999
 31
0.0
  0
LINE
  5
92B
330
18
100
AcDbEntity
  8
Object
100
AcDbLine
 10
5.932999999999999
 20
9.231999999999999
 30
0.0
 11
5.844999999999999
 21
9.092999999999999
 31
0.0
  0
LINE
  5
92C
330
18
100
AcDbEntity
  8
Object
100
AcDbLine
 10
5.844999999999999
 20
9.092999999999999
 30
0.0
 11
5.77
 21
8.948
 31
0.0
  0
LINE
  5
92D
330
18
100
AcDbEntity
  8
Object
100
AcDbLine
 10
5.77
 20
8.948
 30
0.0
 11
5.706999999999999
 21
8.795999999999999
 31
0.0
  0
LINE
  5
92E
330
18
100
AcDbEntity
  8
Object
100
AcDbLine
 10
5.706999999999999
 20
8.795999999999999
 30
0.0
 11
5.657
 21
8.64
 31
0.0
  0
LINE
  5
92F
330
18
100
AcDbEntity
  8
Object
100
AcDbLine
 10
5.657
 20
8.64
 30
0.0
 11
5.621999999999999
 21
8.48
 31
0.0
  0
LINE
  5
930
330
18
100
AcDbEntity
  8
Object
100
AcDbLine
 10
5.621999999999999
 20
8.48
 30
0.0
 11
5.6
 21
8.317
 31
0.0
  0
LINE
  5
931
330
18
100
AcDbEntity
  8
Object
100
AcDbLine
 10
5.6
 20
8.317
 30
0.0
 11
5.592999999999999
 21
8.153
 31
0.0
  0
LINE
  5
932
330
18
100
AcDbEntity
  8
Object
100
AcDbLine
 10
3.449
 20
6.964
 30
0.0
 11
3.449
 21
7.943999999999999
 31
0.0
  0
LINE
  5
933
330
18
100
AcDbEntity
  8
Object
100
AcDbLine
 10
3.439
 20
6.953999999999999
 30
0.0
 11
3.437
 21
6.956999999999999
 31
0.0
  0
LINE
  5
934
330
18
100
AcDbEntity
  8
Object
100
AcDbLine
 10
3.422
 20
6.956999999999999
 30
0.0
 11
3.417
 21
6.956999999999999
 31
0.0
  0
LINE
  5
935
330
18
100
AcDbEntity
  8
Object
100
AcDbLine
 10
3.353
 20
6.953999999999999
 30
0.0
 11
3.362999999999999
 21
6.953999999999999
 31
0.0
  0
LINE
  5
936
330
18
100
AcDbEntity
  8
Object
100
AcDbLine
 10
3.362999999999999
 20
6.953999999999999
 30
0.0
 11
3.374
 21
6.953999999999999
 31
0.0
  0
LINE
  5
937
330
18
100
AcDbEntity
  8
Object
100
AcDbLine
 10
3.413
 20
6.956999999999999
 30
0.0
 11
3.414
 21
6.956999999999999
 31
0.0
  0
LINE
  5
938
330
18
100
AcDbEntity
  8
Object
100
AcDbLine
 10
3.414
 20
6.956999999999999
 30
0.0
 11
3.417
 21
6.956999999999999
 31
0.0
  0
LINE
  5
939
330
18
100
AcDbEntity
  8
Object
100
AcDbLine
 10
3.358
 20
6.959999999999999
 30
0.0
 11
3.338999999999999
 21
6.959999999999999
 31
0.0
  0
LINE
  5
93A
330
18
100
AcDbEntity
  8
Object
100
AcDbLine
 10
3.449
 20
6.959999999999999
 30
0.0
 11
3.449
 21
6.964
 31
0.0
  0
LINE
  5
93B
330
18
100
AcDbEntity
  8
Object
100
AcDbLine
 10
3.449
 20
6.964
 30
0.0
 11
3.447
 21
6.967
 31
0.0
  0
LINE
  5
93C
330
18
100
AcDbEntity
  8
Object
100
AcDbLine
 10
3.446
 20
6.956999999999999
 30
0.0
 11
3.449
 21
6.959999999999999
 31
0.0
  0
LINE
  5
93D
330
18
100
AcDbEntity
  8
Object
100
AcDbLine
 10
4.532
 20
12.183
 30
0.0
 11
4.532
 21
12.187
 31
0.0
  0
LINE
  5
93E
330
18
100
AcDbEntity
  8
Object
100
AcDbLine
 10
4.532
 20
12.187
 30
0.0
 11
4.53
 21
12.19
 31
0.0
  0
LINE
  5
93F
330
18
100
AcDbEntity
  8
Object
100
AcDbLine
 10
4.528999999999999
 20
12.18
 30
0.0
 11
4.532
 21
12.183
 31
0.0
  0
LINE
  5
940
330
18
100
AcDbEntity
  8
Object
100
AcDbLine
 10
8.672
 20
12.283
 30
0.0
 11
8.672
 21
12.28
 31
0.0
  0
LINE
  5
941
330
18
100
AcDbEntity
  8
Object
100
AcDbLine
 10
8.672
 20
12.28
 30
0.0
 11
8.673
 21
12.274
 31
0.0
  0
LINE
  5
942
330
18
100
AcDbEntity
  8
Object
100
AcDbLine
 10
8.673
 20
12.274
 30
0.0
 11
8.673
 21
12.264
 31
0.0
  0
LINE
  5
943
330
18
100
AcDbEntity
  8
Object
100
AcDbLine
 10
8.673
 20
12.264
 30
0.0
 11
8.673
 21
12.253
 31
0.0
  0
LINE
  5
944
330
18
100
AcDbEntity
  8
Object
100
AcDbLine
 10
8.670999999999999
 20
12.209
 30
0.0
 11
8.670999999999999
 21
12.204
 31
0.0
  0
LINE
  5
945
330
18
100
AcDbEntity
  8
Object
100
AcDbLine
 10
8.673
 20
12.187
 30
0.0
 11
8.673
 21
12.253
 31
0.0
  0
LINE
  5
946
330
18
100
AcDbEntity
  8
Object
100
AcDbLine
 10
8.670999999999999
 20
12.204
 30
0.0
 11
8.670999999999999
 21
12.199
 31
0.0
  0
LINE
  5
947
330
18
100
AcDbEntity
  8
Object
100
AcDbLine
 10
8.670999999999999
 20
12.209
 30
0.0
 11
8.669999999999999
 21
12.212
 31
0.0
  0
LINE
  5
948
330
18
100
AcDbEntity
  8
Object
100
AcDbLine
 10
8.669999999999999
 20
12.212
 30
0.0
 11
8.669999999999999
 21
12.214
 31
0.0
  0
LINE
  5
949
330
18
100
AcDbEntity
  8
Object
100
AcDbLine
 10
8.672
 20
12.283
 30
0.0
 11
8.668000000000001
 21
12.287
 31
0.0
  0
LINE
  5
94A
330
18
100
AcDbEntity
  8
Object
100
AcDbLine
 10
10.548
 20
10.022
 30
0.0
 11
10.548
 21
10.033
 31
0.0
  0
LINE
  5
94B
330
18
100
AcDbEntity
  8
Object
100
AcDbLine
 10
10.548
 20
10.033
 30
0.0
 11
10.548
 21
10.038
 31
0.0
  0
LINE
  5
94C
330
18
100
AcDbEntity
  8
Object
100
AcDbLine
 10
10.548
 20
10.038
 30
0.0
 11
10.548
 21
10.049
 31
0.0
  0
LINE
  5
94D
330
18
100
AcDbEntity
  8
Object
100
AcDbLine
 10
10.548
 20
10.049
 30
0.0
 11
10.548
 21
10.063
 31
0.0
  0
LINE
  5
94E
330
18
100
AcDbEntity
  8
Object
100
AcDbLine
 10
10.548
 20
10.063
 30
0.0
 11
10.548
 21
12.253
 31
0.0
  0
LINE
  5
94F
330
18
100
AcDbEntity
  8
Object
100
AcDbLine
 10
10.548
 20
12.283
 30
0.0
 11
10.548
 21
12.294
 31
0.0
  0
LINE
  5
950
330
18
100
AcDbEntity
  8
Object
100
AcDbLine
 10
10.548
 20
12.278
 30
0.0
 11
10.548
 21
12.267
 31
0.0
  0
LINE
  5
951
330
18
100
AcDbEntity
  8
Object
100
AcDbLine
 10
10.548
 20
12.267
 30
0.0
 11
10.548
 21
12.253
 31
0.0
  0
LINE
  5
952
330
18
100
AcDbEntity
  8
Object
100
AcDbLine
 10
10.548
 20
12.278
 30
0.0
 11
10.548
 21
12.283
 31
0.0
  0
LINE
  5
953
330
18
100
AcDbEntity
  8
Object
100
AcDbLine
 10
3.437
 20
7.951
 30
0.0
 11
3.439
 21
7.953999999999999
 31
0.0
  0
LINE
  5
954
330
18
100
AcDbEntity
  8
Object
100
AcDbLine
 10
3.427999999999999
 20
7.951
 30
0.0
 11
3.422
 21
7.951
 31
0.0
  0
LINE
  5
955
330
18
100
AcDbEntity
  8
Object
100
AcDbLine
 10
3.422
 20
7.951
 30
0.0
 11
3.417
 21
7.951
 31
0.0
  0
LINE
  5
956
330
18
100
AcDbEntity
  8
Object
100
AcDbLine
 10
3.346
 20
7.953
 30
0.0
 11
3.353
 21
7.953999999999999
 31
0.0
  0
LINE
  5
957
330
18
100
AcDbEntity
  8
Object
100
AcDbLine
 10
3.353
 20
7.953999999999999
 30
0.0
 11
3.362999999999999
 21
7.953999999999999
 31
0.0
  0
LINE
  5
958
330
18
100
AcDbEntity
  8
Object
100
AcDbLine
 10
3.362999999999999
 20
7.953999999999999
 30
0.0
 11
3.374
 21
7.953999999999999
 31
0.0
  0
LINE
  5
959
330
18
100
AcDbEntity
  8
Object
100
AcDbLine
 10
3.417
 20
7.951
 30
0.0
 11
3.414
 21
7.951
 31
0.0
  0
LINE
  5
95A
330
18
100
AcDbEntity
  8
Object
100
AcDbLine
 10
3.414
 20
7.951
 30
0.0
 11
3.413
 21
7.951
 31
0.0
  0
LINE
  5
95B
330
18
100
AcDbEntity
  8
Object
100
AcDbLine
 10
3.346
 20
7.953
 30
0.0
 11
3.343999999999999
 21
7.953
 31
0.0
  0
LINE
  5
95C
330
18
100
AcDbEntity
  8
Object
100
AcDbLine
 10
3.358
 20
7.948
 30
0.0
 11
3.338999999999999
 21
7.948
 31
0.0
  0
LINE
  5
95D
330
18
100
AcDbEntity
  8
Object
100
AcDbLine
 10
3.338999999999999
 20
7.948
 30
0.0
 11
3.343999999999999
 21
7.953
 31
0.0
  0
LINE
  5
95E
330
18
100
AcDbEntity
  8
Object
100
AcDbLine
 10
4.532
 20
12.253
 30
0.0
 11
4.532
 21
12.264
 31
0.0
  0
LINE
  5
95F
330
18
100
AcDbEntity
  8
Object
100
AcDbLine
 10
4.53
 20
12.209
 30
0.0
 11
4.53
 21
12.204
 31
0.0
  0
LINE
  5
960
330
18
100
AcDbEntity
  8
Object
100
AcDbLine
 10
4.532
 20
12.187
 30
0.0
 11
4.532
 21
12.253
 31
0.0
  0
LINE
  5
961
330
18
100
AcDbEntity
  8
Object
100
AcDbLine
 10
4.53
 20
12.212
 30
0.0
 11
4.53
 21
12.209
 31
0.0
  0
LINE
  5
962
330
18
100
AcDbEntity
  8
Object
100
AcDbLine
 10
4.53
 20
12.204
 30
0.0
 11
4.53
 21
12.199
 31
0.0
  0
LINE
  5
963
330
18
100
AcDbEntity
  8
Object
100
AcDbLine
 10
4.53
 20
12.212
 30
0.0
 11
4.528999999999999
 21
12.214
 31
0.0
  0
LINE
  5
964
330
18
100
AcDbEntity
  8
Object
100
AcDbLine
 10
4.528999999999999
 20
12.214
 30
0.0
 11
4.527
 21
12.216
 31
0.0
  0
LINE
  5
965
330
18
100
AcDbEntity
  8
Object
100
AcDbLine
 10
4.530999999999999
 20
12.283
 30
0.0
 11
4.527
 21
12.287
 31
0.0
  0
LINE
  5
966
330
18
100
AcDbEntity
  8
Object
100
AcDbLine
 10
7.682999999999999
 20
12.177
 30
0.0
 11
7.685999999999999
 21
12.18
 31
0.0
  0
LINE
  5
967
330
18
100
AcDbEntity
  8
Object
100
AcDbLine
 10
7.676
 20
12.19
 30
0.0
 11
7.673
 21
12.187
 31
0.0
  0
LINE
  5
968
330
18
100
AcDbEntity
  8
Object
100
AcDbLine
 10
3.974
 20
12.216
 30
0.0
 11
3.974
 21
12.287
 31
0.0
  0
LINE
  5
969
330
18
100
AcDbEntity
  8
Object
100
AcDbLine
 10
3.374
 20
7.953999999999999
 30
0.0
 11
3.374
 21
11.713
 31
0.0
  0
LINE
  5
96A
330
18
100
AcDbEntity
  8
Object
100
AcDbLine
 10
3.374
 20
11.713
 30
0.0
 11
3.358999999999999
 21
11.713
 31
0.0
  0
LINE
  5
96B
330
18
100
AcDbEntity
  8
Object
100
AcDbLine
 10
3.358999999999999
 20
11.713
 30
0.0
 11
3.347999999999999
 21
11.713
 31
0.0
  0
LINE
  5
96C
330
18
100
AcDbEntity
  8
Object
100
AcDbLine
 10
3.347999999999999
 20
11.713
 30
0.0
 11
3.343999999999999
 21
11.713
 31
0.0
  0
LINE
  5
96D
330
18
100
AcDbEntity
  8
Object
100
AcDbLine
 10
3.913
 20
12.278
 30
0.0
 11
3.913
 21
12.267
 31
0.0
  0
LINE
  5
96E
330
18
100
AcDbEntity
  8
Object
100
AcDbLine
 10
3.913
 20
12.267
 30
0.0
 11
3.913
 21
12.253
 31
0.0
  0
LINE
  5
96F
330
18
100
AcDbEntity
  8
Object
100
AcDbLine
 10
3.913
 20
12.278
 30
0.0
 11
3.913
 21
12.283
 31
0.0
  0
LINE
  5
970
330
18
100
AcDbEntity
  8
Object
100
AcDbLine
 10
3.532
 20
12.095
 30
0.0
 11
3.476999999999999
 21
12.03
 31
0.0
  0
LINE
  5
971
330
18
100
AcDbEntity
  8
Object
100
AcDbLine
 10
3.476999999999999
 20
12.03
 30
0.0
 11
3.431999999999999
 21
11.958
 31
0.0
  0
LINE
  5
972
330
18
100
AcDbEntity
  8
Object
100
AcDbLine
 10
3.431999999999999
 20
11.958
 30
0.0
 11
3.399999999999999
 21
11.88
 31
0.0
  0
LINE
  5
973
330
18
100
AcDbEntity
  8
Object
100
AcDbLine
 10
3.399999999999999
 20
11.88
 30
0.0
 11
3.379999999999999
 21
11.797
 31
0.0
  0
LINE
  5
974
330
18
100
AcDbEntity
  8
Object
100
AcDbLine
 10
3.379999999999999
 20
11.797
 30
0.0
 11
3.374
 21
11.713
 31
0.0
  0
LINE
  5
975
330
18
100
AcDbEntity
  8
Object
100
AcDbLine
 10
7.685999999999999
 20
10.137
 30
0.0
 11
7.682999999999999
 21
10.139
 31
0.0
  0
LINE
  5
976
330
18
100
AcDbEntity
  8
Object
100
AcDbLine
 10
4.522
 20
12.177
 30
0.0
 11
4.52
 21
12.18
 31
0.0
  0
LINE
  5
977
330
18
100
AcDbEntity
  8
Object
100
AcDbLine
 10
10.548
 20
12.253
 30
0.0
 11
10.548
 21
12.267
 31
0.0
  0
LINE
  5
978
330
18
100
AcDbEntity
  8
Object
100
AcDbLine
 10
10.548
 20
12.267
 30
0.0
 11
10.548
 21
12.278
 31
0.0
  0
LINE
  5
979
330
18
100
AcDbEntity
  8
Object
100
AcDbLine
 10
10.548
 20
12.278
 30
0.0
 11
10.548
 21
12.283
 31
0.0
  0
LINE
  5
97A
330
18
100
AcDbEntity
  8
Object
100
AcDbLine
 10
7.673
 20
10.043
 30
0.0
 11
7.673
 21
10.053
 31
0.0
  0
LINE
  5
97B
330
18
100
AcDbEntity
  8
Object
100
AcDbLine
 10
7.674
 20
10.036
 30
0.0
 11
7.674
 21
10.033
 31
0.0
  0
LINE
  5
97C
330
18
100
AcDbEntity
  8
Object
100
AcDbLine
 10
7.674
 20
10.033
 30
0.0
 11
7.474
 21
10.033
 31
0.0
  0
LINE
  5
97D
330
18
100
AcDbEntity
  8
Object
100
AcDbLine
 10
7.674
 20
10.036
 30
0.0
 11
7.673
 21
10.043
 31
0.0
  0
LINE
  5
97E
330
18
100
AcDbEntity
  8
Object
100
AcDbLine
 10
7.673
 20
10.053
 30
0.0
 11
7.673
 21
10.063
 31
0.0
  0
LINE
  5
97F
330
18
100
AcDbEntity
  8
Object
100
AcDbLine
 10
5.584
 20
7.953999999999999
 30
0.0
 11
5.591
 21
7.953
 31
0.0
  0
LINE
  5
980
330
18
100
AcDbEntity
  8
Object
100
AcDbLine
 10
5.591
 20
7.953
 30
0.0
 11
5.592999999999999
 21
7.953
 31
0.0
  0
LINE
  5
981
330
18
100
AcDbEntity
  8
Object
100
AcDbLine
 10
5.592999999999999
 20
7.953
 30
0.0
 11
5.597999999999999
 21
7.948
 31
0.0
  0
LINE
  5
982
330
18
100
AcDbEntity
  8
Object
100
AcDbLine
 10
5.597999999999999
 20
7.948
 30
0.0
 11
5.578999999999999
 21
7.948
 31
0.0
  0
LINE
  5
983
330
18
100
AcDbEntity
  8
Object
100
AcDbLine
 10
5.524
 20
7.951
 30
0.0
 11
5.522999999999999
 21
7.951
 31
0.0
  0
LINE
  5
984
330
18
100
AcDbEntity
  8
Object
100
AcDbLine
 10
5.522999999999999
 20
7.951
 30
0.0
 11
5.519
 21
7.951
 31
0.0
  0
LINE
  5
985
330
18
100
AcDbEntity
  8
Object
100
AcDbLine
 10
5.519
 20
7.951
 30
0.0
 11
5.514
 21
7.951
 31
0.0
  0
LINE
  5
986
330
18
100
AcDbEntity
  8
Object
100
AcDbLine
 10
5.514
 20
7.951
 30
0.0
 11
5.509
 21
7.951
 31
0.0
  0
LINE
  5
987
330
18
100
AcDbEntity
  8
Object
100
AcDbLine
 10
5.509
 20
7.951
 30
0.0
 11
5.5
 21
7.951
 31
0.0
  0
LINE
  5
988
330
18
100
AcDbEntity
  8
Object
100
AcDbLine
 10
5.592999999999999
 20
6.955
 30
0.0
 11
5.592999999999999
 21
5.078999999999999
 31
0.0
  0
LINE
  5
989
330
18
100
AcDbEntity
  8
Object
100
AcDbLine
 10
5.592999999999999
 20
5.078999999999999
 30
0.0
 11
5.589
 21
5.078999999999999
 31
0.0
  0
LINE
  5
98A
330
18
100
AcDbEntity
  8
Object
100
AcDbLine
 10
5.589
 20
5.078999999999999
 30
0.0
 11
5.578
 21
5.078999999999999
 31
0.0
  0
LINE
  5
98B
330
18
100
AcDbEntity
  8
Object
100
AcDbLine
 10
5.584
 20
6.953999999999999
 30
0.0
 11
5.573999999999999
 21
6.953999999999999
 31
0.0
  0
LINE
  5
98C
330
18
100
AcDbEntity
  8
Object
100
AcDbLine
 10
5.562999999999999
 20
5.078999999999999
 30
0.0
 11
5.578
 21
5.078999999999999
 31
0.0
  0
LINE
  5
98D
330
18
100
AcDbEntity
  8
Object
100
AcDbLine
 10
5.573999999999999
 20
6.953999999999999
 30
0.0
 11
5.562999999999999
 21
6.953999999999999
 31
0.0
  0
LINE
  5
98E
330
18
100
AcDbEntity
  8
Object
100
AcDbLine
 10
3.449
 20
7.948
 30
0.0
 11
3.449
 21
7.943999999999999
 31
0.0
  0
LINE
  5
98F
330
18
100
AcDbEntity
  8
Object
100
AcDbLine
 10
3.449
 20
7.943999999999999
 30
0.0
 11
3.447
 21
7.940999999999999
 31
0.0
  0
LINE
  5
990
330
18
100
AcDbEntity
  8
Object
100
AcDbLine
 10
3.449
 20
7.948
 30
0.0
 11
3.446
 21
7.951
 31
0.0
  0
LINE
  5
991
330
18
100
AcDbEntity
  8
Object
100
AcDbLine
 10
7.679
 20
12.267
 30
0.0
 11
7.679
 21
12.287
 31
0.0
  0
LINE
  5
992
330
18
100
AcDbEntity
  8
Object
100
AcDbLine
 10
8.673
 20
10.053
 30
0.0
 11
8.673
 21
10.043
 31
0.0
  0
LINE
  5
993
330
18
100
AcDbEntity
  8
Object
100
AcDbLine
 10
8.673
 20
10.043
 30
0.0
 11
8.672
 21
10.036
 31
0.0
  0
LINE
  5
994
330
18
100
AcDbEntity
  8
Object
100
AcDbLine
 10
8.673
 20
10.053
 30
0.0
 11
8.673
 21
10.063
 31
0.0
  0
LINE
  5
995
330
18
100
AcDbEntity
  8
Object
100
AcDbLine
 10
8.672
 20
10.036
 30
0.0
 11
8.672
 21
10.033
 31
0.0
  0
LINE
  5
996
330
18
100
AcDbEntity
  8
Object
100
AcDbLine
 10
8.670999999999999
 20
10.107
 30
0.0
 11
8.670999999999999
 21
10.112
 31
0.0
  0
LINE
  5
997
330
18
100
AcDbEntity
  8
Object
100
AcDbLine
 10
8.670999999999999
 20
10.112
 30
0.0
 11
8.670999999999999
 21
10.118
 31
0.0
  0
LINE
  5
998
330
18
100
AcDbEntity
  8
Object
100
AcDbLine
 10
8.673
 20
10.063
 30
0.0
 11
8.673
 21
10.129
 31
0.0
  0
LINE
  5
999
330
18
100
AcDbEntity
  8
Object
100
AcDbLine
 10
8.669999999999999
 20
10.103
 30
0.0
 11
8.669999999999999
 21
10.104
 31
0.0
  0
LINE
  5
99A
330
18
100
AcDbEntity
  8
Object
100
AcDbLine
 10
8.669999999999999
 20
10.104
 30
0.0
 11
8.670999999999999
 21
10.107
 31
0.0
  0
LINE
  5
99B
330
18
100
AcDbEntity
  8
Object
100
AcDbLine
 10
8.668000000000001
 20
10.029
 30
0.0
 11
8.672
 21
10.033
 31
0.0
  0
LINE
  5
99C
330
18
100
AcDbEntity
  8
Object
100
AcDbLine
 10
5.584
 20
6.953999999999999
 30
0.0
 11
5.591
 21
6.955
 31
0.0
  0
LINE
  5
99D
330
18
100
AcDbEntity
  8
Object
100
AcDbLine
 10
5.591
 20
6.955
 30
0.0
 11
5.592999999999999
 21
6.955
 31
0.0
  0
LINE
  5
99E
330
18
100
AcDbEntity
  8
Object
100
AcDbLine
 10
5.578999999999999
 20
6.959999999999999
 30
0.0
 11
5.597999999999999
 21
6.959999999999999
 31
0.0
  0
LINE
  5
99F
330
18
100
AcDbEntity
  8
Object
100
AcDbLine
 10
5.597999999999999
 20
6.959999999999999
 30
0.0
 11
5.592999999999999
 21
6.955
 31
0.0
  0
LINE
  5
9A0
330
18
100
AcDbEntity
  8
Object
100
AcDbLine
 10
5.514
 20
6.956999999999999
 30
0.0
 11
5.509
 21
6.956999999999999
 31
0.0
  0
LINE
  5
9A1
330
18
100
AcDbEntity
  8
Object
100
AcDbLine
 10
5.509
 20
6.956999999999999
 30
0.0
 11
5.5
 21
6.956999999999999
 31
0.0
  0
LINE
  5
9A2
330
18
100
AcDbEntity
  8
Object
100
AcDbLine
 10
10.548
 20
10.063
 30
0.0
 11
10.548
 21
10.049
 31
0.0
  0
LINE
  5
9A3
330
18
100
AcDbEntity
  8
Object
100
AcDbLine
 10
10.548
 20
10.049
 30
0.0
 11
10.548
 21
10.038
 31
0.0
  0
LINE
  5
9A4
330
18
100
AcDbEntity
  8
Object
100
AcDbLine
 10
10.548
 20
10.038
 30
0.0
 11
10.548
 21
10.033
 31
0.0
  0
LINE
  5
9A5
330
18
100
AcDbEntity
  8
Object
100
AcDbLine
 10
5.605
 20
5.078999999999999
 30
0.0
 11
5.592999999999999
 21
5.078999999999999
 31
0.0
  0
LINE
  5
9A6
330
18
100
AcDbEntity
  8
Object
100
AcDbLine
 10
5.592999999999999
 20
5.078999999999999
 30
0.0
 11
5.589
 21
5.078999999999999
 31
0.0
  0
LINE
  5
9A7
330
18
100
AcDbEntity
  8
Object
100
AcDbLine
 10
5.589
 20
5.078999999999999
 30
0.0
 11
5.578
 21
5.078999999999999
 31
0.0
  0
LINE
  5
9A8
330
18
100
AcDbEntity
  8
Object
100
AcDbLine
 10
5.578
 20
5.078999999999999
 30
0.0
 11
5.562999999999999
 21
5.078999999999999
 31
0.0
  0
LINE
  5
9A9
330
18
100
AcDbEntity
  8
Object
100
AcDbLine
 10
5.562999999999999
 20
5.078999999999999
 30
0.0
 11
3.374
 21
5.078999999999999
 31
0.0
  0
LINE
  5
9AA
330
18
100
AcDbEntity
  8
Object
100
AcDbLine
 10
3.374
 20
5.078999999999999
 30
0.0
 11
3.358999999999999
 21
5.078999999999999
 31
0.0
  0
LINE
  5
9AB
330
18
100
AcDbEntity
  8
Object
100
AcDbLine
 10
3.358999999999999
 20
5.078999999999999
 30
0.0
 11
3.347999999999999
 21
5.078999999999999
 31
0.0
  0
LINE
  5
9AC
330
18
100
AcDbEntity
  8
Object
100
AcDbLine
 10
3.347999999999999
 20
5.078999999999999
 30
0.0
 11
3.343999999999999
 21
5.078999999999999
 31
0.0
  0
LINE
  5
9AD
330
18
100
AcDbEntity
  8
Object
100
AcDbLine
 10
3.343999999999999
 20
5.078999999999999
 30
0.0
 11
3.331999999999999
 21
5.078999999999999
 31
0.0
  0
LINE
  5
9AE
330
18
100
AcDbEntity
  8
Object
100
AcDbLine
 10
3.427999999999999
 20
6.956999999999999
 30
0.0
 11
3.422
 21
6.956999999999999
 31
0.0
  0
LINE
  5
9AF
330
18
100
AcDbEntity
  8
Object
100
AcDbLine
 10
5.524
 20
6.956999999999999
 30
0.0
 11
5.522999999999999
 21
6.956999999999999
 31
0.0
  0
LINE
  5
9B0
330
18
100
AcDbEntity
  8
Object
100
AcDbLine
 10
5.522999999999999
 20
6.956999999999999
 30
0.0
 11
5.519
 21
6.956999999999999
 31
0.0
  0
LINE
  5
9B1
330
18
100
AcDbEntity
  8
Object
100
AcDbLine
 10
5.519
 20
6.956999999999999
 30
0.0
 11
5.514
 21
6.956999999999999
 31
0.0
  0
LINE
  5
9B2
330
18
100
AcDbEntity
  8
Object
100
AcDbLine
 10
3.971
 20
12.209
 30
0.0
 11
3.971
 21
12.212
 31
0.0
  0
LINE
  5
9B3
330
18
100
AcDbEntity
  8
Object
100
AcDbLine
 10
3.971
 20
12.199
 30
0.0
 11
3.971
 21
12.204
 31
0.0
  0
LINE
  5
9B4
330
18
100
AcDbEntity
  8
Object
100
AcDbLine
 10
3.971
 20
12.204
 30
0.0
 11
3.971
 21
12.209
 31
0.0
  0
LINE
  5
9B5
330
18
100
AcDbEntity
  8
Object
100
AcDbLine
 10
3.971
 20
12.212
 30
0.0
 11
3.971
 21
12.214
 31
0.0
  0
LINE
  5
9B6
330
18
100
AcDbEntity
  8
Object
100
AcDbLine
 10
7.676
 20
10.104
 30
0.0
 11
7.676
 21
10.107
 31
0.0
  0
LINE
  5
9B7
330
18
100
AcDbEntity
  8
Object
100
AcDbLine
 10
7.676
 20
10.118
 30
0.0
 11
7.676
 21
10.112
 31
0.0
  0
LINE
  5
9B8
330
18
100
AcDbEntity
  8
Object
100
AcDbLine
 10
7.676
 20
10.112
 30
0.0
 11
7.676
 21
10.107
 31
0.0
  0
LINE
  5
9B9
330
18
100
AcDbEntity
  8
Object
100
AcDbLine
 10
7.676
 20
10.103
 30
0.0
 11
7.676
 21
10.104
 31
0.0
  0
LINE
  5
9BA
330
18
100
AcDbEntity
  8
Object
100
AcDbLine
 10
7.676
 20
12.209
 30
0.0
 11
7.676
 21
12.212
 31
0.0
  0
LINE
  5
9BB
330
18
100
AcDbEntity
  8
Object
100
AcDbLine
 10
7.676
 20
12.199
 30
0.0
 11
7.676
 21
12.204
 31
0.0
  0
LINE
  5
9BC
330
18
100
AcDbEntity
  8
Object
100
AcDbLine
 10
7.676
 20
12.204
 30
0.0
 11
7.676
 21
12.209
 31
0.0
  0
LINE
  5
9BD
330
18
100
AcDbEntity
  8
Object
100
AcDbLine
 10
7.676
 20
12.212
 30
0.0
 11
7.676
 21
12.214
 31
0.0
  0
LINE
  5
9BE
330
18
100
AcDbEntity
  8
Object
100
AcDbLine
 10
8.672
 20
10.033
 30
0.0
 11
10.548
 21
10.033
 31
0.0
  0
LINE
  5
9BF
330
18
100
AcDbEntity
  8
Object
100
AcDbLine
 10
10.548
 20
10.033
 30
0.0
 11
10.548
 21
10.022
 31
0.0
  0
LINE
  5
9C0
330
18
100
AcDbEntity
  8
Object
100
AcDbLine
 10
8.668000000000001
 20
10.029
 30
0.0
 11
8.666999999999999
 21
10.029
 31
0.0
  0
LINE
  5
9C1
330
18
100
AcDbEntity
  8
Object
100
AcDbLine
 10
8.666999999999999
 20
10.029
 30
0.0
 11
8.663999999999999
 21
10.029
 31
0.0
  0
LINE
  5
9C2
330
18
100
AcDbEntity
  8
Object
100
AcDbLine
 10
8.663999999999999
 20
10.029
 30
0.0
 11
8.660999999999999
 21
10.029
 31
0.0
  0
LINE
  5
9C3
330
18
100
AcDbEntity
  8
Object
100
AcDbLine
 10
8.660999999999999
 20
10.029
 30
0.0
 11
8.657999999999999
 21
10.029
 31
0.0
  0
LINE
  5
9C4
330
18
100
AcDbEntity
  8
Object
100
AcDbLine
 10
7.679
 20
10.029
 30
0.0
 11
7.679999999999999
 21
10.029
 31
0.0
  0
LINE
  5
9C5
330
18
100
AcDbEntity
  8
Object
100
AcDbLine
 10
7.679999999999999
 20
10.029
 30
0.0
 11
7.682
 21
10.029
 31
0.0
  0
LINE
  5
9C6
330
18
100
AcDbEntity
  8
Object
100
AcDbLine
 10
7.682
 20
10.029
 30
0.0
 11
7.685
 21
10.029
 31
0.0
  0
LINE
  5
9C7
330
18
100
AcDbEntity
  8
Object
100
AcDbLine
 10
7.685
 20
10.029
 30
0.0
 11
7.689
 21
10.029
 31
0.0
  0
LINE
  5
9C8
330
18
100
AcDbEntity
  8
Object
100
AcDbLine
 10
7.689
 20
10.029
 30
0.0
 11
7.705
 21
10.029
 31
0.0
  0
LINE
  5
9C9
330
18
100
AcDbEntity
  8
Object
100
AcDbLine
 10
8.657999999999999
 20
10.029
 30
0.0
 11
8.641
 21
10.029
 31
0.0
  0
LINE
  5
9CA
330
18
100
AcDbEntity
  8
Object
100
AcDbLine
 10
8.641
 20
10.022
 30
0.0
 11
10.548
 21
10.022
 31
0.0
  0
LINE
  5
9CB
330
18
100
AcDbEntity
  8
Object
100
AcDbLine
 10
7.474
 20
10.022
 30
0.0
 11
7.705
 21
10.022
 31
0.0
  0
LINE
  5
9CC
330
18
100
AcDbEntity
  8
Object
100
AcDbLine
 10
7.679
 20
10.029
 30
0.0
 11
7.674
 21
10.033
 31
0.0
  0
LINE
  5
9CD
330
18
100
AcDbEntity
  8
Object
100
AcDbLine
 10
7.689
 20
10.029
 30
0.0
 11
7.689
 21
10.047
 31
0.0
  0
LINE
  5
9CE
330
18
100
AcDbEntity
  8
Object
100
AcDbLine
 10
5.605
 20
8.153
 30
0.0
 11
5.592999999999999
 21
8.153
 31
0.0
  0
LINE
  5
9CF
330
18
100
AcDbEntity
  8
Object
100
AcDbLine
 10
5.592999999999999
 20
5.078999999999999
 30
0.0
 11
5.605
 21
5.078999999999999
 31
0.0
  0
LINE
  5
9D0
330
18
100
AcDbEntity
  8
Object
100
AcDbLine
 10
10.548
 20
12.294
 30
0.0
 11
10.548
 21
12.283
 31
0.0
  0
LINE
  5
9D1
330
18
100
AcDbEntity
  8
Object
100
AcDbLine
 10
10.548
 20
12.283
 30
0.0
 11
8.672
 21
12.283
 31
0.0
  0
LINE
  5
9D2
330
18
100
AcDbEntity
  8
Object
100
AcDbLine
 10
8.668000000000001
 20
12.287
 30
0.0
 11
8.666999999999999
 21
12.287
 31
0.0
  0
LINE
  5
9D3
330
18
100
AcDbEntity
  8
Object
100
AcDbLine
 10
8.666999999999999
 20
12.287
 30
0.0
 11
8.663999999999999
 21
12.288
 31
0.0
  0
LINE
  5
9D4
330
18
100
AcDbEntity
  8
Object
100
AcDbLine
 10
8.663999999999999
 20
12.288
 30
0.0
 11
8.660999999999999
 21
12.288
 31
0.0
  0
LINE
  5
9D5
330
18
100
AcDbEntity
  8
Object
100
AcDbLine
 10
8.660999999999999
 20
12.288
 30
0.0
 11
8.657999999999999
 21
12.288
 31
0.0
  0
LINE
  5
9D6
330
18
100
AcDbEntity
  8
Object
100
AcDbLine
 10
8.657999999999999
 20
12.288
 30
0.0
 11
8.641
 21
12.288
 31
0.0
  0
LINE
  5
9D7
330
18
100
AcDbEntity
  8
Object
100
AcDbLine
 10
7.689
 20
12.288
 30
0.0
 11
7.705
 21
12.288
 31
0.0
  0
LINE
  5
9D8
330
18
100
AcDbEntity
  8
Object
100
AcDbLine
 10
7.679999999999999
 20
12.287
 30
0.0
 11
7.679
 21
12.287
 31
0.0
  0
LINE
  5
9D9
330
18
100
AcDbEntity
  8
Object
100
AcDbLine
 10
7.679
 20
12.287
 30
0.0
 11
7.674
 21
12.283
 31
0.0
  0
LINE
  5
9DA
330
18
100
AcDbEntity
  8
Object
100
AcDbLine
 10
7.674
 20
12.283
 30
0.0
 11
4.530999999999999
 21
12.283
 31
0.0
  0
LINE
  5
9DB
330
18
100
AcDbEntity
  8
Object
100
AcDbLine
 10
7.679999999999999
 20
12.287
 30
0.0
 11
7.682
 21
12.288
 31
0.0
  0
LINE
  5
9DC
330
18
100
AcDbEntity
  8
Object
100
AcDbLine
 10
4.527
 20
12.287
 30
0.0
 11
4.525999999999999
 21
12.287
 31
0.0
  0
LINE
  5
9DD
330
18
100
AcDbEntity
  8
Object
100
AcDbLine
 10
4.525999999999999
 20
12.287
 30
0.0
 11
4.524
 21
12.288
 31
0.0
  0
LINE
  5
9DE
330
18
100
AcDbEntity
  8
Object
100
AcDbLine
 10
7.682
 20
12.288
 30
0.0
 11
7.685
 21
12.288
 31
0.0
  0
LINE
  5
9DF
330
18
100
AcDbEntity
  8
Object
100
AcDbLine
 10
4.524
 20
12.288
 30
0.0
 11
4.52
 21
12.288
 31
0.0
  0
LINE
  5
9E0
330
18
100
AcDbEntity
  8
Object
100
AcDbLine
 10
4.52
 20
12.288
 30
0.0
 11
4.517
 21
12.288
 31
0.0
  0
LINE
  5
9E1
330
18
100
AcDbEntity
  8
Object
100
AcDbLine
 10
4.517
 20
12.288
 30
0.0
 11
4.483999999999999
 21
12.288
 31
0.0
  0
LINE
  5
9E2
330
18
100
AcDbEntity
  8
Object
100
AcDbLine
 10
4.016
 20
12.288
 30
0.0
 11
3.983999999999999
 21
12.288
 31
0.0
  0
LINE
  5
9E3
330
18
100
AcDbEntity
  8
Object
100
AcDbLine
 10
3.983999999999999
 20
12.288
 30
0.0
 11
3.980999999999999
 21
12.288
 31
0.0
  0
LINE
  5
9E4
330
18
100
AcDbEntity
  8
Object
100
AcDbLine
 10
3.980999999999999
 20
12.288
 30
0.0
 11
3.976999999999999
 21
12.288
 31
0.0
  0
LINE
  5
9E5
330
18
100
AcDbEntity
  8
Object
100
AcDbLine
 10
3.976999999999999
 20
12.288
 30
0.0
 11
3.975
 21
12.287
 31
0.0
  0
LINE
  5
9E6
330
18
100
AcDbEntity
  8
Object
100
AcDbLine
 10
3.975
 20
12.287
 30
0.0
 11
3.974
 21
12.287
 31
0.0
  0
LINE
  5
9E7
330
18
100
AcDbEntity
  8
Object
100
AcDbLine
 10
3.974
 20
12.287
 30
0.0
 11
3.97
 21
12.283
 31
0.0
  0
LINE
  5
9E8
330
18
100
AcDbEntity
  8
Object
100
AcDbLine
 10
4.025999999999999
 20
12.294
 30
0.0
 11
3.913
 21
12.294
 31
0.0
  0
LINE
  5
9E9
330
18
100
AcDbEntity
  8
Object
100
AcDbLine
 10
7.705
 20
12.294
 30
0.0
 11
4.475
 21
12.294
 31
0.0
  0
LINE
  5
9EA
330
18
100
AcDbEntity
  8
Object
100
AcDbLine
 10
10.548
 20
12.294
 30
0.0
 11
8.641
 21
12.294
 31
0.0
  0
LINE
  5
9EB
330
18
100
AcDbEntity
  8
Object
100
AcDbLine
 10
7.685
 20
12.288
 30
0.0
 11
7.689
 21
12.288
 31
0.0
  0
LINE
  5
9EC
330
18
100
AcDbEntity
  8
Object
100
AcDbLine
 10
3.343999999999999
 20
7.953
 30
0.0
 11
3.343999999999999
 21
11.713
 31
0.0
  0
LINE
  5
9ED
330
18
100
AcDbEntity
  8
Object
100
AcDbLine
 10
3.338999999999999
 20
6.959999999999999
 30
0.0
 11
3.343999999999999
 21
6.955
 31
0.0
  0
LINE
  5
9EE
330
18
100
AcDbEntity
  8
Object
100
AcDbLine
 10
3.343999999999999
 20
6.955
 30
0.0
 11
3.343999999999999
 21
5.078999999999999
 31
0.0
  0
LINE
  5
9EF
330
18
100
AcDbEntity
  8
Object
100
AcDbLine
 10
3.338999999999999
 20
7.948
 30
0.0
 11
3.338999999999999
 21
7.945
 31
0.0
  0
LINE
  5
9F0
330
18
100
AcDbEntity
  8
Object
100
AcDbLine
 10
3.338999999999999
 20
7.945
 30
0.0
 11
3.338999999999999
 21
7.942
 31
0.0
  0
LINE
  5
9F1
330
18
100
AcDbEntity
  8
Object
100
AcDbLine
 10
3.338999999999999
 20
7.942
 30
0.0
 11
3.338999999999999
 21
7.937999999999999
 31
0.0
  0
LINE
  5
9F2
330
18
100
AcDbEntity
  8
Object
100
AcDbLine
 10
3.343999999999999
 20
11.713
 30
0.0
 11
3.331999999999999
 21
11.713
 31
0.0
  0
LINE
  5
9F3
330
18
100
AcDbEntity
  8
Object
100
AcDbLine
 10
3.338999999999999
 20
7.921
 30
0.0
 11
3.338999999999999
 21
7.937999999999999
 31
0.0
  0
LINE
  5
9F4
330
18
100
AcDbEntity
  8
Object
100
AcDbLine
 10
3.338999999999999
 20
6.985
 30
0.0
 11
3.338999999999999
 21
6.969999999999999
 31
0.0
  0
LINE
  5
9F5
330
18
100
AcDbEntity
  8
Object
100
AcDbLine
 10
3.338999999999999
 20
6.969999999999999
 30
0.0
 11
3.338999999999999
 21
6.966
 31
0.0
  0
LINE
  5
9F6
330
18
100
AcDbEntity
  8
Object
100
AcDbLine
 10
3.338999999999999
 20
6.966
 30
0.0
 11
3.338999999999999
 21
6.963
 31
0.0
  0
LINE
  5
9F7
330
18
100
AcDbEntity
  8
Object
100
AcDbLine
 10
3.338999999999999
 20
6.963
 30
0.0
 11
3.338999999999999
 21
6.961
 31
0.0
  0
LINE
  5
9F8
330
18
100
AcDbEntity
  8
Object
100
AcDbLine
 10
3.338999999999999
 20
6.961
 30
0.0
 11
3.338999999999999
 21
6.959999999999999
 31
0.0
  0
LINE
  5
9F9
330
18
100
AcDbEntity
  8
Object
100
AcDbLine
 10
3.343999999999999
 20
5.078999999999999
 30
0.0
 11
3.331999999999999
 21
5.078999999999999
 31
0.0
  0
LINE
  5
9FA
330
18
100
AcDbEntity
  8
Object
100
AcDbLine
 10
3.331999999999999
 20
5.078999999999999
 30
0.0
 11
3.331999999999999
 21
6.985
 31
0.0
  0
LINE
  5
9FB
330
18
100
AcDbEntity
  8
Object
100
AcDbLine
 10
3.331999999999999
 20
11.713
 30
0.0
 11
3.331999999999999
 21
7.921
 31
0.0
  0
LINE
  5
9FC
330
18
100
AcDbEntity
  8
Object
100
AcDbLine
 10
7.474
 20
10.033
 30
0.0
 11
7.474
 21
10.022
 31
0.0
  0
LINE
  5
9FD
330
18
100
AcDbEntity
  8
Object
100
AcDbLine
 10
7.474
 20
10.022
 30
0.0
 11
7.301
 21
10.014
 31
0.0
  0
LINE
  5
9FE
330
18
100
AcDbEntity
  8
Object
100
AcDbLine
 10
7.301
 20
10.014
 30
0.0
 11
7.129999999999999
 21
9.99
 31
0.0
  0
LINE
  5
9FF
330
18
100
AcDbEntity
  8
Object
100
AcDbLine
 10
7.129999999999999
 20
9.99
 30
0.0
 11
6.961999999999999
 21
9.951
 31
0.0
  0
LINE
  5
A00
330
18
100
AcDbEntity
  8
Object
100
AcDbLine
 10
6.961999999999999
 20
9.951
 30
0.0
 11
6.798
 21
9.896
 31
0.0
  0
LINE
  5
A01
330
18
100
AcDbEntity
  8
Object
100
AcDbLine
 10
6.798
 20
9.896
 30
0.0
 11
6.641
 21
9.826
 31
0.0
  0
LINE
  5
A02
330
18
100
AcDbEntity
  8
Object
100
AcDbLine
 10
6.641
 20
9.826
 30
0.0
 11
6.49
 21
9.742
 31
0.0
  0
LINE
  5
A03
330
18
100
AcDbEntity
  8
Object
100
AcDbLine
 10
6.49
 20
9.742
 30
0.0
 11
6.347
 21
9.644999999999999
 31
0.0
  0
LINE
  5
A04
330
18
100
AcDbEntity
  8
Object
100
AcDbLine
 10
6.347
 20
9.644999999999999
 30
0.0
 11
6.214
 21
9.534
 31
0.0
  0
LINE
  5
A05
330
18
100
AcDbEntity
  8
Object
100
AcDbLine
 10
6.214
 20
9.534
 30
0.0
 11
6.092
 21
9.412
 31
0.0
  0
LINE
  5
A06
330
18
100
AcDbEntity
  8
Object
100
AcDbLine
 10
6.092
 20
9.412
 30
0.0
 11
5.982
 21
9.279999999999999
 31
0.0
  0
LINE
  5
A07
330
18
100
AcDbEntity
  8
Object
100
AcDbLine
 10
5.982
 20
9.279999999999999
 30
0.0
 11
5.884999999999999
 21
9.137
 31
0.0
  0
LINE
  5
A08
330
18
100
AcDbEntity
  8
Object
100
AcDbLine
 10
5.884999999999999
 20
9.137
 30
0.0
 11
5.799999999999999
 21
8.986
 31
0.0
  0
LINE
  5
A09
330
18
100
AcDbEntity
  8
Object
100
AcDbLine
 10
3.358
 20
6.969999999999999
 30
0.0
 11
3.338999999999999
 21
6.969999999999999
 31
0.0
  0
LINE
  5
A0A
330
18
100
AcDbEntity
  8
Object
100
AcDbLine
 10
8.668000000000001
 20
12.267
 30
0.0
 11
8.668000000000001
 21
12.287
 31
0.0
  0
LINE
  5
A0B
330
18
100
AcDbEntity
  8
Object
100
AcDbLine
 10
4.527
 20
12.216
 30
0.0
 11
4.525999999999999
 21
12.216
 31
0.0
  0
LINE
  5
A0C
330
18
100
AcDbEntity
  8
Object
100
AcDbLine
 10
4.525999999999999
 20
12.216
 30
0.0
 11
4.524
 21
12.216
 31
0.0
  0
LINE
  5
A0D
330
18
100
AcDbEntity
  8
Object
100
AcDbLine
 10
4.524
 20
12.216
 30
0.0
 11
4.52
 21
12.216
 31
0.0
  0
LINE
  5
A0E
330
18
100
AcDbEntity
  8
Object
100
AcDbLine
 10
3.975
 20
12.216
 30
0.0
 11
3.976999999999999
 21
12.216
 31
0.0
  0
LINE
  5
A0F
330
18
100
AcDbEntity
  8
Object
100
AcDbLine
 10
3.971
 20
12.214
 30
0.0
 11
3.974
 21
12.216
 31
0.0
  0
LINE
  5
A10
330
18
100
AcDbEntity
  8
Object
100
AcDbLine
 10
3.974
 20
12.216
 30
0.0
 11
3.975
 21
12.216
 31
0.0
  0
LINE
  5
A11
330
18
100
AcDbEntity
  8
Object
100
AcDbLine
 10
3.976999999999999
 20
12.216
 30
0.0
 11
3.980999999999999
 21
12.216
 31
0.0
  0
LINE
  5
A12
330
18
100
AcDbEntity
  8
Object
100
AcDbLine
 10
3.980999999999999
 20
12.216
 30
0.0
 11
3.983999999999999
 21
12.216
 31
0.0
  0
LINE
  5
A13
330
18
100
AcDbEntity
  8
Object
100
AcDbLine
 10
4.5
 20
12.216
 30
0.0
 11
4.517
 21
12.216
 31
0.0
  0
LINE
  5
A14
330
18
100
AcDbEntity
  8
Object
100
AcDbLine
 10
3.983999999999999
 20
12.216
 30
0.0
 11
4.0
 21
12.216
 31
0.0
  0
LINE
  5
A15
330
18
100
AcDbEntity
  8
Object
100
AcDbLine
 10
4.517
 20
12.216
 30
0.0
 11
4.52
 21
12.216
 31
0.0
  0
LINE
  5
A16
330
18
100
AcDbEntity
  8
Object
100
AcDbLine
 10
3.913
 20
12.294
 30
0.0
 11
3.823
 21
12.287
 31
0.0
  0
LINE
  5
A17
330
18
100
AcDbEntity
  8
Object
100
AcDbLine
 10
3.823
 20
12.287
 30
0.0
 11
3.733999999999999
 21
12.266
 31
0.0
  0
LINE
  5
A18
330
18
100
AcDbEntity
  8
Object
100
AcDbLine
 10
3.733999999999999
 20
12.266
 30
0.0
 11
3.649999999999999
 21
12.231
 31
0.0
  0
LINE
  5
A19
330
18
100
AcDbEntity
  8
Object
100
AcDbLine
 10
3.649999999999999
 20
12.231
 30
0.0
 11
3.572
 21
12.183
 31
0.0
  0
LINE
  5
A1A
330
18
100
AcDbEntity
  8
Object
100
AcDbLine
 10
3.572
 20
12.183
 30
0.0
 11
3.503
 21
12.124
 31
0.0
  0
LINE
  5
A1B
330
18
100
AcDbEntity
  8
Object
100
AcDbLine
 10
3.503
 20
12.124
 30
0.0
 11
3.443
 21
12.055
 31
0.0
  0
LINE
  5
A1C
330
18
100
AcDbEntity
  8
Object
100
AcDbLine
 10
3.443
 20
12.055
 30
0.0
 11
3.395999999999999
 21
11.977
 31
0.0
  0
LINE
  5
A1D
330
18
100
AcDbEntity
  8
Object
100
AcDbLine
 10
3.395999999999999
 20
11.977
 30
0.0
 11
3.361
 21
11.893
 31
0.0
  0
LINE
  5
A1E
330
18
100
AcDbEntity
  8
Object
100
AcDbLine
 10
3.361
 20
11.893
 30
0.0
 11
3.339999999999999
 21
11.804
 31
0.0
  0
LINE
  5
A1F
330
18
100
AcDbEntity
  8
Object
100
AcDbLine
 10
3.339999999999999
 20
11.804
 30
0.0
 11
3.331999999999999
 21
11.713
 31
0.0
  0
LINE
  5
A20
330
18
100
AcDbEntity
  8
Object
100
AcDbLine
 10
5.799999999999999
 20
8.986
 30
0.0
 11
5.730999999999999
 21
8.829
 31
0.0
  0
LINE
  5
A21
330
18
100
AcDbEntity
  8
Object
100
AcDbLine
 10
5.730999999999999
 20
8.829
 30
0.0
 11
5.676
 21
8.665
 31
0.0
  0
LINE
  5
A22
330
18
100
AcDbEntity
  8
Object
100
AcDbLine
 10
5.676
 20
8.665
 30
0.0
 11
5.636
 21
8.496999999999999
 31
0.0
  0
LINE
  5
A23
330
18
100
AcDbEntity
  8
Object
100
AcDbLine
 10
5.636
 20
8.496999999999999
 30
0.0
 11
5.613
 21
8.326
 31
0.0
  0
LINE
  5
A24
330
18
100
AcDbEntity
  8
Object
100
AcDbLine
 10
5.613
 20
8.326
 30
0.0
 11
5.605
 21
8.153
 31
0.0
  0
LINE
  5
A25
330
18
100
AcDbEntity
  8
Object
100
AcDbLine
 10
5.605
 20
8.153
 30
0.0
 11
5.605
 21
7.921
 31
0.0
  0
LINE
  5
A26
330
18
100
AcDbEntity
  8
Object
100
AcDbLine
 10
5.605
 20
5.078999999999999
 30
0.0
 11
5.605
 21
6.985
 31
0.0
  0
LINE
  5
A27
330
18
100
AcDbEntity
  8
Object
100
AcDbLine
 10
4.527
 20
12.216
 30
0.0
 11
4.527
 21
12.287
 31
0.0
  0
LINE
  5
A28
330
18
100
AcDbEntity
  8
Object
100
AcDbLine
 10
3.983999999999999
 20
12.216
 30
0.0
 11
3.983999999999999
 21
12.288
 31
0.0
  0
LINE
  5
A29
330
18
100
AcDbEntity
  8
Object
100
AcDbLine
 10
3.824
 20
12.276
 30
0.0
 11
3.913
 21
12.283
 31
0.0
  0
LINE
  5
A2A
330
18
100
AcDbEntity
  8
Object
100
AcDbLine
 10
3.913
 20
12.283
 30
0.0
 11
3.913
 21
12.294
 31
0.0
  0
LINE
  5
A2B
330
18
100
AcDbEntity
  8
Object
100
AcDbLine
 10
3.824
 20
12.276
 30
0.0
 11
3.737
 21
12.255
 31
0.0
  0
LINE
  5
A2C
330
18
100
AcDbEntity
  8
Object
100
AcDbLine
 10
3.737
 20
12.255
 30
0.0
 11
3.655
 21
12.221
 31
0.0
  0
LINE
  5
A2D
330
18
100
AcDbEntity
  8
Object
100
AcDbLine
 10
3.655
 20
12.221
 30
0.0
 11
3.579
 21
12.174
 31
0.0
  0
LINE
  5
A2E
330
18
100
AcDbEntity
  8
Object
100
AcDbLine
 10
3.579
 20
12.174
 30
0.0
 11
3.511
 21
12.116
 31
0.0
  0
LINE
  5
A2F
330
18
100
AcDbEntity
  8
Object
100
AcDbLine
 10
3.511
 20
12.116
 30
0.0
 11
3.451999999999999
 21
12.048
 31
0.0
  0
LINE
  5
A30
330
18
100
AcDbEntity
  8
Object
100
AcDbLine
 10
3.451999999999999
 20
12.048
 30
0.0
 11
3.406
 21
11.972
 31
0.0
  0
LINE
  5
A31
330
18
100
AcDbEntity
  8
Object
100
AcDbLine
 10
3.406
 20
11.972
 30
0.0
 11
3.371999999999999
 21
11.889
 31
0.0
  0
LINE
  5
A32
330
18
100
AcDbEntity
  8
Object
100
AcDbLine
 10
3.371999999999999
 20
11.889
 30
0.0
 11
3.350999999999999
 21
11.802
 31
0.0
  0
LINE
  5
A33
330
18
100
AcDbEntity
  8
Object
100
AcDbLine
 10
3.350999999999999
 20
11.802
 30
0.0
 11
3.343999999999999
 21
11.713
 31
0.0
  0
LINE
  5
A34
330
18
100
AcDbEntity
  8
Object
100
AcDbLine
 10
5.597999999999999
 20
7.942
 30
0.0
 11
5.597999999999999
 21
7.945
 31
0.0
  0
LINE
  5
A35
330
18
100
AcDbEntity
  8
Object
100
AcDbLine
 10
5.597999999999999
 20
7.948
 30
0.0
 11
5.597999999999999
 21
7.945
 31
0.0
  0
LINE
  5
A36
330
18
100
AcDbEntity
  8
Object
100
AcDbLine
 10
5.597999999999999
 20
7.937999999999999
 30
0.0
 11
5.597999999999999
 21
7.942
 31
0.0
  0
LINE
  5
A37
330
18
100
AcDbEntity
  8
Object
100
AcDbLine
 10
7.689
 20
12.267
 30
0.0
 11
7.689
 21
12.288
 31
0.0
  0
LINE
  5
A38
330
18
100
AcDbEntity
  8
Object
100
AcDbLine
 10
8.668000000000001
 20
10.029
 30
0.0
 11
8.668000000000001
 21
10.047
 31
0.0
  0
LINE
  5
A39
330
18
100
AcDbEntity
  8
Object
100
AcDbLine
 10
5.597999999999999
 20
6.961
 30
0.0
 11
5.597999999999999
 21
6.963
 31
0.0
  0
LINE
  5
A3A
330
18
100
AcDbEntity
  8
Object
100
AcDbLine
 10
5.578999999999999
 20
6.969999999999999
 30
0.0
 11
5.597999999999999
 21
6.969999999999999
 31
0.0
  0
LINE
  5
A3B
330
18
100
AcDbEntity
  8
Object
100
AcDbLine
 10
5.597999999999999
 20
6.969999999999999
 30
0.0
 11
5.597999999999999
 21
6.966
 31
0.0
  0
LINE
  5
A3C
330
18
100
AcDbEntity
  8
Object
100
AcDbLine
 10
5.597999999999999
 20
6.966
 30
0.0
 11
5.597999999999999
 21
6.963
 31
0.0
  0
LINE
  5
A3D
330
18
100
AcDbEntity
  8
Object
100
AcDbLine
 10
5.597999999999999
 20
6.959999999999999
 30
0.0
 11
5.597999999999999
 21
6.961
 31
0.0
  0
LINE
  5
A3E
330
18
100
AcDbEntity
  8
Object
100
AcDbLine
 10
8.657999999999999
 20
10.029
 30
0.0
 11
8.657999999999999
 21
10.047
 31
0.0
  0
LINE
  5
A3F
330
18
100
AcDbEntity
  8
Object
100
AcDbLine
 10
5.597999999999999
 20
7.921
 30
0.0
 11
5.597999999999999
 21
7.937999999999999
 31
0.0
  0
LINE
  5
A40
330
18
100
AcDbEntity
  8
Object
100
AcDbLine
 10
5.597999999999999
 20
6.969999999999999
 30
0.0
 11
5.597999999999999
 21
6.985
 31
0.0
  0
LINE
  5
A41
330
18
100
AcDbEntity
  8
Object
100
AcDbLine
 10
5.597999999999999
 20
7.937999999999999
 30
0.0
 11
5.578999999999999
 21
7.937999999999999
 31
0.0
  0
LINE
  5
A42
330
18
100
AcDbEntity
  8
Object
100
AcDbLine
 10
4.517
 20
12.216
 30
0.0
 11
4.517
 21
12.288
 31
0.0
  0
LINE
  5
A43
330
18
100
AcDbEntity
  8
Object
100
AcDbLine
 10
8.657999999999999
 20
12.267
 30
0.0
 11
8.657999999999999
 21
12.288
 31
0.0
  0
LINE
  5
A44
330
18
100
AcDbEntity
  8
Object
100
AcDbLine
 10
3.358
 20
7.937999999999999
 30
0.0
 11
3.338999999999999
 21
7.937999999999999
 31
0.0
  0
DIMENSION
  5
A53
330
18
100
AcDbEntity
  8
Dimension
100
AcDbDimension
  2
*D0
 10
18.701
 20
13.18628929668146
 30
0.0
 11
17.6525
 21
13.18628929668146
 31
0.0
 70
    32
  1
2.08 [52.8mm]
 71
     5
 42
2.097000000000001
  3
STANDARD
100
AcDbAlignedDimension
 13
16.604
 23
12.253
 33
0.0
 14
18.701
 24
12.039
 34
0.0
100
AcDbRotatedDimension
  0
MTEXT
  5
A61
330
18
100
AcDbEntity
  8
Text
100
AcDbMText
 10
11.37324893148254
 20
0.8775685908585026
 30
0.0
 40
0.09
 41
0.25
 71
     5
 72
     5
  1
1
 73
     1
 44
1.0
1001
ACAD
1000
MTEXTBEGIN
1070
    73
1070
     1
1070
    44
1040
1.0
1070
    74
1070
     0
1000
MTEXTEND
  0
MTEXT
  5
A62
330
18
100
AcDbEntity
  8
Text
100
AcDbMText
 10
11.74824893148254
 20
0.8775685908585026
 30
0.0
 40
0.07
 41
0.5
 71
     5
 72
     5
  1
7-2-07
 73
     1
 44
1.0
1001
ACAD
1000
MTEXTBEGIN
1070
    73
1070
     1
1070
    44
1040
1.0
1070
    74
1070
     0
1000
MTEXTEND
  0
MTEXT
  5
A63
330
18
100
AcDbEntity
  8
Text
100
AcDbMText
 10
12.18574893148254
 20
0.8775685908585026
 30
0.0
 40
0.09
 41
0.375
 71
     5
 72
     5
  1
DTP
 73
     1
 44
1.0
1001
ACAD
1000
MTEXTBEGIN
1070
    73
1070
     1
1070
    44
1040
1.0
1070
    74
1070
     0
1000
MTEXTEND
  0
MTEXT
  5
A64
330
18
100
AcDbEntity
  8
Text
100
AcDbMText
 10
12.77324893148254
 20
0.8775685908585021
 30
0.0
 40
0.07
 41
2.75
 71
     4
 72
     5
  1
B. REVISED PART GEOMETRY.\PA. REVISED DRAWING TITLE.
 73
     1
 44
1.0
1001
ACAD
1000
MTEXTBEGIN
1070
    73
1070
     1
1070
    44
1040
1.0
1070
    74
1070
     0
1000
MTEXTEND
  0
MTEXT
  5
A65
330
18
100
AcDbEntity
  8
Text
100
AcDbMText
 10
12.5604002814227
 20
0.8762490740326649
 30
0.0
 40
0.07
 41
0.375
 71
     5
 72
     5
  1
DJWA
 73
     1
 44
1.0
1001
ACAD
1000
MTEXTBEGIN
1070
    73
1070
     1
1070
    44
1040
1.0
1070
    74
1070
     0
1000
MTEXTEND
  0
MTEXT
  5
A66
330
18
100
AcDbEntity
  8
Text
100
AcDbMText
 10
11.37324893148254
 20
1.127568590858502
 30
0.0
 40
0.09
 41
0.25
 71
     5
 72
     5
  1
-
 73
     1
 44
1.0
1001
ACAD
1000
MTEXTBEGIN
1070
    73
1070
     1
1070
    44
1040
1.0
1070
    74
1070
     0
1000
MTEXTEND
  0
MTEXT
  5
A67
330
18
100
AcDbEntity
  8
Text
100
AcDbMText
 10
11.74824893148254
 20
1.127568590858502
 30
0.0
 40
0.07
 41
0.5
 71
     5
 72
     5
  1
--------
 73
     1
 44
1.0
1001
ACAD
1000
MTEXTBEGIN
1070
    73
1070
     1
1070
    44
1040
1.0
1070
    74
1070
     0
1000
MTEXTEND
  0
MTEXT
  5
A68
330
18
100
AcDbEntity
  8
Text
100
AcDbMText
 10
12.18574893148254
 20
1.127568590858502
 30
0.0
 40
0.09
 41
0.375
 71
     5
 72
     5
  1
---
 73
     1
 44
1.0
1001
ACAD
1000
MTEXTBEGIN
1070
    73
1070
     1
1070
    44
1040
1.0
1070
    74
1070
     0
1000
MTEXTEND
  0
MTEXT
  5
A69
330
18
100
AcDbEntity
  8
Text
100
AcDbMText
 10
12.5604002814227
 20
1.126249074032664
 30
0.0
 40
0.07
 41
0.375
 71
     5
 72
     5
  1
----
 73
     1
 44
1.0
1001
ACAD
1000
MTEXTBEGIN
1070
    73
1070
     1
1070
    44
1040
1.0
1070
    74
1070
     0
1000
MTEXTEND
  0
MTEXT
  5
A6A
330
18
100
AcDbEntity
  8
Text
100
AcDbMText
 10
12.77324893148254
 20
1.127568590858502
 30
0.0
 40
0.07
 41
2.75
 71
     4
 72
     5
  1
C. REVISED DIMENSIONS.
 73
     1
 44
1.0
1001
ACAD
1000
MTEXTBEGIN
1070
    73
1070
     1
1070
    44
1040
1.0
1070
    74
1070
     0
1000
MTEXTEND
  0
LINE
  5
A6B
330
18
100
AcDbEntity
  8
Text
100
AcDbLine
 10
17.81945420305524
 20
1.549434092837664
 30
0.0
 11
17.96945420305524
 21
1.809241713972996
 31
0.0
  0
LINE
  5
A6C
330
18
100
AcDbEntity
  8
Text
100
AcDbLine
 10
17.96945420305524
 20
1.809241713972996
 30
0.0
 11
18.11945420305524
 21
1.54943409283766
 31
0.0
  0
LINE
  5
A6D
330
18
100
AcDbEntity
  8
Text
100
AcDbLine
 10
18.11945420305524
 20
1.54943409283766
 30
0.0
 11
17.81945420305524
 21
1.549434092837664
 31
0.0
  0
TEXT
  5
A6E
330
18
100
AcDbEntity
  8
Text
100
AcDbText
 10
17.92264873390216
 20
1.609013483001028
 30
0.0
 40
0.09
  1
A
100
AcDbText
  0
LINE
  5
A70
330
18
100
AcDbEntity
  8
Text
100
AcDbLine
 10
16.81544975686481
 20
4.340987081025694
 30
0.0
 11
16.96544975686481
 21
4.600794702161026
 31
0.0
  0
LINE
  5
A71
330
18
100
AcDbEntity
  8
Text
100
AcDbLine
 10
16.96544975686481
 20
4.600794702161026
 30
0.0
 11
17.1154497568648
 21
4.340987081025691
 31
0.0
  0
LINE
  5
A72
330
18
100
AcDbEntity
  8
Text
100
AcDbLine
 10
17.1154497568648
 20
4.340987081025691
 30
0.0
 11
16.81544975686481
 21
4.340987081025694
 31
0.0
  0
TEXT
  5
A73
330
18
100
AcDbEntity
  8
Text
100
AcDbText
 10
16.9288217616331
 20
4.387001951504593
 30
0.0
 40
0.09
  1
B
100
AcDbText
  0
LINE
  5
A74
330
18
100
AcDbEntity
  8
Text
100
AcDbLine
 10
6.201728520098683
 20
4.358903478179215
 30
0.0
 11
6.351728520098681
 21
4.618711099314547
 31
0.0
  0
LINE
  5
A75
330
18
100
AcDbEntity
  8
Text
100
AcDbLine
 10
6.351728520098681
 20
4.618711099314547
 30
0.0
 11
6.501728520098676
 21
4.358903478179211
 31
0.0
  0
LINE
  5
A76
330
18
100
AcDbEntity
  8
Text
100
AcDbLine
 10
6.501728520098676
 20
4.358903478179211
 30
0.0
 11
6.201728520098683
 21
4.358903478179215
 31
0.0
  0
TEXT
  5
A77
330
18
100
AcDbEntity
  8
Text
100
AcDbText
 10
6.315149712924746
 20
4.408260349263102
 30
0.0
 40
0.09
  1
B
100
AcDbText
  0
LINE
  5
A78
330
18
100
AcDbEntity
  8
Text
100
AcDbLine
 10
6.75334596437186
 20
13.3435969317412
 30
0.0
 11
6.903345964371858
 21
13.60340455287653
 31
0.0
  0
LINE
  5
A79
330
18
100
AcDbEntity
  8
Text
100
AcDbLine
 10
6.903345964371858
 20
13.60340455287653
 30
0.0
 11
7.053345964371853
 21
13.3435969317412
 31
0.0
  0
LINE
  5
A7A
330
18
100
AcDbEntity
  8
Text
100
AcDbLine
 10
7.053345964371853
 20
13.3435969317412
 30
0.0
 11
6.75334596437186
 21
13.3435969317412
 31
0.0
  0
TEXT
  5
A7B
330
18
100
AcDbEntity
  8
Text
100
AcDbText
 10
6.862923194399936
 20
13.39424408110533
 30
0.0
 40
0.09
  1
C
100
AcDbText
  0
LINE
  5
A7C
330
18
100
AcDbEntity
  8
Text
100
AcDbLine
 10
17.46623522188629
 20
13.33314185324821
 30
0.0
 11
17.61623522188629
 21
13.59294947438354
 31
0.0
  0
LINE
  5
A7D
330
18
100
AcDbEntity
  8
Text
100
AcDbLine
 10
17.61623522188629
 20
13.59294947438354
 30
0.0
 11
17.76623522188629
 21
13.33314185324821
 31
0.0
  0
LINE
  5
A7E
330
18
100
AcDbEntity
  8
Text
100
AcDbLine
 10
17.76623522188629
 20
13.33314185324821
 30
0.0
 11
17.46623522188629
 21
13.33314185324821
 31
0.0
  0
TEXT
  5
A7F
330
18
100
AcDbEntity
  8
Text
100
AcDbText
 10
17.57452775279926
 20
13.38507738975593
 30
0.0
 40
0.09
  1
C
100
AcDbText
  0
DIMENSION
  5
A98
330
18
100
AcDbEntity
  8
Dimension
100
AcDbDimension
  2
*D1
 10
10.548
 20
13.17513672917243
 30
0.0
 11
6.903
 21
13.17513672917243
 31
0.0
 70
    32
  1
7.29 [185.1mm]
 71
     5
 42
7.29
  3
STANDARD
100
AcDbAlignedDimension
 13
3.258
 23
7.881
 33
0.0
 14
10.548
 24
12.294
 34
0.0
100
AcDbRotatedDimension
  0
ENDSEC
  0
SECTION
  2
OBJECTS
  0
DICTIONARY
  5
C
330
0
100
AcDbDictionary
281
     1
  3
ACAD_COLOR
350
10D
  3
ACAD_GROUP
350
D
  3
ACAD_LAYOUT
350
110
  3
ACAD_MATERIAL
350
10C
  3
ACAD_MLINESTYLE
350
1B
  3
ACAD_PLOTSETTINGS
350
111
  3
ACAD_PLOTSTYLENAME
350
10A
  3
ACAD_TABLESTYLE
350
10E
  3
ACDBHEADERROUNDTRIPXREC
350
ABE
  3
AcDbVariableDictionary
350
13E
  3
ASE_INDEX_DICTIONARY
350
148
  0
DICTIONARY
  5
154
330
2
100
AcDbDictionary
280
     1
281
     1
  3
ACAD_LAYERFILTERS
360
158
  3
ACLYDICTIONARY
360
157
  0
DICTIONARY
  5
10D
102
{ACAD_REACTORS
330
C
102
}
330
C
100
AcDbDictionary
281
     1
  0
DICTIONARY
  5
D
102
{ACAD_REACTORS
330
C
102
}
330
C
100
AcDbDictionary
281
     1
  0
DICTIONARY
  5
110
102
{ACAD_REACTORS
330
C
102
}
330
C
100
AcDbDictionary
281
     1
  3
Layout1
350
113
  3
Model
350
112
  0
DICTIONARY
  5
10C
102
{ACAD_REACTORS
330
C
102
}
330
C
100
AcDbDictionary
281
     1
  0
DICTIONARY
  5
1B
102
{ACAD_REACTORS
330
C
102
}
330
C
100
AcDbDictionary
281
     1
  3
STANDARD
350
1C
  0
DICTIONARY
  5
111
102
{ACAD_REACTORS
330
C
102
}
330
C
100
AcDbDictionary
281
     1
  0
ACDBDICTIONARYWDFLT
  5
10A
102
{ACAD_REACTORS
330
C
102
}
330
C
100
AcDbDictionary
281
     1
  3
Normal
350
10B
100
AcDbDictionaryWithDefault
340
10B
  0
DICTIONARY
  5
10E
102
{ACAD_REACTORS
330
C
102
}
330
C
100
AcDbDictionary
281
     1
  3
Standard
350
10F
  0
DICTIONARY
  5
ABE
102
{ACAD_REACTORS
330
C
102
}
330
C
100
AcDbDictionary
281
     1
  0
DICTIONARY
  5
13E
102
{ACAD_REACTORS
330
C
102
}
330
C
100
AcDbDictionary
281
     1
  3
CTABLESTYLE
350
13F
  3
DIMASSOC
350
ABB
  3
PROJECTNAME
350
ABC
  0
DICTIONARY
  5
148
102
{ACAD_REACTORS
330
C
102
}
330
C
100
AcDbDictionary
281
     1
  3
ASEBlockHierarchyIndexRecord
350
14A
1001
DCO15
1040
1529148047.148
  0
DICTIONARY
  5
158
102
{ACAD_REACTORS
330
154
102
}
330
154
100
AcDbDictionary
281
     1
  0
DICTIONARY
  5
157
102
{ACAD_REACTORS
330
154
102
}
330
154
100
AcDbDictionary
281
     1
1001
ACAD
1000
<All
  0
LAYOUT
  5
113
102
{ACAD_XDICTIONARY
360
AC1
102
}
102
{ACAD_REACTORS
330
110
102
}
330
110
100
AcDbPlotSettings
  1

  2
\\RSENG\RSplotter4NT
  4

  6

 40
0.0
 41
0.0
 42
0.0
 43
0.0
 44
0.0
 45
0.0
 46
0.0
 47
0.0
 48
0.0
 49
0.0
140
0.0
141
0.0
142
1.0
143
1.0
 70
   688
 72
     0
 73
     0
 74
     5
  7
Symantec Fax Starter Edition
 75
    16
147
1.0
148
0.0
149
0.0
100
AcDbLayout
  1
Layout1
 70
     1
 71
     1
 10
0.0
 20
0.0
 11
12.0
 21
9.0
 12
0.0
 22
0.0
 32
0.0
 14
1.000000000000000E+20
 24
1.000000000000000E+20
 34
1.000000000000000E+20
 15
-1.000000000000000E+20
 25
-1.000000000000000E+20
 35
-1.000000000000000E+20
146
0.0
 13
0.0
 23
0.0
 33
0.0
 16
1.0
 26
0.0
 36
0.0
 17
0.0
 27
1.0
 37
0.0
 76
     0
330
15
  0
LAYOUT
  5
112
102
{ACAD_XDICTIONARY
360
ABF
102
}
102
{ACAD_REACTORS
330
110
102
}
330
110
100
AcDbPlotSettings
  1

  2
\\RSENG\RSplotter4NT
  4

  6

 40
0.0
 41
0.0
 42
0.0
 43
0.0
 44
0.0
 45
0.0
 46
0.0
 47
0.0
 48
0.0
 49
0.0
140
0.0
141
0.0
142
1.0
143
1.0
 70
  1712
 72
     0
 73
     0
 74
     0
  7
Symantec Fax Starter Edition
 75
     0
147
1.0
148
0.0
149
0.0
100
AcDbLayout
  1
Model
 70
     1
 71
     0
 10
0.0
 20
0.0
 11
12.0
 21
9.0
 12
0.0
 22
0.0
 32
0.0
 14
0.0
 24
0.0
 34
0.0
 15
0.0
 25
0.0
 35
0.0
146
0.0
 13
0.0
 23
0.0
 33
0.0
 16
1.0
 26
0.0
 36
0.0
 17
0.0
 27
1.0
 37
0.0
 76
     0
330
18
  0
MLINESTYLE
  5
1C
102
{ACAD_REACTORS
330
1B
102
}
330
1B
100
AcDbMlineStyle
  2
STANDARD
 70
     0
  3

 62
   256
 51
90.0
 52
90.0
 71
     2
 49
0.5
 62
   256
  6
BYLAYER
 49
-0.5
 62
   256
  6
BYLAYER
  0
ACDBPLACEHOLDER
  5
10B
102
{ACAD_REACTORS
330
10A
102
}
330
10A
  0
TABLESTYLE
  5
10F
102
{ACAD_REACTORS
330
10E
102
}
330
10E
100
AcDbTableStyle
  3
Standard
 70
     0
 71
     0
 40
0.06
 41
0.06
280
     0
281
     0
  7
STANDARD
140
0.18
170
     2
 62
     0
 63
     7
283
     0
274
    -2
284
     1
 64
     0
275
    -2
285
     1
 65
     0
276
    -2
286
     1
 66
     0
277
    -2
287
     1
 67
     0
278
    -2
288
     1
 68
     0
279
    -2
289
     1
 69
     0
  7
STANDARD
140
0.25
170
     5
 62
     0
 63
     7
283
     0
274
    -2
284
     1
 64
     0
275
    -2
285
     1
 65
     0
276
    -2
286
     1
 66
     0
277
    -2
287
     1
 67
     0
278
    -2
288
     1
 68
     0
279
    -2
289
     1
 69
     0
  7
STANDARD
140
0.18
170
     5
 62
     0
 63
     7
283
     0
274
    -2
284
     1
 64
     0
275
    -2
285
     1
 65
     0
276
    -2
286
     1
 66
     0
277
    -2
287
     1
 67
     0
278
    -2
288
     1
 68
     0
279
    -2
289
     1
 69
     0
  0
DICTIONARYVAR
  5
13F
102
{ACAD_REACTORS
330
13E
102
}
330
13E
100
DictionaryVariables
280
     0
  1
STANDARD
  0
DICTIONARYVAR
  5
ABB
102
{ACAD_REACTORS
330
13E
102
}
330
13E
100
DictionaryVariables
280
     0
  1
1
  0
DICTIONARYVAR
  5
ABC
102
{ACAD_REACTORS
330
13E
102
}
330
13E
100
DictionaryVariables
280
     0
  1

  0
XRECORD
  5
14A
102
{ACAD_REACTORS
330
148
102
}
330
148
100
AcDbXrecord
280
     1
  0
DICTIONARY
  5
AC1
330
113
100
AcDbDictionary
280
     1
281
     1
  3
ACAD_XREC_ROUNDTRIP
360
AC2
  0
DICTIONARY
  5
ABF
330
112
100
AcDbDictionary
280
     1
281
     1
  3
ACAD_XREC_ROUNDTRIP
360
AC0
  0
XRECORD
  5
AC2
102
{ACAD_REACTORS
330
AC1
102
}
330
AC1
100
AcDbXrecord
280
     1
102
SHADEPLOT
 70
     0
102
SHADEPLOTRESLEVEL
 70
     2
102
SHADEPLOTCUSTOMDPI
 70
   300
  0
XRECORD
  5
AC0
102
{ACAD_REACTORS
330
ABF
102
}
330
ABF
100
AcDbXrecord
280
     1
102
SHADEPLOT
 70
     0
102
SHADEPLOTRESLEVEL
 70
     2
102
SHADEPLOTCUSTOMDPI
 70
   300
  0
ENDSEC
  0
EOF
