  0
SECTION
  2
HEADER
  9
$ACADVER
  1
AC1015
  9
$ACADMAINTVER
 70
    20
  9
$DWGCODEPAGE
  3
ANSI_1252
  9
$INSBASE
 10
0.0
 20
0.0
 30
0.0
  9
$EXTMIN
 10
-0.075
 20
-0.075
 30
0.0
  9
$EXTMAX
 10
11.075
 20
8.575000000000001
 30
0.0
  9
$LIMMIN
 10
0.0
 20
0.0
  9
$LIMMAX
 10
12.0
 20
9.0
  9
$ORTHOMODE
 70
     0
  9
$REGENMODE
 70
     1
  9
$FILLMODE
 70
     1
  9
$QTEXTMODE
 70
     0
  9
$MIRRTEXT
 70
     0
  9
$LTSCALE
 40
1.0
  9
$ATTMODE
 70
     1
  9
$TEXTSIZE
 40
0.09
  9
$TRACEWID
 40
0.05
  9
$TEXTSTYLE
  7
Standard
  9
$CLAYER
  8
0
  9
$CELTYPE
  6
ByLayer
  9
$CECOLOR
 62
   256
  9
$CELTSCALE
 40
1.0
  9
$DISPSILH
 70
     0
  9
$DIMSCALE
 40
1.0
  9
$DIMASZ
 40
0.1875
  9
$DIMEXO
 40
0.0625
  9
$DIMDLI
 40
0.38
  9
$DIMRND
 40
0.0
  9
$DIMDLE
 40
0.0
  9
$DIMEXE
 40
0.125
  9
$DIMTP
 40
0.0
  9
$DIMTM
 40
0.0
  9
$DIMTXT
 40
0.09
  9
$DIMCEN
 40
0.09
  9
$DIMTSZ
 40
0.0
  9
$DIMTOL
 70
     0
  9
$DIMLIM
 70
     0
  9
$DIMTIH
 70
     1
  9
$DIMTOH
 70
     1
  9
$DIMSE1
 70
     0
  9
$DIMSE2
 70
     0
  9
$DIMTAD
 70
     0
  9
$DIMZIN
 70
     0
  9
$DIMBLK
  1

  9
$DIMASO
 70
     1
  9
$DIMSHO
 70
     1
  9
$DIMPOST
  1

  9
$DIMAPOST
  1
mm
  9
$DIMALT
 70
     1
  9
$DIMALTD
 70
     1
  9
$DIMALTF
 40
25.4
  9
$DIMLFAC
 40
1.0
  9
$DIMTOFL
 70
     0
  9
$DIMTVP
 40
0.0
  9
$DIMTIX
 70
     0
  9
$DIMSOXD
 70
     0
  9
$DIMSAH
 70
     0
  9
$DIMBLK1
  1

  9
$DIMBLK2
  1

  9
$DIMSTYLE
  2
Standard
  9
$DIMCLRD
 70
     0
  9
$DIMCLRE
 70
     0
  9
$DIMCLRT
 70
     0
  9
$DIMTFAC
 40
1.0
  9
$DIMGAP
 40
0.09
  9
$DIMJUST
 70
     0
  9
$DIMSD1
 70
     0
  9
$DIMSD2
 70
     0
  9
$DIMTOLJ
 70
     1
  9
$DIMTZIN
 70
     0
  9
$DIMALTZ
 70
     0
  9
$DIMALTTZ
 70
     0
  9
$DIMUPT
 70
     0
  9
$DIMDEC
 70
     2
  9
$DIMTDEC
 70
     2
  9
$DIMALTU
 70
     2
  9
$DIMALTTD
 70
     1
  9
$DIMTXSTY
  7
Standard
  9
$DIMAUNIT
 70
     0
  9
$DIMADEC
 70
     0
  9
$DIMALTRND
 40
0.0
  9
$DIMAZIN
 70
     0
  9
$DIMDSEP
 70
    46
  9
$DIMATFIT
 70
     3
  9
$DIMFRAC
 70
     0
  9
$DIMLDRBLK
  1

  9
$DIMLUNIT
 70
     2
  9
$DIMLWD
 70
    -2
  9
$DIMLWE
 70
    -2
  9
$DIMTMOVE
 70
     0
  9
$LUNITS
 70
     2
  9
$LUPREC
 70
     4
  9
$SKETCHINC
 40
0.1
  9
$FILLETRAD
 40
0.0
  9
$AUNITS
 70
     0
  9
$AUPREC
 70
     0
  9
$MENU
  1
.
  9
$ELEVATION
 40
0.0
  9
$PELEVATION
 40
0.0
  9
$THICKNESS
 40
0.0
  9
$LIMCHECK
 70
     0
  9
$CHAMFERA
 40
0.0
  9
$CHAMFERB
 40
0.0
  9
$CHAMFERC
 40
0.0
  9
$CHAMFERD
 40
0.0
  9
$SKPOLY
 70
     0
  9
$TDCREATE
 40
2453733.612312813
  9
$TDUCREATE
 40
2453733.820646146
  9
$TDUPDATE
 40
2454294.640696216
  9
$TDUUPDATE
 40
2454294.849029549
  9
$TDINDWG
 40
0.0983627199
  9
$TDUSRTIMER
 40
0.0983625463
  9
$USRTIMER
 70
     1
  9
$ANGBASE
 50
0.0
  9
$ANGDIR
 70
     0
  9
$PDMODE
 70
     2
  9
$PDSIZE
 40
0.075
  9
$PLINEWID
 40
0.0
  9
$SPLFRAME
 70
     0
  9
$SPLINETYPE
 70
     6
  9
$SPLINESEGS
 70
     8
  9
$HANDSEED
  5
AA3
  9
$SURFTAB1
 70
     6
  9
$SURFTAB2
 70
     6
  9
$SURFTYPE
 70
     6
  9
$SURFU
 70
     6
  9
$SURFV
 70
     6
  9
$UCSBASE
  2

  9
$UCSNAME
  2

  9
$UCSORG
 10
0.0
 20
0.0
 30
0.0
  9
$UCSXDIR
 10
1.0
 20
0.0
 30
0.0
  9
$UCSYDIR
 10
0.0
 20
1.0
 30
0.0
  9
$UCSORTHOREF
  2

  9
$UCSORTHOVIEW
 70
     0
  9
$UCSORGTOP
 10
0.0
 20
0.0
 30
0.0
  9
$UCSORGBOTTOM
 10
0.0
 20
0.0
 30
0.0
  9
$UCSORGLEFT
 10
0.0
 20
0.0
 30
0.0
  9
$UCSORGRIGHT
 10
0.0
 20
0.0
 30
0.0
  9
$UCSORGFRONT
 10
0.0
 20
0.0
 30
0.0
  9
$UCSORGBACK
 10
0.0
 20
0.0
 30
0.0
  9
$PUCSBASE
  2

  9
$PUCSNAME
  2

  9
$PUCSORG
 10
0.0
 20
0.0
 30
0.0
  9
$PUCSXDIR
 10
1.0
 20
0.0
 30
0.0
  9
$PUCSYDIR
 10
0.0
 20
1.0
 30
0.0
  9
$PUCSORTHOREF
  2

  9
$PUCSORTHOVIEW
 70
     0
  9
$PUCSORGTOP
 10
0.0
 20
0.0
 30
0.0
  9
$PUCSORGBOTTOM
 10
0.0
 20
0.0
 30
0.0
  9
$PUCSORGLEFT
 10
0.0
 20
0.0
 30
0.0
  9
$PUCSORGRIGHT
 10
0.0
 20
0.0
 30
0.0
  9
$PUCSORGFRONT
 10
0.0
 20
0.0
 30
0.0
  9
$PUCSORGBACK
 10
0.0
 20
0.0
 30
0.0
  9
$USERI1
 70
     0
  9
$USERI2
 70
     0
  9
$USERI3
 70
     0
  9
$USERI4
 70
     0
  9
$USERI5
 70
     0
  9
$USERR1
 40
0.0
  9
$USERR2
 40
0.0
  9
$USERR3
 40
0.0
  9
$USERR4
 40
0.0
  9
$USERR5
 40
0.0
  9
$WORLDVIEW
 70
     1
  9
$SHADEDGE
 70
     3
  9
$SHADEDIF
 70
    70
  9
$TILEMODE
 70
     1
  9
$MAXACTVP
 70
    64
  9
$PINSBASE
 10
0.0
 20
0.0
 30
0.0
  9
$PLIMCHECK
 70
     0
  9
$PEXTMIN
 10
0.0
 20
0.0
 30
0.0
  9
$PEXTMAX
 10
0.0
 20
0.0
 30
0.0
  9
$PLIMMIN
 10
0.0
 20
0.0
  9
$PLIMMAX
 10
12.0
 20
9.0
  9
$UNITMODE
 70
     0
  9
$VISRETAIN
 70
     1
  9
$PLINEGEN
 70
     0
  9
$PSLTSCALE
 70
     1
  9
$TREEDEPTH
 70
  3020
  9
$CMLSTYLE
  2
Standard
  9
$CMLJUST
 70
     0
  9
$CMLSCALE
 40
1.0
  9
$PROXYGRAPHICS
 70
     1
  9
$MEASUREMENT
 70
     0
  9
$CELWEIGHT
370
    -1
  9
$ENDCAPS
280
     0
  9
$JOINSTYLE
280
     0
  9
$LWDISPLAY
290
     0
  9
$INSUNITS
 70
     1
  9
$HYPERLINKBASE
  1

  9
$STYLESHEET
  1

  9
$XEDIT
290
     1
  9
$CEPSNTYPE
380
     0
  9
$PSTYLEMODE
290
     1
  9
$FINGERPRINTGUID
  2
{95EE7B5B-A2E3-4B4D-B3B9-A556AECA9C79}
  9
$VERSIONGUID
  2
{96D5B1F8-BB4D-4059-B8BA-4009A130ED5D}
  9
$EXTNAMES
290
     1
  9
$PSVPSCALE
 40
0.0
  9
$OLESTARTUP
290
     0
  0
ENDSEC
  0
SECTION
  2
CLASSES
  0
CLASS
  1
ACDBDICTIONARYWDFLT
  2
AcDbDictionaryWithDefault
  3
ObjectDBX Classes
 90
        0
280
     0
281
     0
  0
CLASS
  1
ACDBPLACEHOLDER
  2
AcDbPlaceHolder
  3
ObjectDBX Classes
 90
        0
280
     0
281
     0
  0
CLASS
  1
LAYOUT
  2
AcDbLayout
  3
ObjectDBX Classes
 90
        0
280
     0
281
     0
  0
CLASS
  1
DICTIONARYVAR
  2
AcDbDictionaryVar
  3
ObjectDBX Classes
 90
        0
280
     0
281
     0
  0
CLASS
  1
TABLESTYLE
  2
AcDbTableStyle
  3
ObjectDBX Classes
 90
     2047
280
     0
281
     0
  0
CLASS
  1
SORTENTSTABLE
  2
AcDbSortentsTable
  3
ObjectDBX Classes
 90
        0
280
     0
281
     0
  0
CLASS
  1
DIMASSOC
  2
AcDbDimAssoc
  3
"AcDbDimAssoc|Product Desc:     AcDim ARX App For Dimension|Company:          Autodesk, Inc.|WEB Address:      www.autodesk.com"
 90
        0
280
     0
281
     0
  0
ENDSEC
  0
SECTION
  2
TABLES
  0
TABLE
  2
VPORT
  5
8
330
0
100
AcDbSymbolTable
 70
     2
  0
VPORT
  5
A99
330
8
100
AcDbSymbolTableRecord
100
AcDbViewportTableRecord
  2
*Active
 70
     0
 10
0.0
 20
0.0
 11
1.0
 21
1.0
 12
5.499943496390738
 22
4.554574012307608
 13
0.0
 23
0.0
 14
0.5
 24
0.5
 15
0.5
 25
0.5
 16
0.0
 26
0.0
 36
1.0
 17
0.0
 27
0.0
 37
0.0
 40
9.314889980451676
 41
1.499364675984752
 42
50.0
 43
0.0
 44
0.0
 50
0.0
 51
0.0
 71
     0
 72
  1000
 73
     1
 74
     3
 75
     0
 76
     0
 77
     0
 78
     0
281
     0
 65
     1
110
0.0
120
0.0
130
0.0
111
1.0
121
0.0
131
0.0
112
0.0
122
1.0
132
0.0
 79
     0
146
0.0
  0
ENDTAB
  0
TABLE
  2
LTYPE
  5
5
330
0
100
AcDbSymbolTable
 70
     1
  0
LTYPE
  5
14
330
5
100
AcDbSymbolTableRecord
100
AcDbLinetypeTableRecord
  2
ByBlock
 70
     0
  3

 72
    65
 73
     0
 40
0.0
  0
LTYPE
  5
15
330
5
100
AcDbSymbolTableRecord
100
AcDbLinetypeTableRecord
  2
ByLayer
 70
     0
  3

 72
    65
 73
     0
 40
0.0
  0
LTYPE
  5
16
330
5
100
AcDbSymbolTableRecord
100
AcDbLinetypeTableRecord
  2
Continuous
 70
     0
  3
Solid line
 72
    65
 73
     0
 40
0.0
  0
ENDTAB
  0
TABLE
  2
LAYER
  5
2
102
{ACAD_XDICTIONARY
360
582
102
}
330
0
100
AcDbSymbolTable
 70
     6
  0
LAYER
  5
10
330
2
100
AcDbSymbolTableRecord
100
AcDbLayerTableRecord
  2
0
 70
     0
 62
     7
  6
Continuous
370
    -3
390
F
  0
LAYER
  5
8B
330
2
100
AcDbSymbolTableRecord
100
AcDbLayerTableRecord
  2
Title Block
 70
     0
 62
     3
  6
Continuous
370
    -3
390
F
  0
LAYER
  5
8D
330
2
100
AcDbSymbolTableRecord
100
AcDbLayerTableRecord
  2
Text
 70
     0
 62
     1
  6
Continuous
370
    -3
390
F
  0
LAYER
  5
8E
330
2
100
AcDbSymbolTableRecord
100
AcDbLayerTableRecord
  2
Object
 70
     0
 62
     5
  6
Continuous
370
    -3
390
F
  0
LAYER
  5
581
330
2
100
AcDbSymbolTableRecord
100
AcDbLayerTableRecord
  2
Dimension
 70
     0
 62
     6
  6
Continuous
370
    -3
390
F
1001
AcAecLayerStandard
1000

1000

  0
LAYER
  5
8DE
330
2
100
AcDbSymbolTableRecord
100
AcDbLayerTableRecord
  2
Defpoints
 70
     0
 62
     7
  6
Continuous
290
     0
370
    -3
390
F
  0
ENDTAB
  0
TABLE
  2
STYLE
  5
3
330
0
100
AcDbSymbolTable
 70
     1
  0
STYLE
  5
11
330
3
100
AcDbSymbolTableRecord
100
AcDbTextStyleTableRecord
  2
Standard
 70
     0
 40
0.0
 41
1.0
 50
0.0
 71
     0
 42
0.09
  3
technic_.ttf
  4

1001
ACAD
1000
Technic
1071
      514
  0
ENDTAB
  0
TABLE
  2
VIEW
  5
6
330
0
100
AcDbSymbolTable
 70
     0
  0
ENDTAB
  0
TABLE
  2
UCS
  5
7
330
0
100
AcDbSymbolTable
 70
     0
  0
ENDTAB
  0
TABLE
  2
APPID
  5
9
330
0
100
AcDbSymbolTable
 70
     4
  0
APPID
  5
12
330
9
100
AcDbSymbolTableRecord
100
AcDbRegAppTableRecord
  2
ACAD
 70
     0
  0
APPID
  5
90
330
9
100
AcDbSymbolTableRecord
100
AcDbRegAppTableRecord
  2
DCO15
 70
     0
  0
APPID
  5
91
330
9
100
AcDbSymbolTableRecord
100
AcDbRegAppTableRecord
  2
AcAecLayerStandard
 70
     0
  0
APPID
  5
E0
330
9
100
AcDbSymbolTableRecord
100
AcDbRegAppTableRecord
  2
ACAD_DSTYLE_DIMTEXT_FILL
 70
     0
  0
ENDTAB
  0
TABLE
  2
DIMSTYLE
  5
A
330
0
100
AcDbSymbolTable
 70
     1
100
AcDbDimStyleTable
 71
     1
340
27
  0
DIMSTYLE
105
27
102
{ACAD_REACTORS
330
8DD
330
94D
330
97B
102
}
330
A
100
AcDbSymbolTableRecord
100
AcDbDimStyleTableRecord
  2
Standard
 70
     0
  4
mm
 41
0.1875
 44
0.125
140
0.09
170
     1
171
     1
271
     2
272
     2
274
     1
340
11
  0
ENDTAB
  0
TABLE
  2
BLOCK_RECORD
  5
1
330
0
100
AcDbSymbolTable
 70
     4
  0
BLOCK_RECORD
  5
1F
102
{ACAD_XDICTIONARY
360
57F
102
}
330
1
100
AcDbSymbolTableRecord
100
AcDbBlockTableRecord
  2
*Model_Space
340
22
  0
BLOCK_RECORD
  5
58
330
1
100
AcDbSymbolTableRecord
100
AcDbBlockTableRecord
  2
*Paper_Space
340
59
  0
BLOCK_RECORD
  5
5D
330
1
100
AcDbSymbolTableRecord
100
AcDbBlockTableRecord
  2
*Paper_Space0
340
5E
  0
BLOCK_RECORD
  5
8DF
330
1
100
AcDbSymbolTableRecord
100
AcDbBlockTableRecord
  2
*D1
340
0
  0
BLOCK_RECORD
  5
94E
330
1
100
AcDbSymbolTableRecord
100
AcDbBlockTableRecord
  2
*D2
340
0
  0
BLOCK_RECORD
  5
97C
330
1
100
AcDbSymbolTableRecord
100
AcDbBlockTableRecord
  2
*D3
340
0
  0
ENDTAB
  0
ENDSEC
  0
SECTION
  2
BLOCKS
  0
BLOCK
  5
20
330
1F
100
AcDbEntity
  8
0
100
AcDbBlockBegin
  2
*Model_Space
 70
     0
 10
0.0
 20
0.0
 30
0.0
  3
*Model_Space
  1

  0
ENDBLK
  5
21
330
1F
100
AcDbEntity
  8
0
100
AcDbBlockEnd
  0
BLOCK
  5
5A
330
58
100
AcDbEntity
 67
     1
  8
0
100
AcDbBlockBegin
  2
*Paper_Space
 70
     0
 10
0.0
 20
0.0
 30
0.0
  3
*Paper_Space
  1

  0
ENDBLK
  5
5B
330
58
100
AcDbEntity
 67
     1
  8
0
100
AcDbBlockEnd
  0
BLOCK
  5
5F
330
5D
100
AcDbEntity
  8
0
100
AcDbBlockBegin
  2
*Paper_Space0
 70
     0
 10
0.0
 20
0.0
 30
0.0
  3
*Paper_Space0
  1

  0
ENDBLK
  5
60
330
5D
100
AcDbEntity
  8
0
100
AcDbBlockEnd
  0
BLOCK
  5
8EA
330
8DF
100
AcDbEntity
  8
0
100
AcDbBlockBegin
  2
*D1
 70
     1
 10
0.0
 20
0.0
 30
0.0
  3
*D1
  1

  0
LINE
  5
A57
330
8DF
100
AcDbEntity
  8
Dimension
 62
     0
370
    -2
100
AcDbLine
 10
3.679401684902704
 20
8.034049133534098
 30
0.0
 11
4.771805171584365
 21
8.034049133534097
 31
0.0
  0
LINE
  5
A58
330
8DF
100
AcDbEntity
  8
Dimension
 62
     0
370
    -2
100
AcDbLine
 10
3.679401684902704
 20
6.334049133534098
 30
0.0
 11
4.771805171584365
 21
6.334049133534098
 31
0.0
  0
LINE
  5
A59
330
8DF
100
AcDbEntity
  8
Dimension
 62
     0
370
    -2
100
AcDbLine
 10
4.646805171584365
 20
7.846549133534097
 30
0.0
 11
4.646805171584365
 21
7.337075449323571
 31
0.0
  0
LINE
  5
A5A
330
8DF
100
AcDbEntity
  8
Dimension
 62
     0
370
    -2
100
AcDbLine
 10
4.646805171584365
 20
6.521549133534098
 30
0.0
 11
4.646805171584365
 21
7.031022817744625
 31
0.0
  0
SOLID
  5
A5B
330
8DF
100
AcDbEntity
  8
Dimension
 62
     0
100
AcDbTrace
 10
4.615555171584365
 20
7.846549133534097
 30
0.0
 11
4.678055171584365
 21
7.846549133534097
 31
0.0
 12
4.646805171584365
 22
8.034049133534097
 32
0.0
 13
4.646805171584365
 23
8.034049133534097
 33
0.0
  0
SOLID
  5
A5C
330
8DF
100
AcDbEntity
  8
Dimension
 62
     0
100
AcDbTrace
 10
4.615555171584365
 20
6.521549133534098
 30
0.0
 11
4.678055171584365
 21
6.521549133534098
 31
0.0
 12
4.646805171584365
 22
6.334049133534098
 32
0.0
 13
4.646805171584365
 23
6.334049133534098
 33
0.0
  0
MTEXT
  5
A5D
330
8DF
100
AcDbEntity
  8
Dimension
 62
     0
100
AcDbMText
 10
4.646805171584363
 20
7.184049133534099
 30
0.0
 40
0.09
 41
0.0
 71
     5
 72
     1
  1
\A1;1.70 [43.2mm]
 73
     1
 44
1.0
1001
ACAD
1000
MTEXTBEGIN
1070
    73
1070
     1
1070
    44
1040
1.0
1070
    74
1070
     0
1000
MTEXTEND
  0
POINT
  5
A5E
330
8DF
100
AcDbEntity
  8
Defpoints
 62
     0
100
AcDbPoint
 10
3.616901684902704
 20
8.034049133534098
 30
0.0
  0
POINT
  5
A5F
330
8DF
100
AcDbEntity
  8
Defpoints
 62
     0
100
AcDbPoint
 10
3.616901684902704
 20
6.334049133534098
 30
0.0
  0
POINT
  5
A60
330
8DF
100
AcDbEntity
  8
Defpoints
 62
     0
100
AcDbPoint
 10
4.646805171584365
 20
6.334049133534098
 30
0.0
  0
ENDBLK
  5
8EB
330
8DF
100
AcDbEntity
  8
0
100
AcDbBlockEnd
  0
BLOCK
  5
959
330
94E
100
AcDbEntity
  8
0
100
AcDbBlockBegin
  2
*D2
 70
     1
 10
0.0
 20
0.0
 30
0.0
  3
*D2
  1

  0
LINE
  5
A61
330
94E
100
AcDbEntity
  8
Dimension
 62
     0
370
    -2
100
AcDbLine
 10
1.964901684902704
 20
4.999138278919684
 30
0.0
 11
1.964901684902704
 21
5.539250437549625
 31
0.0
  0
LINE
  5
A62
330
94E
100
AcDbEntity
  8
Dimension
 62
     0
370
    -2
100
AcDbLine
 10
3.766901684902704
 20
4.849138278919683
 30
0.0
 11
3.766901684902704
 21
5.539250437549625
 31
0.0
  0
LINE
  5
A63
330
94E
100
AcDbEntity
  8
Dimension
 62
     0
370
    -2
100
AcDbLine
 10
2.152401684902704
 20
5.414250437549625
 30
0.0
 11
2.388664842797441
 21
5.414250437549625
 31
0.0
  0
LINE
  5
A64
330
94E
100
AcDbEntity
  8
Dimension
 62
     0
370
    -2
100
AcDbLine
 10
3.579401684902704
 20
5.414250437549625
 30
0.0
 11
3.343138527007967
 21
5.414250437549625
 31
0.0
  0
SOLID
  5
A65
330
94E
100
AcDbEntity
  8
Dimension
 62
     0
100
AcDbTrace
 10
2.152401684902704
 20
5.445500437549625
 30
0.0
 11
2.152401684902704
 21
5.383000437549625
 31
0.0
 12
1.964901684902704
 22
5.414250437549625
 32
0.0
 13
1.964901684902704
 23
5.414250437549625
 33
0.0
  0
SOLID
  5
A66
330
94E
100
AcDbEntity
  8
Dimension
 62
     0
100
AcDbTrace
 10
3.579401684902704
 20
5.445500437549625
 30
0.0
 11
3.579401684902704
 21
5.383000437549625
 31
0.0
 12
3.766901684902704
 22
5.414250437549625
 32
0.0
 13
3.766901684902704
 23
5.414250437549625
 33
0.0
  0
MTEXT
  5
A67
330
94E
100
AcDbEntity
  8
Dimension
 62
     0
100
AcDbMText
 10
2.865901684902704
 20
5.414250437549625
 30
0.0
 40
0.09
 41
0.0
 71
     5
 72
     1
  1
\A1;1.80 [45.8mm]
 73
     1
 44
1.0
1001
ACAD
1000
MTEXTBEGIN
1070
    73
1070
     1
1070
    44
1040
1.0
1070
    74
1070
     0
1000
MTEXTEND
  0
POINT
  5
A68
330
94E
100
AcDbEntity
  8
Defpoints
 62
     0
100
AcDbPoint
 10
1.964901684902704
 20
4.936638278919684
 30
0.0
  0
POINT
  5
A69
330
94E
100
AcDbEntity
  8
Defpoints
 62
     0
100
AcDbPoint
 10
3.766901684902704
 20
4.786638278919683
 30
0.0
  0
POINT
  5
A6A
330
94E
100
AcDbEntity
  8
Defpoints
 62
     0
100
AcDbPoint
 10
3.766901684902704
 20
5.414250437549625
 30
0.0
  0
ENDBLK
  5
95A
330
94E
100
AcDbEntity
  8
0
100
AcDbBlockEnd
  0
BLOCK
  5
987
330
97C
100
AcDbEntity
  8
0
100
AcDbBlockBegin
  2
*D3
 70
     1
 10
0.0
 20
0.0
 30
0.0
  3
*D3
  1

  0
LINE
  5
A6B
330
97C
100
AcDbEntity
  8
Dimension
 62
     0
370
    -2
100
AcDbLine
 10
7.203401684902704
 20
3.276638278919683
 30
0.0
 11
6.306032033563841
 21
3.276638278919684
 31
0.0
  0
LINE
  5
A6C
330
97C
100
AcDbEntity
  8
Dimension
 62
     0
370
    -2
100
AcDbLine
 10
7.353401684902704
 20
4.936638278919684
 30
0.0
 11
6.306032033563841
 21
4.936638278919684
 31
0.0
  0
LINE
  5
A6D
330
97C
100
AcDbEntity
  8
Dimension
 62
     0
370
    -2
100
AcDbLine
 10
6.431032033563841
 20
3.464138278919684
 30
0.0
 11
6.431032033563841
 21
3.95361196313021
 31
0.0
  0
LINE
  5
A6E
330
97C
100
AcDbEntity
  8
Dimension
 62
     0
370
    -2
100
AcDbLine
 10
6.431032033563841
 20
4.749138278919684
 30
0.0
 11
6.431032033563841
 21
4.259664594709157
 31
0.0
  0
SOLID
  5
A6F
330
97C
100
AcDbEntity
  8
Dimension
 62
     0
100
AcDbTrace
 10
6.399782033563841
 20
3.464138278919684
 30
0.0
 11
6.462282033563841
 21
3.464138278919684
 31
0.0
 12
6.431032033563841
 22
3.276638278919684
 32
0.0
 13
6.431032033563841
 23
3.276638278919684
 33
0.0
  0
SOLID
  5
A70
330
97C
100
AcDbEntity
  8
Dimension
 62
     0
100
AcDbTrace
 10
6.399782033563841
 20
4.749138278919684
 30
0.0
 11
6.462282033563841
 21
4.749138278919684
 31
0.0
 12
6.431032033563841
 22
4.936638278919684
 32
0.0
 13
6.431032033563841
 23
4.936638278919684
 33
0.0
  0
MTEXT
  5
A71
330
97C
100
AcDbEntity
  8
Dimension
 62
     0
100
AcDbMText
 10
6.43103203356384
 20
4.106638278919685
 30
0.0
 40
0.09
 41
0.0
 71
     5
 72
     1
  1
\A1;1.66 [42.2mm]
 73
     1
 44
1.0
1001
ACAD
1000
MTEXTBEGIN
1070
    73
1070
     1
1070
    44
1040
1.0
1070
    74
1070
     0
1000
MTEXTEND
  0
POINT
  5
A72
330
97C
100
AcDbEntity
  8
Defpoints
 62
     0
100
AcDbPoint
 10
7.265901684902704
 20
3.276638278919683
 30
0.0
  0
POINT
  5
A73
330
97C
100
AcDbEntity
  8
Defpoints
 62
     0
100
AcDbPoint
 10
7.415901684902704
 20
4.936638278919684
 30
0.0
  0
POINT
  5
A74
330
97C
100
AcDbEntity
  8
Defpoints
 62
     0
100
AcDbPoint
 10
6.431032033563841
 20
4.936638278919684
 30
0.0
  0
ENDBLK
  5
988
330
97C
100
AcDbEntity
  8
0
100
AcDbBlockEnd
  0
ENDSEC
  0
SECTION
  2
ENTITIES
  0
TEXT
  5
537
330
1F
100
AcDbEntity
  8
Title Block
100
AcDbText
 10
6.776695012655547
 20
2.672489851525508
 30
0.0
 40
0.05
  1
FILENAME:
100
AcDbText
  0
TEXT
  5
538
330
1F
100
AcDbEntity
  8
Title Block
100
AcDbText
 10
6.769285028728251
 20
2.076224967549325
 30
0.0
 40
0.35
  1
PANDUIT
100
AcDbText
  0
TEXT
  5
539
330
1F
100
AcDbEntity
  8
Title Block
100
AcDbText
 10
8.721820398821382
 20
2.061410940562986
 30
0.0
 40
0.125
  1
CORP. TINLEY PARK, IL
100
AcDbText
  0
TEXT
  5
53A
330
1F
100
AcDbEntity
  8
Title Block
100
AcDbText
 10
6.780399976708615
 20
1.91697409709392
 30
0.0
 40
0.05
  1
TITLE:
100
AcDbText
  0
MTEXT
  5
53B
330
1F
100
AcDbEntity
  8
Title Block
100
AcDbMText
 10
8.0
 20
1.372215793536348
 30
0.0
 40
0.075
 41
2.5
 71
     5
 72
     5
  1
UNLESS OTHERWISE SPECIFIED,\PDIMENSIONAL TOLERANCES ARE:       
 73
     1
 44
1.0
1001
ACAD
1000
MTEXTBEGIN
1070
    73
1070
     1
1070
    44
1040
1.0
1070
    74
1070
     0
1000
MTEXTEND
  0
MTEXT
  5
53C
330
1F
100
AcDbEntity
  8
Title Block
100
AcDbMText
 10
7.392379866610014
 20
1.131487708483632
 30
0.0
 40
0.075
 41
2.5
 71
     5
 72
     5
  1
(.X)\P(.XX)
 73
     1
 44
1.0
1001
ACAD
1000
MTEXTBEGIN
1070
    73
1070
     1
1070
    44
1040
1.0
1070
    74
1070
     0
1000
MTEXTEND
  0
MTEXT
  5
53D
330
1F
100
AcDbEntity
  8
Title Block
100
AcDbMText
 10
8.400140053124118
 20
1.131487708483632
 30
0.0
 40
0.075
 41
2.5
 71
     5
 72
     5
  1
(.XXX)\PANGLES:
 73
     1
 44
1.0
1001
ACAD
1000
MTEXTBEGIN
1070
    73
1070
     1
1070
    44
1040
1.0
1070
    74
1070
     0
1000
MTEXTEND
  0
MTEXT
  5
53E
330
1F
100
AcDbEntity
  8
Title Block
100
AcDbMText
 10
10.0
 20
1.25
 30
0.0
 40
0.06
 41
1.5
 71
     5
 72
     5
  1
UNLESS OTHERWISE SPECIFIED,\PALL DIMENSIONS ARE GIVEN IN INCHES, THIRD ANGLE PROJECTION
 73
     1
 44
1.0
1001
ACAD
1000
MTEXTBEGIN
1070
    73
1070
     1
1070
    44
1040
1.0
1070
    74
1070
     0
1000
MTEXTEND
  0
TEXT
  5
53F
330
1F
100
AcDbEntity
  8
Title Block
100
AcDbText
 10
6.760764454306187
 20
0.9281373372752312
 30
0.0
 40
0.05
  1
DRAWN BY:
100
AcDbText
  0
TEXT
  5
540
330
1F
100
AcDbEntity
  8
Title Block
100
AcDbText
 10
6.764469474180437
 20
0.6811431865635028
 30
0.0
 40
0.05
  1
DATE:
100
AcDbText
  0
TEXT
  5
541
330
1F
100
AcDbEntity
  8
Title Block
100
AcDbText
 10
6.768174438233497
 20
0.4304455338317968
 30
0.0
 40
0.05
  1
CHECKED BY:
100
AcDbText
  0
TEXT
  5
542
330
1F
100
AcDbEntity
  8
Title Block
100
AcDbText
 10
7.520289593133067
 20
0.9281373372752312
 30
0.0
 40
0.05
  1
MATERIAL:
100
AcDbText
  0
TEXT
  5
543
330
1F
100
AcDbEntity
  8
Title Block
100
AcDbText
 10
9.265344938781542
 20
0.9281373372752312
 30
0.0
 40
0.05
  1
SCALE:
100
AcDbText
  0
TEXT
  5
544
330
1F
100
AcDbEntity
  8
Title Block
100
AcDbText
 10
9.265344938781542
 20
0.6725952630490007
 30
0.0
 40
0.05
  1
DRAWING NUMBER:
100
AcDbText
  0
TEXT
  5
545
330
1F
100
AcDbEntity
  8
Title Block
100
AcDbText
 10
10.34942622928998
 20
0.6762987650689816
 30
0.0
 40
0.05
  1
DRAWING
100
AcDbText
  0
TEXT
  5
546
330
1F
100
AcDbEntity
  8
Title Block
100
AcDbText
 10
10.42723125590085
 20
0.2811642688682026
 30
0.0
 40
0.05
  1
SIZE
100
AcDbText
  0
TEXT
  5
547
330
1F
100
AcDbEntity
  8
Title Block
100
AcDbText
 10
10.38647626056889
 20
0.3911285990572359
 30
0.0
 40
0.25
  1
A
100
AcDbText
  0
MTEXT
  5
548
330
1F
100
AcDbEntity
  8
Title Block
100
AcDbMText
 10
0.375
 20
0.375
 30
0.0
 40
0.05
 41
0.25
 71
     5
 72
     5
  1
REV
 73
     1
 44
1.0
1001
ACAD
1000
MTEXTBEGIN
1070
    73
1070
     1
1070
    44
1040
1.0
1070
    74
1070
     0
1000
MTEXTEND
  0
MTEXT
  5
549
330
1F
100
AcDbEntity
  8
Title Block
100
AcDbMText
 10
0.75
 20
0.375
 30
0.0
 40
0.05
 41
0.5
 71
     5
 72
     5
  1
DATE
 73
     1
 44
1.0
1001
ACAD
1000
MTEXTBEGIN
1070
    73
1070
     1
1070
    44
1040
1.0
1070
    74
1070
     0
1000
MTEXTEND
  0
MTEXT
  5
54A
330
1F
100
AcDbEntity
  8
Title Block
100
AcDbMText
 10
1.189999999999999
 20
0.375
 30
0.0
 40
0.05
 41
0.38
 71
     5
 72
     5
  1
BY
 73
     1
 44
1.0
1001
ACAD
1000
MTEXTBEGIN
1070
    73
1070
     1
1070
    44
1040
1.0
1070
    74
1070
     0
1000
MTEXTEND
  0
MTEXT
  5
54B
330
1F
100
AcDbEntity
  8
Title Block
100
AcDbMText
 10
1.564999999999999
 20
0.375
 30
0.0
 40
0.05
 41
0.38
 71
     5
 72
     5
  1
CHK
 73
     1
 44
1.0
1001
ACAD
1000
MTEXTBEGIN
1070
    73
1070
     1
1070
    44
1040
1.0
1070
    74
1070
     0
1000
MTEXTEND
  0
MTEXT
  5
54C
330
1F
100
AcDbEntity
  8
Title Block
100
AcDbMText
 10
3.125
 20
0.375
 30
0.0
 40
0.05
 41
2.75
 71
     5
 72
     5
  1
DESCRIPTION
 73
     1
 44
1.0
1001
ACAD
1000
MTEXTBEGIN
1070
    73
1070
     1
1070
    44
1040
1.0
1070
    74
1070
     0
1000
MTEXTEND
  0
MTEXT
  5
54D
330
1F
100
AcDbEntity
  8
Title Block
100
AcDbMText
 10
5.064999999999999
 20
0.375
 30
0.0
 40
0.05
 41
1.129999999999999
 71
     5
 72
     5
  1
ECN   -   R
 73
     1
 44
1.0
1001
ACAD
1000
MTEXTBEGIN
1070
    73
1070
     1
1070
    44
1040
1.0
1070
    74
1070
     0
1000
MTEXTEND
  0
MTEXT
  5
54E
330
1F
100
AcDbEntity
  8
Title Block
100
AcDbMText
 10
5.815
 20
0.375
 30
0.0
 40
0.05
 41
0.38
 71
     5
 72
     5
  1
CUST
 73
     1
 44
1.0
1001
ACAD
1000
MTEXTBEGIN
1070
    73
1070
     1
1070
    44
1040
1.0
1070
    74
1070
     0
1000
MTEXTEND
  0
MTEXT
  5
54F
330
1F
100
AcDbEntity
  8
Title Block
100
AcDbMText
 10
6.19
 20
0.375
 30
0.0
 40
0.05
 41
0.38
 71
     5
 72
     5
  1
SUP
 73
     1
 44
1.0
1001
ACAD
1000
MTEXTBEGIN
1070
    73
1070
     1
1070
    44
1040
1.0
1070
    74
1070
     0
1000
MTEXTEND
  0
LWPOLYLINE
  5
550
330
1F
100
AcDbEntity
  8
Title Block
100
AcDbPolyline
 90
        4
 70
     1
 43
0.01
 10
0.25
 20
8.250000000000001
 10
0.25
 20
0.25
 10
10.75
 20
0.25
 10
10.75
 20
8.25
  0
LINE
  5
551
330
1F
100
AcDbEntity
  8
Title Block
100
AcDbLine
 10
10.75
 20
2.749999999999999
 30
0.0
 11
0.25
 21
2.75
 31
0.0
  0
LINE
  5
552
330
1F
100
AcDbEntity
  8
Title Block
100
AcDbLine
 10
6.75
 20
2.75
 30
0.0
 11
6.75
 21
0.25
 31
0.0
  0
LINE
  5
553
330
1F
100
AcDbEntity
  8
Title Block
100
AcDbLine
 10
10.75
 20
2.499999999999999
 30
0.0
 11
0.25
 21
2.5
 31
0.0
  0
LINE
  5
554
330
1F
100
AcDbEntity
  8
Title Block
100
AcDbLine
 10
6.75
 20
2.25
 30
0.0
 11
0.25
 21
2.25
 31
0.0
  0
LINE
  5
555
330
1F
100
AcDbEntity
  8
Title Block
100
AcDbLine
 10
10.75
 20
1.999999999999999
 30
0.0
 11
0.25
 21
2.0
 31
0.0
  0
LINE
  5
556
330
1F
100
AcDbEntity
  8
Title Block
100
AcDbLine
 10
6.75
 20
1.75
 30
0.0
 11
0.25
 21
1.75
 31
0.0
  0
LINE
  5
557
330
1F
100
AcDbEntity
  8
Title Block
100
AcDbLine
 10
10.75
 20
1.499999999999999
 30
0.0
 11
0.25
 21
1.5
 31
0.0
  0
LINE
  5
558
330
1F
100
AcDbEntity
  8
Title Block
100
AcDbLine
 10
6.75
 20
1.25
 30
0.0
 11
0.25
 21
1.25
 31
0.0
  0
LINE
  5
559
330
1F
100
AcDbEntity
  8
Title Block
100
AcDbLine
 10
10.75
 20
0.9999999999999996
 30
0.0
 11
0.25
 21
1.0
 31
0.0
  0
LINE
  5
55A
330
1F
100
AcDbEntity
  8
Title Block
100
AcDbLine
 10
7.5
 20
0.75
 30
0.0
 11
0.25
 21
0.7500000000000009
 31
0.0
  0
LINE
  5
55B
330
1F
100
AcDbEntity
  8
Title Block
100
AcDbLine
 10
7.5
 20
0.5
 30
0.0
 11
0.25
 21
0.5000000000000009
 31
0.0
  0
LINE
  5
55C
330
1F
100
AcDbEntity
  8
Title Block
100
AcDbLine
 10
0.25
 20
0.25
 30
0.0
 11
0.25
 21
2.75
 31
0.0
  0
LINE
  5
55D
330
1F
100
AcDbEntity
  8
Title Block
100
AcDbLine
 10
0.5
 20
0.25
 30
0.0
 11
0.5
 21
2.750000000000001
 31
0.0
  0
LINE
  5
55E
330
1F
100
AcDbEntity
  8
Title Block
100
AcDbLine
 10
1.0
 20
0.25
 30
0.0
 11
1.0
 21
2.750000000000001
 31
0.0
  0
LINE
  5
55F
330
1F
100
AcDbEntity
  8
Title Block
100
AcDbLine
 10
1.375
 20
0.25
 30
0.0
 11
1.375
 21
2.750000000000001
 31
0.0
  0
LINE
  5
560
330
1F
100
AcDbEntity
  8
Title Block
100
AcDbLine
 10
1.75
 20
0.25
 30
0.0
 11
1.75
 21
2.750000000000001
 31
0.0
  0
LINE
  5
561
330
1F
100
AcDbEntity
  8
Title Block
100
AcDbLine
 10
6.375
 20
2.75
 30
0.0
 11
6.375
 21
0.25
 31
0.0
  0
LINE
  5
562
330
1F
100
AcDbEntity
  8
Title Block
100
AcDbLine
 10
6.0
 20
2.75
 30
0.0
 11
6.0
 21
0.25
 31
0.0
  0
LINE
  5
563
330
1F
100
AcDbEntity
  8
Title Block
100
AcDbLine
 10
5.625
 20
2.75
 30
0.0
 11
5.625
 21
0.25
 31
0.0
  0
LINE
  5
564
330
1F
100
AcDbEntity
  8
Title Block
100
AcDbLine
 10
5.25
 20
2.75
 30
0.0
 11
5.25
 21
0.5000000000000002
 31
0.0
  0
LINE
  5
565
330
1F
100
AcDbEntity
  8
Title Block
100
AcDbLine
 10
4.5
 20
2.75
 30
0.0
 11
4.5
 21
0.25
 31
0.0
  0
LINE
  5
566
330
1F
100
AcDbEntity
  8
Title Block
100
AcDbLine
 10
9.25
 20
0.75
 30
0.0
 11
9.25
 21
1.499999999999999
 31
0.0
  0
LINE
  5
567
330
1F
100
AcDbEntity
  8
Title Block
100
AcDbLine
 10
9.25
 20
0.75
 30
0.0
 11
9.25
 21
0.25
 31
0.0
  0
LINE
  5
568
330
1F
100
AcDbEntity
  8
Title Block
100
AcDbLine
 10
9.25
 20
0.75
 30
0.0
 11
10.75
 21
0.75
 31
0.0
  0
LINE
  5
569
330
1F
100
AcDbEntity
  8
Title Block
100
AcDbLine
 10
7.5
 20
0.5
 30
0.0
 11
7.5
 21
0.25
 31
0.0
  0
LINE
  5
56A
330
1F
100
AcDbEntity
  8
Title Block
100
AcDbLine
 10
7.5
 20
0.5
 30
0.0
 11
7.5
 21
1.0
 31
0.0
  0
LINE
  5
56B
330
1F
100
AcDbEntity
  8
Title Block
100
AcDbLine
 10
10.25
 20
0.75
 30
0.0
 11
10.25
 21
0.25
 31
0.0
  0
POINT
  5
56C
330
1F
100
AcDbEntity
  8
Title Block
100
AcDbPoint
 10
11.0
 20
8.5
 30
0.0
  0
POINT
  5
56D
330
1F
100
AcDbEntity
  8
Title Block
100
AcDbPoint
 10
11.0
 20
0.0
 30
0.0
  0
POINT
  5
56E
330
1F
100
AcDbEntity
  8
Title Block
100
AcDbPoint
 10
0.0
 20
0.0
 30
0.0
  0
POINT
  5
56F
330
1F
100
AcDbEntity
  8
Title Block
100
AcDbPoint
 10
0.0
 20
8.500000000000001
 30
0.0
  0
MTEXT
  5
570
330
1F
100
AcDbEntity
  8
Text
100
AcDbMText
 10
0.375
 20
0.6250000000000009
 30
0.0
 40
0.09
 41
0.25
 71
     5
 72
     5
  1
R
 73
     1
 44
1.0
1001
ACAD
1000
MTEXTBEGIN
1070
    73
1070
     1
1070
    44
1040
1.0
1070
    74
1070
     0
1000
MTEXTEND
  0
MTEXT
  5
571
330
1F
100
AcDbEntity
  8
Text
100
AcDbMText
 10
0.75
 20
0.6250000000000009
 30
0.0
 40
0.07
 41
0.5
 71
     5
 72
     5
  1
12-28-05
 73
     1
 44
1.0
1001
ACAD
1000
MTEXTBEGIN
1070
    73
1070
     1
1070
    44
1040
1.0
1070
    74
1070
     0
1000
MTEXTEND
  0
MTEXT
  5
572
330
1F
100
AcDbEntity
  8
Text
100
AcDbMText
 10
1.1875
 20
0.6250000000000009
 30
0.0
 40
0.09
 41
0.375
 71
     5
 72
     5
  1
MSO
 73
     1
 44
1.0
1001
ACAD
1000
MTEXTBEGIN
1070
    73
1070
     1
1070
    44
1040
1.0
1070
    74
1070
     0
1000
MTEXTEND
  0
MTEXT
  5
573
330
1F
100
AcDbEntity
  8
Text
100
AcDbMText
 10
1.5625
 20
0.6250000000000009
 30
0.0
 40
0.07
 41
0.375
 71
     5
 72
     5
  1
DJWA
 73
     1
 44
1.0
1001
ACAD
1000
MTEXTBEGIN
1070
    73
1070
     1
1070
    44
1040
1.0
1070
    74
1070
     0
1000
MTEXTEND
  0
MTEXT
  5
574
330
1F
100
AcDbEntity
  8
Text
100
AcDbMText
 10
3.125
 20
0.6250000000000005
 30
0.0
 40
0.09
 41
2.75
 71
     5
 72
     5
  1
DRAWING RELEASED
 73
     1
 44
1.0
1001
ACAD
1000
MTEXTBEGIN
1070
    73
1070
     1
1070
    44
1040
1.0
1070
    74
1070
     0
1000
MTEXTEND
  0
MTEXT
  5
577
330
1F
100
AcDbEntity
  8
Text
100
AcDbMText
 10
7.474999999999999
 20
0.85
 30
0.0
 40
0.09
 41
0.75
 71
     6
 72
     5
  1
MSO
 73
     1
 44
1.0
1001
ACAD
1000
MTEXTBEGIN
1070
    73
1070
     1
1070
    44
1040
1.0
1070
    74
1070
     0
1000
MTEXTEND
  0
MTEXT
  5
578
330
1F
100
AcDbEntity
  8
Text
100
AcDbMText
 10
7.474999999999999
 20
0.5999999999999999
 30
0.0
 40
0.09
 41
0.75
 71
     6
 72
     5
  1
12-28-05
 73
     1
 44
1.0
1001
ACAD
1000
MTEXTBEGIN
1070
    73
1070
     1
1070
    44
1040
1.0
1070
    74
1070
     0
1000
MTEXTEND
  0
MTEXT
  5
579
330
1F
100
AcDbEntity
  8
Text
100
AcDbMText
 10
7.474999999999999
 20
0.3500000000000001
 30
0.0
 40
0.09
 41
0.75
 71
     6
 72
     5
  1
DJWA
 73
     1
 44
1.0
1001
ACAD
1000
MTEXTBEGIN
1070
    73
1070
     1
1070
    44
1040
1.0
1070
    74
1070
     0
1000
MTEXTEND
  0
MTEXT
  5
57A
330
1F
100
AcDbEntity
  8
Text
100
AcDbMText
 10
8.75
 20
2.625
 30
0.0
 40
0.09
 41
4.0
 71
     5
 72
     5
  1
F2PCLB12.dwg
 73
     1
 44
1.0
1001
ACAD
1000
MTEXTBEGIN
1070
    73
1070
     1
1070
    44
1040
1.0
1070
    74
1070
     0
1000
MTEXTEND
  0
MTEXT
  5
57B
330
1F
100
AcDbEntity
  8
Text
100
AcDbMText
 10
8.75
 20
1.75
 30
0.0
 40
0.09
 41
4.0
 71
     5
 72
     5
  1
FIBER ROUTING 2-PIECE LADDER RACK BRACKET\P- {\H0.7x;\S1#2;}" (M12) THREADED ROD (F2PCLB12, F2PCLB12M)\PMARKETING DRAWING
 73
     1
 44
1.0
1001
ACAD
1000
MTEXTBEGIN
1070
    73
1070
     1
1070
    44
1040
1.0
1070
    74
1070
     1
1000
MTEXTEND
  0
MTEXT
  5
57C
330
1F
100
AcDbEntity
  8
Text
100
AcDbMText
 10
10.0
 20
0.8749999999999998
 30
0.0
 40
0.12
 41
1.5
 71
     5
 72
     5
  1
FULL
 73
     1
 44
1.0
1001
ACAD
1000
MTEXTBEGIN
1070
    73
1070
     1
1070
    44
1040
1.0
1070
    74
1070
     0
1000
MTEXTEND
  0
MTEXT
  5
57D
330
1F
100
AcDbEntity
  8
Text
100
AcDbMText
 10
9.75
 20
0.5
 30
0.0
 40
0.12
 41
1.0
 71
     5
 72
     5
  1
36897-1098
 73
     1
 44
1.0
1001
ACAD
1000
MTEXTBEGIN
1070
    73
1070
     1
1070
    44
1040
1.0
1070
    74
1070
     0
1000
MTEXTEND
  0
LINE
  5
587
330
1F
100
AcDbEntity
  8
Object
100
AcDbLine
 10
8.965901684902704
 20
3.276638278919683
 30
0.0
 11
8.965901684902704
 21
3.282638278919684
 31
0.0
  0
LINE
  5
588
330
1F
100
AcDbEntity
  8
Object
100
AcDbLine
 10
8.965901684902704
 20
3.282638278919684
 30
0.0
 11
8.965901684902704
 21
3.299638278919684
 31
0.0
  0
LINE
  5
589
330
1F
100
AcDbEntity
  8
Object
100
AcDbLine
 10
8.965901684902704
 20
3.299638278919684
 30
0.0
 11
8.965901684902704
 21
3.327638278919684
 31
0.0
  0
LINE
  5
58A
330
1F
100
AcDbEntity
  8
Object
100
AcDbLine
 10
8.965901684902704
 20
3.327638278919684
 30
0.0
 11
8.965901684902704
 21
3.362638278919684
 31
0.0
  0
LINE
  5
58B
330
1F
100
AcDbEntity
  8
Object
100
AcDbLine
 10
8.965901684902704
 20
3.362638278919684
 30
0.0
 11
8.965901684902704
 21
3.401638278919683
 31
0.0
  0
LINE
  5
58C
330
1F
100
AcDbEntity
  8
Object
100
AcDbLine
 10
8.965901684902704
 20
3.401638278919683
 30
0.0
 11
8.965901684902704
 21
3.626638278919684
 31
0.0
  0
LINE
  5
58D
330
1F
100
AcDbEntity
  8
Object
100
AcDbLine
 10
8.965901684902704
 20
3.626638278919684
 30
0.0
 11
8.965901684902704
 21
3.636638278919684
 31
0.0
  0
LINE
  5
58E
330
1F
100
AcDbEntity
  8
Object
100
AcDbLine
 10
8.965901684902704
 20
3.636638278919684
 30
0.0
 11
8.965901684902704
 21
3.626638278919684
 31
0.0
  0
LINE
  5
58F
330
1F
100
AcDbEntity
  8
Object
100
AcDbLine
 10
8.965901684902704
 20
3.636638278919684
 30
0.0
 11
8.965901684902704
 21
4.786638278919683
 31
0.0
  0
LINE
  5
590
330
1F
100
AcDbEntity
  8
Object
100
AcDbLine
 10
8.845901684902704
 20
3.276638278919683
 30
0.0
 11
8.965901684902704
 21
3.276638278919683
 31
0.0
  0
LINE
  5
591
330
1F
100
AcDbEntity
  8
Object
100
AcDbLine
 10
8.965901684902704
 20
3.629638278919684
 30
0.0
 11
8.965901684902704
 21
3.632638278919684
 31
0.0
  0
LINE
  5
592
330
1F
100
AcDbEntity
  8
Object
100
AcDbLine
 10
8.965901684902704
 20
3.632638278919684
 30
0.0
 11
8.965901684902704
 21
3.636638278919684
 31
0.0
  0
LINE
  5
593
330
1F
100
AcDbEntity
  8
Object
100
AcDbLine
 10
8.965901684902704
 20
3.636638278919684
 30
0.0
 11
8.965901684902704
 21
3.629638278919684
 31
0.0
  0
LINE
  5
594
330
1F
100
AcDbEntity
  8
Object
100
AcDbLine
 10
8.965901684902704
 20
3.629638278919684
 30
0.0
 11
8.965901684902704
 21
3.636638278919684
 31
0.0
  0
LINE
  5
595
330
1F
100
AcDbEntity
  8
Object
100
AcDbLine
 10
8.965901684902704
 20
3.636638278919684
 30
0.0
 11
8.965901684902704
 21
3.632638278919684
 31
0.0
  0
LINE
  5
596
330
1F
100
AcDbEntity
  8
Object
100
AcDbLine
 10
8.965901684902704
 20
3.632638278919684
 30
0.0
 11
8.965901684902704
 21
3.636638278919684
 31
0.0
  0
LINE
  5
597
330
1F
100
AcDbEntity
  8
Object
100
AcDbLine
 10
8.965901684902704
 20
3.629638278919684
 30
0.0
 11
8.965901684902704
 21
3.626638278919684
 31
0.0
  0
LINE
  5
598
330
1F
100
AcDbEntity
  8
Object
100
AcDbLine
 10
8.965901684902704
 20
3.626638278919684
 30
0.0
 11
8.965901684902704
 21
3.636638278919684
 31
0.0
  0
LINE
  5
599
330
1F
100
AcDbEntity
  8
Object
100
AcDbLine
 10
8.965901684902704
 20
3.636638278919684
 30
0.0
 11
8.965901684902704
 21
3.626638278919684
 31
0.0
  0
LINE
  5
59A
330
1F
100
AcDbEntity
  8
Object
100
AcDbLine
 10
8.965901684902704
 20
3.626638278919684
 30
0.0
 11
8.958901684902704
 21
3.589638278919684
 31
0.0
  0
LINE
  5
59B
330
1F
100
AcDbEntity
  8
Object
100
AcDbLine
 10
8.958901684902704
 20
3.589638278919684
 30
0.0
 11
8.955901684902704
 21
3.582638278919684
 31
0.0
  0
LINE
  5
59C
330
1F
100
AcDbEntity
  8
Object
100
AcDbLine
 10
8.955901684902704
 20
3.582638278919684
 30
0.0
 11
8.936901684902704
 21
3.547638278919684
 31
0.0
  0
LINE
  5
59D
330
1F
100
AcDbEntity
  8
Object
100
AcDbLine
 10
8.936901684902704
 20
3.547638278919684
 30
0.0
 11
8.933901684902703
 21
3.543638278919684
 31
0.0
  0
LINE
  5
59E
330
1F
100
AcDbEntity
  8
Object
100
AcDbLine
 10
8.933901684902703
 20
3.543638278919684
 30
0.0
 11
8.903901684902704
 21
3.514638278919684
 31
0.0
  0
LINE
  5
59F
330
1F
100
AcDbEntity
  8
Object
100
AcDbLine
 10
8.903901684902704
 20
3.514638278919684
 30
0.0
 11
8.900901684902704
 21
3.512638278919684
 31
0.0
  0
LINE
  5
5A0
330
1F
100
AcDbEntity
  8
Object
100
AcDbLine
 10
8.900901684902704
 20
3.512638278919684
 30
0.0
 11
8.861901684902704
 21
3.493638278919684
 31
0.0
  0
LINE
  5
5A1
330
1F
100
AcDbEntity
  8
Object
100
AcDbLine
 10
8.861901684902704
 20
3.493638278919684
 30
0.0
 11
8.859901684902704
 21
3.492638278919684
 31
0.0
  0
LINE
  5
5A2
330
1F
100
AcDbEntity
  8
Object
100
AcDbLine
 10
8.859901684902704
 20
3.492638278919684
 30
0.0
 11
8.815901684902703
 21
3.486638278919683
 31
0.0
  0
LINE
  5
5A3
330
1F
100
AcDbEntity
  8
Object
100
AcDbLine
 10
8.815901684902703
 20
3.486638278919683
 30
0.0
 11
8.861901684902704
 21
3.493638278919684
 31
0.0
  0
LINE
  5
5A4
330
1F
100
AcDbEntity
  8
Object
100
AcDbLine
 10
8.815901684902703
 20
3.486638278919683
 30
0.0
 11
8.859901684902704
 21
3.492638278919684
 31
0.0
  0
LINE
  5
5A5
330
1F
100
AcDbEntity
  8
Object
100
AcDbLine
 10
8.845901684902704
 20
3.362638278919684
 30
0.0
 11
8.845901684902704
 21
3.327638278919684
 31
0.0
  0
LINE
  5
5A6
330
1F
100
AcDbEntity
  8
Object
100
AcDbLine
 10
8.965901684902704
 20
3.327638278919684
 30
0.0
 11
8.965901684902704
 21
3.362638278919684
 31
0.0
  0
LINE
  5
5A7
330
1F
100
AcDbEntity
  8
Object
100
AcDbLine
 10
8.965901684902704
 20
3.362638278919684
 30
0.0
 11
8.965901684902704
 21
3.401638278919683
 31
0.0
  0
LINE
  5
5A8
330
1F
100
AcDbEntity
  8
Object
100
AcDbLine
 10
8.845901684902704
 20
3.362638278919684
 30
0.0
 11
8.845901684902704
 21
3.401638278919683
 31
0.0
  0
LINE
  5
5A9
330
1F
100
AcDbEntity
  8
Object
100
AcDbLine
 10
8.845901684902704
 20
3.401638278919683
 30
0.0
 11
8.965901684902704
 21
3.401638278919683
 31
0.0
  0
LINE
  5
5AA
330
1F
100
AcDbEntity
  8
Object
100
AcDbLine
 10
8.965901684902704
 20
3.299638278919684
 30
0.0
 11
8.965901684902704
 21
3.327638278919684
 31
0.0
  0
LINE
  5
5AB
330
1F
100
AcDbEntity
  8
Object
100
AcDbLine
 10
8.845901684902704
 20
3.299638278919684
 30
0.0
 11
8.845901684902704
 21
3.282638278919684
 31
0.0
  0
LINE
  5
5AC
330
1F
100
AcDbEntity
  8
Object
100
AcDbLine
 10
8.965901684902704
 20
3.282638278919684
 30
0.0
 11
8.965901684902704
 21
3.276638278919683
 31
0.0
  0
LINE
  5
5AD
330
1F
100
AcDbEntity
  8
Object
100
AcDbLine
 10
8.965901684902704
 20
3.276638278919683
 30
0.0
 11
8.845901684902704
 21
3.276638278919683
 31
0.0
  0
LINE
  5
5AE
330
1F
100
AcDbEntity
  8
Object
100
AcDbLine
 10
8.845901684902704
 20
3.276638278919683
 30
0.0
 11
8.845901684902704
 21
3.282638278919684
 31
0.0
  0
LINE
  5
5AF
330
1F
100
AcDbEntity
  8
Object
100
AcDbLine
 10
8.965901684902704
 20
3.282638278919684
 30
0.0
 11
8.965901684902704
 21
3.299638278919684
 31
0.0
  0
LINE
  5
5B0
330
1F
100
AcDbEntity
  8
Object
100
AcDbLine
 10
8.845901684902704
 20
3.327638278919684
 30
0.0
 11
8.845901684902704
 21
3.299638278919684
 31
0.0
  0
LINE
  5
5B1
330
1F
100
AcDbEntity
  8
Object
100
AcDbLine
 10
8.965901684902704
 20
3.629638278919684
 30
0.0
 11
8.965901684902704
 21
3.632638278919684
 31
0.0
  0
LINE
  5
5B2
330
1F
100
AcDbEntity
  8
Object
100
AcDbLine
 10
8.965901684902704
 20
3.632638278919684
 30
0.0
 11
8.965901684902704
 21
3.636638278919684
 31
0.0
  0
LINE
  5
5B3
330
1F
100
AcDbEntity
  8
Object
100
AcDbLine
 10
8.965901684902704
 20
3.636638278919684
 30
0.0
 11
8.965901684902704
 21
3.626638278919684
 31
0.0
  0
LINE
  5
5B4
330
1F
100
AcDbEntity
  8
Object
100
AcDbLine
 10
8.965901684902704
 20
3.626638278919684
 30
0.0
 11
8.965901684902704
 21
3.629638278919684
 31
0.0
  0
LINE
  5
5B5
330
1F
100
AcDbEntity
  8
Object
100
AcDbLine
 10
8.965901684902704
 20
4.786638278919683
 30
0.0
 11
8.958901684902704
 21
4.832638278919684
 31
0.0
  0
LINE
  5
5B6
330
1F
100
AcDbEntity
  8
Object
100
AcDbLine
 10
8.958901684902704
 20
4.832638278919684
 30
0.0
 11
8.936901684902704
 21
4.874638278919684
 31
0.0
  0
LINE
  5
5B7
330
1F
100
AcDbEntity
  8
Object
100
AcDbLine
 10
8.936901684902704
 20
4.874638278919684
 30
0.0
 11
8.903901684902704
 21
4.907638278919684
 31
0.0
  0
LINE
  5
5B8
330
1F
100
AcDbEntity
  8
Object
100
AcDbLine
 10
8.903901684902704
 20
4.907638278919684
 30
0.0
 11
8.861901684902704
 21
4.928638278919684
 31
0.0
  0
LINE
  5
5B9
330
1F
100
AcDbEntity
  8
Object
100
AcDbLine
 10
8.861901684902704
 20
4.928638278919684
 30
0.0
 11
8.815901684902703
 21
4.936638278919684
 31
0.0
  0
LINE
  5
5BA
330
1F
100
AcDbEntity
  8
Object
100
AcDbLine
 10
8.965901684902704
 20
3.401638278919683
 30
0.0
 11
8.965901684902704
 21
3.626638278919684
 31
0.0
  0
LINE
  5
5BB
330
1F
100
AcDbEntity
  8
Object
100
AcDbLine
 10
8.845901684902704
 20
3.490638278919684
 30
0.0
 11
8.845901684902704
 21
3.401638278919683
 31
0.0
  0
LINE
  5
5BC
330
1F
100
AcDbEntity
  8
Object
100
AcDbLine
 10
8.845901684902704
 20
4.786638278919683
 30
0.0
 11
8.965901684902704
 21
4.786638278919683
 31
0.0
  0
LINE
  5
5BD
330
1F
100
AcDbEntity
  8
Object
100
AcDbLine
 10
8.965901684902704
 20
4.786638278919683
 30
0.0
 11
8.965901684902704
 21
3.636638278919684
 31
0.0
  0
LINE
  5
5BE
330
1F
100
AcDbEntity
  8
Object
100
AcDbLine
 10
8.965901684902704
 20
3.636638278919684
 30
0.0
 11
8.845901684902704
 21
3.636638278919684
 31
0.0
  0
LINE
  5
5BF
330
1F
100
AcDbEntity
  8
Object
100
AcDbLine
 10
8.845901684902704
 20
3.636638278919684
 30
0.0
 11
8.845901684902704
 21
4.786638278919683
 31
0.0
  0
LINE
  5
5C0
330
1F
100
AcDbEntity
  8
Object
100
AcDbLine
 10
8.845901684902704
 20
4.786638278919683
 30
0.0
 11
8.845901684902704
 21
3.636638278919684
 31
0.0
  0
LINE
  5
5C1
330
1F
100
AcDbEntity
  8
Object
100
AcDbLine
 10
8.845901684902704
 20
3.490638278919684
 30
0.0
 11
8.845901684902704
 21
3.401638278919683
 31
0.0
  0
LINE
  5
5C2
330
1F
100
AcDbEntity
  8
Object
100
AcDbLine
 10
8.845901684902704
 20
3.327638278919684
 30
0.0
 11
8.845901684902704
 21
3.362638278919684
 31
0.0
  0
LINE
  5
5C3
330
1F
100
AcDbEntity
  8
Object
100
AcDbLine
 10
8.845901684902704
 20
3.362638278919684
 30
0.0
 11
8.845901684902704
 21
3.401638278919683
 31
0.0
  0
LINE
  5
5C4
330
1F
100
AcDbEntity
  8
Object
100
AcDbLine
 10
8.845901684902704
 20
3.327638278919684
 30
0.0
 11
8.845901684902704
 21
3.299638278919684
 31
0.0
  0
LINE
  5
5C5
330
1F
100
AcDbEntity
  8
Object
100
AcDbLine
 10
8.845901684902704
 20
3.299638278919684
 30
0.0
 11
8.845901684902704
 21
3.282638278919684
 31
0.0
  0
LINE
  5
5C6
330
1F
100
AcDbEntity
  8
Object
100
AcDbLine
 10
8.845901684902704
 20
3.282638278919684
 30
0.0
 11
8.845901684902704
 21
3.276638278919683
 31
0.0
  0
LINE
  5
5C7
330
1F
100
AcDbEntity
  8
Object
100
AcDbLine
 10
8.958901684902704
 20
3.589638278919684
 30
0.0
 11
8.965901684902704
 21
3.636638278919684
 31
0.0
  0
LINE
  5
5C8
330
1F
100
AcDbEntity
  8
Object
100
AcDbLine
 10
8.845901684902704
 20
3.636638278919684
 30
0.0
 11
8.841901684902705
 21
3.621638278919684
 31
0.0
  0
LINE
  5
5C9
330
1F
100
AcDbEntity
  8
Object
100
AcDbLine
 10
8.936901684902704
 20
3.547638278919684
 30
0.0
 11
8.958901684902704
 21
3.589638278919684
 31
0.0
  0
LINE
  5
5CA
330
1F
100
AcDbEntity
  8
Object
100
AcDbLine
 10
8.841901684902705
 20
3.621638278919684
 30
0.0
 11
8.830901684902704
 21
3.610638278919684
 31
0.0
  0
LINE
  5
5CB
330
1F
100
AcDbEntity
  8
Object
100
AcDbLine
 10
8.936901684902704
 20
3.547638278919684
 30
0.0
 11
8.903901684902704
 21
3.514638278919684
 31
0.0
  0
LINE
  5
5CC
330
1F
100
AcDbEntity
  8
Object
100
AcDbLine
 10
8.903901684902704
 20
3.514638278919684
 30
0.0
 11
8.861901684902704
 21
3.493638278919684
 31
0.0
  0
LINE
  5
5CD
330
1F
100
AcDbEntity
  8
Object
100
AcDbLine
 10
8.830901684902704
 20
3.610638278919684
 30
0.0
 11
8.815901684902703
 21
3.606638278919684
 31
0.0
  0
LINE
  5
5CE
330
1F
100
AcDbEntity
  8
Object
100
AcDbLine
 10
8.815901684902703
 20
3.486638278919683
 30
0.0
 11
8.575901684902705
 21
3.486638278919683
 31
0.0
  0
LINE
  5
5CF
330
1F
100
AcDbEntity
  8
Object
100
AcDbLine
 10
8.575901684902705
 20
3.486638278919683
 30
0.0
 11
8.560901684902704
 21
3.486638278919683
 31
0.0
  0
LINE
  5
5D0
330
1F
100
AcDbEntity
  8
Object
100
AcDbLine
 10
8.560901684902704
 20
3.486638278919683
 30
0.0
 11
8.549901684902703
 21
3.486638278919683
 31
0.0
  0
LINE
  5
5D1
330
1F
100
AcDbEntity
  8
Object
100
AcDbLine
 10
8.549901684902703
 20
3.486638278919683
 30
0.0
 11
8.545901684902704
 21
3.486638278919683
 31
0.0
  0
LINE
  5
5D2
330
1F
100
AcDbEntity
  8
Object
100
AcDbLine
 10
8.965901684902704
 20
4.786638278919683
 30
0.0
 11
8.958901684902704
 21
4.832638278919684
 31
0.0
  0
LINE
  5
5D3
330
1F
100
AcDbEntity
  8
Object
100
AcDbLine
 10
8.903901684902704
 20
4.907638278919684
 30
0.0
 11
8.936901684902704
 21
4.874638278919684
 31
0.0
  0
LINE
  5
5D4
330
1F
100
AcDbEntity
  8
Object
100
AcDbLine
 10
8.936901684902704
 20
4.874638278919684
 30
0.0
 11
8.958901684902704
 21
4.832638278919684
 31
0.0
  0
LINE
  5
5D5
330
1F
100
AcDbEntity
  8
Object
100
AcDbLine
 10
8.841901684902705
 20
4.801638278919684
 30
0.0
 11
8.845901684902704
 21
4.786638278919683
 31
0.0
  0
LINE
  5
5D6
330
1F
100
AcDbEntity
  8
Object
100
AcDbLine
 10
8.903901684902704
 20
4.907638278919684
 30
0.0
 11
8.861901684902704
 21
4.928638278919684
 31
0.0
  0
LINE
  5
5D7
330
1F
100
AcDbEntity
  8
Object
100
AcDbLine
 10
8.841901684902705
 20
4.801638278919684
 30
0.0
 11
8.830901684902704
 21
4.811638278919684
 31
0.0
  0
LINE
  5
5D8
330
1F
100
AcDbEntity
  8
Object
100
AcDbLine
 10
8.830901684902704
 20
4.811638278919684
 30
0.0
 11
8.815901684902703
 21
4.816638278919684
 31
0.0
  0
LINE
  5
5D9
330
1F
100
AcDbEntity
  8
Object
100
AcDbLine
 10
8.861901684902704
 20
4.928638278919684
 30
0.0
 11
8.815901684902703
 21
4.936638278919684
 31
0.0
  0
LINE
  5
5DA
330
1F
100
AcDbEntity
  8
Object
100
AcDbLine
 10
8.815901684902703
 20
4.936638278919684
 30
0.0
 11
7.415901684902704
 21
4.936638278919684
 31
0.0
  0
LINE
  5
5DB
330
1F
100
AcDbEntity
  8
Object
100
AcDbLine
 10
8.845901684902704
 20
4.786638278919683
 30
0.0
 11
8.841901684902705
 21
4.801638278919684
 31
0.0
  0
LINE
  5
5DC
330
1F
100
AcDbEntity
  8
Object
100
AcDbLine
 10
8.841901684902705
 20
4.801638278919684
 30
0.0
 11
8.830901684902704
 21
4.811638278919684
 31
0.0
  0
LINE
  5
5DD
330
1F
100
AcDbEntity
  8
Object
100
AcDbLine
 10
8.830901684902704
 20
4.811638278919684
 30
0.0
 11
8.815901684902703
 21
4.816638278919684
 31
0.0
  0
LINE
  5
5DE
330
1F
100
AcDbEntity
  8
Object
100
AcDbLine
 10
7.265901684902704
 20
4.121638278919684
 30
0.0
 11
7.265901684902704
 21
4.106638278919684
 31
0.0
  0
LINE
  5
5DF
330
1F
100
AcDbEntity
  8
Object
100
AcDbLine
 10
7.265901684902704
 20
3.640638278919684
 30
0.0
 11
7.265901684902704
 21
3.636638278919684
 31
0.0
  0
LINE
  5
5E0
330
1F
100
AcDbEntity
  8
Object
100
AcDbLine
 10
7.265901684902704
 20
4.376638278919683
 30
0.0
 11
7.265901684902704
 21
4.371638278919684
 31
0.0
  0
LINE
  5
5E1
330
1F
100
AcDbEntity
  8
Object
100
AcDbLine
 10
7.265901684902704
 20
4.786638278919683
 30
0.0
 11
7.265901684902704
 21
4.406638278919684
 31
0.0
  0
LINE
  5
5E2
330
1F
100
AcDbEntity
  8
Object
100
AcDbLine
 10
7.265901684902704
 20
4.406638278919684
 30
0.0
 11
7.265901684902704
 21
4.391638278919684
 31
0.0
  0
LINE
  5
5E3
330
1F
100
AcDbEntity
  8
Object
100
AcDbLine
 10
7.265901684902704
 20
4.391638278919684
 30
0.0
 11
7.265901684902704
 21
4.380638278919684
 31
0.0
  0
LINE
  5
5E4
330
1F
100
AcDbEntity
  8
Object
100
AcDbLine
 10
7.265901684902704
 20
4.380638278919684
 30
0.0
 11
7.265901684902704
 21
4.376638278919683
 31
0.0
  0
LINE
  5
5E5
330
1F
100
AcDbEntity
  8
Object
100
AcDbLine
 10
7.265901684902704
 20
4.371638278919684
 30
0.0
 11
7.265901684902704
 21
4.361638278919684
 31
0.0
  0
LINE
  5
5E6
330
1F
100
AcDbEntity
  8
Object
100
AcDbLine
 10
7.265901684902704
 20
4.361638278919684
 30
0.0
 11
7.265901684902704
 21
4.346638278919684
 31
0.0
  0
LINE
  5
5E7
330
1F
100
AcDbEntity
  8
Object
100
AcDbLine
 10
7.265901684902704
 20
4.346638278919684
 30
0.0
 11
7.265901684902704
 21
4.166638278919684
 31
0.0
  0
LINE
  5
5E8
330
1F
100
AcDbEntity
  8
Object
100
AcDbLine
 10
7.265901684902704
 20
3.876638278919684
 30
0.0
 11
7.265901684902704
 21
3.871638278919684
 31
0.0
  0
LINE
  5
5E9
330
1F
100
AcDbEntity
  8
Object
100
AcDbLine
 10
7.265901684902704
 20
4.140638278919684
 30
0.0
 11
7.265901684902704
 21
4.136638278919684
 31
0.0
  0
LINE
  5
5EA
330
1F
100
AcDbEntity
  8
Object
100
AcDbLine
 10
7.265901684902704
 20
4.136638278919684
 30
0.0
 11
7.265901684902704
 21
4.131638278919684
 31
0.0
  0
LINE
  5
5EB
330
1F
100
AcDbEntity
  8
Object
100
AcDbLine
 10
7.265901684902704
 20
4.131638278919684
 30
0.0
 11
7.265901684902704
 21
4.121638278919684
 31
0.0
  0
LINE
  5
5EC
330
1F
100
AcDbEntity
  8
Object
100
AcDbLine
 10
7.265901684902704
 20
4.106638278919684
 30
0.0
 11
7.265901684902704
 21
3.906638278919684
 31
0.0
  0
LINE
  5
5ED
330
1F
100
AcDbEntity
  8
Object
100
AcDbLine
 10
7.265901684902704
 20
3.906638278919684
 30
0.0
 11
7.265901684902704
 21
3.891638278919684
 31
0.0
  0
LINE
  5
5EE
330
1F
100
AcDbEntity
  8
Object
100
AcDbLine
 10
7.265901684902704
 20
3.891638278919684
 30
0.0
 11
7.265901684902704
 21
3.880638278919684
 31
0.0
  0
LINE
  5
5EF
330
1F
100
AcDbEntity
  8
Object
100
AcDbLine
 10
7.265901684902704
 20
3.880638278919684
 30
0.0
 11
7.265901684902704
 21
3.876638278919684
 31
0.0
  0
LINE
  5
5F0
330
1F
100
AcDbEntity
  8
Object
100
AcDbLine
 10
7.265901684902704
 20
4.151638278919683
 30
0.0
 11
7.265901684902704
 21
4.140638278919684
 31
0.0
  0
LINE
  5
5F1
330
1F
100
AcDbEntity
  8
Object
100
AcDbLine
 10
7.265901684902704
 20
3.871638278919684
 30
0.0
 11
7.265901684902704
 21
3.861638278919683
 31
0.0
  0
LINE
  5
5F2
330
1F
100
AcDbEntity
  8
Object
100
AcDbLine
 10
7.265901684902704
 20
3.621638278919684
 30
0.0
 11
7.265901684902704
 21
3.632638278919684
 31
0.0
  0
LINE
  5
5F3
330
1F
100
AcDbEntity
  8
Object
100
AcDbLine
 10
7.265901684902704
 20
3.632638278919684
 30
0.0
 11
7.265901684902704
 21
3.636638278919684
 31
0.0
  0
LINE
  5
5F4
330
1F
100
AcDbEntity
  8
Object
100
AcDbLine
 10
7.265901684902704
 20
3.621638278919684
 30
0.0
 11
7.265901684902704
 21
3.606638278919684
 31
0.0
  0
LINE
  5
5F5
330
1F
100
AcDbEntity
  8
Object
100
AcDbLine
 10
7.265901684902704
 20
3.606638278919684
 30
0.0
 11
7.265901684902704
 21
3.401638278919683
 31
0.0
  0
LINE
  5
5F6
330
1F
100
AcDbEntity
  8
Object
100
AcDbLine
 10
7.265901684902704
 20
3.401638278919683
 30
0.0
 11
7.265901684902704
 21
3.362638278919684
 31
0.0
  0
LINE
  5
5F7
330
1F
100
AcDbEntity
  8
Object
100
AcDbLine
 10
7.265901684902704
 20
3.362638278919684
 30
0.0
 11
7.265901684902704
 21
3.327638278919684
 31
0.0
  0
LINE
  5
5F8
330
1F
100
AcDbEntity
  8
Object
100
AcDbLine
 10
7.265901684902704
 20
3.327638278919684
 30
0.0
 11
7.265901684902704
 21
3.299638278919684
 31
0.0
  0
LINE
  5
5F9
330
1F
100
AcDbEntity
  8
Object
100
AcDbLine
 10
7.265901684902704
 20
3.299638278919684
 30
0.0
 11
7.265901684902704
 21
3.282638278919684
 31
0.0
  0
LINE
  5
5FA
330
1F
100
AcDbEntity
  8
Object
100
AcDbLine
 10
7.265901684902704
 20
3.282638278919684
 30
0.0
 11
7.265901684902704
 21
3.276638278919683
 31
0.0
  0
LINE
  5
5FB
330
1F
100
AcDbEntity
  8
Object
100
AcDbLine
 10
7.265901684902704
 20
3.651638278919683
 30
0.0
 11
7.265901684902704
 21
3.640638278919684
 31
0.0
  0
LINE
  5
5FC
330
1F
100
AcDbEntity
  8
Object
100
AcDbLine
 10
7.265901684902704
 20
4.166638278919684
 30
0.0
 11
7.265901684902704
 21
4.151638278919683
 31
0.0
  0
LINE
  5
5FD
330
1F
100
AcDbEntity
  8
Object
100
AcDbLine
 10
7.265901684902704
 20
3.861638278919683
 30
0.0
 11
7.265901684902704
 21
3.846638278919684
 31
0.0
  0
LINE
  5
5FE
330
1F
100
AcDbEntity
  8
Object
100
AcDbLine
 10
7.265901684902704
 20
3.846638278919684
 30
0.0
 11
7.265901684902704
 21
3.666638278919684
 31
0.0
  0
LINE
  5
5FF
330
1F
100
AcDbEntity
  8
Object
100
AcDbLine
 10
7.265901684902704
 20
3.666638278919684
 30
0.0
 11
7.265901684902704
 21
3.651638278919683
 31
0.0
  0
LINE
  5
600
330
1F
100
AcDbEntity
  8
Object
100
AcDbLine
 10
7.385901684902703
 20
3.299638278919684
 30
0.0
 11
7.385901684902703
 21
3.327638278919684
 31
0.0
  0
LINE
  5
601
330
1F
100
AcDbEntity
  8
Object
100
AcDbLine
 10
7.385901684902703
 20
3.891638278919684
 30
0.0
 11
7.385901684902703
 21
3.906638278919684
 31
0.0
  0
LINE
  5
602
330
1F
100
AcDbEntity
  8
Object
100
AcDbLine
 10
7.385901684902703
 20
3.651638278919683
 30
0.0
 11
7.385901684902703
 21
3.666638278919684
 31
0.0
  0
LINE
  5
603
330
1F
100
AcDbEntity
  8
Object
100
AcDbLine
 10
7.385901684902703
 20
3.276638278919683
 30
0.0
 11
7.385901684902703
 21
3.282638278919684
 31
0.0
  0
LINE
  5
604
330
1F
100
AcDbEntity
  8
Object
100
AcDbLine
 10
7.385901684902703
 20
3.282638278919684
 30
0.0
 11
7.385901684902703
 21
3.299638278919684
 31
0.0
  0
LINE
  5
605
330
1F
100
AcDbEntity
  8
Object
100
AcDbLine
 10
7.385901684902703
 20
3.327638278919684
 30
0.0
 11
7.385901684902703
 21
3.362638278919684
 31
0.0
  0
LINE
  5
606
330
1F
100
AcDbEntity
  8
Object
100
AcDbLine
 10
7.385901684902703
 20
3.362638278919684
 30
0.0
 11
7.385901684902703
 21
3.401638278919683
 31
0.0
  0
LINE
  5
607
330
1F
100
AcDbEntity
  8
Object
100
AcDbLine
 10
7.385901684902703
 20
3.636638278919684
 30
0.0
 11
7.385901684902703
 21
3.640638278919684
 31
0.0
  0
LINE
  5
608
330
1F
100
AcDbEntity
  8
Object
100
AcDbLine
 10
7.385901684902703
 20
3.401638278919683
 30
0.0
 11
7.385901684902703
 21
3.606638278919684
 31
0.0
  0
LINE
  5
609
330
1F
100
AcDbEntity
  8
Object
100
AcDbLine
 10
7.385901684902703
 20
3.606638278919684
 30
0.0
 11
7.385901684902703
 21
3.621638278919684
 31
0.0
  0
LINE
  5
60A
330
1F
100
AcDbEntity
  8
Object
100
AcDbLine
 10
7.385901684902703
 20
3.621638278919684
 30
0.0
 11
7.385901684902703
 21
3.632638278919684
 31
0.0
  0
LINE
  5
60B
330
1F
100
AcDbEntity
  8
Object
100
AcDbLine
 10
7.385901684902703
 20
3.632638278919684
 30
0.0
 11
7.385901684902703
 21
3.636638278919684
 31
0.0
  0
LINE
  5
60C
330
1F
100
AcDbEntity
  8
Object
100
AcDbLine
 10
7.385901684902703
 20
3.640638278919684
 30
0.0
 11
7.385901684902703
 21
3.651638278919683
 31
0.0
  0
LINE
  5
60D
330
1F
100
AcDbEntity
  8
Object
100
AcDbLine
 10
7.385901684902703
 20
3.666638278919684
 30
0.0
 11
7.385901684902703
 21
3.846638278919684
 31
0.0
  0
LINE
  5
60E
330
1F
100
AcDbEntity
  8
Object
100
AcDbLine
 10
7.385901684902703
 20
3.846638278919684
 30
0.0
 11
7.385901684902703
 21
3.861638278919683
 31
0.0
  0
LINE
  5
60F
330
1F
100
AcDbEntity
  8
Object
100
AcDbLine
 10
7.385901684902703
 20
4.151638278919683
 30
0.0
 11
7.385901684902703
 21
4.166638278919684
 31
0.0
  0
LINE
  5
610
330
1F
100
AcDbEntity
  8
Object
100
AcDbLine
 10
7.385901684902703
 20
3.861638278919683
 30
0.0
 11
7.385901684902703
 21
3.871638278919684
 31
0.0
  0
LINE
  5
611
330
1F
100
AcDbEntity
  8
Object
100
AcDbLine
 10
7.385901684902703
 20
4.136638278919684
 30
0.0
 11
7.385901684902703
 21
4.140638278919684
 31
0.0
  0
LINE
  5
612
330
1F
100
AcDbEntity
  8
Object
100
AcDbLine
 10
7.385901684902703
 20
3.876638278919684
 30
0.0
 11
7.385901684902703
 21
3.880638278919684
 31
0.0
  0
LINE
  5
613
330
1F
100
AcDbEntity
  8
Object
100
AcDbLine
 10
7.385901684902703
 20
3.880638278919684
 30
0.0
 11
7.385901684902703
 21
3.891638278919684
 31
0.0
  0
LINE
  5
614
330
1F
100
AcDbEntity
  8
Object
100
AcDbLine
 10
7.385901684902703
 20
3.906638278919684
 30
0.0
 11
7.385901684902703
 21
4.106638278919684
 31
0.0
  0
LINE
  5
615
330
1F
100
AcDbEntity
  8
Object
100
AcDbLine
 10
7.385901684902703
 20
4.106638278919684
 30
0.0
 11
7.385901684902703
 21
4.121638278919684
 31
0.0
  0
LINE
  5
616
330
1F
100
AcDbEntity
  8
Object
100
AcDbLine
 10
7.385901684902703
 20
4.121638278919684
 30
0.0
 11
7.385901684902703
 21
4.131638278919684
 31
0.0
  0
LINE
  5
617
330
1F
100
AcDbEntity
  8
Object
100
AcDbLine
 10
7.385901684902703
 20
4.131638278919684
 30
0.0
 11
7.385901684902703
 21
4.136638278919684
 31
0.0
  0
LINE
  5
618
330
1F
100
AcDbEntity
  8
Object
100
AcDbLine
 10
7.385901684902703
 20
3.871638278919684
 30
0.0
 11
7.385901684902703
 21
3.876638278919684
 31
0.0
  0
LINE
  5
619
330
1F
100
AcDbEntity
  8
Object
100
AcDbLine
 10
7.385901684902703
 20
4.140638278919684
 30
0.0
 11
7.385901684902703
 21
4.151638278919683
 31
0.0
  0
LINE
  5
61A
330
1F
100
AcDbEntity
  8
Object
100
AcDbLine
 10
7.385901684902703
 20
4.166638278919684
 30
0.0
 11
7.385901684902703
 21
4.346638278919684
 31
0.0
  0
LINE
  5
61B
330
1F
100
AcDbEntity
  8
Object
100
AcDbLine
 10
7.385901684902703
 20
4.346638278919684
 30
0.0
 11
7.385901684902703
 21
4.361638278919684
 31
0.0
  0
LINE
  5
61C
330
1F
100
AcDbEntity
  8
Object
100
AcDbLine
 10
7.385901684902703
 20
4.361638278919684
 30
0.0
 11
7.385901684902703
 21
4.371638278919684
 31
0.0
  0
LINE
  5
61D
330
1F
100
AcDbEntity
  8
Object
100
AcDbLine
 10
7.385901684902703
 20
4.371638278919684
 30
0.0
 11
7.385901684902703
 21
4.376638278919683
 31
0.0
  0
LINE
  5
61E
330
1F
100
AcDbEntity
  8
Object
100
AcDbLine
 10
7.385901684902703
 20
4.391638278919684
 30
0.0
 11
7.385901684902703
 21
4.406638278919684
 31
0.0
  0
LINE
  5
61F
330
1F
100
AcDbEntity
  8
Object
100
AcDbLine
 10
7.385901684902703
 20
4.376638278919683
 30
0.0
 11
7.385901684902703
 21
4.380638278919684
 31
0.0
  0
LINE
  5
620
330
1F
100
AcDbEntity
  8
Object
100
AcDbLine
 10
7.385901684902703
 20
4.380638278919684
 30
0.0
 11
7.385901684902703
 21
4.391638278919684
 31
0.0
  0
LINE
  5
621
330
1F
100
AcDbEntity
  8
Object
100
AcDbLine
 10
7.385901684902703
 20
4.406638278919684
 30
0.0
 11
7.385901684902703
 21
4.786638278919683
 31
0.0
  0
LINE
  5
622
330
1F
100
AcDbEntity
  8
Object
100
AcDbLine
 10
7.415901684902704
 20
4.816638278919684
 30
0.0
 11
7.400901684902704
 21
4.811638278919684
 31
0.0
  0
LINE
  5
623
330
1F
100
AcDbEntity
  8
Object
100
AcDbLine
 10
7.400901684902704
 20
4.811638278919684
 30
0.0
 11
7.389901684902704
 21
4.801638278919684
 31
0.0
  0
LINE
  5
624
330
1F
100
AcDbEntity
  8
Object
100
AcDbLine
 10
7.389901684902704
 20
4.801638278919684
 30
0.0
 11
7.385901684902703
 21
4.786638278919683
 31
0.0
  0
LINE
  5
625
330
1F
100
AcDbEntity
  8
Object
100
AcDbLine
 10
7.415901684902704
 20
4.936638278919684
 30
0.0
 11
7.368901684902704
 21
4.928638278919684
 31
0.0
  0
LINE
  5
626
330
1F
100
AcDbEntity
  8
Object
100
AcDbLine
 10
7.368901684902704
 20
4.928638278919684
 30
0.0
 11
7.327901684902704
 21
4.907638278919684
 31
0.0
  0
LINE
  5
627
330
1F
100
AcDbEntity
  8
Object
100
AcDbLine
 10
7.327901684902704
 20
4.907638278919684
 30
0.0
 11
7.293901684902704
 21
4.874638278919684
 31
0.0
  0
LINE
  5
628
330
1F
100
AcDbEntity
  8
Object
100
AcDbLine
 10
7.293901684902704
 20
4.874638278919684
 30
0.0
 11
7.272901684902704
 21
4.832638278919684
 31
0.0
  0
LINE
  5
629
330
1F
100
AcDbEntity
  8
Object
100
AcDbLine
 10
7.272901684902704
 20
4.832638278919684
 30
0.0
 11
7.265901684902704
 21
4.786638278919683
 31
0.0
  0
LINE
  5
62A
330
1F
100
AcDbEntity
  8
Object
100
AcDbLine
 10
8.845901684902704
 20
3.636638278919684
 30
0.0
 11
8.841901684902705
 21
3.621638278919684
 31
0.0
  0
LINE
  5
62B
330
1F
100
AcDbEntity
  8
Object
100
AcDbLine
 10
8.841901684902705
 20
3.621638278919684
 30
0.0
 11
8.830901684902704
 21
3.610638278919684
 31
0.0
  0
LINE
  5
62C
330
1F
100
AcDbEntity
  8
Object
100
AcDbLine
 10
8.830901684902704
 20
3.610638278919684
 30
0.0
 11
8.815901684902703
 21
3.606638278919684
 31
0.0
  0
LINE
  5
62D
330
1F
100
AcDbEntity
  8
Object
100
AcDbLine
 10
8.815901684902703
 20
3.606638278919684
 30
0.0
 11
8.815901684902703
 21
3.486638278919683
 31
0.0
  0
LINE
  5
62E
330
1F
100
AcDbEntity
  8
Object
100
AcDbLine
 10
8.815901684902703
 20
3.486638278919683
 30
0.0
 11
8.575901684902705
 21
3.486638278919683
 31
0.0
  0
LINE
  5
62F
330
1F
100
AcDbEntity
  8
Object
100
AcDbLine
 10
8.815901684902703
 20
3.606638278919684
 30
0.0
 11
8.575901684902705
 21
3.606638278919684
 31
0.0
  0
LINE
  5
630
330
1F
100
AcDbEntity
  8
Object
100
AcDbLine
 10
8.575901684902705
 20
3.606638278919684
 30
0.0
 11
8.560901684902704
 21
3.606638278919684
 31
0.0
  0
LINE
  5
631
330
1F
100
AcDbEntity
  8
Object
100
AcDbLine
 10
8.575901684902705
 20
3.606638278919684
 30
0.0
 11
8.575901684902705
 21
3.486638278919683
 31
0.0
  0
LINE
  5
632
330
1F
100
AcDbEntity
  8
Object
100
AcDbLine
 10
8.575901684902705
 20
3.486638278919683
 30
0.0
 11
8.560901684902704
 21
3.486638278919683
 31
0.0
  0
LINE
  5
633
330
1F
100
AcDbEntity
  8
Object
100
AcDbLine
 10
8.560901684902704
 20
3.486638278919683
 30
0.0
 11
8.549901684902703
 21
3.486638278919683
 31
0.0
  0
LINE
  5
634
330
1F
100
AcDbEntity
  8
Object
100
AcDbLine
 10
8.560901684902704
 20
3.606638278919684
 30
0.0
 11
8.549901684902703
 21
3.606638278919684
 31
0.0
  0
LINE
  5
635
330
1F
100
AcDbEntity
  8
Object
100
AcDbLine
 10
8.549901684902703
 20
3.486638278919683
 30
0.0
 11
8.545901684902704
 21
3.486638278919683
 31
0.0
  0
LINE
  5
636
330
1F
100
AcDbEntity
  8
Object
100
AcDbLine
 10
8.545901684902704
 20
3.486638278919683
 30
0.0
 11
8.545901684902704
 21
3.606638278919684
 31
0.0
  0
LINE
  5
637
330
1F
100
AcDbEntity
  8
Object
100
AcDbLine
 10
8.545901684902704
 20
3.606638278919684
 30
0.0
 11
8.549901684902703
 21
3.606638278919684
 31
0.0
  0
LINE
  5
638
330
1F
100
AcDbEntity
  8
Object
100
AcDbLine
 10
8.545901684902704
 20
3.606638278919684
 30
0.0
 11
8.545901684902704
 21
3.486638278919683
 31
0.0
  0
LINE
  5
639
330
1F
100
AcDbEntity
  8
Object
100
AcDbLine
 10
8.815901684902703
 20
4.874638278919684
 30
0.0
 11
8.815901684902703
 21
4.907638278919684
 31
0.0
  0
LINE
  5
63A
330
1F
100
AcDbEntity
  8
Object
100
AcDbLine
 10
8.815901684902703
 20
4.786638278919683
 30
0.0
 11
8.815901684902703
 21
4.832638278919684
 31
0.0
  0
LINE
  5
63B
330
1F
100
AcDbEntity
  8
Object
100
AcDbLine
 10
8.815901684902703
 20
4.832638278919684
 30
0.0
 11
8.815901684902703
 21
4.874638278919684
 31
0.0
  0
LINE
  5
63C
330
1F
100
AcDbEntity
  8
Object
100
AcDbLine
 10
8.815901684902703
 20
4.907638278919684
 30
0.0
 11
8.815901684902703
 21
4.928638278919684
 31
0.0
  0
LINE
  5
63D
330
1F
100
AcDbEntity
  8
Object
100
AcDbLine
 10
8.815901684902703
 20
4.928638278919684
 30
0.0
 11
8.815901684902703
 21
4.936638278919684
 31
0.0
  0
LINE
  5
63E
330
1F
100
AcDbEntity
  8
Object
100
AcDbLine
 10
7.415901684902704
 20
4.928638278919684
 30
0.0
 11
7.415901684902704
 21
4.907638278919684
 31
0.0
  0
LINE
  5
63F
330
1F
100
AcDbEntity
  8
Object
100
AcDbLine
 10
8.815901684902703
 20
4.874638278919684
 30
0.0
 11
8.815901684902703
 21
4.907638278919684
 31
0.0
  0
LINE
  5
640
330
1F
100
AcDbEntity
  8
Object
100
AcDbLine
 10
7.415901684902704
 20
4.874638278919684
 30
0.0
 11
7.415901684902704
 21
4.832638278919684
 31
0.0
  0
LINE
  5
641
330
1F
100
AcDbEntity
  8
Object
100
AcDbLine
 10
8.815901684902703
 20
4.832638278919684
 30
0.0
 11
8.815901684902703
 21
4.874638278919684
 31
0.0
  0
LINE
  5
642
330
1F
100
AcDbEntity
  8
Object
100
AcDbLine
 10
7.415901684902704
 20
4.907638278919684
 30
0.0
 11
7.415901684902704
 21
4.874638278919684
 31
0.0
  0
LINE
  5
643
330
1F
100
AcDbEntity
  8
Object
100
AcDbLine
 10
8.815901684902703
 20
4.907638278919684
 30
0.0
 11
8.815901684902703
 21
4.928638278919684
 31
0.0
  0
LINE
  5
644
330
1F
100
AcDbEntity
  8
Object
100
AcDbLine
 10
7.415901684902704
 20
4.928638278919684
 30
0.0
 11
7.415901684902704
 21
4.936638278919684
 31
0.0
  0
LINE
  5
645
330
1F
100
AcDbEntity
  8
Object
100
AcDbLine
 10
7.415901684902704
 20
4.936638278919684
 30
0.0
 11
8.815901684902703
 21
4.936638278919684
 31
0.0
  0
LINE
  5
646
330
1F
100
AcDbEntity
  8
Object
100
AcDbLine
 10
8.815901684902703
 20
4.936638278919684
 30
0.0
 11
8.815901684902703
 21
4.928638278919684
 31
0.0
  0
LINE
  5
647
330
1F
100
AcDbEntity
  8
Object
100
AcDbLine
 10
8.815901684902703
 20
4.786638278919683
 30
0.0
 11
8.815901684902703
 21
4.832638278919684
 31
0.0
  0
LINE
  5
648
330
1F
100
AcDbEntity
  8
Object
100
AcDbLine
 10
7.415901684902704
 20
4.832638278919684
 30
0.0
 11
7.415901684902704
 21
4.786638278919683
 31
0.0
  0
LINE
  5
649
330
1F
100
AcDbEntity
  8
Object
100
AcDbLine
 10
7.385901684902703
 20
4.136638278919684
 30
0.0
 11
7.265901684902704
 21
4.136638278919684
 31
0.0
  0
LINE
  5
64A
330
1F
100
AcDbEntity
  8
Object
100
AcDbLine
 10
7.385901684902703
 20
4.376638278919683
 30
0.0
 11
7.385901684902703
 21
4.380638278919684
 31
0.0
  0
LINE
  5
64B
330
1F
100
AcDbEntity
  8
Object
100
AcDbLine
 10
7.265901684902704
 20
4.380638278919684
 30
0.0
 11
7.265901684902704
 21
4.391638278919684
 31
0.0
  0
LINE
  5
64C
330
1F
100
AcDbEntity
  8
Object
100
AcDbLine
 10
7.265901684902704
 20
4.391638278919684
 30
0.0
 11
7.265901684902704
 21
4.406638278919684
 31
0.0
  0
LINE
  5
64D
330
1F
100
AcDbEntity
  8
Object
100
AcDbLine
 10
7.265901684902704
 20
4.406638278919684
 30
0.0
 11
7.385901684902703
 21
4.406638278919684
 31
0.0
  0
LINE
  5
64E
330
1F
100
AcDbEntity
  8
Object
100
AcDbLine
 10
7.385901684902703
 20
4.406638278919684
 30
0.0
 11
7.385901684902703
 21
4.391638278919684
 31
0.0
  0
LINE
  5
64F
330
1F
100
AcDbEntity
  8
Object
100
AcDbLine
 10
7.385901684902703
 20
4.391638278919684
 30
0.0
 11
7.385901684902703
 21
4.380638278919684
 31
0.0
  0
LINE
  5
650
330
1F
100
AcDbEntity
  8
Object
100
AcDbLine
 10
7.385901684902703
 20
4.376638278919683
 30
0.0
 11
7.265901684902704
 21
4.376638278919683
 31
0.0
  0
LINE
  5
651
330
1F
100
AcDbEntity
  8
Object
100
AcDbLine
 10
7.265901684902704
 20
4.376638278919683
 30
0.0
 11
7.265901684902704
 21
4.380638278919684
 31
0.0
  0
LINE
  5
652
330
1F
100
AcDbEntity
  8
Object
100
AcDbLine
 10
7.265901684902704
 20
4.106638278919684
 30
0.0
 11
7.385901684902703
 21
4.106638278919684
 31
0.0
  0
LINE
  5
653
330
1F
100
AcDbEntity
  8
Object
100
AcDbLine
 10
7.385901684902703
 20
4.106638278919684
 30
0.0
 11
7.385901684902703
 21
3.906638278919684
 31
0.0
  0
LINE
  5
654
330
1F
100
AcDbEntity
  8
Object
100
AcDbLine
 10
7.385901684902703
 20
3.906638278919684
 30
0.0
 11
7.265901684902704
 21
3.906638278919684
 31
0.0
  0
LINE
  5
655
330
1F
100
AcDbEntity
  8
Object
100
AcDbLine
 10
7.265901684902704
 20
3.906638278919684
 30
0.0
 11
7.265901684902704
 21
4.106638278919684
 31
0.0
  0
LINE
  5
656
330
1F
100
AcDbEntity
  8
Object
100
AcDbLine
 10
7.265901684902704
 20
3.276638278919683
 30
0.0
 11
7.385901684902703
 21
3.276638278919683
 31
0.0
  0
LINE
  5
657
330
1F
100
AcDbEntity
  8
Object
100
AcDbLine
 10
7.385901684902703
 20
3.401638278919683
 30
0.0
 11
7.385901684902703
 21
3.362638278919684
 31
0.0
  0
LINE
  5
658
330
1F
100
AcDbEntity
  8
Object
100
AcDbLine
 10
7.385901684902703
 20
3.362638278919684
 30
0.0
 11
7.385901684902703
 21
3.327638278919684
 31
0.0
  0
LINE
  5
659
330
1F
100
AcDbEntity
  8
Object
100
AcDbLine
 10
7.265901684902704
 20
3.327638278919684
 30
0.0
 11
7.265901684902704
 21
3.362638278919684
 31
0.0
  0
LINE
  5
65A
330
1F
100
AcDbEntity
  8
Object
100
AcDbLine
 10
7.265901684902704
 20
3.362638278919684
 30
0.0
 11
7.265901684902704
 21
3.401638278919683
 31
0.0
  0
LINE
  5
65B
330
1F
100
AcDbEntity
  8
Object
100
AcDbLine
 10
7.265901684902704
 20
3.401638278919683
 30
0.0
 11
7.385901684902703
 21
3.401638278919683
 31
0.0
  0
LINE
  5
65C
330
1F
100
AcDbEntity
  8
Object
100
AcDbLine
 10
7.265901684902704
 20
3.299638278919684
 30
0.0
 11
7.265901684902704
 21
3.282638278919684
 31
0.0
  0
LINE
  5
65D
330
1F
100
AcDbEntity
  8
Object
100
AcDbLine
 10
7.385901684902703
 20
3.299638278919684
 30
0.0
 11
7.385901684902703
 21
3.282638278919684
 31
0.0
  0
LINE
  5
65E
330
1F
100
AcDbEntity
  8
Object
100
AcDbLine
 10
7.385901684902703
 20
3.282638278919684
 30
0.0
 11
7.385901684902703
 21
3.276638278919683
 31
0.0
  0
LINE
  5
65F
330
1F
100
AcDbEntity
  8
Object
100
AcDbLine
 10
7.385901684902703
 20
3.276638278919683
 30
0.0
 11
7.265901684902704
 21
3.276638278919683
 31
0.0
  0
LINE
  5
660
102
{ACAD_REACTORS
330
994
102
}
330
1F
100
AcDbEntity
  8
Object
100
AcDbLine
 10
7.265901684902704
 20
3.276638278919683
 30
0.0
 11
7.265901684902704
 21
3.282638278919684
 31
0.0
  0
LINE
  5
661
330
1F
100
AcDbEntity
  8
Object
100
AcDbLine
 10
7.385901684902703
 20
3.299638278919684
 30
0.0
 11
7.385901684902703
 21
3.327638278919684
 31
0.0
  0
LINE
  5
662
330
1F
100
AcDbEntity
  8
Object
100
AcDbLine
 10
7.265901684902704
 20
3.327638278919684
 30
0.0
 11
7.265901684902704
 21
3.299638278919684
 31
0.0
  0
LINE
  5
663
330
1F
100
AcDbEntity
  8
Object
100
AcDbLine
 10
7.265901684902704
 20
3.876638278919684
 30
0.0
 11
7.385901684902703
 21
3.876638278919684
 31
0.0
  0
LINE
  5
664
330
1F
100
AcDbEntity
  8
Object
100
AcDbLine
 10
7.385901684902703
 20
4.136638278919684
 30
0.0
 11
7.385901684902703
 21
4.140638278919684
 31
0.0
  0
LINE
  5
665
330
1F
100
AcDbEntity
  8
Object
100
AcDbLine
 10
7.265901684902704
 20
4.140638278919684
 30
0.0
 11
7.265901684902704
 21
4.151638278919683
 31
0.0
  0
LINE
  5
666
330
1F
100
AcDbEntity
  8
Object
100
AcDbLine
 10
7.265901684902704
 20
4.151638278919683
 30
0.0
 11
7.265901684902704
 21
4.166638278919684
 31
0.0
  0
LINE
  5
667
330
1F
100
AcDbEntity
  8
Object
100
AcDbLine
 10
7.265901684902704
 20
4.166638278919684
 30
0.0
 11
7.385901684902703
 21
4.166638278919684
 31
0.0
  0
LINE
  5
668
330
1F
100
AcDbEntity
  8
Object
100
AcDbLine
 10
7.385901684902703
 20
4.166638278919684
 30
0.0
 11
7.385901684902703
 21
4.151638278919683
 31
0.0
  0
LINE
  5
669
330
1F
100
AcDbEntity
  8
Object
100
AcDbLine
 10
7.385901684902703
 20
4.151638278919683
 30
0.0
 11
7.385901684902703
 21
4.140638278919684
 31
0.0
  0
LINE
  5
66A
330
1F
100
AcDbEntity
  8
Object
100
AcDbLine
 10
7.265901684902704
 20
4.140638278919684
 30
0.0
 11
7.265901684902704
 21
4.136638278919684
 31
0.0
  0
LINE
  5
66B
330
1F
100
AcDbEntity
  8
Object
100
AcDbLine
 10
7.265901684902704
 20
4.786638278919683
 30
0.0
 11
7.385901684902703
 21
4.786638278919683
 31
0.0
  0
LINE
  5
66C
330
1F
100
AcDbEntity
  8
Object
100
AcDbLine
 10
7.385901684902703
 20
4.786638278919683
 30
0.0
 11
7.385901684902703
 21
4.406638278919684
 31
0.0
  0
LINE
  5
66D
330
1F
100
AcDbEntity
  8
Object
100
AcDbLine
 10
7.265901684902704
 20
4.786638278919683
 30
0.0
 11
7.265901684902704
 21
4.406638278919684
 31
0.0
  0
LINE
  5
66E
330
1F
100
AcDbEntity
  8
Object
100
AcDbLine
 10
7.385901684902703
 20
3.846638278919684
 30
0.0
 11
7.385901684902703
 21
3.666638278919684
 31
0.0
  0
LINE
  5
66F
330
1F
100
AcDbEntity
  8
Object
100
AcDbLine
 10
7.385901684902703
 20
3.666638278919684
 30
0.0
 11
7.265901684902704
 21
3.666638278919684
 31
0.0
  0
LINE
  5
670
330
1F
100
AcDbEntity
  8
Object
100
AcDbLine
 10
7.265901684902704
 20
3.666638278919684
 30
0.0
 11
7.265901684902704
 21
3.846638278919684
 31
0.0
  0
LINE
  5
671
330
1F
100
AcDbEntity
  8
Object
100
AcDbLine
 10
7.265901684902704
 20
3.846638278919684
 30
0.0
 11
7.385901684902703
 21
3.846638278919684
 31
0.0
  0
LINE
  5
672
330
1F
100
AcDbEntity
  8
Object
100
AcDbLine
 10
7.265901684902704
 20
3.606638278919684
 30
0.0
 11
7.385901684902703
 21
3.606638278919684
 31
0.0
  0
LINE
  5
673
330
1F
100
AcDbEntity
  8
Object
100
AcDbLine
 10
7.385901684902703
 20
3.606638278919684
 30
0.0
 11
7.385901684902703
 21
3.401638278919683
 31
0.0
  0
LINE
  5
674
330
1F
100
AcDbEntity
  8
Object
100
AcDbLine
 10
7.265901684902704
 20
3.606638278919684
 30
0.0
 11
7.265901684902704
 21
3.401638278919683
 31
0.0
  0
LINE
  5
675
330
1F
100
AcDbEntity
  8
Object
100
AcDbLine
 10
7.385901684902703
 20
4.346638278919684
 30
0.0
 11
7.385901684902703
 21
4.361638278919684
 31
0.0
  0
LINE
  5
676
330
1F
100
AcDbEntity
  8
Object
100
AcDbLine
 10
7.265901684902704
 20
4.361638278919684
 30
0.0
 11
7.265901684902704
 21
4.371638278919684
 31
0.0
  0
LINE
  5
677
330
1F
100
AcDbEntity
  8
Object
100
AcDbLine
 10
7.265901684902704
 20
4.371638278919684
 30
0.0
 11
7.265901684902704
 21
4.376638278919683
 31
0.0
  0
LINE
  5
678
330
1F
100
AcDbEntity
  8
Object
100
AcDbLine
 10
7.385901684902703
 20
4.376638278919683
 30
0.0
 11
7.385901684902703
 21
4.371638278919684
 31
0.0
  0
LINE
  5
679
330
1F
100
AcDbEntity
  8
Object
100
AcDbLine
 10
7.385901684902703
 20
4.371638278919684
 30
0.0
 11
7.385901684902703
 21
4.361638278919684
 31
0.0
  0
LINE
  5
67A
330
1F
100
AcDbEntity
  8
Object
100
AcDbLine
 10
7.265901684902704
 20
4.361638278919684
 30
0.0
 11
7.265901684902704
 21
4.346638278919684
 31
0.0
  0
LINE
  5
67B
330
1F
100
AcDbEntity
  8
Object
100
AcDbLine
 10
7.385901684902703
 20
3.876638278919684
 30
0.0
 11
7.385901684902703
 21
3.880638278919684
 31
0.0
  0
LINE
  5
67C
330
1F
100
AcDbEntity
  8
Object
100
AcDbLine
 10
7.265901684902704
 20
3.880638278919684
 30
0.0
 11
7.265901684902704
 21
3.891638278919684
 31
0.0
  0
LINE
  5
67D
330
1F
100
AcDbEntity
  8
Object
100
AcDbLine
 10
7.265901684902704
 20
3.891638278919684
 30
0.0
 11
7.265901684902704
 21
3.906638278919684
 31
0.0
  0
LINE
  5
67E
330
1F
100
AcDbEntity
  8
Object
100
AcDbLine
 10
7.385901684902703
 20
3.906638278919684
 30
0.0
 11
7.385901684902703
 21
3.891638278919684
 31
0.0
  0
LINE
  5
67F
330
1F
100
AcDbEntity
  8
Object
100
AcDbLine
 10
7.385901684902703
 20
3.891638278919684
 30
0.0
 11
7.385901684902703
 21
3.880638278919684
 31
0.0
  0
LINE
  5
680
330
1F
100
AcDbEntity
  8
Object
100
AcDbLine
 10
7.385901684902703
 20
3.876638278919684
 30
0.0
 11
7.265901684902704
 21
3.876638278919684
 31
0.0
  0
LINE
  5
681
330
1F
100
AcDbEntity
  8
Object
100
AcDbLine
 10
7.265901684902704
 20
3.876638278919684
 30
0.0
 11
7.265901684902704
 21
3.880638278919684
 31
0.0
  0
LINE
  5
682
330
1F
100
AcDbEntity
  8
Object
100
AcDbLine
 10
7.385901684902703
 20
3.636638278919684
 30
0.0
 11
7.265901684902704
 21
3.636638278919684
 31
0.0
  0
LINE
  5
683
330
1F
100
AcDbEntity
  8
Object
100
AcDbLine
 10
7.385901684902703
 20
4.106638278919684
 30
0.0
 11
7.385901684902703
 21
4.121638278919684
 31
0.0
  0
LINE
  5
684
330
1F
100
AcDbEntity
  8
Object
100
AcDbLine
 10
7.265901684902704
 20
4.121638278919684
 30
0.0
 11
7.265901684902704
 21
4.131638278919684
 31
0.0
  0
LINE
  5
685
330
1F
100
AcDbEntity
  8
Object
100
AcDbLine
 10
7.265901684902704
 20
4.131638278919684
 30
0.0
 11
7.265901684902704
 21
4.136638278919684
 31
0.0
  0
LINE
  5
686
330
1F
100
AcDbEntity
  8
Object
100
AcDbLine
 10
7.265901684902704
 20
4.136638278919684
 30
0.0
 11
7.385901684902703
 21
4.136638278919684
 31
0.0
  0
LINE
  5
687
330
1F
100
AcDbEntity
  8
Object
100
AcDbLine
 10
7.385901684902703
 20
4.136638278919684
 30
0.0
 11
7.385901684902703
 21
4.131638278919684
 31
0.0
  0
LINE
  5
688
330
1F
100
AcDbEntity
  8
Object
100
AcDbLine
 10
7.385901684902703
 20
4.131638278919684
 30
0.0
 11
7.385901684902703
 21
4.121638278919684
 31
0.0
  0
LINE
  5
689
330
1F
100
AcDbEntity
  8
Object
100
AcDbLine
 10
7.265901684902704
 20
4.121638278919684
 30
0.0
 11
7.265901684902704
 21
4.106638278919684
 31
0.0
  0
LINE
  5
68A
330
1F
100
AcDbEntity
  8
Object
100
AcDbLine
 10
7.265901684902704
 20
4.376638278919683
 30
0.0
 11
7.385901684902703
 21
4.376638278919683
 31
0.0
  0
LINE
  5
68B
330
1F
100
AcDbEntity
  8
Object
100
AcDbLine
 10
7.385901684902703
 20
3.846638278919684
 30
0.0
 11
7.385901684902703
 21
3.861638278919683
 31
0.0
  0
LINE
  5
68C
330
1F
100
AcDbEntity
  8
Object
100
AcDbLine
 10
7.265901684902704
 20
3.861638278919683
 30
0.0
 11
7.265901684902704
 21
3.871638278919684
 31
0.0
  0
LINE
  5
68D
330
1F
100
AcDbEntity
  8
Object
100
AcDbLine
 10
7.265901684902704
 20
3.871638278919684
 30
0.0
 11
7.265901684902704
 21
3.876638278919684
 31
0.0
  0
LINE
  5
68E
330
1F
100
AcDbEntity
  8
Object
100
AcDbLine
 10
7.385901684902703
 20
3.876638278919684
 30
0.0
 11
7.385901684902703
 21
3.871638278919684
 31
0.0
  0
LINE
  5
68F
330
1F
100
AcDbEntity
  8
Object
100
AcDbLine
 10
7.385901684902703
 20
3.871638278919684
 30
0.0
 11
7.385901684902703
 21
3.861638278919683
 31
0.0
  0
LINE
  5
690
330
1F
100
AcDbEntity
  8
Object
100
AcDbLine
 10
7.265901684902704
 20
3.861638278919683
 30
0.0
 11
7.265901684902704
 21
3.846638278919684
 31
0.0
  0
LINE
  5
691
330
1F
100
AcDbEntity
  8
Object
100
AcDbLine
 10
7.385901684902703
 20
3.636638278919684
 30
0.0
 11
7.385901684902703
 21
3.640638278919684
 31
0.0
  0
LINE
  5
692
330
1F
100
AcDbEntity
  8
Object
100
AcDbLine
 10
7.265901684902704
 20
3.640638278919684
 30
0.0
 11
7.265901684902704
 21
3.651638278919683
 31
0.0
  0
LINE
  5
693
330
1F
100
AcDbEntity
  8
Object
100
AcDbLine
 10
7.265901684902704
 20
3.651638278919683
 30
0.0
 11
7.265901684902704
 21
3.666638278919684
 31
0.0
  0
LINE
  5
694
330
1F
100
AcDbEntity
  8
Object
100
AcDbLine
 10
7.385901684902703
 20
3.666638278919684
 30
0.0
 11
7.385901684902703
 21
3.651638278919683
 31
0.0
  0
LINE
  5
695
330
1F
100
AcDbEntity
  8
Object
100
AcDbLine
 10
7.385901684902703
 20
3.651638278919683
 30
0.0
 11
7.385901684902703
 21
3.640638278919684
 31
0.0
  0
LINE
  5
696
330
1F
100
AcDbEntity
  8
Object
100
AcDbLine
 10
7.265901684902704
 20
3.640638278919684
 30
0.0
 11
7.265901684902704
 21
3.636638278919684
 31
0.0
  0
LINE
  5
697
330
1F
100
AcDbEntity
  8
Object
100
AcDbLine
 10
7.385901684902703
 20
3.606638278919684
 30
0.0
 11
7.385901684902703
 21
3.621638278919684
 31
0.0
  0
LINE
  5
698
330
1F
100
AcDbEntity
  8
Object
100
AcDbLine
 10
7.265901684902704
 20
3.621638278919684
 30
0.0
 11
7.265901684902704
 21
3.632638278919684
 31
0.0
  0
LINE
  5
699
330
1F
100
AcDbEntity
  8
Object
100
AcDbLine
 10
7.265901684902704
 20
3.632638278919684
 30
0.0
 11
7.265901684902704
 21
3.636638278919684
 31
0.0
  0
LINE
  5
69A
330
1F
100
AcDbEntity
  8
Object
100
AcDbLine
 10
7.265901684902704
 20
3.636638278919684
 30
0.0
 11
7.385901684902703
 21
3.636638278919684
 31
0.0
  0
LINE
  5
69B
330
1F
100
AcDbEntity
  8
Object
100
AcDbLine
 10
7.385901684902703
 20
3.636638278919684
 30
0.0
 11
7.385901684902703
 21
3.632638278919684
 31
0.0
  0
LINE
  5
69C
330
1F
100
AcDbEntity
  8
Object
100
AcDbLine
 10
7.385901684902703
 20
3.632638278919684
 30
0.0
 11
7.385901684902703
 21
3.621638278919684
 31
0.0
  0
LINE
  5
69D
330
1F
100
AcDbEntity
  8
Object
100
AcDbLine
 10
7.265901684902704
 20
3.621638278919684
 30
0.0
 11
7.265901684902704
 21
3.606638278919684
 31
0.0
  0
LINE
  5
69E
330
1F
100
AcDbEntity
  8
Object
100
AcDbLine
 10
7.385901684902703
 20
4.166638278919684
 30
0.0
 11
7.385901684902703
 21
4.346638278919684
 31
0.0
  0
LINE
  5
69F
330
1F
100
AcDbEntity
  8
Object
100
AcDbLine
 10
7.265901684902704
 20
4.166638278919684
 30
0.0
 11
7.265901684902704
 21
4.346638278919684
 31
0.0
  0
LINE
  5
6A0
330
1F
100
AcDbEntity
  8
Object
100
AcDbLine
 10
7.265901684902704
 20
4.346638278919684
 30
0.0
 11
7.385901684902703
 21
4.346638278919684
 31
0.0
  0
LINE
  5
6A1
330
1F
100
AcDbEntity
  8
Object
100
AcDbLine
 10
7.400901684902704
 20
4.811638278919684
 30
0.0
 11
7.415901684902704
 21
4.816638278919684
 31
0.0
  0
LINE
  5
6A2
330
1F
100
AcDbEntity
  8
Object
100
AcDbLine
 10
7.415901684902704
 20
4.936638278919684
 30
0.0
 11
7.368901684902704
 21
4.928638278919684
 31
0.0
  0
LINE
  5
6A3
330
1F
100
AcDbEntity
  8
Object
100
AcDbLine
 10
7.368901684902704
 20
4.928638278919684
 30
0.0
 11
7.327901684902704
 21
4.907638278919684
 31
0.0
  0
LINE
  5
6A4
330
1F
100
AcDbEntity
  8
Object
100
AcDbLine
 10
7.327901684902704
 20
4.907638278919684
 30
0.0
 11
7.293901684902704
 21
4.874638278919684
 31
0.0
  0
LINE
  5
6A5
330
1F
100
AcDbEntity
  8
Object
100
AcDbLine
 10
7.400901684902704
 20
4.811638278919684
 30
0.0
 11
7.389901684902704
 21
4.801638278919684
 31
0.0
  0
LINE
  5
6A6
330
1F
100
AcDbEntity
  8
Object
100
AcDbLine
 10
7.389901684902704
 20
4.801638278919684
 30
0.0
 11
7.385901684902703
 21
4.786638278919683
 31
0.0
  0
LINE
  5
6A7
330
1F
100
AcDbEntity
  8
Object
100
AcDbLine
 10
7.293901684902704
 20
4.874638278919684
 30
0.0
 11
7.272901684902704
 21
4.832638278919684
 31
0.0
  0
LINE
  5
6A8
330
1F
100
AcDbEntity
  8
Object
100
AcDbLine
 10
7.272901684902704
 20
4.832638278919684
 30
0.0
 11
7.265901684902704
 21
4.786638278919683
 31
0.0
  0
LINE
  5
6A9
330
1F
100
AcDbEntity
  8
Object
100
AcDbLine
 10
8.815901684902703
 20
3.606638278919684
 30
0.0
 11
8.575901684902705
 21
3.606638278919684
 31
0.0
  0
LINE
  5
6AA
330
1F
100
AcDbEntity
  8
Object
100
AcDbLine
 10
8.575901684902705
 20
3.606638278919684
 30
0.0
 11
8.560901684902704
 21
3.606638278919684
 31
0.0
  0
LINE
  5
6AB
330
1F
100
AcDbEntity
  8
Object
100
AcDbLine
 10
8.560901684902704
 20
3.606638278919684
 30
0.0
 11
8.549901684902703
 21
3.606638278919684
 31
0.0
  0
LINE
  5
6AC
330
1F
100
AcDbEntity
  8
Object
100
AcDbLine
 10
8.549901684902703
 20
3.606638278919684
 30
0.0
 11
8.545901684902704
 21
3.606638278919684
 31
0.0
  0
LINE
  5
6AD
330
1F
100
AcDbEntity
  8
Object
100
AcDbLine
 10
8.815901684902703
 20
4.786638278919683
 30
0.0
 11
8.815901684902703
 21
4.281638278919684
 31
0.0
  0
LINE
  5
6AE
330
1F
100
AcDbEntity
  8
Object
100
AcDbLine
 10
8.815901684902703
 20
4.281638278919684
 30
0.0
 11
8.809901684902705
 21
4.242638278919684
 31
0.0
  0
LINE
  5
6AF
330
1F
100
AcDbEntity
  8
Object
100
AcDbLine
 10
8.809901684902705
 20
4.242638278919684
 30
0.0
 11
8.791901684902704
 21
4.207638278919684
 31
0.0
  0
LINE
  5
6B0
330
1F
100
AcDbEntity
  8
Object
100
AcDbLine
 10
8.791901684902704
 20
4.207638278919684
 30
0.0
 11
8.763901684902704
 21
4.179638278919684
 31
0.0
  0
LINE
  5
6B1
330
1F
100
AcDbEntity
  8
Object
100
AcDbLine
 10
8.763901684902704
 20
4.179638278919684
 30
0.0
 11
8.729901684902705
 21
4.162638278919684
 31
0.0
  0
LINE
  5
6B2
330
1F
100
AcDbEntity
  8
Object
100
AcDbLine
 10
8.815901684902703
 20
4.281638278919684
 30
0.0
 11
8.815901684902703
 21
4.786638278919683
 31
0.0
  0
LINE
  5
6B3
330
1F
100
AcDbEntity
  8
Object
100
AcDbLine
 10
8.690901684902703
 20
4.156638278919684
 30
0.0
 11
8.729901684902705
 21
4.162638278919684
 31
0.0
  0
LINE
  5
6B4
330
1F
100
AcDbEntity
  8
Object
100
AcDbLine
 10
7.540901684902704
 20
4.156638278919684
 30
0.0
 11
7.501901684902704
 21
4.162638278919684
 31
0.0
  0
LINE
  5
6B5
330
1F
100
AcDbEntity
  8
Object
100
AcDbLine
 10
7.501901684902704
 20
4.162638278919684
 30
0.0
 11
7.466901684902704
 21
4.179638278919684
 31
0.0
  0
LINE
  5
6B6
330
1F
100
AcDbEntity
  8
Object
100
AcDbLine
 10
7.466901684902704
 20
4.179638278919684
 30
0.0
 11
7.439901684902704
 21
4.207638278919684
 31
0.0
  0
LINE
  5
6B7
330
1F
100
AcDbEntity
  8
Object
100
AcDbLine
 10
7.439901684902704
 20
4.207638278919684
 30
0.0
 11
7.421901684902704
 21
4.242638278919684
 31
0.0
  0
LINE
  5
6B8
330
1F
100
AcDbEntity
  8
Object
100
AcDbLine
 10
7.421901684902704
 20
4.242638278919684
 30
0.0
 11
7.415901684902704
 21
4.281638278919684
 31
0.0
  0
LINE
  5
6B9
330
1F
100
AcDbEntity
  8
Object
100
AcDbLine
 10
7.415901684902704
 20
4.281638278919684
 30
0.0
 11
7.415901684902704
 21
4.786638278919683
 31
0.0
  0
LINE
  5
6BA
330
1F
100
AcDbEntity
  8
Object
100
AcDbLine
 10
7.415901684902704
 20
4.786638278919683
 30
0.0
 11
8.815901684902703
 21
4.786638278919683
 31
0.0
  0
LINE
  5
6BB
330
1F
100
AcDbEntity
  8
Object
100
AcDbLine
 10
7.540901684902704
 20
4.156638278919684
 30
0.0
 11
8.690901684902703
 21
4.156638278919684
 31
0.0
  0
LINE
  5
6BC
330
1F
100
AcDbEntity
  8
Object
100
AcDbLine
 10
7.415901684902704
 20
4.907638278919684
 30
0.0
 11
7.415901684902704
 21
4.874638278919684
 31
0.0
  0
LINE
  5
6BD
330
1F
100
AcDbEntity
  8
Object
100
AcDbLine
 10
7.415901684902704
 20
4.874638278919684
 30
0.0
 11
7.415901684902704
 21
4.832638278919684
 31
0.0
  0
LINE
  5
6BE
330
1F
100
AcDbEntity
  8
Object
100
AcDbLine
 10
7.415901684902704
 20
4.832638278919684
 30
0.0
 11
7.415901684902704
 21
4.786638278919683
 31
0.0
  0
LINE
  5
6BF
330
1F
100
AcDbEntity
  8
Object
100
AcDbLine
 10
7.415901684902704
 20
4.907638278919684
 30
0.0
 11
7.415901684902704
 21
4.928638278919684
 31
0.0
  0
LINE
  5
6C0
102
{ACAD_REACTORS
330
994
102
}
330
1F
100
AcDbEntity
  8
Object
100
AcDbLine
 10
7.415901684902704
 20
4.928638278919684
 30
0.0
 11
7.415901684902704
 21
4.936638278919684
 31
0.0
  0
LINE
  5
6C1
330
1F
100
AcDbEntity
  8
Object
100
AcDbLine
 10
8.815901684902703
 20
4.281638278919684
 30
0.0
 11
8.809901684902705
 21
4.242638278919684
 31
0.0
  0
LINE
  5
6C2
330
1F
100
AcDbEntity
  8
Object
100
AcDbLine
 10
8.809901684902705
 20
4.242638278919684
 30
0.0
 11
8.791901684902704
 21
4.207638278919684
 31
0.0
  0
LINE
  5
6C3
330
1F
100
AcDbEntity
  8
Object
100
AcDbLine
 10
8.791901684902704
 20
4.207638278919684
 30
0.0
 11
8.763901684902704
 21
4.179638278919684
 31
0.0
  0
LINE
  5
6C4
330
1F
100
AcDbEntity
  8
Object
100
AcDbLine
 10
8.763901684902704
 20
4.179638278919684
 30
0.0
 11
8.729901684902705
 21
4.162638278919684
 31
0.0
  0
LINE
  5
6C5
330
1F
100
AcDbEntity
  8
Object
100
AcDbLine
 10
8.729901684902705
 20
4.162638278919684
 30
0.0
 11
8.690901684902703
 21
4.156638278919684
 31
0.0
  0
LINE
  5
6C6
330
1F
100
AcDbEntity
  8
Object
100
AcDbLine
 10
8.690901684902703
 20
4.156638278919684
 30
0.0
 11
7.540901684902704
 21
4.156638278919684
 31
0.0
  0
LINE
  5
6C7
330
1F
100
AcDbEntity
  8
Object
100
AcDbLine
 10
7.540901684902704
 20
4.156638278919684
 30
0.0
 11
7.501901684902704
 21
4.162638278919684
 31
0.0
  0
LINE
  5
6C8
330
1F
100
AcDbEntity
  8
Object
100
AcDbLine
 10
7.501901684902704
 20
4.162638278919684
 30
0.0
 11
7.466901684902704
 21
4.179638278919684
 31
0.0
  0
LINE
  5
6C9
330
1F
100
AcDbEntity
  8
Object
100
AcDbLine
 10
7.466901684902704
 20
4.179638278919684
 30
0.0
 11
7.439901684902704
 21
4.207638278919684
 31
0.0
  0
LINE
  5
6CA
330
1F
100
AcDbEntity
  8
Object
100
AcDbLine
 10
7.439901684902704
 20
4.207638278919684
 30
0.0
 11
7.421901684902704
 21
4.242638278919684
 31
0.0
  0
LINE
  5
6CB
330
1F
100
AcDbEntity
  8
Object
100
AcDbLine
 10
7.421901684902704
 20
4.242638278919684
 30
0.0
 11
7.415901684902704
 21
4.281638278919684
 31
0.0
  0
LINE
  5
6CC
330
1F
100
AcDbEntity
  8
Object
100
AcDbLine
 10
7.415901684902704
 20
4.281638278919684
 30
0.0
 11
7.415901684902704
 21
4.786638278919683
 31
0.0
  0
LINE
  5
6CD
330
1F
100
AcDbEntity
  8
Object
100
AcDbLine
 10
3.374901684902704
 20
3.636638278919684
 30
0.0
 11
3.370901684902704
 21
3.652638278919684
 31
0.0
  0
LINE
  5
6CE
330
1F
100
AcDbEntity
  8
Object
100
AcDbLine
 10
3.370901684902704
 20
3.652638278919684
 30
0.0
 11
3.354901684902704
 21
3.672638278919684
 31
0.0
  0
LINE
  5
6CF
330
1F
100
AcDbEntity
  8
Object
100
AcDbLine
 10
3.354901684902704
 20
3.672638278919684
 30
0.0
 11
3.330901684902704
 21
3.684638278919684
 31
0.0
  0
LINE
  5
6D0
330
1F
100
AcDbEntity
  8
Object
100
AcDbLine
 10
3.330901684902704
 20
3.684638278919684
 30
0.0
 11
3.316901684902704
 21
3.684638278919684
 31
0.0
  0
LINE
  5
6D1
330
1F
100
AcDbEntity
  8
Object
100
AcDbLine
 10
3.616901684902703
 20
4.106638278919684
 30
0.0
 11
3.616901684902703
 21
4.406638278919684
 31
0.0
  0
LINE
  5
6D2
330
1F
100
AcDbEntity
  8
Object
100
AcDbLine
 10
3.616901684902703
 20
3.636638278919684
 30
0.0
 11
3.616901684902703
 21
3.906638278919684
 31
0.0
  0
LINE
  5
6D3
330
1F
100
AcDbEntity
  8
Object
100
AcDbLine
 10
1.964901684902704
 20
4.928638278919684
 30
0.0
 11
1.964901684902704
 21
4.907638278919684
 31
0.0
  0
LINE
  5
6D4
330
1F
100
AcDbEntity
  8
Object
100
AcDbLine
 10
1.964901684902704
 20
4.907638278919684
 30
0.0
 11
1.964901684902704
 21
4.874638278919684
 31
0.0
  0
LINE
  5
6D5
330
1F
100
AcDbEntity
  8
Object
100
AcDbLine
 10
1.964901684902704
 20
4.832638278919684
 30
0.0
 11
1.964901684902704
 21
4.786638278919683
 31
0.0
  0
LINE
  5
6D6
330
1F
100
AcDbEntity
  8
Object
100
AcDbLine
 10
1.964901684902704
 20
4.786638278919683
 30
0.0
 11
1.964901684902704
 21
4.336638278919684
 31
0.0
  0
LINE
  5
6D7
330
1F
100
AcDbEntity
  8
Object
100
AcDbLine
 10
1.964901684902704
 20
4.874638278919684
 30
0.0
 11
1.964901684902704
 21
4.832638278919684
 31
0.0
  0
LINE
  5
6D8
330
1F
100
AcDbEntity
  8
Object
100
AcDbLine
 10
1.964901684902704
 20
4.936638278919684
 30
0.0
 11
1.964901684902704
 21
4.928638278919684
 31
0.0
  0
LINE
  5
6D9
330
1F
100
AcDbEntity
  8
Object
100
AcDbLine
 10
3.586901684902704
 20
3.636638278919684
 30
0.0
 11
3.616901684902703
 21
3.636638278919684
 31
0.0
  0
LINE
  5
6DA
330
1F
100
AcDbEntity
  8
Object
100
AcDbLine
 10
3.374901684902704
 20
3.636638278919684
 30
0.0
 11
3.370901684902704
 21
3.652638278919684
 31
0.0
  0
LINE
  5
6DB
330
1F
100
AcDbEntity
  8
Object
100
AcDbLine
 10
3.370901684902704
 20
3.652638278919684
 30
0.0
 11
3.354901684902704
 21
3.672638278919684
 31
0.0
  0
LINE
  5
6DC
330
1F
100
AcDbEntity
  8
Object
100
AcDbLine
 10
3.616901684902703
 20
4.106638278919684
 30
0.0
 11
3.616901684902703
 21
4.406638278919684
 31
0.0
  0
LINE
  5
6DD
330
1F
100
AcDbEntity
  8
Object
100
AcDbLine
 10
3.616901684902703
 20
3.636638278919684
 30
0.0
 11
3.616901684902703
 21
3.906638278919684
 31
0.0
  0
LINE
  5
6DE
330
1F
100
AcDbEntity
  8
Object
100
AcDbLine
 10
3.354901684902704
 20
3.672638278919684
 30
0.0
 11
3.330901684902704
 21
3.684638278919684
 31
0.0
  0
LINE
  5
6DF
330
1F
100
AcDbEntity
  8
Object
100
AcDbLine
 10
3.330901684902704
 20
3.684638278919684
 30
0.0
 11
3.316901684902704
 21
3.684638278919684
 31
0.0
  0
LINE
  5
6E0
330
1F
100
AcDbEntity
  8
Object
100
AcDbLine
 10
3.616901684902703
 20
3.621638278919684
 30
0.0
 11
3.616901684902703
 21
3.610638278919684
 31
0.0
  0
LINE
  5
6E1
330
1F
100
AcDbEntity
  8
Object
100
AcDbLine
 10
3.616901684902703
 20
3.610638278919684
 30
0.0
 11
3.616901684902703
 21
3.606638278919684
 31
0.0
  0
LINE
  5
6E2
330
1F
100
AcDbEntity
  8
Object
100
AcDbLine
 10
3.616901684902703
 20
3.621638278919684
 30
0.0
 11
3.616901684902703
 21
3.636638278919684
 31
0.0
  0
LINE
  5
6E3
330
1F
100
AcDbEntity
  8
Object
100
AcDbLine
 10
3.616901684902703
 20
4.936638278919684
 30
0.0
 11
1.964901684902704
 21
4.936638278919684
 31
0.0
  0
LINE
  5
6E4
330
1F
100
AcDbEntity
  8
Object
100
AcDbLine
 10
3.616901684902703
 20
4.406638278919684
 30
0.0
 11
3.612901684902704
 21
4.391638278919684
 31
0.0
  0
LINE
  5
6E5
330
1F
100
AcDbEntity
  8
Object
100
AcDbLine
 10
3.612901684902704
 20
4.391638278919684
 30
0.0
 11
3.601901684902704
 21
4.380638278919684
 31
0.0
  0
LINE
  5
6E6
330
1F
100
AcDbEntity
  8
Object
100
AcDbLine
 10
3.601901684902704
 20
4.380638278919684
 30
0.0
 11
3.586901684902704
 21
4.376638278919683
 31
0.0
  0
LINE
  5
6E7
330
1F
100
AcDbEntity
  8
Object
100
AcDbLine
 10
3.616901684902703
 20
4.106638278919684
 30
0.0
 11
3.612901684902704
 21
4.121638278919684
 31
0.0
  0
LINE
  5
6E8
330
1F
100
AcDbEntity
  8
Object
100
AcDbLine
 10
3.586901684902704
 20
4.136638278919684
 30
0.0
 11
3.601901684902704
 21
4.131638278919684
 31
0.0
  0
LINE
  5
6E9
330
1F
100
AcDbEntity
  8
Object
100
AcDbLine
 10
3.601901684902704
 20
4.131638278919684
 30
0.0
 11
3.612901684902704
 21
4.121638278919684
 31
0.0
  0
LINE
  5
6EA
330
1F
100
AcDbEntity
  8
Object
100
AcDbLine
 10
3.616901684902703
 20
4.106638278919684
 30
0.0
 11
3.616901684902703
 21
3.906638278919684
 31
0.0
  0
LINE
  5
6EB
330
1F
100
AcDbEntity
  8
Object
100
AcDbLine
 10
3.616901684902703
 20
3.906638278919684
 30
0.0
 11
3.612901684902704
 21
3.891638278919684
 31
0.0
  0
LINE
  5
6EC
330
1F
100
AcDbEntity
  8
Object
100
AcDbLine
 10
3.612901684902704
 20
3.891638278919684
 30
0.0
 11
3.601901684902704
 21
3.880638278919684
 31
0.0
  0
LINE
  5
6ED
330
1F
100
AcDbEntity
  8
Object
100
AcDbLine
 10
3.601901684902704
 20
3.880638278919684
 30
0.0
 11
3.586901684902704
 21
3.876638278919684
 31
0.0
  0
LINE
  5
6EE
330
1F
100
AcDbEntity
  8
Object
100
AcDbLine
 10
3.586901684902704
 20
3.636638278919684
 30
0.0
 11
3.601901684902704
 21
3.632638278919684
 31
0.0
  0
LINE
  5
6EF
330
1F
100
AcDbEntity
  8
Object
100
AcDbLine
 10
3.601901684902704
 20
3.632638278919684
 30
0.0
 11
3.612901684902704
 21
3.621638278919684
 31
0.0
  0
LINE
  5
6F0
330
1F
100
AcDbEntity
  8
Object
100
AcDbLine
 10
3.612901684902704
 20
3.621638278919684
 30
0.0
 11
3.616901684902703
 21
3.606638278919684
 31
0.0
  0
LINE
  5
6F1
330
1F
100
AcDbEntity
  8
Object
100
AcDbLine
 10
3.616901684902703
 20
3.606638278919684
 30
0.0
 11
3.616901684902703
 21
3.401638278919683
 31
0.0
  0
LINE
  5
6F2
330
1F
100
AcDbEntity
  8
Object
100
AcDbLine
 10
3.616901684902703
 20
3.401638278919683
 30
0.0
 11
3.610901684902704
 21
3.362638278919684
 31
0.0
  0
LINE
  5
6F3
330
1F
100
AcDbEntity
  8
Object
100
AcDbLine
 10
3.610901684902704
 20
3.362638278919684
 30
0.0
 11
3.593901684902704
 21
3.327638278919684
 31
0.0
  0
LINE
  5
6F4
330
1F
100
AcDbEntity
  8
Object
100
AcDbLine
 10
3.593901684902704
 20
3.327638278919684
 30
0.0
 11
3.565901684902703
 21
3.299638278919684
 31
0.0
  0
LINE
  5
6F5
330
1F
100
AcDbEntity
  8
Object
100
AcDbLine
 10
3.565901684902703
 20
3.299638278919684
 30
0.0
 11
3.530901684902704
 21
3.282638278919684
 31
0.0
  0
LINE
  5
6F6
330
1F
100
AcDbEntity
  8
Object
100
AcDbLine
 10
3.530901684902704
 20
3.282638278919684
 30
0.0
 11
3.491901684902703
 21
3.276638278919683
 31
0.0
  0
LINE
  5
6F7
330
1F
100
AcDbEntity
  8
Object
100
AcDbLine
 10
3.616901684902703
 20
4.406638278919684
 30
0.0
 11
3.616901684902703
 21
4.786638278919683
 31
0.0
  0
LINE
  5
6F8
330
1F
100
AcDbEntity
  8
Object
100
AcDbLine
 10
3.346901684902704
 20
4.376638278919683
 30
0.0
 11
3.586901684902704
 21
4.376638278919683
 31
0.0
  0
LINE
  5
6F9
330
1F
100
AcDbEntity
  8
Object
100
AcDbLine
 10
3.586901684902704
 20
4.136638278919684
 30
0.0
 11
3.346901684902704
 21
4.136638278919684
 31
0.0
  0
LINE
  5
6FA
330
1F
100
AcDbEntity
  8
Object
100
AcDbLine
 10
3.346901684902704
 20
3.876638278919684
 30
0.0
 11
3.586901684902704
 21
3.876638278919684
 31
0.0
  0
LINE
  5
6FB
330
1F
100
AcDbEntity
  8
Object
100
AcDbLine
 10
3.586901684902704
 20
3.636638278919684
 30
0.0
 11
3.346901684902704
 21
3.636638278919684
 31
0.0
  0
LINE
  5
6FC
330
1F
100
AcDbEntity
  8
Object
100
AcDbLine
 10
3.331901684902703
 20
4.371638278919684
 30
0.0
 11
3.346901684902704
 21
4.376638278919683
 31
0.0
  0
LINE
  5
6FD
330
1F
100
AcDbEntity
  8
Object
100
AcDbLine
 10
3.331901684902703
 20
3.871638278919684
 30
0.0
 11
3.346901684902704
 21
3.876638278919684
 31
0.0
  0
LINE
  5
6FE
330
1F
100
AcDbEntity
  8
Object
100
AcDbLine
 10
3.346901684902704
 20
4.136638278919684
 30
0.0
 11
3.331901684902703
 21
4.140638278919684
 31
0.0
  0
LINE
  5
6FF
330
1F
100
AcDbEntity
  8
Object
100
AcDbLine
 10
3.346901684902704
 20
3.636638278919684
 30
0.0
 11
3.331901684902703
 21
3.640638278919684
 31
0.0
  0
LINE
  5
700
330
1F
100
AcDbEntity
  8
Object
100
AcDbLine
 10
3.331901684902703
 20
4.140638278919684
 30
0.0
 11
3.320901684902704
 21
4.151638278919683
 31
0.0
  0
LINE
  5
701
330
1F
100
AcDbEntity
  8
Object
100
AcDbLine
 10
3.320901684902704
 20
3.861638278919683
 30
0.0
 11
3.331901684902703
 21
3.871638278919684
 31
0.0
  0
LINE
  5
702
330
1F
100
AcDbEntity
  8
Object
100
AcDbLine
 10
2.781901684902704
 20
3.276638278919683
 30
0.0
 11
3.491901684902703
 21
3.276638278919683
 31
0.0
  0
LINE
  5
703
330
1F
100
AcDbEntity
  8
Object
100
AcDbLine
 10
3.331901684902703
 20
3.640638278919684
 30
0.0
 11
3.320901684902704
 21
3.651638278919683
 31
0.0
  0
LINE
  5
704
330
1F
100
AcDbEntity
  8
Object
100
AcDbLine
 10
3.331901684902703
 20
4.371638278919684
 30
0.0
 11
3.320901684902704
 21
4.361638278919684
 31
0.0
  0
LINE
  5
705
330
1F
100
AcDbEntity
  8
Object
100
AcDbLine
 10
3.320901684902704
 20
4.361638278919684
 30
0.0
 11
3.316901684902704
 21
4.346638278919684
 31
0.0
  0
LINE
  5
706
330
1F
100
AcDbEntity
  8
Object
100
AcDbLine
 10
3.316901684902704
 20
4.346638278919684
 30
0.0
 11
3.316901684902704
 21
4.166638278919684
 31
0.0
  0
LINE
  5
707
330
1F
100
AcDbEntity
  8
Object
100
AcDbLine
 10
3.316901684902704
 20
4.166638278919684
 30
0.0
 11
3.320901684902704
 21
4.151638278919683
 31
0.0
  0
LINE
  5
708
330
1F
100
AcDbEntity
  8
Object
100
AcDbLine
 10
3.320901684902704
 20
3.861638278919683
 30
0.0
 11
3.316901684902704
 21
3.846638278919684
 31
0.0
  0
LINE
  5
709
330
1F
100
AcDbEntity
  8
Object
100
AcDbLine
 10
3.316901684902704
 20
3.846638278919684
 30
0.0
 11
3.316901684902704
 21
3.666638278919684
 31
0.0
  0
LINE
  5
70A
330
1F
100
AcDbEntity
  8
Object
100
AcDbLine
 10
3.316901684902704
 20
3.666638278919684
 30
0.0
 11
3.320901684902704
 21
3.651638278919683
 31
0.0
  0
LINE
  5
70B
330
1F
100
AcDbEntity
  8
Object
100
AcDbLine
 10
2.716901684902704
 20
3.676638278919684
 30
0.0
 11
2.716901684902704
 21
4.626638278919683
 31
0.0
  0
LINE
  5
70C
330
1F
100
AcDbEntity
  8
Object
100
AcDbLine
 10
2.716901684902704
 20
4.626638278919683
 30
0.0
 11
2.712901684902703
 21
4.641638278919684
 31
0.0
  0
LINE
  5
70D
330
1F
100
AcDbEntity
  8
Object
100
AcDbLine
 10
2.781901684902704
 20
3.276638278919683
 30
0.0
 11
2.743901684902704
 21
3.282638278919684
 31
0.0
  0
LINE
  5
70E
330
1F
100
AcDbEntity
  8
Object
100
AcDbLine
 10
2.743901684902704
 20
3.282638278919684
 30
0.0
 11
2.708901684902704
 21
3.299638278919684
 31
0.0
  0
LINE
  5
70F
330
1F
100
AcDbEntity
  8
Object
100
AcDbLine
 10
2.712901684902703
 20
4.641638278919684
 30
0.0
 11
2.701901684902704
 21
4.651638278919683
 31
0.0
  0
LINE
  5
710
330
1F
100
AcDbEntity
  8
Object
100
AcDbLine
 10
2.701901684902704
 20
4.651638278919683
 30
0.0
 11
2.686901684902704
 21
4.656638278919684
 31
0.0
  0
LINE
  5
711
330
1F
100
AcDbEntity
  8
Object
100
AcDbLine
 10
2.708901684902704
 20
3.299638278919684
 30
0.0
 11
2.680901684902703
 21
3.327638278919684
 31
0.0
  0
LINE
  5
712
330
1F
100
AcDbEntity
  8
Object
100
AcDbLine
 10
2.680901684902703
 20
3.327638278919684
 30
0.0
 11
2.662901684902704
 21
3.362638278919684
 31
0.0
  0
LINE
  5
713
330
1F
100
AcDbEntity
  8
Object
100
AcDbLine
 10
2.660901684902704
 20
3.661638278919684
 30
0.0
 11
2.671901684902704
 21
3.672638278919684
 31
0.0
  0
LINE
  5
714
330
1F
100
AcDbEntity
  8
Object
100
AcDbLine
 10
2.671901684902704
 20
3.672638278919684
 30
0.0
 11
2.686901684902704
 21
3.676638278919684
 31
0.0
  0
LINE
  5
715
330
1F
100
AcDbEntity
  8
Object
100
AcDbLine
 10
2.660901684902704
 20
3.661638278919684
 30
0.0
 11
2.656901684902704
 21
3.646638278919684
 31
0.0
  0
LINE
  5
716
330
1F
100
AcDbEntity
  8
Object
100
AcDbLine
 10
2.716901684902704
 20
3.676638278919684
 30
0.0
 11
2.686901684902704
 21
3.676638278919684
 31
0.0
  0
LINE
  5
717
330
1F
100
AcDbEntity
  8
Object
100
AcDbLine
 10
2.662901684902704
 20
3.362638278919684
 30
0.0
 11
2.656901684902704
 21
3.401638278919683
 31
0.0
  0
LINE
  5
718
330
1F
100
AcDbEntity
  8
Object
100
AcDbLine
 10
2.656901684902704
 20
3.401638278919683
 30
0.0
 11
2.656901684902704
 21
3.646638278919684
 31
0.0
  0
LINE
  5
719
330
1F
100
AcDbEntity
  8
Object
100
AcDbLine
 10
2.276901684902703
 20
4.336638278919684
 30
0.0
 11
2.272901684902704
 21
4.321638278919683
 31
0.0
  0
LINE
  5
71A
330
1F
100
AcDbEntity
  8
Object
100
AcDbLine
 10
2.272901684902704
 20
4.321638278919683
 30
0.0
 11
2.261901684902704
 21
4.310638278919684
 31
0.0
  0
LINE
  5
71B
330
1F
100
AcDbEntity
  8
Object
100
AcDbLine
 10
2.261901684902704
 20
4.310638278919684
 30
0.0
 11
2.246901684902704
 21
4.306638278919684
 31
0.0
  0
LINE
  5
71C
330
1F
100
AcDbEntity
  8
Object
100
AcDbLine
 10
1.994901684902703
 20
4.306638278919684
 30
0.0
 11
1.979901684902704
 21
4.310638278919684
 31
0.0
  0
LINE
  5
71D
330
1F
100
AcDbEntity
  8
Object
100
AcDbLine
 10
1.979901684902704
 20
4.310638278919684
 30
0.0
 11
1.968901684902704
 21
4.321638278919683
 31
0.0
  0
LINE
  5
71E
330
1F
100
AcDbEntity
  8
Object
100
AcDbLine
 10
3.616901684902703
 20
4.786638278919683
 30
0.0
 11
1.964901684902704
 21
4.786638278919683
 31
0.0
  0
LINE
  5
71F
330
1F
100
AcDbEntity
  8
Object
100
AcDbLine
 10
2.686901684902704
 20
4.656638278919684
 30
0.0
 11
2.306901684902704
 21
4.656638278919684
 31
0.0
  0
LINE
  5
720
330
1F
100
AcDbEntity
  8
Object
100
AcDbLine
 10
2.306901684902704
 20
4.656638278919684
 30
0.0
 11
2.291901684902704
 21
4.651638278919683
 31
0.0
  0
LINE
  5
721
330
1F
100
AcDbEntity
  8
Object
100
AcDbLine
 10
2.291901684902704
 20
4.651638278919683
 30
0.0
 11
2.280901684902704
 21
4.641638278919684
 31
0.0
  0
LINE
  5
722
330
1F
100
AcDbEntity
  8
Object
100
AcDbLine
 10
2.280901684902704
 20
4.641638278919684
 30
0.0
 11
2.276901684902703
 21
4.626638278919683
 31
0.0
  0
LINE
  5
723
330
1F
100
AcDbEntity
  8
Object
100
AcDbLine
 10
2.276901684902703
 20
4.626638278919683
 30
0.0
 11
2.276901684902703
 21
4.336638278919684
 31
0.0
  0
LINE
  5
724
330
1F
100
AcDbEntity
  8
Object
100
AcDbLine
 10
1.994901684902703
 20
4.306638278919684
 30
0.0
 11
2.246901684902704
 21
4.306638278919684
 31
0.0
  0
LINE
  5
725
330
1F
100
AcDbEntity
  8
Object
100
AcDbLine
 10
1.968901684902704
 20
4.321638278919683
 30
0.0
 11
1.964901684902704
 21
4.336638278919684
 31
0.0
  0
LINE
  5
726
330
1F
100
AcDbEntity
  8
Object
100
AcDbLine
 10
1.964901684902704
 20
4.336638278919684
 30
0.0
 11
1.964901684902704
 21
4.786638278919683
 31
0.0
  0
LINE
  5
727
330
1F
100
AcDbEntity
  8
Object
100
AcDbLine
 10
1.994901684902703
 20
4.306638278919684
 30
0.0
 11
1.979901684902704
 21
4.310638278919684
 31
0.0
  0
LINE
  5
728
330
1F
100
AcDbEntity
  8
Object
100
AcDbLine
 10
1.979901684902704
 20
4.310638278919684
 30
0.0
 11
1.968901684902704
 21
4.321638278919683
 31
0.0
  0
LINE
  5
729
330
1F
100
AcDbEntity
  8
Object
100
AcDbLine
 10
1.968901684902704
 20
4.321638278919683
 30
0.0
 11
1.964901684902704
 21
4.336638278919684
 31
0.0
  0
LINE
  5
72A
330
1F
100
AcDbEntity
  8
Object
100
AcDbLine
 10
1.964901684902704
 20
4.928638278919684
 30
0.0
 11
1.964901684902704
 21
4.907638278919684
 31
0.0
  0
LINE
  5
72B
330
1F
100
AcDbEntity
  8
Object
100
AcDbLine
 10
3.616901684902703
 20
4.874638278919684
 30
0.0
 11
3.616901684902703
 21
4.907638278919684
 31
0.0
  0
LINE
  5
72C
330
1F
100
AcDbEntity
  8
Object
100
AcDbLine
 10
1.964901684902704
 20
4.907638278919684
 30
0.0
 11
1.964901684902704
 21
4.874638278919684
 31
0.0
  0
LINE
  5
72D
330
1F
100
AcDbEntity
  8
Object
100
AcDbLine
 10
3.616901684902703
 20
4.907638278919684
 30
0.0
 11
3.616901684902703
 21
4.928638278919684
 31
0.0
  0
LINE
  5
72E
330
1F
100
AcDbEntity
  8
Object
100
AcDbLine
 10
1.964901684902704
 20
4.928638278919684
 30
0.0
 11
1.964901684902704
 21
4.936638278919684
 31
0.0
  0
LINE
  5
72F
102
{ACAD_REACTORS
330
966
102
}
330
1F
100
AcDbEntity
  8
Object
100
AcDbLine
 10
1.964901684902704
 20
4.936638278919684
 30
0.0
 11
3.616901684902703
 21
4.936638278919684
 31
0.0
  0
LINE
  5
730
330
1F
100
AcDbEntity
  8
Object
100
AcDbLine
 10
3.616901684902703
 20
4.936638278919684
 30
0.0
 11
3.616901684902703
 21
4.928638278919684
 31
0.0
  0
LINE
  5
731
330
1F
100
AcDbEntity
  8
Object
100
AcDbLine
 10
1.964901684902704
 20
4.874638278919684
 30
0.0
 11
1.964901684902704
 21
4.832638278919684
 31
0.0
  0
LINE
  5
732
330
1F
100
AcDbEntity
  8
Object
100
AcDbLine
 10
3.616901684902703
 20
4.786638278919683
 30
0.0
 11
3.616901684902703
 21
4.832638278919684
 31
0.0
  0
LINE
  5
733
330
1F
100
AcDbEntity
  8
Object
100
AcDbLine
 10
1.964901684902704
 20
4.832638278919684
 30
0.0
 11
1.964901684902704
 21
4.786638278919683
 31
0.0
  0
LINE
  5
734
330
1F
100
AcDbEntity
  8
Object
100
AcDbLine
 10
3.616901684902703
 20
4.832638278919684
 30
0.0
 11
3.616901684902703
 21
4.874638278919684
 31
0.0
  0
LINE
  5
735
330
1F
100
AcDbEntity
  8
Object
100
AcDbLine
 10
3.616901684902703
 20
3.606638278919684
 30
0.0
 11
3.616901684902703
 21
3.610638278919684
 31
0.0
  0
LINE
  5
736
330
1F
100
AcDbEntity
  8
Object
100
AcDbLine
 10
3.616901684902703
 20
3.610638278919684
 30
0.0
 11
3.616901684902703
 21
3.621638278919684
 31
0.0
  0
LINE
  5
737
330
1F
100
AcDbEntity
  8
Object
100
AcDbLine
 10
3.616901684902703
 20
3.621638278919684
 30
0.0
 11
3.616901684902703
 21
3.636638278919684
 31
0.0
  0
LINE
  5
738
330
1F
100
AcDbEntity
  8
Object
100
AcDbLine
 10
3.766901684902704
 20
4.786638278919683
 30
0.0
 11
3.759901684902704
 21
4.832638278919684
 31
0.0
  0
LINE
  5
739
330
1F
100
AcDbEntity
  8
Object
100
AcDbLine
 10
3.759901684902704
 20
4.832638278919684
 30
0.0
 11
3.738901684902703
 21
4.874638278919684
 31
0.0
  0
LINE
  5
73A
330
1F
100
AcDbEntity
  8
Object
100
AcDbLine
 10
3.738901684902703
 20
4.874638278919684
 30
0.0
 11
3.705901684902704
 21
4.907638278919684
 31
0.0
  0
LINE
  5
73B
330
1F
100
AcDbEntity
  8
Object
100
AcDbLine
 10
3.705901684902704
 20
4.907638278919684
 30
0.0
 11
3.663901684902704
 21
4.928638278919684
 31
0.0
  0
LINE
  5
73C
330
1F
100
AcDbEntity
  8
Object
100
AcDbLine
 10
3.663901684902704
 20
4.928638278919684
 30
0.0
 11
3.616901684902703
 21
4.936638278919684
 31
0.0
  0
LINE
  5
73D
330
1F
100
AcDbEntity
  8
Object
100
AcDbLine
 10
3.646901684902704
 20
4.786638278919683
 30
0.0
 11
3.642901684902703
 21
4.801638278919684
 31
0.0
  0
LINE
  5
73E
330
1F
100
AcDbEntity
  8
Object
100
AcDbLine
 10
3.642901684902703
 20
4.801638278919684
 30
0.0
 11
3.631901684902704
 21
4.811638278919684
 31
0.0
  0
LINE
  5
73F
330
1F
100
AcDbEntity
  8
Object
100
AcDbLine
 10
3.631901684902704
 20
4.811638278919684
 30
0.0
 11
3.616901684902703
 21
4.816638278919684
 31
0.0
  0
LINE
  5
740
330
1F
100
AcDbEntity
  8
Object
100
AcDbLine
 10
2.686901684902704
 20
4.656638278919684
 30
0.0
 11
2.306901684902704
 21
4.656638278919684
 31
0.0
  0
LINE
  5
741
330
1F
100
AcDbEntity
  8
Object
100
AcDbLine
 10
2.306901684902704
 20
4.656638278919684
 30
0.0
 11
2.291901684902704
 21
4.651638278919683
 31
0.0
  0
LINE
  5
742
330
1F
100
AcDbEntity
  8
Object
100
AcDbLine
 10
2.291901684902704
 20
4.651638278919683
 30
0.0
 11
2.280901684902704
 21
4.641638278919684
 31
0.0
  0
LINE
  5
743
330
1F
100
AcDbEntity
  8
Object
100
AcDbLine
 10
2.280901684902704
 20
4.641638278919684
 30
0.0
 11
2.276901684902703
 21
4.626638278919683
 31
0.0
  0
LINE
  5
744
330
1F
100
AcDbEntity
  8
Object
100
AcDbLine
 10
3.586901684902704
 20
4.136638278919684
 30
0.0
 11
3.346901684902704
 21
4.136638278919684
 31
0.0
  0
LINE
  5
745
330
1F
100
AcDbEntity
  8
Object
100
AcDbLine
 10
2.686901684902704
 20
3.676638278919684
 30
0.0
 11
2.671901684902704
 21
3.672638278919684
 31
0.0
  0
LINE
  5
746
330
1F
100
AcDbEntity
  8
Object
100
AcDbLine
 10
2.671901684902704
 20
3.672638278919684
 30
0.0
 11
2.660901684902704
 21
3.661638278919684
 31
0.0
  0
LINE
  5
747
330
1F
100
AcDbEntity
  8
Object
100
AcDbLine
 10
2.660901684902704
 20
3.661638278919684
 30
0.0
 11
2.656901684902704
 21
3.646638278919684
 31
0.0
  0
LINE
  5
748
330
1F
100
AcDbEntity
  8
Object
100
AcDbLine
 10
2.276901684902703
 20
4.336638278919684
 30
0.0
 11
2.276901684902703
 21
4.626638278919683
 31
0.0
  0
LINE
  5
749
330
1F
100
AcDbEntity
  8
Object
100
AcDbLine
 10
3.616901684902703
 20
4.406638278919684
 30
0.0
 11
3.612901684902704
 21
4.391638278919684
 31
0.0
  0
LINE
  5
74A
330
1F
100
AcDbEntity
  8
Object
100
AcDbLine
 10
3.612901684902704
 20
4.391638278919684
 30
0.0
 11
3.601901684902704
 21
4.380638278919684
 31
0.0
  0
LINE
  5
74B
330
1F
100
AcDbEntity
  8
Object
100
AcDbLine
 10
3.601901684902704
 20
4.380638278919684
 30
0.0
 11
3.586901684902704
 21
4.376638278919683
 31
0.0
  0
LINE
  5
74C
330
1F
100
AcDbEntity
  8
Object
100
AcDbLine
 10
3.616901684902703
 20
3.906638278919684
 30
0.0
 11
3.616901684902703
 21
4.106638278919684
 31
0.0
  0
LINE
  5
74D
330
1F
100
AcDbEntity
  8
Object
100
AcDbLine
 10
2.781901684902704
 20
3.276638278919683
 30
0.0
 11
3.491901684902703
 21
3.276638278919683
 31
0.0
  0
LINE
  5
74E
330
1F
100
AcDbEntity
  8
Object
100
AcDbLine
 10
3.616901684902703
 20
3.401638278919683
 30
0.0
 11
3.610901684902704
 21
3.362638278919684
 31
0.0
  0
LINE
  5
74F
330
1F
100
AcDbEntity
  8
Object
100
AcDbLine
 10
3.610901684902704
 20
3.362638278919684
 30
0.0
 11
3.593901684902704
 21
3.327638278919684
 31
0.0
  0
LINE
  5
750
330
1F
100
AcDbEntity
  8
Object
100
AcDbLine
 10
3.593901684902704
 20
3.327638278919684
 30
0.0
 11
3.565901684902703
 21
3.299638278919684
 31
0.0
  0
LINE
  5
751
330
1F
100
AcDbEntity
  8
Object
100
AcDbLine
 10
3.565901684902703
 20
3.299638278919684
 30
0.0
 11
3.530901684902704
 21
3.282638278919684
 31
0.0
  0
LINE
  5
752
330
1F
100
AcDbEntity
  8
Object
100
AcDbLine
 10
3.530901684902704
 20
3.282638278919684
 30
0.0
 11
3.491901684902703
 21
3.276638278919683
 31
0.0
  0
LINE
  5
753
330
1F
100
AcDbEntity
  8
Object
100
AcDbLine
 10
3.346901684902704
 20
3.876638278919684
 30
0.0
 11
3.586901684902704
 21
3.876638278919684
 31
0.0
  0
LINE
  5
754
330
1F
100
AcDbEntity
  8
Object
100
AcDbLine
 10
3.346901684902704
 20
4.136638278919684
 30
0.0
 11
3.331901684902703
 21
4.140638278919684
 31
0.0
  0
LINE
  5
755
330
1F
100
AcDbEntity
  8
Object
100
AcDbLine
 10
3.331901684902703
 20
4.140638278919684
 30
0.0
 11
3.320901684902704
 21
4.151638278919683
 31
0.0
  0
LINE
  5
756
330
1F
100
AcDbEntity
  8
Object
100
AcDbLine
 10
3.320901684902704
 20
4.151638278919683
 30
0.0
 11
3.316901684902704
 21
4.166638278919684
 31
0.0
  0
LINE
  5
757
330
1F
100
AcDbEntity
  8
Object
100
AcDbLine
 10
3.616901684902703
 20
4.406638278919684
 30
0.0
 11
3.616901684902703
 21
4.786638278919683
 31
0.0
  0
LINE
  5
758
330
1F
100
AcDbEntity
  8
Object
100
AcDbLine
 10
3.316901684902704
 20
3.666638278919684
 30
0.0
 11
3.316901684902704
 21
3.846638278919684
 31
0.0
  0
LINE
  5
759
330
1F
100
AcDbEntity
  8
Object
100
AcDbLine
 10
3.616901684902703
 20
3.401638278919683
 30
0.0
 11
3.616901684902703
 21
3.606638278919684
 31
0.0
  0
LINE
  5
75A
330
1F
100
AcDbEntity
  8
Object
100
AcDbLine
 10
2.781901684902704
 20
3.276638278919683
 30
0.0
 11
2.743901684902704
 21
3.282638278919684
 31
0.0
  0
LINE
  5
75B
330
1F
100
AcDbEntity
  8
Object
100
AcDbLine
 10
2.743901684902704
 20
3.282638278919684
 30
0.0
 11
2.708901684902704
 21
3.299638278919684
 31
0.0
  0
LINE
  5
75C
330
1F
100
AcDbEntity
  8
Object
100
AcDbLine
 10
2.708901684902704
 20
3.299638278919684
 30
0.0
 11
2.680901684902703
 21
3.327638278919684
 31
0.0
  0
LINE
  5
75D
330
1F
100
AcDbEntity
  8
Object
100
AcDbLine
 10
2.680901684902703
 20
3.327638278919684
 30
0.0
 11
2.662901684902704
 21
3.362638278919684
 31
0.0
  0
LINE
  5
75E
330
1F
100
AcDbEntity
  8
Object
100
AcDbLine
 10
2.662901684902704
 20
3.362638278919684
 30
0.0
 11
2.656901684902704
 21
3.401638278919683
 31
0.0
  0
LINE
  5
75F
330
1F
100
AcDbEntity
  8
Object
100
AcDbLine
 10
3.346901684902704
 20
4.376638278919683
 30
0.0
 11
3.331901684902703
 21
4.371638278919684
 31
0.0
  0
LINE
  5
760
330
1F
100
AcDbEntity
  8
Object
100
AcDbLine
 10
3.331901684902703
 20
4.371638278919684
 30
0.0
 11
3.320901684902704
 21
4.361638278919684
 31
0.0
  0
LINE
  5
761
330
1F
100
AcDbEntity
  8
Object
100
AcDbLine
 10
3.320901684902704
 20
4.361638278919684
 30
0.0
 11
3.316901684902704
 21
4.346638278919684
 31
0.0
  0
LINE
  5
762
330
1F
100
AcDbEntity
  8
Object
100
AcDbLine
 10
2.656901684902704
 20
3.646638278919684
 30
0.0
 11
2.656901684902704
 21
3.401638278919683
 31
0.0
  0
LINE
  5
763
330
1F
100
AcDbEntity
  8
Object
100
AcDbLine
 10
3.616901684902703
 20
3.906638278919684
 30
0.0
 11
3.612901684902704
 21
3.891638278919684
 31
0.0
  0
LINE
  5
764
330
1F
100
AcDbEntity
  8
Object
100
AcDbLine
 10
3.612901684902704
 20
3.891638278919684
 30
0.0
 11
3.601901684902704
 21
3.880638278919684
 31
0.0
  0
LINE
  5
765
330
1F
100
AcDbEntity
  8
Object
100
AcDbLine
 10
3.601901684902704
 20
3.880638278919684
 30
0.0
 11
3.586901684902704
 21
3.876638278919684
 31
0.0
  0
LINE
  5
766
330
1F
100
AcDbEntity
  8
Object
100
AcDbLine
 10
3.586901684902704
 20
3.636638278919684
 30
0.0
 11
3.346901684902704
 21
3.636638278919684
 31
0.0
  0
LINE
  5
767
330
1F
100
AcDbEntity
  8
Object
100
AcDbLine
 10
3.616901684902703
 20
4.106638278919684
 30
0.0
 11
3.612901684902704
 21
4.121638278919684
 31
0.0
  0
LINE
  5
768
330
1F
100
AcDbEntity
  8
Object
100
AcDbLine
 10
3.612901684902704
 20
4.121638278919684
 30
0.0
 11
3.601901684902704
 21
4.131638278919684
 31
0.0
  0
LINE
  5
769
330
1F
100
AcDbEntity
  8
Object
100
AcDbLine
 10
3.601901684902704
 20
4.131638278919684
 30
0.0
 11
3.586901684902704
 21
4.136638278919684
 31
0.0
  0
LINE
  5
76A
330
1F
100
AcDbEntity
  8
Object
100
AcDbLine
 10
2.716901684902704
 20
4.626638278919683
 30
0.0
 11
2.716901684902704
 21
3.676638278919684
 31
0.0
  0
LINE
  5
76B
330
1F
100
AcDbEntity
  8
Object
100
AcDbLine
 10
2.276901684902703
 20
4.336638278919684
 30
0.0
 11
2.272901684902704
 21
4.321638278919683
 31
0.0
  0
LINE
  5
76C
330
1F
100
AcDbEntity
  8
Object
100
AcDbLine
 10
2.272901684902704
 20
4.321638278919683
 30
0.0
 11
2.261901684902704
 21
4.310638278919684
 31
0.0
  0
LINE
  5
76D
330
1F
100
AcDbEntity
  8
Object
100
AcDbLine
 10
2.261901684902704
 20
4.310638278919684
 30
0.0
 11
2.246901684902704
 21
4.306638278919684
 31
0.0
  0
LINE
  5
76E
330
1F
100
AcDbEntity
  8
Object
100
AcDbLine
 10
2.716901684902704
 20
4.626638278919683
 30
0.0
 11
2.712901684902703
 21
4.641638278919684
 31
0.0
  0
LINE
  5
76F
330
1F
100
AcDbEntity
  8
Object
100
AcDbLine
 10
2.712901684902703
 20
4.641638278919684
 30
0.0
 11
2.701901684902704
 21
4.651638278919683
 31
0.0
  0
LINE
  5
770
330
1F
100
AcDbEntity
  8
Object
100
AcDbLine
 10
2.701901684902704
 20
4.651638278919683
 30
0.0
 11
2.686901684902704
 21
4.656638278919684
 31
0.0
  0
LINE
  5
771
330
1F
100
AcDbEntity
  8
Object
100
AcDbLine
 10
3.346901684902704
 20
4.376638278919683
 30
0.0
 11
3.586901684902704
 21
4.376638278919683
 31
0.0
  0
LINE
  5
772
330
1F
100
AcDbEntity
  8
Object
100
AcDbLine
 10
3.346901684902704
 20
3.876638278919684
 30
0.0
 11
3.331901684902703
 21
3.871638278919684
 31
0.0
  0
LINE
  5
773
330
1F
100
AcDbEntity
  8
Object
100
AcDbLine
 10
3.331901684902703
 20
3.871638278919684
 30
0.0
 11
3.320901684902704
 21
3.861638278919683
 31
0.0
  0
LINE
  5
774
330
1F
100
AcDbEntity
  8
Object
100
AcDbLine
 10
3.320901684902704
 20
3.861638278919683
 30
0.0
 11
3.316901684902704
 21
3.846638278919684
 31
0.0
  0
LINE
  5
775
330
1F
100
AcDbEntity
  8
Object
100
AcDbLine
 10
3.346901684902704
 20
3.636638278919684
 30
0.0
 11
3.331901684902703
 21
3.640638278919684
 31
0.0
  0
LINE
  5
776
330
1F
100
AcDbEntity
  8
Object
100
AcDbLine
 10
3.331901684902703
 20
3.640638278919684
 30
0.0
 11
3.320901684902704
 21
3.651638278919683
 31
0.0
  0
LINE
  5
777
330
1F
100
AcDbEntity
  8
Object
100
AcDbLine
 10
3.320901684902704
 20
3.651638278919683
 30
0.0
 11
3.316901684902704
 21
3.666638278919684
 31
0.0
  0
LINE
  5
778
330
1F
100
AcDbEntity
  8
Object
100
AcDbLine
 10
3.616901684902703
 20
3.606638278919684
 30
0.0
 11
3.612901684902704
 21
3.621638278919684
 31
0.0
  0
LINE
  5
779
330
1F
100
AcDbEntity
  8
Object
100
AcDbLine
 10
3.612901684902704
 20
3.621638278919684
 30
0.0
 11
3.601901684902704
 21
3.632638278919684
 31
0.0
  0
LINE
  5
77A
330
1F
100
AcDbEntity
  8
Object
100
AcDbLine
 10
3.601901684902704
 20
3.632638278919684
 30
0.0
 11
3.586901684902704
 21
3.636638278919684
 31
0.0
  0
LINE
  5
77B
330
1F
100
AcDbEntity
  8
Object
100
AcDbLine
 10
1.994901684902703
 20
4.306638278919684
 30
0.0
 11
2.246901684902704
 21
4.306638278919684
 31
0.0
  0
LINE
  5
77C
330
1F
100
AcDbEntity
  8
Object
100
AcDbLine
 10
2.716901684902704
 20
3.676638278919684
 30
0.0
 11
2.686901684902704
 21
3.676638278919684
 31
0.0
  0
LINE
  5
77D
330
1F
100
AcDbEntity
  8
Object
100
AcDbLine
 10
3.316901684902704
 20
4.166638278919684
 30
0.0
 11
3.316901684902704
 21
4.346638278919684
 31
0.0
  0
LINE
  5
77E
330
1F
100
AcDbEntity
  8
Object
100
AcDbLine
 10
3.616901684902703
 20
4.874638278919684
 30
0.0
 11
3.616901684902703
 21
4.907638278919684
 31
0.0
  0
LINE
  5
77F
330
1F
100
AcDbEntity
  8
Object
100
AcDbLine
 10
3.616901684902703
 20
4.786638278919683
 30
0.0
 11
3.616901684902703
 21
4.832638278919684
 31
0.0
  0
LINE
  5
780
330
1F
100
AcDbEntity
  8
Object
100
AcDbLine
 10
3.616901684902703
 20
4.832638278919684
 30
0.0
 11
3.616901684902703
 21
4.874638278919684
 31
0.0
  0
LINE
  5
781
330
1F
100
AcDbEntity
  8
Object
100
AcDbLine
 10
3.616901684902703
 20
4.907638278919684
 30
0.0
 11
3.616901684902703
 21
4.928638278919684
 31
0.0
  0
LINE
  5
782
330
1F
100
AcDbEntity
  8
Object
100
AcDbLine
 10
3.616901684902703
 20
4.928638278919684
 30
0.0
 11
3.616901684902703
 21
4.936638278919684
 31
0.0
  0
LINE
  5
783
330
1F
100
AcDbEntity
  8
Object
100
AcDbLine
 10
3.766901684902704
 20
4.179638278919684
 30
0.0
 11
3.766901684902704
 21
4.162638278919684
 31
0.0
  0
LINE
  5
784
330
1F
100
AcDbEntity
  8
Object
100
AcDbLine
 10
3.766901684902704
 20
4.162638278919684
 30
0.0
 11
3.766901684902704
 21
4.156638278919684
 31
0.0
  0
LINE
  5
785
330
1F
100
AcDbEntity
  8
Object
100
AcDbLine
 10
3.766901684902704
 20
4.179638278919684
 30
0.0
 11
3.766901684902704
 21
4.207638278919684
 31
0.0
  0
LINE
  5
786
330
1F
100
AcDbEntity
  8
Object
100
AcDbLine
 10
3.766901684902704
 20
4.207638278919684
 30
0.0
 11
3.766901684902704
 21
4.242638278919684
 31
0.0
  0
LINE
  5
787
330
1F
100
AcDbEntity
  8
Object
100
AcDbLine
 10
3.766901684902704
 20
4.242638278919684
 30
0.0
 11
3.766901684902704
 21
4.281638278919684
 31
0.0
  0
LINE
  5
788
330
1F
100
AcDbEntity
  8
Object
100
AcDbLine
 10
3.766901684902704
 20
4.281638278919684
 30
0.0
 11
3.766901684902704
 21
4.786638278919683
 31
0.0
  0
LINE
  5
789
330
1F
100
AcDbEntity
  8
Object
100
AcDbLine
 10
3.766901684902704
 20
4.786638278919683
 30
0.0
 11
3.759901684902704
 21
4.832638278919684
 31
0.0
  0
LINE
  5
78A
330
1F
100
AcDbEntity
  8
Object
100
AcDbLine
 10
3.705901684902704
 20
4.907638278919684
 30
0.0
 11
3.738901684902703
 21
4.874638278919684
 31
0.0
  0
LINE
  5
78B
330
1F
100
AcDbEntity
  8
Object
100
AcDbLine
 10
3.738901684902703
 20
4.874638278919684
 30
0.0
 11
3.759901684902704
 21
4.832638278919684
 31
0.0
  0
LINE
  5
78C
330
1F
100
AcDbEntity
  8
Object
100
AcDbLine
 10
3.646901684902704
 20
4.786638278919683
 30
0.0
 11
3.642901684902703
 21
4.801638278919684
 31
0.0
  0
LINE
  5
78D
330
1F
100
AcDbEntity
  8
Object
100
AcDbLine
 10
3.642901684902703
 20
4.801638278919684
 30
0.0
 11
3.631901684902704
 21
4.811638278919684
 31
0.0
  0
LINE
  5
78E
330
1F
100
AcDbEntity
  8
Object
100
AcDbLine
 10
3.705901684902704
 20
4.907638278919684
 30
0.0
 11
3.663901684902704
 21
4.928638278919684
 31
0.0
  0
LINE
  5
78F
330
1F
100
AcDbEntity
  8
Object
100
AcDbLine
 10
3.616901684902703
 20
4.816638278919684
 30
0.0
 11
3.631901684902704
 21
4.811638278919684
 31
0.0
  0
LINE
  5
790
330
1F
100
AcDbEntity
  8
Object
100
AcDbLine
 10
3.663901684902704
 20
4.928638278919684
 30
0.0
 11
3.616901684902703
 21
4.936638278919684
 31
0.0
  0
LINE
  5
791
330
1F
100
AcDbEntity
  8
Object
100
AcDbLine
 10
3.646901684902704
 20
4.786638278919683
 30
0.0
 11
3.646901684902704
 21
4.281638278919684
 31
0.0
  0
LINE
  5
792
330
1F
100
AcDbEntity
  8
Object
100
AcDbLine
 10
3.646901684902704
 20
4.281638278919684
 30
0.0
 11
3.646901684902704
 21
4.242638278919684
 31
0.0
  0
LINE
  5
793
330
1F
100
AcDbEntity
  8
Object
100
AcDbLine
 10
3.646901684902704
 20
4.242638278919684
 30
0.0
 11
3.646901684902704
 21
4.207638278919684
 31
0.0
  0
LINE
  5
794
330
1F
100
AcDbEntity
  8
Object
100
AcDbLine
 10
3.646901684902704
 20
4.207638278919684
 30
0.0
 11
3.646901684902704
 21
4.179638278919684
 31
0.0
  0
LINE
  5
795
330
1F
100
AcDbEntity
  8
Object
100
AcDbLine
 10
3.646901684902704
 20
4.179638278919684
 30
0.0
 11
3.646901684902704
 21
4.162638278919684
 31
0.0
  0
LINE
  5
796
330
1F
100
AcDbEntity
  8
Object
100
AcDbLine
 10
3.646901684902704
 20
4.162638278919684
 30
0.0
 11
3.646901684902704
 21
4.156638278919684
 31
0.0
  0
LINE
  5
797
330
1F
100
AcDbEntity
  8
Object
100
AcDbLine
 10
3.646901684902704
 20
4.156638278919684
 30
0.0
 11
3.766901684902704
 21
4.156638278919684
 31
0.0
  0
LINE
  5
798
330
1F
100
AcDbEntity
  8
Object
100
AcDbLine
 10
3.646901684902704
 20
4.242638278919684
 30
0.0
 11
3.646901684902704
 21
4.207638278919684
 31
0.0
  0
LINE
  5
799
330
1F
100
AcDbEntity
  8
Object
100
AcDbLine
 10
3.766901684902704
 20
4.207638278919684
 30
0.0
 11
3.766901684902704
 21
4.242638278919684
 31
0.0
  0
LINE
  5
79A
330
1F
100
AcDbEntity
  8
Object
100
AcDbLine
 10
3.766901684902704
 20
4.242638278919684
 30
0.0
 11
3.766901684902704
 21
4.281638278919684
 31
0.0
  0
LINE
  5
79B
330
1F
100
AcDbEntity
  8
Object
100
AcDbLine
 10
3.646901684902704
 20
4.242638278919684
 30
0.0
 11
3.646901684902704
 21
4.281638278919684
 31
0.0
  0
LINE
  5
79C
330
1F
100
AcDbEntity
  8
Object
100
AcDbLine
 10
3.646901684902704
 20
4.281638278919684
 30
0.0
 11
3.766901684902704
 21
4.281638278919684
 31
0.0
  0
LINE
  5
79D
330
1F
100
AcDbEntity
  8
Object
100
AcDbLine
 10
3.646901684902704
 20
4.179638278919684
 30
0.0
 11
3.646901684902704
 21
4.162638278919684
 31
0.0
  0
LINE
  5
79E
330
1F
100
AcDbEntity
  8
Object
100
AcDbLine
 10
3.766901684902704
 20
4.179638278919684
 30
0.0
 11
3.766901684902704
 21
4.162638278919684
 31
0.0
  0
LINE
  5
79F
330
1F
100
AcDbEntity
  8
Object
100
AcDbLine
 10
3.766901684902704
 20
4.162638278919684
 30
0.0
 11
3.766901684902704
 21
4.156638278919684
 31
0.0
  0
LINE
  5
7A0
330
1F
100
AcDbEntity
  8
Object
100
AcDbLine
 10
3.766901684902704
 20
4.156638278919684
 30
0.0
 11
3.646901684902704
 21
4.156638278919684
 31
0.0
  0
LINE
  5
7A1
330
1F
100
AcDbEntity
  8
Object
100
AcDbLine
 10
3.646901684902704
 20
4.156638278919684
 30
0.0
 11
3.646901684902704
 21
4.162638278919684
 31
0.0
  0
LINE
  5
7A2
330
1F
100
AcDbEntity
  8
Object
100
AcDbLine
 10
3.766901684902704
 20
4.179638278919684
 30
0.0
 11
3.766901684902704
 21
4.207638278919684
 31
0.0
  0
LINE
  5
7A3
330
1F
100
AcDbEntity
  8
Object
100
AcDbLine
 10
3.646901684902704
 20
4.207638278919684
 30
0.0
 11
3.646901684902704
 21
4.179638278919684
 31
0.0
  0
LINE
  5
7A4
330
1F
100
AcDbEntity
  8
Object
100
AcDbLine
 10
3.646901684902704
 20
4.786638278919683
 30
0.0
 11
3.766901684902704
 21
4.786638278919683
 31
0.0
  0
LINE
  5
7A5
102
{ACAD_REACTORS
330
966
102
}
330
1F
100
AcDbEntity
  8
Object
100
AcDbLine
 10
3.766901684902704
 20
4.786638278919683
 30
0.0
 11
3.766901684902704
 21
4.281638278919684
 31
0.0
  0
LINE
  5
7A6
330
1F
100
AcDbEntity
  8
Object
100
AcDbLine
 10
3.646901684902704
 20
4.786638278919683
 30
0.0
 11
3.646901684902704
 21
4.281638278919684
 31
0.0
  0
LINE
  5
7A7
330
1F
100
AcDbEntity
  8
Object
100
AcDbLine
 10
3.616901684902704
 20
8.034049133534098
 30
0.0
 11
1.964901684902704
 21
8.034049133534098
 31
0.0
  0
LINE
  5
7A8
330
1F
100
AcDbEntity
  8
Object
100
AcDbLine
 10
3.372901684902704
 20
8.034049133534098
 30
0.0
 11
3.381901684902704
 21
8.034049133534098
 31
0.0
  0
LINE
  5
7A9
330
1F
100
AcDbEntity
  8
Object
100
AcDbLine
 10
3.616901684902704
 20
7.930049133534098
 30
0.0
 11
3.616901684902704
 21
7.972049133534098
 31
0.0
  0
LINE
  5
7AA
330
1F
100
AcDbEntity
  8
Object
100
AcDbLine
 10
1.964901684902704
 20
8.005049133534098
 30
0.0
 11
1.964901684902704
 21
7.972049133534098
 31
0.0
  0
LINE
  5
7AB
330
1F
100
AcDbEntity
  8
Object
100
AcDbLine
 10
3.616901684902704
 20
8.005049133534098
 30
0.0
 11
3.616901684902704
 21
8.027049133534099
 31
0.0
  0
LINE
  5
7AC
330
1F
100
AcDbEntity
  8
Object
100
AcDbLine
 10
1.964901684902704
 20
8.027049133534099
 30
0.0
 11
1.964901684902704
 21
8.034049133534098
 31
0.0
  0
LINE
  5
7AD
330
1F
100
AcDbEntity
  8
Object
100
AcDbLine
 10
1.964901684902704
 20
8.034049133534098
 30
0.0
 11
3.616901684902704
 21
8.034049133534098
 31
0.0
  0
LINE
  5
7AE
330
1F
100
AcDbEntity
  8
Object
100
AcDbLine
 10
3.616901684902704
 20
8.034049133534098
 30
0.0
 11
3.616901684902704
 21
8.027049133534099
 31
0.0
  0
LINE
  5
7AF
330
1F
100
AcDbEntity
  8
Object
100
AcDbLine
 10
1.964901684902704
 20
8.027049133534099
 30
0.0
 11
1.964901684902704
 21
8.005049133534098
 31
0.0
  0
LINE
  5
7B0
330
1F
100
AcDbEntity
  8
Object
100
AcDbLine
 10
3.616901684902704
 20
7.972049133534098
 30
0.0
 11
3.616901684902704
 21
8.005049133534098
 31
0.0
  0
LINE
  5
7B1
330
1F
100
AcDbEntity
  8
Object
100
AcDbLine
 10
1.964901684902704
 20
7.972049133534098
 30
0.0
 11
1.964901684902704
 21
7.930049133534098
 31
0.0
  0
LINE
  5
7B2
330
1F
100
AcDbEntity
  8
Object
100
AcDbLine
 10
3.616901684902704
 20
7.884049133534098
 30
0.0
 11
3.616901684902704
 21
7.930049133534098
 31
0.0
  0
LINE
  5
7B3
330
1F
100
AcDbEntity
  8
Object
100
AcDbLine
 10
1.964901684902704
 20
7.930049133534098
 30
0.0
 11
1.964901684902704
 21
7.884049133534098
 31
0.0
  0
LINE
  5
7B4
330
1F
100
AcDbEntity
  8
Object
100
AcDbLine
 10
1.964901684902704
 20
8.027049133534099
 30
0.0
 11
1.964901684902704
 21
8.005049133534098
 31
0.0
  0
LINE
  5
7B5
330
1F
100
AcDbEntity
  8
Object
100
AcDbLine
 10
1.964901684902704
 20
8.005049133534098
 30
0.0
 11
1.964901684902704
 21
7.972049133534098
 31
0.0
  0
LINE
  5
7B6
330
1F
100
AcDbEntity
  8
Object
100
AcDbLine
 10
1.964901684902704
 20
7.930049133534098
 30
0.0
 11
1.964901684902704
 21
7.884049133534098
 31
0.0
  0
LINE
  5
7B7
330
1F
100
AcDbEntity
  8
Object
100
AcDbLine
 10
1.964901684902704
 20
7.884049133534098
 30
0.0
 11
1.964901684902704
 21
6.484049133534099
 31
0.0
  0
LINE
  5
7B8
330
1F
100
AcDbEntity
  8
Object
100
AcDbLine
 10
1.964901684902704
 20
6.437049133534099
 30
0.0
 11
1.964901684902704
 21
6.395049133534098
 31
0.0
  0
LINE
  5
7B9
330
1F
100
AcDbEntity
  8
Object
100
AcDbLine
 10
1.964901684902704
 20
6.395049133534098
 30
0.0
 11
1.964901684902704
 21
6.362049133534099
 31
0.0
  0
LINE
  5
7BA
330
1F
100
AcDbEntity
  8
Object
100
AcDbLine
 10
1.964901684902704
 20
6.334049133534098
 30
0.0
 11
1.964901684902704
 21
6.341049133534099
 31
0.0
  0
LINE
  5
7BB
330
1F
100
AcDbEntity
  8
Object
100
AcDbLine
 10
1.964901684902704
 20
6.341049133534099
 30
0.0
 11
1.964901684902704
 21
6.362049133534099
 31
0.0
  0
LINE
  5
7BC
330
1F
100
AcDbEntity
  8
Object
100
AcDbLine
 10
1.964901684902704
 20
6.484049133534099
 30
0.0
 11
1.964901684902704
 21
6.437049133534099
 31
0.0
  0
LINE
  5
7BD
330
1F
100
AcDbEntity
  8
Object
100
AcDbLine
 10
1.964901684902704
 20
7.972049133534098
 30
0.0
 11
1.964901684902704
 21
7.930049133534098
 31
0.0
  0
LINE
  5
7BE
330
1F
100
AcDbEntity
  8
Object
100
AcDbLine
 10
1.964901684902704
 20
8.034049133534098
 30
0.0
 11
1.964901684902704
 21
8.027049133534099
 31
0.0
  0
LINE
  5
7BF
330
1F
100
AcDbEntity
  8
Object
100
AcDbLine
 10
3.616901684902704
 20
7.972049133534098
 30
0.0
 11
3.616901684902704
 21
8.005049133534098
 31
0.0
  0
LINE
  5
7C0
330
1F
100
AcDbEntity
  8
Object
100
AcDbLine
 10
3.616901684902704
 20
8.005049133534098
 30
0.0
 11
3.616901684902704
 21
8.027049133534099
 31
0.0
  0
LINE
  5
7C1
102
{ACAD_REACTORS
330
8F7
102
}
330
1F
100
AcDbEntity
  8
Object
100
AcDbLine
 10
3.616901684902704
 20
8.027049133534099
 30
0.0
 11
3.616901684902704
 21
8.034049133534098
 31
0.0
  0
LINE
  5
7C2
330
1F
100
AcDbEntity
  8
Object
100
AcDbLine
 10
3.616901684902704
 20
7.972049133534098
 30
0.0
 11
3.616901684902704
 21
7.930049133534098
 31
0.0
  0
LINE
  5
7C3
330
1F
100
AcDbEntity
  8
Object
100
AcDbLine
 10
3.616901684902704
 20
7.930049133534098
 30
0.0
 11
3.616901684902704
 21
7.884049133534098
 31
0.0
  0
LINE
  5
7C4
330
1F
100
AcDbEntity
  8
Object
100
AcDbLine
 10
3.616901684902704
 20
7.884049133534098
 30
0.0
 11
3.616901684902704
 21
6.484049133534099
 31
0.0
  0
LINE
  5
7C5
330
1F
100
AcDbEntity
  8
Object
100
AcDbLine
 10
3.200901684902704
 20
7.174049133534098
 30
0.0
 11
3.208901684902704
 21
7.109049133534099
 31
0.0
  0
LINE
  5
7C6
330
1F
100
AcDbEntity
  8
Object
100
AcDbLine
 10
3.208901684902704
 20
7.109049133534099
 30
0.0
 11
3.200901684902704
 21
7.044049133534098
 31
0.0
  0
LINE
  5
7C7
330
1F
100
AcDbEntity
  8
Object
100
AcDbLine
 10
3.177901684902704
 20
7.235049133534098
 30
0.0
 11
3.200901684902704
 21
7.174049133534098
 31
0.0
  0
LINE
  5
7C8
330
1F
100
AcDbEntity
  8
Object
100
AcDbLine
 10
3.200901684902704
 20
7.044049133534098
 30
0.0
 11
3.177901684902704
 21
6.983049133534098
 31
0.0
  0
LINE
  5
7C9
330
1F
100
AcDbEntity
  8
Object
100
AcDbLine
 10
3.140901684902704
 20
7.289049133534098
 30
0.0
 11
3.177901684902704
 21
7.235049133534098
 31
0.0
  0
LINE
  5
7CA
330
1F
100
AcDbEntity
  8
Object
100
AcDbLine
 10
3.177901684902704
 20
6.983049133534098
 30
0.0
 11
3.140901684902704
 21
6.929049133534099
 31
0.0
  0
LINE
  5
7CB
330
1F
100
AcDbEntity
  8
Object
100
AcDbLine
 10
3.091901684902704
 20
7.332049133534098
 30
0.0
 11
3.140901684902704
 21
7.289049133534098
 31
0.0
  0
LINE
  5
7CC
330
1F
100
AcDbEntity
  8
Object
100
AcDbLine
 10
3.140901684902704
 20
6.929049133534099
 30
0.0
 11
3.091901684902704
 21
6.886049133534099
 31
0.0
  0
LINE
  5
7CD
330
1F
100
AcDbEntity
  8
Object
100
AcDbLine
 10
3.033901684902704
 20
7.362049133534099
 30
0.0
 11
3.091901684902704
 21
7.332049133534098
 31
0.0
  0
LINE
  5
7CE
330
1F
100
AcDbEntity
  8
Object
100
AcDbLine
 10
3.091901684902704
 20
6.886049133534099
 30
0.0
 11
3.033901684902704
 21
6.855049133534098
 31
0.0
  0
LINE
  5
7CF
330
1F
100
AcDbEntity
  8
Object
100
AcDbLine
 10
2.970901684902704
 20
7.378049133534099
 30
0.0
 11
3.033901684902704
 21
7.362049133534099
 31
0.0
  0
LINE
  5
7D0
330
1F
100
AcDbEntity
  8
Object
100
AcDbLine
 10
3.033901684902704
 20
6.855049133534098
 30
0.0
 11
2.970901684902704
 21
6.840049133534098
 31
0.0
  0
LINE
  5
7D1
330
1F
100
AcDbEntity
  8
Object
100
AcDbLine
 10
2.905901684902704
 20
7.378049133534099
 30
0.0
 11
2.970901684902704
 21
7.378049133534099
 31
0.0
  0
LINE
  5
7D2
330
1F
100
AcDbEntity
  8
Object
100
AcDbLine
 10
2.970901684902704
 20
6.840049133534098
 30
0.0
 11
2.905901684902704
 21
6.840049133534098
 31
0.0
  0
LINE
  5
7D3
330
1F
100
AcDbEntity
  8
Object
100
AcDbLine
 10
2.783901684902704
 20
7.332049133534098
 30
0.0
 11
2.841901684902704
 21
7.362049133534099
 31
0.0
  0
LINE
  5
7D4
330
1F
100
AcDbEntity
  8
Object
100
AcDbLine
 10
2.209901684902703
 20
7.195049133534099
 30
0.0
 11
2.209901684902703
 21
7.144049133534099
 31
0.0
  0
LINE
  5
7D5
330
1F
100
AcDbEntity
  8
Object
100
AcDbLine
 10
2.209901684902703
 20
7.128049133534099
 30
0.0
 11
2.209901684902703
 21
7.100049133534098
 31
0.0
  0
LINE
  5
7D6
330
1F
100
AcDbEntity
  8
Object
100
AcDbLine
 10
2.209901684902703
 20
7.277049133534099
 30
0.0
 11
2.209901684902703
 21
7.244049133534098
 31
0.0
  0
LINE
  5
7D7
330
1F
100
AcDbEntity
  8
Object
100
AcDbLine
 10
2.209901684902703
 20
7.397049133534099
 30
0.0
 11
2.209901684902703
 21
7.369049133534098
 31
0.0
  0
LINE
  5
7D8
330
1F
100
AcDbEntity
  8
Object
100
AcDbLine
 10
2.783901684902704
 20
7.332049133534098
 30
0.0
 11
2.734901684902704
 21
7.289049133534098
 31
0.0
  0
LINE
  5
7D9
330
1F
100
AcDbEntity
  8
Object
100
AcDbLine
 10
2.734901684902704
 20
7.289049133534098
 30
0.0
 11
2.697901684902704
 21
7.235049133534098
 31
0.0
  0
LINE
  5
7DA
330
1F
100
AcDbEntity
  8
Object
100
AcDbLine
 10
2.697901684902704
 20
7.235049133534098
 30
0.0
 11
2.674901684902703
 21
7.174049133534098
 31
0.0
  0
LINE
  5
7DB
330
1F
100
AcDbEntity
  8
Object
100
AcDbLine
 10
2.674901684902703
 20
7.174049133534098
 30
0.0
 11
2.666901684902704
 21
7.109049133534099
 31
0.0
  0
LINE
  5
7DC
330
1F
100
AcDbEntity
  8
Object
100
AcDbLine
 10
2.209901684902703
 20
7.334049133534098
 30
0.0
 11
2.209901684902703
 21
7.309049133534099
 31
0.0
  0
LINE
  5
7DD
330
1F
100
AcDbEntity
  8
Object
100
AcDbLine
 10
2.734901684902704
 20
6.929049133534099
 30
0.0
 11
2.697901684902704
 21
6.983049133534098
 31
0.0
  0
LINE
  5
7DE
330
1F
100
AcDbEntity
  8
Object
100
AcDbLine
 10
2.209901684902703
 20
6.938049133534098
 30
0.0
 11
2.209901684902703
 21
6.884049133534098
 31
0.0
  0
LINE
  5
7DF
330
1F
100
AcDbEntity
  8
Object
100
AcDbLine
 10
2.209901684902703
 20
6.995049133534099
 30
0.0
 11
2.209901684902703
 21
6.968049133534099
 31
0.0
  0
LINE
  5
7E0
330
1F
100
AcDbEntity
  8
Object
100
AcDbLine
 10
2.209901684902703
 20
7.083049133534099
 30
0.0
 11
2.209901684902703
 21
7.042049133534098
 31
0.0
  0
LINE
  5
7E1
330
1F
100
AcDbEntity
  8
Object
100
AcDbLine
 10
2.666901684902704
 20
7.109049133534099
 30
0.0
 11
2.674901684902703
 21
7.044049133534098
 31
0.0
  0
LINE
  5
7E2
330
1F
100
AcDbEntity
  8
Object
100
AcDbLine
 10
2.674901684902703
 20
7.044049133534098
 30
0.0
 11
2.697901684902704
 21
6.983049133534098
 31
0.0
  0
LINE
  5
7E3
330
1F
100
AcDbEntity
  8
Object
100
AcDbLine
 10
2.783901684902704
 20
6.886049133534099
 30
0.0
 11
2.734901684902704
 21
6.929049133534099
 31
0.0
  0
LINE
  5
7E4
330
1F
100
AcDbEntity
  8
Object
100
AcDbLine
 10
2.207901684902703
 20
7.203049133534099
 30
0.0
 11
2.209901684902703
 21
7.195049133534099
 31
0.0
  0
LINE
  5
7E5
330
1F
100
AcDbEntity
  8
Object
100
AcDbLine
 10
2.207901684902703
 20
7.285049133534099
 30
0.0
 11
2.209901684902703
 21
7.277049133534099
 31
0.0
  0
LINE
  5
7E6
330
1F
100
AcDbEntity
  8
Object
100
AcDbLine
 10
2.209901684902703
 20
7.244049133534098
 30
0.0
 11
2.207901684902703
 21
7.236049133534098
 31
0.0
  0
LINE
  5
7E7
330
1F
100
AcDbEntity
  8
Object
100
AcDbLine
 10
2.201901684902704
 20
7.209049133534098
 30
0.0
 11
2.207901684902703
 21
7.203049133534099
 31
0.0
  0
LINE
  5
7E8
330
1F
100
AcDbEntity
  8
Object
100
AcDbLine
 10
2.201901684902704
 20
7.291049133534098
 30
0.0
 11
2.207901684902703
 21
7.285049133534099
 31
0.0
  0
LINE
  5
7E9
330
1F
100
AcDbEntity
  8
Object
100
AcDbLine
 10
2.207901684902703
 20
7.236049133534098
 30
0.0
 11
2.201901684902704
 21
7.230049133534098
 31
0.0
  0
LINE
  5
7EA
330
1F
100
AcDbEntity
  8
Object
100
AcDbLine
 10
2.209901684902703
 20
7.042049133534098
 30
0.0
 11
2.196901684902703
 21
7.036049133534098
 31
0.0
  0
LINE
  5
7EB
330
1F
100
AcDbEntity
  8
Object
100
AcDbLine
 10
2.209901684902703
 20
6.995049133534099
 30
0.0
 11
2.196901684902703
 21
7.001049133534098
 31
0.0
  0
LINE
  5
7EC
330
1F
100
AcDbEntity
  8
Object
100
AcDbLine
 10
2.196901684902703
 20
7.001049133534098
 30
0.0
 11
2.196901684902703
 21
7.036049133534098
 31
0.0
  0
LINE
  5
7ED
330
1F
100
AcDbEntity
  8
Object
100
AcDbLine
 10
2.193901684902703
 20
7.212049133534098
 30
0.0
 11
2.201901684902704
 21
7.209049133534098
 31
0.0
  0
LINE
  5
7EE
330
1F
100
AcDbEntity
  8
Object
100
AcDbLine
 10
2.193901684902703
 20
7.293049133534099
 30
0.0
 11
2.201901684902704
 21
7.291049133534098
 31
0.0
  0
LINE
  5
7EF
330
1F
100
AcDbEntity
  8
Object
100
AcDbLine
 10
2.201901684902704
 20
7.230049133534098
 30
0.0
 11
2.193901684902703
 21
7.228049133534098
 31
0.0
  0
LINE
  5
7F0
330
1F
100
AcDbEntity
  8
Object
100
AcDbLine
 10
2.188901684902704
 20
7.269049133534099
 30
0.0
 11
2.188901684902704
 21
7.272049133534099
 31
0.0
  0
LINE
  5
7F1
330
1F
100
AcDbEntity
  8
Object
100
AcDbLine
 10
2.184901684902704
 20
7.274049133534099
 30
0.0
 11
2.186901684902704
 21
7.273049133534098
 31
0.0
  0
LINE
  5
7F2
330
1F
100
AcDbEntity
  8
Object
100
AcDbLine
 10
2.186901684902704
 20
7.273049133534098
 30
0.0
 11
2.188901684902704
 21
7.272049133534099
 31
0.0
  0
LINE
  5
7F3
330
1F
100
AcDbEntity
  8
Object
100
AcDbLine
 10
2.188901684902704
 20
7.269049133534099
 30
0.0
 11
2.188901684902704
 21
7.263049133534098
 31
0.0
  0
LINE
  5
7F4
330
1F
100
AcDbEntity
  8
Object
100
AcDbLine
 10
2.188901684902704
 20
7.263049133534098
 30
0.0
 11
2.188901684902704
 21
7.260049133534098
 31
0.0
  0
LINE
  5
7F5
330
1F
100
AcDbEntity
  8
Object
100
AcDbLine
 10
2.188901684902704
 20
7.260049133534098
 30
0.0
 11
2.186901684902704
 21
7.259049133534098
 31
0.0
  0
LINE
  5
7F6
330
1F
100
AcDbEntity
  8
Object
100
AcDbLine
 10
2.186901684902704
 20
7.259049133534098
 30
0.0
 11
2.184901684902704
 21
7.258049133534099
 31
0.0
  0
LINE
  5
7F7
330
1F
100
AcDbEntity
  8
Object
100
AcDbLine
 10
2.209901684902703
 20
6.938049133534098
 30
0.0
 11
2.172901684902704
 21
6.938049133534098
 31
0.0
  0
LINE
  5
7F8
330
1F
100
AcDbEntity
  8
Object
100
AcDbLine
 10
2.172901684902704
 20
6.938049133534098
 30
0.0
 11
2.172901684902704
 21
6.967049133534098
 31
0.0
  0
LINE
  5
7F9
330
1F
100
AcDbEntity
  8
Object
100
AcDbLine
 10
2.172901684902704
 20
6.967049133534098
 30
0.0
 11
2.171901684902704
 21
6.973049133534098
 31
0.0
  0
LINE
  5
7FA
330
1F
100
AcDbEntity
  8
Object
100
AcDbLine
 10
2.209901684902703
 20
7.083049133534099
 30
0.0
 11
2.170901684902704
 21
7.083049133534099
 31
0.0
  0
LINE
  5
7FB
330
1F
100
AcDbEntity
  8
Object
100
AcDbLine
 10
2.170901684902704
 20
7.083049133534099
 30
0.0
 11
2.209901684902703
 21
7.100049133534098
 31
0.0
  0
LINE
  5
7FC
330
1F
100
AcDbEntity
  8
Object
100
AcDbLine
 10
2.171901684902704
 20
6.973049133534098
 30
0.0
 11
2.170901684902704
 21
6.979049133534099
 31
0.0
  0
LINE
  5
7FD
330
1F
100
AcDbEntity
  8
Object
100
AcDbLine
 10
2.170901684902704
 20
6.979049133534099
 30
0.0
 11
2.168901684902704
 21
6.985049133534098
 31
0.0
  0
LINE
  5
7FE
330
1F
100
AcDbEntity
  8
Object
100
AcDbLine
 10
2.168901684902704
 20
6.985049133534098
 30
0.0
 11
2.209901684902703
 21
6.968049133534099
 31
0.0
  0
LINE
  5
7FF
330
1F
100
AcDbEntity
  8
Object
100
AcDbLine
 10
2.136901684902704
 20
7.350049133534098
 30
0.0
 11
2.136901684902704
 21
7.369049133534098
 31
0.0
  0
LINE
  5
800
330
1F
100
AcDbEntity
  8
Object
100
AcDbLine
 10
2.136901684902704
 20
7.369049133534098
 30
0.0
 11
2.209901684902703
 21
7.369049133534098
 31
0.0
  0
LINE
  5
801
330
1F
100
AcDbEntity
  8
Object
100
AcDbLine
 10
2.136901684902704
 20
7.418049133534099
 30
0.0
 11
2.136901684902704
 21
7.397049133534099
 31
0.0
  0
LINE
  5
802
330
1F
100
AcDbEntity
  8
Object
100
AcDbLine
 10
2.136901684902704
 20
7.397049133534099
 30
0.0
 11
2.209901684902703
 21
7.397049133534099
 31
0.0
  0
LINE
  5
803
330
1F
100
AcDbEntity
  8
Object
100
AcDbLine
 10
2.134901684902704
 20
7.212049133534098
 30
0.0
 11
2.193901684902703
 21
7.212049133534098
 31
0.0
  0
LINE
  5
804
330
1F
100
AcDbEntity
  8
Object
100
AcDbLine
 10
2.136901684902704
 20
7.350049133534098
 30
0.0
 11
2.117901684902704
 21
7.350049133534098
 31
0.0
  0
LINE
  5
805
330
1F
100
AcDbEntity
  8
Object
100
AcDbLine
 10
2.117901684902704
 20
7.334049133534098
 30
0.0
 11
2.209901684902703
 21
7.334049133534098
 31
0.0
  0
LINE
  5
806
330
1F
100
AcDbEntity
  8
Object
100
AcDbLine
 10
2.209901684902703
 20
7.144049133534099
 30
0.0
 11
2.117901684902704
 21
7.144049133534099
 31
0.0
  0
LINE
  5
807
330
1F
100
AcDbEntity
  8
Object
100
AcDbLine
 10
2.117901684902704
 20
7.128049133534099
 30
0.0
 11
2.209901684902703
 21
7.128049133534099
 31
0.0
  0
LINE
  5
808
330
1F
100
AcDbEntity
  8
Object
100
AcDbLine
 10
2.117901684902704
 20
7.104049133534099
 30
0.0
 11
2.155901684902704
 21
7.104049133534099
 31
0.0
  0
LINE
  5
809
330
1F
100
AcDbEntity
  8
Object
100
AcDbLine
 10
2.155901684902704
 20
7.104049133534099
 30
0.0
 11
2.117901684902704
 21
7.088049133534099
 31
0.0
  0
LINE
  5
80A
330
1F
100
AcDbEntity
  8
Object
100
AcDbLine
 10
2.193901684902703
 20
7.228049133534098
 30
0.0
 11
2.117901684902704
 21
7.228049133534098
 31
0.0
  0
LINE
  5
80B
330
1F
100
AcDbEntity
  8
Object
100
AcDbLine
 10
2.134901684902704
 20
7.212049133534098
 30
0.0
 11
2.126901684902704
 21
7.209049133534098
 31
0.0
  0
LINE
  5
80C
330
1F
100
AcDbEntity
  8
Object
100
AcDbLine
 10
2.126901684902704
 20
7.209049133534098
 30
0.0
 11
2.120901684902704
 21
7.203049133534099
 31
0.0
  0
LINE
  5
80D
330
1F
100
AcDbEntity
  8
Object
100
AcDbLine
 10
2.120901684902704
 20
7.203049133534099
 30
0.0
 11
2.117901684902704
 21
7.195049133534099
 31
0.0
  0
LINE
  5
80E
330
1F
100
AcDbEntity
  8
Object
100
AcDbLine
 10
2.117901684902704
 20
7.293049133534099
 30
0.0
 11
2.193901684902703
 21
7.293049133534099
 31
0.0
  0
LINE
  5
80F
330
1F
100
AcDbEntity
  8
Object
100
AcDbLine
 10
2.184901684902704
 20
7.274049133534099
 30
0.0
 11
2.117901684902704
 21
7.274049133534099
 31
0.0
  0
LINE
  5
810
330
1F
100
AcDbEntity
  8
Object
100
AcDbLine
 10
2.117901684902704
 20
7.258049133534099
 30
0.0
 11
2.184901684902704
 21
7.258049133534099
 31
0.0
  0
LINE
  5
811
330
1F
100
AcDbEntity
  8
Object
100
AcDbLine
 10
2.209901684902703
 20
7.309049133534099
 30
0.0
 11
2.117901684902704
 21
7.309049133534099
 31
0.0
  0
LINE
  5
812
330
1F
100
AcDbEntity
  8
Object
100
AcDbLine
 10
2.117901684902704
 20
7.057049133534098
 30
0.0
 11
2.177901684902703
 21
7.057049133534098
 31
0.0
  0
LINE
  5
813
330
1F
100
AcDbEntity
  8
Object
100
AcDbLine
 10
2.177901684902703
 20
7.057049133534098
 30
0.0
 11
2.117901684902704
 21
7.030049133534099
 31
0.0
  0
LINE
  5
814
330
1F
100
AcDbEntity
  8
Object
100
AcDbLine
 10
2.117901684902704
 20
7.030049133534099
 30
0.0
 11
2.117901684902704
 21
7.006049133534099
 31
0.0
  0
LINE
  5
815
330
1F
100
AcDbEntity
  8
Object
100
AcDbLine
 10
2.117901684902704
 20
7.006049133534099
 30
0.0
 11
2.103901684902703
 21
6.998049133534099
 31
0.0
  0
LINE
  5
816
330
1F
100
AcDbEntity
  8
Object
100
AcDbLine
 10
2.117901684902704
 20
7.104049133534099
 30
0.0
 11
2.117901684902704
 21
7.128049133534099
 31
0.0
  0
LINE
  5
817
330
1F
100
AcDbEntity
  8
Object
100
AcDbLine
 10
2.117901684902704
 20
7.057049133534098
 30
0.0
 11
2.117901684902704
 21
7.088049133534099
 31
0.0
  0
LINE
  5
818
330
1F
100
AcDbEntity
  8
Object
100
AcDbLine
 10
2.093901684902704
 20
6.984049133534099
 30
0.0
 11
2.103901684902703
 21
6.998049133534099
 31
0.0
  0
LINE
  5
819
330
1F
100
AcDbEntity
  8
Object
100
AcDbLine
 10
2.117901684902704
 20
7.144049133534099
 30
0.0
 11
2.117901684902704
 21
7.195049133534099
 31
0.0
  0
LINE
  5
81A
330
1F
100
AcDbEntity
  8
Object
100
AcDbLine
 10
2.089901684902704
 20
6.967049133534098
 30
0.0
 11
2.093901684902704
 21
6.984049133534099
 31
0.0
  0
LINE
  5
81B
330
1F
100
AcDbEntity
  8
Object
100
AcDbLine
 10
2.117901684902704
 20
7.228049133534098
 30
0.0
 11
2.117901684902704
 21
7.258049133534099
 31
0.0
  0
LINE
  5
81C
330
1F
100
AcDbEntity
  8
Object
100
AcDbLine
 10
2.841901684902704
 20
7.362049133534099
 30
0.0
 11
2.905901684902704
 21
7.378049133534099
 31
0.0
  0
LINE
  5
81D
330
1F
100
AcDbEntity
  8
Object
100
AcDbLine
 10
2.136901684902704
 20
7.418049133534099
 30
0.0
 11
2.117901684902704
 21
7.418049133534099
 31
0.0
  0
LINE
  5
81E
330
1F
100
AcDbEntity
  8
Object
100
AcDbLine
 10
2.117901684902704
 20
7.418049133534099
 30
0.0
 11
2.117901684902704
 21
7.350049133534098
 31
0.0
  0
LINE
  5
81F
330
1F
100
AcDbEntity
  8
Object
100
AcDbLine
 10
3.616901684902704
 20
7.884049133534098
 30
0.0
 11
1.964901684902704
 21
7.884049133534098
 31
0.0
  0
LINE
  5
820
330
1F
100
AcDbEntity
  8
Object
100
AcDbLine
 10
2.117901684902704
 20
7.309049133534099
 30
0.0
 11
2.117901684902704
 21
7.334049133534098
 31
0.0
  0
LINE
  5
821
330
1F
100
AcDbEntity
  8
Object
100
AcDbLine
 10
2.117901684902704
 20
7.274049133534099
 30
0.0
 11
2.117901684902704
 21
7.293049133534099
 31
0.0
  0
LINE
  5
822
330
1F
100
AcDbEntity
  8
Object
100
AcDbLine
 10
2.089901684902704
 20
6.967049133534098
 30
0.0
 11
2.089901684902704
 21
6.884049133534098
 31
0.0
  0
LINE
  5
823
330
1F
100
AcDbEntity
  8
Object
100
AcDbLine
 10
2.089901684902704
 20
6.884049133534098
 30
0.0
 11
2.209901684902703
 21
6.884049133534098
 31
0.0
  0
LINE
  5
824
330
1F
100
AcDbEntity
  8
Object
100
AcDbLine
 10
2.783901684902704
 20
6.886049133534099
 30
0.0
 11
2.841901684902704
 21
6.855049133534098
 31
0.0
  0
LINE
  5
825
330
1F
100
AcDbEntity
  8
Object
100
AcDbLine
 10
2.841901684902704
 20
6.855049133534098
 30
0.0
 11
2.905901684902704
 21
6.840049133534098
 31
0.0
  0
LINE
  5
826
330
1F
100
AcDbEntity
  8
Object
100
AcDbLine
 10
1.964901684902704
 20
7.884049133534098
 30
0.0
 11
1.964901684902704
 21
6.484049133534099
 31
0.0
  0
LINE
  5
827
330
1F
100
AcDbEntity
  8
Object
100
AcDbLine
 10
1.964901684902704
 20
6.484049133534099
 30
0.0
 11
3.616901684902704
 21
6.484049133534099
 31
0.0
  0
LINE
  5
828
330
1F
100
AcDbEntity
  8
Object
100
AcDbLine
 10
1.964901684902704
 20
6.334049133534098
 30
0.0
 11
3.616901684902704
 21
6.334049133534098
 31
0.0
  0
LINE
  5
829
330
1F
100
AcDbEntity
  8
Object
100
AcDbLine
 10
1.964901684902704
 20
6.437049133534099
 30
0.0
 11
1.964901684902704
 21
6.395049133534098
 31
0.0
  0
LINE
  5
82A
330
1F
100
AcDbEntity
  8
Object
100
AcDbLine
 10
3.616901684902704
 20
6.362049133534099
 30
0.0
 11
3.616901684902704
 21
6.395049133534098
 31
0.0
  0
LINE
  5
82B
330
1F
100
AcDbEntity
  8
Object
100
AcDbLine
 10
1.964901684902704
 20
6.362049133534099
 30
0.0
 11
1.964901684902704
 21
6.341049133534099
 31
0.0
  0
LINE
  5
82C
330
1F
100
AcDbEntity
  8
Object
100
AcDbLine
 10
3.616901684902704
 20
6.341049133534099
 30
0.0
 11
3.616901684902704
 21
6.334049133534098
 31
0.0
  0
LINE
  5
82D
330
1F
100
AcDbEntity
  8
Object
100
AcDbLine
 10
3.616901684902704
 20
6.334049133534098
 30
0.0
 11
1.964901684902704
 21
6.334049133534098
 31
0.0
  0
LINE
  5
82E
330
1F
100
AcDbEntity
  8
Object
100
AcDbLine
 10
1.964901684902704
 20
6.334049133534098
 30
0.0
 11
1.964901684902704
 21
6.341049133534099
 31
0.0
  0
LINE
  5
82F
330
1F
100
AcDbEntity
  8
Object
100
AcDbLine
 10
3.616901684902704
 20
6.341049133534099
 30
0.0
 11
3.616901684902704
 21
6.362049133534099
 31
0.0
  0
LINE
  5
830
330
1F
100
AcDbEntity
  8
Object
100
AcDbLine
 10
1.964901684902704
 20
6.395049133534098
 30
0.0
 11
1.964901684902704
 21
6.362049133534099
 31
0.0
  0
LINE
  5
831
330
1F
100
AcDbEntity
  8
Object
100
AcDbLine
 10
3.616901684902704
 20
6.395049133534098
 30
0.0
 11
3.616901684902704
 21
6.437049133534099
 31
0.0
  0
LINE
  5
832
330
1F
100
AcDbEntity
  8
Object
100
AcDbLine
 10
1.964901684902704
 20
6.484049133534099
 30
0.0
 11
1.964901684902704
 21
6.437049133534099
 31
0.0
  0
LINE
  5
833
330
1F
100
AcDbEntity
  8
Object
100
AcDbLine
 10
3.616901684902704
 20
6.437049133534099
 30
0.0
 11
3.616901684902704
 21
6.484049133534099
 31
0.0
  0
LINE
  5
834
330
1F
100
AcDbEntity
  8
Object
100
AcDbLine
 10
3.766901684902704
 20
7.884049133534098
 30
0.0
 11
3.759901684902704
 21
7.884049133534098
 31
0.0
  0
LINE
  5
835
330
1F
100
AcDbEntity
  8
Object
100
AcDbLine
 10
3.759901684902704
 20
7.884049133534098
 30
0.0
 11
3.738901684902704
 21
7.884049133534098
 31
0.0
  0
LINE
  5
836
330
1F
100
AcDbEntity
  8
Object
100
AcDbLine
 10
3.738901684902704
 20
7.884049133534098
 30
0.0
 11
3.705901684902704
 21
7.884049133534098
 31
0.0
  0
LINE
  5
837
330
1F
100
AcDbEntity
  8
Object
100
AcDbLine
 10
3.705901684902704
 20
7.884049133534098
 30
0.0
 11
3.663901684902704
 21
7.884049133534098
 31
0.0
  0
LINE
  5
838
330
1F
100
AcDbEntity
  8
Object
100
AcDbLine
 10
3.663901684902704
 20
7.884049133534098
 30
0.0
 11
3.616901684902704
 21
7.884049133534098
 31
0.0
  0
LINE
  5
839
330
1F
100
AcDbEntity
  8
Object
100
AcDbLine
 10
2.209901684902703
 20
6.995049133534099
 30
0.0
 11
2.209901684902703
 21
6.968049133534099
 31
0.0
  0
LINE
  5
83A
330
1F
100
AcDbEntity
  8
Object
100
AcDbLine
 10
2.209901684902703
 20
7.144049133534099
 30
0.0
 11
2.117901684902704
 21
7.144049133534099
 31
0.0
  0
LINE
  5
83B
330
1F
100
AcDbEntity
  8
Object
100
AcDbLine
 10
2.209901684902703
 20
6.938049133534098
 30
0.0
 11
2.209901684902703
 21
6.884049133534098
 31
0.0
  0
LINE
  5
83C
330
1F
100
AcDbEntity
  8
Object
100
AcDbLine
 10
2.117901684902704
 20
7.128049133534099
 30
0.0
 11
2.209901684902703
 21
7.128049133534099
 31
0.0
  0
LINE
  5
83D
330
1F
100
AcDbEntity
  8
Object
100
AcDbLine
 10
2.117901684902704
 20
7.088049133534099
 30
0.0
 11
2.155901684902704
 21
7.104049133534099
 31
0.0
  0
LINE
  5
83E
330
1F
100
AcDbEntity
  8
Object
100
AcDbLine
 10
2.117901684902704
 20
7.030049133534099
 30
0.0
 11
2.177901684902703
 21
7.057049133534098
 31
0.0
  0
LINE
  5
83F
330
1F
100
AcDbEntity
  8
Object
100
AcDbLine
 10
2.134901684902704
 20
7.212049133534098
 30
0.0
 11
2.193901684902703
 21
7.212049133534098
 31
0.0
  0
LINE
  5
840
330
1F
100
AcDbEntity
  8
Object
100
AcDbLine
 10
2.136901684902704
 20
7.418049133534099
 30
0.0
 11
2.136901684902704
 21
7.397049133534099
 31
0.0
  0
LINE
  5
841
330
1F
100
AcDbEntity
  8
Object
100
AcDbLine
 10
2.209901684902703
 20
7.334049133534098
 30
0.0
 11
2.209901684902703
 21
7.309049133534099
 31
0.0
  0
LINE
  5
842
330
1F
100
AcDbEntity
  8
Object
100
AcDbLine
 10
2.170901684902704
 20
7.083049133534099
 30
0.0
 11
2.209901684902703
 21
7.083049133534099
 31
0.0
  0
LINE
  5
843
330
1F
100
AcDbEntity
  8
Object
100
AcDbLine
 10
2.209901684902703
 20
7.195049133534099
 30
0.0
 11
2.209901684902703
 21
7.144049133534099
 31
0.0
  0
LINE
  5
844
330
1F
100
AcDbEntity
  8
Object
100
AcDbLine
 10
2.188901684902704
 20
7.269049133534099
 30
0.0
 11
2.188901684902704
 21
7.272049133534099
 31
0.0
  0
LINE
  5
845
330
1F
100
AcDbEntity
  8
Object
100
AcDbLine
 10
2.188901684902704
 20
7.272049133534099
 30
0.0
 11
2.186901684902704
 21
7.273049133534098
 31
0.0
  0
LINE
  5
846
330
1F
100
AcDbEntity
  8
Object
100
AcDbLine
 10
2.186901684902704
 20
7.273049133534098
 30
0.0
 11
2.184901684902704
 21
7.274049133534099
 31
0.0
  0
LINE
  5
847
330
1F
100
AcDbEntity
  8
Object
100
AcDbLine
 10
2.193901684902703
 20
7.228049133534098
 30
0.0
 11
2.117901684902704
 21
7.228049133534098
 31
0.0
  0
LINE
  5
848
330
1F
100
AcDbEntity
  8
Object
100
AcDbLine
 10
2.209901684902703
 20
7.244049133534098
 30
0.0
 11
2.207901684902703
 21
7.236049133534098
 31
0.0
  0
LINE
  5
849
330
1F
100
AcDbEntity
  8
Object
100
AcDbLine
 10
2.207901684902703
 20
7.236049133534098
 30
0.0
 11
2.201901684902704
 21
7.230049133534098
 31
0.0
  0
LINE
  5
84A
330
1F
100
AcDbEntity
  8
Object
100
AcDbLine
 10
2.201901684902704
 20
7.230049133534098
 30
0.0
 11
2.193901684902703
 21
7.228049133534098
 31
0.0
  0
LINE
  5
84B
330
1F
100
AcDbEntity
  8
Object
100
AcDbLine
 10
2.155901684902704
 20
7.104049133534099
 30
0.0
 11
2.117901684902704
 21
7.104049133534099
 31
0.0
  0
LINE
  5
84C
330
1F
100
AcDbEntity
  8
Object
100
AcDbLine
 10
2.209901684902703
 20
7.369049133534098
 30
0.0
 11
2.136901684902704
 21
7.369049133534098
 31
0.0
  0
LINE
  5
84D
330
1F
100
AcDbEntity
  8
Object
100
AcDbLine
 10
2.177901684902703
 20
7.057049133534098
 30
0.0
 11
2.117901684902704
 21
7.057049133534098
 31
0.0
  0
LINE
  5
84E
330
1F
100
AcDbEntity
  8
Object
100
AcDbLine
 10
2.117901684902704
 20
7.274049133534099
 30
0.0
 11
2.117901684902704
 21
7.293049133534099
 31
0.0
  0
LINE
  5
84F
330
1F
100
AcDbEntity
  8
Object
100
AcDbLine
 10
2.117901684902704
 20
7.258049133534099
 30
0.0
 11
2.184901684902704
 21
7.258049133534099
 31
0.0
  0
LINE
  5
850
330
1F
100
AcDbEntity
  8
Object
100
AcDbLine
 10
2.117901684902704
 20
7.350049133534098
 30
0.0
 11
2.117901684902704
 21
7.418049133534099
 31
0.0
  0
LINE
  5
851
330
1F
100
AcDbEntity
  8
Object
100
AcDbLine
 10
2.136901684902704
 20
7.397049133534099
 30
0.0
 11
2.209901684902703
 21
7.397049133534099
 31
0.0
  0
LINE
  5
852
330
1F
100
AcDbEntity
  8
Object
100
AcDbLine
 10
3.208901684902704
 20
7.109049133534099
 30
0.0
 11
3.200901684902704
 21
7.044049133534098
 31
0.0
  0
LINE
  5
853
330
1F
100
AcDbEntity
  8
Object
100
AcDbLine
 10
3.200901684902704
 20
7.044049133534098
 30
0.0
 11
3.177901684902704
 21
6.983049133534098
 31
0.0
  0
LINE
  5
854
330
1F
100
AcDbEntity
  8
Object
100
AcDbLine
 10
3.177901684902704
 20
6.983049133534098
 30
0.0
 11
3.140901684902704
 21
6.929049133534099
 31
0.0
  0
LINE
  5
855
330
1F
100
AcDbEntity
  8
Object
100
AcDbLine
 10
3.140901684902704
 20
6.929049133534099
 30
0.0
 11
3.091901684902704
 21
6.886049133534099
 31
0.0
  0
LINE
  5
856
102
{ACAD_REACTORS
330
A79
102
}
330
1F
100
AcDbEntity
  8
Object
100
AcDbLine
 10
3.091901684902704
 20
6.886049133534099
 30
0.0
 11
3.033901684902704
 21
6.855049133534098
 31
0.0
  0
LINE
  5
857
330
1F
100
AcDbEntity
  8
Object
100
AcDbLine
 10
3.033901684902704
 20
6.855049133534098
 30
0.0
 11
2.970901684902704
 21
6.840049133534098
 31
0.0
  0
LINE
  5
858
330
1F
100
AcDbEntity
  8
Object
100
AcDbLine
 10
2.970901684902704
 20
6.840049133534098
 30
0.0
 11
2.905901684902704
 21
6.840049133534098
 31
0.0
  0
LINE
  5
859
330
1F
100
AcDbEntity
  8
Object
100
AcDbLine
 10
2.905901684902704
 20
6.840049133534098
 30
0.0
 11
2.841901684902704
 21
6.855049133534098
 31
0.0
  0
LINE
  5
85A
330
1F
100
AcDbEntity
  8
Object
100
AcDbLine
 10
2.841901684902704
 20
6.855049133534098
 30
0.0
 11
2.783901684902704
 21
6.886049133534099
 31
0.0
  0
LINE
  5
85B
330
1F
100
AcDbEntity
  8
Object
100
AcDbLine
 10
2.783901684902704
 20
6.886049133534099
 30
0.0
 11
2.734901684902704
 21
6.929049133534099
 31
0.0
  0
LINE
  5
85C
330
1F
100
AcDbEntity
  8
Object
100
AcDbLine
 10
2.734901684902704
 20
6.929049133534099
 30
0.0
 11
2.697901684902704
 21
6.983049133534098
 31
0.0
  0
LINE
  5
85D
330
1F
100
AcDbEntity
  8
Object
100
AcDbLine
 10
2.697901684902704
 20
6.983049133534098
 30
0.0
 11
2.674901684902703
 21
7.044049133534098
 31
0.0
  0
LINE
  5
85E
330
1F
100
AcDbEntity
  8
Object
100
AcDbLine
 10
2.674901684902703
 20
7.044049133534098
 30
0.0
 11
2.666901684902704
 21
7.109049133534099
 31
0.0
  0
LINE
  5
85F
330
1F
100
AcDbEntity
  8
Object
100
AcDbLine
 10
2.209901684902703
 20
7.309049133534099
 30
0.0
 11
2.117901684902704
 21
7.309049133534099
 31
0.0
  0
LINE
  5
860
330
1F
100
AcDbEntity
  8
Object
100
AcDbLine
 10
2.209901684902703
 20
7.277049133534099
 30
0.0
 11
2.209901684902703
 21
7.244049133534098
 31
0.0
  0
LINE
  5
861
330
1F
100
AcDbEntity
  8
Object
100
AcDbLine
 10
2.188901684902704
 20
7.263049133534098
 30
0.0
 11
2.188901684902704
 21
7.269049133534099
 31
0.0
  0
LINE
  5
862
330
1F
100
AcDbEntity
  8
Object
100
AcDbLine
 10
2.136901684902704
 20
7.369049133534098
 30
0.0
 11
2.136901684902704
 21
7.350049133534098
 31
0.0
  0
LINE
  5
863
330
1F
100
AcDbEntity
  8
Object
100
AcDbLine
 10
2.117901684902704
 20
7.006049133534099
 30
0.0
 11
2.117901684902704
 21
7.030049133534099
 31
0.0
  0
LINE
  5
864
330
1F
100
AcDbEntity
  8
Object
100
AcDbLine
 10
2.184901684902704
 20
7.274049133534099
 30
0.0
 11
2.117901684902704
 21
7.274049133534099
 31
0.0
  0
LINE
  5
865
330
1F
100
AcDbEntity
  8
Object
100
AcDbLine
 10
2.136901684902704
 20
7.350049133534098
 30
0.0
 11
2.117901684902704
 21
7.350049133534098
 31
0.0
  0
LINE
  5
866
330
1F
100
AcDbEntity
  8
Object
100
AcDbLine
 10
2.117901684902704
 20
7.309049133534099
 30
0.0
 11
2.117901684902704
 21
7.334049133534098
 31
0.0
  0
LINE
  5
867
330
1F
100
AcDbEntity
  8
Object
100
AcDbLine
 10
2.117901684902704
 20
7.334049133534098
 30
0.0
 11
2.209901684902703
 21
7.334049133534098
 31
0.0
  0
LINE
  5
868
330
1F
100
AcDbEntity
  8
Object
100
AcDbLine
 10
2.134901684902704
 20
7.212049133534098
 30
0.0
 11
2.126901684902704
 21
7.209049133534098
 31
0.0
  0
LINE
  5
869
330
1F
100
AcDbEntity
  8
Object
100
AcDbLine
 10
2.126901684902704
 20
7.209049133534098
 30
0.0
 11
2.120901684902704
 21
7.203049133534099
 31
0.0
  0
LINE
  5
86A
330
1F
100
AcDbEntity
  8
Object
100
AcDbLine
 10
2.120901684902704
 20
7.203049133534099
 30
0.0
 11
2.117901684902704
 21
7.195049133534099
 31
0.0
  0
LINE
  5
86B
330
1F
100
AcDbEntity
  8
Object
100
AcDbLine
 10
2.209901684902703
 20
7.277049133534099
 30
0.0
 11
2.207901684902703
 21
7.285049133534099
 31
0.0
  0
LINE
  5
86C
330
1F
100
AcDbEntity
  8
Object
100
AcDbLine
 10
2.207901684902703
 20
7.285049133534099
 30
0.0
 11
2.201901684902704
 21
7.291049133534098
 31
0.0
  0
LINE
  5
86D
330
1F
100
AcDbEntity
  8
Object
100
AcDbLine
 10
2.201901684902704
 20
7.291049133534098
 30
0.0
 11
2.193901684902703
 21
7.293049133534099
 31
0.0
  0
LINE
  5
86E
330
1F
100
AcDbEntity
  8
Object
100
AcDbLine
 10
2.117901684902704
 20
7.228049133534098
 30
0.0
 11
2.117901684902704
 21
7.258049133534099
 31
0.0
  0
LINE
  5
86F
330
1F
100
AcDbEntity
  8
Object
100
AcDbLine
 10
2.117901684902704
 20
7.418049133534099
 30
0.0
 11
2.136901684902704
 21
7.418049133534099
 31
0.0
  0
LINE
  5
870
330
1F
100
AcDbEntity
  8
Object
100
AcDbLine
 10
3.208901684902704
 20
7.109049133534099
 30
0.0
 11
3.200901684902704
 21
7.174049133534098
 31
0.0
  0
LINE
  5
871
330
1F
100
AcDbEntity
  8
Object
100
AcDbLine
 10
3.200901684902704
 20
7.174049133534098
 30
0.0
 11
3.177901684902704
 21
7.235049133534098
 31
0.0
  0
LINE
  5
872
330
1F
100
AcDbEntity
  8
Object
100
AcDbLine
 10
3.177901684902704
 20
7.235049133534098
 30
0.0
 11
3.140901684902704
 21
7.289049133534098
 31
0.0
  0
LINE
  5
873
330
1F
100
AcDbEntity
  8
Object
100
AcDbLine
 10
3.140901684902704
 20
7.289049133534098
 30
0.0
 11
3.091901684902704
 21
7.332049133534098
 31
0.0
  0
LINE
  5
874
330
1F
100
AcDbEntity
  8
Object
100
AcDbLine
 10
3.091901684902704
 20
7.332049133534098
 30
0.0
 11
3.033901684902704
 21
7.362049133534099
 31
0.0
  0
LINE
  5
875
330
1F
100
AcDbEntity
  8
Object
100
AcDbLine
 10
3.033901684902704
 20
7.362049133534099
 30
0.0
 11
2.970901684902704
 21
7.378049133534099
 31
0.0
  0
LINE
  5
876
330
1F
100
AcDbEntity
  8
Object
100
AcDbLine
 10
2.970901684902704
 20
7.378049133534099
 30
0.0
 11
2.905901684902704
 21
7.378049133534099
 31
0.0
  0
LINE
  5
877
330
1F
100
AcDbEntity
  8
Object
100
AcDbLine
 10
2.905901684902704
 20
7.378049133534099
 30
0.0
 11
2.841901684902704
 21
7.362049133534099
 31
0.0
  0
LINE
  5
878
330
1F
100
AcDbEntity
  8
Object
100
AcDbLine
 10
2.841901684902704
 20
7.362049133534099
 30
0.0
 11
2.783901684902704
 21
7.332049133534098
 31
0.0
  0
LINE
  5
879
330
1F
100
AcDbEntity
  8
Object
100
AcDbLine
 10
2.783901684902704
 20
7.332049133534098
 30
0.0
 11
2.734901684902704
 21
7.289049133534098
 31
0.0
  0
LINE
  5
87A
330
1F
100
AcDbEntity
  8
Object
100
AcDbLine
 10
2.734901684902704
 20
7.289049133534098
 30
0.0
 11
2.697901684902704
 21
7.235049133534098
 31
0.0
  0
LINE
  5
87B
330
1F
100
AcDbEntity
  8
Object
100
AcDbLine
 10
2.697901684902704
 20
7.235049133534098
 30
0.0
 11
2.674901684902703
 21
7.174049133534098
 31
0.0
  0
LINE
  5
87C
330
1F
100
AcDbEntity
  8
Object
100
AcDbLine
 10
2.674901684902703
 20
7.174049133534098
 30
0.0
 11
2.666901684902704
 21
7.109049133534099
 31
0.0
  0
LINE
  5
87D
330
1F
100
AcDbEntity
  8
Object
100
AcDbLine
 10
2.172901684902704
 20
6.967049133534098
 30
0.0
 11
2.172901684902704
 21
6.938049133534098
 31
0.0
  0
LINE
  5
87E
330
1F
100
AcDbEntity
  8
Object
100
AcDbLine
 10
2.196901684902703
 20
7.036049133534098
 30
0.0
 11
2.196901684902703
 21
7.001049133534098
 31
0.0
  0
LINE
  5
87F
330
1F
100
AcDbEntity
  8
Object
100
AcDbLine
 10
2.209901684902703
 20
7.128049133534099
 30
0.0
 11
2.209901684902703
 21
7.100049133534098
 31
0.0
  0
LINE
  5
880
330
1F
100
AcDbEntity
  8
Object
100
AcDbLine
 10
2.117901684902704
 20
7.006049133534099
 30
0.0
 11
2.103901684902703
 21
6.998049133534099
 31
0.0
  0
LINE
  5
881
330
1F
100
AcDbEntity
  8
Object
100
AcDbLine
 10
2.103901684902703
 20
6.998049133534099
 30
0.0
 11
2.093901684902704
 21
6.984049133534099
 31
0.0
  0
LINE
  5
882
330
1F
100
AcDbEntity
  8
Object
100
AcDbLine
 10
2.093901684902704
 20
6.984049133534099
 30
0.0
 11
2.089901684902704
 21
6.967049133534098
 31
0.0
  0
LINE
  5
883
330
1F
100
AcDbEntity
  8
Object
100
AcDbLine
 10
2.188901684902704
 20
7.263049133534098
 30
0.0
 11
2.188901684902704
 21
7.260049133534098
 31
0.0
  0
LINE
  5
884
330
1F
100
AcDbEntity
  8
Object
100
AcDbLine
 10
2.188901684902704
 20
7.260049133534098
 30
0.0
 11
2.186901684902704
 21
7.259049133534098
 31
0.0
  0
LINE
  5
885
330
1F
100
AcDbEntity
  8
Object
100
AcDbLine
 10
2.186901684902704
 20
7.259049133534098
 30
0.0
 11
2.184901684902704
 21
7.258049133534099
 31
0.0
  0
LINE
  5
886
330
1F
100
AcDbEntity
  8
Object
100
AcDbLine
 10
2.209901684902703
 20
6.968049133534099
 30
0.0
 11
2.168901684902704
 21
6.985049133534098
 31
0.0
  0
LINE
  5
887
330
1F
100
AcDbEntity
  8
Object
100
AcDbLine
 10
2.209901684902703
 20
7.083049133534099
 30
0.0
 11
2.209901684902703
 21
7.042049133534098
 31
0.0
  0
LINE
  5
888
330
1F
100
AcDbEntity
  8
Object
100
AcDbLine
 10
2.089901684902704
 20
6.884049133534098
 30
0.0
 11
2.089901684902704
 21
6.967049133534098
 31
0.0
  0
LINE
  5
889
330
1F
100
AcDbEntity
  8
Object
100
AcDbLine
 10
2.117901684902704
 20
7.144049133534099
 30
0.0
 11
2.117901684902704
 21
7.195049133534099
 31
0.0
  0
LINE
  5
88A
330
1F
100
AcDbEntity
  8
Object
100
AcDbLine
 10
2.117901684902704
 20
7.293049133534099
 30
0.0
 11
2.193901684902703
 21
7.293049133534099
 31
0.0
  0
LINE
  5
88B
330
1F
100
AcDbEntity
  8
Object
100
AcDbLine
 10
2.172901684902704
 20
6.938049133534098
 30
0.0
 11
2.209901684902703
 21
6.938049133534098
 31
0.0
  0
LINE
  5
88C
330
1F
100
AcDbEntity
  8
Object
100
AcDbLine
 10
2.196901684902703
 20
7.001049133534098
 30
0.0
 11
2.209901684902703
 21
6.995049133534099
 31
0.0
  0
LINE
  5
88D
330
1F
100
AcDbEntity
  8
Object
100
AcDbLine
 10
2.117901684902704
 20
7.104049133534099
 30
0.0
 11
2.117901684902704
 21
7.128049133534099
 31
0.0
  0
LINE
  5
88E
330
1F
100
AcDbEntity
  8
Object
100
AcDbLine
 10
3.759901684902704
 20
7.884049133534098
 30
0.0
 11
3.766901684902704
 21
7.884049133534098
 31
0.0
  0
LINE
  5
88F
330
1F
100
AcDbEntity
  8
Object
100
AcDbLine
 10
3.766901684902704
 20
7.884049133534098
 30
0.0
 11
3.766901684902704
 21
6.484049133534099
 31
0.0
  0
LINE
  5
890
330
1F
100
AcDbEntity
  8
Object
100
AcDbLine
 10
3.766901684902704
 20
6.484049133534099
 30
0.0
 11
3.759901684902704
 21
6.484049133534099
 31
0.0
  0
LINE
  5
891
330
1F
100
AcDbEntity
  8
Object
100
AcDbLine
 10
3.759901684902704
 20
6.484049133534099
 30
0.0
 11
3.738901684902704
 21
6.484049133534099
 31
0.0
  0
LINE
  5
892
330
1F
100
AcDbEntity
  8
Object
100
AcDbLine
 10
3.759901684902704
 20
7.884049133534098
 30
0.0
 11
3.738901684902704
 21
7.884049133534098
 31
0.0
  0
LINE
  5
893
330
1F
100
AcDbEntity
  8
Object
100
AcDbLine
 10
3.738901684902704
 20
7.884049133534098
 30
0.0
 11
3.705901684902704
 21
7.884049133534098
 31
0.0
  0
LINE
  5
894
330
1F
100
AcDbEntity
  8
Object
100
AcDbLine
 10
3.738901684902704
 20
6.484049133534099
 30
0.0
 11
3.705901684902704
 21
6.484049133534099
 31
0.0
  0
LINE
  5
895
330
1F
100
AcDbEntity
  8
Object
100
AcDbLine
 10
3.705901684902704
 20
6.484049133534099
 30
0.0
 11
3.663901684902704
 21
6.484049133534099
 31
0.0
  0
LINE
  5
896
330
1F
100
AcDbEntity
  8
Object
100
AcDbLine
 10
3.705901684902704
 20
7.884049133534098
 30
0.0
 11
3.663901684902704
 21
7.884049133534098
 31
0.0
  0
LINE
  5
897
330
1F
100
AcDbEntity
  8
Object
100
AcDbLine
 10
3.616901684902704
 20
6.484049133534099
 30
0.0
 11
3.663901684902704
 21
6.484049133534099
 31
0.0
  0
LINE
  5
898
330
1F
100
AcDbEntity
  8
Object
100
AcDbLine
 10
3.663901684902704
 20
7.884049133534098
 30
0.0
 11
3.616901684902704
 21
7.884049133534098
 31
0.0
  0
LINE
  5
899
330
1F
100
AcDbEntity
  8
Object
100
AcDbLine
 10
2.209901684902703
 20
7.042049133534098
 30
0.0
 11
2.196901684902703
 21
7.036049133534098
 31
0.0
  0
LINE
  5
89A
330
1F
100
AcDbEntity
  8
Object
100
AcDbLine
 10
2.117901684902704
 20
7.057049133534098
 30
0.0
 11
2.117901684902704
 21
7.088049133534099
 31
0.0
  0
LINE
  5
89B
330
1F
100
AcDbEntity
  8
Object
100
AcDbLine
 10
2.209901684902703
 20
6.884049133534098
 30
0.0
 11
2.089901684902704
 21
6.884049133534098
 31
0.0
  0
LINE
  5
89C
330
1F
100
AcDbEntity
  8
Object
100
AcDbLine
 10
2.209901684902703
 20
7.195049133534099
 30
0.0
 11
2.207901684902703
 21
7.203049133534099
 31
0.0
  0
LINE
  5
89D
330
1F
100
AcDbEntity
  8
Object
100
AcDbLine
 10
2.207901684902703
 20
7.203049133534099
 30
0.0
 11
2.201901684902704
 21
7.209049133534098
 31
0.0
  0
LINE
  5
89E
330
1F
100
AcDbEntity
  8
Object
100
AcDbLine
 10
2.201901684902704
 20
7.209049133534098
 30
0.0
 11
2.193901684902703
 21
7.212049133534098
 31
0.0
  0
LINE
  5
89F
330
1F
100
AcDbEntity
  8
Object
100
AcDbLine
 10
2.172901684902704
 20
6.967049133534098
 30
0.0
 11
2.171901684902704
 21
6.973049133534098
 31
0.0
  0
LINE
  5
8A0
330
1F
100
AcDbEntity
  8
Object
100
AcDbLine
 10
2.171901684902704
 20
6.973049133534098
 30
0.0
 11
2.170901684902704
 21
6.979049133534099
 31
0.0
  0
LINE
  5
8A1
330
1F
100
AcDbEntity
  8
Object
100
AcDbLine
 10
2.170901684902704
 20
6.979049133534099
 30
0.0
 11
2.168901684902704
 21
6.985049133534098
 31
0.0
  0
LINE
  5
8A2
330
1F
100
AcDbEntity
  8
Object
100
AcDbLine
 10
2.209901684902703
 20
7.100049133534098
 30
0.0
 11
2.170901684902704
 21
7.083049133534099
 31
0.0
  0
LINE
  5
8A3
330
1F
100
AcDbEntity
  8
Object
100
AcDbLine
 10
2.209901684902703
 20
7.397049133534099
 30
0.0
 11
2.209901684902703
 21
7.369049133534098
 31
0.0
  0
LINE
  5
8A4
330
1F
100
AcDbEntity
  8
Object
100
AcDbLine
 10
3.616901684902704
 20
6.362049133534099
 30
0.0
 11
3.616901684902704
 21
6.395049133534098
 31
0.0
  0
LINE
  5
8A5
102
{ACAD_REACTORS
330
8F7
102
}
330
1F
100
AcDbEntity
  8
Object
100
AcDbLine
 10
3.616901684902704
 20
6.334049133534098
 30
0.0
 11
3.616901684902704
 21
6.341049133534099
 31
0.0
  0
LINE
  5
8A6
330
1F
100
AcDbEntity
  8
Object
100
AcDbLine
 10
3.616901684902704
 20
6.341049133534099
 30
0.0
 11
3.616901684902704
 21
6.362049133534099
 31
0.0
  0
LINE
  5
8A7
330
1F
100
AcDbEntity
  8
Object
100
AcDbLine
 10
3.616901684902704
 20
6.395049133534098
 30
0.0
 11
3.616901684902704
 21
6.437049133534099
 31
0.0
  0
LINE
  5
8A8
330
1F
100
AcDbEntity
  8
Object
100
AcDbLine
 10
3.616901684902704
 20
6.437049133534099
 30
0.0
 11
3.616901684902704
 21
6.484049133534099
 31
0.0
  0
LINE
  5
8A9
330
1F
100
AcDbEntity
  8
Object
100
AcDbLine
 10
3.766901684902704
 20
7.884049133534098
 30
0.0
 11
3.766901684902704
 21
6.484049133534099
 31
0.0
  0
LINE
  5
8AA
330
1F
100
AcDbEntity
  8
Object
100
AcDbLine
 10
3.766901684902704
 20
6.484049133534099
 30
0.0
 11
3.759901684902704
 21
6.484049133534099
 31
0.0
  0
LINE
  5
8AB
330
1F
100
AcDbEntity
  8
Object
100
AcDbLine
 10
3.759901684902704
 20
6.484049133534099
 30
0.0
 11
3.738901684902704
 21
6.484049133534099
 31
0.0
  0
LINE
  5
8AC
330
1F
100
AcDbEntity
  8
Object
100
AcDbLine
 10
3.738901684902704
 20
6.484049133534099
 30
0.0
 11
3.705901684902704
 21
6.484049133534099
 31
0.0
  0
LINE
  5
8AD
330
1F
100
AcDbEntity
  8
Object
100
AcDbLine
 10
3.705901684902704
 20
6.484049133534099
 30
0.0
 11
3.663901684902704
 21
6.484049133534099
 31
0.0
  0
LINE
  5
8AE
330
1F
100
AcDbEntity
  8
Object
100
AcDbLine
 10
3.663901684902704
 20
6.484049133534099
 30
0.0
 11
3.616901684902704
 21
6.484049133534099
 31
0.0
  0
LINE
  5
8AF
330
1F
100
AcDbEntity
  8
Object
100
AcDbLine
 10
2.147901684902704
 20
6.955049133534099
 30
0.0
 11
2.116901684902703
 21
6.955049133534099
 31
0.0
  0
LINE
  5
8B0
330
1F
100
AcDbEntity
  8
Object
100
AcDbLine
 10
2.153901684902704
 20
6.938049133534098
 30
0.0
 11
2.153901684902704
 21
6.949049133534098
 31
0.0
  0
LINE
  5
8B1
330
1F
100
AcDbEntity
  8
Object
100
AcDbLine
 10
2.153901684902704
 20
6.949049133534098
 30
0.0
 11
2.152901684902704
 21
6.952049133534099
 31
0.0
  0
LINE
  5
8B2
330
1F
100
AcDbEntity
  8
Object
100
AcDbLine
 10
2.152901684902704
 20
6.952049133534099
 30
0.0
 11
2.150901684902704
 21
6.954049133534098
 31
0.0
  0
LINE
  5
8B3
330
1F
100
AcDbEntity
  8
Object
100
AcDbLine
 10
2.150901684902704
 20
6.954049133534098
 30
0.0
 11
2.147901684902704
 21
6.955049133534099
 31
0.0
  0
LINE
  5
8B4
330
1F
100
AcDbEntity
  8
Object
100
AcDbLine
 10
2.110901684902704
 20
6.949049133534098
 30
0.0
 11
2.110901684902704
 21
6.938049133534098
 31
0.0
  0
LINE
  5
8B5
330
1F
100
AcDbEntity
  8
Object
100
AcDbLine
 10
2.176901684902704
 20
7.006049133534099
 30
0.0
 11
2.176901684902704
 21
7.030049133534099
 31
0.0
  0
LINE
  5
8B6
330
1F
100
AcDbEntity
  8
Object
100
AcDbLine
 10
2.116901684902703
 20
6.955049133534099
 30
0.0
 11
2.113901684902703
 21
6.954049133534098
 31
0.0
  0
LINE
  5
8B7
330
1F
100
AcDbEntity
  8
Object
100
AcDbLine
 10
2.113901684902703
 20
6.954049133534098
 30
0.0
 11
2.111901684902703
 21
6.952049133534099
 31
0.0
  0
LINE
  5
8B8
330
1F
100
AcDbEntity
  8
Object
100
AcDbLine
 10
2.111901684902703
 20
6.952049133534099
 30
0.0
 11
2.110901684902704
 21
6.949049133534098
 31
0.0
  0
LINE
  5
8B9
330
1F
100
AcDbEntity
  8
Object
100
AcDbLine
 10
2.110901684902704
 20
6.938049133534098
 30
0.0
 11
2.153901684902704
 21
6.938049133534098
 31
0.0
  0
LINE
  5
8BA
330
1F
100
AcDbEntity
  8
Object
100
AcDbLine
 10
2.176901684902704
 20
7.030049133534099
 30
0.0
 11
2.150901684902704
 21
7.018049133534098
 31
0.0
  0
LINE
  5
8BB
330
1F
100
AcDbEntity
  8
Object
100
AcDbLine
 10
2.150901684902704
 20
7.018049133534098
 30
0.0
 11
2.176901684902704
 21
7.006049133534099
 31
0.0
  0
LINE
  5
8BC
330
1F
100
AcDbEntity
  8
Object
100
AcDbLine
 10
2.188901684902704
 20
7.171049133534099
 30
0.0
 11
2.188901684902704
 21
7.180049133534098
 31
0.0
  0
LINE
  5
8BD
330
1F
100
AcDbEntity
  8
Object
100
AcDbLine
 10
2.188901684902704
 20
7.180049133534098
 30
0.0
 11
2.188901684902704
 21
7.183049133534098
 31
0.0
  0
LINE
  5
8BE
330
1F
100
AcDbEntity
  8
Object
100
AcDbLine
 10
2.188901684902704
 20
7.183049133534098
 30
0.0
 11
2.186901684902704
 21
7.184049133534099
 31
0.0
  0
LINE
  5
8BF
330
1F
100
AcDbEntity
  8
Object
100
AcDbLine
 10
2.186901684902704
 20
7.184049133534099
 30
0.0
 11
2.184901684902704
 21
7.185049133534098
 31
0.0
  0
LINE
  5
8C0
330
1F
100
AcDbEntity
  8
Object
100
AcDbLine
 10
2.137901684902704
 20
7.171049133534099
 30
0.0
 11
2.188901684902704
 21
7.171049133534099
 31
0.0
  0
LINE
  5
8C1
330
1F
100
AcDbEntity
  8
Object
100
AcDbLine
 10
2.184901684902704
 20
7.185049133534098
 30
0.0
 11
2.141901684902704
 21
7.185049133534098
 31
0.0
  0
LINE
  5
8C2
330
1F
100
AcDbEntity
  8
Object
100
AcDbLine
 10
2.141901684902704
 20
7.185049133534098
 30
0.0
 11
2.139901684902704
 21
7.184049133534099
 31
0.0
  0
LINE
  5
8C3
330
1F
100
AcDbEntity
  8
Object
100
AcDbLine
 10
2.139901684902704
 20
7.184049133534099
 30
0.0
 11
2.137901684902704
 21
7.183049133534098
 31
0.0
  0
LINE
  5
8C4
330
1F
100
AcDbEntity
  8
Object
100
AcDbLine
 10
2.137901684902704
 20
7.183049133534098
 30
0.0
 11
2.137901684902704
 21
7.180049133534098
 31
0.0
  0
LINE
  5
8C5
330
1F
100
AcDbEntity
  8
Object
100
AcDbLine
 10
2.137901684902704
 20
7.180049133534098
 30
0.0
 11
2.137901684902704
 21
7.171049133534099
 31
0.0
  0
LINE
  5
8C6
330
1F
100
AcDbEntity
  8
Object
100
AcDbLine
 10
2.147901684902704
 20
6.955049133534099
 30
0.0
 11
2.150901684902704
 21
6.954049133534098
 31
0.0
  0
LINE
  5
8C7
330
1F
100
AcDbEntity
  8
Object
100
AcDbLine
 10
2.150901684902704
 20
6.954049133534098
 30
0.0
 11
2.152901684902704
 21
6.952049133534099
 31
0.0
  0
LINE
  5
8C8
330
1F
100
AcDbEntity
  8
Object
100
AcDbLine
 10
2.152901684902704
 20
6.952049133534099
 30
0.0
 11
2.153901684902704
 21
6.949049133534098
 31
0.0
  0
LINE
  5
8C9
330
1F
100
AcDbEntity
  8
Object
100
AcDbLine
 10
2.153901684902704
 20
6.949049133534098
 30
0.0
 11
2.153901684902704
 21
6.938049133534098
 31
0.0
  0
LINE
  5
8CA
330
1F
100
AcDbEntity
  8
Object
100
AcDbLine
 10
2.111901684902703
 20
6.952049133534099
 30
0.0
 11
2.113901684902703
 21
6.954049133534098
 31
0.0
  0
LINE
  5
8CB
330
1F
100
AcDbEntity
  8
Object
100
AcDbLine
 10
2.113901684902703
 20
6.954049133534098
 30
0.0
 11
2.116901684902703
 21
6.955049133534099
 31
0.0
  0
LINE
  5
8CC
330
1F
100
AcDbEntity
  8
Object
100
AcDbLine
 10
2.110901684902704
 20
6.938049133534098
 30
0.0
 11
2.110901684902704
 21
6.949049133534098
 31
0.0
  0
LINE
  5
8CD
330
1F
100
AcDbEntity
  8
Object
100
AcDbLine
 10
2.110901684902704
 20
6.949049133534098
 30
0.0
 11
2.111901684902703
 21
6.952049133534099
 31
0.0
  0
LINE
  5
8CE
330
1F
100
AcDbEntity
  8
Object
100
AcDbLine
 10
2.147901684902704
 20
6.955049133534099
 30
0.0
 11
2.116901684902703
 21
6.955049133534099
 31
0.0
  0
LINE
  5
8CF
330
1F
100
AcDbEntity
  8
Object
100
AcDbLine
 10
2.110901684902704
 20
6.938049133534098
 30
0.0
 11
2.153901684902704
 21
6.938049133534098
 31
0.0
  0
LINE
  5
8D0
330
1F
100
AcDbEntity
  8
Object
100
AcDbLine
 10
2.176901684902704
 20
7.030049133534099
 30
0.0
 11
2.176901684902704
 21
7.006049133534099
 31
0.0
  0
LINE
  5
8D1
330
1F
100
AcDbEntity
  8
Object
100
AcDbLine
 10
2.176901684902704
 20
7.006049133534099
 30
0.0
 11
2.150901684902704
 21
7.018049133534098
 31
0.0
  0
LINE
  5
8D2
330
1F
100
AcDbEntity
  8
Object
100
AcDbLine
 10
2.150901684902704
 20
7.018049133534098
 30
0.0
 11
2.176901684902704
 21
7.030049133534099
 31
0.0
  0
LINE
  5
8D3
330
1F
100
AcDbEntity
  8
Object
100
AcDbLine
 10
2.184901684902704
 20
7.185049133534098
 30
0.0
 11
2.186901684902704
 21
7.184049133534099
 31
0.0
  0
LINE
  5
8D4
330
1F
100
AcDbEntity
  8
Object
100
AcDbLine
 10
2.186901684902704
 20
7.184049133534099
 30
0.0
 11
2.188901684902704
 21
7.183049133534098
 31
0.0
  0
LINE
  5
8D5
330
1F
100
AcDbEntity
  8
Object
100
AcDbLine
 10
2.188901684902704
 20
7.183049133534098
 30
0.0
 11
2.188901684902704
 21
7.180049133534098
 31
0.0
  0
LINE
  5
8D6
330
1F
100
AcDbEntity
  8
Object
100
AcDbLine
 10
2.188901684902704
 20
7.180049133534098
 30
0.0
 11
2.188901684902704
 21
7.171049133534099
 31
0.0
  0
LINE
  5
8D7
330
1F
100
AcDbEntity
  8
Object
100
AcDbLine
 10
2.137901684902704
 20
7.183049133534098
 30
0.0
 11
2.139901684902704
 21
7.184049133534099
 31
0.0
  0
LINE
  5
8D8
330
1F
100
AcDbEntity
  8
Object
100
AcDbLine
 10
2.139901684902704
 20
7.184049133534099
 30
0.0
 11
2.141901684902704
 21
7.185049133534098
 31
0.0
  0
LINE
  5
8D9
330
1F
100
AcDbEntity
  8
Object
100
AcDbLine
 10
2.137901684902704
 20
7.171049133534099
 30
0.0
 11
2.137901684902704
 21
7.180049133534098
 31
0.0
  0
LINE
  5
8DA
330
1F
100
AcDbEntity
  8
Object
100
AcDbLine
 10
2.137901684902704
 20
7.180049133534098
 30
0.0
 11
2.137901684902704
 21
7.183049133534098
 31
0.0
  0
LINE
  5
8DB
330
1F
100
AcDbEntity
  8
Object
100
AcDbLine
 10
2.184901684902704
 20
7.185049133534098
 30
0.0
 11
2.141901684902704
 21
7.185049133534098
 31
0.0
  0
LINE
  5
8DC
330
1F
100
AcDbEntity
  8
Object
100
AcDbLine
 10
2.137901684902704
 20
7.171049133534099
 30
0.0
 11
2.188901684902704
 21
7.171049133534099
 31
0.0
  0
DIMENSION
  5
8DD
102
{ACAD_XDICTIONARY
360
8EC
102
}
102
{ACAD_REACTORS
330
8F7
102
}
330
1F
100
AcDbEntity
  8
Dimension
100
AcDbDimension
  2
*D1
 10
4.646805171584365
 20
6.334049133534098
 30
0.0
 11
4.646805171584363
 21
7.184049133534099
 31
0.0
 70
    32
 71
     5
 42
1.699999999999999
  3
Standard
100
AcDbAlignedDimension
 13
3.616901684902704
 23
8.034049133534098
 33
0.0
 14
3.616901684902704
 24
6.334049133534098
 34
0.0
 50
90.0
100
AcDbRotatedDimension
  0
DIMENSION
  5
94D
102
{ACAD_XDICTIONARY
360
95B
102
}
102
{ACAD_REACTORS
330
966
102
}
330
1F
100
AcDbEntity
  8
Dimension
100
AcDbDimension
  2
*D2
 10
3.766901684902704
 20
5.414250437549625
 30
0.0
 11
2.865901684902704
 21
5.414250437549625
 31
0.0
 70
   160
 71
     5
 42
1.801999999999999
  3
Standard
100
AcDbAlignedDimension
 13
1.964901684902704
 23
4.936638278919684
 33
0.0
 14
3.766901684902704
 24
4.786638278919683
 34
0.0
100
AcDbRotatedDimension
  0
DIMENSION
  5
97B
102
{ACAD_XDICTIONARY
360
989
102
}
102
{ACAD_REACTORS
330
994
102
}
330
1F
100
AcDbEntity
  8
Dimension
100
AcDbDimension
  2
*D3
 10
6.431032033563841
 20
4.936638278919684
 30
0.0
 11
6.43103203356384
 21
4.106638278919685
 31
0.0
 70
    32
 71
     5
 42
1.66
  3
Standard
100
AcDbAlignedDimension
 13
7.265901684902704
 23
3.276638278919683
 33
0.0
 14
7.415901684902704
 24
4.936638278919684
 34
0.0
 50
90.0
100
AcDbRotatedDimension
  0
TEXT
  5
995
330
1F
100
AcDbEntity
  8
Text
100
AcDbText
 10
1.701877936164361
 20
5.841588448754489
 30
0.0
 40
0.125
  1
TOP VIEW - BRACKET CLIP
100
AcDbText
  0
TEXT
  5
996
330
1F
100
AcDbEntity
  8
Text
100
AcDbText
 10
1.657760204633355
 20
2.918678124552188
 30
0.0
 40
0.125
  1
FRONT VIEW - BRACKET CLIP
100
AcDbText
  0
TEXT
  5
997
330
1F
100
AcDbEntity
  8
Text
100
AcDbText
 10
6.664502521966664
 20
2.909485222450824
 30
0.0
 40
0.125
  1
RIGHT SIDE VIEW - BRACKET CLIP
100
AcDbText
  0
MTEXT
  5
99C
102
{ACAD_XDICTIONARY
360
AA1
102
}
330
1F
100
AcDbEntity
  8
Text
100
AcDbMText
 10
6.417901730363258
 20
8.007508248891838
 30
0.0
 40
0.09
 41
4.178027144776841
 71
     1
 72
     5
  3
\A1;{\LNOTES:\P\P}1.  THE FIBER ROUTING 2-PIECE LADDER RACK BRACKET -{\H0.75x;\S1#2;}" (M12)\P   THREADED ROD INCLUDES:\P\P   TWO (2) BRACKET CLIPS,\P   TWO (2) {\H0.75x;\S1#2;}" HELICAL SPRING LOCKWASHERS,\P   TWO (2) {\H0.75x;\S1#2;}-13 HEAVY HEX N
  1
UTS (F2PCLB12 ONLY),\P   TWO (2) M12x1.75 HEX NUTS (F2PCLB12M ONLY).
 73
     1
 44
1.0
1001
ACAD
1000
MTEXTBEGIN
1070
    73
1070
     1
1070
    44
1040
1.0
1070
    74
1070
     1
1000
MTEXTEND
  0
LEADER
  5
A76
102
{ACAD_XDICTIONARY
360
A78
102
}
102
{ACAD_REACTORS
330
A79
102
}
330
1F
100
AcDbEntity
  8
Dimension
100
AcDbLeader
  3
Standard
 73
     0
 40
0.1260526315789474
 41
1.043157894736842
 76
     3
 10
3.091901684902704
 20
6.886049133534099
 30
0.0
 10
3.619592957009022
 20
6.129783357393129
 30
0.0
 10
3.785800400853542
 20
6.129783357393129
 30
0.0
340
A77
213
0.0
223
-0.045
233
0.0
1001
ACAD
1000
DSTYLE
1002
{
1070
   147
1040
0.09
1070
    77
1070
     0
1002
}
  0
MTEXT
  5
A77
102
{ACAD_REACTORS
330
A76
102
}
330
1F
100
AcDbEntity
  8
Dimension
100
AcDbMText
 10
3.875800400853542
 20
6.174783357393129
 30
0.0
 40
0.09
 41
0.0
 71
     1
 72
     1
  1
0.54 [13.8mm] DIA
 73
     1
 44
1.0
1001
ACAD
1000
MTEXTBEGIN
1070
    73
1070
     1
1070
    44
1040
1.0
1070
    74
1070
     0
1000
MTEXTEND
  0
ENDSEC
  0
SECTION
  2
OBJECTS
  0
DICTIONARY
  5
C
330
0
100
AcDbDictionary
281
     1
  3
ACAD_COLOR
350
73
  3
ACAD_GROUP
350
D
  3
ACAD_LAYOUT
350
1A
  3
ACAD_MATERIAL
350
72
  3
ACAD_MLINESTYLE
350
17
  3
ACAD_PLOTSETTINGS
350
19
  3
ACAD_PLOTSTYLENAME
350
E
  3
ACAD_TABLESTYLE
350
86
  3
ACDBHEADERROUNDTRIPXREC
350
A9A
  3
AcDbVariableDictionary
350
66
  0
DICTIONARY
  5
582
330
2
100
AcDbDictionary
280
     1
281
     1
  3
ACAD_LAYERFILTERS
360
584
  3
ACLYDICTIONARY
360
583
  0
DICTIONARY
  5
57F
330
1F
100
AcDbDictionary
280
     1
281
     1
  3
ACAD_SORTENTS
360
580
  0
DICTIONARY
  5
8EC
330
8DD
100
AcDbDictionary
280
     1
281
     1
  3
ACAD_DIMASSOC
360
8F7
  0
DICTIONARY
  5
95B
330
94D
100
AcDbDictionary
280
     1
281
     1
  3
ACAD_DIMASSOC
360
966
  0
DICTIONARY
  5
989
330
97B
100
AcDbDictionary
280
     1
281
     1
  3
ACAD_DIMASSOC
360
994
  0
DICTIONARY
  5
AA1
330
99C
100
AcDbDictionary
280
     1
281
     1
  3
ACAD_MTEXT_RT
360
AA2
  0
DICTIONARY
  5
A78
330
A76
100
AcDbDictionary
280
     1
281
     1
  3
ACAD_DIMASSOC
360
A79
  0
DICTIONARY
  5
73
102
{ACAD_REACTORS
330
C
102
}
330
C
100
AcDbDictionary
281
     1
  0
DICTIONARY
  5
D
102
{ACAD_REACTORS
330
C
102
}
330
C
100
AcDbDictionary
281
     1
  0
DICTIONARY
  5
1A
102
{ACAD_REACTORS
330
C
102
}
330
C
100
AcDbDictionary
281
     1
  3
Layout1
350
59
  3
Layout2
350
5E
  3
Model
350
22
  0
DICTIONARY
  5
72
102
{ACAD_REACTORS
330
C
102
}
330
C
100
AcDbDictionary
281
     1
  0
DICTIONARY
  5
17
102
{ACAD_REACTORS
330
C
102
}
330
C
100
AcDbDictionary
281
     1
  3
Standard
350
18
  0
DICTIONARY
  5
19
102
{ACAD_REACTORS
330
C
102
}
330
C
100
AcDbDictionary
281
     1
  0
ACDBDICTIONARYWDFLT
  5
E
102
{ACAD_REACTORS
330
C
102
}
330
C
100
AcDbDictionary
281
     1
  3
Normal
350
F
100
AcDbDictionaryWithDefault
340
F
  0
DICTIONARY
  5
86
102
{ACAD_REACTORS
330
C
102
}
330
C
100
AcDbDictionary
281
     1
  3
Standard
350
87
  0
DICTIONARY
  5
A9A
102
{ACAD_REACTORS
330
C
102
}
330
C
100
AcDbDictionary
281
     1
  0
DICTIONARY
  5
66
102
{ACAD_REACTORS
330
C
102
}
330
C
100
AcDbDictionary
281
     1
  3
CTABLESTYLE
350
586
  3
DIMASSOC
350
67
  3
HIDETEXT
350
6B
  3
PROJECTNAME
350
A98
  0
DICTIONARY
  5
584
102
{ACAD_REACTORS
330
582
102
}
330
582
100
AcDbDictionary
281
     1
  0
DICTIONARY
  5
583
102
{ACAD_REACTORS
330
582
102
}
330
582
100
AcDbDictionary
281
     1
1001
ACAD
1000
<All
  0
SORTENTSTABLE
  5
580
102
{ACAD_REACTORS
330
57F
102
}
330
57F
100
AcDbSortentsTable
330
1F
331
571
  5
21B
331
548
  5
1F2
331
538
  5
1E2
331
562
  5
20C
331
555
  5
1FF
331
56F
  5
219
331
57C
  5
226
331
546
  5
1F0
331
560
  5
20A
331
553
  5
1FD
331
56D
  5
217
331
57A
  5
224
331
544
  5
1EE
331
551
  5
1FB
331
56B
  5
215
331
55E
  5
208
331
578
  5
222
331
542
  5
1EC
331
53F
  5
1E9
331
54F
  5
1F9
331
569
  5
213
331
55C
  5
206
331
540
  5
1EA
331
53D
  5
1E7
331
54D
  5
1F7
331
567
  5
211
331
55A
  5
204
331
574
  5
21E
331
53B
  5
1E5
331
54B
  5
1F5
331
565
  5
20F
331
558
  5
202
331
572
  5
21C
331
539
  5
1E3
331
549
  5
1F3
331
563
  5
20D
331
556
  5
200
331
570
  5
21A
331
537
  5
1E1
331
57D
  5
227
331
547
  5
1F1
331
561
  5
20B
331
554
  5
1FE
331
56E
  5
218
331
545
  5
1EF
331
57B
  5
225
331
552
  5
1FC
331
56C
  5
216
331
55F
  5
209
331
579
  5
223
331
543
  5
1ED
331
550
  5
1FA
331
56A
  5
214
331
55D
  5
207
331
577
  5
221
331
541
  5
1EB
331
53E
  5
1E8
331
54E
  5
1F8
331
568
  5
212
331
55B
  5
205
331
53C
  5
1E6
331
54C
  5
1F6
331
566
  5
210
331
559
  5
203
331
573
  5
21D
331
53A
  5
1E4
331
54A
  5
1F4
331
564
  5
20E
331
557
  5
201
  0
DIMASSOC
  5
8F7
102
{ACAD_REACTORS
330
8EC
102
}
330
8EC
100
AcDbDimAssoc
330
8DD
 90
        3
 70
     0
 71
     0
  1
AcDbOsnapPointRef
 72
     1
331
7C1
 73
     2
 91
        0
 40
1.0
 10
0.0
 20
0.0
 30
2.000000000000000E+50
 75
     0
  1
AcDbOsnapPointRef
 72
    13
331
8A5
 73
     2
 91
        0
 40
0.0
 10
0.0
 20
0.0
 30
2.000000000000000E+50
 75
     0
  0
DIMASSOC
  5
966
102
{ACAD_REACTORS
330
95B
102
}
330
95B
100
AcDbDimAssoc
330
94D
 90
        3
 70
     0
 71
     0
  1
AcDbOsnapPointRef
 72
    13
331
72F
 73
     2
 91
        0
 40
0.0
 10
0.0
 20
0.0
 30
2.000000000000000E+50
 75
     0
  1
AcDbOsnapPointRef
 72
    13
331
7A5
 73
     2
 91
        0
 40
0.0
 10
0.0
 20
0.0
 30
2.000000000000000E+50
 75
     0
  0
DIMASSOC
  5
994
102
{ACAD_REACTORS
330
989
102
}
330
989
100
AcDbDimAssoc
330
97B
 90
        3
 70
     0
 71
     0
  1
AcDbOsnapPointRef
 72
    13
331
660
 73
     2
 91
        0
 40
0.0
 10
0.0
 20
0.0
 30
2.000000000000000E+50
 75
     0
  1
AcDbOsnapPointRef
 72
     1
331
6C0
 73
     2
 91
        0
 40
1.0
 10
0.0
 20
0.0
 30
2.000000000000000E+50
 75
     0
  0
XRECORD
  5
AA2
102
{ACAD_REACTORS
330
AA1
102
}
330
AA1
100
AcDbXrecord
280
     1
 40
3240166.0
  1
\A1;{\LNOTES:\P\P\pi-0.18,l0.18;}1.  THE FIBER ROUTING 2-PIECE LADDER RACK BRACKET -{\H0.75x;\S1#2;}" (M12) THREADED ROD INCLUDES:\P\pi0,l0;\P\pi0.18;TWO (2) BRACKET CLIPS,\PTWO (2) {\H0.75x;\S1#2;}" HELICAL SPRING LOCKWASHERS,\PTWO (2) {\H0.75x;\S1#
  1
2;}-13 HEAVY HEX NUTS (F2PCLB12 ONLY),\PTWO (2) M12x1.75 HEX NUTS (F2PCLB12M ONLY).
  0
DIMASSOC
  5
A79
102
{ACAD_REACTORS
330
A78
102
}
330
A78
100
AcDbDimAssoc
330
A76
 90
        1
 70
     0
 71
     0
  1
AcDbOsnapPointRef
 72
    13
331
856
 73
     2
 91
        0
 40
0.0
 10
0.0
 20
0.0
 30
2.000000000000000E+50
 75
     0
  0
LAYOUT
  5
59
102
{ACAD_XDICTIONARY
360
A9D
102
}
102
{ACAD_REACTORS
330
1A
102
}
330
1A
100
AcDbPlotSettings
  1

  2
None
  4

  6

 40
0.0
 41
0.0
 42
0.0
 43
0.0
 44
0.0
 45
0.0
 46
0.0
 47
0.0
 48
0.0
 49
0.0
140
0.0
141
0.0
142
1.0
143
1.0
 70
   688
 72
     0
 73
     0
 74
     5
  7

 75
    16
147
1.0
148
0.0
149
0.0
100
AcDbLayout
  1
Layout1
 70
     1
 71
     1
 10
0.0
 20
0.0
 11
12.0
 21
9.0
 12
0.0
 22
0.0
 32
0.0
 14
0.0
 24
0.0
 34
0.0
 15
0.0
 25
0.0
 35
0.0
146
0.0
 13
0.0
 23
0.0
 33
0.0
 16
1.0
 26
0.0
 36
0.0
 17
0.0
 27
1.0
 37
0.0
 76
     0
330
58
  0
LAYOUT
  5
5E
102
{ACAD_XDICTIONARY
360
A9F
102
}
102
{ACAD_REACTORS
330
1A
102
}
330
1A
100
AcDbPlotSettings
  1

  2
None
  4

  6

 40
0.0
 41
0.0
 42
0.0
 43
0.0
 44
0.0
 45
0.0
 46
0.0
 47
0.0
 48
0.0
 49
0.0
140
0.0
141
0.0
142
1.0
143
1.0
 70
   688
 72
     0
 73
     0
 74
     5
  7

 75
    16
147
1.0
148
0.0
149
0.0
100
AcDbLayout
  1
Layout2
 70
     1
 71
     2
 10
0.0
 20
0.0
 11
12.0
 21
9.0
 12
0.0
 22
0.0
 32
0.0
 14
0.0
 24
0.0
 34
0.0
 15
0.0
 25
0.0
 35
0.0
146
0.0
 13
0.0
 23
0.0
 33
0.0
 16
1.0
 26
0.0
 36
0.0
 17
0.0
 27
1.0
 37
0.0
 76
     0
330
5D
  0
LAYOUT
  5
22
102
{ACAD_XDICTIONARY
360
A9B
102
}
102
{ACAD_REACTORS
330
1A
102
}
330
1A
100
AcDbPlotSettings
  1

  2
none_device
  4
ANSI_A_(8.50_x_11.00_Inches)
  6

 40
6.349999904632568
 41
19.04999923706055
 42
6.350006103515625
 43
19.04998779296875
 44
215.8999938964844
 45
279.3999938964844
 46
0.0
 47
0.0
 48
0.0
 49
0.0
140
0.0
141
0.0
142
1.0
143
2.584895464708373
 70
 11952
 72
     0
 73
     1
 74
     0
  7

 75
     0
147
0.3868628397755418
148
0.0
149
0.0
100
AcDbLayout
  1
Model
 70
     1
 71
     0
 10
0.0
 20
0.0
 11
12.0
 21
9.0
 12
0.0
 22
0.0
 32
0.0
 14
0.0
 24
0.0
 34
0.0
 15
0.0
 25
0.0
 35
0.0
146
0.0
 13
0.0
 23
0.0
 33
0.0
 16
1.0
 26
0.0
 36
0.0
 17
0.0
 27
1.0
 37
0.0
 76
     0
330
1F
  0
MLINESTYLE
  5
18
102
{ACAD_REACTORS
330
17
102
}
330
17
100
AcDbMlineStyle
  2
STANDARD
 70
     0
  3

 62
   256
 51
90.0
 52
90.0
 71
     2
 49
0.5
 62
   256
  6
BYLAYER
 49
-0.5
 62
   256
  6
BYLAYER
  0
ACDBPLACEHOLDER
  5
F
102
{ACAD_REACTORS
330
E
102
}
330
E
  0
TABLESTYLE
  5
87
102
{ACAD_REACTORS
330
86
102
}
330
86
100
AcDbTableStyle
  3
Standard
 70
     0
 71
     0
 40
0.06
 41
0.06
280
     0
281
     0
  7
Standard
140
0.18
170
     2
 62
     0
 63
     7
283
     0
274
    -2
284
     1
 64
     0
275
    -2
285
     1
 65
     0
276
    -2
286
     1
 66
     0
277
    -2
287
     1
 67
     0
278
    -2
288
     1
 68
     0
279
    -2
289
     1
 69
     0
  7
Standard
140
0.25
170
     5
 62
     0
 63
     7
283
     0
274
    -2
284
     1
 64
     0
275
    -2
285
     1
 65
     0
276
    -2
286
     1
 66
     0
277
    -2
287
     1
 67
     0
278
    -2
288
     1
 68
     0
279
    -2
289
     1
 69
     0
  7
Standard
140
0.18
170
     5
 62
     0
 63
     7
283
     0
274
    -2
284
     1
 64
     0
275
    -2
285
     1
 65
     0
276
    -2
286
     1
 66
     0
277
    -2
287
     1
 67
     0
278
    -2
288
     1
 68
     0
279
    -2
289
     1
 69
     0
  0
DICTIONARYVAR
  5
586
102
{ACAD_REACTORS
330
66
102
}
330
66
100
DictionaryVariables
280
     0
  1
STANDARD
  0
DICTIONARYVAR
  5
67
102
{ACAD_REACTORS
330
66
102
}
330
66
100
DictionaryVariables
280
     0
  1
2
  0
DICTIONARYVAR
  5
6B
102
{ACAD_REACTORS
330
66
102
}
330
66
100
DictionaryVariables
280
     0
  1
1
  0
DICTIONARYVAR
  5
A98
102
{ACAD_REACTORS
330
66
102
}
330
66
100
DictionaryVariables
280
     0
  1

  0
DICTIONARY
  5
A9D
330
59
100
AcDbDictionary
280
     1
281
     1
  3
ACAD_XREC_ROUNDTRIP
360
A9E
  0
DICTIONARY
  5
A9F
330
5E
100
AcDbDictionary
280
     1
281
     1
  3
ACAD_XREC_ROUNDTRIP
360
AA0
  0
DICTIONARY
  5
A9B
330
22
100
AcDbDictionary
280
     1
281
     1
  3
ACAD_XREC_ROUNDTRIP
360
A9C
  0
XRECORD
  5
A9E
102
{ACAD_REACTORS
330
A9D
102
}
330
A9D
100
AcDbXrecord
280
     1
102
SHADEPLOT
 70
     0
102
SHADEPLOTRESLEVEL
 70
     2
102
SHADEPLOTCUSTOMDPI
 70
   300
  0
XRECORD
  5
AA0
102
{ACAD_REACTORS
330
A9F
102
}
330
A9F
100
AcDbXrecord
280
     1
102
SHADEPLOT
 70
     0
102
SHADEPLOTRESLEVEL
 70
     2
102
SHADEPLOTCUSTOMDPI
 70
   300
  0
XRECORD
  5
A9C
102
{ACAD_REACTORS
330
A9B
102
}
330
A9B
100
AcDbXrecord
280
     1
102
SHADEPLOT
 70
     0
102
SHADEPLOTRESLEVEL
 70
     2
102
SHADEPLOTCUSTOMDPI
 70
   300
  0
ENDSEC
  0
EOF
