  0
SECTION
  2
HEADER
  9
$ACADVER
  1
AC1015
  9
$ACADMAINTVER
 70
    20
  9
$DWGCODEPAGE
  3
ANSI_1252
  9
$INSBASE
 10
0.0
 20
0.0
 30
0.0
  9
$EXTMIN
 10
-0.075
 20
-0.075
 30
0.0
  9
$EXTMAX
 10
22.075
 20
17.075
 30
0.0
  9
$LIMMIN
 10
0.0
 20
0.0
  9
$LIMMAX
 10
12.0
 20
9.0
  9
$ORTHOMODE
 70
     0
  9
$REGENMODE
 70
     1
  9
$FILLMODE
 70
     1
  9
$QTEXTMODE
 70
     0
  9
$MIRRTEXT
 70
     0
  9
$LTSCALE
 40
1.0
  9
$ATTMODE
 70
     1
  9
$TEXTSIZE
 40
0.09
  9
$TRACEWID
 40
0.05
  9
$TEXTSTYLE
  7
Standard
  9
$CLAYER
  8
0
  9
$CELTYPE
  6
ByLayer
  9
$CECOLOR
 62
   256
  9
$CELTSCALE
 40
1.0
  9
$DISPSILH
 70
     0
  9
$DIMSCALE
 40
1.0
  9
$DIMASZ
 40
0.1875
  9
$DIMEXO
 40
0.0625
  9
$DIMDLI
 40
0.38
  9
$DIMRND
 40
0.0
  9
$DIMDLE
 40
0.0
  9
$DIMEXE
 40
0.125
  9
$DIMTP
 40
0.0
  9
$DIMTM
 40
0.0
  9
$DIMTXT
 40
0.125
  9
$DIMCEN
 40
0.09
  9
$DIMTSZ
 40
0.0
  9
$DIMTOL
 70
     0
  9
$DIMLIM
 70
     0
  9
$DIMTIH
 70
     1
  9
$DIMTOH
 70
     1
  9
$DIMSE1
 70
     0
  9
$DIMSE2
 70
     0
  9
$DIMTAD
 70
     0
  9
$DIMZIN
 70
     0
  9
$DIMBLK
  1

  9
$DIMASO
 70
     1
  9
$DIMSHO
 70
     1
  9
$DIMPOST
  1

  9
$DIMAPOST
  1
mm
  9
$DIMALT
 70
     1
  9
$DIMALTD
 70
     1
  9
$DIMALTF
 40
25.4
  9
$DIMLFAC
 40
1.0
  9
$DIMTOFL
 70
     0
  9
$DIMTVP
 40
0.0
  9
$DIMTIX
 70
     0
  9
$DIMSOXD
 70
     0
  9
$DIMSAH
 70
     0
  9
$DIMBLK1
  1

  9
$DIMBLK2
  1

  9
$DIMSTYLE
  2
Standard
  9
$DIMCLRD
 70
     0
  9
$DIMCLRE
 70
     0
  9
$DIMCLRT
 70
     0
  9
$DIMTFAC
 40
1.0
  9
$DIMGAP
 40
0.09
  9
$DIMJUST
 70
     0
  9
$DIMSD1
 70
     0
  9
$DIMSD2
 70
     0
  9
$DIMTOLJ
 70
     1
  9
$DIMTZIN
 70
     0
  9
$DIMALTZ
 70
     0
  9
$DIMALTTZ
 70
     0
  9
$DIMUPT
 70
     0
  9
$DIMDEC
 70
     2
  9
$DIMTDEC
 70
     2
  9
$DIMALTU
 70
     2
  9
$DIMALTTD
 70
     1
  9
$DIMTXSTY
  7
Standard
  9
$DIMAUNIT
 70
     0
  9
$DIMADEC
 70
     0
  9
$DIMALTRND
 40
0.0
  9
$DIMAZIN
 70
     0
  9
$DIMDSEP
 70
    46
  9
$DIMATFIT
 70
     3
  9
$DIMFRAC
 70
     0
  9
$DIMLDRBLK
  1

  9
$DIMLUNIT
 70
     2
  9
$DIMLWD
 70
    -2
  9
$DIMLWE
 70
    -2
  9
$DIMTMOVE
 70
     0
  9
$LUNITS
 70
     2
  9
$LUPREC
 70
     4
  9
$SKETCHINC
 40
0.1
  9
$FILLETRAD
 40
0.0
  9
$AUNITS
 70
     0
  9
$AUPREC
 70
     0
  9
$MENU
  1
.
  9
$ELEVATION
 40
0.0
  9
$PELEVATION
 40
0.0
  9
$THICKNESS
 40
0.0
  9
$LIMCHECK
 70
     0
  9
$CHAMFERA
 40
0.0
  9
$CHAMFERB
 40
0.0
  9
$CHAMFERC
 40
0.0
  9
$CHAMFERD
 40
0.0
  9
$SKPOLY
 70
     0
  9
$TDCREATE
 40
2453503.556656644
  9
$TDUCREATE
 40
2453503.764989977
  9
$TDUPDATE
 40
2454294.566871146
  9
$TDUUPDATE
 40
2454294.775204479
  9
$TDINDWG
 40
0.0195633449
  9
$TDUSRTIMER
 40
0.0195633449
  9
$USRTIMER
 70
     1
  9
$ANGBASE
 50
0.0
  9
$ANGDIR
 70
     0
  9
$PDMODE
 70
     2
  9
$PDSIZE
 40
0.075
  9
$PLINEWID
 40
0.0
  9
$SPLFRAME
 70
     0
  9
$SPLINETYPE
 70
     6
  9
$SPLINESEGS
 70
     8
  9
$HANDSEED
  5
8CF
  9
$SURFTAB1
 70
     6
  9
$SURFTAB2
 70
     6
  9
$SURFTYPE
 70
     6
  9
$SURFU
 70
     6
  9
$SURFV
 70
     6
  9
$UCSBASE
  2

  9
$UCSNAME
  2

  9
$UCSORG
 10
0.0
 20
0.0
 30
0.0
  9
$UCSXDIR
 10
1.0
 20
0.0
 30
0.0
  9
$UCSYDIR
 10
0.0
 20
1.0
 30
0.0
  9
$UCSORTHOREF
  2

  9
$UCSORTHOVIEW
 70
     0
  9
$UCSORGTOP
 10
0.0
 20
0.0
 30
0.0
  9
$UCSORGBOTTOM
 10
0.0
 20
0.0
 30
0.0
  9
$UCSORGLEFT
 10
0.0
 20
0.0
 30
0.0
  9
$UCSORGRIGHT
 10
0.0
 20
0.0
 30
0.0
  9
$UCSORGFRONT
 10
0.0
 20
0.0
 30
0.0
  9
$UCSORGBACK
 10
0.0
 20
0.0
 30
0.0
  9
$PUCSBASE
  2

  9
$PUCSNAME
  2

  9
$PUCSORG
 10
0.0
 20
0.0
 30
0.0
  9
$PUCSXDIR
 10
1.0
 20
0.0
 30
0.0
  9
$PUCSYDIR
 10
0.0
 20
1.0
 30
0.0
  9
$PUCSORTHOREF
  2

  9
$PUCSORTHOVIEW
 70
     0
  9
$PUCSORGTOP
 10
0.0
 20
0.0
 30
0.0
  9
$PUCSORGBOTTOM
 10
0.0
 20
0.0
 30
0.0
  9
$PUCSORGLEFT
 10
0.0
 20
0.0
 30
0.0
  9
$PUCSORGRIGHT
 10
0.0
 20
0.0
 30
0.0
  9
$PUCSORGFRONT
 10
0.0
 20
0.0
 30
0.0
  9
$PUCSORGBACK
 10
0.0
 20
0.0
 30
0.0
  9
$USERI1
 70
     0
  9
$USERI2
 70
     0
  9
$USERI3
 70
     0
  9
$USERI4
 70
     0
  9
$USERI5
 70
     0
  9
$USERR1
 40
0.0
  9
$USERR2
 40
0.0
  9
$USERR3
 40
0.0
  9
$USERR4
 40
0.0
  9
$USERR5
 40
0.0
  9
$WORLDVIEW
 70
     1
  9
$SHADEDGE
 70
     3
  9
$SHADEDIF
 70
    70
  9
$TILEMODE
 70
     1
  9
$MAXACTVP
 70
    64
  9
$PINSBASE
 10
0.0
 20
0.0
 30
0.0
  9
$PLIMCHECK
 70
     0
  9
$PEXTMIN
 10
0.0
 20
0.0
 30
0.0
  9
$PEXTMAX
 10
0.0
 20
0.0
 30
0.0
  9
$PLIMMIN
 10
0.0
 20
0.0
  9
$PLIMMAX
 10
12.0
 20
9.0
  9
$UNITMODE
 70
     0
  9
$VISRETAIN
 70
     1
  9
$PLINEGEN
 70
     0
  9
$PSLTSCALE
 70
     1
  9
$TREEDEPTH
 70
  3020
  9
$CMLSTYLE
  2
Standard
  9
$CMLJUST
 70
     0
  9
$CMLSCALE
 40
1.0
  9
$PROXYGRAPHICS
 70
     1
  9
$MEASUREMENT
 70
     0
  9
$CELWEIGHT
370
    -1
  9
$ENDCAPS
280
     0
  9
$JOINSTYLE
280
     0
  9
$LWDISPLAY
290
     0
  9
$INSUNITS
 70
     1
  9
$HYPERLINKBASE
  1

  9
$STYLESHEET
  1

  9
$XEDIT
290
     1
  9
$CEPSNTYPE
380
     0
  9
$PSTYLEMODE
290
     1
  9
$FINGERPRINTGUID
  2
{C9793546-C8B4-48EC-84B0-9D55B51D5FFB}
  9
$VERSIONGUID
  2
{2EB359C8-9A27-41C4-BEE2-424827D317C0}
  9
$EXTNAMES
290
     1
  9
$PSVPSCALE
 40
0.0
  9
$OLESTARTUP
290
     0
  0
ENDSEC
  0
SECTION
  2
CLASSES
  0
CLASS
  1
ACDBDICTIONARYWDFLT
  2
AcDbDictionaryWithDefault
  3
ObjectDBX Classes
 90
        0
280
     0
281
     0
  0
CLASS
  1
ACDBPLACEHOLDER
  2
AcDbPlaceHolder
  3
ObjectDBX Classes
 90
        0
280
     0
281
     0
  0
CLASS
  1
LAYOUT
  2
AcDbLayout
  3
ObjectDBX Classes
 90
        0
280
     0
281
     0
  0
CLASS
  1
DICTIONARYVAR
  2
AcDbDictionaryVar
  3
ObjectDBX Classes
 90
        0
280
     0
281
     0
  0
CLASS
  1
TABLESTYLE
  2
AcDbTableStyle
  3
ObjectDBX Classes
 90
     2047
280
     0
281
     0
  0
CLASS
  1
SORTENTSTABLE
  2
AcDbSortentsTable
  3
ObjectDBX Classes
 90
        0
280
     0
281
     0
  0
CLASS
  1
DIMASSOC
  2
AcDbDimAssoc
  3
"AcDbDimAssoc|Product Desc:     AcDim ARX App For Dimension|Company:          Autodesk, Inc.|WEB Address:      www.autodesk.com"
 90
        0
280
     0
281
     0
  0
ENDSEC
  0
SECTION
  2
TABLES
  0
TABLE
  2
VPORT
  5
8
330
0
100
AcDbSymbolTable
 70
     2
  0
VPORT
  5
8C7
330
8
100
AcDbSymbolTableRecord
100
AcDbViewportTableRecord
  2
*Active
 70
     0
 10
0.0
 20
0.0
 11
1.0
 21
1.0
 12
11.00000015448904
 22
9.103925126209004
 13
0.0
 23
0.0
 14
0.5
 24
0.5
 15
0.5
 25
0.5
 16
0.0
 26
0.0
 36
1.0
 17
0.0
 27
0.0
 37
0.0
 40
18.46977902438926
 41
1.499364675984752
 42
50.0
 43
0.0
 44
0.0
 50
0.0
 51
0.0
 71
     0
 72
  1000
 73
     1
 74
     3
 75
     0
 76
     0
 77
     0
 78
     0
281
     0
 65
     1
110
0.0
120
0.0
130
0.0
111
1.0
121
0.0
131
0.0
112
0.0
122
1.0
132
0.0
 79
     0
146
0.0
  0
ENDTAB
  0
TABLE
  2
LTYPE
  5
5
330
0
100
AcDbSymbolTable
 70
     1
  0
LTYPE
  5
14
330
5
100
AcDbSymbolTableRecord
100
AcDbLinetypeTableRecord
  2
ByBlock
 70
     0
  3

 72
    65
 73
     0
 40
0.0
  0
LTYPE
  5
15
330
5
100
AcDbSymbolTableRecord
100
AcDbLinetypeTableRecord
  2
ByLayer
 70
     0
  3

 72
    65
 73
     0
 40
0.0
  0
LTYPE
  5
16
330
5
100
AcDbSymbolTableRecord
100
AcDbLinetypeTableRecord
  2
Continuous
 70
     0
  3
Solid line
 72
    65
 73
     0
 40
0.0
  0
ENDTAB
  0
TABLE
  2
LAYER
  5
2
330
0
100
AcDbSymbolTable
 70
     6
  0
LAYER
  5
10
330
2
100
AcDbSymbolTableRecord
100
AcDbLayerTableRecord
  2
0
 70
     0
 62
     7
  6
Continuous
370
    -3
390
F
  0
LAYER
  5
8B
330
2
100
AcDbSymbolTableRecord
100
AcDbLayerTableRecord
  2
Title Block
 70
     0
 62
     3
  6
Continuous
370
    -3
390
F
  0
LAYER
  5
8C
330
2
100
AcDbSymbolTableRecord
100
AcDbLayerTableRecord
  2
Dimension
 70
     0
 62
     6
  6
Continuous
370
    -3
390
F
  0
LAYER
  5
8D
330
2
100
AcDbSymbolTableRecord
100
AcDbLayerTableRecord
  2
Text
 70
     0
 62
     1
  6
Continuous
370
    -3
390
F
  0
LAYER
  5
8E
330
2
100
AcDbSymbolTableRecord
100
AcDbLayerTableRecord
  2
Object
 70
     0
 62
     5
  6
Continuous
370
    -3
390
F
  0
LAYER
  5
781
330
2
100
AcDbSymbolTableRecord
100
AcDbLayerTableRecord
  2
Defpoints
 70
     0
 62
     7
  6
Continuous
290
     0
370
    -3
390
F
  0
ENDTAB
  0
TABLE
  2
STYLE
  5
3
330
0
100
AcDbSymbolTable
 70
     1
  0
STYLE
  5
11
330
3
100
AcDbSymbolTableRecord
100
AcDbTextStyleTableRecord
  2
Standard
 70
     0
 40
0.0
 41
1.0
 50
0.0
 71
     0
 42
0.09
  3
technic_.ttf
  4

1001
ACAD
1000
Technic
1071
      514
  0
ENDTAB
  0
TABLE
  2
VIEW
  5
6
330
0
100
AcDbSymbolTable
 70
     0
  0
ENDTAB
  0
TABLE
  2
UCS
  5
7
330
0
100
AcDbSymbolTable
 70
     0
  0
ENDTAB
  0
TABLE
  2
APPID
  5
9
330
0
100
AcDbSymbolTable
 70
     4
  0
APPID
  5
12
330
9
100
AcDbSymbolTableRecord
100
AcDbRegAppTableRecord
  2
ACAD
 70
     0
  0
APPID
  5
90
330
9
100
AcDbSymbolTableRecord
100
AcDbRegAppTableRecord
  2
DCO15
 70
     0
  0
APPID
  5
91
330
9
100
AcDbSymbolTableRecord
100
AcDbRegAppTableRecord
  2
AcAecLayerStandard
 70
     0
  0
APPID
  5
DF
330
9
100
AcDbSymbolTableRecord
100
AcDbRegAppTableRecord
  2
ACAD_DSTYLE_DIMTEXT_FILL
 70
     0
  0
ENDTAB
  0
TABLE
  2
DIMSTYLE
  5
A
330
0
100
AcDbSymbolTable
 70
     1
100
AcDbDimStyleTable
 71
     1
340
27
  0
DIMSTYLE
105
27
102
{ACAD_REACTORS
330
780
330
7A6
330
7C1
102
}
330
A
100
AcDbSymbolTableRecord
100
AcDbDimStyleTableRecord
  2
Standard
 70
     0
  4
mm
 41
0.1875
 44
0.125
140
0.125
170
     1
171
     1
271
     2
272
     2
274
     1
340
11
  0
ENDTAB
  0
TABLE
  2
BLOCK_RECORD
  5
1
330
0
100
AcDbSymbolTable
 70
     4
  0
BLOCK_RECORD
  5
1F
102
{ACAD_XDICTIONARY
360
77D
102
}
330
1
100
AcDbSymbolTableRecord
100
AcDbBlockTableRecord
  2
*Model_Space
340
22
  0
BLOCK_RECORD
  5
58
330
1
100
AcDbSymbolTableRecord
100
AcDbBlockTableRecord
  2
*Paper_Space
340
59
  0
BLOCK_RECORD
  5
5D
330
1
100
AcDbSymbolTableRecord
100
AcDbBlockTableRecord
  2
*Paper_Space0
340
5E
  0
BLOCK_RECORD
  5
782
330
1
100
AcDbSymbolTableRecord
100
AcDbBlockTableRecord
  2
*D1
340
0
  0
BLOCK_RECORD
  5
7A7
330
1
100
AcDbSymbolTableRecord
100
AcDbBlockTableRecord
  2
*D2
340
0
  0
BLOCK_RECORD
  5
7C2
330
1
100
AcDbSymbolTableRecord
100
AcDbBlockTableRecord
  2
*D3
340
0
  0
ENDTAB
  0
ENDSEC
  0
SECTION
  2
BLOCKS
  0
BLOCK
  5
20
330
1F
100
AcDbEntity
  8
0
100
AcDbBlockBegin
  2
*Model_Space
 70
     0
 10
0.0
 20
0.0
 30
0.0
  3
*Model_Space
  1

  0
ENDBLK
  5
21
330
1F
100
AcDbEntity
  8
0
100
AcDbBlockEnd
  0
BLOCK
  5
5A
330
58
100
AcDbEntity
 67
     1
  8
0
100
AcDbBlockBegin
  2
*Paper_Space
 70
     0
 10
0.0
 20
0.0
 30
0.0
  3
*Paper_Space
  1

  0
ENDBLK
  5
5B
330
58
100
AcDbEntity
 67
     1
  8
0
100
AcDbBlockEnd
  0
BLOCK
  5
5F
330
5D
100
AcDbEntity
  8
0
100
AcDbBlockBegin
  2
*Paper_Space0
 70
     0
 10
0.0
 20
0.0
 30
0.0
  3
*Paper_Space0
  1

  0
ENDBLK
  5
60
330
5D
100
AcDbEntity
  8
0
100
AcDbBlockEnd
  0
BLOCK
  5
78D
330
782
100
AcDbEntity
  8
0
100
AcDbBlockBegin
  2
*D1
 70
     1
 10
0.0
 20
0.0
 30
0.0
  3
*D1
  1

  0
LINE
  5
79B
330
782
100
AcDbEntity
  8
Dimension
 62
     0
370
    -2
100
AcDbLine
 10
8.0845
 20
12.51432268698012
 30
0.0
 11
10.80861554106395
 21
12.51432268698012
 31
0.0
  0
LINE
  5
79C
330
782
100
AcDbEntity
  8
Dimension
 62
     0
370
    -2
100
AcDbLine
 10
8.085499999999999
 20
14.73532268698012
 30
0.0
 11
10.80861554106395
 21
14.73532268698012
 31
0.0
  0
LINE
  5
79D
330
782
100
AcDbEntity
  8
Dimension
 62
     0
370
    -2
100
AcDbLine
 10
10.68361554106395
 20
12.70182268698012
 30
0.0
 11
10.68361554106395
 21
13.44728613727252
 31
0.0
  0
LINE
  5
79E
330
782
100
AcDbEntity
  8
Dimension
 62
     0
370
    -2
100
AcDbLine
 10
10.68361554106395
 20
14.54782268698012
 30
0.0
 11
10.68361554106395
 21
13.80235923668772
 31
0.0
  0
SOLID
  5
79F
330
782
100
AcDbEntity
  8
Dimension
 62
     0
100
AcDbTrace
 10
10.65236554106395
 20
12.70182268698012
 30
0.0
 11
10.71486554106395
 21
12.70182268698012
 31
0.0
 12
10.68361554106395
 22
12.51432268698012
 32
0.0
 13
10.68361554106395
 23
12.51432268698012
 33
0.0
  0
SOLID
  5
7A0
330
782
100
AcDbEntity
  8
Dimension
 62
     0
100
AcDbTrace
 10
10.65236554106395
 20
14.54782268698012
 30
0.0
 11
10.71486554106395
 21
14.54782268698012
 31
0.0
 12
10.68361554106395
 22
14.73532268698012
 32
0.0
 13
10.68361554106395
 23
14.73532268698012
 33
0.0
  0
MTEXT
  5
7A1
330
782
100
AcDbEntity
  8
Dimension
 62
     0
100
AcDbMText
 10
10.68361554106394
 20
13.62482268698012
 30
0.0
 40
0.125
 41
0.0
 71
     5
 72
     1
  1
\A1;2.22 [56.4mm]
 73
     1
 44
1.0
1001
ACAD
1000
MTEXTBEGIN
1070
    73
1070
     1
1070
    44
1040
1.0
1070
    74
1070
     0
1000
MTEXTEND
  0
POINT
  5
7A2
330
782
100
AcDbEntity
  8
Defpoints
 62
     0
100
AcDbPoint
 10
8.022
 20
12.51432268698012
 30
0.0
  0
POINT
  5
7A3
330
782
100
AcDbEntity
  8
Defpoints
 62
     0
100
AcDbPoint
 10
8.022999999999999
 20
14.73532268698012
 30
0.0
  0
POINT
  5
7A4
330
782
100
AcDbEntity
  8
Defpoints
 62
     0
100
AcDbPoint
 10
10.68361554106395
 20
14.73532268698012
 30
0.0
  0
ENDBLK
  5
78E
330
782
100
AcDbEntity
  8
0
100
AcDbBlockEnd
  0
BLOCK
  5
7B2
330
7A7
100
AcDbEntity
  8
0
100
AcDbBlockBegin
  2
*D2
 70
     1
 10
0.0
 20
0.0
 30
0.0
  3
*D2
  1

  0
LINE
  5
7B5
330
7A7
100
AcDbEntity
  8
Dimension
 62
     0
370
    -2
100
AcDbLine
 10
3.432999999999999
 20
4.951822686980124
 30
0.0
 11
3.433
 21
9.853219805736358
 31
0.0
  0
LINE
  5
7B6
330
7A7
100
AcDbEntity
  8
Dimension
 62
     0
370
    -2
100
AcDbLine
 10
8.894999999999999
 20
4.951822686980124
 30
0.0
 11
8.894999999999999
 21
9.853219805736358
 31
0.0
  0
LINE
  5
7B7
330
7A7
100
AcDbEntity
  8
Dimension
 62
     0
370
    -2
100
AcDbLine
 10
3.6205
 20
9.728219805736358
 30
0.0
 11
5.472940058479531
 21
9.728219805736358
 31
0.0
  0
LINE
  5
7B8
330
7A7
100
AcDbEntity
  8
Dimension
 62
     0
370
    -2
100
AcDbLine
 10
8.707499999999999
 20
9.728219805736358
 30
0.0
 11
6.855059941520467
 21
9.728219805736358
 31
0.0
  0
SOLID
  5
7B9
330
7A7
100
AcDbEntity
  8
Dimension
 62
     0
100
AcDbTrace
 10
3.6205
 20
9.759469805736358
 30
0.0
 11
3.6205
 21
9.696969805736358
 31
0.0
 12
3.433
 22
9.728219805736358
 32
0.0
 13
3.433
 23
9.728219805736358
 33
0.0
  0
SOLID
  5
7BA
330
7A7
100
AcDbEntity
  8
Dimension
 62
     0
100
AcDbTrace
 10
8.707499999999999
 20
9.759469805736358
 30
0.0
 11
8.707499999999999
 21
9.696969805736358
 31
0.0
 12
8.894999999999999
 22
9.728219805736358
 32
0.0
 13
8.894999999999999
 23
9.728219805736358
 33
0.0
  0
MTEXT
  5
7BB
330
7A7
100
AcDbEntity
  8
Dimension
 62
     0
100
AcDbMText
 10
6.163999999999999
 20
9.728219805736358
 30
0.0
 40
0.125
 41
0.0
 71
     5
 72
     1
  1
\A1;5.46 [138.7mm]
 73
     1
 44
1.0
1001
ACAD
1000
MTEXTBEGIN
1070
    73
1070
     1
1070
    44
1040
1.0
1070
    74
1070
     0
1000
MTEXTEND
  0
POINT
  5
7BC
330
7A7
100
AcDbEntity
  8
Defpoints
 62
     0
100
AcDbPoint
 10
3.432999999999999
 20
4.889322686980124
 30
0.0
  0
POINT
  5
7BD
330
7A7
100
AcDbEntity
  8
Defpoints
 62
     0
100
AcDbPoint
 10
8.894999999999999
 20
4.889322686980124
 30
0.0
  0
POINT
  5
7BE
330
7A7
100
AcDbEntity
  8
Defpoints
 62
     0
100
AcDbPoint
 10
8.894999999999999
 20
9.728219805736358
 30
0.0
  0
ENDBLK
  5
7B3
330
7A7
100
AcDbEntity
  8
0
100
AcDbBlockEnd
  0
BLOCK
  5
7CD
330
7C2
100
AcDbEntity
  8
0
100
AcDbBlockBegin
  2
*D3
 70
     1
 10
0.0
 20
0.0
 30
0.0
  3
*D3
  1

  0
LINE
  5
8AA
330
7C2
100
AcDbEntity
  8
Dimension
 62
     0
370
    -2
100
AcDbLine
 10
17.2685
 20
4.784322686980123
 30
0.0
 11
13.74634836797117
 21
4.784322686980124
 31
0.0
  0
LINE
  5
8AB
330
7C2
100
AcDbEntity
  8
Dimension
 62
     0
370
    -2
100
AcDbLine
 10
15.7705
 20
8.467322686980123
 30
0.0
 11
13.74634836797117
 21
8.467322686980123
 31
0.0
  0
LINE
  5
8AC
330
7C2
100
AcDbEntity
  8
Dimension
 62
     0
370
    -2
100
AcDbLine
 10
13.87134836797117
 20
4.971822686980124
 30
0.0
 11
13.87134836797117
 21
6.448286137272522
 31
0.0
  0
LINE
  5
8AD
330
7C2
100
AcDbEntity
  8
Dimension
 62
     0
370
    -2
100
AcDbLine
 10
13.87134836797117
 20
8.279822686980123
 30
0.0
 11
13.87134836797117
 21
6.803359236687726
 31
0.0
  0
SOLID
  5
8AE
330
7C2
100
AcDbEntity
  8
Dimension
 62
     0
100
AcDbTrace
 10
13.84009836797117
 20
4.971822686980124
 30
0.0
 11
13.90259836797117
 21
4.971822686980124
 31
0.0
 12
13.87134836797117
 22
4.784322686980124
 32
0.0
 13
13.87134836797117
 23
4.784322686980124
 33
0.0
  0
SOLID
  5
8AF
330
7C2
100
AcDbEntity
  8
Dimension
 62
     0
100
AcDbTrace
 10
13.84009836797117
 20
8.279822686980123
 30
0.0
 11
13.90259836797117
 21
8.279822686980123
 31
0.0
 12
13.87134836797117
 22
8.467322686980123
 32
0.0
 13
13.87134836797117
 23
8.467322686980123
 33
0.0
  0
MTEXT
  5
8B0
330
7C2
100
AcDbEntity
  8
Dimension
 62
     0
100
AcDbMText
 10
13.87134836797117
 20
6.625822686980126
 30
0.0
 40
0.125
 41
0.0
 71
     5
 72
     1
  1
\A1;3.68 [93.6mm]
 73
     1
 44
1.0
1001
ACAD
1000
MTEXTBEGIN
1070
    73
1070
     1
1070
    44
1040
1.0
1070
    74
1070
     0
1000
MTEXTEND
  0
POINT
  5
8B1
330
7C2
100
AcDbEntity
  8
Defpoints
 62
     0
100
AcDbPoint
 10
17.331
 20
4.784322686980123
 30
0.0
  0
POINT
  5
8B2
330
7C2
100
AcDbEntity
  8
Defpoints
 62
     0
100
AcDbPoint
 10
15.833
 20
8.467322686980123
 30
0.0
  0
POINT
  5
8B3
330
7C2
100
AcDbEntity
  8
Defpoints
 62
     0
100
AcDbPoint
 10
13.87134836797117
 20
8.467322686980123
 30
0.0
  0
ENDBLK
  5
7CE
330
7C2
100
AcDbEntity
  8
0
100
AcDbBlockEnd
  0
ENDSEC
  0
SECTION
  2
ENTITIES
  0
LINE
  5
1A2
330
1F
100
AcDbEntity
  8
Object
100
AcDbLine
 10
17.404
 20
8.467322686980123
 30
0.0
 11
17.413
 21
8.467322686980123
 31
0.0
  0
LINE
  5
1A3
330
1F
100
AcDbEntity
  8
Object
100
AcDbLine
 10
15.913
 20
4.889322686980124
 30
0.0
 11
15.909
 21
4.889322686980124
 31
0.0
  0
LINE
  5
1A4
330
1F
100
AcDbEntity
  8
Object
100
AcDbLine
 10
15.909
 20
4.889322686980124
 30
0.0
 11
15.906
 21
4.889322686980124
 31
0.0
  0
LINE
  5
1A5
330
1F
100
AcDbEntity
  8
Object
100
AcDbLine
 10
15.906
 20
4.889322686980124
 30
0.0
 11
15.902
 21
4.889322686980124
 31
0.0
  0
LINE
  5
1A6
330
1F
100
AcDbEntity
  8
Object
100
AcDbLine
 10
15.902
 20
4.889322686980124
 30
0.0
 11
15.899
 21
4.889322686980124
 31
0.0
  0
LINE
  5
1A7
330
1F
100
AcDbEntity
  8
Object
100
AcDbLine
 10
15.899
 20
4.889322686980124
 30
0.0
 11
15.818
 21
4.889322686980124
 31
0.0
  0
LINE
  5
1A8
330
1F
100
AcDbEntity
  8
Object
100
AcDbLine
 10
18.024
 20
4.889322686980124
 30
0.0
 11
18.017
 21
4.889322686980124
 31
0.0
  0
LINE
  5
1A9
330
1F
100
AcDbEntity
  8
Object
100
AcDbLine
 10
18.017
 20
4.889322686980124
 30
0.0
 11
17.996
 21
4.889322686980124
 31
0.0
  0
LINE
  5
1AA
330
1F
100
AcDbEntity
  8
Object
100
AcDbLine
 10
17.996
 20
4.889322686980124
 30
0.0
 11
17.961
 21
4.889322686980124
 31
0.0
  0
LINE
  5
1AB
330
1F
100
AcDbEntity
  8
Object
100
AcDbLine
 10
17.961
 20
4.889322686980124
 30
0.0
 11
17.912
 21
4.889322686980124
 31
0.0
  0
LINE
  5
1AC
330
1F
100
AcDbEntity
  8
Object
100
AcDbLine
 10
17.912
 20
4.889322686980124
 30
0.0
 11
17.851
 21
4.889322686980124
 31
0.0
  0
LINE
  5
1AD
330
1F
100
AcDbEntity
  8
Object
100
AcDbLine
 10
17.851
 20
4.889322686980124
 30
0.0
 11
17.778
 21
4.889322686980124
 31
0.0
  0
LINE
  5
1AE
330
1F
100
AcDbEntity
  8
Object
100
AcDbLine
 10
17.778
 20
4.889322686980124
 30
0.0
 11
17.694
 21
4.889322686980124
 31
0.0
  0
LINE
  5
1AF
330
1F
100
AcDbEntity
  8
Object
100
AcDbLine
 10
17.694
 20
4.889322686980124
 30
0.0
 11
17.6
 21
4.889322686980124
 31
0.0
  0
LINE
  5
1B0
330
1F
100
AcDbEntity
  8
Object
100
AcDbLine
 10
15.893
 20
4.892322686980123
 30
0.0
 11
15.899
 21
4.889322686980124
 31
0.0
  0
LINE
  5
1B1
330
1F
100
AcDbEntity
  8
Object
100
AcDbLine
 10
15.899
 20
4.889322686980124
 30
0.0
 11
15.818
 21
4.889322686980124
 31
0.0
  0
LINE
  5
1B2
330
1F
100
AcDbEntity
  8
Object
100
AcDbLine
 10
15.818
 20
4.889322686980124
 30
0.0
 11
15.812
 21
4.892322686980123
 31
0.0
  0
LINE
  5
1B3
330
1F
100
AcDbEntity
  8
Object
100
AcDbLine
 10
15.812
 20
4.892322686980123
 30
0.0
 11
15.808
 21
4.903322686980123
 31
0.0
  0
LINE
  5
1B4
330
1F
100
AcDbEntity
  8
Object
100
AcDbLine
 10
15.893
 20
4.892322686980123
 30
0.0
 11
15.888
 21
4.903322686980123
 31
0.0
  0
LINE
  5
1B5
330
1F
100
AcDbEntity
  8
Object
100
AcDbLine
 10
15.888
 20
4.903322686980123
 30
0.0
 11
15.885
 21
4.920322686980123
 31
0.0
  0
LINE
  5
1B6
330
1F
100
AcDbEntity
  8
Object
100
AcDbLine
 10
15.808
 20
4.903322686980123
 30
0.0
 11
15.805
 21
4.920322686980123
 31
0.0
  0
LINE
  5
1B7
330
1F
100
AcDbEntity
  8
Object
100
AcDbLine
 10
15.805
 20
4.920322686980123
 30
0.0
 11
15.804
 21
4.943322686980123
 31
0.0
  0
LINE
  5
1B8
330
1F
100
AcDbEntity
  8
Object
100
AcDbLine
 10
15.885
 20
4.920322686980123
 30
0.0
 11
15.884
 21
4.943322686980123
 31
0.0
  0
LINE
  5
1B9
330
1F
100
AcDbEntity
  8
Object
100
AcDbLine
 10
15.883
 20
5.004322686980123
 30
0.0
 11
15.883
 21
5.039322686980123
 31
0.0
  0
LINE
  5
1BA
330
1F
100
AcDbEntity
  8
Object
100
AcDbLine
 10
15.803
 20
5.039322686980123
 30
0.0
 11
15.803
 21
5.076322686980123
 31
0.0
  0
LINE
  5
1BB
330
1F
100
AcDbEntity
  8
Object
100
AcDbLine
 10
15.803
 20
5.076322686980123
 30
0.0
 11
15.883
 21
5.076322686980123
 31
0.0
  0
LINE
  5
1BC
330
1F
100
AcDbEntity
  8
Object
100
AcDbLine
 10
15.883
 20
5.076322686980123
 30
0.0
 11
15.883
 21
5.039322686980123
 31
0.0
  0
LINE
  5
1BD
330
1F
100
AcDbEntity
  8
Object
100
AcDbLine
 10
15.884
 20
4.943322686980123
 30
0.0
 11
15.883
 21
4.972322686980123
 31
0.0
  0
LINE
  5
1BE
330
1F
100
AcDbEntity
  8
Object
100
AcDbLine
 10
15.803
 20
4.972322686980123
 30
0.0
 11
15.803
 21
5.004322686980123
 31
0.0
  0
LINE
  5
1BF
330
1F
100
AcDbEntity
  8
Object
100
AcDbLine
 10
15.803
 20
5.004322686980123
 30
0.0
 11
15.803
 21
5.039322686980123
 31
0.0
  0
LINE
  5
1C0
330
1F
100
AcDbEntity
  8
Object
100
AcDbLine
 10
15.883
 20
4.972322686980123
 30
0.0
 11
15.883
 21
5.004322686980123
 31
0.0
  0
LINE
  5
1C1
330
1F
100
AcDbEntity
  8
Object
100
AcDbLine
 10
15.803
 20
4.972322686980123
 30
0.0
 11
15.804
 21
4.943322686980123
 31
0.0
  0
LINE
  5
1C2
330
1F
100
AcDbEntity
  8
Object
100
AcDbLine
 10
17.6
 20
8.467322686980123
 30
0.0
 11
17.594
 21
8.467322686980123
 31
0.0
  0
LINE
  5
1C3
330
1F
100
AcDbEntity
  8
Object
100
AcDbLine
 10
17.6
 20
5.710322686980124
 30
0.0
 11
17.598
 21
5.713322686980124
 31
0.0
  0
LINE
  5
1C4
330
1F
100
AcDbEntity
  8
Object
100
AcDbLine
 10
17.598
 20
5.713322686980124
 30
0.0
 11
17.524
 21
5.783322686980123
 31
0.0
  0
LINE
  5
1C5
330
1F
100
AcDbEntity
  8
Object
100
AcDbLine
 10
17.594
 20
8.467322686980123
 30
0.0
 11
17.504
 21
8.467322686980123
 31
0.0
  0
LINE
  5
1C6
330
1F
100
AcDbEntity
  8
Object
100
AcDbLine
 10
17.504
 20
8.467322686980123
 30
0.0
 11
17.482
 21
5.957322686980123
 31
0.0
  0
LINE
  5
1C7
330
1F
100
AcDbEntity
  8
Object
100
AcDbLine
 10
17.442
 20
5.847322686980123
 30
0.0
 11
17.524
 21
5.783322686980123
 31
0.0
  0
LINE
  5
1C8
330
1F
100
AcDbEntity
  8
Object
100
AcDbLine
 10
17.444
 20
5.957322686980123
 30
0.0
 11
17.463
 21
5.957322686980123
 31
0.0
  0
LINE
  5
1C9
330
1F
100
AcDbEntity
  8
Object
100
AcDbLine
 10
17.463
 20
5.957322686980123
 30
0.0
 11
17.482
 21
5.957322686980123
 31
0.0
  0
LINE
  5
1CA
330
1F
100
AcDbEntity
  8
Object
100
AcDbLine
 10
17.444
 20
5.957322686980123
 30
0.0
 11
17.425
 21
5.957322686980123
 31
0.0
  0
LINE
  5
1CB
330
1F
100
AcDbEntity
  8
Object
100
AcDbLine
 10
17.425
 20
5.957322686980123
 30
0.0
 11
17.424
 21
5.967322686980123
 31
0.0
  0
LINE
  5
1CC
330
1F
100
AcDbEntity
  8
Object
100
AcDbLine
 10
17.341
 20
8.467322686980123
 30
0.0
 11
17.293
 21
8.467322686980123
 31
0.0
  0
LINE
  5
1CD
330
1F
100
AcDbEntity
  8
Object
100
AcDbLine
 10
17.302
 20
5.929322686980123
 30
0.0
 11
17.351
 21
5.904322686980123
 31
0.0
  0
LINE
  5
1CE
330
1F
100
AcDbEntity
  8
Object
100
AcDbLine
 10
17.198
 20
5.971322686980123
 30
0.0
 11
17.251
 21
5.951322686980123
 31
0.0
  0
LINE
  5
1CF
330
1F
100
AcDbEntity
  8
Object
100
AcDbLine
 10
17.293
 20
8.467322686980123
 30
0.0
 11
17.177
 21
8.467322686980123
 31
0.0
  0
LINE
  5
1D0
330
1F
100
AcDbEntity
  8
Object
100
AcDbLine
 10
17.087
 20
6.000322686980124
 30
0.0
 11
17.144
 21
5.987322686980123
 31
0.0
  0
LINE
  5
1D1
330
1F
100
AcDbEntity
  8
Object
100
AcDbLine
 10
17.177
 20
8.467322686980123
 30
0.0
 11
17.057
 21
8.467322686980123
 31
0.0
  0
LINE
  5
1D2
330
1F
100
AcDbEntity
  8
Object
100
AcDbLine
 10
17.087
 20
6.000322686980124
 30
0.0
 11
17.029
 21
6.010322686980123
 31
0.0
  0
LINE
  5
1D3
330
1F
100
AcDbEntity
  8
Object
100
AcDbLine
 10
17.029
 20
6.010322686980123
 30
0.0
 11
16.971
 21
6.016322686980124
 31
0.0
  0
LINE
  5
1D4
330
1F
100
AcDbEntity
  8
Object
100
AcDbLine
 10
17.057
 20
8.467322686980123
 30
0.0
 11
16.935
 21
8.467322686980123
 31
0.0
  0
LINE
  5
1D5
330
1F
100
AcDbEntity
  8
Object
100
AcDbLine
 10
16.971
 20
6.016322686980124
 30
0.0
 11
16.913
 21
6.018322686980123
 31
0.0
  0
LINE
  5
1D6
330
1F
100
AcDbEntity
  8
Object
100
AcDbLine
 10
16.913
 20
6.018322686980123
 30
0.0
 11
16.854
 21
6.016322686980124
 31
0.0
  0
LINE
  5
1D7
330
1F
100
AcDbEntity
  8
Object
100
AcDbLine
 10
16.935
 20
8.467322686980123
 30
0.0
 11
16.812
 21
8.467322686980123
 31
0.0
  0
LINE
  5
1D8
330
1F
100
AcDbEntity
  8
Object
100
AcDbLine
 10
16.795
 20
6.010322686980123
 30
0.0
 11
16.854
 21
6.016322686980124
 31
0.0
  0
LINE
  5
1D9
330
1F
100
AcDbEntity
  8
Object
100
AcDbLine
 10
16.812
 20
8.467322686980123
 30
0.0
 11
16.692
 21
8.467322686980123
 31
0.0
  0
LINE
  5
1DA
330
1F
100
AcDbEntity
  8
Object
100
AcDbLine
 10
16.682
 20
5.987322686980123
 30
0.0
 11
16.738
 21
6.000322686980124
 31
0.0
  0
LINE
  5
1DB
330
1F
100
AcDbEntity
  8
Object
100
AcDbLine
 10
16.692
 20
8.467322686980123
 30
0.0
 11
16.574
 21
8.467322686980123
 31
0.0
  0
LINE
  5
1DC
330
1F
100
AcDbEntity
  8
Object
100
AcDbLine
 10
16.627
 20
5.971322686980123
 30
0.0
 11
16.574
 21
5.951322686980123
 31
0.0
  0
LINE
  5
1DD
330
1F
100
AcDbEntity
  8
Object
100
AcDbLine
 10
16.574
 20
5.951322686980123
 30
0.0
 11
16.474
 21
5.904322686980123
 31
0.0
  0
LINE
  5
1DE
330
1F
100
AcDbEntity
  8
Object
100
AcDbLine
 10
16.574
 20
8.467322686980123
 30
0.0
 11
16.462
 21
8.467322686980123
 31
0.0
  0
LINE
  5
1DF
330
1F
100
AcDbEntity
  8
Object
100
AcDbLine
 10
16.383
 20
5.847322686980123
 30
0.0
 11
16.474
 21
5.904322686980123
 31
0.0
  0
LINE
  5
1E0
330
1F
100
AcDbEntity
  8
Object
100
AcDbLine
 10
16.462
 20
8.467322686980123
 30
0.0
 11
16.356
 21
8.467322686980123
 31
0.0
  0
LINE
  5
1E1
330
1F
100
AcDbEntity
  8
Object
100
AcDbLine
 10
16.301
 20
5.783322686980123
 30
0.0
 11
16.383
 21
5.847322686980123
 31
0.0
  0
LINE
  5
1E2
330
1F
100
AcDbEntity
  8
Object
100
AcDbLine
 10
16.356
 20
8.467322686980123
 30
0.0
 11
16.259
 21
8.467322686980123
 31
0.0
  0
LINE
  5
1E3
330
1F
100
AcDbEntity
  8
Object
100
AcDbLine
 10
16.228
 20
5.713322686980124
 30
0.0
 11
16.301
 21
5.783322686980123
 31
0.0
  0
LINE
  5
1E4
330
1F
100
AcDbEntity
  8
Object
100
AcDbLine
 10
16.259
 20
8.467322686980123
 30
0.0
 11
16.171
 21
8.467322686980123
 31
0.0
  0
LINE
  5
1E5
330
1F
100
AcDbEntity
  8
Object
100
AcDbLine
 10
16.228
 20
5.713322686980124
 30
0.0
 11
16.163
 21
5.638322686980123
 31
0.0
  0
LINE
  5
1E6
330
1F
100
AcDbEntity
  8
Object
100
AcDbLine
 10
16.163
 20
5.638322686980123
 30
0.0
 11
16.106
 21
5.559322686980124
 31
0.0
  0
LINE
  5
1E7
330
1F
100
AcDbEntity
  8
Object
100
AcDbLine
 10
16.171
 20
8.467322686980123
 30
0.0
 11
16.095
 21
8.467322686980123
 31
0.0
  0
LINE
  5
1E8
330
1F
100
AcDbEntity
  8
Object
100
AcDbLine
 10
16.057
 20
5.476322686980124
 30
0.0
 11
16.106
 21
5.559322686980124
 31
0.0
  0
LINE
  5
1E9
330
1F
100
AcDbEntity
  8
Object
100
AcDbLine
 10
16.095
 20
8.467322686980123
 30
0.0
 11
16.031
 21
8.467322686980123
 31
0.0
  0
LINE
  5
1EA
330
1F
100
AcDbEntity
  8
Object
100
AcDbLine
 10
16.057
 20
5.476322686980124
 30
0.0
 11
16.015
 21
5.391322686980123
 31
0.0
  0
LINE
  5
1EB
330
1F
100
AcDbEntity
  8
Object
100
AcDbLine
 10
16.015
 20
5.391322686980123
 30
0.0
 11
15.98
 21
5.302322686980123
 31
0.0
  0
LINE
  5
1EC
330
1F
100
AcDbEntity
  8
Object
100
AcDbLine
 10
16.031
 20
8.467322686980123
 30
0.0
 11
15.98
 21
8.467322686980123
 31
0.0
  0
LINE
  5
1ED
330
1F
100
AcDbEntity
  8
Object
100
AcDbLine
 10
15.98
 20
5.302322686980123
 30
0.0
 11
15.951
 21
5.209322686980123
 31
0.0
  0
LINE
  5
1EE
330
1F
100
AcDbEntity
  8
Object
100
AcDbLine
 10
15.951
 20
5.209322686980123
 30
0.0
 11
15.929
 21
5.111322686980123
 31
0.0
  0
LINE
  5
1EF
330
1F
100
AcDbEntity
  8
Object
100
AcDbLine
 10
15.98
 20
8.467322686980123
 30
0.0
 11
15.943
 21
8.467322686980123
 31
0.0
  0
LINE
  5
1F0
330
1F
100
AcDbEntity
  8
Object
100
AcDbLine
 10
15.929
 20
5.111322686980123
 30
0.0
 11
15.921
 21
5.059322686980124
 31
0.0
  0
LINE
  5
1F1
330
1F
100
AcDbEntity
  8
Object
100
AcDbLine
 10
15.921
 20
5.059322686980124
 30
0.0
 11
15.915
 21
5.005322686980123
 31
0.0
  0
LINE
  5
1F2
330
1F
100
AcDbEntity
  8
Object
100
AcDbLine
 10
15.915
 20
5.005322686980123
 30
0.0
 11
15.911
 21
4.948322686980123
 31
0.0
  0
LINE
  5
1F3
330
1F
100
AcDbEntity
  8
Object
100
AcDbLine
 10
15.911
 20
4.948322686980123
 30
0.0
 11
15.909
 21
4.889322686980124
 31
0.0
  0
LINE
  5
1F4
330
1F
100
AcDbEntity
  8
Object
100
AcDbLine
 10
15.909
 20
4.889322686980124
 30
0.0
 11
15.906
 21
4.889322686980124
 31
0.0
  0
LINE
  5
1F5
330
1F
100
AcDbEntity
  8
Object
100
AcDbLine
 10
15.906
 20
4.889322686980124
 30
0.0
 11
15.902
 21
4.889322686980124
 31
0.0
  0
LINE
  5
1F6
330
1F
100
AcDbEntity
  8
Object
100
AcDbLine
 10
15.902
 20
4.889322686980124
 30
0.0
 11
15.899
 21
4.889322686980124
 31
0.0
  0
LINE
  5
1F7
330
1F
100
AcDbEntity
  8
Object
100
AcDbLine
 10
15.943
 20
8.467322686980123
 30
0.0
 11
15.92
 21
8.467322686980123
 31
0.0
  0
LINE
  5
1F8
330
1F
100
AcDbEntity
  8
Object
100
AcDbLine
 10
15.92
 20
8.467322686980123
 30
0.0
 11
15.913
 21
8.467322686980123
 31
0.0
  0
LINE
  5
1F9
330
1F
100
AcDbEntity
  8
Object
100
AcDbLine
 10
15.913
 20
8.467322686980123
 30
0.0
 11
15.883
 21
5.039322686980123
 31
0.0
  0
LINE
  5
1FA
330
1F
100
AcDbEntity
  8
Object
100
AcDbLine
 10
17.543
 20
5.666322686980123
 30
0.0
 11
17.6
 21
5.614322686980123
 31
0.0
  0
LINE
  5
1FB
330
1F
100
AcDbEntity
  8
Object
100
AcDbLine
 10
17.522
 20
5.681322686980124
 30
0.0
 11
17.572
 21
5.640322686980123
 31
0.0
  0
LINE
  5
1FC
330
1F
100
AcDbEntity
  8
Object
100
AcDbLine
 10
17.451
 20
5.732322686980124
 30
0.0
 11
17.543
 21
5.666322686980123
 31
0.0
  0
LINE
  5
1FD
330
1F
100
AcDbEntity
  8
Object
100
AcDbLine
 10
17.438
 20
5.739322686980123
 30
0.0
 11
17.494
 21
5.701322686980123
 31
0.0
  0
LINE
  5
1FE
330
1F
100
AcDbEntity
  8
Object
100
AcDbLine
 10
17.344
 20
5.791322686980123
 30
0.0
 11
17.407
 21
5.756322686980123
 31
0.0
  0
LINE
  5
1FF
330
1F
100
AcDbEntity
  8
Object
100
AcDbLine
 10
17.442
 20
5.847322686980123
 30
0.0
 11
17.351
 21
5.904322686980123
 31
0.0
  0
LINE
  5
200
330
1F
100
AcDbEntity
  8
Object
100
AcDbLine
 10
17.348
 20
5.790322686980124
 30
0.0
 11
17.451
 21
5.732322686980124
 31
0.0
  0
LINE
  5
201
330
1F
100
AcDbEntity
  8
Object
100
AcDbLine
 10
17.234
 20
5.836322686980123
 30
0.0
 11
17.344
 21
5.791322686980123
 31
0.0
  0
LINE
  5
202
330
1F
100
AcDbEntity
  8
Object
100
AcDbLine
 10
17.302
 20
5.929322686980123
 30
0.0
 11
17.251
 21
5.951322686980123
 31
0.0
  0
LINE
  5
203
330
1F
100
AcDbEntity
  8
Object
100
AcDbLine
 10
17.218
 20
5.840322686980123
 30
0.0
 11
17.244
 21
5.832322686980123
 31
0.0
  0
LINE
  5
204
330
1F
100
AcDbEntity
  8
Object
100
AcDbLine
 10
17.198
 20
5.971322686980123
 30
0.0
 11
17.144
 21
5.987322686980123
 31
0.0
  0
LINE
  5
205
330
1F
100
AcDbEntity
  8
Object
100
AcDbLine
 10
17.112
 20
5.869322686980123
 30
0.0
 11
17.234
 21
5.836322686980123
 31
0.0
  0
LINE
  5
206
330
1F
100
AcDbEntity
  8
Object
100
AcDbLine
 10
17.094
 20
5.871322686980123
 30
0.0
 11
17.127
 21
5.865322686980123
 31
0.0
  0
LINE
  5
207
330
1F
100
AcDbEntity
  8
Object
100
AcDbLine
 10
16.983
 20
5.887322686980123
 30
0.0
 11
17.112
 21
5.869322686980123
 31
0.0
  0
LINE
  5
208
330
1F
100
AcDbEntity
  8
Object
100
AcDbLine
 10
17.004
 20
5.884322686980123
 30
0.0
 11
16.97
 21
5.887322686980123
 31
0.0
  0
LINE
  5
209
330
1F
100
AcDbEntity
  8
Object
100
AcDbLine
 10
16.97
 20
5.887322686980123
 30
0.0
 11
16.968
 21
5.887322686980123
 31
0.0
  0
LINE
  5
20A
330
1F
100
AcDbEntity
  8
Object
100
AcDbLine
 10
16.852
 20
5.888322686980123
 30
0.0
 11
16.983
 21
5.887322686980123
 31
0.0
  0
LINE
  5
20B
330
1F
100
AcDbEntity
  8
Object
100
AcDbLine
 10
16.871
 20
5.887322686980123
 30
0.0
 11
16.855
 21
5.887322686980123
 31
0.0
  0
LINE
  5
20C
330
1F
100
AcDbEntity
  8
Object
100
AcDbLine
 10
16.855
 20
5.887322686980123
 30
0.0
 11
16.798
 21
5.882322686980123
 31
0.0
  0
LINE
  5
20D
330
1F
100
AcDbEntity
  8
Object
100
AcDbLine
 10
16.795
 20
6.010322686980123
 30
0.0
 11
16.738
 21
6.000322686980124
 31
0.0
  0
LINE
  5
20E
330
1F
100
AcDbEntity
  8
Object
100
AcDbLine
 10
16.798
 20
5.882322686980123
 30
0.0
 11
16.741
 21
5.874322686980123
 31
0.0
  0
LINE
  5
20F
330
1F
100
AcDbEntity
  8
Object
100
AcDbLine
 10
16.741
 20
5.874322686980123
 30
0.0
 11
16.702
 21
5.866322686980123
 31
0.0
  0
LINE
  5
210
330
1F
100
AcDbEntity
  8
Object
100
AcDbLine
 10
16.682
 20
5.987322686980123
 30
0.0
 11
16.627
 21
5.971322686980123
 31
0.0
  0
LINE
  5
211
330
1F
100
AcDbEntity
  8
Object
100
AcDbLine
 10
16.599
 20
5.839322686980123
 30
0.0
 11
16.723
 21
5.871322686980123
 31
0.0
  0
LINE
  5
212
330
1F
100
AcDbEntity
  8
Object
100
AcDbLine
 10
16.582
 20
5.832322686980123
 30
0.0
 11
16.618
 21
5.844322686980123
 31
0.0
  0
LINE
  5
213
330
1F
100
AcDbEntity
  8
Object
100
AcDbLine
 10
16.483
 20
5.793322686980124
 30
0.0
 11
16.599
 21
5.839322686980123
 31
0.0
  0
LINE
  5
214
330
1F
100
AcDbEntity
  8
Object
100
AcDbLine
 10
16.572
 20
5.828322686980123
 30
0.0
 11
16.482
 21
5.791322686980123
 31
0.0
  0
LINE
  5
215
330
1F
100
AcDbEntity
  8
Object
100
AcDbLine
 10
16.482
 20
5.791322686980123
 30
0.0
 11
16.393
 21
5.742322686980124
 31
0.0
  0
LINE
  5
216
330
1F
100
AcDbEntity
  8
Object
100
AcDbLine
 10
16.379
 20
5.735322686980123
 30
0.0
 11
16.483
 21
5.793322686980124
 31
0.0
  0
LINE
  5
217
330
1F
100
AcDbEntity
  8
Object
100
AcDbLine
 10
16.339
 20
5.706322686980123
 30
0.0
 11
16.392
 21
5.742322686980124
 31
0.0
  0
LINE
  5
218
330
1F
100
AcDbEntity
  8
Object
100
AcDbLine
 10
16.285
 20
5.667322686980123
 30
0.0
 11
16.379
 21
5.735322686980123
 31
0.0
  0
LINE
  5
219
330
1F
100
AcDbEntity
  8
Object
100
AcDbLine
 10
16.3
 20
5.678322686980123
 30
0.0
 11
16.238
 21
5.626322686980123
 31
0.0
  0
LINE
  5
21A
330
1F
100
AcDbEntity
  8
Object
100
AcDbLine
 10
16.238
 20
5.626322686980123
 30
0.0
 11
16.185
 21
5.573322686980123
 31
0.0
  0
LINE
  5
21B
330
1F
100
AcDbEntity
  8
Object
100
AcDbLine
 10
16.125
 20
5.505322686980123
 30
0.0
 11
16.199
 21
5.590322686980123
 31
0.0
  0
LINE
  5
21C
330
1F
100
AcDbEntity
  8
Object
100
AcDbLine
 10
16.118
 20
5.496322686980123
 30
0.0
 11
16.146
 21
5.529322686980123
 31
0.0
  0
LINE
  5
21D
330
1F
100
AcDbEntity
  8
Object
100
AcDbLine
 10
16.072
 20
5.430322686980123
 30
0.0
 11
16.125
 21
5.505322686980123
 31
0.0
  0
LINE
  5
21E
330
1F
100
AcDbEntity
  8
Object
100
AcDbLine
 10
16.106
 20
5.478322686980123
 30
0.0
 11
16.066
 21
5.421322686980124
 31
0.0
  0
LINE
  5
21F
330
1F
100
AcDbEntity
  8
Object
100
AcDbLine
 10
16.066
 20
5.421322686980124
 30
0.0
 11
16.028
 21
5.354322686980124
 31
0.0
  0
LINE
  5
220
330
1F
100
AcDbEntity
  8
Object
100
AcDbLine
 10
16.006
 20
5.311322686980123
 30
0.0
 11
16.036
 21
5.369322686980123
 31
0.0
  0
LINE
  5
221
330
1F
100
AcDbEntity
  8
Object
100
AcDbLine
 10
15.992
 20
5.279322686980123
 30
0.0
 11
16.019
 21
5.337322686980123
 31
0.0
  0
LINE
  5
222
330
1F
100
AcDbEntity
  8
Object
100
AcDbLine
 10
15.985
 20
5.261322686980124
 30
0.0
 11
16.006
 21
5.311322686980123
 31
0.0
  0
LINE
  5
223
330
1F
100
AcDbEntity
  8
Object
100
AcDbLine
 10
15.959
 20
5.190322686980123
 30
0.0
 11
15.985
 21
5.263322686980123
 31
0.0
  0
LINE
  5
224
330
1F
100
AcDbEntity
  8
Object
100
AcDbLine
 10
15.966
 20
5.210322686980124
 30
0.0
 11
15.95
 21
5.157322686980123
 31
0.0
  0
LINE
  5
225
330
1F
100
AcDbEntity
  8
Object
100
AcDbLine
 10
15.95
 20
5.157322686980123
 30
0.0
 11
15.936
 21
5.103322686980123
 31
0.0
  0
LINE
  5
226
330
1F
100
AcDbEntity
  8
Object
100
AcDbLine
 10
15.937
 20
5.106322686980123
 30
0.0
 11
15.957
 21
5.183322686980122
 31
0.0
  0
LINE
  5
227
330
1F
100
AcDbEntity
  8
Object
100
AcDbLine
 10
15.936
 20
5.103322686980123
 30
0.0
 11
15.926
 21
5.047322686980123
 31
0.0
  0
LINE
  5
228
330
1F
100
AcDbEntity
  8
Object
100
AcDbLine
 10
15.926
 20
5.047322686980123
 30
0.0
 11
15.918
 21
4.988322686980123
 31
0.0
  0
LINE
  5
229
330
1F
100
AcDbEntity
  8
Object
100
AcDbLine
 10
15.915
 20
4.954322686980123
 30
0.0
 11
15.919
 21
4.995322686980124
 31
0.0
  0
LINE
  5
22A
330
1F
100
AcDbEntity
  8
Object
100
AcDbLine
 10
15.915
 20
4.946322686980123
 30
0.0
 11
15.918
 21
4.988322686980123
 31
0.0
  0
LINE
  5
22B
330
1F
100
AcDbEntity
  8
Object
100
AcDbLine
 10
15.918
 20
4.988322686980123
 30
0.0
 11
15.914
 21
4.931322686980124
 31
0.0
  0
LINE
  5
22C
330
1F
100
AcDbEntity
  8
Object
100
AcDbLine
 10
15.914
 20
4.931322686980124
 30
0.0
 11
15.915
 21
4.946322686980123
 31
0.0
  0
LINE
  5
22D
330
1F
100
AcDbEntity
  8
Object
100
AcDbLine
 10
15.914
 20
4.944322686980124
 30
0.0
 11
15.913
 21
4.889322686980124
 31
0.0
  0
LINE
  5
22E
330
1F
100
AcDbEntity
  8
Object
100
AcDbLine
 10
15.913
 20
4.889322686980124
 30
0.0
 11
15.909
 21
4.889322686980124
 31
0.0
  0
LINE
  5
22F
330
1F
100
AcDbEntity
  8
Object
100
AcDbLine
 10
16.855
 20
5.887322686980123
 30
0.0
 11
16.84
 21
5.886322686980124
 31
0.0
  0
LINE
  5
230
330
1F
100
AcDbEntity
  8
Object
100
AcDbLine
 10
16.84
 20
5.886322686980124
 30
0.0
 11
16.872
 21
5.887322686980123
 31
0.0
  0
LINE
  5
231
330
1F
100
AcDbEntity
  8
Object
100
AcDbLine
 10
16.855
 20
5.887322686980123
 30
0.0
 11
16.84
 21
5.886322686980124
 31
0.0
  0
LINE
  5
232
330
1F
100
AcDbEntity
  8
Object
100
AcDbLine
 10
16.84
 20
5.886322686980124
 30
0.0
 11
16.798
 21
5.882322686980123
 31
0.0
  0
LINE
  5
233
330
1F
100
AcDbEntity
  8
Object
100
AcDbLine
 10
16.798
 20
5.882322686980123
 30
0.0
 11
16.855
 21
5.887322686980123
 31
0.0
  0
LINE
  5
234
330
1F
100
AcDbEntity
  8
Object
100
AcDbLine
 10
16.84
 20
5.886322686980124
 30
0.0
 11
16.798
 21
5.882322686980123
 31
0.0
  0
LINE
  5
235
330
1F
100
AcDbEntity
  8
Object
100
AcDbLine
 10
16.798
 20
5.882322686980123
 30
0.0
 11
16.84
 21
5.886322686980124
 31
0.0
  0
LINE
  5
236
330
1F
100
AcDbEntity
  8
Object
100
AcDbLine
 10
16.798
 20
5.882322686980123
 30
0.0
 11
16.741
 21
5.874322686980123
 31
0.0
  0
LINE
  5
237
330
1F
100
AcDbEntity
  8
Object
100
AcDbLine
 10
16.741
 20
5.874322686980123
 30
0.0
 11
16.702
 21
5.866322686980123
 31
0.0
  0
LINE
  5
238
330
1F
100
AcDbEntity
  8
Object
100
AcDbLine
 10
16.582
 20
5.832322686980123
 30
0.0
 11
16.618
 21
5.844322686980123
 31
0.0
  0
LINE
  5
239
330
1F
100
AcDbEntity
  8
Object
100
AcDbLine
 10
16.572
 20
5.828322686980123
 30
0.0
 11
16.482
 21
5.791322686980123
 31
0.0
  0
LINE
  5
23A
330
1F
100
AcDbEntity
  8
Object
100
AcDbLine
 10
16.482
 20
5.791322686980123
 30
0.0
 11
16.393
 21
5.742322686980124
 31
0.0
  0
LINE
  5
23B
330
1F
100
AcDbEntity
  8
Object
100
AcDbLine
 10
16.339
 20
5.706322686980123
 30
0.0
 11
16.392
 21
5.742322686980124
 31
0.0
  0
LINE
  5
23C
330
1F
100
AcDbEntity
  8
Object
100
AcDbLine
 10
16.3
 20
5.678322686980123
 30
0.0
 11
16.238
 21
5.626322686980123
 31
0.0
  0
LINE
  5
23D
330
1F
100
AcDbEntity
  8
Object
100
AcDbLine
 10
16.238
 20
5.626322686980123
 30
0.0
 11
16.185
 21
5.573322686980123
 31
0.0
  0
LINE
  5
23E
330
1F
100
AcDbEntity
  8
Object
100
AcDbLine
 10
16.118
 20
5.496322686980123
 30
0.0
 11
16.146
 21
5.529322686980123
 31
0.0
  0
LINE
  5
23F
330
1F
100
AcDbEntity
  8
Object
100
AcDbLine
 10
16.106
 20
5.478322686980123
 30
0.0
 11
16.066
 21
5.421322686980124
 31
0.0
  0
LINE
  5
240
330
1F
100
AcDbEntity
  8
Object
100
AcDbLine
 10
16.066
 20
5.421322686980124
 30
0.0
 11
16.028
 21
5.354322686980124
 31
0.0
  0
LINE
  5
241
330
1F
100
AcDbEntity
  8
Object
100
AcDbLine
 10
15.992
 20
5.279322686980123
 30
0.0
 11
16.019
 21
5.337322686980123
 31
0.0
  0
LINE
  5
242
330
1F
100
AcDbEntity
  8
Object
100
AcDbLine
 10
15.959
 20
5.190322686980123
 30
0.0
 11
15.985
 21
5.263322686980123
 31
0.0
  0
LINE
  5
243
330
1F
100
AcDbEntity
  8
Object
100
AcDbLine
 10
15.937
 20
5.106322686980123
 30
0.0
 11
15.957
 21
5.183322686980122
 31
0.0
  0
LINE
  5
244
330
1F
100
AcDbEntity
  8
Object
100
AcDbLine
 10
15.915
 20
4.954322686980123
 30
0.0
 11
15.919
 21
4.995322686980124
 31
0.0
  0
LINE
  5
245
330
1F
100
AcDbEntity
  8
Object
100
AcDbLine
 10
15.913
 20
4.889322686980124
 30
0.0
 11
15.914
 21
4.944322686980124
 31
0.0
  0
LINE
  5
246
330
1F
100
AcDbEntity
  8
Object
100
AcDbLine
 10
18.017
 20
4.889322686980124
 30
0.0
 11
18.024
 21
4.889322686980124
 31
0.0
  0
LINE
  5
247
330
1F
100
AcDbEntity
  8
Object
100
AcDbLine
 10
18.024
 20
4.889322686980124
 30
0.0
 11
17.991
 21
8.467322686980123
 31
0.0
  0
LINE
  5
248
330
1F
100
AcDbEntity
  8
Object
100
AcDbLine
 10
17.996
 20
4.889322686980124
 30
0.0
 11
18.017
 21
4.889322686980124
 31
0.0
  0
LINE
  5
249
330
1F
100
AcDbEntity
  8
Object
100
AcDbLine
 10
17.991
 20
8.467322686980123
 30
0.0
 11
17.977
 21
8.467322686980123
 31
0.0
  0
LINE
  5
24A
330
1F
100
AcDbEntity
  8
Object
100
AcDbLine
 10
17.977
 20
8.467322686980123
 30
0.0
 11
17.948
 21
8.467322686980123
 31
0.0
  0
LINE
  5
24B
330
1F
100
AcDbEntity
  8
Object
100
AcDbLine
 10
17.996
 20
4.889322686980124
 30
0.0
 11
17.961
 21
4.889322686980124
 31
0.0
  0
LINE
  5
24C
330
1F
100
AcDbEntity
  8
Object
100
AcDbLine
 10
17.961
 20
4.889322686980124
 30
0.0
 11
17.912
 21
4.889322686980124
 31
0.0
  0
LINE
  5
24D
330
1F
100
AcDbEntity
  8
Object
100
AcDbLine
 10
17.948
 20
8.467322686980123
 30
0.0
 11
17.904
 21
8.467322686980123
 31
0.0
  0
LINE
  5
24E
330
1F
100
AcDbEntity
  8
Object
100
AcDbLine
 10
17.904
 20
8.467322686980123
 30
0.0
 11
17.847
 21
8.467322686980123
 31
0.0
  0
LINE
  5
24F
330
1F
100
AcDbEntity
  8
Object
100
AcDbLine
 10
17.912
 20
4.889322686980124
 30
0.0
 11
17.851
 21
4.889322686980124
 31
0.0
  0
LINE
  5
250
330
1F
100
AcDbEntity
  8
Object
100
AcDbLine
 10
17.851
 20
4.889322686980124
 30
0.0
 11
17.778
 21
4.889322686980124
 31
0.0
  0
LINE
  5
251
330
1F
100
AcDbEntity
  8
Object
100
AcDbLine
 10
17.847
 20
8.467322686980123
 30
0.0
 11
17.776
 21
8.467322686980123
 31
0.0
  0
LINE
  5
252
330
1F
100
AcDbEntity
  8
Object
100
AcDbLine
 10
17.776
 20
8.467322686980123
 30
0.0
 11
17.694
 21
8.467322686980123
 31
0.0
  0
LINE
  5
253
330
1F
100
AcDbEntity
  8
Object
100
AcDbLine
 10
17.778
 20
4.889322686980124
 30
0.0
 11
17.694
 21
4.889322686980124
 31
0.0
  0
LINE
  5
254
330
1F
100
AcDbEntity
  8
Object
100
AcDbLine
 10
17.694
 20
4.889322686980124
 30
0.0
 11
17.6
 21
4.889322686980124
 31
0.0
  0
LINE
  5
255
330
1F
100
AcDbEntity
  8
Object
100
AcDbLine
 10
17.6
 20
4.889322686980124
 30
0.0
 11
17.6
 21
8.467322686980123
 31
0.0
  0
LINE
  5
256
330
1F
100
AcDbEntity
  8
Object
100
AcDbLine
 10
17.6
 20
8.467322686980123
 30
0.0
 11
17.694
 21
8.467322686980123
 31
0.0
  0
LINE
  5
257
330
1F
100
AcDbEntity
  8
Object
100
AcDbLine
 10
15.833
 20
8.467322686980123
 30
0.0
 11
15.803
 21
5.076322686980123
 31
0.0
  0
LINE
  5
258
330
1F
100
AcDbEntity
  8
Object
100
AcDbLine
 10
15.803
 20
5.062322686980123
 30
0.0
 11
15.803
 21
5.004322686980123
 31
0.0
  0
LINE
  5
259
330
1F
100
AcDbEntity
  8
Object
100
AcDbLine
 10
17.522
 20
5.681322686980124
 30
0.0
 11
17.572
 21
5.640322686980123
 31
0.0
  0
LINE
  5
25A
330
1F
100
AcDbEntity
  8
Object
100
AcDbLine
 10
17.218
 20
5.840322686980123
 30
0.0
 11
17.244
 21
5.832322686980123
 31
0.0
  0
LINE
  5
25B
330
1F
100
AcDbEntity
  8
Object
100
AcDbLine
 10
17.094
 20
5.871322686980123
 30
0.0
 11
17.127
 21
5.865322686980123
 31
0.0
  0
LINE
  5
25C
330
1F
100
AcDbEntity
  8
Object
100
AcDbLine
 10
16.97
 20
5.887322686980123
 30
0.0
 11
17.004
 21
5.884322686980123
 31
0.0
  0
LINE
  5
25D
330
1F
100
AcDbEntity
  8
Object
100
AcDbLine
 10
16.977
 20
5.886322686980124
 30
0.0
 11
16.963
 21
5.887322686980123
 31
0.0
  0
LINE
  5
25E
330
1F
100
AcDbEntity
  8
Object
100
AcDbLine
 10
17.6
 20
8.467322686980123
 30
0.0
 11
17.6
 21
4.889322686980124
 31
0.0
  0
LINE
  5
25F
330
1F
100
AcDbEntity
  8
Object
100
AcDbLine
 10
15.833
 20
8.467322686980123
 30
0.0
 11
15.913
 21
8.467322686980123
 31
0.0
  0
LINE
  5
260
330
1F
100
AcDbEntity
  8
Object
100
AcDbLine
 10
15.913
 20
8.467322686980123
 30
0.0
 11
15.883
 21
5.076322686980123
 31
0.0
  0
LINE
  5
261
330
1F
100
AcDbEntity
  8
Object
100
AcDbLine
 10
17.499
 20
8.467322686980123
 30
0.0
 11
17.501
 21
8.467322686980123
 31
0.0
  0
LINE
  5
262
330
1F
100
AcDbEntity
  8
Object
100
AcDbLine
 10
17.501
 20
8.467322686980123
 30
0.0
 11
17.504
 21
8.467322686980123
 31
0.0
  0
LINE
  5
263
330
1F
100
AcDbEntity
  8
Object
100
AcDbLine
 10
17.493
 20
8.467322686980123
 30
0.0
 11
17.496
 21
8.467322686980123
 31
0.0
  0
LINE
  5
264
330
1F
100
AcDbEntity
  8
Object
100
AcDbLine
 10
17.496
 20
8.467322686980123
 30
0.0
 11
17.499
 21
8.467322686980123
 31
0.0
  0
LINE
  5
265
330
1F
100
AcDbEntity
  8
Object
100
AcDbLine
 10
17.489
 20
8.467322686980123
 30
0.0
 11
17.491
 21
8.467322686980123
 31
0.0
  0
LINE
  5
266
330
1F
100
AcDbEntity
  8
Object
100
AcDbLine
 10
17.491
 20
8.467322686980123
 30
0.0
 11
17.493
 21
8.467322686980123
 31
0.0
  0
LINE
  5
267
330
1F
100
AcDbEntity
  8
Object
100
AcDbLine
 10
17.489
 20
8.467322686980123
 30
0.0
 11
17.488
 21
8.467322686980123
 31
0.0
  0
LINE
  5
268
330
1F
100
AcDbEntity
  8
Object
100
AcDbLine
 10
17.468
 20
5.967322686980123
 30
0.0
 11
17.467
 21
5.967322686980123
 31
0.0
  0
LINE
  5
269
330
1F
100
AcDbEntity
  8
Object
100
AcDbLine
 10
17.467
 20
5.967322686980123
 30
0.0
 11
17.466
 21
5.967322686980123
 31
0.0
  0
LINE
  5
26A
330
1F
100
AcDbEntity
  8
Object
100
AcDbLine
 10
17.466
 20
5.967322686980123
 30
0.0
 11
17.466
 21
6.022322686980123
 31
0.0
  0
LINE
  5
26B
330
1F
100
AcDbEntity
  8
Object
100
AcDbLine
 10
17.488
 20
8.467322686980123
 30
0.0
 11
17.467
 21
6.025322686980123
 31
0.0
  0
LINE
  5
26C
330
1F
100
AcDbEntity
  8
Object
100
AcDbLine
 10
17.991
 20
8.467322686980123
 30
0.0
 11
17.977
 21
8.467322686980123
 31
0.0
  0
LINE
  5
26D
330
1F
100
AcDbEntity
  8
Object
100
AcDbLine
 10
17.977
 20
8.467322686980123
 30
0.0
 11
17.948
 21
8.467322686980123
 31
0.0
  0
LINE
  5
26E
330
1F
100
AcDbEntity
  8
Object
100
AcDbLine
 10
17.948
 20
8.467322686980123
 30
0.0
 11
17.904
 21
8.467322686980123
 31
0.0
  0
LINE
  5
26F
330
1F
100
AcDbEntity
  8
Object
100
AcDbLine
 10
17.904
 20
8.467322686980123
 30
0.0
 11
17.847
 21
8.467322686980123
 31
0.0
  0
LINE
  5
270
330
1F
100
AcDbEntity
  8
Object
100
AcDbLine
 10
17.847
 20
8.467322686980123
 30
0.0
 11
17.776
 21
8.467322686980123
 31
0.0
  0
LINE
  5
271
330
1F
100
AcDbEntity
  8
Object
100
AcDbLine
 10
17.776
 20
8.467322686980123
 30
0.0
 11
17.694
 21
8.467322686980123
 31
0.0
  0
LINE
  5
272
330
1F
100
AcDbEntity
  8
Object
100
AcDbLine
 10
17.694
 20
8.467322686980123
 30
0.0
 11
17.6
 21
8.467322686980123
 31
0.0
  0
LINE
  5
273
330
1F
100
AcDbEntity
  8
Object
100
AcDbLine
 10
17.6
 20
8.467322686980123
 30
0.0
 11
17.594
 21
8.467322686980123
 31
0.0
  0
LINE
  5
274
330
1F
100
AcDbEntity
  8
Object
100
AcDbLine
 10
17.594
 20
8.467322686980123
 30
0.0
 11
17.504
 21
8.467322686980123
 31
0.0
  0
LINE
  5
275
330
1F
100
AcDbEntity
  8
Object
100
AcDbLine
 10
17.504
 20
8.467322686980123
 30
0.0
 11
17.501
 21
8.467322686980123
 31
0.0
  0
LINE
  5
276
330
1F
100
AcDbEntity
  8
Object
100
AcDbLine
 10
17.501
 20
8.467322686980123
 30
0.0
 11
17.499
 21
8.467322686980123
 31
0.0
  0
LINE
  5
277
330
1F
100
AcDbEntity
  8
Object
100
AcDbLine
 10
17.499
 20
8.467322686980123
 30
0.0
 11
17.496
 21
8.467322686980123
 31
0.0
  0
LINE
  5
278
330
1F
100
AcDbEntity
  8
Object
100
AcDbLine
 10
17.496
 20
8.467322686980123
 30
0.0
 11
17.493
 21
8.467322686980123
 31
0.0
  0
LINE
  5
279
330
1F
100
AcDbEntity
  8
Object
100
AcDbLine
 10
17.493
 20
8.467322686980123
 30
0.0
 11
17.491
 21
8.467322686980123
 31
0.0
  0
LINE
  5
27A
330
1F
100
AcDbEntity
  8
Object
100
AcDbLine
 10
17.491
 20
8.467322686980123
 30
0.0
 11
17.489
 21
8.467322686980123
 31
0.0
  0
LINE
  5
27B
330
1F
100
AcDbEntity
  8
Object
100
AcDbLine
 10
17.489
 20
8.467322686980123
 30
0.0
 11
17.488
 21
8.467322686980123
 31
0.0
  0
LINE
  5
27C
330
1F
100
AcDbEntity
  8
Object
100
AcDbLine
 10
17.408
 20
8.467322686980123
 30
0.0
 11
17.488
 21
8.467322686980123
 31
0.0
  0
LINE
  5
27D
330
1F
100
AcDbEntity
  8
Object
100
AcDbLine
 10
17.408
 20
8.467322686980123
 30
0.0
 11
17.382
 21
8.467322686980123
 31
0.0
  0
LINE
  5
27E
330
1F
100
AcDbEntity
  8
Object
100
AcDbLine
 10
17.382
 20
8.467322686980123
 30
0.0
 11
17.361
 21
8.467322686980123
 31
0.0
  0
LINE
  5
27F
330
1F
100
AcDbEntity
  8
Object
100
AcDbLine
 10
17.361
 20
8.467322686980123
 30
0.0
 11
17.346
 21
8.467322686980123
 31
0.0
  0
LINE
  5
280
330
1F
100
AcDbEntity
  8
Object
100
AcDbLine
 10
17.346
 20
8.467322686980123
 30
0.0
 11
17.341
 21
8.467322686980123
 31
0.0
  0
LINE
  5
281
330
1F
100
AcDbEntity
  8
Object
100
AcDbLine
 10
17.341
 20
8.467322686980123
 30
0.0
 11
17.293
 21
8.467322686980123
 31
0.0
  0
LINE
  5
282
330
1F
100
AcDbEntity
  8
Object
100
AcDbLine
 10
17.293
 20
8.467322686980123
 30
0.0
 11
17.177
 21
8.467322686980123
 31
0.0
  0
LINE
  5
283
330
1F
100
AcDbEntity
  8
Object
100
AcDbLine
 10
17.177
 20
8.467322686980123
 30
0.0
 11
17.057
 21
8.467322686980123
 31
0.0
  0
LINE
  5
284
330
1F
100
AcDbEntity
  8
Object
100
AcDbLine
 10
17.057
 20
8.467322686980123
 30
0.0
 11
16.935
 21
8.467322686980123
 31
0.0
  0
LINE
  5
285
330
1F
100
AcDbEntity
  8
Object
100
AcDbLine
 10
16.935
 20
8.467322686980123
 30
0.0
 11
16.812
 21
8.467322686980123
 31
0.0
  0
LINE
  5
286
330
1F
100
AcDbEntity
  8
Object
100
AcDbLine
 10
16.812
 20
8.467322686980123
 30
0.0
 11
16.692
 21
8.467322686980123
 31
0.0
  0
LINE
  5
287
330
1F
100
AcDbEntity
  8
Object
100
AcDbLine
 10
16.692
 20
8.467322686980123
 30
0.0
 11
16.574
 21
8.467322686980123
 31
0.0
  0
LINE
  5
288
330
1F
100
AcDbEntity
  8
Object
100
AcDbLine
 10
16.574
 20
8.467322686980123
 30
0.0
 11
16.462
 21
8.467322686980123
 31
0.0
  0
LINE
  5
289
330
1F
100
AcDbEntity
  8
Object
100
AcDbLine
 10
16.462
 20
8.467322686980123
 30
0.0
 11
16.356
 21
8.467322686980123
 31
0.0
  0
LINE
  5
28A
330
1F
100
AcDbEntity
  8
Object
100
AcDbLine
 10
16.356
 20
8.467322686980123
 30
0.0
 11
16.259
 21
8.467322686980123
 31
0.0
  0
LINE
  5
28B
330
1F
100
AcDbEntity
  8
Object
100
AcDbLine
 10
16.259
 20
8.467322686980123
 30
0.0
 11
16.171
 21
8.467322686980123
 31
0.0
  0
LINE
  5
28C
330
1F
100
AcDbEntity
  8
Object
100
AcDbLine
 10
16.171
 20
8.467322686980123
 30
0.0
 11
16.095
 21
8.467322686980123
 31
0.0
  0
LINE
  5
28D
330
1F
100
AcDbEntity
  8
Object
100
AcDbLine
 10
16.095
 20
8.467322686980123
 30
0.0
 11
16.031
 21
8.467322686980123
 31
0.0
  0
LINE
  5
28E
330
1F
100
AcDbEntity
  8
Object
100
AcDbLine
 10
16.031
 20
8.467322686980123
 30
0.0
 11
15.98
 21
8.467322686980123
 31
0.0
  0
LINE
  5
28F
330
1F
100
AcDbEntity
  8
Object
100
AcDbLine
 10
15.98
 20
8.467322686980123
 30
0.0
 11
15.943
 21
8.467322686980123
 31
0.0
  0
LINE
  5
290
330
1F
100
AcDbEntity
  8
Object
100
AcDbLine
 10
15.943
 20
8.467322686980123
 30
0.0
 11
15.92
 21
8.467322686980123
 31
0.0
  0
LINE
  5
291
330
1F
100
AcDbEntity
  8
Object
100
AcDbLine
 10
15.92
 20
8.467322686980123
 30
0.0
 11
15.913
 21
8.467322686980123
 31
0.0
  0
LINE
  5
292
330
1F
100
AcDbEntity
  8
Object
100
AcDbLine
 10
15.913
 20
8.467322686980123
 30
0.0
 11
15.833
 21
8.467322686980123
 31
0.0
  0
LINE
  5
293
330
1F
100
AcDbEntity
  8
Object
100
AcDbLine
 10
17.425
 20
5.957322686980123
 30
0.0
 11
17.428
 21
5.962322686980123
 31
0.0
  0
LINE
  5
294
330
1F
100
AcDbEntity
  8
Object
100
AcDbLine
 10
17.428
 20
5.962322686980123
 30
0.0
 11
17.43
 21
5.965322686980123
 31
0.0
  0
LINE
  5
295
330
1F
100
AcDbEntity
  8
Object
100
AcDbLine
 10
17.43
 20
5.965322686980123
 30
0.0
 11
17.429
 21
5.967322686980123
 31
0.0
  0
LINE
  5
296
330
1F
100
AcDbEntity
  8
Object
100
AcDbLine
 10
17.482
 20
5.957322686980123
 30
0.0
 11
17.478
 21
5.960322686980124
 31
0.0
  0
LINE
  5
297
330
1F
100
AcDbEntity
  8
Object
100
AcDbLine
 10
17.467
 20
5.967322686980123
 30
0.0
 11
17.468
 21
5.967322686980123
 31
0.0
  0
LINE
  5
298
330
1F
100
AcDbEntity
  8
Object
100
AcDbLine
 10
17.468
 20
5.967322686980123
 30
0.0
 11
17.469
 21
5.967322686980123
 31
0.0
  0
LINE
  5
299
330
1F
100
AcDbEntity
  8
Object
100
AcDbLine
 10
17.469
 20
5.967322686980123
 30
0.0
 11
17.471
 21
5.966322686980124
 31
0.0
  0
LINE
  5
29A
330
1F
100
AcDbEntity
  8
Object
100
AcDbLine
 10
17.43
 20
5.967322686980123
 30
0.0
 11
17.43
 21
5.965322686980123
 31
0.0
  0
LINE
  5
29B
330
1F
100
AcDbEntity
  8
Object
100
AcDbLine
 10
17.471
 20
5.966322686980124
 30
0.0
 11
17.475
 21
5.963322686980124
 31
0.0
  0
LINE
  5
29C
330
1F
100
AcDbEntity
  8
Object
100
AcDbLine
 10
17.475
 20
5.963322686980124
 30
0.0
 11
17.478
 21
5.960322686980124
 31
0.0
  0
LINE
  5
29D
330
1F
100
AcDbEntity
  8
Object
100
AcDbLine
 10
16.872
 20
5.887322686980123
 30
0.0
 11
16.84
 21
5.886322686980124
 31
0.0
  0
LINE
  5
29E
330
1F
100
AcDbEntity
  8
Object
100
AcDbLine
 10
16.84
 20
5.886322686980124
 30
0.0
 11
16.798
 21
5.882322686980123
 31
0.0
  0
LINE
  5
29F
330
1F
100
AcDbEntity
  8
Object
100
AcDbLine
 10
17.368
 20
5.773322686980123
 30
0.0
 11
17.367
 21
5.776322686980123
 31
0.0
  0
LINE
  5
2A0
330
1F
100
AcDbEntity
  8
Object
100
AcDbLine
 10
17.367
 20
5.776322686980123
 30
0.0
 11
17.368
 21
5.773322686980123
 31
0.0
  0
LINE
  5
2A1
330
1F
100
AcDbEntity
  8
Object
100
AcDbLine
 10
17.368
 20
5.773322686980123
 30
0.0
 11
17.367
 21
5.776322686980123
 31
0.0
  0
LINE
  5
2A2
330
1F
100
AcDbEntity
  8
Object
100
AcDbLine
 10
17.367
 20
5.776322686980123
 30
0.0
 11
17.368
 21
5.773322686980123
 31
0.0
  0
LINE
  5
2A3
330
1F
100
AcDbEntity
  8
Object
100
AcDbLine
 10
17.367
 20
5.776322686980123
 30
0.0
 11
17.366
 21
5.778322686980123
 31
0.0
  0
LINE
  5
2A4
330
1F
100
AcDbEntity
  8
Object
100
AcDbLine
 10
17.366
 20
5.778322686980123
 30
0.0
 11
17.367
 21
5.776322686980123
 31
0.0
  0
LINE
  5
2A5
330
1F
100
AcDbEntity
  8
Object
100
AcDbLine
 10
17.366
 20
5.778322686980123
 30
0.0
 11
17.367
 21
5.776322686980123
 31
0.0
  0
LINE
  5
2A6
330
1F
100
AcDbEntity
  8
Object
100
AcDbLine
 10
17.367
 20
5.776322686980123
 30
0.0
 11
17.366
 21
5.778322686980123
 31
0.0
  0
LINE
  5
2A7
330
1F
100
AcDbEntity
  8
Object
100
AcDbLine
 10
17.366
 20
5.778322686980123
 30
0.0
 11
17.365
 21
5.779322686980123
 31
0.0
  0
LINE
  5
2A8
330
1F
100
AcDbEntity
  8
Object
100
AcDbLine
 10
17.438
 20
5.738322686980123
 30
0.0
 11
17.441
 21
5.737322686980123
 31
0.0
  0
LINE
  5
2A9
330
1F
100
AcDbEntity
  8
Object
100
AcDbLine
 10
17.365
 20
5.779322686980123
 30
0.0
 11
17.366
 21
5.778322686980123
 31
0.0
  0
LINE
  5
2AA
330
1F
100
AcDbEntity
  8
Object
100
AcDbLine
 10
17.366
 20
5.778322686980123
 30
0.0
 11
17.367
 21
5.776322686980123
 31
0.0
  0
LINE
  5
2AB
330
1F
100
AcDbEntity
  8
Object
100
AcDbLine
 10
17.367
 20
5.776322686980123
 30
0.0
 11
17.368
 21
5.773322686980123
 31
0.0
  0
LINE
  5
2AC
330
1F
100
AcDbEntity
  8
Object
100
AcDbLine
 10
17.317
 20
5.800322686980123
 30
0.0
 11
17.318
 21
5.797322686980123
 31
0.0
  0
LINE
  5
2AD
330
1F
100
AcDbEntity
  8
Object
100
AcDbLine
 10
17.318
 20
5.797322686980123
 30
0.0
 11
17.322
 21
5.794322686980123
 31
0.0
  0
LINE
  5
2AE
330
1F
100
AcDbEntity
  8
Object
100
AcDbLine
 10
17.316
 20
5.802322686980123
 30
0.0
 11
17.317
 21
5.800322686980123
 31
0.0
  0
LINE
  5
2AF
330
1F
100
AcDbEntity
  8
Object
100
AcDbLine
 10
17.431
 20
5.736322686980123
 30
0.0
 11
17.433
 21
5.737322686980123
 31
0.0
  0
LINE
  5
2B0
330
1F
100
AcDbEntity
  8
Object
100
AcDbLine
 10
17.368
 20
5.773322686980123
 30
0.0
 11
17.368
 21
5.768322686980123
 31
0.0
  0
LINE
  5
2B1
330
1F
100
AcDbEntity
  8
Object
100
AcDbLine
 10
17.431
 20
5.736322686980123
 30
0.0
 11
17.429
 21
5.733322686980123
 31
0.0
  0
LINE
  5
2B2
330
1F
100
AcDbEntity
  8
Object
100
AcDbLine
 10
17.429
 20
5.733322686980123
 30
0.0
 11
17.368
 21
5.768322686980123
 31
0.0
  0
LINE
  5
2B3
330
1F
100
AcDbEntity
  8
Object
100
AcDbLine
 10
17.367
 20
5.776322686980123
 30
0.0
 11
17.368
 21
5.773322686980123
 31
0.0
  0
LINE
  5
2B4
330
1F
100
AcDbEntity
  8
Object
100
AcDbLine
 10
17.433
 20
5.737322686980123
 30
0.0
 11
17.438
 21
5.738322686980123
 31
0.0
  0
LINE
  5
2B5
330
1F
100
AcDbEntity
  8
Object
100
AcDbLine
 10
17.438
 20
5.738322686980123
 30
0.0
 11
17.441
 21
5.737322686980123
 31
0.0
  0
LINE
  5
2B6
330
1F
100
AcDbEntity
  8
Object
100
AcDbLine
 10
17.366
 20
5.778322686980123
 30
0.0
 11
17.367
 21
5.776322686980123
 31
0.0
  0
LINE
  5
2B7
330
1F
100
AcDbEntity
  8
Object
100
AcDbLine
 10
16.963
 20
5.887322686980123
 30
0.0
 11
16.977
 21
5.886322686980124
 31
0.0
  0
LINE
  5
2B8
330
1F
100
AcDbEntity
  8
Object
100
AcDbLine
 10
17.5
 20
5.696322686980123
 30
0.0
 11
17.498
 21
5.697322686980124
 31
0.0
  0
LINE
  5
2B9
330
1F
100
AcDbEntity
  8
Object
100
AcDbLine
 10
17.498
 20
5.697322686980124
 30
0.0
 11
17.494
 21
5.697322686980124
 31
0.0
  0
LINE
  5
2BA
330
1F
100
AcDbEntity
  8
Object
100
AcDbLine
 10
17.494
 20
5.697322686980124
 30
0.0
 11
17.491
 21
5.695322686980123
 31
0.0
  0
LINE
  5
2BB
330
1F
100
AcDbEntity
  8
Object
100
AcDbLine
 10
17.491
 20
5.695322686980123
 30
0.0
 11
17.49
 21
5.693322686980123
 31
0.0
  0
LINE
  5
2BC
330
1F
100
AcDbEntity
  8
Object
100
AcDbLine
 10
17.49
 20
5.693322686980123
 30
0.0
 11
17.429
 21
5.733322686980123
 31
0.0
  0
LINE
  5
2BD
330
1F
100
AcDbEntity
  8
Object
100
AcDbLine
 10
17.498
 20
5.697322686980124
 30
0.0
 11
17.5
 21
5.696322686980123
 31
0.0
  0
LINE
  5
2BE
330
1F
100
AcDbEntity
  8
Object
100
AcDbLine
 10
17.468
 20
5.967322686980123
 30
0.0
 11
17.467
 21
5.967322686980123
 31
0.0
  0
LINE
  5
2BF
330
1F
100
AcDbEntity
  8
Object
100
AcDbLine
 10
17.467
 20
5.967322686980123
 30
0.0
 11
17.466
 21
5.967322686980123
 31
0.0
  0
LINE
  5
2C0
330
1F
100
AcDbEntity
  8
Object
100
AcDbLine
 10
17.468
 20
5.967322686980123
 30
0.0
 11
17.467
 21
5.967322686980123
 31
0.0
  0
LINE
  5
2C1
330
1F
100
AcDbEntity
  8
Object
100
AcDbLine
 10
17.466
 20
5.967322686980123
 30
0.0
 11
17.43
 21
5.967322686980123
 31
0.0
  0
LINE
  5
2C2
330
1F
100
AcDbEntity
  8
Object
100
AcDbLine
 10
17.43
 20
5.967322686980123
 30
0.0
 11
17.407
 21
5.967322686980123
 31
0.0
  0
LINE
  5
2C3
330
1F
100
AcDbEntity
  8
Object
100
AcDbLine
 10
17.407
 20
5.967322686980123
 30
0.0
 11
17.385
 21
5.967322686980123
 31
0.0
  0
LINE
  5
2C4
330
1F
100
AcDbEntity
  8
Object
100
AcDbLine
 10
17.385
 20
5.967322686980123
 30
0.0
 11
17.369
 21
5.967322686980123
 31
0.0
  0
LINE
  5
2C5
330
1F
100
AcDbEntity
  8
Object
100
AcDbLine
 10
17.369
 20
5.967322686980123
 30
0.0
 11
17.363
 21
5.967322686980123
 31
0.0
  0
LINE
  5
2C6
330
1F
100
AcDbEntity
  8
Object
100
AcDbLine
 10
17.467
 20
6.092322686980123
 30
0.0
 11
17.488
 21
8.467322686980123
 31
0.0
  0
LINE
  5
2C7
330
1F
100
AcDbEntity
  8
Object
100
AcDbLine
 10
17.467
 20
6.023322686980123
 30
0.0
 11
17.467
 21
6.046322686980123
 31
0.0
  0
LINE
  5
2C8
330
1F
100
AcDbEntity
  8
Object
100
AcDbLine
 10
17.467
 20
6.046322686980123
 30
0.0
 11
17.467
 21
6.069322686980124
 31
0.0
  0
LINE
  5
2C9
330
1F
100
AcDbEntity
  8
Object
100
AcDbLine
 10
17.467
 20
6.069322686980124
 30
0.0
 11
17.467
 21
6.092322686980123
 31
0.0
  0
LINE
  5
2CA
330
1F
100
AcDbEntity
  8
Object
100
AcDbLine
 10
17.466
 20
6.022322686980123
 30
0.0
 11
17.466
 21
5.967322686980123
 31
0.0
  0
LINE
  5
2CB
330
1F
100
AcDbEntity
  8
Object
100
AcDbLine
 10
17.488
 20
8.467322686980123
 30
0.0
 11
17.467
 21
6.025322686980123
 31
0.0
  0
LINE
  5
2CC
330
1F
100
AcDbEntity
  8
Object
100
AcDbLine
 10
17.466
 20
5.976322686980124
 30
0.0
 11
17.466
 21
5.987322686980123
 31
0.0
  0
LINE
  5
2CD
330
1F
100
AcDbEntity
  8
Object
100
AcDbLine
 10
17.466
 20
5.987322686980123
 30
0.0
 11
17.466
 21
6.003322686980123
 31
0.0
  0
LINE
  5
2CE
330
1F
100
AcDbEntity
  8
Object
100
AcDbLine
 10
17.466
 20
6.003322686980123
 30
0.0
 11
17.467
 21
6.023322686980123
 31
0.0
  0
LINE
  5
2CF
330
1F
100
AcDbEntity
  8
Object
100
AcDbLine
 10
17.466
 20
5.976322686980124
 30
0.0
 11
17.466
 21
5.969322686980123
 31
0.0
  0
LINE
  5
2D0
330
1F
100
AcDbEntity
  8
Object
100
AcDbLine
 10
17.466
 20
5.969322686980123
 30
0.0
 11
17.466
 21
5.967322686980123
 31
0.0
  0
LINE
  5
2D1
330
1F
100
AcDbEntity
  8
Object
100
AcDbLine
 10
17.43
 20
5.967322686980123
 30
0.0
 11
17.43
 21
5.965322686980123
 31
0.0
  0
LINE
  5
2D2
330
1F
100
AcDbEntity
  8
Object
100
AcDbLine
 10
17.43
 20
5.965322686980123
 30
0.0
 11
17.429
 21
5.967322686980123
 31
0.0
  0
LINE
  5
2D3
330
1F
100
AcDbEntity
  8
Object
100
AcDbLine
 10
17.43
 20
5.969322686980123
 30
0.0
 11
17.43
 21
5.976322686980124
 31
0.0
  0
LINE
  5
2D4
330
1F
100
AcDbEntity
  8
Object
100
AcDbLine
 10
17.43
 20
5.976322686980124
 30
0.0
 11
17.43
 21
5.987322686980123
 31
0.0
  0
LINE
  5
2D5
330
1F
100
AcDbEntity
  8
Object
100
AcDbLine
 10
17.43
 20
5.969322686980123
 30
0.0
 11
17.43
 21
5.967322686980123
 31
0.0
  0
LINE
  5
2D6
330
1F
100
AcDbEntity
  8
Object
100
AcDbLine
 10
17.429
 20
6.046322686980123
 30
0.0
 11
17.429
 21
6.023322686980123
 31
0.0
  0
LINE
  5
2D7
330
1F
100
AcDbEntity
  8
Object
100
AcDbLine
 10
17.43
 20
5.987322686980123
 30
0.0
 11
17.429
 21
6.003322686980123
 31
0.0
  0
LINE
  5
2D8
330
1F
100
AcDbEntity
  8
Object
100
AcDbLine
 10
17.429
 20
6.003322686980123
 30
0.0
 11
17.429
 21
6.023322686980123
 31
0.0
  0
LINE
  5
2D9
330
1F
100
AcDbEntity
  8
Object
100
AcDbLine
 10
17.429
 20
6.092322686980123
 30
0.0
 11
17.429
 21
6.069322686980124
 31
0.0
  0
LINE
  5
2DA
330
1F
100
AcDbEntity
  8
Object
100
AcDbLine
 10
17.429
 20
6.069322686980124
 30
0.0
 11
17.429
 21
6.046322686980123
 31
0.0
  0
LINE
  5
2DB
330
1F
100
AcDbEntity
  8
Object
100
AcDbLine
 10
17.429
 20
6.080322686980123
 30
0.0
 11
17.408
 21
8.467322686980123
 31
0.0
  0
LINE
  5
2DC
330
1F
100
AcDbEntity
  8
Object
100
AcDbLine
 10
17.429
 20
6.023322686980123
 30
0.0
 11
17.429
 21
6.061322686980123
 31
0.0
  0
LINE
  5
2DD
330
1F
100
AcDbEntity
  8
Object
100
AcDbLine
 10
17.43
 20
5.967322686980123
 30
0.0
 11
17.429
 21
5.995322686980123
 31
0.0
  0
LINE
  5
2DE
330
1F
100
AcDbEntity
  8
Object
100
AcDbLine
 10
17.408
 20
8.467322686980123
 30
0.0
 11
17.429
 21
6.092322686980123
 31
0.0
  0
LINE
  5
2DF
330
1F
100
AcDbEntity
  8
Object
100
AcDbLine
 10
17.488
 20
8.467322686980123
 30
0.0
 11
17.467
 21
6.092322686980123
 31
0.0
  0
LINE
  5
2E0
330
1F
100
AcDbEntity
  8
Object
100
AcDbLine
 10
17.467
 20
6.092322686980123
 30
0.0
 11
17.429
 21
6.092322686980123
 31
0.0
  0
LINE
  5
2E1
330
1F
100
AcDbEntity
  8
Object
100
AcDbLine
 10
17.429
 20
6.092322686980123
 30
0.0
 11
17.408
 21
8.467322686980123
 31
0.0
  0
LINE
  5
2E2
330
1F
100
AcDbEntity
  8
Object
100
AcDbLine
 10
17.408
 20
8.467322686980123
 30
0.0
 11
17.488
 21
8.467322686980123
 31
0.0
  0
LINE
  5
2E3
330
1F
100
AcDbEntity
  8
Object
100
AcDbLine
 10
17.341
 20
8.467322686980123
 30
0.0
 11
17.363
 21
5.967322686980123
 31
0.0
  0
LINE
  5
2E4
330
1F
100
AcDbEntity
  8
Object
100
AcDbLine
 10
17.429
 20
6.080322686980123
 30
0.0
 11
17.408
 21
8.467322686980123
 31
0.0
  0
LINE
  5
2E5
330
1F
100
AcDbEntity
  8
Object
100
AcDbLine
 10
17.429
 20
6.023322686980123
 30
0.0
 11
17.429
 21
6.061322686980123
 31
0.0
  0
LINE
  5
2E6
330
1F
100
AcDbEntity
  8
Object
100
AcDbLine
 10
17.429
 20
5.995322686980123
 30
0.0
 11
17.43
 21
5.967322686980123
 31
0.0
  0
LINE
  5
2E7
330
1F
100
AcDbEntity
  8
Object
100
AcDbLine
 10
17.43
 20
5.967322686980123
 30
0.0
 11
17.407
 21
5.967322686980123
 31
0.0
  0
LINE
  5
2E8
330
1F
100
AcDbEntity
  8
Object
100
AcDbLine
 10
17.408
 20
8.467322686980123
 30
0.0
 11
17.382
 21
8.467322686980123
 31
0.0
  0
LINE
  5
2E9
330
1F
100
AcDbEntity
  8
Object
100
AcDbLine
 10
17.407
 20
5.967322686980123
 30
0.0
 11
17.385
 21
5.967322686980123
 31
0.0
  0
LINE
  5
2EA
330
1F
100
AcDbEntity
  8
Object
100
AcDbLine
 10
17.385
 20
5.967322686980123
 30
0.0
 11
17.369
 21
5.967322686980123
 31
0.0
  0
LINE
  5
2EB
330
1F
100
AcDbEntity
  8
Object
100
AcDbLine
 10
17.382
 20
8.467322686980123
 30
0.0
 11
17.361
 21
8.467322686980123
 31
0.0
  0
LINE
  5
2EC
330
1F
100
AcDbEntity
  8
Object
100
AcDbLine
 10
17.361
 20
8.467322686980123
 30
0.0
 11
17.346
 21
8.467322686980123
 31
0.0
  0
LINE
  5
2ED
330
1F
100
AcDbEntity
  8
Object
100
AcDbLine
 10
17.363
 20
5.967322686980123
 30
0.0
 11
17.369
 21
5.967322686980123
 31
0.0
  0
LINE
  5
2EE
330
1F
100
AcDbEntity
  8
Object
100
AcDbLine
 10
17.346
 20
8.467322686980123
 30
0.0
 11
17.341
 21
8.467322686980123
 31
0.0
  0
LINE
  5
2EF
330
1F
100
AcDbEntity
  8
Object
100
AcDbLine
 10
17.377
 20
4.790322686980124
 30
0.0
 11
17.377
 21
4.784322686980123
 31
0.0
  0
LINE
  5
2F0
330
1F
100
AcDbEntity
  8
Object
100
AcDbLine
 10
17.376
 20
4.832322686980123
 30
0.0
 11
17.376
 21
4.807322686980123
 31
0.0
  0
LINE
  5
2F1
330
1F
100
AcDbEntity
  8
Object
100
AcDbLine
 10
17.376
 20
4.807322686980123
 30
0.0
 11
17.377
 21
4.790322686980124
 31
0.0
  0
LINE
  5
2F2
330
1F
100
AcDbEntity
  8
Object
100
AcDbLine
 10
17.376
 20
4.863322686980123
 30
0.0
 11
17.376
 21
4.832322686980123
 31
0.0
  0
LINE
  5
2F3
330
1F
100
AcDbEntity
  8
Object
100
AcDbLine
 10
17.377
 20
4.784322686980123
 30
0.0
 11
17.376
 21
4.792322686980123
 31
0.0
  0
LINE
  5
2F4
330
1F
100
AcDbEntity
  8
Object
100
AcDbLine
 10
17.376
 20
4.863322686980123
 30
0.0
 11
17.368
 21
5.768322686980123
 31
0.0
  0
LINE
  5
2F5
330
1F
100
AcDbEntity
  8
Object
100
AcDbLine
 10
17.368
 20
5.768322686980123
 30
0.0
 11
17.368
 21
5.773322686980123
 31
0.0
  0
LINE
  5
2F6
330
1F
100
AcDbEntity
  8
Object
100
AcDbLine
 10
17.498
 20
5.697322686980124
 30
0.0
 11
17.494
 21
5.697322686980124
 31
0.0
  0
LINE
  5
2F7
330
1F
100
AcDbEntity
  8
Object
100
AcDbLine
 10
17.494
 20
5.697322686980124
 30
0.0
 11
17.491
 21
5.695322686980123
 31
0.0
  0
LINE
  5
2F8
330
1F
100
AcDbEntity
  8
Object
100
AcDbLine
 10
17.491
 20
5.695322686980123
 30
0.0
 11
17.49
 21
5.693322686980123
 31
0.0
  0
LINE
  5
2F9
330
1F
100
AcDbEntity
  8
Object
100
AcDbLine
 10
17.49
 20
5.693322686980123
 30
0.0
 11
17.488
 21
5.691322686980123
 31
0.0
  0
LINE
  5
2FA
330
1F
100
AcDbEntity
  8
Object
100
AcDbLine
 10
17.488
 20
5.691322686980123
 30
0.0
 11
17.488
 21
5.688322686980123
 31
0.0
  0
LINE
  5
2FB
330
1F
100
AcDbEntity
  8
Object
100
AcDbLine
 10
17.438
 20
5.738322686980123
 30
0.0
 11
17.433
 21
5.737322686980123
 31
0.0
  0
LINE
  5
2FC
330
1F
100
AcDbEntity
  8
Object
100
AcDbLine
 10
17.433
 20
5.737322686980123
 30
0.0
 11
17.431
 21
5.736322686980123
 31
0.0
  0
LINE
  5
2FD
330
1F
100
AcDbEntity
  8
Object
100
AcDbLine
 10
17.431
 20
5.736322686980123
 30
0.0
 11
17.429
 21
5.733322686980123
 31
0.0
  0
LINE
  5
2FE
330
1F
100
AcDbEntity
  8
Object
100
AcDbLine
 10
17.429
 20
5.733322686980123
 30
0.0
 11
17.428
 21
5.731322686980123
 31
0.0
  0
LINE
  5
2FF
330
1F
100
AcDbEntity
  8
Object
100
AcDbLine
 10
17.428
 20
5.731322686980123
 30
0.0
 11
17.428
 21
5.728322686980123
 31
0.0
  0
LINE
  5
300
330
1F
100
AcDbEntity
  8
Object
100
AcDbLine
 10
17.318
 20
5.797322686980123
 30
0.0
 11
17.327
 21
4.784322686980123
 31
0.0
  0
LINE
  5
301
330
1F
100
AcDbEntity
  8
Object
100
AcDbLine
 10
17.42
 20
4.784322686980123
 30
0.0
 11
17.421
 21
4.909322686980123
 31
0.0
  0
LINE
  5
302
330
1F
100
AcDbEntity
  8
Object
100
AcDbLine
 10
17.376
 20
4.792322686980123
 30
0.0
 11
17.377
 21
4.784322686980123
 31
0.0
  0
LINE
  5
303
330
1F
100
AcDbEntity
  8
Object
100
AcDbLine
 10
17.377
 20
4.784322686980123
 30
0.0
 11
17.358
 21
4.784322686980123
 31
0.0
  0
LINE
  5
304
330
1F
100
AcDbEntity
  8
Object
100
AcDbLine
 10
17.368
 20
5.768322686980123
 30
0.0
 11
17.35
 21
5.779322686980123
 31
0.0
  0
LINE
  5
305
330
1F
100
AcDbEntity
  8
Object
100
AcDbLine
 10
17.342
 20
4.784322686980123
 30
0.0
 11
17.358
 21
4.784322686980123
 31
0.0
  0
LINE
  5
306
330
1F
100
AcDbEntity
  8
Object
100
AcDbLine
 10
17.35
 20
5.779322686980123
 30
0.0
 11
17.334
 21
5.788322686980123
 31
0.0
  0
LINE
  5
307
330
1F
100
AcDbEntity
  8
Object
100
AcDbLine
 10
17.331
 20
4.784322686980123
 30
0.0
 11
17.342
 21
4.784322686980123
 31
0.0
  0
LINE
  5
308
330
1F
100
AcDbEntity
  8
Object
100
AcDbLine
 10
17.334
 20
5.788322686980123
 30
0.0
 11
17.322
 21
5.794322686980123
 31
0.0
  0
LINE
  5
309
330
1F
100
AcDbEntity
  8
Object
100
AcDbLine
 10
17.327
 20
4.784322686980123
 30
0.0
 11
17.331
 21
4.784322686980123
 31
0.0
  0
LINE
  5
30A
330
1F
100
AcDbEntity
  8
Object
100
AcDbLine
 10
17.428
 20
5.728322686980123
 30
0.0
 11
17.428
 21
5.731322686980123
 31
0.0
  0
LINE
  5
30B
330
1F
100
AcDbEntity
  8
Object
100
AcDbLine
 10
17.428
 20
5.731322686980123
 30
0.0
 11
17.429
 21
5.733322686980123
 31
0.0
  0
LINE
  5
30C
330
1F
100
AcDbEntity
  8
Object
100
AcDbLine
 10
17.368
 20
5.768322686980123
 30
0.0
 11
17.376
 21
4.863322686980123
 31
0.0
  0
LINE
  5
30D
330
1F
100
AcDbEntity
  8
Object
100
AcDbLine
 10
17.376
 20
4.863322686980123
 30
0.0
 11
17.42
 21
4.863322686980123
 31
0.0
  0
LINE
  5
30E
330
1F
100
AcDbEntity
  8
Object
100
AcDbLine
 10
17.42
 20
4.863322686980123
 30
0.0
 11
17.428
 21
5.728322686980123
 31
0.0
  0
LINE
  5
30F
330
1F
100
AcDbEntity
  8
Object
100
AcDbLine
 10
17.488
 20
5.688322686980123
 30
0.0
 11
17.488
 21
5.691322686980123
 31
0.0
  0
LINE
  5
310
330
1F
100
AcDbEntity
  8
Object
100
AcDbLine
 10
17.488
 20
5.691322686980123
 30
0.0
 11
17.49
 21
5.693322686980123
 31
0.0
  0
LINE
  5
311
330
1F
100
AcDbEntity
  8
Object
100
AcDbLine
 10
17.481
 20
4.909322686980123
 30
0.0
 11
17.488
 21
5.688322686980123
 31
0.0
  0
LINE
  5
312
330
1F
100
AcDbEntity
  8
Object
100
AcDbLine
 10
17.428
 20
5.728322686980123
 30
0.0
 11
17.421
 21
4.909322686980123
 31
0.0
  0
LINE
  5
313
330
1F
100
AcDbEntity
  8
Object
100
AcDbLine
 10
17.421
 20
4.909322686980123
 30
0.0
 11
17.481
 21
4.909322686980123
 31
0.0
  0
LINE
  5
314
330
1F
100
AcDbEntity
  8
Object
100
AcDbLine
 10
17.43
 20
5.976322686980124
 30
0.0
 11
17.43
 21
5.969322686980123
 31
0.0
  0
LINE
  5
315
330
1F
100
AcDbEntity
  8
Object
100
AcDbLine
 10
17.466
 20
5.976322686980124
 30
0.0
 11
17.466
 21
5.969322686980123
 31
0.0
  0
LINE
  5
316
330
1F
100
AcDbEntity
  8
Object
100
AcDbLine
 10
17.466
 20
5.969322686980123
 30
0.0
 11
17.466
 21
5.967322686980123
 31
0.0
  0
LINE
  5
317
330
1F
100
AcDbEntity
  8
Object
100
AcDbLine
 10
17.466
 20
5.967322686980123
 30
0.0
 11
17.43
 21
5.967322686980123
 31
0.0
  0
LINE
  5
318
330
1F
100
AcDbEntity
  8
Object
100
AcDbLine
 10
17.43
 20
5.967322686980123
 30
0.0
 11
17.43
 21
5.969322686980123
 31
0.0
  0
LINE
  5
319
330
1F
100
AcDbEntity
  8
Object
100
AcDbLine
 10
17.43
 20
5.987322686980123
 30
0.0
 11
17.43
 21
5.976322686980124
 31
0.0
  0
LINE
  5
31A
330
1F
100
AcDbEntity
  8
Object
100
AcDbLine
 10
17.466
 20
5.976322686980124
 30
0.0
 11
17.466
 21
5.987322686980123
 31
0.0
  0
LINE
  5
31B
330
1F
100
AcDbEntity
  8
Object
100
AcDbLine
 10
17.429
 20
6.023322686980123
 30
0.0
 11
17.429
 21
6.003322686980123
 31
0.0
  0
LINE
  5
31C
330
1F
100
AcDbEntity
  8
Object
100
AcDbLine
 10
17.467
 20
6.023322686980123
 30
0.0
 11
17.466
 21
6.003322686980123
 31
0.0
  0
LINE
  5
31D
330
1F
100
AcDbEntity
  8
Object
100
AcDbLine
 10
17.466
 20
6.003322686980123
 30
0.0
 11
17.466
 21
5.987322686980123
 31
0.0
  0
LINE
  5
31E
330
1F
100
AcDbEntity
  8
Object
100
AcDbLine
 10
17.429
 20
6.003322686980123
 30
0.0
 11
17.43
 21
5.987322686980123
 31
0.0
  0
LINE
  5
31F
330
1F
100
AcDbEntity
  8
Object
100
AcDbLine
 10
17.429
 20
6.046322686980123
 30
0.0
 11
17.429
 21
6.023322686980123
 31
0.0
  0
LINE
  5
320
330
1F
100
AcDbEntity
  8
Object
100
AcDbLine
 10
17.467
 20
6.023322686980123
 30
0.0
 11
17.467
 21
6.046322686980123
 31
0.0
  0
LINE
  5
321
330
1F
100
AcDbEntity
  8
Object
100
AcDbLine
 10
17.429
 20
6.092322686980123
 30
0.0
 11
17.429
 21
6.069322686980124
 31
0.0
  0
LINE
  5
322
330
1F
100
AcDbEntity
  8
Object
100
AcDbLine
 10
17.467
 20
6.046322686980123
 30
0.0
 11
17.467
 21
6.069322686980124
 31
0.0
  0
LINE
  5
323
330
1F
100
AcDbEntity
  8
Object
100
AcDbLine
 10
17.429
 20
6.069322686980124
 30
0.0
 11
17.429
 21
6.046322686980123
 31
0.0
  0
LINE
  5
324
330
1F
100
AcDbEntity
  8
Object
100
AcDbLine
 10
17.467
 20
6.069322686980124
 30
0.0
 11
17.467
 21
6.092322686980123
 31
0.0
  0
LINE
  5
325
330
1F
100
AcDbEntity
  8
Object
100
AcDbLine
 10
17.421
 20
4.909322686980123
 30
0.0
 11
17.481
 21
4.909322686980123
 31
0.0
  0
LINE
  5
326
330
1F
100
AcDbEntity
  8
Object
100
AcDbLine
 10
17.42
 20
4.807322686980123
 30
0.0
 11
17.42
 21
4.790322686980124
 31
0.0
  0
LINE
  5
327
330
1F
100
AcDbEntity
  8
Object
100
AcDbLine
 10
17.42
 20
4.790322686980124
 30
0.0
 11
17.42
 21
4.784322686980123
 31
0.0
  0
LINE
  5
328
330
1F
100
AcDbEntity
  8
Object
100
AcDbLine
 10
17.42
 20
4.807322686980123
 30
0.0
 11
17.42
 21
4.832322686980123
 31
0.0
  0
LINE
  5
329
330
1F
100
AcDbEntity
  8
Object
100
AcDbLine
 10
17.42
 20
4.832322686980123
 30
0.0
 11
17.42
 21
4.863322686980123
 31
0.0
  0
LINE
  5
32A
330
1F
100
AcDbEntity
  8
Object
100
AcDbLine
 10
17.42
 20
4.784322686980123
 30
0.0
 11
17.377
 21
4.784322686980123
 31
0.0
  0
LINE
  5
32B
330
1F
100
AcDbEntity
  8
Object
100
AcDbLine
 10
17.377
 20
4.784322686980123
 30
0.0
 11
17.377
 21
4.790322686980124
 31
0.0
  0
LINE
  5
32C
330
1F
100
AcDbEntity
  8
Object
100
AcDbLine
 10
17.377
 20
4.790322686980124
 30
0.0
 11
17.376
 21
4.807322686980123
 31
0.0
  0
LINE
  5
32D
330
1F
100
AcDbEntity
  8
Object
100
AcDbLine
 10
17.376
 20
4.807322686980123
 30
0.0
 11
17.376
 21
4.832322686980123
 31
0.0
  0
LINE
  5
32E
330
1F
100
AcDbEntity
  8
Object
100
AcDbLine
 10
17.376
 20
4.832322686980123
 30
0.0
 11
17.376
 21
4.863322686980123
 31
0.0
  0
LINE
  5
32F
330
1F
100
AcDbEntity
  8
Object
100
AcDbLine
 10
17.42
 20
4.784322686980123
 30
0.0
 11
17.377
 21
4.784322686980123
 31
0.0
  0
LINE
  5
330
330
1F
100
AcDbEntity
  8
Object
100
AcDbLine
 10
17.377
 20
4.784322686980123
 30
0.0
 11
17.358
 21
4.784322686980123
 31
0.0
  0
LINE
  5
331
330
1F
100
AcDbEntity
  8
Object
100
AcDbLine
 10
17.358
 20
4.784322686980123
 30
0.0
 11
17.342
 21
4.784322686980123
 31
0.0
  0
LINE
  5
332
330
1F
100
AcDbEntity
  8
Object
100
AcDbLine
 10
17.342
 20
4.784322686980123
 30
0.0
 11
17.331
 21
4.784322686980123
 31
0.0
  0
LINE
  5
333
330
1F
100
AcDbEntity
  8
Object
100
AcDbLine
 10
17.331
 20
4.784322686980123
 30
0.0
 11
17.327
 21
4.784322686980123
 31
0.0
  0
LINE
  5
334
330
1F
100
AcDbEntity
  8
Object
100
AcDbLine
 10
17.481
 20
4.909322686980123
 30
0.0
 11
17.488
 21
5.688322686980123
 31
0.0
  0
LINE
  5
335
330
1F
100
AcDbEntity
  8
Object
100
AcDbLine
 10
17.421
 20
4.909322686980123
 30
0.0
 11
17.428
 21
5.728322686980123
 31
0.0
  0
LINE
  5
336
330
1F
100
AcDbEntity
  8
Object
100
AcDbLine
 10
17.428
 20
5.728322686980123
 30
0.0
 11
17.42
 21
4.863322686980123
 31
0.0
  0
LINE
  5
337
330
1F
100
AcDbEntity
  8
Object
100
AcDbLine
 10
17.421
 20
4.909322686980123
 30
0.0
 11
17.42
 21
4.784322686980123
 31
0.0
  0
LINE
  5
338
330
1F
100
AcDbEntity
  8
Object
100
AcDbLine
 10
17.42
 20
4.784322686980123
 30
0.0
 11
17.42
 21
4.790322686980124
 31
0.0
  0
LINE
  5
339
330
1F
100
AcDbEntity
  8
Object
100
AcDbLine
 10
17.42
 20
4.790322686980124
 30
0.0
 11
17.42
 21
4.807322686980123
 31
0.0
  0
LINE
  5
33A
330
1F
100
AcDbEntity
  8
Object
100
AcDbLine
 10
17.42
 20
4.807322686980123
 30
0.0
 11
17.42
 21
4.832322686980123
 31
0.0
  0
LINE
  5
33B
330
1F
100
AcDbEntity
  8
Object
100
AcDbLine
 10
17.42
 20
4.832322686980123
 30
0.0
 11
17.42
 21
4.863322686980123
 31
0.0
  0
LINE
  5
33C
330
1F
100
AcDbEntity
  8
Object
100
AcDbLine
 10
5.385999999999999
 20
8.467322686980123
 30
0.0
 11
5.374
 21
8.467322686980123
 31
0.0
  0
LINE
  5
33D
330
1F
100
AcDbEntity
  8
Object
100
AcDbLine
 10
5.374
 20
8.467322686980123
 30
0.0
 11
5.347000000000001
 21
8.467322686980123
 31
0.0
  0
LINE
  5
33E
330
1F
100
AcDbEntity
  8
Object
100
AcDbLine
 10
5.347000000000001
 20
8.467322686980123
 30
0.0
 11
5.306
 21
8.467322686980123
 31
0.0
  0
LINE
  5
33F
330
1F
100
AcDbEntity
  8
Object
100
AcDbLine
 10
5.306
 20
8.467322686980123
 30
0.0
 11
5.251000000000001
 21
8.467322686980123
 31
0.0
  0
LINE
  5
340
330
1F
100
AcDbEntity
  8
Object
100
AcDbLine
 10
5.251000000000001
 20
8.467322686980123
 30
0.0
 11
5.182999999999999
 21
8.467322686980123
 31
0.0
  0
LINE
  5
341
330
1F
100
AcDbEntity
  8
Object
100
AcDbLine
 10
5.111
 20
8.467322686980123
 30
0.0
 11
5.12
 21
8.467322686980123
 31
0.0
  0
LINE
  5
342
330
1F
100
AcDbEntity
  8
Object
100
AcDbLine
 10
5.182999999999999
 20
8.467322686980123
 30
0.0
 11
5.102
 21
8.467322686980123
 31
0.0
  0
LINE
  5
343
330
1F
100
AcDbEntity
  8
Object
100
AcDbLine
 10
5.102
 20
8.467322686980123
 30
0.0
 11
5.009999999999999
 21
8.467322686980123
 31
0.0
  0
LINE
  5
344
330
1F
100
AcDbEntity
  8
Object
100
AcDbLine
 10
5.009999999999999
 20
8.467322686980123
 30
0.0
 11
4.908999999999998
 21
8.467322686980123
 31
0.0
  0
LINE
  5
345
330
1F
100
AcDbEntity
  8
Object
100
AcDbLine
 10
4.908999999999998
 20
8.467322686980123
 30
0.0
 11
4.798
 21
8.467322686980123
 31
0.0
  0
LINE
  5
346
330
1F
100
AcDbEntity
  8
Object
100
AcDbLine
 10
4.798
 20
8.467322686980123
 30
0.0
 11
4.682
 21
8.467322686980123
 31
0.0
  0
LINE
  5
347
330
1F
100
AcDbEntity
  8
Object
100
AcDbLine
 10
4.682
 20
8.467322686980123
 30
0.0
 11
4.559000000000001
 21
8.467322686980123
 31
0.0
  0
LINE
  5
348
330
1F
100
AcDbEntity
  8
Object
100
AcDbLine
 10
4.559000000000001
 20
8.467322686980123
 30
0.0
 11
4.434000000000001
 21
8.467322686980123
 31
0.0
  0
LINE
  5
349
330
1F
100
AcDbEntity
  8
Object
100
AcDbLine
 10
4.434000000000001
 20
8.467322686980123
 30
0.0
 11
4.306
 21
8.467322686980123
 31
0.0
  0
LINE
  5
34A
330
1F
100
AcDbEntity
  8
Object
100
AcDbLine
 10
4.306
 20
8.467322686980123
 30
0.0
 11
4.185
 21
8.467322686980123
 31
0.0
  0
LINE
  5
34B
330
1F
100
AcDbEntity
  8
Object
100
AcDbLine
 10
4.185
 20
8.467322686980123
 30
0.0
 11
4.065999999999998
 21
8.467322686980123
 31
0.0
  0
LINE
  5
34C
330
1F
100
AcDbEntity
  8
Object
100
AcDbLine
 10
4.065999999999998
 20
8.467322686980123
 30
0.0
 11
3.951
 21
8.467322686980123
 31
0.0
  0
LINE
  5
34D
330
1F
100
AcDbEntity
  8
Object
100
AcDbLine
 10
3.951
 20
8.467322686980123
 30
0.0
 11
3.839999999999999
 21
8.467322686980123
 31
0.0
  0
LINE
  5
34E
330
1F
100
AcDbEntity
  8
Object
100
AcDbLine
 10
3.839999999999999
 20
8.467322686980123
 30
0.0
 11
3.737
 21
8.467322686980123
 31
0.0
  0
LINE
  5
34F
330
1F
100
AcDbEntity
  8
Object
100
AcDbLine
 10
3.737
 20
8.467322686980123
 30
0.0
 11
3.733999999999999
 21
8.467322686980123
 31
0.0
  0
LINE
  5
350
330
1F
100
AcDbEntity
  8
Object
100
AcDbLine
 10
3.733999999999999
 20
8.467322686980123
 30
0.0
 11
3.733
 21
8.467322686980123
 31
0.0
  0
LINE
  5
351
330
1F
100
AcDbEntity
  8
Object
100
AcDbLine
 10
3.733
 20
8.467322686980123
 30
0.0
 11
3.653
 21
8.467322686980123
 31
0.0
  0
LINE
  5
352
330
1F
100
AcDbEntity
  8
Object
100
AcDbLine
 10
3.653
 20
8.467322686980123
 30
0.0
 11
3.652000000000001
 21
8.467322686980123
 31
0.0
  0
LINE
  5
353
330
1F
100
AcDbEntity
  8
Object
100
AcDbLine
 10
3.652000000000001
 20
8.467322686980123
 30
0.0
 11
3.650999999999999
 21
8.467322686980123
 31
0.0
  0
LINE
  5
354
330
1F
100
AcDbEntity
  8
Object
100
AcDbLine
 10
3.650999999999999
 20
8.467322686980123
 30
0.0
 11
3.649
 21
8.467322686980123
 31
0.0
  0
LINE
  5
355
330
1F
100
AcDbEntity
  8
Object
100
AcDbLine
 10
3.649
 20
8.467322686980123
 30
0.0
 11
3.647
 21
8.467322686980123
 31
0.0
  0
LINE
  5
356
330
1F
100
AcDbEntity
  8
Object
100
AcDbLine
 10
3.647
 20
8.467322686980123
 30
0.0
 11
3.644
 21
8.467322686980123
 31
0.0
  0
LINE
  5
357
330
1F
100
AcDbEntity
  8
Object
100
AcDbLine
 10
3.644
 20
8.467322686980123
 30
0.0
 11
3.641
 21
8.467322686980123
 31
0.0
  0
LINE
  5
358
330
1F
100
AcDbEntity
  8
Object
100
AcDbLine
 10
3.641
 20
8.467322686980123
 30
0.0
 11
3.637999999999999
 21
8.467322686980123
 31
0.0
  0
LINE
  5
359
330
1F
100
AcDbEntity
  8
Object
100
AcDbLine
 10
3.637999999999999
 20
8.467322686980123
 30
0.0
 11
3.635999999999999
 21
8.467322686980123
 31
0.0
  0
LINE
  5
35A
330
1F
100
AcDbEntity
  8
Object
100
AcDbLine
 10
3.635999999999999
 20
8.467322686980123
 30
0.0
 11
3.617
 21
8.467322686980123
 31
0.0
  0
LINE
  5
35B
330
1F
100
AcDbEntity
  8
Object
100
AcDbLine
 10
3.617
 20
8.467322686980123
 30
0.0
 11
3.597999999999998
 21
8.467322686980123
 31
0.0
  0
LINE
  5
35C
330
1F
100
AcDbEntity
  8
Object
100
AcDbLine
 10
3.597999999999998
 20
8.467322686980123
 30
0.0
 11
3.58
 21
8.467322686980123
 31
0.0
  0
LINE
  5
35D
330
1F
100
AcDbEntity
  8
Object
100
AcDbLine
 10
3.58
 20
8.467322686980123
 30
0.0
 11
3.472999999999998
 21
8.467322686980123
 31
0.0
  0
LINE
  5
35E
330
1F
100
AcDbEntity
  8
Object
100
AcDbLine
 10
3.733
 20
8.467322686980123
 30
0.0
 11
3.733999999999999
 21
8.467322686980123
 31
0.0
  0
LINE
  5
35F
330
1F
100
AcDbEntity
  8
Object
100
AcDbLine
 10
3.733999999999999
 20
8.467322686980123
 30
0.0
 11
3.737
 21
8.467322686980123
 31
0.0
  0
LINE
  5
360
330
1F
100
AcDbEntity
  8
Object
100
AcDbLine
 10
3.707
 20
5.583322686980123
 30
0.0
 11
3.707
 21
5.514322686980124
 31
0.0
  0
LINE
  5
361
330
1F
100
AcDbEntity
  8
Object
100
AcDbLine
 10
3.733
 20
8.467322686980123
 30
0.0
 11
3.708
 21
5.627322686980123
 31
0.0
  0
LINE
  5
362
330
1F
100
AcDbEntity
  8
Object
100
AcDbLine
 10
4.464999999999999
 20
4.889322686980124
 30
0.0
 11
4.493999999999999
 21
4.889322686980124
 31
0.0
  0
LINE
  5
363
330
1F
100
AcDbEntity
  8
Object
100
AcDbLine
 10
4.493999999999999
 20
4.889322686980124
 30
0.0
 11
4.457
 21
4.892322686980123
 31
0.0
  0
LINE
  5
364
330
1F
100
AcDbEntity
  8
Object
100
AcDbLine
 10
4.457
 20
4.892322686980123
 30
0.0
 11
4.422
 21
4.903322686980123
 31
0.0
  0
LINE
  5
365
330
1F
100
AcDbEntity
  8
Object
100
AcDbLine
 10
4.464999999999999
 20
4.889322686980124
 30
0.0
 11
4.385999999999999
 21
4.889322686980124
 31
0.0
  0
LINE
  5
366
330
1F
100
AcDbEntity
  8
Object
100
AcDbLine
 10
4.385999999999999
 20
4.889322686980124
 30
0.0
 11
4.306
 21
4.889322686980124
 31
0.0
  0
LINE
  5
367
330
1F
100
AcDbEntity
  8
Object
100
AcDbLine
 10
3.733
 20
8.467322686980123
 30
0.0
 11
3.708
 21
5.636322686980124
 31
0.0
  0
LINE
  5
368
330
1F
100
AcDbEntity
  8
Object
100
AcDbLine
 10
3.708
 20
5.636322686980124
 30
0.0
 11
3.676999999999999
 21
5.636322686980124
 31
0.0
  0
LINE
  5
369
330
1F
100
AcDbEntity
  8
Object
100
AcDbLine
 10
3.676999999999999
 20
5.636322686980124
 30
0.0
 11
3.653
 21
8.467322686980123
 31
0.0
  0
LINE
  5
36A
330
1F
100
AcDbEntity
  8
Object
100
AcDbLine
 10
3.653
 20
8.467322686980123
 30
0.0
 11
3.733
 21
8.467322686980123
 31
0.0
  0
LINE
  5
36B
330
1F
100
AcDbEntity
  8
Object
100
AcDbLine
 10
4.306
 20
8.467322686980123
 30
0.0
 11
4.185
 21
8.467322686980123
 31
0.0
  0
LINE
  5
36C
330
1F
100
AcDbEntity
  8
Object
100
AcDbLine
 10
4.306
 20
5.076322686980123
 30
0.0
 11
4.306
 21
4.889322686980124
 31
0.0
  0
LINE
  5
36D
330
1F
100
AcDbEntity
  8
Object
100
AcDbLine
 10
4.306
 20
4.889322686980124
 30
0.0
 11
4.182999999999999
 21
4.889322686980124
 31
0.0
  0
LINE
  5
36E
330
1F
100
AcDbEntity
  8
Object
100
AcDbLine
 10
4.185
 20
8.467322686980123
 30
0.0
 11
4.065999999999998
 21
8.467322686980123
 31
0.0
  0
LINE
  5
36F
330
1F
100
AcDbEntity
  8
Object
100
AcDbLine
 10
4.182999999999999
 20
4.889322686980124
 30
0.0
 11
4.060999999999999
 21
4.889322686980124
 31
0.0
  0
LINE
  5
370
330
1F
100
AcDbEntity
  8
Object
100
AcDbLine
 10
4.060999999999999
 20
4.889322686980124
 30
0.0
 11
3.942999999999999
 21
4.889322686980124
 31
0.0
  0
LINE
  5
371
330
1F
100
AcDbEntity
  8
Object
100
AcDbLine
 10
4.065999999999998
 20
8.467322686980123
 30
0.0
 11
3.951
 21
8.467322686980123
 31
0.0
  0
LINE
  5
372
330
1F
100
AcDbEntity
  8
Object
100
AcDbLine
 10
3.951
 20
8.467322686980123
 30
0.0
 11
3.839999999999999
 21
8.467322686980123
 31
0.0
  0
LINE
  5
373
330
1F
100
AcDbEntity
  8
Object
100
AcDbLine
 10
3.942999999999999
 20
4.889322686980124
 30
0.0
 11
3.829
 21
4.889322686980124
 31
0.0
  0
LINE
  5
374
330
1F
100
AcDbEntity
  8
Object
100
AcDbLine
 10
3.829
 20
4.889322686980124
 30
0.0
 11
3.722999999999998
 21
4.889322686980124
 31
0.0
  0
LINE
  5
375
330
1F
100
AcDbEntity
  8
Object
100
AcDbLine
 10
3.839999999999999
 20
8.467322686980123
 30
0.0
 11
3.737
 21
8.467322686980123
 31
0.0
  0
LINE
  5
376
330
1F
100
AcDbEntity
  8
Object
100
AcDbLine
 10
3.737
 20
8.467322686980123
 30
0.0
 11
3.711
 21
5.506322686980123
 31
0.0
  0
LINE
  5
377
330
1F
100
AcDbEntity
  8
Object
100
AcDbLine
 10
3.711
 20
5.506322686980123
 30
0.0
 11
3.701999999999999
 21
5.506322686980123
 31
0.0
  0
LINE
  5
378
330
1F
100
AcDbEntity
  8
Object
100
AcDbLine
 10
3.701999999999999
 20
5.506322686980123
 30
0.0
 11
3.692999999999999
 21
5.506322686980123
 31
0.0
  0
LINE
  5
379
330
1F
100
AcDbEntity
  8
Object
100
AcDbLine
 10
3.692999999999999
 20
5.506322686980123
 30
0.0
 11
3.684000000000001
 21
5.506322686980123
 31
0.0
  0
LINE
  5
37A
330
1F
100
AcDbEntity
  8
Object
100
AcDbLine
 10
3.635999999999999
 20
8.467322686980123
 30
0.0
 11
3.661999999999999
 21
5.507322686980123
 31
0.0
  0
LINE
  5
37B
330
1F
100
AcDbEntity
  8
Object
100
AcDbLine
 10
3.661999999999999
 20
5.507322686980123
 30
0.0
 11
3.684000000000001
 21
5.506322686980123
 31
0.0
  0
LINE
  5
37C
330
1F
100
AcDbEntity
  8
Object
100
AcDbLine
 10
3.625999999999999
 20
4.889322686980124
 30
0.0
 11
3.722999999999998
 21
4.889322686980124
 31
0.0
  0
LINE
  5
37D
330
1F
100
AcDbEntity
  8
Object
100
AcDbLine
 10
3.635999999999999
 20
8.467322686980123
 30
0.0
 11
3.617
 21
8.467322686980123
 31
0.0
  0
LINE
  5
37E
330
1F
100
AcDbEntity
  8
Object
100
AcDbLine
 10
3.617
 20
8.467322686980123
 30
0.0
 11
3.597999999999998
 21
8.467322686980123
 31
0.0
  0
LINE
  5
37F
330
1F
100
AcDbEntity
  8
Object
100
AcDbLine
 10
3.538
 20
4.889322686980124
 30
0.0
 11
3.625999999999999
 21
4.889322686980124
 31
0.0
  0
LINE
  5
380
330
1F
100
AcDbEntity
  8
Object
100
AcDbLine
 10
3.597999999999998
 20
8.467322686980123
 30
0.0
 11
3.58
 21
8.467322686980123
 31
0.0
  0
LINE
  5
381
330
1F
100
AcDbEntity
  8
Object
100
AcDbLine
 10
3.708
 20
5.591322686980124
 30
0.0
 11
3.708
 21
5.614322686980123
 31
0.0
  0
LINE
  5
382
330
1F
100
AcDbEntity
  8
Object
100
AcDbLine
 10
3.708
 20
5.614322686980123
 30
0.0
 11
3.708
 21
5.636322686980124
 31
0.0
  0
LINE
  5
383
330
1F
100
AcDbEntity
  8
Object
100
AcDbLine
 10
3.708
 20
5.636322686980124
 30
0.0
 11
3.733
 21
8.467322686980123
 31
0.0
  0
LINE
  5
384
330
1F
100
AcDbEntity
  8
Object
100
AcDbLine
 10
3.707
 20
5.583322686980123
 30
0.0
 11
3.707
 21
5.514322686980124
 31
0.0
  0
LINE
  5
385
330
1F
100
AcDbEntity
  8
Object
100
AcDbLine
 10
3.733
 20
8.467322686980123
 30
0.0
 11
3.708
 21
5.627322686980123
 31
0.0
  0
LINE
  5
386
330
1F
100
AcDbEntity
  8
Object
100
AcDbLine
 10
3.707
 20
5.514322686980124
 30
0.0
 11
3.707
 21
5.516322686980123
 31
0.0
  0
LINE
  5
387
330
1F
100
AcDbEntity
  8
Object
100
AcDbLine
 10
3.707
 20
5.518322686980123
 30
0.0
 11
3.707
 21
5.524322686980124
 31
0.0
  0
LINE
  5
388
330
1F
100
AcDbEntity
  8
Object
100
AcDbLine
 10
3.707
 20
5.524322686980124
 30
0.0
 11
3.707
 21
5.535322686980123
 31
0.0
  0
LINE
  5
389
330
1F
100
AcDbEntity
  8
Object
100
AcDbLine
 10
3.707
 20
5.535322686980123
 30
0.0
 11
3.707
 21
5.551322686980123
 31
0.0
  0
LINE
  5
38A
330
1F
100
AcDbEntity
  8
Object
100
AcDbLine
 10
3.707
 20
5.551322686980123
 30
0.0
 11
3.707
 21
5.570322686980123
 31
0.0
  0
LINE
  5
38B
330
1F
100
AcDbEntity
  8
Object
100
AcDbLine
 10
3.707
 20
5.570322686980123
 30
0.0
 11
3.708
 21
5.591322686980124
 31
0.0
  0
LINE
  5
38C
330
1F
100
AcDbEntity
  8
Object
100
AcDbLine
 10
3.707
 20
5.516322686980123
 30
0.0
 11
3.707
 21
5.518322686980123
 31
0.0
  0
LINE
  5
38D
330
1F
100
AcDbEntity
  8
Object
100
AcDbLine
 10
3.676
 20
5.516322686980123
 30
0.0
 11
3.678
 21
5.516322686980123
 31
0.0
  0
LINE
  5
38E
330
1F
100
AcDbEntity
  8
Object
100
AcDbLine
 10
3.678
 20
5.516322686980123
 30
0.0
 11
3.678
 21
5.517322686980123
 31
0.0
  0
LINE
  5
38F
330
1F
100
AcDbEntity
  8
Object
100
AcDbLine
 10
3.676
 20
5.516322686980123
 30
0.0
 11
3.673999999999999
 21
5.516322686980123
 31
0.0
  0
LINE
  5
390
330
1F
100
AcDbEntity
  8
Object
100
AcDbLine
 10
3.673999999999999
 20
5.516322686980123
 30
0.0
 11
3.672
 21
5.515322686980123
 31
0.0
  0
LINE
  5
391
330
1F
100
AcDbEntity
  8
Object
100
AcDbLine
 10
3.672
 20
5.515322686980123
 30
0.0
 11
3.667999999999999
 21
5.513322686980123
 31
0.0
  0
LINE
  5
392
330
1F
100
AcDbEntity
  8
Object
100
AcDbLine
 10
3.667999999999999
 20
5.513322686980123
 30
0.0
 11
3.664999999999999
 21
5.510322686980123
 31
0.0
  0
LINE
  5
393
330
1F
100
AcDbEntity
  8
Object
100
AcDbLine
 10
3.664999999999999
 20
5.510322686980123
 30
0.0
 11
3.661999999999999
 21
5.507322686980123
 31
0.0
  0
LINE
  5
394
330
1F
100
AcDbEntity
  8
Object
100
AcDbLine
 10
3.678
 20
5.517322686980123
 30
0.0
 11
3.653
 21
8.467322686980123
 31
0.0
  0
LINE
  5
395
330
1F
100
AcDbEntity
  8
Object
100
AcDbLine
 10
3.653
 20
8.467322686980123
 30
0.0
 11
3.652000000000001
 21
8.467322686980123
 31
0.0
  0
LINE
  5
396
330
1F
100
AcDbEntity
  8
Object
100
AcDbLine
 10
3.652000000000001
 20
8.467322686980123
 30
0.0
 11
3.650999999999999
 21
8.467322686980123
 31
0.0
  0
LINE
  5
397
330
1F
100
AcDbEntity
  8
Object
100
AcDbLine
 10
3.650999999999999
 20
8.467322686980123
 30
0.0
 11
3.649
 21
8.467322686980123
 31
0.0
  0
LINE
  5
398
330
1F
100
AcDbEntity
  8
Object
100
AcDbLine
 10
3.649
 20
8.467322686980123
 30
0.0
 11
3.647
 21
8.467322686980123
 31
0.0
  0
LINE
  5
399
330
1F
100
AcDbEntity
  8
Object
100
AcDbLine
 10
3.647
 20
8.467322686980123
 30
0.0
 11
3.644
 21
8.467322686980123
 31
0.0
  0
LINE
  5
39A
330
1F
100
AcDbEntity
  8
Object
100
AcDbLine
 10
3.644
 20
8.467322686980123
 30
0.0
 11
3.641
 21
8.467322686980123
 31
0.0
  0
LINE
  5
39B
330
1F
100
AcDbEntity
  8
Object
100
AcDbLine
 10
3.641
 20
8.467322686980123
 30
0.0
 11
3.637999999999999
 21
8.467322686980123
 31
0.0
  0
LINE
  5
39C
330
1F
100
AcDbEntity
  8
Object
100
AcDbLine
 10
3.637999999999999
 20
8.467322686980123
 30
0.0
 11
3.635999999999999
 21
8.467322686980123
 31
0.0
  0
LINE
  5
39D
330
1F
100
AcDbEntity
  8
Object
100
AcDbLine
 10
3.678
 20
5.595322686980123
 30
0.0
 11
3.678
 21
5.575322686980124
 31
0.0
  0
LINE
  5
39E
330
1F
100
AcDbEntity
  8
Object
100
AcDbLine
 10
3.678
 20
5.575322686980124
 30
0.0
 11
3.678
 21
5.557322686980123
 31
0.0
  0
LINE
  5
39F
330
1F
100
AcDbEntity
  8
Object
100
AcDbLine
 10
3.678
 20
5.557322686980123
 30
0.0
 11
3.678
 21
5.541322686980123
 31
0.0
  0
LINE
  5
3A0
330
1F
100
AcDbEntity
  8
Object
100
AcDbLine
 10
3.678
 20
5.541322686980123
 30
0.0
 11
3.678
 21
5.529322686980123
 31
0.0
  0
LINE
  5
3A1
330
1F
100
AcDbEntity
  8
Object
100
AcDbLine
 10
3.678
 20
5.529322686980123
 30
0.0
 11
3.678
 21
5.517322686980123
 31
0.0
  0
LINE
  5
3A2
330
1F
100
AcDbEntity
  8
Object
100
AcDbLine
 10
3.676999999999999
 20
5.636322686980124
 30
0.0
 11
3.678
 21
5.595322686980123
 31
0.0
  0
LINE
  5
3A3
330
1F
100
AcDbEntity
  8
Object
100
AcDbLine
 10
3.678
 20
5.517322686980123
 30
0.0
 11
3.653
 21
8.467322686980123
 31
0.0
  0
LINE
  5
3A4
330
1F
100
AcDbEntity
  8
Object
100
AcDbLine
 10
3.653
 20
8.467322686980123
 30
0.0
 11
3.676999999999999
 21
5.636322686980124
 31
0.0
  0
LINE
  5
3A5
330
1F
100
AcDbEntity
  8
Object
100
AcDbLine
 10
4.306
 20
8.467322686980123
 30
0.0
 11
4.306
 21
5.076322686980123
 31
0.0
  0
LINE
  5
3A6
330
1F
100
AcDbEntity
  8
Object
100
AcDbLine
 10
3.472999999999998
 20
8.467322686980123
 30
0.0
 11
3.58
 21
8.467322686980123
 31
0.0
  0
LINE
  5
3A7
330
1F
100
AcDbEntity
  8
Object
100
AcDbLine
 10
3.58
 20
8.467322686980123
 30
0.0
 11
3.538
 21
4.889322686980124
 31
0.0
  0
LINE
  5
3A8
330
1F
100
AcDbEntity
  8
Object
100
AcDbLine
 10
3.538
 20
4.889322686980124
 30
0.0
 11
3.432999999999999
 21
4.889322686980124
 31
0.0
  0
LINE
  5
3A9
330
1F
100
AcDbEntity
  8
Object
100
AcDbLine
 10
3.432999999999999
 20
4.889322686980124
 30
0.0
 11
3.472999999999998
 21
8.467322686980123
 31
0.0
  0
LINE
  5
3AA
330
1F
100
AcDbEntity
  8
Object
100
AcDbLine
 10
5.407
 20
6.098322686980123
 30
0.0
 11
5.405000000000001
 21
6.095322686980123
 31
0.0
  0
LINE
  5
3AB
330
1F
100
AcDbEntity
  8
Object
100
AcDbLine
 10
5.405000000000001
 20
6.095322686980123
 30
0.0
 11
5.4
 21
6.089322686980123
 31
0.0
  0
LINE
  5
3AC
330
1F
100
AcDbEntity
  8
Object
100
AcDbLine
 10
5.407
 20
6.098322686980123
 30
0.0
 11
5.385999999999999
 21
8.467322686980123
 31
0.0
  0
LINE
  5
3AD
330
1F
100
AcDbEntity
  8
Object
100
AcDbLine
 10
5.385999999999999
 20
8.467322686980123
 30
0.0
 11
5.374
 21
8.467322686980123
 31
0.0
  0
LINE
  5
3AE
330
1F
100
AcDbEntity
  8
Object
100
AcDbLine
 10
5.4
 20
6.089322686980123
 30
0.0
 11
5.391
 21
6.079322686980123
 31
0.0
  0
LINE
  5
3AF
330
1F
100
AcDbEntity
  8
Object
100
AcDbLine
 10
5.391
 20
6.079322686980123
 30
0.0
 11
5.379000000000001
 21
6.065322686980123
 31
0.0
  0
LINE
  5
3B0
330
1F
100
AcDbEntity
  8
Object
100
AcDbLine
 10
5.379000000000001
 20
6.065322686980123
 30
0.0
 11
5.362999999999999
 21
6.048322686980124
 31
0.0
  0
LINE
  5
3B1
330
1F
100
AcDbEntity
  8
Object
100
AcDbLine
 10
5.374
 20
8.467322686980123
 30
0.0
 11
5.347000000000001
 21
8.467322686980123
 31
0.0
  0
LINE
  5
3B2
330
1F
100
AcDbEntity
  8
Object
100
AcDbLine
 10
5.344999999999998
 20
6.027322686980123
 30
0.0
 11
5.362999999999999
 21
6.048322686980124
 31
0.0
  0
LINE
  5
3B3
330
1F
100
AcDbEntity
  8
Object
100
AcDbLine
 10
5.347000000000001
 20
8.467322686980123
 30
0.0
 11
5.306
 21
8.467322686980123
 31
0.0
  0
LINE
  5
3B4
330
1F
100
AcDbEntity
  8
Object
100
AcDbLine
 10
5.344999999999998
 20
6.027322686980123
 30
0.0
 11
5.323999999999999
 21
6.003322686980123
 31
0.0
  0
LINE
  5
3B5
330
1F
100
AcDbEntity
  8
Object
100
AcDbLine
 10
5.323999999999999
 20
6.003322686980123
 30
0.0
 11
5.301
 21
5.976322686980124
 31
0.0
  0
LINE
  5
3B6
330
1F
100
AcDbEntity
  8
Object
100
AcDbLine
 10
5.306
 20
8.467322686980123
 30
0.0
 11
5.251000000000001
 21
8.467322686980123
 31
0.0
  0
LINE
  5
3B7
330
1F
100
AcDbEntity
  8
Object
100
AcDbLine
 10
5.248999999999998
 20
5.916322686980123
 30
0.0
 11
5.301
 21
5.976322686980124
 31
0.0
  0
LINE
  5
3B8
330
1F
100
AcDbEntity
  8
Object
100
AcDbLine
 10
5.251000000000001
 20
8.467322686980123
 30
0.0
 11
5.182999999999999
 21
8.467322686980123
 31
0.0
  0
LINE
  5
3B9
330
1F
100
AcDbEntity
  8
Object
100
AcDbLine
 10
5.248999999999998
 20
5.916322686980123
 30
0.0
 11
5.190000000000001
 21
5.847322686980123
 31
0.0
  0
LINE
  5
3BA
330
1F
100
AcDbEntity
  8
Object
100
AcDbLine
 10
5.190000000000001
 20
5.847322686980123
 30
0.0
 11
5.126000000000001
 21
5.772322686980123
 31
0.0
  0
LINE
  5
3BB
330
1F
100
AcDbEntity
  8
Object
100
AcDbLine
 10
5.182999999999999
 20
8.467322686980123
 30
0.0
 11
5.102
 21
8.467322686980123
 31
0.0
  0
LINE
  5
3BC
330
1F
100
AcDbEntity
  8
Object
100
AcDbLine
 10
5.057999999999999
 20
5.692322686980123
 30
0.0
 11
5.126000000000001
 21
5.772322686980123
 31
0.0
  0
LINE
  5
3BD
330
1F
100
AcDbEntity
  8
Object
100
AcDbLine
 10
5.102
 20
8.467322686980123
 30
0.0
 11
5.009999999999999
 21
8.467322686980123
 31
0.0
  0
LINE
  5
3BE
330
1F
100
AcDbEntity
  8
Object
100
AcDbLine
 10
5.057999999999999
 20
5.692322686980123
 30
0.0
 11
4.987999999999999
 21
5.608322686980123
 31
0.0
  0
LINE
  5
3BF
330
1F
100
AcDbEntity
  8
Object
100
AcDbLine
 10
4.987999999999999
 20
5.608322686980123
 30
0.0
 11
4.914999999999999
 21
5.519322686980123
 31
0.0
  0
LINE
  5
3C0
330
1F
100
AcDbEntity
  8
Object
100
AcDbLine
 10
5.009999999999999
 20
8.467322686980123
 30
0.0
 11
4.908999999999998
 21
8.467322686980123
 31
0.0
  0
LINE
  5
3C1
330
1F
100
AcDbEntity
  8
Object
100
AcDbLine
 10
4.839999999999999
 20
5.427322686980123
 30
0.0
 11
4.914999999999999
 21
5.519322686980123
 31
0.0
  0
LINE
  5
3C2
330
1F
100
AcDbEntity
  8
Object
100
AcDbLine
 10
4.908999999999998
 20
8.467322686980123
 30
0.0
 11
4.798
 21
8.467322686980123
 31
0.0
  0
LINE
  5
3C3
330
1F
100
AcDbEntity
  8
Object
100
AcDbLine
 10
4.839999999999999
 20
5.427322686980123
 30
0.0
 11
4.766999999999999
 21
5.332322686980123
 31
0.0
  0
LINE
  5
3C4
330
1F
100
AcDbEntity
  8
Object
100
AcDbLine
 10
4.766999999999999
 20
5.332322686980123
 30
0.0
 11
4.695
 21
5.233322686980123
 31
0.0
  0
LINE
  5
3C5
330
1F
100
AcDbEntity
  8
Object
100
AcDbLine
 10
4.798
 20
8.467322686980123
 30
0.0
 11
4.682
 21
8.467322686980123
 31
0.0
  0
LINE
  5
3C6
330
1F
100
AcDbEntity
  8
Object
100
AcDbLine
 10
4.628
 20
5.129322686980123
 30
0.0
 11
4.695
 21
5.233322686980123
 31
0.0
  0
LINE
  5
3C7
330
1F
100
AcDbEntity
  8
Object
100
AcDbLine
 10
4.682
 20
8.467322686980123
 30
0.0
 11
4.559000000000001
 21
8.467322686980123
 31
0.0
  0
LINE
  5
3C8
330
1F
100
AcDbEntity
  8
Object
100
AcDbLine
 10
4.628
 20
5.129322686980123
 30
0.0
 11
4.599
 21
5.073322686980123
 31
0.0
  0
LINE
  5
3C9
330
1F
100
AcDbEntity
  8
Object
100
AcDbLine
 10
4.599
 20
5.073322686980123
 30
0.0
 11
4.574999999999999
 21
5.014322686980124
 31
0.0
  0
LINE
  5
3CA
330
1F
100
AcDbEntity
  8
Object
100
AcDbLine
 10
4.574999999999999
 20
5.014322686980124
 30
0.0
 11
4.557999999999999
 21
4.952322686980123
 31
0.0
  0
LINE
  5
3CB
330
1F
100
AcDbEntity
  8
Object
100
AcDbLine
 10
4.557999999999999
 20
4.952322686980123
 30
0.0
 11
4.554
 21
4.889322686980124
 31
0.0
  0
LINE
  5
3CC
330
1F
100
AcDbEntity
  8
Object
100
AcDbLine
 10
4.554
 20
4.889322686980124
 30
0.0
 11
4.533999999999998
 21
4.889322686980124
 31
0.0
  0
LINE
  5
3CD
330
1F
100
AcDbEntity
  8
Object
100
AcDbLine
 10
4.533999999999998
 20
4.889322686980124
 30
0.0
 11
4.513999999999999
 21
4.889322686980124
 31
0.0
  0
LINE
  5
3CE
330
1F
100
AcDbEntity
  8
Object
100
AcDbLine
 10
4.513999999999999
 20
4.889322686980124
 30
0.0
 11
4.493999999999999
 21
4.889322686980124
 31
0.0
  0
LINE
  5
3CF
330
1F
100
AcDbEntity
  8
Object
100
AcDbLine
 10
4.493999999999999
 20
4.889322686980124
 30
0.0
 11
4.458
 21
4.892322686980123
 31
0.0
  0
LINE
  5
3D0
330
1F
100
AcDbEntity
  8
Object
100
AcDbLine
 10
4.559000000000001
 20
8.467322686980123
 30
0.0
 11
4.434000000000001
 21
8.467322686980123
 31
0.0
  0
LINE
  5
3D1
330
1F
100
AcDbEntity
  8
Object
100
AcDbLine
 10
4.458
 20
4.892322686980123
 30
0.0
 11
4.422
 21
4.903322686980123
 31
0.0
  0
LINE
  5
3D2
330
1F
100
AcDbEntity
  8
Object
100
AcDbLine
 10
4.422
 20
4.903322686980123
 30
0.0
 11
4.39
 21
4.920322686980123
 31
0.0
  0
LINE
  5
3D3
330
1F
100
AcDbEntity
  8
Object
100
AcDbLine
 10
4.39
 20
4.920322686980123
 30
0.0
 11
4.361
 21
4.943322686980123
 31
0.0
  0
LINE
  5
3D4
330
1F
100
AcDbEntity
  8
Object
100
AcDbLine
 10
4.361
 20
4.943322686980123
 30
0.0
 11
4.338
 21
4.972322686980123
 31
0.0
  0
LINE
  5
3D5
330
1F
100
AcDbEntity
  8
Object
100
AcDbLine
 10
4.338
 20
4.972322686980123
 30
0.0
 11
4.320999999999999
 21
5.004322686980123
 31
0.0
  0
LINE
  5
3D6
330
1F
100
AcDbEntity
  8
Object
100
AcDbLine
 10
4.320999999999999
 20
5.004322686980123
 30
0.0
 11
4.31
 21
5.039322686980123
 31
0.0
  0
LINE
  5
3D7
330
1F
100
AcDbEntity
  8
Object
100
AcDbLine
 10
4.31
 20
5.039322686980123
 30
0.0
 11
4.306
 21
5.076322686980123
 31
0.0
  0
LINE
  5
3D8
330
1F
100
AcDbEntity
  8
Object
100
AcDbLine
 10
4.306
 20
5.076322686980123
 30
0.0
 11
4.306
 21
8.467322686980123
 31
0.0
  0
LINE
  5
3D9
330
1F
100
AcDbEntity
  8
Object
100
AcDbLine
 10
4.306
 20
8.467322686980123
 30
0.0
 11
4.434000000000001
 21
8.467322686980123
 31
0.0
  0
LINE
  5
3DA
330
1F
100
AcDbEntity
  8
Object
100
AcDbLine
 10
3.711
 20
5.506322686980123
 30
0.0
 11
3.708
 21
5.510322686980123
 31
0.0
  0
LINE
  5
3DB
330
1F
100
AcDbEntity
  8
Object
100
AcDbLine
 10
3.707
 20
5.516322686980123
 30
0.0
 11
3.707
 21
5.514322686980124
 31
0.0
  0
LINE
  5
3DC
330
1F
100
AcDbEntity
  8
Object
100
AcDbLine
 10
3.707
 20
5.514322686980124
 30
0.0
 11
3.708
 21
5.510322686980123
 31
0.0
  0
LINE
  5
3DD
330
1F
100
AcDbEntity
  8
Object
100
AcDbLine
 10
4.493999999999999
 20
4.889322686980124
 30
0.0
 11
4.458
 21
4.892322686980123
 31
0.0
  0
LINE
  5
3DE
330
1F
100
AcDbEntity
  8
Object
100
AcDbLine
 10
4.458
 20
4.892322686980123
 30
0.0
 11
4.457
 21
4.892322686980123
 31
0.0
  0
LINE
  5
3DF
330
1F
100
AcDbEntity
  8
Object
100
AcDbLine
 10
4.457
 20
4.892322686980123
 30
0.0
 11
4.493999999999999
 21
4.889322686980124
 31
0.0
  0
LINE
  5
3E0
330
1F
100
AcDbEntity
  8
Object
100
AcDbLine
 10
4.458
 20
4.892322686980123
 30
0.0
 11
4.457
 21
4.892322686980123
 31
0.0
  0
LINE
  5
3E1
330
1F
100
AcDbEntity
  8
Object
100
AcDbLine
 10
4.422
 20
4.902322686980124
 30
0.0
 11
4.422
 21
4.903322686980123
 31
0.0
  0
LINE
  5
3E2
330
1F
100
AcDbEntity
  8
Object
100
AcDbLine
 10
4.422
 20
4.903322686980123
 30
0.0
 11
4.457
 21
4.892322686980123
 31
0.0
  0
LINE
  5
3E3
330
1F
100
AcDbEntity
  8
Object
100
AcDbLine
 10
4.458
 20
4.892322686980123
 30
0.0
 11
4.422
 21
4.903322686980123
 31
0.0
  0
LINE
  5
3E4
330
1F
100
AcDbEntity
  8
Object
100
AcDbLine
 10
4.422
 20
4.903322686980123
 30
0.0
 11
4.457
 21
4.892322686980123
 31
0.0
  0
LINE
  5
3E5
330
1F
100
AcDbEntity
  8
Object
100
AcDbLine
 10
4.422
 20
4.902322686980124
 30
0.0
 11
4.422
 21
4.903322686980123
 31
0.0
  0
LINE
  5
3E6
330
1F
100
AcDbEntity
  8
Object
100
AcDbLine
 10
4.422
 20
4.903322686980123
 30
0.0
 11
4.457
 21
4.892322686980123
 31
0.0
  0
LINE
  5
3E7
330
1F
100
AcDbEntity
  8
Object
100
AcDbLine
 10
4.39
 20
4.919322686980123
 30
0.0
 11
4.39
 21
4.920322686980123
 31
0.0
  0
LINE
  5
3E8
330
1F
100
AcDbEntity
  8
Object
100
AcDbLine
 10
4.39
 20
4.920322686980123
 30
0.0
 11
4.422
 21
4.903322686980123
 31
0.0
  0
LINE
  5
3E9
330
1F
100
AcDbEntity
  8
Object
100
AcDbLine
 10
4.39
 20
4.919322686980123
 30
0.0
 11
4.39
 21
4.920322686980123
 31
0.0
  0
LINE
  5
3EA
330
1F
100
AcDbEntity
  8
Object
100
AcDbLine
 10
4.39
 20
4.920322686980123
 30
0.0
 11
4.361
 21
4.943322686980123
 31
0.0
  0
LINE
  5
3EB
330
1F
100
AcDbEntity
  8
Object
100
AcDbLine
 10
4.338
 20
4.971322686980123
 30
0.0
 11
4.338
 21
4.972322686980123
 31
0.0
  0
LINE
  5
3EC
330
1F
100
AcDbEntity
  8
Object
100
AcDbLine
 10
4.338
 20
4.972322686980123
 30
0.0
 11
4.361
 21
4.943322686980123
 31
0.0
  0
LINE
  5
3ED
330
1F
100
AcDbEntity
  8
Object
100
AcDbLine
 10
4.338
 20
4.972322686980123
 30
0.0
 11
4.338
 21
4.971322686980123
 31
0.0
  0
LINE
  5
3EE
330
1F
100
AcDbEntity
  8
Object
100
AcDbLine
 10
4.320999999999999
 20
5.005322686980123
 30
0.0
 11
4.320999999999999
 21
5.004322686980123
 31
0.0
  0
LINE
  5
3EF
330
1F
100
AcDbEntity
  8
Object
100
AcDbLine
 10
4.320999999999999
 20
5.004322686980123
 30
0.0
 11
4.338
 21
4.972322686980123
 31
0.0
  0
LINE
  5
3F0
330
1F
100
AcDbEntity
  8
Object
100
AcDbLine
 10
4.317
 20
5.004322686980123
 30
0.0
 11
4.326
 21
5.004322686980123
 31
0.0
  0
LINE
  5
3F1
330
1F
100
AcDbEntity
  8
Object
100
AcDbLine
 10
4.31
 20
5.039322686980123
 30
0.0
 11
4.320999999999999
 21
5.004322686980123
 31
0.0
  0
LINE
  5
3F2
330
1F
100
AcDbEntity
  8
Object
100
AcDbLine
 10
4.31
 20
5.040322686980124
 30
0.0
 11
4.31
 21
5.039322686980123
 31
0.0
  0
LINE
  5
3F3
330
1F
100
AcDbEntity
  8
Object
100
AcDbLine
 10
4.31
 20
5.039322686980123
 30
0.0
 11
4.306
 21
5.076322686980123
 31
0.0
  0
LINE
  5
3F4
330
1F
100
AcDbEntity
  8
Object
100
AcDbLine
 10
7.835
 20
4.889322686980124
 30
0.0
 11
7.814
 21
4.889322686980124
 31
0.0
  0
LINE
  5
3F5
330
1F
100
AcDbEntity
  8
Object
100
AcDbLine
 10
7.814
 20
4.889322686980124
 30
0.0
 11
7.794
 21
4.889322686980124
 31
0.0
  0
LINE
  5
3F6
330
1F
100
AcDbEntity
  8
Object
100
AcDbLine
 10
7.794
 20
4.889322686980124
 30
0.0
 11
7.774
 21
4.889322686980124
 31
0.0
  0
LINE
  5
3F7
330
1F
100
AcDbEntity
  8
Object
100
AcDbLine
 10
7.774
 20
4.889322686980124
 30
0.0
 11
7.745
 21
4.889322686980124
 31
0.0
  0
LINE
  5
3F8
330
1F
100
AcDbEntity
  8
Object
100
AcDbLine
 10
7.745
 20
4.889322686980124
 30
0.0
 11
4.583
 21
4.889322686980124
 31
0.0
  0
LINE
  5
3F9
330
1F
100
AcDbEntity
  8
Object
100
AcDbLine
 10
4.583
 20
4.889322686980124
 30
0.0
 11
4.554
 21
4.889322686980124
 31
0.0
  0
LINE
  5
3FA
330
1F
100
AcDbEntity
  8
Object
100
AcDbLine
 10
4.554
 20
4.889322686980124
 30
0.0
 11
4.533999999999998
 21
4.889322686980124
 31
0.0
  0
LINE
  5
3FB
330
1F
100
AcDbEntity
  8
Object
100
AcDbLine
 10
4.533999999999998
 20
4.889322686980124
 30
0.0
 11
4.513999999999999
 21
4.889322686980124
 31
0.0
  0
LINE
  5
3FC
330
1F
100
AcDbEntity
  8
Object
100
AcDbLine
 10
4.513999999999999
 20
4.889322686980124
 30
0.0
 11
4.493999999999999
 21
4.889322686980124
 31
0.0
  0
LINE
  5
3FD
330
1F
100
AcDbEntity
  8
Object
100
AcDbLine
 10
8.894999999999999
 20
4.889322686980124
 30
0.0
 11
8.791
 21
4.889322686980124
 31
0.0
  0
LINE
  5
3FE
330
1F
100
AcDbEntity
  8
Object
100
AcDbLine
 10
8.791
 20
4.889322686980124
 30
0.0
 11
8.702999999999999
 21
4.889322686980124
 31
0.0
  0
LINE
  5
3FF
330
1F
100
AcDbEntity
  8
Object
100
AcDbLine
 10
8.702999999999999
 20
4.889322686980124
 30
0.0
 11
8.605
 21
4.889322686980124
 31
0.0
  0
LINE
  5
400
330
1F
100
AcDbEntity
  8
Object
100
AcDbLine
 10
8.605
 20
4.889322686980124
 30
0.0
 11
8.499
 21
4.889322686980124
 31
0.0
  0
LINE
  5
401
330
1F
100
AcDbEntity
  8
Object
100
AcDbLine
 10
8.499
 20
4.889322686980124
 30
0.0
 11
8.386000000000001
 21
4.889322686980124
 31
0.0
  0
LINE
  5
402
330
1F
100
AcDbEntity
  8
Object
100
AcDbLine
 10
8.386000000000001
 20
4.889322686980124
 30
0.0
 11
8.268
 21
4.889322686980124
 31
0.0
  0
LINE
  5
403
330
1F
100
AcDbEntity
  8
Object
100
AcDbLine
 10
8.268
 20
4.889322686980124
 30
0.0
 11
8.146
 21
4.889322686980124
 31
0.0
  0
LINE
  5
404
330
1F
100
AcDbEntity
  8
Object
100
AcDbLine
 10
8.146
 20
4.889322686980124
 30
0.0
 11
8.022
 21
4.889322686980124
 31
0.0
  0
LINE
  5
405
330
1F
100
AcDbEntity
  8
Object
100
AcDbLine
 10
8.022
 20
4.889322686980124
 30
0.0
 11
7.942
 21
4.889322686980124
 31
0.0
  0
LINE
  5
406
330
1F
100
AcDbEntity
  8
Object
100
AcDbLine
 10
7.942
 20
4.889322686980124
 30
0.0
 11
7.862999999999999
 21
4.889322686980124
 31
0.0
  0
LINE
  5
407
330
1F
100
AcDbEntity
  8
Object
100
AcDbLine
 10
7.862999999999999
 20
4.889322686980124
 30
0.0
 11
7.835
 21
4.889322686980124
 31
0.0
  0
LINE
  5
408
330
1F
100
AcDbEntity
  8
Object
100
AcDbLine
 10
4.493999999999999
 20
4.889322686980124
 30
0.0
 11
4.464999999999999
 21
4.889322686980124
 31
0.0
  0
LINE
  5
409
330
1F
100
AcDbEntity
  8
Object
100
AcDbLine
 10
4.464999999999999
 20
4.889322686980124
 30
0.0
 11
4.385999999999999
 21
4.889322686980124
 31
0.0
  0
LINE
  5
40A
330
1F
100
AcDbEntity
  8
Object
100
AcDbLine
 10
4.385999999999999
 20
4.889322686980124
 30
0.0
 11
4.306
 21
4.889322686980124
 31
0.0
  0
LINE
  5
40B
330
1F
100
AcDbEntity
  8
Object
100
AcDbLine
 10
4.306
 20
4.889322686980124
 30
0.0
 11
4.182999999999999
 21
4.889322686980124
 31
0.0
  0
LINE
  5
40C
330
1F
100
AcDbEntity
  8
Object
100
AcDbLine
 10
4.182999999999999
 20
4.889322686980124
 30
0.0
 11
4.060999999999999
 21
4.889322686980124
 31
0.0
  0
LINE
  5
40D
330
1F
100
AcDbEntity
  8
Object
100
AcDbLine
 10
4.060999999999999
 20
4.889322686980124
 30
0.0
 11
3.942999999999999
 21
4.889322686980124
 31
0.0
  0
LINE
  5
40E
330
1F
100
AcDbEntity
  8
Object
100
AcDbLine
 10
3.942999999999999
 20
4.889322686980124
 30
0.0
 11
3.829
 21
4.889322686980124
 31
0.0
  0
LINE
  5
40F
330
1F
100
AcDbEntity
  8
Object
100
AcDbLine
 10
3.829
 20
4.889322686980124
 30
0.0
 11
3.722999999999998
 21
4.889322686980124
 31
0.0
  0
LINE
  5
410
330
1F
100
AcDbEntity
  8
Object
100
AcDbLine
 10
3.722999999999998
 20
4.889322686980124
 30
0.0
 11
3.625999999999999
 21
4.889322686980124
 31
0.0
  0
LINE
  5
411
330
1F
100
AcDbEntity
  8
Object
100
AcDbLine
 10
3.625999999999999
 20
4.889322686980124
 30
0.0
 11
3.538
 21
4.889322686980124
 31
0.0
  0
LINE
  5
412
102
{ACAD_REACTORS
330
7BF
102
}
330
1F
100
AcDbEntity
  8
Object
100
AcDbLine
 10
3.538
 20
4.889322686980124
 30
0.0
 11
3.432999999999999
 21
4.889322686980124
 31
0.0
  0
LINE
  5
413
330
1F
100
AcDbEntity
  8
Object
100
AcDbLine
 10
3.707
 20
5.516322686980123
 30
0.0
 11
3.707
 21
5.518322686980123
 31
0.0
  0
LINE
  5
414
330
1F
100
AcDbEntity
  8
Object
100
AcDbLine
 10
3.707
 20
5.524322686980124
 30
0.0
 11
3.707
 21
5.535322686980123
 31
0.0
  0
LINE
  5
415
330
1F
100
AcDbEntity
  8
Object
100
AcDbLine
 10
3.678
 20
5.541322686980123
 30
0.0
 11
3.678
 21
5.529322686980123
 31
0.0
  0
LINE
  5
416
330
1F
100
AcDbEntity
  8
Object
100
AcDbLine
 10
3.707
 20
5.551322686980123
 30
0.0
 11
3.707
 21
5.570322686980123
 31
0.0
  0
LINE
  5
417
330
1F
100
AcDbEntity
  8
Object
100
AcDbLine
 10
3.678
 20
5.575322686980124
 30
0.0
 11
3.678
 21
5.557322686980123
 31
0.0
  0
LINE
  5
418
330
1F
100
AcDbEntity
  8
Object
100
AcDbLine
 10
3.708
 20
5.591322686980124
 30
0.0
 11
3.708
 21
5.614322686980123
 31
0.0
  0
LINE
  5
419
330
1F
100
AcDbEntity
  8
Object
100
AcDbLine
 10
3.678
 20
5.595322686980123
 30
0.0
 11
3.678
 21
5.575322686980124
 31
0.0
  0
LINE
  5
41A
330
1F
100
AcDbEntity
  8
Object
100
AcDbLine
 10
3.707
 20
5.570322686980123
 30
0.0
 11
3.708
 21
5.591322686980124
 31
0.0
  0
LINE
  5
41B
330
1F
100
AcDbEntity
  8
Object
100
AcDbLine
 10
3.678
 20
5.557322686980123
 30
0.0
 11
3.678
 21
5.541322686980123
 31
0.0
  0
LINE
  5
41C
330
1F
100
AcDbEntity
  8
Object
100
AcDbLine
 10
3.707
 20
5.535322686980123
 30
0.0
 11
3.707
 21
5.551322686980123
 31
0.0
  0
LINE
  5
41D
330
1F
100
AcDbEntity
  8
Object
100
AcDbLine
 10
3.678
 20
5.529322686980123
 30
0.0
 11
3.678
 21
5.517322686980123
 31
0.0
  0
LINE
  5
41E
330
1F
100
AcDbEntity
  8
Object
100
AcDbLine
 10
3.707
 20
5.518322686980123
 30
0.0
 11
3.707
 21
5.524322686980124
 31
0.0
  0
LINE
  5
41F
330
1F
100
AcDbEntity
  8
Object
100
AcDbLine
 10
3.708
 20
5.614322686980123
 30
0.0
 11
3.708
 21
5.636322686980124
 31
0.0
  0
LINE
  5
420
330
1F
100
AcDbEntity
  8
Object
100
AcDbLine
 10
3.676999999999999
 20
5.636322686980124
 30
0.0
 11
3.678
 21
5.595322686980123
 31
0.0
  0
LINE
  5
421
330
1F
100
AcDbEntity
  8
Object
100
AcDbLine
 10
3.689999999999999
 20
5.516322686980123
 30
0.0
 11
3.687000000000001
 21
5.514322686980124
 31
0.0
  0
LINE
  5
422
330
1F
100
AcDbEntity
  8
Object
100
AcDbLine
 10
3.687000000000001
 20
5.514322686980124
 30
0.0
 11
3.685
 21
5.511322686980124
 31
0.0
  0
LINE
  5
423
330
1F
100
AcDbEntity
  8
Object
100
AcDbLine
 10
3.685
 20
5.511322686980124
 30
0.0
 11
3.684000000000001
 21
5.506322686980123
 31
0.0
  0
LINE
  5
424
330
1F
100
AcDbEntity
  8
Object
100
AcDbLine
 10
5.49
 20
5.977322686980123
 30
0.0
 11
5.536999999999999
 21
5.969322686980123
 31
0.0
  0
LINE
  5
425
330
1F
100
AcDbEntity
  8
Object
100
AcDbLine
 10
5.536999999999999
 20
5.969322686980123
 30
0.0
 11
5.535
 21
5.967322686980123
 31
0.0
  0
LINE
  5
426
330
1F
100
AcDbEntity
  8
Object
100
AcDbLine
 10
5.535
 20
5.967322686980123
 30
0.0
 11
5.528999999999999
 21
5.962322686980123
 31
0.0
  0
LINE
  5
427
330
1F
100
AcDbEntity
  8
Object
100
AcDbLine
 10
5.528999999999999
 20
5.962322686980123
 30
0.0
 11
5.519999999999999
 21
5.953322686980123
 31
0.0
  0
LINE
  5
428
330
1F
100
AcDbEntity
  8
Object
100
AcDbLine
 10
5.519999999999999
 20
5.953322686980123
 30
0.0
 11
5.506
 21
5.941322686980123
 31
0.0
  0
LINE
  5
429
330
1F
100
AcDbEntity
  8
Object
100
AcDbLine
 10
5.506
 20
5.941322686980123
 30
0.0
 11
5.49
 21
5.925322686980123
 31
0.0
  0
LINE
  5
42A
330
1F
100
AcDbEntity
  8
Object
100
AcDbLine
 10
5.49
 20
5.977322686980123
 30
0.0
 11
5.445
 21
6.006322686980123
 31
0.0
  0
LINE
  5
42B
330
1F
100
AcDbEntity
  8
Object
100
AcDbLine
 10
5.49
 20
5.925322686980123
 30
0.0
 11
5.469999999999998
 21
5.907322686980123
 31
0.0
  0
LINE
  5
42C
330
1F
100
AcDbEntity
  8
Object
100
AcDbLine
 10
5.469999999999998
 20
5.907322686980123
 30
0.0
 11
5.446999999999999
 21
5.886322686980124
 31
0.0
  0
LINE
  5
42D
330
1F
100
AcDbEntity
  8
Object
100
AcDbLine
 10
5.445
 20
6.006322686980123
 30
0.0
 11
5.407
 21
6.098322686980123
 31
0.0
  0
LINE
  5
42E
330
1F
100
AcDbEntity
  8
Object
100
AcDbLine
 10
5.446999999999999
 20
5.886322686980124
 30
0.0
 11
5.422
 21
5.863322686980123
 31
0.0
  0
LINE
  5
42F
330
1F
100
AcDbEntity
  8
Object
100
AcDbLine
 10
5.422
 20
5.863322686980123
 30
0.0
 11
5.365
 21
5.810322686980123
 31
0.0
  0
LINE
  5
430
330
1F
100
AcDbEntity
  8
Object
100
AcDbLine
 10
5.365
 20
5.810322686980123
 30
0.0
 11
5.3
 21
5.751322686980123
 31
0.0
  0
LINE
  5
431
330
1F
100
AcDbEntity
  8
Object
100
AcDbLine
 10
5.3
 20
5.751322686980123
 30
0.0
 11
5.23
 21
5.685322686980123
 31
0.0
  0
LINE
  5
432
330
1F
100
AcDbEntity
  8
Object
100
AcDbLine
 10
5.23
 20
5.685322686980123
 30
0.0
 11
5.155000000000001
 21
5.615322686980123
 31
0.0
  0
LINE
  5
433
330
1F
100
AcDbEntity
  8
Object
100
AcDbLine
 10
5.155000000000001
 20
5.615322686980123
 30
0.0
 11
5.077999999999999
 21
5.541322686980123
 31
0.0
  0
LINE
  5
434
330
1F
100
AcDbEntity
  8
Object
100
AcDbLine
 10
5.077999999999999
 20
5.541322686980123
 30
0.0
 11
4.996999999999999
 21
5.464322686980123
 31
0.0
  0
LINE
  5
435
330
1F
100
AcDbEntity
  8
Object
100
AcDbLine
 10
4.996999999999999
 20
5.464322686980123
 30
0.0
 11
4.914999999999999
 21
5.382322686980123
 31
0.0
  0
LINE
  5
436
330
1F
100
AcDbEntity
  8
Object
100
AcDbLine
 10
4.914999999999999
 20
5.382322686980123
 30
0.0
 11
4.833
 21
5.298322686980123
 31
0.0
  0
LINE
  5
437
330
1F
100
AcDbEntity
  8
Object
100
AcDbLine
 10
4.833
 20
5.298322686980123
 30
0.0
 11
4.751000000000001
 21
5.210322686980124
 31
0.0
  0
LINE
  5
438
330
1F
100
AcDbEntity
  8
Object
100
AcDbLine
 10
4.751000000000001
 20
5.210322686980124
 30
0.0
 11
4.673999999999999
 21
5.115322686980123
 31
0.0
  0
LINE
  5
439
330
1F
100
AcDbEntity
  8
Object
100
AcDbLine
 10
4.673999999999999
 20
5.115322686980123
 30
0.0
 11
4.638999999999999
 21
5.064322686980123
 31
0.0
  0
LINE
  5
43A
330
1F
100
AcDbEntity
  8
Object
100
AcDbLine
 10
4.638999999999999
 20
5.064322686980123
 30
0.0
 11
4.609999999999999
 21
5.010322686980123
 31
0.0
  0
LINE
  5
43B
330
1F
100
AcDbEntity
  8
Object
100
AcDbLine
 10
4.609999999999999
 20
5.010322686980123
 30
0.0
 11
4.589
 21
4.951322686980123
 31
0.0
  0
LINE
  5
43C
330
1F
100
AcDbEntity
  8
Object
100
AcDbLine
 10
4.589
 20
4.951322686980123
 30
0.0
 11
4.583999999999999
 21
4.920322686980123
 31
0.0
  0
LINE
  5
43D
330
1F
100
AcDbEntity
  8
Object
100
AcDbLine
 10
4.583999999999999
 20
4.920322686980123
 30
0.0
 11
4.583
 21
4.889322686980124
 31
0.0
  0
LINE
  5
43E
330
1F
100
AcDbEntity
  8
Object
100
AcDbLine
 10
4.583
 20
4.889322686980124
 30
0.0
 11
4.554
 21
4.889322686980124
 31
0.0
  0
LINE
  5
43F
330
1F
100
AcDbEntity
  8
Object
100
AcDbLine
 10
6.792999999999999
 20
5.967322686980123
 30
0.0
 11
6.791
 21
5.969322686980123
 31
0.0
  0
LINE
  5
440
330
1F
100
AcDbEntity
  8
Object
100
AcDbLine
 10
6.791
 20
5.969322686980123
 30
0.0
 11
5.536999999999999
 21
5.969322686980123
 31
0.0
  0
LINE
  5
441
330
1F
100
AcDbEntity
  8
Object
100
AcDbLine
 10
6.792999999999999
 20
5.967322686980123
 30
0.0
 11
6.798999999999999
 21
5.962322686980123
 31
0.0
  0
LINE
  5
442
330
1F
100
AcDbEntity
  8
Object
100
AcDbLine
 10
6.798999999999999
 20
5.962322686980123
 30
0.0
 11
6.809000000000001
 21
5.953322686980123
 31
0.0
  0
LINE
  5
443
330
1F
100
AcDbEntity
  8
Object
100
AcDbLine
 10
6.809000000000001
 20
5.953322686980123
 30
0.0
 11
6.821999999999999
 21
5.941322686980123
 31
0.0
  0
LINE
  5
444
330
1F
100
AcDbEntity
  8
Object
100
AcDbLine
 10
6.821999999999999
 20
5.941322686980123
 30
0.0
 11
6.839
 21
5.925322686980123
 31
0.0
  0
LINE
  5
445
330
1F
100
AcDbEntity
  8
Object
100
AcDbLine
 10
6.839
 20
5.925322686980123
 30
0.0
 11
6.858
 21
5.907322686980123
 31
0.0
  0
LINE
  5
446
330
1F
100
AcDbEntity
  8
Object
100
AcDbLine
 10
6.858
 20
5.907322686980123
 30
0.0
 11
6.881
 21
5.886322686980124
 31
0.0
  0
LINE
  5
447
330
1F
100
AcDbEntity
  8
Object
100
AcDbLine
 10
6.881
 20
5.886322686980124
 30
0.0
 11
6.906
 21
5.863322686980123
 31
0.0
  0
LINE
  5
448
330
1F
100
AcDbEntity
  8
Object
100
AcDbLine
 10
6.906
 20
5.863322686980123
 30
0.0
 11
6.963
 21
5.810322686980123
 31
0.0
  0
LINE
  5
449
330
1F
100
AcDbEntity
  8
Object
100
AcDbLine
 10
6.963
 20
5.810322686980123
 30
0.0
 11
7.028
 21
5.751322686980123
 31
0.0
  0
LINE
  5
44A
330
1F
100
AcDbEntity
  8
Object
100
AcDbLine
 10
7.028
 20
5.751322686980123
 30
0.0
 11
7.099
 21
5.685322686980123
 31
0.0
  0
LINE
  5
44B
330
1F
100
AcDbEntity
  8
Object
100
AcDbLine
 10
7.099
 20
5.685322686980123
 30
0.0
 11
7.173
 21
5.615322686980123
 31
0.0
  0
LINE
  5
44C
330
1F
100
AcDbEntity
  8
Object
100
AcDbLine
 10
7.173
 20
5.615322686980123
 30
0.0
 11
7.251000000000001
 21
5.541322686980123
 31
0.0
  0
LINE
  5
44D
330
1F
100
AcDbEntity
  8
Object
100
AcDbLine
 10
7.251000000000001
 20
5.541322686980123
 30
0.0
 11
7.330999999999999
 21
5.464322686980123
 31
0.0
  0
LINE
  5
44E
330
1F
100
AcDbEntity
  8
Object
100
AcDbLine
 10
7.330999999999999
 20
5.464322686980123
 30
0.0
 11
7.413
 21
5.382322686980123
 31
0.0
  0
LINE
  5
44F
330
1F
100
AcDbEntity
  8
Object
100
AcDbLine
 10
7.413
 20
5.382322686980123
 30
0.0
 11
7.496
 21
5.298322686980123
 31
0.0
  0
LINE
  5
450
330
1F
100
AcDbEntity
  8
Object
100
AcDbLine
 10
7.496
 20
5.298322686980123
 30
0.0
 11
7.576999999999999
 21
5.210322686980124
 31
0.0
  0
LINE
  5
451
330
1F
100
AcDbEntity
  8
Object
100
AcDbLine
 10
7.576999999999999
 20
5.210322686980124
 30
0.0
 11
7.653999999999999
 21
5.115322686980123
 31
0.0
  0
LINE
  5
452
330
1F
100
AcDbEntity
  8
Object
100
AcDbLine
 10
7.653999999999999
 20
5.115322686980123
 30
0.0
 11
7.689
 21
5.064322686980123
 31
0.0
  0
LINE
  5
453
330
1F
100
AcDbEntity
  8
Object
100
AcDbLine
 10
7.689
 20
5.064322686980123
 30
0.0
 11
7.719000000000001
 21
5.010322686980123
 31
0.0
  0
LINE
  5
454
330
1F
100
AcDbEntity
  8
Object
100
AcDbLine
 10
7.719000000000001
 20
5.010322686980123
 30
0.0
 11
7.739
 21
4.951322686980123
 31
0.0
  0
LINE
  5
455
330
1F
100
AcDbEntity
  8
Object
100
AcDbLine
 10
7.739
 20
4.951322686980123
 30
0.0
 11
7.745
 21
4.920322686980123
 31
0.0
  0
LINE
  5
456
330
1F
100
AcDbEntity
  8
Object
100
AcDbLine
 10
7.745
 20
4.920322686980123
 30
0.0
 11
7.745
 21
4.889322686980124
 31
0.0
  0
LINE
  5
457
330
1F
100
AcDbEntity
  8
Object
100
AcDbLine
 10
7.745
 20
4.889322686980124
 30
0.0
 11
4.583
 21
4.889322686980124
 31
0.0
  0
LINE
  5
458
330
1F
100
AcDbEntity
  8
Object
100
AcDbLine
 10
8.022
 20
5.076322686980123
 30
0.0
 11
8.019
 21
5.039322686980123
 31
0.0
  0
LINE
  5
459
330
1F
100
AcDbEntity
  8
Object
100
AcDbLine
 10
8.019
 20
5.039322686980123
 30
0.0
 11
8.022
 21
5.076322686980123
 31
0.0
  0
LINE
  5
45A
330
1F
100
AcDbEntity
  8
Object
100
AcDbLine
 10
8.022
 20
5.076322686980123
 30
0.0
 11
8.019
 21
5.039322686980123
 31
0.0
  0
LINE
  5
45B
330
1F
100
AcDbEntity
  8
Object
100
AcDbLine
 10
8.019
 20
5.039322686980123
 30
0.0
 11
8.018
 21
5.039322686980123
 31
0.0
  0
LINE
  5
45C
330
1F
100
AcDbEntity
  8
Object
100
AcDbLine
 10
8.018
 20
5.039322686980123
 30
0.0
 11
8.022
 21
5.076322686980123
 31
0.0
  0
LINE
  5
45D
330
1F
100
AcDbEntity
  8
Object
100
AcDbLine
 10
8.018
 20
5.039322686980123
 30
0.0
 11
8.019
 21
5.039322686980123
 31
0.0
  0
LINE
  5
45E
330
1F
100
AcDbEntity
  8
Object
100
AcDbLine
 10
8.019
 20
5.039322686980123
 30
0.0
 11
8.008
 21
5.004322686980123
 31
0.0
  0
LINE
  5
45F
330
1F
100
AcDbEntity
  8
Object
100
AcDbLine
 10
8.008
 20
5.004322686980123
 30
0.0
 11
8.018
 21
5.039322686980123
 31
0.0
  0
LINE
  5
460
330
1F
100
AcDbEntity
  8
Object
100
AcDbLine
 10
8.008
 20
5.005322686980123
 30
0.0
 11
8.008
 21
5.004322686980123
 31
0.0
  0
LINE
  5
461
330
1F
100
AcDbEntity
  8
Object
100
AcDbLine
 10
7.99
 20
4.971322686980123
 30
0.0
 11
7.99
 21
4.972322686980123
 31
0.0
  0
LINE
  5
462
330
1F
100
AcDbEntity
  8
Object
100
AcDbLine
 10
7.99
 20
4.972322686980123
 30
0.0
 11
8.008
 21
5.004322686980123
 31
0.0
  0
LINE
  5
463
330
1F
100
AcDbEntity
  8
Object
100
AcDbLine
 10
7.99
 20
4.971322686980123
 30
0.0
 11
7.99
 21
4.972322686980123
 31
0.0
  0
LINE
  5
464
330
1F
100
AcDbEntity
  8
Object
100
AcDbLine
 10
7.99
 20
4.972322686980123
 30
0.0
 11
7.967
 21
4.943322686980123
 31
0.0
  0
LINE
  5
465
330
1F
100
AcDbEntity
  8
Object
100
AcDbLine
 10
7.937999999999998
 20
4.919322686980123
 30
0.0
 11
7.937999999999998
 21
4.920322686980123
 31
0.0
  0
LINE
  5
466
330
1F
100
AcDbEntity
  8
Object
100
AcDbLine
 10
7.937999999999998
 20
4.920322686980123
 30
0.0
 11
7.967
 21
4.943322686980123
 31
0.0
  0
LINE
  5
467
330
1F
100
AcDbEntity
  8
Object
100
AcDbLine
 10
7.937999999999998
 20
4.920322686980123
 30
0.0
 11
7.937999999999998
 21
4.919322686980123
 31
0.0
  0
LINE
  5
468
330
1F
100
AcDbEntity
  8
Object
100
AcDbLine
 10
7.906
 20
4.902322686980124
 30
0.0
 11
7.906
 21
4.903322686980123
 31
0.0
  0
LINE
  5
469
330
1F
100
AcDbEntity
  8
Object
100
AcDbLine
 10
7.906
 20
4.903322686980123
 30
0.0
 11
7.937999999999998
 21
4.920322686980123
 31
0.0
  0
LINE
  5
46A
330
1F
100
AcDbEntity
  8
Object
100
AcDbLine
 10
7.906
 20
4.903322686980123
 30
0.0
 11
7.906
 21
4.902322686980124
 31
0.0
  0
LINE
  5
46B
330
1F
100
AcDbEntity
  8
Object
100
AcDbLine
 10
7.871
 20
4.893322686980123
 30
0.0
 11
7.871
 21
4.892322686980123
 31
0.0
  0
LINE
  5
46C
330
1F
100
AcDbEntity
  8
Object
100
AcDbLine
 10
7.871
 20
4.892322686980123
 30
0.0
 11
7.906
 21
4.903322686980123
 31
0.0
  0
LINE
  5
46D
330
1F
100
AcDbEntity
  8
Object
100
AcDbLine
 10
7.871
 20
4.892322686980123
 30
0.0
 11
7.835
 21
4.889322686980124
 31
0.0
  0
LINE
  5
46E
330
1F
100
AcDbEntity
  8
Object
100
AcDbLine
 10
8.022
 20
5.076322686980123
 30
0.0
 11
8.019
 21
5.039322686980123
 31
0.0
  0
LINE
  5
46F
330
1F
100
AcDbEntity
  8
Object
100
AcDbLine
 10
8.019
 20
5.039322686980123
 30
0.0
 11
8.008
 21
5.004322686980123
 31
0.0
  0
LINE
  5
470
330
1F
100
AcDbEntity
  8
Object
100
AcDbLine
 10
8.022
 20
5.076322686980123
 30
0.0
 11
8.022
 21
4.889322686980124
 31
0.0
  0
LINE
  5
471
330
1F
100
AcDbEntity
  8
Object
100
AcDbLine
 10
8.022
 20
4.889322686980124
 30
0.0
 11
7.942
 21
4.889322686980124
 31
0.0
  0
LINE
  5
472
330
1F
100
AcDbEntity
  8
Object
100
AcDbLine
 10
7.942
 20
4.889322686980124
 30
0.0
 11
7.862999999999999
 21
4.889322686980124
 31
0.0
  0
LINE
  5
473
330
1F
100
AcDbEntity
  8
Object
100
AcDbLine
 10
7.862999999999999
 20
4.889322686980124
 30
0.0
 11
7.835
 21
4.889322686980124
 31
0.0
  0
LINE
  5
474
330
1F
100
AcDbEntity
  8
Object
100
AcDbLine
 10
7.774
 20
4.889322686980124
 30
0.0
 11
7.769999999999999
 21
4.952322686980123
 31
0.0
  0
LINE
  5
475
330
1F
100
AcDbEntity
  8
Object
100
AcDbLine
 10
7.769999999999999
 20
4.952322686980123
 30
0.0
 11
7.754000000000001
 21
5.014322686980124
 31
0.0
  0
LINE
  5
476
330
1F
100
AcDbEntity
  8
Object
100
AcDbLine
 10
7.745
 20
4.889322686980124
 30
0.0
 11
7.774
 21
4.889322686980124
 31
0.0
  0
LINE
  5
477
330
1F
100
AcDbEntity
  8
Object
100
AcDbLine
 10
7.754000000000001
 20
5.014322686980124
 30
0.0
 11
7.73
 21
5.073322686980123
 31
0.0
  0
LINE
  5
478
330
1F
100
AcDbEntity
  8
Object
100
AcDbLine
 10
7.73
 20
5.073322686980123
 30
0.0
 11
7.699999999999999
 21
5.129322686980123
 31
0.0
  0
LINE
  5
479
330
1F
100
AcDbEntity
  8
Object
100
AcDbLine
 10
7.699999999999999
 20
5.129322686980123
 30
0.0
 11
7.632999999999999
 21
5.233322686980123
 31
0.0
  0
LINE
  5
47A
330
1F
100
AcDbEntity
  8
Object
100
AcDbLine
 10
7.632999999999999
 20
5.233322686980123
 30
0.0
 11
7.562000000000001
 21
5.332322686980123
 31
0.0
  0
LINE
  5
47B
330
1F
100
AcDbEntity
  8
Object
100
AcDbLine
 10
7.562000000000001
 20
5.332322686980123
 30
0.0
 11
7.487999999999999
 21
5.427322686980123
 31
0.0
  0
LINE
  5
47C
330
1F
100
AcDbEntity
  8
Object
100
AcDbLine
 10
7.487999999999999
 20
5.427322686980123
 30
0.0
 11
7.414000000000001
 21
5.519322686980123
 31
0.0
  0
LINE
  5
47D
330
1F
100
AcDbEntity
  8
Object
100
AcDbLine
 10
7.414000000000001
 20
5.519322686980123
 30
0.0
 11
7.341000000000001
 21
5.608322686980123
 31
0.0
  0
LINE
  5
47E
330
1F
100
AcDbEntity
  8
Object
100
AcDbLine
 10
7.341000000000001
 20
5.608322686980123
 30
0.0
 11
7.269999999999999
 21
5.692322686980123
 31
0.0
  0
LINE
  5
47F
330
1F
100
AcDbEntity
  8
Object
100
AcDbLine
 10
7.269999999999999
 20
5.692322686980123
 30
0.0
 11
7.201999999999999
 21
5.772322686980123
 31
0.0
  0
LINE
  5
480
330
1F
100
AcDbEntity
  8
Object
100
AcDbLine
 10
7.201999999999999
 20
5.772322686980123
 30
0.0
 11
7.137999999999999
 21
5.847322686980123
 31
0.0
  0
LINE
  5
481
330
1F
100
AcDbEntity
  8
Object
100
AcDbLine
 10
7.137999999999999
 20
5.847322686980123
 30
0.0
 11
7.079
 21
5.916322686980123
 31
0.0
  0
LINE
  5
482
330
1F
100
AcDbEntity
  8
Object
100
AcDbLine
 10
7.079
 20
5.916322686980123
 30
0.0
 11
7.027000000000001
 21
5.976322686980124
 31
0.0
  0
LINE
  5
483
330
1F
100
AcDbEntity
  8
Object
100
AcDbLine
 10
7.027000000000001
 20
5.976322686980124
 30
0.0
 11
7.004000000000001
 21
6.003322686980123
 31
0.0
  0
LINE
  5
484
330
1F
100
AcDbEntity
  8
Object
100
AcDbLine
 10
7.004000000000001
 20
6.003322686980123
 30
0.0
 11
6.983
 21
6.027322686980123
 31
0.0
  0
LINE
  5
485
330
1F
100
AcDbEntity
  8
Object
100
AcDbLine
 10
6.983
 20
6.027322686980123
 30
0.0
 11
6.964999999999999
 21
6.048322686980124
 31
0.0
  0
LINE
  5
486
330
1F
100
AcDbEntity
  8
Object
100
AcDbLine
 10
6.937000000000001
 20
6.079322686980123
 30
0.0
 11
6.949999999999999
 21
6.065322686980123
 31
0.0
  0
LINE
  5
487
330
1F
100
AcDbEntity
  8
Object
100
AcDbLine
 10
6.949999999999999
 20
6.065322686980123
 30
0.0
 11
6.964999999999999
 21
6.048322686980124
 31
0.0
  0
LINE
  5
488
330
1F
100
AcDbEntity
  8
Object
100
AcDbLine
 10
6.920999999999999
 20
6.098322686980123
 30
0.0
 11
6.923
 21
6.095322686980123
 31
0.0
  0
LINE
  5
489
330
1F
100
AcDbEntity
  8
Object
100
AcDbLine
 10
6.923
 20
6.095322686980123
 30
0.0
 11
6.929
 21
6.089322686980123
 31
0.0
  0
LINE
  5
48A
330
1F
100
AcDbEntity
  8
Object
100
AcDbLine
 10
6.929
 20
6.089322686980123
 30
0.0
 11
6.937000000000001
 21
6.079322686980123
 31
0.0
  0
LINE
  5
48B
330
1F
100
AcDbEntity
  8
Object
100
AcDbLine
 10
6.920999999999999
 20
6.098322686980123
 30
0.0
 11
6.913
 21
6.050322686980123
 31
0.0
  0
LINE
  5
48C
330
1F
100
AcDbEntity
  8
Object
100
AcDbLine
 10
6.913
 20
6.050322686980123
 30
0.0
 11
6.884
 21
6.006322686980123
 31
0.0
  0
LINE
  5
48D
330
1F
100
AcDbEntity
  8
Object
100
AcDbLine
 10
6.884
 20
6.006322686980123
 30
0.0
 11
6.791
 21
5.969322686980123
 31
0.0
  0
LINE
  5
48E
330
1F
100
AcDbEntity
  8
Object
100
AcDbLine
 10
8.022
 20
8.467322686980123
 30
0.0
 11
8.022
 21
5.076322686980123
 31
0.0
  0
LINE
  5
48F
330
1F
100
AcDbEntity
  8
Object
100
AcDbLine
 10
8.022
 20
5.076322686980123
 30
0.0
 11
8.018
 21
5.039322686980123
 31
0.0
  0
LINE
  5
490
330
1F
100
AcDbEntity
  8
Object
100
AcDbLine
 10
8.018
 20
5.039322686980123
 30
0.0
 11
8.008
 21
5.004322686980123
 31
0.0
  0
LINE
  5
491
330
1F
100
AcDbEntity
  8
Object
100
AcDbLine
 10
8.008
 20
5.004322686980123
 30
0.0
 11
7.99
 21
4.972322686980123
 31
0.0
  0
LINE
  5
492
330
1F
100
AcDbEntity
  8
Object
100
AcDbLine
 10
7.99
 20
4.972322686980123
 30
0.0
 11
7.967
 21
4.943322686980123
 31
0.0
  0
LINE
  5
493
330
1F
100
AcDbEntity
  8
Object
100
AcDbLine
 10
8.022
 20
8.467322686980123
 30
0.0
 11
7.894999999999999
 21
8.467322686980123
 31
0.0
  0
LINE
  5
494
330
1F
100
AcDbEntity
  8
Object
100
AcDbLine
 10
7.967
 20
4.943322686980123
 30
0.0
 11
7.937999999999998
 21
4.920322686980123
 31
0.0
  0
LINE
  5
495
330
1F
100
AcDbEntity
  8
Object
100
AcDbLine
 10
7.937999999999998
 20
4.920322686980123
 30
0.0
 11
7.906
 21
4.903322686980123
 31
0.0
  0
LINE
  5
496
330
1F
100
AcDbEntity
  8
Object
100
AcDbLine
 10
7.906
 20
4.903322686980123
 30
0.0
 11
7.871
 21
4.892322686980123
 31
0.0
  0
LINE
  5
497
330
1F
100
AcDbEntity
  8
Object
100
AcDbLine
 10
7.871
 20
4.892322686980123
 30
0.0
 11
7.835
 21
4.889322686980124
 31
0.0
  0
LINE
  5
498
330
1F
100
AcDbEntity
  8
Object
100
AcDbLine
 10
7.835
 20
4.889322686980124
 30
0.0
 11
7.814
 21
4.889322686980124
 31
0.0
  0
LINE
  5
499
330
1F
100
AcDbEntity
  8
Object
100
AcDbLine
 10
7.894999999999999
 20
8.467322686980123
 30
0.0
 11
7.769
 21
8.467322686980123
 31
0.0
  0
LINE
  5
49A
330
1F
100
AcDbEntity
  8
Object
100
AcDbLine
 10
7.814
 20
4.889322686980124
 30
0.0
 11
7.794
 21
4.889322686980124
 31
0.0
  0
LINE
  5
49B
330
1F
100
AcDbEntity
  8
Object
100
AcDbLine
 10
7.794
 20
4.889322686980124
 30
0.0
 11
7.774
 21
4.889322686980124
 31
0.0
  0
LINE
  5
49C
330
1F
100
AcDbEntity
  8
Object
100
AcDbLine
 10
7.769
 20
8.467322686980123
 30
0.0
 11
7.647
 21
8.467322686980123
 31
0.0
  0
LINE
  5
49D
330
1F
100
AcDbEntity
  8
Object
100
AcDbLine
 10
7.647
 20
8.467322686980123
 30
0.0
 11
7.530000000000001
 21
8.467322686980123
 31
0.0
  0
LINE
  5
49E
330
1F
100
AcDbEntity
  8
Object
100
AcDbLine
 10
7.530000000000001
 20
8.467322686980123
 30
0.0
 11
7.419999999999999
 21
8.467322686980123
 31
0.0
  0
LINE
  5
49F
330
1F
100
AcDbEntity
  8
Object
100
AcDbLine
 10
7.419999999999999
 20
8.467322686980123
 30
0.0
 11
7.318000000000001
 21
8.467322686980123
 31
0.0
  0
LINE
  5
4A0
330
1F
100
AcDbEntity
  8
Object
100
AcDbLine
 10
7.318000000000001
 20
8.467322686980123
 30
0.0
 11
7.225999999999999
 21
8.467322686980123
 31
0.0
  0
LINE
  5
4A1
330
1F
100
AcDbEntity
  8
Object
100
AcDbLine
 10
7.225999999999999
 20
8.467322686980123
 30
0.0
 11
7.146
 21
8.467322686980123
 31
0.0
  0
LINE
  5
4A2
330
1F
100
AcDbEntity
  8
Object
100
AcDbLine
 10
7.146
 20
8.467322686980123
 30
0.0
 11
7.076999999999999
 21
8.467322686980123
 31
0.0
  0
LINE
  5
4A3
330
1F
100
AcDbEntity
  8
Object
100
AcDbLine
 10
7.076999999999999
 20
8.467322686980123
 30
0.0
 11
7.022
 21
8.467322686980123
 31
0.0
  0
LINE
  5
4A4
330
1F
100
AcDbEntity
  8
Object
100
AcDbLine
 10
7.022
 20
8.467322686980123
 30
0.0
 11
6.980999999999999
 21
8.467322686980123
 31
0.0
  0
LINE
  5
4A5
330
1F
100
AcDbEntity
  8
Object
100
AcDbLine
 10
6.980999999999999
 20
8.467322686980123
 30
0.0
 11
6.954
 21
8.467322686980123
 31
0.0
  0
LINE
  5
4A6
330
1F
100
AcDbEntity
  8
Object
100
AcDbLine
 10
6.954
 20
8.467322686980123
 30
0.0
 11
6.943000000000001
 21
8.467322686980123
 31
0.0
  0
LINE
  5
4A7
330
1F
100
AcDbEntity
  8
Object
100
AcDbLine
 10
6.943000000000001
 20
8.467322686980123
 30
0.0
 11
6.920999999999999
 21
6.098322686980123
 31
0.0
  0
LINE
  5
4A8
330
1F
100
AcDbEntity
  8
Object
100
AcDbLine
 10
8.73
 20
8.467322686980123
 30
0.0
 11
8.747999999999999
 21
8.467322686980123
 31
0.0
  0
LINE
  5
4A9
330
1F
100
AcDbEntity
  8
Object
100
AcDbLine
 10
8.747999999999999
 20
8.467322686980123
 30
0.0
 11
8.791
 21
4.889322686980124
 31
0.0
  0
LINE
  5
4AA
330
1F
100
AcDbEntity
  8
Object
100
AcDbLine
 10
8.73
 20
8.467322686980123
 30
0.0
 11
8.711999999999999
 21
8.467322686980123
 31
0.0
  0
LINE
  5
4AB
330
1F
100
AcDbEntity
  8
Object
100
AcDbLine
 10
8.702999999999999
 20
4.889322686980124
 30
0.0
 11
8.791
 21
4.889322686980124
 31
0.0
  0
LINE
  5
4AC
330
1F
100
AcDbEntity
  8
Object
100
AcDbLine
 10
8.711999999999999
 20
8.467322686980123
 30
0.0
 11
8.692
 21
8.467322686980123
 31
0.0
  0
LINE
  5
4AD
330
1F
100
AcDbEntity
  8
Object
100
AcDbLine
 10
8.692
 20
8.467322686980123
 30
0.0
 11
8.666
 21
5.507322686980123
 31
0.0
  0
LINE
  5
4AE
330
1F
100
AcDbEntity
  8
Object
100
AcDbLine
 10
8.666
 20
5.507322686980123
 30
0.0
 11
8.644999999999999
 21
5.506322686980123
 31
0.0
  0
LINE
  5
4AF
330
1F
100
AcDbEntity
  8
Object
100
AcDbLine
 10
8.627
 20
5.506322686980123
 30
0.0
 11
8.636000000000001
 21
5.506322686980123
 31
0.0
  0
LINE
  5
4B0
330
1F
100
AcDbEntity
  8
Object
100
AcDbLine
 10
8.636000000000001
 20
5.506322686980123
 30
0.0
 11
8.644999999999999
 21
5.506322686980123
 31
0.0
  0
LINE
  5
4B1
330
1F
100
AcDbEntity
  8
Object
100
AcDbLine
 10
8.605
 20
4.889322686980124
 30
0.0
 11
8.702999999999999
 21
4.889322686980124
 31
0.0
  0
LINE
  5
4B2
330
1F
100
AcDbEntity
  8
Object
100
AcDbLine
 10
8.627
 20
5.506322686980123
 30
0.0
 11
8.617
 21
5.506322686980123
 31
0.0
  0
LINE
  5
4B3
330
1F
100
AcDbEntity
  8
Object
100
AcDbLine
 10
8.617
 20
5.506322686980123
 30
0.0
 11
8.590999999999999
 21
8.467322686980123
 31
0.0
  0
LINE
  5
4B4
330
1F
100
AcDbEntity
  8
Object
100
AcDbLine
 10
8.590999999999999
 20
8.467322686980123
 30
0.0
 11
8.487999999999999
 21
8.467322686980123
 31
0.0
  0
LINE
  5
4B5
330
1F
100
AcDbEntity
  8
Object
100
AcDbLine
 10
8.605
 20
4.889322686980124
 30
0.0
 11
8.499
 21
4.889322686980124
 31
0.0
  0
LINE
  5
4B6
330
1F
100
AcDbEntity
  8
Object
100
AcDbLine
 10
8.499
 20
4.889322686980124
 30
0.0
 11
8.386000000000001
 21
4.889322686980124
 31
0.0
  0
LINE
  5
4B7
330
1F
100
AcDbEntity
  8
Object
100
AcDbLine
 10
8.487999999999999
 20
8.467322686980123
 30
0.0
 11
8.378
 21
8.467322686980123
 31
0.0
  0
LINE
  5
4B8
330
1F
100
AcDbEntity
  8
Object
100
AcDbLine
 10
8.378
 20
8.467322686980123
 30
0.0
 11
8.262
 21
8.467322686980123
 31
0.0
  0
LINE
  5
4B9
330
1F
100
AcDbEntity
  8
Object
100
AcDbLine
 10
8.386000000000001
 20
4.889322686980124
 30
0.0
 11
8.268
 21
4.889322686980124
 31
0.0
  0
LINE
  5
4BA
330
1F
100
AcDbEntity
  8
Object
100
AcDbLine
 10
8.268
 20
4.889322686980124
 30
0.0
 11
8.146
 21
4.889322686980124
 31
0.0
  0
LINE
  5
4BB
330
1F
100
AcDbEntity
  8
Object
100
AcDbLine
 10
8.262
 20
8.467322686980123
 30
0.0
 11
8.143
 21
8.467322686980123
 31
0.0
  0
LINE
  5
4BC
330
1F
100
AcDbEntity
  8
Object
100
AcDbLine
 10
8.143
 20
8.467322686980123
 30
0.0
 11
8.022
 21
8.467322686980123
 31
0.0
  0
LINE
  5
4BD
330
1F
100
AcDbEntity
  8
Object
100
AcDbLine
 10
8.022
 20
4.889322686980124
 30
0.0
 11
8.146
 21
4.889322686980124
 31
0.0
  0
LINE
  5
4BE
330
1F
100
AcDbEntity
  8
Object
100
AcDbLine
 10
8.855
 20
8.467322686980123
 30
0.0
 11
8.894999999999999
 21
4.889322686980124
 31
0.0
  0
LINE
  5
4BF
102
{ACAD_REACTORS
330
7BF
102
}
330
1F
100
AcDbEntity
  8
Object
100
AcDbLine
 10
8.894999999999999
 20
4.889322686980124
 30
0.0
 11
8.791
 21
4.889322686980124
 31
0.0
  0
LINE
  5
4C0
330
1F
100
AcDbEntity
  8
Object
100
AcDbLine
 10
8.855
 20
8.467322686980123
 30
0.0
 11
8.747999999999999
 21
8.467322686980123
 31
0.0
  0
LINE
  5
4C1
330
1F
100
AcDbEntity
  8
Object
100
AcDbLine
 10
8.022
 20
5.076322686980123
 30
0.0
 11
8.022
 21
8.467322686980123
 31
0.0
  0
LINE
  5
4C2
330
1F
100
AcDbEntity
  8
Object
100
AcDbLine
 10
8.855
 20
8.467322686980123
 30
0.0
 11
8.747999999999999
 21
8.467322686980123
 31
0.0
  0
LINE
  5
4C3
330
1F
100
AcDbEntity
  8
Object
100
AcDbLine
 10
8.747999999999999
 20
8.467322686980123
 30
0.0
 11
8.73
 21
8.467322686980123
 31
0.0
  0
LINE
  5
4C4
330
1F
100
AcDbEntity
  8
Object
100
AcDbLine
 10
8.73
 20
8.467322686980123
 30
0.0
 11
8.711999999999999
 21
8.467322686980123
 31
0.0
  0
LINE
  5
4C5
330
1F
100
AcDbEntity
  8
Object
100
AcDbLine
 10
8.711999999999999
 20
8.467322686980123
 30
0.0
 11
8.692
 21
8.467322686980123
 31
0.0
  0
LINE
  5
4C6
330
1F
100
AcDbEntity
  8
Object
100
AcDbLine
 10
8.692
 20
8.467322686980123
 30
0.0
 11
8.689999999999999
 21
8.467322686980123
 31
0.0
  0
LINE
  5
4C7
330
1F
100
AcDbEntity
  8
Object
100
AcDbLine
 10
8.689999999999999
 20
8.467322686980123
 30
0.0
 11
8.686999999999999
 21
8.467322686980123
 31
0.0
  0
LINE
  5
4C8
330
1F
100
AcDbEntity
  8
Object
100
AcDbLine
 10
8.686999999999999
 20
8.467322686980123
 30
0.0
 11
8.684000000000001
 21
8.467322686980123
 31
0.0
  0
LINE
  5
4C9
330
1F
100
AcDbEntity
  8
Object
100
AcDbLine
 10
8.684000000000001
 20
8.467322686980123
 30
0.0
 11
8.682
 21
8.467322686980123
 31
0.0
  0
LINE
  5
4CA
330
1F
100
AcDbEntity
  8
Object
100
AcDbLine
 10
8.682
 20
8.467322686980123
 30
0.0
 11
8.679
 21
8.467322686980123
 31
0.0
  0
LINE
  5
4CB
330
1F
100
AcDbEntity
  8
Object
100
AcDbLine
 10
8.679
 20
8.467322686980123
 30
0.0
 11
8.676999999999999
 21
8.467322686980123
 31
0.0
  0
LINE
  5
4CC
330
1F
100
AcDbEntity
  8
Object
100
AcDbLine
 10
8.676999999999999
 20
8.467322686980123
 30
0.0
 11
8.676
 21
8.467322686980123
 31
0.0
  0
LINE
  5
4CD
330
1F
100
AcDbEntity
  8
Object
100
AcDbLine
 10
8.676
 20
8.467322686980123
 30
0.0
 11
8.676
 21
8.466322686980124
 31
0.0
  0
LINE
  5
4CE
330
1F
100
AcDbEntity
  8
Object
100
AcDbLine
 10
8.676
 20
8.467322686980123
 30
0.0
 11
8.596
 21
8.467322686980123
 31
0.0
  0
LINE
  5
4CF
330
1F
100
AcDbEntity
  8
Object
100
AcDbLine
 10
8.596
 20
8.467322686980123
 30
0.0
 11
8.595
 21
8.467322686980123
 31
0.0
  0
LINE
  5
4D0
330
1F
100
AcDbEntity
  8
Object
100
AcDbLine
 10
8.595
 20
8.467322686980123
 30
0.0
 11
8.590999999999999
 21
8.467322686980123
 31
0.0
  0
LINE
  5
4D1
330
1F
100
AcDbEntity
  8
Object
100
AcDbLine
 10
8.590999999999999
 20
8.467322686980123
 30
0.0
 11
8.487999999999999
 21
8.467322686980123
 31
0.0
  0
LINE
  5
4D2
330
1F
100
AcDbEntity
  8
Object
100
AcDbLine
 10
8.487999999999999
 20
8.467322686980123
 30
0.0
 11
8.378
 21
8.467322686980123
 31
0.0
  0
LINE
  5
4D3
330
1F
100
AcDbEntity
  8
Object
100
AcDbLine
 10
8.378
 20
8.467322686980123
 30
0.0
 11
8.262
 21
8.467322686980123
 31
0.0
  0
LINE
  5
4D4
330
1F
100
AcDbEntity
  8
Object
100
AcDbLine
 10
8.262
 20
8.467322686980123
 30
0.0
 11
8.143
 21
8.467322686980123
 31
0.0
  0
LINE
  5
4D5
330
1F
100
AcDbEntity
  8
Object
100
AcDbLine
 10
8.143
 20
8.467322686980123
 30
0.0
 11
8.022
 21
8.467322686980123
 31
0.0
  0
LINE
  5
4D6
330
1F
100
AcDbEntity
  8
Object
100
AcDbLine
 10
8.022
 20
8.467322686980123
 30
0.0
 11
7.894999999999999
 21
8.467322686980123
 31
0.0
  0
LINE
  5
4D7
330
1F
100
AcDbEntity
  8
Object
100
AcDbLine
 10
7.894999999999999
 20
8.467322686980123
 30
0.0
 11
7.769
 21
8.467322686980123
 31
0.0
  0
LINE
  5
4D8
330
1F
100
AcDbEntity
  8
Object
100
AcDbLine
 10
7.769
 20
8.467322686980123
 30
0.0
 11
7.647
 21
8.467322686980123
 31
0.0
  0
LINE
  5
4D9
330
1F
100
AcDbEntity
  8
Object
100
AcDbLine
 10
7.647
 20
8.467322686980123
 30
0.0
 11
7.530000000000001
 21
8.467322686980123
 31
0.0
  0
LINE
  5
4DA
330
1F
100
AcDbEntity
  8
Object
100
AcDbLine
 10
7.530000000000001
 20
8.467322686980123
 30
0.0
 11
7.419999999999999
 21
8.467322686980123
 31
0.0
  0
LINE
  5
4DB
330
1F
100
AcDbEntity
  8
Object
100
AcDbLine
 10
7.419999999999999
 20
8.467322686980123
 30
0.0
 11
7.318000000000001
 21
8.467322686980123
 31
0.0
  0
LINE
  5
4DC
330
1F
100
AcDbEntity
  8
Object
100
AcDbLine
 10
7.318000000000001
 20
8.467322686980123
 30
0.0
 11
7.225999999999999
 21
8.467322686980123
 31
0.0
  0
LINE
  5
4DD
330
1F
100
AcDbEntity
  8
Object
100
AcDbLine
 10
7.21
 20
8.467322686980123
 30
0.0
 11
7.219000000000001
 21
8.467322686980123
 31
0.0
  0
LINE
  5
4DE
330
1F
100
AcDbEntity
  8
Object
100
AcDbLine
 10
7.225999999999999
 20
8.467322686980123
 30
0.0
 11
7.146
 21
8.467322686980123
 31
0.0
  0
LINE
  5
4DF
330
1F
100
AcDbEntity
  8
Object
100
AcDbLine
 10
7.146
 20
8.467322686980123
 30
0.0
 11
7.076999999999999
 21
8.467322686980123
 31
0.0
  0
LINE
  5
4E0
330
1F
100
AcDbEntity
  8
Object
100
AcDbLine
 10
7.076999999999999
 20
8.467322686980123
 30
0.0
 11
7.022
 21
8.467322686980123
 31
0.0
  0
LINE
  5
4E1
330
1F
100
AcDbEntity
  8
Object
100
AcDbLine
 10
7.022
 20
8.467322686980123
 30
0.0
 11
6.980999999999999
 21
8.467322686980123
 31
0.0
  0
LINE
  5
4E2
330
1F
100
AcDbEntity
  8
Object
100
AcDbLine
 10
6.980999999999999
 20
8.467322686980123
 30
0.0
 11
6.954
 21
8.467322686980123
 31
0.0
  0
LINE
  5
4E3
330
1F
100
AcDbEntity
  8
Object
100
AcDbLine
 10
6.954
 20
8.467322686980123
 30
0.0
 11
6.943000000000001
 21
8.467322686980123
 31
0.0
  0
LINE
  5
4E4
330
1F
100
AcDbEntity
  8
Object
100
AcDbLine
 10
8.686999999999999
 20
8.467322686980123
 30
0.0
 11
8.689999999999999
 21
8.467322686980123
 31
0.0
  0
LINE
  5
4E5
330
1F
100
AcDbEntity
  8
Object
100
AcDbLine
 10
8.689999999999999
 20
8.467322686980123
 30
0.0
 11
8.692
 21
8.467322686980123
 31
0.0
  0
LINE
  5
4E6
330
1F
100
AcDbEntity
  8
Object
100
AcDbLine
 10
8.682
 20
8.467322686980123
 30
0.0
 11
8.684000000000001
 21
8.467322686980123
 31
0.0
  0
LINE
  5
4E7
330
1F
100
AcDbEntity
  8
Object
100
AcDbLine
 10
8.684000000000001
 20
8.467322686980123
 30
0.0
 11
8.686999999999999
 21
8.467322686980123
 31
0.0
  0
LINE
  5
4E8
330
1F
100
AcDbEntity
  8
Object
100
AcDbLine
 10
8.676999999999999
 20
8.467322686980123
 30
0.0
 11
8.679
 21
8.467322686980123
 31
0.0
  0
LINE
  5
4E9
330
1F
100
AcDbEntity
  8
Object
100
AcDbLine
 10
8.679
 20
8.467322686980123
 30
0.0
 11
8.682
 21
8.467322686980123
 31
0.0
  0
LINE
  5
4EA
330
1F
100
AcDbEntity
  8
Object
100
AcDbLine
 10
8.676999999999999
 20
8.467322686980123
 30
0.0
 11
8.676
 21
8.467322686980123
 31
0.0
  0
LINE
  5
4EB
330
1F
100
AcDbEntity
  8
Object
100
AcDbLine
 10
8.65
 20
5.564322686980123
 30
0.0
 11
8.65
 21
5.517322686980123
 31
0.0
  0
LINE
  5
4EC
330
1F
100
AcDbEntity
  8
Object
100
AcDbLine
 10
8.650999999999999
 20
5.630322686980123
 30
0.0
 11
8.676
 21
8.467322686980123
 31
0.0
  0
LINE
  5
4ED
330
1F
100
AcDbEntity
  8
Object
100
AcDbLine
 10
8.676
 20
8.467322686980123
 30
0.0
 11
8.663
 21
6.905322686980123
 31
0.0
  0
LINE
  5
4EE
330
1F
100
AcDbEntity
  8
Object
100
AcDbLine
 10
8.617
 20
5.506322686980123
 30
0.0
 11
8.62
 21
5.510322686980123
 31
0.0
  0
LINE
  5
4EF
330
1F
100
AcDbEntity
  8
Object
100
AcDbLine
 10
8.62
 20
5.510322686980123
 30
0.0
 11
8.621999999999999
 21
5.514322686980124
 31
0.0
  0
LINE
  5
4F0
330
1F
100
AcDbEntity
  8
Object
100
AcDbLine
 10
8.596
 20
8.467322686980123
 30
0.0
 11
8.595
 21
8.467322686980123
 31
0.0
  0
LINE
  5
4F1
330
1F
100
AcDbEntity
  8
Object
100
AcDbLine
 10
8.595
 20
8.467322686980123
 30
0.0
 11
8.590999999999999
 21
8.467322686980123
 31
0.0
  0
LINE
  5
4F2
330
1F
100
AcDbEntity
  8
Object
100
AcDbLine
 10
8.638999999999999
 20
5.516322686980123
 30
0.0
 11
8.641999999999999
 21
5.514322686980124
 31
0.0
  0
LINE
  5
4F3
330
1F
100
AcDbEntity
  8
Object
100
AcDbLine
 10
8.641999999999999
 20
5.514322686980124
 30
0.0
 11
8.644
 21
5.511322686980124
 31
0.0
  0
LINE
  5
4F4
330
1F
100
AcDbEntity
  8
Object
100
AcDbLine
 10
8.621
 20
5.516322686980123
 30
0.0
 11
8.621999999999999
 21
5.514322686980124
 31
0.0
  0
LINE
  5
4F5
330
1F
100
AcDbEntity
  8
Object
100
AcDbLine
 10
8.644999999999999
 20
5.506322686980123
 30
0.0
 11
8.644
 21
5.511322686980124
 31
0.0
  0
LINE
  5
4F6
330
1F
100
AcDbEntity
  8
Object
100
AcDbLine
 10
8.666
 20
5.507322686980123
 30
0.0
 11
8.663
 21
5.510322686980123
 31
0.0
  0
LINE
  5
4F7
330
1F
100
AcDbEntity
  8
Object
100
AcDbLine
 10
8.663
 20
5.510322686980123
 30
0.0
 11
8.66
 21
5.513322686980123
 31
0.0
  0
LINE
  5
4F8
330
1F
100
AcDbEntity
  8
Object
100
AcDbLine
 10
8.653999999999999
 20
5.516322686980123
 30
0.0
 11
8.656
 21
5.515322686980123
 31
0.0
  0
LINE
  5
4F9
330
1F
100
AcDbEntity
  8
Object
100
AcDbLine
 10
8.656
 20
5.515322686980123
 30
0.0
 11
8.66
 21
5.513322686980123
 31
0.0
  0
LINE
  5
4FA
330
1F
100
AcDbEntity
  8
Object
100
AcDbLine
 10
8.653999999999999
 20
5.516322686980123
 30
0.0
 11
8.653
 21
5.516322686980123
 31
0.0
  0
LINE
  5
4FB
330
1F
100
AcDbEntity
  8
Object
100
AcDbLine
 10
8.596
 20
8.467322686980123
 30
0.0
 11
8.676
 21
8.467322686980123
 31
0.0
  0
LINE
  5
4FC
330
1F
100
AcDbEntity
  8
Object
100
AcDbLine
 10
8.676
 20
8.467322686980123
 30
0.0
 11
8.650999999999999
 21
5.636322686980124
 31
0.0
  0
LINE
  5
4FD
330
1F
100
AcDbEntity
  8
Object
100
AcDbLine
 10
8.650999999999999
 20
5.636322686980124
 30
0.0
 11
8.62
 21
5.636322686980124
 31
0.0
  0
LINE
  5
4FE
330
1F
100
AcDbEntity
  8
Object
100
AcDbLine
 10
8.62
 20
5.636322686980124
 30
0.0
 11
8.596
 21
8.467322686980123
 31
0.0
  0
LINE
  5
4FF
330
1F
100
AcDbEntity
  8
Object
100
AcDbLine
 10
8.650999999999999
 20
5.636322686980124
 30
0.0
 11
8.676
 21
8.467322686980123
 31
0.0
  0
LINE
  5
500
330
1F
100
AcDbEntity
  8
Object
100
AcDbLine
 10
8.650999999999999
 20
5.575322686980124
 30
0.0
 11
8.650999999999999
 21
5.595322686980123
 31
0.0
  0
LINE
  5
501
330
1F
100
AcDbEntity
  8
Object
100
AcDbLine
 10
8.650999999999999
 20
5.595322686980123
 30
0.0
 11
8.650999999999999
 21
5.636322686980124
 31
0.0
  0
LINE
  5
502
330
1F
100
AcDbEntity
  8
Object
100
AcDbLine
 10
8.65
 20
5.564322686980123
 30
0.0
 11
8.65
 21
5.517322686980123
 31
0.0
  0
LINE
  5
503
330
1F
100
AcDbEntity
  8
Object
100
AcDbLine
 10
8.676
 20
8.467322686980123
 30
0.0
 11
8.650999999999999
 21
5.630322686980123
 31
0.0
  0
LINE
  5
504
330
1F
100
AcDbEntity
  8
Object
100
AcDbLine
 10
8.65
 20
5.517322686980123
 30
0.0
 11
8.65
 21
5.529322686980123
 31
0.0
  0
LINE
  5
505
330
1F
100
AcDbEntity
  8
Object
100
AcDbLine
 10
8.65
 20
5.529322686980123
 30
0.0
 11
8.65
 21
5.541322686980123
 31
0.0
  0
LINE
  5
506
330
1F
100
AcDbEntity
  8
Object
100
AcDbLine
 10
8.65
 20
5.541322686980123
 30
0.0
 11
8.65
 21
5.557322686980123
 31
0.0
  0
LINE
  5
507
330
1F
100
AcDbEntity
  8
Object
100
AcDbLine
 10
8.65
 20
5.557322686980123
 30
0.0
 11
8.650999999999999
 21
5.575322686980124
 31
0.0
  0
LINE
  5
508
330
1F
100
AcDbEntity
  8
Object
100
AcDbLine
 10
8.621
 20
5.518322686980123
 30
0.0
 11
8.621
 21
5.516322686980123
 31
0.0
  0
LINE
  5
509
330
1F
100
AcDbEntity
  8
Object
100
AcDbLine
 10
8.621
 20
5.614322686980123
 30
0.0
 11
8.621
 21
5.591322686980124
 31
0.0
  0
LINE
  5
50A
330
1F
100
AcDbEntity
  8
Object
100
AcDbLine
 10
8.621
 20
5.535322686980123
 30
0.0
 11
8.621
 21
5.524322686980124
 31
0.0
  0
LINE
  5
50B
330
1F
100
AcDbEntity
  8
Object
100
AcDbLine
 10
8.621
 20
5.570322686980123
 30
0.0
 11
8.621
 21
5.551322686980123
 31
0.0
  0
LINE
  5
50C
330
1F
100
AcDbEntity
  8
Object
100
AcDbLine
 10
8.621
 20
5.551322686980123
 30
0.0
 11
8.621
 21
5.535322686980123
 31
0.0
  0
LINE
  5
50D
330
1F
100
AcDbEntity
  8
Object
100
AcDbLine
 10
8.621
 20
5.591322686980124
 30
0.0
 11
8.621
 21
5.570322686980123
 31
0.0
  0
LINE
  5
50E
330
1F
100
AcDbEntity
  8
Object
100
AcDbLine
 10
8.621
 20
5.524322686980124
 30
0.0
 11
8.621
 21
5.518322686980123
 31
0.0
  0
LINE
  5
50F
330
1F
100
AcDbEntity
  8
Object
100
AcDbLine
 10
8.621
 20
5.516322686980123
 30
0.0
 11
8.621999999999999
 21
5.514322686980124
 31
0.0
  0
LINE
  5
510
330
1F
100
AcDbEntity
  8
Object
100
AcDbLine
 10
8.621
 20
5.614322686980123
 30
0.0
 11
8.62
 21
5.636322686980124
 31
0.0
  0
LINE
  5
511
330
1F
100
AcDbEntity
  8
Object
100
AcDbLine
 10
8.62
 20
5.636322686980124
 30
0.0
 11
8.596
 21
8.467322686980123
 31
0.0
  0
LINE
  5
512
330
1F
100
AcDbEntity
  8
Object
100
AcDbLine
 10
5.807999999999999
 20
4.784322686980123
 30
0.0
 11
5.826
 21
4.784322686980123
 31
0.0
  0
LINE
  5
513
330
1F
100
AcDbEntity
  8
Object
100
AcDbLine
 10
5.826
 20
4.784322686980123
 30
0.0
 11
5.826
 21
4.889322686980124
 31
0.0
  0
LINE
  5
514
330
1F
100
AcDbEntity
  8
Object
100
AcDbLine
 10
5.807999999999999
 20
4.784322686980123
 30
0.0
 11
5.792999999999999
 21
4.784322686980123
 31
0.0
  0
LINE
  5
515
330
1F
100
AcDbEntity
  8
Object
100
AcDbLine
 10
5.792999999999999
 20
4.784322686980123
 30
0.0
 11
5.783000000000001
 21
4.784322686980123
 31
0.0
  0
LINE
  5
516
330
1F
100
AcDbEntity
  8
Object
100
AcDbLine
 10
5.783000000000001
 20
4.784322686980123
 30
0.0
 11
5.782
 21
4.784322686980123
 31
0.0
  0
LINE
  5
517
330
1F
100
AcDbEntity
  8
Object
100
AcDbLine
 10
5.871999999999999
 20
4.889322686980124
 30
0.0
 11
5.871999999999999
 21
4.855322686980123
 31
0.0
  0
LINE
  5
518
330
1F
100
AcDbEntity
  8
Object
100
AcDbLine
 10
5.871999999999999
 20
4.855322686980123
 30
0.0
 11
5.871
 21
4.784322686980123
 31
0.0
  0
LINE
  5
519
330
1F
100
AcDbEntity
  8
Object
100
AcDbLine
 10
5.780000000000001
 20
4.784322686980123
 30
0.0
 11
5.75
 21
4.790322686980124
 31
0.0
  0
LINE
  5
51A
330
1F
100
AcDbEntity
  8
Object
100
AcDbLine
 10
5.75
 20
4.790322686980124
 30
0.0
 11
5.724
 21
4.807322686980123
 31
0.0
  0
LINE
  5
51B
330
1F
100
AcDbEntity
  8
Object
100
AcDbLine
 10
5.724
 20
4.807322686980123
 30
0.0
 11
5.705999999999999
 21
4.832322686980123
 31
0.0
  0
LINE
  5
51C
330
1F
100
AcDbEntity
  8
Object
100
AcDbLine
 10
5.780999999999998
 20
4.889322686980124
 30
0.0
 11
5.782
 21
4.784322686980123
 31
0.0
  0
LINE
  5
51D
330
1F
100
AcDbEntity
  8
Object
100
AcDbLine
 10
5.782
 20
4.784322686980123
 30
0.0
 11
5.780000000000001
 21
4.784322686980123
 31
0.0
  0
LINE
  5
51E
330
1F
100
AcDbEntity
  8
Object
100
AcDbLine
 10
5.705999999999999
 20
4.832322686980123
 30
0.0
 11
5.699999999999999
 21
4.863322686980123
 31
0.0
  0
LINE
  5
51F
330
1F
100
AcDbEntity
  8
Object
100
AcDbLine
 10
5.699999999999999
 20
4.863322686980123
 30
0.0
 11
5.698999999999999
 21
4.889322686980124
 31
0.0
  0
LINE
  5
520
330
1F
100
AcDbEntity
  8
Object
100
AcDbLine
 10
5.871999999999999
 20
4.855322686980123
 30
0.0
 11
5.871
 21
4.784322686980123
 31
0.0
  0
LINE
  5
521
330
1F
100
AcDbEntity
  8
Object
100
AcDbLine
 10
5.871
 20
4.784322686980123
 30
0.0
 11
5.868999999999999
 21
4.784322686980123
 31
0.0
  0
LINE
  5
522
330
1F
100
AcDbEntity
  8
Object
100
AcDbLine
 10
5.868999999999999
 20
4.784322686980123
 30
0.0
 11
5.859999999999999
 21
4.784322686980123
 31
0.0
  0
LINE
  5
523
330
1F
100
AcDbEntity
  8
Object
100
AcDbLine
 10
5.859999999999999
 20
4.784322686980123
 30
0.0
 11
5.844999999999998
 21
4.784322686980123
 31
0.0
  0
LINE
  5
524
330
1F
100
AcDbEntity
  8
Object
100
AcDbLine
 10
5.844999999999998
 20
4.784322686980123
 30
0.0
 11
5.826
 21
4.784322686980123
 31
0.0
  0
LINE
  5
525
330
1F
100
AcDbEntity
  8
Object
100
AcDbLine
 10
6.628
 20
4.889322686980124
 30
0.0
 11
6.628
 21
4.863322686980123
 31
0.0
  0
LINE
  5
526
330
1F
100
AcDbEntity
  8
Object
100
AcDbLine
 10
6.628
 20
4.863322686980123
 30
0.0
 11
6.621999999999999
 21
4.832322686980123
 31
0.0
  0
LINE
  5
527
330
1F
100
AcDbEntity
  8
Object
100
AcDbLine
 10
6.621999999999999
 20
4.832322686980123
 30
0.0
 11
6.605
 21
4.807322686980123
 31
0.0
  0
LINE
  5
528
330
1F
100
AcDbEntity
  8
Object
100
AcDbLine
 10
6.605
 20
4.807322686980123
 30
0.0
 11
6.579
 21
4.790322686980124
 31
0.0
  0
LINE
  5
529
330
1F
100
AcDbEntity
  8
Object
100
AcDbLine
 10
6.579
 20
4.790322686980124
 30
0.0
 11
6.548
 21
4.784322686980123
 31
0.0
  0
LINE
  5
52A
330
1F
100
AcDbEntity
  8
Object
100
AcDbLine
 10
6.548
 20
4.784322686980123
 30
0.0
 11
6.547
 21
4.784322686980123
 31
0.0
  0
LINE
  5
52B
330
1F
100
AcDbEntity
  8
Object
100
AcDbLine
 10
5.698999999999999
 20
4.888322686980123
 30
0.0
 11
5.699999999999999
 21
4.863322686980123
 31
0.0
  0
LINE
  5
52C
330
1F
100
AcDbEntity
  8
Object
100
AcDbLine
 10
6.501999999999998
 20
4.889322686980124
 30
0.0
 11
6.501999999999998
 21
4.784322686980123
 31
0.0
  0
LINE
  5
52D
330
1F
100
AcDbEntity
  8
Object
100
AcDbLine
 10
6.501999999999998
 20
4.784322686980123
 30
0.0
 11
6.483999999999999
 21
4.784322686980123
 31
0.0
  0
LINE
  5
52E
330
1F
100
AcDbEntity
  8
Object
100
AcDbLine
 10
6.483999999999999
 20
4.784322686980123
 30
0.0
 11
6.469000000000001
 21
4.784322686980123
 31
0.0
  0
LINE
  5
52F
330
1F
100
AcDbEntity
  8
Object
100
AcDbLine
 10
6.469000000000001
 20
4.784322686980123
 30
0.0
 11
6.458999999999999
 21
4.784322686980123
 31
0.0
  0
LINE
  5
530
330
1F
100
AcDbEntity
  8
Object
100
AcDbLine
 10
6.458999999999999
 20
4.784322686980123
 30
0.0
 11
6.457
 21
4.784322686980123
 31
0.0
  0
LINE
  5
531
330
1F
100
AcDbEntity
  8
Object
100
AcDbLine
 10
6.457
 20
4.784322686980123
 30
0.0
 11
6.457
 21
4.855322686980123
 31
0.0
  0
LINE
  5
532
330
1F
100
AcDbEntity
  8
Object
100
AcDbLine
 10
6.457
 20
4.855322686980123
 30
0.0
 11
6.455999999999999
 21
4.889322686980124
 31
0.0
  0
LINE
  5
533
330
1F
100
AcDbEntity
  8
Object
100
AcDbLine
 10
6.455999999999999
 20
4.889322686980124
 30
0.0
 11
6.457
 21
4.784322686980123
 31
0.0
  0
LINE
  5
534
330
1F
100
AcDbEntity
  8
Object
100
AcDbLine
 10
6.547
 20
4.889322686980124
 30
0.0
 11
6.547
 21
4.784322686980123
 31
0.0
  0
LINE
  5
535
330
1F
100
AcDbEntity
  8
Object
100
AcDbLine
 10
6.547
 20
4.784322686980123
 30
0.0
 11
6.544999999999999
 21
4.784322686980123
 31
0.0
  0
LINE
  5
536
330
1F
100
AcDbEntity
  8
Object
100
AcDbLine
 10
6.544999999999999
 20
4.784322686980123
 30
0.0
 11
6.536000000000001
 21
4.784322686980123
 31
0.0
  0
LINE
  5
537
330
1F
100
AcDbEntity
  8
Object
100
AcDbLine
 10
6.536000000000001
 20
4.784322686980123
 30
0.0
 11
6.521
 21
4.784322686980123
 31
0.0
  0
LINE
  5
538
330
1F
100
AcDbEntity
  8
Object
100
AcDbLine
 10
6.521
 20
4.784322686980123
 30
0.0
 11
6.501999999999998
 21
4.784322686980123
 31
0.0
  0
LINE
  5
539
330
1F
100
AcDbEntity
  8
Object
100
AcDbLine
 10
8.650999999999999
 20
5.516322686980123
 30
0.0
 11
8.65
 21
5.517322686980123
 31
0.0
  0
LINE
  5
53A
330
1F
100
AcDbEntity
  8
Object
100
AcDbLine
 10
8.621
 20
5.524322686980124
 30
0.0
 11
8.621
 21
5.518322686980123
 31
0.0
  0
LINE
  5
53B
330
1F
100
AcDbEntity
  8
Object
100
AcDbLine
 10
8.65
 20
5.529322686980123
 30
0.0
 11
8.65
 21
5.541322686980123
 31
0.0
  0
LINE
  5
53C
330
1F
100
AcDbEntity
  8
Object
100
AcDbLine
 10
8.621
 20
5.551322686980123
 30
0.0
 11
8.621
 21
5.535322686980123
 31
0.0
  0
LINE
  5
53D
330
1F
100
AcDbEntity
  8
Object
100
AcDbLine
 10
8.65
 20
5.557322686980123
 30
0.0
 11
8.650999999999999
 21
5.575322686980124
 31
0.0
  0
LINE
  5
53E
330
1F
100
AcDbEntity
  8
Object
100
AcDbLine
 10
8.621
 20
5.591322686980124
 30
0.0
 11
8.621
 21
5.570322686980123
 31
0.0
  0
LINE
  5
53F
330
1F
100
AcDbEntity
  8
Object
100
AcDbLine
 10
8.650999999999999
 20
5.595322686980123
 30
0.0
 11
8.650999999999999
 21
5.636322686980124
 31
0.0
  0
LINE
  5
540
330
1F
100
AcDbEntity
  8
Object
100
AcDbLine
 10
8.621
 20
5.614322686980123
 30
0.0
 11
8.621
 21
5.591322686980124
 31
0.0
  0
LINE
  5
541
330
1F
100
AcDbEntity
  8
Object
100
AcDbLine
 10
8.650999999999999
 20
5.575322686980124
 30
0.0
 11
8.650999999999999
 21
5.595322686980123
 31
0.0
  0
LINE
  5
542
330
1F
100
AcDbEntity
  8
Object
100
AcDbLine
 10
8.621
 20
5.570322686980123
 30
0.0
 11
8.621
 21
5.551322686980123
 31
0.0
  0
LINE
  5
543
330
1F
100
AcDbEntity
  8
Object
100
AcDbLine
 10
8.65
 20
5.541322686980123
 30
0.0
 11
8.65
 21
5.557322686980123
 31
0.0
  0
LINE
  5
544
330
1F
100
AcDbEntity
  8
Object
100
AcDbLine
 10
8.621
 20
5.535322686980123
 30
0.0
 11
8.621
 21
5.524322686980124
 31
0.0
  0
LINE
  5
545
330
1F
100
AcDbEntity
  8
Object
100
AcDbLine
 10
8.65
 20
5.517322686980123
 30
0.0
 11
8.65
 21
5.529322686980123
 31
0.0
  0
LINE
  5
546
330
1F
100
AcDbEntity
  8
Object
100
AcDbLine
 10
8.621
 20
5.518322686980123
 30
0.0
 11
8.621
 21
5.516322686980123
 31
0.0
  0
LINE
  5
547
330
1F
100
AcDbEntity
  8
Object
100
AcDbLine
 10
8.653
 20
5.516322686980123
 30
0.0
 11
8.650999999999999
 21
5.516322686980123
 31
0.0
  0
LINE
  5
548
330
1F
100
AcDbEntity
  8
Object
100
AcDbLine
 10
8.62
 20
5.636322686980124
 30
0.0
 11
8.621
 21
5.614322686980123
 31
0.0
  0
LINE
  5
549
330
1F
100
AcDbEntity
  8
Object
100
AcDbLine
 10
5.871
 20
4.784322686980123
 30
0.0
 11
5.868999999999999
 21
4.784322686980123
 31
0.0
  0
LINE
  5
54A
330
1F
100
AcDbEntity
  8
Object
100
AcDbLine
 10
5.868999999999999
 20
4.784322686980123
 30
0.0
 11
5.859999999999999
 21
4.784322686980123
 31
0.0
  0
LINE
  5
54B
330
1F
100
AcDbEntity
  8
Object
100
AcDbLine
 10
5.859999999999999
 20
4.784322686980123
 30
0.0
 11
5.844999999999998
 21
4.784322686980123
 31
0.0
  0
LINE
  5
54C
330
1F
100
AcDbEntity
  8
Object
100
AcDbLine
 10
5.844999999999998
 20
4.784322686980123
 30
0.0
 11
5.826
 21
4.784322686980123
 31
0.0
  0
LINE
  5
54D
330
1F
100
AcDbEntity
  8
Object
100
AcDbLine
 10
5.826
 20
4.784322686980123
 30
0.0
 11
5.807999999999999
 21
4.784322686980123
 31
0.0
  0
LINE
  5
54E
330
1F
100
AcDbEntity
  8
Object
100
AcDbLine
 10
5.807999999999999
 20
4.784322686980123
 30
0.0
 11
5.792999999999999
 21
4.784322686980123
 31
0.0
  0
LINE
  5
54F
330
1F
100
AcDbEntity
  8
Object
100
AcDbLine
 10
5.792999999999999
 20
4.784322686980123
 30
0.0
 11
5.783000000000001
 21
4.784322686980123
 31
0.0
  0
LINE
  5
550
330
1F
100
AcDbEntity
  8
Object
100
AcDbLine
 10
5.783000000000001
 20
4.784322686980123
 30
0.0
 11
5.782
 21
4.784322686980123
 31
0.0
  0
LINE
  5
551
330
1F
100
AcDbEntity
  8
Object
100
AcDbLine
 10
5.780000000000001
 20
4.784322686980123
 30
0.0
 11
5.782
 21
4.784322686980123
 31
0.0
  0
LINE
  5
552
330
1F
100
AcDbEntity
  8
Object
100
AcDbLine
 10
5.871
 20
4.784322686980123
 30
0.0
 11
5.871999999999999
 21
4.855322686980123
 31
0.0
  0
LINE
  5
553
330
1F
100
AcDbEntity
  8
Object
100
AcDbLine
 10
5.780000000000001
 20
4.784322686980123
 30
0.0
 11
5.762999999999999
 21
4.785322686980123
 31
0.0
  0
LINE
  5
554
330
1F
100
AcDbEntity
  8
Object
100
AcDbLine
 10
5.762999999999999
 20
4.785322686980123
 30
0.0
 11
5.780000000000001
 21
4.784322686980123
 31
0.0
  0
LINE
  5
555
330
1F
100
AcDbEntity
  8
Object
100
AcDbLine
 10
5.75
 20
4.790322686980124
 30
0.0
 11
5.762999999999999
 21
4.785322686980123
 31
0.0
  0
LINE
  5
556
330
1F
100
AcDbEntity
  8
Object
100
AcDbLine
 10
5.762999999999999
 20
4.785322686980123
 30
0.0
 11
5.749
 21
4.790322686980124
 31
0.0
  0
LINE
  5
557
330
1F
100
AcDbEntity
  8
Object
100
AcDbLine
 10
5.749
 20
4.790322686980124
 30
0.0
 11
5.730999999999999
 21
4.801322686980123
 31
0.0
  0
LINE
  5
558
330
1F
100
AcDbEntity
  8
Object
100
AcDbLine
 10
5.730999999999999
 20
4.801322686980123
 30
0.0
 11
5.75
 21
4.790322686980124
 31
0.0
  0
LINE
  5
559
330
1F
100
AcDbEntity
  8
Object
100
AcDbLine
 10
5.730999999999999
 20
4.801322686980123
 30
0.0
 11
5.724
 21
4.807322686980123
 31
0.0
  0
LINE
  5
55A
330
1F
100
AcDbEntity
  8
Object
100
AcDbLine
 10
5.724
 20
4.807322686980123
 30
0.0
 11
5.708
 21
4.828322686980123
 31
0.0
  0
LINE
  5
55B
330
1F
100
AcDbEntity
  8
Object
100
AcDbLine
 10
5.708
 20
4.828322686980123
 30
0.0
 11
5.705999999999999
 21
4.832322686980123
 31
0.0
  0
LINE
  5
55C
330
1F
100
AcDbEntity
  8
Object
100
AcDbLine
 10
6.628
 20
4.863322686980123
 30
0.0
 11
6.626000000000001
 21
4.846322686980123
 31
0.0
  0
LINE
  5
55D
330
1F
100
AcDbEntity
  8
Object
100
AcDbLine
 10
6.626000000000001
 20
4.846322686980123
 30
0.0
 11
6.621999999999999
 21
4.832322686980123
 31
0.0
  0
LINE
  5
55E
330
1F
100
AcDbEntity
  8
Object
100
AcDbLine
 10
6.621999999999999
 20
4.832322686980123
 30
0.0
 11
6.611
 21
4.814322686980123
 31
0.0
  0
LINE
  5
55F
330
1F
100
AcDbEntity
  8
Object
100
AcDbLine
 10
6.611
 20
4.814322686980123
 30
0.0
 11
6.605
 21
4.807322686980123
 31
0.0
  0
LINE
  5
560
330
1F
100
AcDbEntity
  8
Object
100
AcDbLine
 10
6.605
 20
4.807322686980123
 30
0.0
 11
6.583
 21
4.791322686980123
 31
0.0
  0
LINE
  5
561
330
1F
100
AcDbEntity
  8
Object
100
AcDbLine
 10
6.583
 20
4.791322686980123
 30
0.0
 11
6.579
 21
4.790322686980124
 31
0.0
  0
LINE
  5
562
330
1F
100
AcDbEntity
  8
Object
100
AcDbLine
 10
6.548
 20
4.784322686980123
 30
0.0
 11
6.547
 21
4.784322686980123
 31
0.0
  0
LINE
  5
563
330
1F
100
AcDbEntity
  8
Object
100
AcDbLine
 10
6.547
 20
4.784322686980123
 30
0.0
 11
6.544999999999999
 21
4.784322686980123
 31
0.0
  0
LINE
  5
564
330
1F
100
AcDbEntity
  8
Object
100
AcDbLine
 10
6.544999999999999
 20
4.784322686980123
 30
0.0
 11
6.536000000000001
 21
4.784322686980123
 31
0.0
  0
LINE
  5
565
330
1F
100
AcDbEntity
  8
Object
100
AcDbLine
 10
6.536000000000001
 20
4.784322686980123
 30
0.0
 11
6.521
 21
4.784322686980123
 31
0.0
  0
LINE
  5
566
330
1F
100
AcDbEntity
  8
Object
100
AcDbLine
 10
6.521
 20
4.784322686980123
 30
0.0
 11
6.501999999999998
 21
4.784322686980123
 31
0.0
  0
LINE
  5
567
330
1F
100
AcDbEntity
  8
Object
100
AcDbLine
 10
6.501999999999998
 20
4.784322686980123
 30
0.0
 11
6.483999999999999
 21
4.784322686980123
 31
0.0
  0
LINE
  5
568
330
1F
100
AcDbEntity
  8
Object
100
AcDbLine
 10
6.483999999999999
 20
4.784322686980123
 30
0.0
 11
6.469000000000001
 21
4.784322686980123
 31
0.0
  0
LINE
  5
569
330
1F
100
AcDbEntity
  8
Object
100
AcDbLine
 10
6.469000000000001
 20
4.784322686980123
 30
0.0
 11
6.458999999999999
 21
4.784322686980123
 31
0.0
  0
LINE
  5
56A
330
1F
100
AcDbEntity
  8
Object
100
AcDbLine
 10
6.457
 20
4.784322686980123
 30
0.0
 11
6.458999999999999
 21
4.784322686980123
 31
0.0
  0
LINE
  5
56B
330
1F
100
AcDbEntity
  8
Object
100
AcDbLine
 10
6.628
 20
4.863322686980123
 30
0.0
 11
6.628
 21
4.889322686980124
 31
0.0
  0
LINE
  5
56C
330
1F
100
AcDbEntity
  8
Object
100
AcDbLine
 10
6.457
 20
4.784322686980123
 30
0.0
 11
6.457
 21
4.855322686980123
 31
0.0
  0
LINE
  5
56D
330
1F
100
AcDbEntity
  8
Object
100
AcDbLine
 10
5.385999999999999
 20
13.58832268698012
 30
0.0
 11
5.381999999999999
 21
13.71632268698012
 31
0.0
  0
LINE
  5
56E
330
1F
100
AcDbEntity
  8
Object
100
AcDbLine
 10
5.306
 20
13.64632268698012
 30
0.0
 11
5.301
 21
13.52332268698012
 31
0.0
  0
LINE
  5
56F
330
1F
100
AcDbEntity
  8
Object
100
AcDbLine
 10
5.374
 20
13.46132268698012
 30
0.0
 11
5.385999999999999
 21
13.58832268698012
 31
0.0
  0
LINE
  5
570
330
1F
100
AcDbEntity
  8
Object
100
AcDbLine
 10
5.381999999999999
 20
13.71632268698012
 30
0.0
 11
5.364
 21
13.84232268698012
 31
0.0
  0
LINE
  5
571
330
1F
100
AcDbEntity
  8
Object
100
AcDbLine
 10
5.295999999999999
 20
13.76832268698012
 30
0.0
 11
5.306
 21
13.64632268698012
 31
0.0
  0
LINE
  5
572
330
1F
100
AcDbEntity
  8
Object
100
AcDbLine
 10
5.347000000000001
 20
13.33632268698012
 30
0.0
 11
5.374
 21
13.46132268698012
 31
0.0
  0
LINE
  5
573
330
1F
100
AcDbEntity
  8
Object
100
AcDbLine
 10
5.301
 20
13.52332268698012
 30
0.0
 11
5.282
 21
13.40232268698012
 31
0.0
  0
LINE
  5
574
330
1F
100
AcDbEntity
  8
Object
100
AcDbLine
 10
5.364
 20
13.84232268698012
 30
0.0
 11
5.330999999999999
 21
13.96632268698012
 31
0.0
  0
LINE
  5
575
330
1F
100
AcDbEntity
  8
Object
100
AcDbLine
 10
5.271
 20
13.88732268698012
 30
0.0
 11
5.295999999999999
 21
13.76832268698012
 31
0.0
  0
LINE
  5
576
330
1F
100
AcDbEntity
  8
Object
100
AcDbLine
 10
5.282
 20
13.40232268698012
 30
0.0
 11
5.246999999999999
 21
13.28532268698012
 31
0.0
  0
LINE
  5
577
330
1F
100
AcDbEntity
  8
Object
100
AcDbLine
 10
5.306
 20
13.21532268698012
 30
0.0
 11
5.347000000000001
 21
13.33632268698012
 31
0.0
  0
LINE
  5
578
330
1F
100
AcDbEntity
  8
Object
100
AcDbLine
 10
5.330999999999999
 20
13.96632268698012
 30
0.0
 11
5.283000000000001
 21
14.08432268698012
 31
0.0
  0
LINE
  5
579
330
1F
100
AcDbEntity
  8
Object
100
AcDbLine
 10
5.230999999999999
 20
14.00332268698012
 30
0.0
 11
5.271
 21
13.88732268698012
 31
0.0
  0
LINE
  5
57A
330
1F
100
AcDbEntity
  8
Object
100
AcDbLine
 10
5.251000000000001
 20
13.10032268698012
 30
0.0
 11
5.306
 21
13.21532268698012
 31
0.0
  0
LINE
  5
57B
330
1F
100
AcDbEntity
  8
Object
100
AcDbLine
 10
5.246999999999999
 20
13.28532268698012
 30
0.0
 11
5.198999999999999
 21
13.17332268698012
 31
0.0
  0
LINE
  5
57C
330
1F
100
AcDbEntity
  8
Object
100
AcDbLine
 10
5.283000000000001
 20
14.08432268698012
 30
0.0
 11
5.222000000000001
 21
14.19632268698012
 31
0.0
  0
LINE
  5
57D
330
1F
100
AcDbEntity
  8
Object
100
AcDbLine
 10
5.230999999999999
 20
14.00332268698012
 30
0.0
 11
5.178
 21
14.11432268698012
 31
0.0
  0
LINE
  5
57E
330
1F
100
AcDbEntity
  8
Object
100
AcDbLine
 10
5.178
 20
14.11432268698012
 30
0.0
 11
5.176
 21
14.11632268698012
 31
0.0
  0
LINE
  5
57F
330
1F
100
AcDbEntity
  8
Object
100
AcDbLine
 10
5.176
 20
14.11632268698012
 30
0.0
 11
5.173999999999999
 21
14.11732268698012
 31
0.0
  0
LINE
  5
580
330
1F
100
AcDbEntity
  8
Object
100
AcDbLine
 10
5.173999999999999
 20
14.11732268698012
 30
0.0
 11
5.172
 21
14.11832268698012
 31
0.0
  0
LINE
  5
581
330
1F
100
AcDbEntity
  8
Object
100
AcDbLine
 10
5.172
 20
14.11832268698012
 30
0.0
 11
5.169
 21
14.11932268698012
 31
0.0
  0
LINE
  5
582
330
1F
100
AcDbEntity
  8
Object
100
AcDbLine
 10
5.198999999999999
 20
13.17332268698012
 30
0.0
 11
5.137
 21
13.06732268698012
 31
0.0
  0
LINE
  5
583
330
1F
100
AcDbEntity
  8
Object
100
AcDbLine
 10
5.182999999999999
 20
12.99232268698012
 30
0.0
 11
5.251000000000001
 21
13.10032268698012
 31
0.0
  0
LINE
  5
584
330
1F
100
AcDbEntity
  8
Object
100
AcDbLine
 10
5.115
 20
14.20932268698012
 30
0.0
 11
5.115
 21
14.20732268698012
 31
0.0
  0
LINE
  5
585
330
1F
100
AcDbEntity
  8
Object
100
AcDbLine
 10
5.115
 20
14.20732268698012
 30
0.0
 11
5.114
 21
14.20432268698012
 31
0.0
  0
LINE
  5
586
330
1F
100
AcDbEntity
  8
Object
100
AcDbLine
 10
5.114
 20
14.21232268698012
 30
0.0
 11
5.115
 21
14.20932268698012
 31
0.0
  0
LINE
  5
587
330
1F
100
AcDbEntity
  8
Object
100
AcDbLine
 10
5.222000000000001
 20
14.19632268698012
 30
0.0
 11
5.147999999999999
 21
14.30032268698012
 31
0.0
  0
LINE
  5
588
330
1F
100
AcDbEntity
  8
Object
100
AcDbLine
 10
5.112999999999999
 20
14.21532268698012
 30
0.0
 11
5.114
 21
14.21232268698012
 31
0.0
  0
LINE
  5
589
330
1F
100
AcDbEntity
  8
Object
100
AcDbLine
 10
5.114
 20
14.20432268698012
 30
0.0
 11
5.112
 21
14.20232268698012
 31
0.0
  0
LINE
  5
58A
330
1F
100
AcDbEntity
  8
Object
100
AcDbLine
 10
5.141999999999999
 20
14.11932268698012
 30
0.0
 11
5.169
 21
14.11932268698012
 31
0.0
  0
LINE
  5
58B
330
1F
100
AcDbEntity
  8
Object
100
AcDbLine
 10
5.112
 20
14.20232268698012
 30
0.0
 11
5.109999999999999
 21
14.20032268698012
 31
0.0
  0
LINE
  5
58C
330
1F
100
AcDbEntity
  8
Object
100
AcDbLine
 10
5.109999999999999
 20
14.20032268698012
 30
0.0
 11
5.108
 21
14.19932268698012
 31
0.0
  0
LINE
  5
58D
330
1F
100
AcDbEntity
  8
Object
100
AcDbLine
 10
5.108
 20
14.19932268698012
 30
0.0
 11
5.105
 21
14.19932268698012
 31
0.0
  0
LINE
  5
58E
330
1F
100
AcDbEntity
  8
Object
100
AcDbLine
 10
5.102
 20
12.89332268698012
 30
0.0
 11
5.182999999999999
 21
12.99232268698012
 31
0.0
  0
LINE
  5
58F
330
1F
100
AcDbEntity
  8
Object
100
AcDbLine
 10
5.137
 20
13.06732268698012
 30
0.0
 11
5.062999999999998
 21
12.97032268698012
 31
0.0
  0
LINE
  5
590
330
1F
100
AcDbEntity
  8
Object
100
AcDbLine
 10
5.100999999999999
 20
14.05732268698012
 30
0.0
 11
5.074999999999999
 21
14.05232268698012
 31
0.0
  0
LINE
  5
591
330
1F
100
AcDbEntity
  8
Object
100
AcDbLine
 10
5.074999999999999
 20
14.05232268698012
 30
0.0
 11
5.05
 21
14.05732268698012
 31
0.0
  0
LINE
  5
592
330
1F
100
AcDbEntity
  8
Object
100
AcDbLine
 10
5.147999999999999
 20
14.30032268698012
 30
0.0
 11
5.062000000000001
 21
14.39532268698012
 31
0.0
  0
LINE
  5
593
330
1F
100
AcDbEntity
  8
Object
100
AcDbLine
 10
5.038
 20
14.30532268698012
 30
0.0
 11
5.112999999999999
 21
14.21532268698012
 31
0.0
  0
LINE
  5
594
330
1F
100
AcDbEntity
  8
Object
100
AcDbLine
 10
5.137
 20
14.09332268698012
 30
0.0
 11
5.121999999999999
 21
14.07132268698012
 31
0.0
  0
LINE
  5
595
330
1F
100
AcDbEntity
  8
Object
100
AcDbLine
 10
5.121999999999999
 20
14.07132268698012
 30
0.0
 11
5.100999999999999
 21
14.05732268698012
 31
0.0
  0
LINE
  5
596
330
1F
100
AcDbEntity
  8
Object
100
AcDbLine
 10
5.05
 20
14.05732268698012
 30
0.0
 11
5.028
 21
14.07132268698012
 31
0.0
  0
LINE
  5
597
330
1F
100
AcDbEntity
  8
Object
100
AcDbLine
 10
5.028
 20
14.07132268698012
 30
0.0
 11
5.012999999999999
 21
14.09332268698012
 31
0.0
  0
LINE
  5
598
330
1F
100
AcDbEntity
  8
Object
100
AcDbLine
 10
5.137
 20
14.09332268698012
 30
0.0
 11
5.141999999999999
 21
14.11932268698012
 31
0.0
  0
LINE
  5
599
330
1F
100
AcDbEntity
  8
Object
100
AcDbLine
 10
5.007999999999999
 20
14.11932268698012
 30
0.0
 11
5.012999999999999
 21
14.09332268698012
 31
0.0
  0
LINE
  5
59A
330
1F
100
AcDbEntity
  8
Object
100
AcDbLine
 10
5.062999999999998
 20
12.97032268698012
 30
0.0
 11
4.977
 21
12.88232268698012
 31
0.0
  0
LINE
  5
59B
330
1F
100
AcDbEntity
  8
Object
100
AcDbLine
 10
5.009999999999999
 20
12.80532268698012
 30
0.0
 11
5.102
 21
12.89332268698012
 31
0.0
  0
LINE
  5
59C
330
1F
100
AcDbEntity
  8
Object
100
AcDbLine
 10
5.062000000000001
 20
14.39532268698012
 30
0.0
 11
4.966000000000001
 21
14.47932268698012
 31
0.0
  0
LINE
  5
59D
330
1F
100
AcDbEntity
  8
Object
100
AcDbLine
 10
4.954
 20
14.38632268698012
 30
0.0
 11
5.038
 21
14.30532268698012
 31
0.0
  0
LINE
  5
59E
330
1F
100
AcDbEntity
  8
Object
100
AcDbLine
 10
4.977
 20
12.88232268698012
 30
0.0
 11
4.881
 21
12.80632268698012
 31
0.0
  0
LINE
  5
59F
330
1F
100
AcDbEntity
  8
Object
100
AcDbLine
 10
4.908999999999998
 20
12.72732268698012
 30
0.0
 11
5.009999999999999
 21
12.80532268698012
 31
0.0
  0
LINE
  5
5A0
330
1F
100
AcDbEntity
  8
Object
100
AcDbLine
 10
5.105
 20
14.19932268698012
 30
0.0
 11
4.873000000000001
 21
14.19932268698012
 31
0.0
  0
LINE
  5
5A1
330
1F
100
AcDbEntity
  8
Object
100
AcDbLine
 10
5.007999999999999
 20
14.11932268698012
 30
0.0
 11
4.873000000000001
 21
14.11932268698012
 31
0.0
  0
LINE
  5
5A2
330
1F
100
AcDbEntity
  8
Object
100
AcDbLine
 10
4.873000000000001
 20
14.11932268698012
 30
0.0
 11
4.873000000000001
 21
14.19932268698012
 31
0.0
  0
LINE
  5
5A3
330
1F
100
AcDbEntity
  8
Object
100
AcDbLine
 10
4.859999999999999
 20
14.45632268698012
 30
0.0
 11
4.954
 21
14.38632268698012
 31
0.0
  0
LINE
  5
5A4
330
1F
100
AcDbEntity
  8
Object
100
AcDbLine
 10
4.966000000000001
 20
14.47932268698012
 30
0.0
 11
4.861
 21
14.55132268698012
 31
0.0
  0
LINE
  5
5A5
330
1F
100
AcDbEntity
  8
Object
100
AcDbLine
 10
4.881
 20
12.80632268698012
 30
0.0
 11
4.777000000000001
 21
12.74132268698012
 31
0.0
  0
LINE
  5
5A6
330
1F
100
AcDbEntity
  8
Object
100
AcDbLine
 10
4.798
 20
12.66232268698012
 30
0.0
 11
4.908999999999998
 21
12.72732268698012
 31
0.0
  0
LINE
  5
5A7
330
1F
100
AcDbEntity
  8
Object
100
AcDbLine
 10
4.759
 20
14.51632268698012
 30
0.0
 11
4.859999999999999
 21
14.45632268698012
 31
0.0
  0
LINE
  5
5A8
330
1F
100
AcDbEntity
  8
Object
100
AcDbLine
 10
4.861
 20
14.55132268698012
 30
0.0
 11
4.746999999999999
 21
14.61032268698012
 31
0.0
  0
LINE
  5
5A9
330
1F
100
AcDbEntity
  8
Object
100
AcDbLine
 10
4.682
 20
12.61132268698012
 30
0.0
 11
4.798
 21
12.66232268698012
 31
0.0
  0
LINE
  5
5AA
330
1F
100
AcDbEntity
  8
Object
100
AcDbLine
 10
4.777000000000001
 20
12.74132268698012
 30
0.0
 11
4.666
 21
12.69132268698012
 31
0.0
  0
LINE
  5
5AB
330
1F
100
AcDbEntity
  8
Object
100
AcDbLine
 10
4.650999999999999
 20
14.56232268698012
 30
0.0
 11
4.759
 21
14.51632268698012
 31
0.0
  0
LINE
  5
5AC
330
1F
100
AcDbEntity
  8
Object
100
AcDbLine
 10
4.746999999999999
 20
14.61032268698012
 30
0.0
 11
4.628
 21
14.65532268698012
 31
0.0
  0
LINE
  5
5AD
330
1F
100
AcDbEntity
  8
Object
100
AcDbLine
 10
4.666
 20
12.69132268698012
 30
0.0
 11
4.548999999999999
 21
12.65432268698012
 31
0.0
  0
LINE
  5
5AE
330
1F
100
AcDbEntity
  8
Object
100
AcDbLine
 10
4.559000000000001
 20
12.57432268698012
 30
0.0
 11
4.682
 21
12.61132268698012
 31
0.0
  0
LINE
  5
5AF
330
1F
100
AcDbEntity
  8
Object
100
AcDbLine
 10
4.538999999999999
 20
14.59632268698012
 30
0.0
 11
4.650999999999999
 21
14.56232268698012
 31
0.0
  0
LINE
  5
5B0
330
1F
100
AcDbEntity
  8
Object
100
AcDbLine
 10
4.628
 20
14.65532268698012
 30
0.0
 11
4.504000000000001
 21
14.68532268698012
 31
0.0
  0
LINE
  5
5B1
330
1F
100
AcDbEntity
  8
Object
100
AcDbLine
 10
4.434000000000001
 20
12.55132268698012
 30
0.0
 11
4.559000000000001
 21
12.57432268698012
 31
0.0
  0
LINE
  5
5B2
330
1F
100
AcDbEntity
  8
Object
100
AcDbLine
 10
4.548999999999999
 20
12.65432268698012
 30
0.0
 11
4.428
 21
12.63132268698012
 31
0.0
  0
LINE
  5
5B3
330
1F
100
AcDbEntity
  8
Object
100
AcDbLine
 10
4.423
 20
14.61732268698012
 30
0.0
 11
4.538999999999999
 21
14.59632268698012
 31
0.0
  0
LINE
  5
5B4
330
1F
100
AcDbEntity
  8
Object
100
AcDbLine
 10
4.504000000000001
 20
14.68532268698012
 30
0.0
 11
4.376999999999998
 21
14.70132268698012
 31
0.0
  0
LINE
  5
5B5
330
1F
100
AcDbEntity
  8
Object
100
AcDbLine
 10
4.306
 20
14.62432268698012
 30
0.0
 11
4.423
 21
14.61732268698012
 31
0.0
  0
LINE
  5
5B6
330
1F
100
AcDbEntity
  8
Object
100
AcDbLine
 10
4.428
 20
12.63132268698012
 30
0.0
 11
4.306
 21
12.62432268698012
 31
0.0
  0
LINE
  5
5B7
330
1F
100
AcDbEntity
  8
Object
100
AcDbLine
 10
4.434000000000001
 20
12.55132268698012
 30
0.0
 11
4.306
 21
12.54432268698012
 31
0.0
  0
LINE
  5
5B8
330
1F
100
AcDbEntity
  8
Object
100
AcDbLine
 10
4.306
 20
12.54432268698012
 30
0.0
 11
4.306
 21
12.62432268698012
 31
0.0
  0
LINE
  5
5B9
330
1F
100
AcDbEntity
  8
Object
100
AcDbLine
 10
4.376999999999998
 20
14.70132268698012
 30
0.0
 11
4.248999999999998
 21
14.70232268698012
 31
0.0
  0
LINE
  5
5BA
330
1F
100
AcDbEntity
  8
Object
100
AcDbLine
 10
4.248999999999998
 20
14.70232268698012
 30
0.0
 11
4.123000000000001
 21
14.68832268698012
 31
0.0
  0
LINE
  5
5BB
330
1F
100
AcDbEntity
  8
Object
100
AcDbLine
 10
4.123000000000001
 20
14.68832268698012
 30
0.0
 11
3.998000000000001
 21
14.65932268698012
 31
0.0
  0
LINE
  5
5BC
330
1F
100
AcDbEntity
  8
Object
100
AcDbLine
 10
3.998000000000001
 20
14.65932268698012
 30
0.0
 11
3.878
 21
14.61532268698012
 31
0.0
  0
LINE
  5
5BD
330
1F
100
AcDbEntity
  8
Object
100
AcDbLine
 10
3.878
 20
14.61532268698012
 30
0.0
 11
3.763999999999999
 21
14.55832268698012
 31
0.0
  0
LINE
  5
5BE
330
1F
100
AcDbEntity
  8
Object
100
AcDbLine
 10
3.737
 20
14.44632268698012
 30
0.0
 11
3.733999999999999
 21
14.44232268698012
 31
0.0
  0
LINE
  5
5BF
330
1F
100
AcDbEntity
  8
Object
100
AcDbLine
 10
3.733999999999999
 20
14.44232268698012
 30
0.0
 11
3.733
 21
14.43832268698012
 31
0.0
  0
LINE
  5
5C0
330
1F
100
AcDbEntity
  8
Object
100
AcDbLine
 10
3.763999999999999
 20
14.55832268698012
 30
0.0
 11
3.657999999999999
 21
14.48732268698012
 31
0.0
  0
LINE
  5
5C1
330
1F
100
AcDbEntity
  8
Object
100
AcDbLine
 10
3.733
 20
14.31132268698012
 30
0.0
 11
3.653
 21
14.31132268698012
 31
0.0
  0
LINE
  5
5C2
330
1F
100
AcDbEntity
  8
Object
100
AcDbLine
 10
3.653
 20
14.31132268698012
 30
0.0
 11
3.653
 21
14.35832268698012
 31
0.0
  0
LINE
  5
5C3
330
1F
100
AcDbEntity
  8
Object
100
AcDbLine
 10
3.733
 20
14.31132268698012
 30
0.0
 11
3.733
 21
14.43832268698012
 31
0.0
  0
LINE
  5
5C4
330
1F
100
AcDbEntity
  8
Object
100
AcDbLine
 10
3.653
 20
14.35832268698012
 30
0.0
 11
3.652000000000001
 21
14.36132268698012
 31
0.0
  0
LINE
  5
5C5
330
1F
100
AcDbEntity
  8
Object
100
AcDbLine
 10
3.652000000000001
 20
14.36132268698012
 30
0.0
 11
3.650999999999999
 21
14.36432268698012
 31
0.0
  0
LINE
  5
5C6
330
1F
100
AcDbEntity
  8
Object
100
AcDbLine
 10
3.650999999999999
 20
14.36432268698012
 30
0.0
 11
3.649
 21
14.36632268698012
 31
0.0
  0
LINE
  5
5C7
330
1F
100
AcDbEntity
  8
Object
100
AcDbLine
 10
3.649
 20
14.36632268698012
 30
0.0
 11
3.647
 21
14.36732268698012
 31
0.0
  0
LINE
  5
5C8
330
1F
100
AcDbEntity
  8
Object
100
AcDbLine
 10
3.647
 20
14.36732268698012
 30
0.0
 11
3.644
 21
14.36832268698012
 31
0.0
  0
LINE
  5
5C9
330
1F
100
AcDbEntity
  8
Object
100
AcDbLine
 10
3.644
 20
14.36832268698012
 30
0.0
 11
3.641
 21
14.36832268698012
 31
0.0
  0
LINE
  5
5CA
330
1F
100
AcDbEntity
  8
Object
100
AcDbLine
 10
3.641
 20
14.36832268698012
 30
0.0
 11
3.637999999999999
 21
14.36732268698012
 31
0.0
  0
LINE
  5
5CB
330
1F
100
AcDbEntity
  8
Object
100
AcDbLine
 10
3.637999999999999
 20
14.36732268698012
 30
0.0
 11
3.635999999999999
 21
14.36632268698012
 31
0.0
  0
LINE
  5
5CC
330
1F
100
AcDbEntity
  8
Object
100
AcDbLine
 10
3.635999999999999
 20
14.36632268698012
 30
0.0
 11
3.617
 21
14.34832268698012
 31
0.0
  0
LINE
  5
5CD
330
1F
100
AcDbEntity
  8
Object
100
AcDbLine
 10
3.617
 20
14.34832268698012
 30
0.0
 11
3.597999999999998
 21
14.33032268698012
 31
0.0
  0
LINE
  5
5CE
330
1F
100
AcDbEntity
  8
Object
100
AcDbLine
 10
3.657999999999999
 20
14.48732268698012
 30
0.0
 11
3.56
 21
14.40532268698012
 31
0.0
  0
LINE
  5
5CF
330
1F
100
AcDbEntity
  8
Object
100
AcDbLine
 10
3.58
 20
14.31132268698012
 30
0.0
 11
3.472999999999998
 21
14.31132268698012
 31
0.0
  0
LINE
  5
5D0
330
1F
100
AcDbEntity
  8
Object
100
AcDbLine
 10
3.472999999999998
 20
14.31132268698012
 30
0.0
 11
3.56
 21
14.40532268698012
 31
0.0
  0
LINE
  5
5D1
330
1F
100
AcDbEntity
  8
Object
100
AcDbLine
 10
3.653
 20
14.31132268698012
 30
0.0
 11
3.733
 21
14.31132268698012
 31
0.0
  0
LINE
  5
5D2
330
1F
100
AcDbEntity
  8
Object
100
AcDbLine
 10
4.306
 20
14.62432268698012
 30
0.0
 11
4.185
 21
14.61632268698012
 31
0.0
  0
LINE
  5
5D3
330
1F
100
AcDbEntity
  8
Object
100
AcDbLine
 10
4.185
 20
14.61632268698012
 30
0.0
 11
4.065999999999998
 21
14.59432268698012
 31
0.0
  0
LINE
  5
5D4
330
1F
100
AcDbEntity
  8
Object
100
AcDbLine
 10
4.065999999999998
 20
14.59432268698012
 30
0.0
 11
3.951
 21
14.55832268698012
 31
0.0
  0
LINE
  5
5D5
330
1F
100
AcDbEntity
  8
Object
100
AcDbLine
 10
3.951
 20
14.55832268698012
 30
0.0
 11
3.839999999999999
 21
14.50932268698012
 31
0.0
  0
LINE
  5
5D6
330
1F
100
AcDbEntity
  8
Object
100
AcDbLine
 10
3.839999999999999
 20
14.50932268698012
 30
0.0
 11
3.737
 21
14.44632268698012
 31
0.0
  0
LINE
  5
5D7
330
1F
100
AcDbEntity
  8
Object
100
AcDbLine
 10
3.58
 20
14.31132268698012
 30
0.0
 11
3.597999999999998
 21
14.33032268698012
 31
0.0
  0
LINE
  5
5D8
330
1F
100
AcDbEntity
  8
Object
100
AcDbLine
 10
4.873000000000001
 20
14.19932268698012
 30
0.0
 11
4.873000000000001
 21
14.11932268698012
 31
0.0
  0
LINE
  5
5D9
330
1F
100
AcDbEntity
  8
Object
100
AcDbLine
 10
4.306
 20
12.62432268698012
 30
0.0
 11
4.306
 21
12.54432268698012
 31
0.0
  0
LINE
  5
5DA
330
1F
100
AcDbEntity
  8
Object
100
AcDbLine
 10
4.306
 20
12.54432268698012
 30
0.0
 11
4.306
 21
12.51432268698012
 31
0.0
  0
LINE
  5
5DB
330
1F
100
AcDbEntity
  8
Object
100
AcDbLine
 10
3.58
 20
14.31132268698012
 30
0.0
 11
3.472999999999998
 21
14.31132268698012
 31
0.0
  0
LINE
  5
5DC
330
1F
100
AcDbEntity
  8
Object
100
AcDbLine
 10
3.472999999999998
 20
14.31132268698012
 30
0.0
 11
3.432999999999999
 21
14.31132268698012
 31
0.0
  0
LINE
  5
5DD
330
1F
100
AcDbEntity
  8
Object
100
AcDbLine
 10
5.407
 20
13.62432268698012
 30
0.0
 11
5.405000000000001
 21
13.56132268698012
 31
0.0
  0
LINE
  5
5DE
330
1F
100
AcDbEntity
  8
Object
100
AcDbLine
 10
5.405000000000001
 20
13.56132268698012
 30
0.0
 11
5.4
 21
13.49832268698012
 31
0.0
  0
LINE
  5
5DF
330
1F
100
AcDbEntity
  8
Object
100
AcDbLine
 10
5.391
 20
13.81232268698012
 30
0.0
 11
5.4
 21
13.75032268698012
 31
0.0
  0
LINE
  5
5E0
330
1F
100
AcDbEntity
  8
Object
100
AcDbLine
 10
5.4
 20
13.75032268698012
 30
0.0
 11
5.405000000000001
 21
13.68732268698012
 31
0.0
  0
LINE
  5
5E1
330
1F
100
AcDbEntity
  8
Object
100
AcDbLine
 10
5.405000000000001
 20
13.68732268698012
 30
0.0
 11
5.407
 21
13.62432268698012
 31
0.0
  0
LINE
  5
5E2
330
1F
100
AcDbEntity
  8
Object
100
AcDbLine
 10
5.4
 20
13.49832268698012
 30
0.0
 11
5.391
 21
13.43632268698012
 31
0.0
  0
LINE
  5
5E3
330
1F
100
AcDbEntity
  8
Object
100
AcDbLine
 10
5.391
 20
13.43632268698012
 30
0.0
 11
5.379000000000001
 21
13.37532268698012
 31
0.0
  0
LINE
  5
5E4
330
1F
100
AcDbEntity
  8
Object
100
AcDbLine
 10
5.391
 20
13.81232268698012
 30
0.0
 11
5.379000000000001
 21
13.87332268698012
 31
0.0
  0
LINE
  5
5E5
330
1F
100
AcDbEntity
  8
Object
100
AcDbLine
 10
5.379000000000001
 20
13.87332268698012
 30
0.0
 11
5.362999999999999
 21
13.93232268698012
 31
0.0
  0
LINE
  5
5E6
330
1F
100
AcDbEntity
  8
Object
100
AcDbLine
 10
5.379000000000001
 20
13.37532268698012
 30
0.0
 11
5.362999999999999
 21
13.31632268698012
 31
0.0
  0
LINE
  5
5E7
330
1F
100
AcDbEntity
  8
Object
100
AcDbLine
 10
5.362999999999999
 20
13.31632268698012
 30
0.0
 11
5.344999999999998
 21
13.25932268698012
 31
0.0
  0
LINE
  5
5E8
330
1F
100
AcDbEntity
  8
Object
100
AcDbLine
 10
5.362999999999999
 20
13.93232268698012
 30
0.0
 11
5.344999999999998
 21
13.98932268698012
 31
0.0
  0
LINE
  5
5E9
330
1F
100
AcDbEntity
  8
Object
100
AcDbLine
 10
5.344999999999998
 20
13.98932268698012
 30
0.0
 11
5.323999999999999
 21
14.04432268698012
 31
0.0
  0
LINE
  5
5EA
330
1F
100
AcDbEntity
  8
Object
100
AcDbLine
 10
5.344999999999998
 20
13.25932268698012
 30
0.0
 11
5.323999999999999
 21
13.20332268698012
 31
0.0
  0
LINE
  5
5EB
330
1F
100
AcDbEntity
  8
Object
100
AcDbLine
 10
5.323999999999999
 20
13.20332268698012
 30
0.0
 11
5.301
 21
13.15132268698012
 31
0.0
  0
LINE
  5
5EC
330
1F
100
AcDbEntity
  8
Object
100
AcDbLine
 10
5.323999999999999
 20
14.04432268698012
 30
0.0
 11
5.301
 21
14.09632268698012
 31
0.0
  0
LINE
  5
5ED
330
1F
100
AcDbEntity
  8
Object
100
AcDbLine
 10
5.301
 20
14.09632268698012
 30
0.0
 11
5.248999999999998
 21
14.19432268698012
 31
0.0
  0
LINE
  5
5EE
330
1F
100
AcDbEntity
  8
Object
100
AcDbLine
 10
5.248999999999998
 20
13.05332268698012
 30
0.0
 11
5.301
 21
13.15132268698012
 31
0.0
  0
LINE
  5
5EF
330
1F
100
AcDbEntity
  8
Object
100
AcDbLine
 10
5.248999999999998
 20
14.19432268698012
 30
0.0
 11
5.190000000000001
 21
14.28332268698012
 31
0.0
  0
LINE
  5
5F0
330
1F
100
AcDbEntity
  8
Object
100
AcDbLine
 10
5.190000000000001
 20
12.96432268698012
 30
0.0
 11
5.248999999999998
 21
13.05332268698012
 31
0.0
  0
LINE
  5
5F1
330
1F
100
AcDbEntity
  8
Object
100
AcDbLine
 10
5.190000000000001
 20
14.28332268698012
 30
0.0
 11
5.126000000000001
 21
14.36232268698012
 31
0.0
  0
LINE
  5
5F2
330
1F
100
AcDbEntity
  8
Object
100
AcDbLine
 10
5.126000000000001
 20
12.88532268698012
 30
0.0
 11
5.190000000000001
 21
12.96432268698012
 31
0.0
  0
LINE
  5
5F3
330
1F
100
AcDbEntity
  8
Object
100
AcDbLine
 10
5.126000000000001
 20
14.36232268698012
 30
0.0
 11
5.057999999999999
 21
14.43232268698012
 31
0.0
  0
LINE
  5
5F4
330
1F
100
AcDbEntity
  8
Object
100
AcDbLine
 10
5.126000000000001
 20
12.88532268698012
 30
0.0
 11
5.057999999999999
 21
12.81532268698012
 31
0.0
  0
LINE
  5
5F5
330
1F
100
AcDbEntity
  8
Object
100
AcDbLine
 10
5.057999999999999
 20
12.81532268698012
 30
0.0
 11
4.987999999999999
 21
12.75432268698012
 31
0.0
  0
LINE
  5
5F6
330
1F
100
AcDbEntity
  8
Object
100
AcDbLine
 10
5.057999999999999
 20
14.43232268698012
 30
0.0
 11
4.987
 21
14.49432268698012
 31
0.0
  0
LINE
  5
5F7
330
1F
100
AcDbEntity
  8
Object
100
AcDbLine
 10
4.987
 20
14.49432268698012
 30
0.0
 11
4.913999999999999
 21
14.54732268698012
 31
0.0
  0
LINE
  5
5F8
330
1F
100
AcDbEntity
  8
Object
100
AcDbLine
 10
4.914999999999999
 20
12.70032268698012
 30
0.0
 11
4.987999999999999
 21
12.75432268698012
 31
0.0
  0
LINE
  5
5F9
330
1F
100
AcDbEntity
  8
Object
100
AcDbLine
 10
4.913999999999999
 20
14.54732268698012
 30
0.0
 11
4.839999999999999
 21
14.59332268698012
 31
0.0
  0
LINE
  5
5FA
330
1F
100
AcDbEntity
  8
Object
100
AcDbLine
 10
4.914999999999999
 20
12.70032268698012
 30
0.0
 11
4.839999999999999
 21
12.65532268698012
 31
0.0
  0
LINE
  5
5FB
330
1F
100
AcDbEntity
  8
Object
100
AcDbLine
 10
4.839999999999999
 20
12.65532268698012
 30
0.0
 11
4.766999999999999
 21
12.61732268698012
 31
0.0
  0
LINE
  5
5FC
330
1F
100
AcDbEntity
  8
Object
100
AcDbLine
 10
4.839999999999999
 20
14.59332268698012
 30
0.0
 11
4.766999999999999
 21
14.63132268698012
 31
0.0
  0
LINE
  5
5FD
330
1F
100
AcDbEntity
  8
Object
100
AcDbLine
 10
4.766999999999999
 20
14.63132268698012
 30
0.0
 11
4.693999999999999
 21
14.66232268698012
 31
0.0
  0
LINE
  5
5FE
330
1F
100
AcDbEntity
  8
Object
100
AcDbLine
 10
4.695
 20
12.58632268698012
 30
0.0
 11
4.766999999999999
 21
12.61732268698012
 31
0.0
  0
LINE
  5
5FF
330
1F
100
AcDbEntity
  8
Object
100
AcDbLine
 10
4.693999999999999
 20
14.66232268698012
 30
0.0
 11
4.628
 21
14.68532268698012
 31
0.0
  0
LINE
  5
600
330
1F
100
AcDbEntity
  8
Object
100
AcDbLine
 10
4.628
 20
12.56232268698012
 30
0.0
 11
4.695
 21
12.58632268698012
 31
0.0
  0
LINE
  5
601
330
1F
100
AcDbEntity
  8
Object
100
AcDbLine
 10
4.628
 20
14.68532268698012
 30
0.0
 11
4.599
 21
14.69432268698012
 31
0.0
  0
LINE
  5
602
330
1F
100
AcDbEntity
  8
Object
100
AcDbLine
 10
4.599
 20
14.69432268698012
 30
0.0
 11
4.573999999999999
 21
14.70132268698012
 31
0.0
  0
LINE
  5
603
330
1F
100
AcDbEntity
  8
Object
100
AcDbLine
 10
4.628
 20
12.56232268698012
 30
0.0
 11
4.599
 21
12.55332268698012
 31
0.0
  0
LINE
  5
604
330
1F
100
AcDbEntity
  8
Object
100
AcDbLine
 10
4.599
 20
12.55332268698012
 30
0.0
 11
4.574999999999999
 21
12.54732268698012
 31
0.0
  0
LINE
  5
605
330
1F
100
AcDbEntity
  8
Object
100
AcDbLine
 10
4.574999999999999
 20
12.54732268698012
 30
0.0
 11
4.557999999999999
 21
12.54232268698012
 31
0.0
  0
LINE
  5
606
330
1F
100
AcDbEntity
  8
Object
100
AcDbLine
 10
4.557999999999999
 20
12.54232268698012
 30
0.0
 11
4.554
 21
12.54132268698012
 31
0.0
  0
LINE
  5
607
330
1F
100
AcDbEntity
  8
Object
100
AcDbLine
 10
4.554
 20
14.70732268698012
 30
0.0
 11
4.557999999999999
 21
14.70532268698012
 31
0.0
  0
LINE
  5
608
330
1F
100
AcDbEntity
  8
Object
100
AcDbLine
 10
4.557999999999999
 20
14.70532268698012
 30
0.0
 11
4.573999999999999
 21
14.70132268698012
 31
0.0
  0
LINE
  5
609
330
1F
100
AcDbEntity
  8
Object
100
AcDbLine
 10
4.513999999999999
 20
12.53232268698012
 30
0.0
 11
4.493999999999999
 21
12.52832268698012
 31
0.0
  0
LINE
  5
60A
330
1F
100
AcDbEntity
  8
Object
100
AcDbLine
 10
4.493999999999999
 20
12.52832268698012
 30
0.0
 11
4.458
 21
12.52332268698012
 31
0.0
  0
LINE
  5
60B
330
1F
100
AcDbEntity
  8
Object
100
AcDbLine
 10
4.554
 20
14.70732268698012
 30
0.0
 11
4.429999999999999
 21
14.72832268698012
 31
0.0
  0
LINE
  5
60C
330
1F
100
AcDbEntity
  8
Object
100
AcDbLine
 10
4.458
 20
12.52332268698012
 30
0.0
 11
4.422
 21
12.51932268698012
 31
0.0
  0
LINE
  5
60D
330
1F
100
AcDbEntity
  8
Object
100
AcDbLine
 10
4.422
 20
12.51932268698012
 30
0.0
 11
4.39
 21
12.51632268698012
 31
0.0
  0
LINE
  5
60E
330
1F
100
AcDbEntity
  8
Object
100
AcDbLine
 10
4.39
 20
12.51632268698012
 30
0.0
 11
4.361
 21
12.51432268698012
 31
0.0
  0
LINE
  5
60F
330
1F
100
AcDbEntity
  8
Object
100
AcDbLine
 10
4.361
 20
12.51432268698012
 30
0.0
 11
4.338
 21
12.51432268698012
 31
0.0
  0
LINE
  5
610
330
1F
100
AcDbEntity
  8
Object
100
AcDbLine
 10
4.338
 20
12.51432268698012
 30
0.0
 11
4.320999999999999
 21
12.51432268698012
 31
0.0
  0
LINE
  5
611
330
1F
100
AcDbEntity
  8
Object
100
AcDbLine
 10
4.320999999999999
 20
12.51432268698012
 30
0.0
 11
4.31
 21
12.51432268698012
 31
0.0
  0
LINE
  5
612
330
1F
100
AcDbEntity
  8
Object
100
AcDbLine
 10
4.31
 20
12.51432268698012
 30
0.0
 11
4.306
 21
12.51432268698012
 31
0.0
  0
LINE
  5
613
330
1F
100
AcDbEntity
  8
Object
100
AcDbLine
 10
4.306
 20
12.51432268698012
 30
0.0
 11
4.306
 21
12.54432268698012
 31
0.0
  0
LINE
  5
614
330
1F
100
AcDbEntity
  8
Object
100
AcDbLine
 10
4.429999999999999
 20
14.72832268698012
 30
0.0
 11
4.304999999999999
 21
14.73532268698012
 31
0.0
  0
LINE
  5
615
330
1F
100
AcDbEntity
  8
Object
100
AcDbLine
 10
4.304999999999999
 20
14.73532268698012
 30
0.0
 11
4.179999999999999
 21
14.72832268698012
 31
0.0
  0
LINE
  5
616
330
1F
100
AcDbEntity
  8
Object
100
AcDbLine
 10
4.179999999999999
 20
14.72832268698012
 30
0.0
 11
4.057
 21
14.70632268698012
 31
0.0
  0
LINE
  5
617
330
1F
100
AcDbEntity
  8
Object
100
AcDbLine
 10
4.057
 20
14.70632268698012
 30
0.0
 11
3.935999999999999
 21
14.67132268698012
 31
0.0
  0
LINE
  5
618
330
1F
100
AcDbEntity
  8
Object
100
AcDbLine
 10
3.935999999999999
 20
14.67132268698012
 30
0.0
 11
3.820999999999999
 21
14.62332268698012
 31
0.0
  0
LINE
  5
619
330
1F
100
AcDbEntity
  8
Object
100
AcDbLine
 10
3.711
 20
14.56232268698012
 30
0.0
 11
3.608999999999999
 21
14.48932268698012
 31
0.0
  0
LINE
  5
61A
330
1F
100
AcDbEntity
  8
Object
100
AcDbLine
 10
3.608999999999999
 20
14.48932268698012
 30
0.0
 11
3.516
 21
14.40532268698012
 31
0.0
  0
LINE
  5
61B
330
1F
100
AcDbEntity
  8
Object
100
AcDbLine
 10
3.472999999999998
 20
14.31132268698012
 30
0.0
 11
3.432999999999999
 21
14.31132268698012
 31
0.0
  0
LINE
  5
61C
330
1F
100
AcDbEntity
  8
Object
100
AcDbLine
 10
3.432999999999999
 20
14.31132268698012
 30
0.0
 11
3.516
 21
14.40532268698012
 31
0.0
  0
LINE
  5
61D
330
1F
100
AcDbEntity
  8
Object
100
AcDbLine
 10
7.774
 20
12.54132268698012
 30
0.0
 11
7.745
 21
12.54432268698012
 31
0.0
  0
LINE
  5
61E
330
1F
100
AcDbEntity
  8
Object
100
AcDbLine
 10
7.745
 20
12.54432268698012
 30
0.0
 11
4.583
 21
12.54432268698012
 31
0.0
  0
LINE
  5
61F
330
1F
100
AcDbEntity
  8
Object
100
AcDbLine
 10
4.583
 20
12.54432268698012
 30
0.0
 11
4.554
 21
12.54132268698012
 31
0.0
  0
LINE
  5
620
330
1F
100
AcDbEntity
  8
Object
100
AcDbLine
 10
4.554
 20
12.54132268698012
 30
0.0
 11
4.533999999999998
 21
12.53632268698012
 31
0.0
  0
LINE
  5
621
330
1F
100
AcDbEntity
  8
Object
100
AcDbLine
 10
4.533999999999998
 20
12.53632268698012
 30
0.0
 11
4.513999999999999
 21
12.53232268698012
 31
0.0
  0
LINE
  5
622
330
1F
100
AcDbEntity
  8
Object
100
AcDbLine
 10
8.894999999999999
 20
14.31132268698012
 30
0.0
 11
8.811999999999999
 21
14.40532268698012
 31
0.0
  0
LINE
  5
623
330
1F
100
AcDbEntity
  8
Object
100
AcDbLine
 10
8.811999999999999
 20
14.40532268698012
 30
0.0
 11
8.718999999999999
 21
14.48932268698012
 31
0.0
  0
LINE
  5
624
330
1F
100
AcDbEntity
  8
Object
100
AcDbLine
 10
8.718999999999999
 20
14.48932268698012
 30
0.0
 11
8.617
 21
14.56232268698012
 31
0.0
  0
LINE
  5
625
330
1F
100
AcDbEntity
  8
Object
100
AcDbLine
 10
8.617
 20
14.56232268698012
 30
0.0
 11
8.508
 21
14.62332268698012
 31
0.0
  0
LINE
  5
626
330
1F
100
AcDbEntity
  8
Object
100
AcDbLine
 10
8.508
 20
14.62332268698012
 30
0.0
 11
8.391999999999999
 21
14.67132268698012
 31
0.0
  0
LINE
  5
627
330
1F
100
AcDbEntity
  8
Object
100
AcDbLine
 10
8.391999999999999
 20
14.67132268698012
 30
0.0
 11
8.272
 21
14.70632268698012
 31
0.0
  0
LINE
  5
628
330
1F
100
AcDbEntity
  8
Object
100
AcDbLine
 10
8.272
 20
14.70632268698012
 30
0.0
 11
8.147999999999999
 21
14.72832268698012
 31
0.0
  0
LINE
  5
629
330
1F
100
AcDbEntity
  8
Object
100
AcDbLine
 10
8.147999999999999
 20
14.72832268698012
 30
0.0
 11
8.022999999999999
 21
14.73532268698012
 31
0.0
  0
LINE
  5
62A
102
{ACAD_REACTORS
330
79A
102
}
330
1F
100
AcDbEntity
  8
Object
100
AcDbLine
 10
8.022999999999999
 20
14.73532268698012
 30
0.0
 11
7.897999999999999
 21
14.72832268698012
 31
0.0
  0
LINE
  5
62B
330
1F
100
AcDbEntity
  8
Object
100
AcDbLine
 10
7.897999999999999
 20
14.72832268698012
 30
0.0
 11
7.774
 21
14.70732268698012
 31
0.0
  0
LINE
  5
62C
330
1F
100
AcDbEntity
  8
Object
100
AcDbLine
 10
7.774
 20
14.70732268698012
 30
0.0
 11
7.745
 21
14.70432268698012
 31
0.0
  0
LINE
  5
62D
330
1F
100
AcDbEntity
  8
Object
100
AcDbLine
 10
7.745
 20
14.70432268698012
 30
0.0
 11
4.583
 21
14.70432268698012
 31
0.0
  0
LINE
  5
62E
330
1F
100
AcDbEntity
  8
Object
100
AcDbLine
 10
4.583
 20
14.70432268698012
 30
0.0
 11
4.554
 21
14.70732268698012
 31
0.0
  0
LINE
  5
62F
330
1F
100
AcDbEntity
  8
Object
100
AcDbLine
 10
3.820999999999999
 20
14.62332268698012
 30
0.0
 11
3.711
 21
14.56232268698012
 31
0.0
  0
LINE
  5
630
330
1F
100
AcDbEntity
  8
Object
100
AcDbLine
 10
5.535
 20
13.68632268698012
 30
0.0
 11
5.536999999999999
 21
13.62432268698012
 31
0.0
  0
LINE
  5
631
330
1F
100
AcDbEntity
  8
Object
100
AcDbLine
 10
5.536999999999999
 20
13.62432268698012
 30
0.0
 11
5.535
 21
13.56232268698012
 31
0.0
  0
LINE
  5
632
330
1F
100
AcDbEntity
  8
Object
100
AcDbLine
 10
5.535
 20
13.56232268698012
 30
0.0
 11
5.528999999999999
 21
13.50032268698012
 31
0.0
  0
LINE
  5
633
330
1F
100
AcDbEntity
  8
Object
100
AcDbLine
 10
5.528999999999999
 20
13.50032268698012
 30
0.0
 11
5.519999999999999
 21
13.43932268698012
 31
0.0
  0
LINE
  5
634
330
1F
100
AcDbEntity
  8
Object
100
AcDbLine
 10
5.506
 20
13.86932268698012
 30
0.0
 11
5.519999999999999
 21
13.80932268698012
 31
0.0
  0
LINE
  5
635
330
1F
100
AcDbEntity
  8
Object
100
AcDbLine
 10
5.519999999999999
 20
13.80932268698012
 30
0.0
 11
5.528999999999999
 21
13.74832268698012
 31
0.0
  0
LINE
  5
636
330
1F
100
AcDbEntity
  8
Object
100
AcDbLine
 10
5.528999999999999
 20
13.74832268698012
 30
0.0
 11
5.535
 21
13.68632268698012
 31
0.0
  0
LINE
  5
637
330
1F
100
AcDbEntity
  8
Object
100
AcDbLine
 10
5.519999999999999
 20
13.43932268698012
 30
0.0
 11
5.506
 21
13.37932268698012
 31
0.0
  0
LINE
  5
638
330
1F
100
AcDbEntity
  8
Object
100
AcDbLine
 10
5.506
 20
13.37932268698012
 30
0.0
 11
5.49
 21
13.32132268698012
 31
0.0
  0
LINE
  5
639
330
1F
100
AcDbEntity
  8
Object
100
AcDbLine
 10
5.469999999999998
 20
13.98332268698012
 30
0.0
 11
5.49
 21
13.92732268698012
 31
0.0
  0
LINE
  5
63A
330
1F
100
AcDbEntity
  8
Object
100
AcDbLine
 10
5.49
 20
13.92732268698012
 30
0.0
 11
5.506
 21
13.86932268698012
 31
0.0
  0
LINE
  5
63B
330
1F
100
AcDbEntity
  8
Object
100
AcDbLine
 10
5.49
 20
13.32132268698012
 30
0.0
 11
5.469999999999998
 21
13.26532268698012
 31
0.0
  0
LINE
  5
63C
330
1F
100
AcDbEntity
  8
Object
100
AcDbLine
 10
5.469999999999998
 20
13.26532268698012
 30
0.0
 11
5.446999999999999
 21
13.21032268698012
 31
0.0
  0
LINE
  5
63D
330
1F
100
AcDbEntity
  8
Object
100
AcDbLine
 10
5.422
 20
14.09032268698012
 30
0.0
 11
5.446999999999999
 21
14.03832268698012
 31
0.0
  0
LINE
  5
63E
330
1F
100
AcDbEntity
  8
Object
100
AcDbLine
 10
5.446999999999999
 20
14.03832268698012
 30
0.0
 11
5.469999999999998
 21
13.98332268698012
 31
0.0
  0
LINE
  5
63F
330
1F
100
AcDbEntity
  8
Object
100
AcDbLine
 10
5.446999999999999
 20
13.21032268698012
 30
0.0
 11
5.422
 21
13.15832268698012
 31
0.0
  0
LINE
  5
640
330
1F
100
AcDbEntity
  8
Object
100
AcDbLine
 10
5.422
 20
13.15832268698012
 30
0.0
 11
5.365
 21
13.06132268698012
 31
0.0
  0
LINE
  5
641
330
1F
100
AcDbEntity
  8
Object
100
AcDbLine
 10
5.422
 20
14.09032268698012
 30
0.0
 11
5.365
 21
14.18632268698012
 31
0.0
  0
LINE
  5
642
330
1F
100
AcDbEntity
  8
Object
100
AcDbLine
 10
5.3
 20
12.97332268698012
 30
0.0
 11
5.365
 21
13.06132268698012
 31
0.0
  0
LINE
  5
643
330
1F
100
AcDbEntity
  8
Object
100
AcDbLine
 10
5.365
 20
14.18632268698012
 30
0.0
 11
5.3
 21
14.27532268698012
 31
0.0
  0
LINE
  5
644
330
1F
100
AcDbEntity
  8
Object
100
AcDbLine
 10
5.23
 20
12.89432268698012
 30
0.0
 11
5.3
 21
12.97332268698012
 31
0.0
  0
LINE
  5
645
330
1F
100
AcDbEntity
  8
Object
100
AcDbLine
 10
5.3
 20
14.27532268698012
 30
0.0
 11
5.23
 21
14.35332268698012
 31
0.0
  0
LINE
  5
646
330
1F
100
AcDbEntity
  8
Object
100
AcDbLine
 10
5.155000000000001
 20
12.82432268698012
 30
0.0
 11
5.23
 21
12.89432268698012
 31
0.0
  0
LINE
  5
647
330
1F
100
AcDbEntity
  8
Object
100
AcDbLine
 10
5.23
 20
14.35332268698012
 30
0.0
 11
5.155000000000001
 21
14.42332268698012
 31
0.0
  0
LINE
  5
648
330
1F
100
AcDbEntity
  8
Object
100
AcDbLine
 10
5.077999999999999
 20
12.76332268698012
 30
0.0
 11
5.155000000000001
 21
12.82432268698012
 31
0.0
  0
LINE
  5
649
330
1F
100
AcDbEntity
  8
Object
100
AcDbLine
 10
5.155000000000001
 20
14.42332268698012
 30
0.0
 11
5.076999999999999
 21
14.48532268698012
 31
0.0
  0
LINE
  5
64A
330
1F
100
AcDbEntity
  8
Object
100
AcDbLine
 10
5.076999999999999
 20
14.48532268698012
 30
0.0
 11
4.996
 21
14.53832268698012
 31
0.0
  0
LINE
  5
64B
330
1F
100
AcDbEntity
  8
Object
100
AcDbLine
 10
5.077999999999999
 20
12.76332268698012
 30
0.0
 11
4.996999999999999
 21
12.71032268698012
 31
0.0
  0
LINE
  5
64C
330
1F
100
AcDbEntity
  8
Object
100
AcDbLine
 10
4.996999999999999
 20
12.71032268698012
 30
0.0
 11
4.914999999999999
 21
12.66332268698012
 31
0.0
  0
LINE
  5
64D
330
1F
100
AcDbEntity
  8
Object
100
AcDbLine
 10
4.996
 20
14.53832268698012
 30
0.0
 11
4.913999999999999
 21
14.58432268698012
 31
0.0
  0
LINE
  5
64E
330
1F
100
AcDbEntity
  8
Object
100
AcDbLine
 10
4.913999999999999
 20
14.58432268698012
 30
0.0
 11
4.833
 21
14.62332268698012
 31
0.0
  0
LINE
  5
64F
330
1F
100
AcDbEntity
  8
Object
100
AcDbLine
 10
4.833
 20
12.62432268698012
 30
0.0
 11
4.914999999999999
 21
12.66332268698012
 31
0.0
  0
LINE
  5
650
330
1F
100
AcDbEntity
  8
Object
100
AcDbLine
 10
4.833
 20
14.62332268698012
 30
0.0
 11
4.751999999999998
 21
14.65532268698012
 31
0.0
  0
LINE
  5
651
330
1F
100
AcDbEntity
  8
Object
100
AcDbLine
 10
4.751000000000001
 20
12.59332268698012
 30
0.0
 11
4.833
 21
12.62432268698012
 31
0.0
  0
LINE
  5
652
330
1F
100
AcDbEntity
  8
Object
100
AcDbLine
 10
4.751999999999998
 20
14.65532268698012
 30
0.0
 11
4.675
 21
14.67932268698012
 31
0.0
  0
LINE
  5
653
330
1F
100
AcDbEntity
  8
Object
100
AcDbLine
 10
4.751000000000001
 20
12.59332268698012
 30
0.0
 11
4.673999999999999
 21
12.56832268698012
 31
0.0
  0
LINE
  5
654
330
1F
100
AcDbEntity
  8
Object
100
AcDbLine
 10
4.673999999999999
 20
12.56832268698012
 30
0.0
 11
4.638999999999999
 21
12.55832268698012
 31
0.0
  0
LINE
  5
655
330
1F
100
AcDbEntity
  8
Object
100
AcDbLine
 10
4.675
 20
14.67932268698012
 30
0.0
 11
4.64
 21
14.68932268698012
 31
0.0
  0
LINE
  5
656
330
1F
100
AcDbEntity
  8
Object
100
AcDbLine
 10
4.64
 20
14.68932268698012
 30
0.0
 11
4.609999999999999
 21
14.69732268698012
 31
0.0
  0
LINE
  5
657
330
1F
100
AcDbEntity
  8
Object
100
AcDbLine
 10
4.609999999999999
 20
12.55132268698012
 30
0.0
 11
4.638999999999999
 21
12.55832268698012
 31
0.0
  0
LINE
  5
658
330
1F
100
AcDbEntity
  8
Object
100
AcDbLine
 10
4.609999999999999
 20
14.69732268698012
 30
0.0
 11
4.589
 21
14.70232268698012
 31
0.0
  0
LINE
  5
659
330
1F
100
AcDbEntity
  8
Object
100
AcDbLine
 10
4.589
 20
12.54632268698012
 30
0.0
 11
4.609999999999999
 21
12.55132268698012
 31
0.0
  0
LINE
  5
65A
330
1F
100
AcDbEntity
  8
Object
100
AcDbLine
 10
4.583
 20
14.70432268698012
 30
0.0
 11
4.583999999999999
 21
14.70332268698012
 31
0.0
  0
LINE
  5
65B
330
1F
100
AcDbEntity
  8
Object
100
AcDbLine
 10
4.583999999999999
 20
14.70332268698012
 30
0.0
 11
4.589
 21
14.70232268698012
 31
0.0
  0
LINE
  5
65C
330
1F
100
AcDbEntity
  8
Object
100
AcDbLine
 10
4.589
 20
12.54632268698012
 30
0.0
 11
4.583999999999999
 21
12.54432268698012
 31
0.0
  0
LINE
  5
65D
330
1F
100
AcDbEntity
  8
Object
100
AcDbLine
 10
4.583999999999999
 20
12.54432268698012
 30
0.0
 11
4.583
 21
12.54432268698012
 31
0.0
  0
LINE
  5
65E
330
1F
100
AcDbEntity
  8
Object
100
AcDbLine
 10
6.792999999999999
 20
13.56232268698012
 30
0.0
 11
6.791
 21
13.62432268698012
 31
0.0
  0
LINE
  5
660
330
1F
100
AcDbEntity
  8
Object
100
AcDbLine
 10
6.792999999999999
 20
13.56232268698012
 30
0.0
 11
6.798999999999999
 21
13.50032268698012
 31
0.0
  0
LINE
  5
661
330
1F
100
AcDbEntity
  8
Object
100
AcDbLine
 10
6.798999999999999
 20
13.50032268698012
 30
0.0
 11
6.809000000000001
 21
13.43932268698012
 31
0.0
  0
LINE
  5
662
330
1F
100
AcDbEntity
  8
Object
100
AcDbLine
 10
6.809000000000001
 20
13.43932268698012
 30
0.0
 11
6.821999999999999
 21
13.37932268698012
 31
0.0
  0
LINE
  5
663
330
1F
100
AcDbEntity
  8
Object
100
AcDbLine
 10
6.821999999999999
 20
13.37932268698012
 30
0.0
 11
6.839
 21
13.32132268698012
 31
0.0
  0
LINE
  5
664
330
1F
100
AcDbEntity
  8
Object
100
AcDbLine
 10
6.839
 20
13.32132268698012
 30
0.0
 11
6.858
 21
13.26532268698012
 31
0.0
  0
LINE
  5
665
330
1F
100
AcDbEntity
  8
Object
100
AcDbLine
 10
6.858
 20
13.26532268698012
 30
0.0
 11
6.881
 21
13.21032268698012
 31
0.0
  0
LINE
  5
666
330
1F
100
AcDbEntity
  8
Object
100
AcDbLine
 10
6.881
 20
13.21032268698012
 30
0.0
 11
6.906
 21
13.15832268698012
 31
0.0
  0
LINE
  5
667
330
1F
100
AcDbEntity
  8
Object
100
AcDbLine
 10
6.906
 20
13.15832268698012
 30
0.0
 11
6.963
 21
13.06132268698012
 31
0.0
  0
LINE
  5
668
330
1F
100
AcDbEntity
  8
Object
100
AcDbLine
 10
6.963
 20
13.06132268698012
 30
0.0
 11
7.028
 21
12.97332268698012
 31
0.0
  0
LINE
  5
669
330
1F
100
AcDbEntity
  8
Object
100
AcDbLine
 10
7.028
 20
12.97332268698012
 30
0.0
 11
7.099
 21
12.89432268698012
 31
0.0
  0
LINE
  5
66A
330
1F
100
AcDbEntity
  8
Object
100
AcDbLine
 10
7.099
 20
12.89432268698012
 30
0.0
 11
7.173
 21
12.82432268698012
 31
0.0
  0
LINE
  5
66B
330
1F
100
AcDbEntity
  8
Object
100
AcDbLine
 10
7.173
 20
12.82432268698012
 30
0.0
 11
7.251000000000001
 21
12.76332268698012
 31
0.0
  0
LINE
  5
66C
330
1F
100
AcDbEntity
  8
Object
100
AcDbLine
 10
7.251000000000001
 20
12.76332268698012
 30
0.0
 11
7.330999999999999
 21
12.71032268698012
 31
0.0
  0
LINE
  5
66D
330
1F
100
AcDbEntity
  8
Object
100
AcDbLine
 10
7.330999999999999
 20
12.71032268698012
 30
0.0
 11
7.413
 21
12.66332268698012
 31
0.0
  0
LINE
  5
66E
330
1F
100
AcDbEntity
  8
Object
100
AcDbLine
 10
7.413
 20
12.66332268698012
 30
0.0
 11
7.496
 21
12.62432268698012
 31
0.0
  0
LINE
  5
66F
330
1F
100
AcDbEntity
  8
Object
100
AcDbLine
 10
7.496
 20
12.62432268698012
 30
0.0
 11
7.576999999999999
 21
12.59332268698012
 31
0.0
  0
LINE
  5
670
330
1F
100
AcDbEntity
  8
Object
100
AcDbLine
 10
7.576999999999999
 20
12.59332268698012
 30
0.0
 11
7.653999999999999
 21
12.56832268698012
 31
0.0
  0
LINE
  5
671
330
1F
100
AcDbEntity
  8
Object
100
AcDbLine
 10
7.653999999999999
 20
12.56832268698012
 30
0.0
 11
7.689
 21
12.55832268698012
 31
0.0
  0
LINE
  5
672
330
1F
100
AcDbEntity
  8
Object
100
AcDbLine
 10
7.689
 20
12.55832268698012
 30
0.0
 11
7.719000000000001
 21
12.55132268698012
 31
0.0
  0
LINE
  5
673
330
1F
100
AcDbEntity
  8
Object
100
AcDbLine
 10
7.719000000000001
 20
12.55132268698012
 30
0.0
 11
7.739
 21
12.54632268698012
 31
0.0
  0
LINE
  5
674
330
1F
100
AcDbEntity
  8
Object
100
AcDbLine
 10
7.739
 20
12.54632268698012
 30
0.0
 11
7.745
 21
12.54432268698012
 31
0.0
  0
LINE
  5
675
330
1F
100
AcDbEntity
  8
Object
100
AcDbLine
 10
8.022
 20
12.51432268698012
 30
0.0
 11
8.018
 21
12.51432268698012
 31
0.0
  0
LINE
  5
676
330
1F
100
AcDbEntity
  8
Object
100
AcDbLine
 10
8.018
 20
12.51432268698012
 30
0.0
 11
8.008
 21
12.51432268698012
 31
0.0
  0
LINE
  5
677
330
1F
100
AcDbEntity
  8
Object
100
AcDbLine
 10
8.008
 20
12.51432268698012
 30
0.0
 11
7.99
 21
12.51432268698012
 31
0.0
  0
LINE
  5
678
330
1F
100
AcDbEntity
  8
Object
100
AcDbLine
 10
7.99
 20
12.51432268698012
 30
0.0
 11
7.967
 21
12.51432268698012
 31
0.0
  0
LINE
  5
679
330
1F
100
AcDbEntity
  8
Object
100
AcDbLine
 10
7.906
 20
12.51932268698012
 30
0.0
 11
7.871
 21
12.52332268698012
 31
0.0
  0
LINE
  5
67A
330
1F
100
AcDbEntity
  8
Object
100
AcDbLine
 10
7.871
 20
12.52332268698012
 30
0.0
 11
7.835
 21
12.52832268698012
 31
0.0
  0
LINE
  5
67B
330
1F
100
AcDbEntity
  8
Object
100
AcDbLine
 10
8.022
 20
14.62432268698012
 30
0.0
 11
7.905000000000001
 21
14.61732268698012
 31
0.0
  0
LINE
  5
67C
330
1F
100
AcDbEntity
  8
Object
100
AcDbLine
 10
7.905000000000001
 20
14.61732268698012
 30
0.0
 11
7.789999999999999
 21
14.59632268698012
 31
0.0
  0
LINE
  5
67D
330
1F
100
AcDbEntity
  8
Object
100
AcDbLine
 10
7.789999999999999
 20
14.59632268698012
 30
0.0
 11
7.676999999999999
 21
14.56232268698012
 31
0.0
  0
LINE
  5
67E
330
1F
100
AcDbEntity
  8
Object
100
AcDbLine
 10
7.676999999999999
 20
14.56232268698012
 30
0.0
 11
7.57
 21
14.51632268698012
 31
0.0
  0
LINE
  5
67F
330
1F
100
AcDbEntity
  8
Object
100
AcDbLine
 10
7.769999999999999
 20
14.70532268698012
 30
0.0
 11
7.774
 21
14.70732268698012
 31
0.0
  0
LINE
  5
680
330
1F
100
AcDbEntity
  8
Object
100
AcDbLine
 10
7.774
 20
12.54132268698012
 30
0.0
 11
7.769999999999999
 21
12.54232268698012
 31
0.0
  0
LINE
  5
681
330
1F
100
AcDbEntity
  8
Object
100
AcDbLine
 10
7.769999999999999
 20
12.54232268698012
 30
0.0
 11
7.754000000000001
 21
12.54732268698012
 31
0.0
  0
LINE
  5
682
330
1F
100
AcDbEntity
  8
Object
100
AcDbLine
 10
7.754000000000001
 20
14.70132268698012
 30
0.0
 11
7.769999999999999
 21
14.70532268698012
 31
0.0
  0
LINE
  5
683
330
1F
100
AcDbEntity
  8
Object
100
AcDbLine
 10
7.754000000000001
 20
12.54732268698012
 30
0.0
 11
7.73
 21
12.55332268698012
 31
0.0
  0
LINE
  5
684
330
1F
100
AcDbEntity
  8
Object
100
AcDbLine
 10
7.701
 20
14.68532268698012
 30
0.0
 11
7.73
 21
14.69432268698012
 31
0.0
  0
LINE
  5
685
330
1F
100
AcDbEntity
  8
Object
100
AcDbLine
 10
7.73
 20
12.55332268698012
 30
0.0
 11
7.699999999999999
 21
12.56232268698012
 31
0.0
  0
LINE
  5
686
330
1F
100
AcDbEntity
  8
Object
100
AcDbLine
 10
7.634
 20
14.66232268698012
 30
0.0
 11
7.701
 21
14.68532268698012
 31
0.0
  0
LINE
  5
687
330
1F
100
AcDbEntity
  8
Object
100
AcDbLine
 10
7.699999999999999
 20
12.56232268698012
 30
0.0
 11
7.632999999999999
 21
12.58632268698012
 31
0.0
  0
LINE
  5
688
330
1F
100
AcDbEntity
  8
Object
100
AcDbLine
 10
7.562000000000001
 20
14.63132268698012
 30
0.0
 11
7.634
 21
14.66232268698012
 31
0.0
  0
LINE
  5
689
330
1F
100
AcDbEntity
  8
Object
100
AcDbLine
 10
7.632999999999999
 20
12.58632268698012
 30
0.0
 11
7.562000000000001
 21
12.61732268698012
 31
0.0
  0
LINE
  5
68A
330
1F
100
AcDbEntity
  8
Object
100
AcDbLine
 10
7.487999999999999
 20
14.59332268698012
 30
0.0
 11
7.562000000000001
 21
14.63132268698012
 31
0.0
  0
LINE
  5
68B
330
1F
100
AcDbEntity
  8
Object
100
AcDbLine
 10
7.562000000000001
 20
12.61732268698012
 30
0.0
 11
7.487999999999999
 21
12.65532268698012
 31
0.0
  0
LINE
  5
68C
330
1F
100
AcDbEntity
  8
Object
100
AcDbLine
 10
7.487999999999999
 20
12.65532268698012
 30
0.0
 11
7.414000000000001
 21
12.70032268698012
 31
0.0
  0
LINE
  5
68D
330
1F
100
AcDbEntity
  8
Object
100
AcDbLine
 10
7.414000000000001
 20
14.54732268698012
 30
0.0
 11
7.487999999999999
 21
14.59332268698012
 31
0.0
  0
LINE
  5
68E
330
1F
100
AcDbEntity
  8
Object
100
AcDbLine
 10
7.414000000000001
 20
12.70032268698012
 30
0.0
 11
7.341000000000001
 21
12.75432268698012
 31
0.0
  0
LINE
  5
68F
330
1F
100
AcDbEntity
  8
Object
100
AcDbLine
 10
7.414000000000001
 20
14.54732268698012
 30
0.0
 11
7.341000000000001
 21
14.49432268698012
 31
0.0
  0
LINE
  5
690
330
1F
100
AcDbEntity
  8
Object
100
AcDbLine
 10
7.341000000000001
 20
14.49432268698012
 30
0.0
 11
7.269999999999999
 21
14.43232268698012
 31
0.0
  0
LINE
  5
691
330
1F
100
AcDbEntity
  8
Object
100
AcDbLine
 10
7.341000000000001
 20
12.75432268698012
 30
0.0
 11
7.269999999999999
 21
12.81532268698012
 31
0.0
  0
LINE
  5
692
330
1F
100
AcDbEntity
  8
Object
100
AcDbLine
 10
7.201999999999999
 20
14.36232268698012
 30
0.0
 11
7.269999999999999
 21
14.43232268698012
 31
0.0
  0
LINE
  5
693
330
1F
100
AcDbEntity
  8
Object
100
AcDbLine
 10
7.269999999999999
 20
12.81532268698012
 30
0.0
 11
7.201999999999999
 21
12.88532268698012
 31
0.0
  0
LINE
  5
694
330
1F
100
AcDbEntity
  8
Object
100
AcDbLine
 10
7.137999999999999
 20
14.28332268698012
 30
0.0
 11
7.201999999999999
 21
14.36232268698012
 31
0.0
  0
LINE
  5
695
330
1F
100
AcDbEntity
  8
Object
100
AcDbLine
 10
7.201999999999999
 20
12.88532268698012
 30
0.0
 11
7.137999999999999
 21
12.96432268698012
 31
0.0
  0
LINE
  5
696
330
1F
100
AcDbEntity
  8
Object
100
AcDbLine
 10
7.079
 20
14.19432268698012
 30
0.0
 11
7.137999999999999
 21
14.28332268698012
 31
0.0
  0
LINE
  5
697
330
1F
100
AcDbEntity
  8
Object
100
AcDbLine
 10
7.137999999999999
 20
12.96432268698012
 30
0.0
 11
7.079
 21
13.05332268698012
 31
0.0
  0
LINE
  5
698
330
1F
100
AcDbEntity
  8
Object
100
AcDbLine
 10
7.027000000000001
 20
14.09632268698012
 30
0.0
 11
7.079
 21
14.19432268698012
 31
0.0
  0
LINE
  5
699
330
1F
100
AcDbEntity
  8
Object
100
AcDbLine
 10
7.079
 20
13.05332268698012
 30
0.0
 11
7.027000000000001
 21
13.15132268698012
 31
0.0
  0
LINE
  5
69A
330
1F
100
AcDbEntity
  8
Object
100
AcDbLine
 10
7.027000000000001
 20
13.15132268698012
 30
0.0
 11
7.004000000000001
 21
13.20332268698012
 31
0.0
  0
LINE
  5
69B
330
1F
100
AcDbEntity
  8
Object
100
AcDbLine
 10
7.027000000000001
 20
14.09632268698012
 30
0.0
 11
7.004000000000001
 21
14.04432268698012
 31
0.0
  0
LINE
  5
69C
330
1F
100
AcDbEntity
  8
Object
100
AcDbLine
 10
7.004000000000001
 20
14.04432268698012
 30
0.0
 11
6.983
 21
13.98932268698012
 31
0.0
  0
LINE
  5
69D
330
1F
100
AcDbEntity
  8
Object
100
AcDbLine
 10
7.004000000000001
 20
13.20332268698012
 30
0.0
 11
6.983
 21
13.25932268698012
 31
0.0
  0
LINE
  5
69E
330
1F
100
AcDbEntity
  8
Object
100
AcDbLine
 10
6.983
 20
13.25932268698012
 30
0.0
 11
6.964999999999999
 21
13.31632268698012
 31
0.0
  0
LINE
  5
69F
330
1F
100
AcDbEntity
  8
Object
100
AcDbLine
 10
6.983
 20
13.98932268698012
 30
0.0
 11
6.964999999999999
 21
13.93232268698012
 31
0.0
  0
LINE
  5
6A0
330
1F
100
AcDbEntity
  8
Object
100
AcDbLine
 10
6.964999999999999
 20
13.93232268698012
 30
0.0
 11
6.949999999999999
 21
13.87332268698012
 31
0.0
  0
LINE
  5
6A1
330
1F
100
AcDbEntity
  8
Object
100
AcDbLine
 10
6.937000000000001
 20
13.43632268698012
 30
0.0
 11
6.949999999999999
 21
13.37532268698012
 31
0.0
  0
LINE
  5
6A2
330
1F
100
AcDbEntity
  8
Object
100
AcDbLine
 10
6.949999999999999
 20
13.37532268698012
 30
0.0
 11
6.964999999999999
 21
13.31632268698012
 31
0.0
  0
LINE
  5
6A3
330
1F
100
AcDbEntity
  8
Object
100
AcDbLine
 10
6.949999999999999
 20
13.87332268698012
 30
0.0
 11
6.937000000000001
 21
13.81232268698012
 31
0.0
  0
LINE
  5
6A4
330
1F
100
AcDbEntity
  8
Object
100
AcDbLine
 10
6.937000000000001
 20
13.81232268698012
 30
0.0
 11
6.929
 21
13.75032268698012
 31
0.0
  0
LINE
  5
6A5
330
1F
100
AcDbEntity
  8
Object
100
AcDbLine
 10
6.920999999999999
 20
13.62432268698012
 30
0.0
 11
6.923
 21
13.56132268698012
 31
0.0
  0
LINE
  5
6A6
330
1F
100
AcDbEntity
  8
Object
100
AcDbLine
 10
6.923
 20
13.56132268698012
 30
0.0
 11
6.929
 21
13.49832268698012
 31
0.0
  0
LINE
  5
6A7
330
1F
100
AcDbEntity
  8
Object
100
AcDbLine
 10
6.929
 20
13.49832268698012
 30
0.0
 11
6.937000000000001
 21
13.43632268698012
 31
0.0
  0
LINE
  5
6A8
330
1F
100
AcDbEntity
  8
Object
100
AcDbLine
 10
6.929
 20
13.75032268698012
 30
0.0
 11
6.923
 21
13.68732268698012
 31
0.0
  0
LINE
  5
6A9
330
1F
100
AcDbEntity
  8
Object
100
AcDbLine
 10
6.923
 20
13.68732268698012
 30
0.0
 11
6.920999999999999
 21
13.62432268698012
 31
0.0
  0
LINE
  5
6AA
330
1F
100
AcDbEntity
  8
Object
100
AcDbLine
 10
8.855
 20
14.31132268698012
 30
0.0
 11
8.894999999999999
 21
14.31132268698012
 31
0.0
  0
LINE
  5
6AB
330
1F
100
AcDbEntity
  8
Object
100
AcDbLine
 10
8.768
 20
14.40532268698012
 30
0.0
 11
8.670999999999999
 21
14.48732268698012
 31
0.0
  0
LINE
  5
6AC
330
1F
100
AcDbEntity
  8
Object
100
AcDbLine
 10
8.670999999999999
 20
14.48732268698012
 30
0.0
 11
8.564
 21
14.55832268698012
 31
0.0
  0
LINE
  5
6AD
330
1F
100
AcDbEntity
  8
Object
100
AcDbLine
 10
8.449999999999999
 20
14.61532268698012
 30
0.0
 11
8.33
 21
14.65932268698012
 31
0.0
  0
LINE
  5
6AE
330
1F
100
AcDbEntity
  8
Object
100
AcDbLine
 10
8.33
 20
14.65932268698012
 30
0.0
 11
8.205999999999999
 21
14.68832268698012
 31
0.0
  0
LINE
  5
6AF
330
1F
100
AcDbEntity
  8
Object
100
AcDbLine
 10
8.205999999999999
 20
14.68832268698012
 30
0.0
 11
8.079
 21
14.70232268698012
 31
0.0
  0
LINE
  5
6B0
330
1F
100
AcDbEntity
  8
Object
100
AcDbLine
 10
8.022
 20
12.51432268698012
 30
0.0
 11
8.022
 21
12.54432268698012
 31
0.0
  0
LINE
  5
6B1
330
1F
100
AcDbEntity
  8
Object
100
AcDbLine
 10
7.951
 20
14.70132268698012
 30
0.0
 11
8.079
 21
14.70232268698012
 31
0.0
  0
LINE
  5
6B2
330
1F
100
AcDbEntity
  8
Object
100
AcDbLine
 10
8.022
 20
12.54432268698012
 30
0.0
 11
7.894999999999999
 21
12.55132268698012
 31
0.0
  0
LINE
  5
6B3
330
1F
100
AcDbEntity
  8
Object
100
AcDbLine
 10
7.967
 20
12.51432268698012
 30
0.0
 11
7.937999999999998
 21
12.51632268698012
 31
0.0
  0
LINE
  5
6B4
330
1F
100
AcDbEntity
  8
Object
100
AcDbLine
 10
7.937999999999998
 20
12.51632268698012
 30
0.0
 11
7.906
 21
12.51932268698012
 31
0.0
  0
LINE
  5
6B5
330
1F
100
AcDbEntity
  8
Object
100
AcDbLine
 10
7.824999999999999
 20
14.68532268698012
 30
0.0
 11
7.951
 21
14.70132268698012
 31
0.0
  0
LINE
  5
6B6
330
1F
100
AcDbEntity
  8
Object
100
AcDbLine
 10
7.814
 20
12.53232268698012
 30
0.0
 11
7.835
 21
12.52832268698012
 31
0.0
  0
LINE
  5
6B7
330
1F
100
AcDbEntity
  8
Object
100
AcDbLine
 10
7.894999999999999
 20
12.55132268698012
 30
0.0
 11
7.769
 21
12.57432268698012
 31
0.0
  0
LINE
  5
6B8
330
1F
100
AcDbEntity
  8
Object
100
AcDbLine
 10
7.814
 20
12.53232268698012
 30
0.0
 11
7.794
 21
12.53632268698012
 31
0.0
  0
LINE
  5
6B9
330
1F
100
AcDbEntity
  8
Object
100
AcDbLine
 10
7.794
 20
12.53632268698012
 30
0.0
 11
7.774
 21
12.54132268698012
 31
0.0
  0
LINE
  5
6BA
330
1F
100
AcDbEntity
  8
Object
100
AcDbLine
 10
7.754000000000001
 20
14.70132268698012
 30
0.0
 11
7.73
 21
14.69432268698012
 31
0.0
  0
LINE
  5
6BB
330
1F
100
AcDbEntity
  8
Object
100
AcDbLine
 10
7.701
 20
14.65532268698012
 30
0.0
 11
7.824999999999999
 21
14.68532268698012
 31
0.0
  0
LINE
  5
6BC
330
1F
100
AcDbEntity
  8
Object
100
AcDbLine
 10
7.769
 20
12.57432268698012
 30
0.0
 11
7.647
 21
12.61132268698012
 31
0.0
  0
LINE
  5
6BD
330
1F
100
AcDbEntity
  8
Object
100
AcDbLine
 10
7.580999999999999
 20
14.61032268698012
 30
0.0
 11
7.701
 21
14.65532268698012
 31
0.0
  0
LINE
  5
6BE
330
1F
100
AcDbEntity
  8
Object
100
AcDbLine
 10
7.647
 20
12.61132268698012
 30
0.0
 11
7.530000000000001
 21
12.66232268698012
 31
0.0
  0
LINE
  5
6BF
330
1F
100
AcDbEntity
  8
Object
100
AcDbLine
 10
7.530000000000001
 20
12.66232268698012
 30
0.0
 11
7.419999999999999
 21
12.72732268698012
 31
0.0
  0
LINE
  5
6C0
330
1F
100
AcDbEntity
  8
Object
100
AcDbLine
 10
7.362
 20
14.47932268698012
 30
0.0
 11
7.467999999999999
 21
14.55132268698012
 31
0.0
  0
LINE
  5
6C1
330
1F
100
AcDbEntity
  8
Object
100
AcDbLine
 10
7.419999999999999
 20
12.72732268698012
 30
0.0
 11
7.318000000000001
 21
12.80532268698012
 31
0.0
  0
LINE
  5
6C2
330
1F
100
AcDbEntity
  8
Object
100
AcDbLine
 10
7.266
 20
14.39532268698012
 30
0.0
 11
7.362
 21
14.47932268698012
 31
0.0
  0
LINE
  5
6C3
330
1F
100
AcDbEntity
  8
Object
100
AcDbLine
 10
7.318000000000001
 20
12.80532268698012
 30
0.0
 11
7.225999999999999
 21
12.89332268698012
 31
0.0
  0
LINE
  5
6C4
330
1F
100
AcDbEntity
  8
Object
100
AcDbLine
 10
7.179999999999999
 20
14.30032268698012
 30
0.0
 11
7.266
 21
14.39532268698012
 31
0.0
  0
LINE
  5
6C5
330
1F
100
AcDbEntity
  8
Object
100
AcDbLine
 10
7.225999999999999
 20
12.89332268698012
 30
0.0
 11
7.146
 21
12.99232268698012
 31
0.0
  0
LINE
  5
6C6
330
1F
100
AcDbEntity
  8
Object
100
AcDbLine
 10
7.105999999999999
 20
14.19632268698012
 30
0.0
 11
7.179999999999999
 21
14.30032268698012
 31
0.0
  0
LINE
  5
6C7
330
1F
100
AcDbEntity
  8
Object
100
AcDbLine
 10
7.146
 20
12.99232268698012
 30
0.0
 11
7.076999999999999
 21
13.10032268698012
 31
0.0
  0
LINE
  5
6C8
330
1F
100
AcDbEntity
  8
Object
100
AcDbLine
 10
7.044999999999999
 20
14.08432268698012
 30
0.0
 11
7.105999999999999
 21
14.19632268698012
 31
0.0
  0
LINE
  5
6C9
330
1F
100
AcDbEntity
  8
Object
100
AcDbLine
 10
7.076999999999999
 20
13.10032268698012
 30
0.0
 11
7.022
 21
13.21532268698012
 31
0.0
  0
LINE
  5
6CA
330
1F
100
AcDbEntity
  8
Object
100
AcDbLine
 10
6.998000000000001
 20
13.96632268698012
 30
0.0
 11
7.044999999999999
 21
14.08432268698012
 31
0.0
  0
LINE
  5
6CB
330
1F
100
AcDbEntity
  8
Object
100
AcDbLine
 10
7.022
 20
13.21532268698012
 30
0.0
 11
6.980999999999999
 21
13.33632268698012
 31
0.0
  0
LINE
  5
6CC
330
1F
100
AcDbEntity
  8
Object
100
AcDbLine
 10
6.964
 20
13.84232268698012
 30
0.0
 11
6.998000000000001
 21
13.96632268698012
 31
0.0
  0
LINE
  5
6CD
330
1F
100
AcDbEntity
  8
Object
100
AcDbLine
 10
6.980999999999999
 20
13.33632268698012
 30
0.0
 11
6.954
 21
13.46132268698012
 31
0.0
  0
LINE
  5
6CE
330
1F
100
AcDbEntity
  8
Object
100
AcDbLine
 10
6.945999999999999
 20
13.71632268698012
 30
0.0
 11
6.964
 21
13.84232268698012
 31
0.0
  0
LINE
  5
6CF
330
1F
100
AcDbEntity
  8
Object
100
AcDbLine
 10
6.954
 20
13.46132268698012
 30
0.0
 11
6.943000000000001
 21
13.58832268698012
 31
0.0
  0
LINE
  5
6D0
330
1F
100
AcDbEntity
  8
Object
100
AcDbLine
 10
6.943000000000001
 20
13.58832268698012
 30
0.0
 11
6.945999999999999
 21
13.71632268698012
 31
0.0
  0
LINE
  5
6D1
330
1F
100
AcDbEntity
  8
Object
100
AcDbLine
 10
6.791
 20
13.62432268698012
 30
0.0
 11
6.792999999999999
 21
13.68632268698012
 31
0.0
  0
LINE
  5
6D2
330
1F
100
AcDbEntity
  8
Object
100
AcDbLine
 10
6.792999999999999
 20
13.68632268698012
 30
0.0
 11
6.798999999999999
 21
13.74832268698012
 31
0.0
  0
LINE
  5
6D3
330
1F
100
AcDbEntity
  8
Object
100
AcDbLine
 10
6.798999999999999
 20
13.74832268698012
 30
0.0
 11
6.809000000000001
 21
13.80932268698012
 31
0.0
  0
LINE
  5
6D4
330
1F
100
AcDbEntity
  8
Object
100
AcDbLine
 10
6.809000000000001
 20
13.80932268698012
 30
0.0
 11
6.821999999999999
 21
13.86932268698012
 31
0.0
  0
LINE
  5
6D5
330
1F
100
AcDbEntity
  8
Object
100
AcDbLine
 10
6.821999999999999
 20
13.86932268698012
 30
0.0
 11
6.839
 21
13.92732268698012
 31
0.0
  0
LINE
  5
6D6
330
1F
100
AcDbEntity
  8
Object
100
AcDbLine
 10
6.839
 20
13.92732268698012
 30
0.0
 11
6.858999999999999
 21
13.98332268698012
 31
0.0
  0
LINE
  5
6D7
330
1F
100
AcDbEntity
  8
Object
100
AcDbLine
 10
6.858999999999999
 20
13.98332268698012
 30
0.0
 11
6.881
 21
14.03832268698012
 31
0.0
  0
LINE
  5
6D8
330
1F
100
AcDbEntity
  8
Object
100
AcDbLine
 10
6.963
 20
14.18632268698012
 30
0.0
 11
6.906
 21
14.09032268698012
 31
0.0
  0
LINE
  5
6D9
330
1F
100
AcDbEntity
  8
Object
100
AcDbLine
 10
6.906
 20
14.09032268698012
 30
0.0
 11
6.881
 21
14.03832268698012
 31
0.0
  0
LINE
  5
6DA
330
1F
100
AcDbEntity
  8
Object
100
AcDbLine
 10
6.963
 20
14.18632268698012
 30
0.0
 11
7.028
 21
14.27532268698012
 31
0.0
  0
LINE
  5
6DB
330
1F
100
AcDbEntity
  8
Object
100
AcDbLine
 10
7.028
 20
14.27532268698012
 30
0.0
 11
7.097999999999998
 21
14.35332268698012
 31
0.0
  0
LINE
  5
6DC
330
1F
100
AcDbEntity
  8
Object
100
AcDbLine
 10
7.097999999999998
 20
14.35332268698012
 30
0.0
 11
7.173
 21
14.42332268698012
 31
0.0
  0
LINE
  5
6DD
330
1F
100
AcDbEntity
  8
Object
100
AcDbLine
 10
7.173
 20
14.42332268698012
 30
0.0
 11
7.251000000000001
 21
14.48532268698012
 31
0.0
  0
LINE
  5
6DE
330
1F
100
AcDbEntity
  8
Object
100
AcDbLine
 10
7.251000000000001
 20
14.48532268698012
 30
0.0
 11
7.332
 21
14.53832268698012
 31
0.0
  0
LINE
  5
6DF
330
1F
100
AcDbEntity
  8
Object
100
AcDbLine
 10
7.332
 20
14.53832268698012
 30
0.0
 11
7.414000000000001
 21
14.58432268698012
 31
0.0
  0
LINE
  5
6E0
330
1F
100
AcDbEntity
  8
Object
100
AcDbLine
 10
7.414000000000001
 20
14.58432268698012
 30
0.0
 11
7.496
 21
14.62332268698012
 31
0.0
  0
LINE
  5
6E1
330
1F
100
AcDbEntity
  8
Object
100
AcDbLine
 10
7.496
 20
14.62332268698012
 30
0.0
 11
7.576999999999999
 21
14.65532268698012
 31
0.0
  0
LINE
  5
6E2
330
1F
100
AcDbEntity
  8
Object
100
AcDbLine
 10
7.576999999999999
 20
14.65532268698012
 30
0.0
 11
7.653
 21
14.67932268698012
 31
0.0
  0
LINE
  5
6E3
330
1F
100
AcDbEntity
  8
Object
100
AcDbLine
 10
7.653
 20
14.67932268698012
 30
0.0
 11
7.689
 21
14.68932268698012
 31
0.0
  0
LINE
  5
6E4
330
1F
100
AcDbEntity
  8
Object
100
AcDbLine
 10
7.689
 20
14.68932268698012
 30
0.0
 11
7.719000000000001
 21
14.69732268698012
 31
0.0
  0
LINE
  5
6E5
330
1F
100
AcDbEntity
  8
Object
100
AcDbLine
 10
7.745
 20
14.70332268698012
 30
0.0
 11
7.739
 21
14.70232268698012
 31
0.0
  0
LINE
  5
6E6
330
1F
100
AcDbEntity
  8
Object
100
AcDbLine
 10
7.739
 20
14.70232268698012
 30
0.0
 11
7.719000000000001
 21
14.69732268698012
 31
0.0
  0
LINE
  5
6E7
330
1F
100
AcDbEntity
  8
Object
100
AcDbLine
 10
7.745
 20
14.70332268698012
 30
0.0
 11
7.745
 21
14.70432268698012
 31
0.0
  0
LINE
  5
6E8
330
1F
100
AcDbEntity
  8
Object
100
AcDbLine
 10
8.747999999999999
 20
14.31132268698012
 30
0.0
 11
8.73
 21
14.33032268698012
 31
0.0
  0
LINE
  5
6E9
330
1F
100
AcDbEntity
  8
Object
100
AcDbLine
 10
8.73
 20
14.33032268698012
 30
0.0
 11
8.711999999999999
 21
14.34832268698012
 31
0.0
  0
LINE
  5
6EA
330
1F
100
AcDbEntity
  8
Object
100
AcDbLine
 10
8.711999999999999
 20
14.34832268698012
 30
0.0
 11
8.692
 21
14.36632268698012
 31
0.0
  0
LINE
  5
6EB
330
1F
100
AcDbEntity
  8
Object
100
AcDbLine
 10
8.590999999999999
 20
14.44632268698012
 30
0.0
 11
8.487999999999999
 21
14.50932268698012
 31
0.0
  0
LINE
  5
6EC
330
1F
100
AcDbEntity
  8
Object
100
AcDbLine
 10
8.487999999999999
 20
14.50932268698012
 30
0.0
 11
8.378
 21
14.55832268698012
 31
0.0
  0
LINE
  5
6ED
330
1F
100
AcDbEntity
  8
Object
100
AcDbLine
 10
8.378
 20
14.55832268698012
 30
0.0
 11
8.262
 21
14.59432268698012
 31
0.0
  0
LINE
  5
6EE
330
1F
100
AcDbEntity
  8
Object
100
AcDbLine
 10
8.262
 20
14.59432268698012
 30
0.0
 11
8.143
 21
14.61632268698012
 31
0.0
  0
LINE
  5
6EF
330
1F
100
AcDbEntity
  8
Object
100
AcDbLine
 10
8.143
 20
14.61632268698012
 30
0.0
 11
8.022
 21
14.62432268698012
 31
0.0
  0
LINE
  5
6F0
330
1F
100
AcDbEntity
  8
Object
100
AcDbLine
 10
8.894999999999999
 20
14.31132268698012
 30
0.0
 11
8.855
 21
14.31132268698012
 31
0.0
  0
LINE
  5
6F1
330
1F
100
AcDbEntity
  8
Object
100
AcDbLine
 10
8.855
 20
14.31132268698012
 30
0.0
 11
8.747999999999999
 21
14.31132268698012
 31
0.0
  0
LINE
  5
6F2
330
1F
100
AcDbEntity
  8
Object
100
AcDbLine
 10
8.022
 20
12.62432268698012
 30
0.0
 11
8.022
 21
12.54432268698012
 31
0.0
  0
LINE
  5
6F3
102
{ACAD_REACTORS
330
79A
102
}
330
1F
100
AcDbEntity
  8
Object
100
AcDbLine
 10
8.022
 20
12.54432268698012
 30
0.0
 11
8.022
 21
12.51432268698012
 31
0.0
  0
LINE
  5
6F4
330
1F
100
AcDbEntity
  8
Object
100
AcDbLine
 10
8.768
 20
14.40532268698012
 30
0.0
 11
8.855
 21
14.31132268698012
 31
0.0
  0
LINE
  5
6F5
330
1F
100
AcDbEntity
  8
Object
100
AcDbLine
 10
8.855
 20
14.31132268698012
 30
0.0
 11
8.747999999999999
 21
14.31132268698012
 31
0.0
  0
LINE
  5
6F6
330
1F
100
AcDbEntity
  8
Object
100
AcDbLine
 10
8.682
 20
14.36732268698012
 30
0.0
 11
8.679
 21
14.36632268698012
 31
0.0
  0
LINE
  5
6F7
330
1F
100
AcDbEntity
  8
Object
100
AcDbLine
 10
8.679
 20
14.36632268698012
 30
0.0
 11
8.676999999999999
 21
14.36432268698012
 31
0.0
  0
LINE
  5
6F8
330
1F
100
AcDbEntity
  8
Object
100
AcDbLine
 10
8.676999999999999
 20
14.36432268698012
 30
0.0
 11
8.676
 21
14.36132268698012
 31
0.0
  0
LINE
  5
6F9
330
1F
100
AcDbEntity
  8
Object
100
AcDbLine
 10
8.676
 20
14.36132268698012
 30
0.0
 11
8.676
 21
14.35832268698012
 31
0.0
  0
LINE
  5
6FA
330
1F
100
AcDbEntity
  8
Object
100
AcDbLine
 10
8.676
 20
14.35832268698012
 30
0.0
 11
8.676
 21
14.31132268698012
 31
0.0
  0
LINE
  5
6FB
330
1F
100
AcDbEntity
  8
Object
100
AcDbLine
 10
8.676
 20
14.31132268698012
 30
0.0
 11
8.596
 21
14.31132268698012
 31
0.0
  0
LINE
  5
6FC
330
1F
100
AcDbEntity
  8
Object
100
AcDbLine
 10
8.596
 20
14.31132268698012
 30
0.0
 11
8.596
 21
14.43832268698012
 31
0.0
  0
LINE
  5
6FD
330
1F
100
AcDbEntity
  8
Object
100
AcDbLine
 10
8.596
 20
14.43832268698012
 30
0.0
 11
8.595
 21
14.44232268698012
 31
0.0
  0
LINE
  5
6FE
330
1F
100
AcDbEntity
  8
Object
100
AcDbLine
 10
8.595
 20
14.44232268698012
 30
0.0
 11
8.590999999999999
 21
14.44632268698012
 31
0.0
  0
LINE
  5
6FF
330
1F
100
AcDbEntity
  8
Object
100
AcDbLine
 10
8.564
 20
14.55832268698012
 30
0.0
 11
8.449999999999999
 21
14.61532268698012
 31
0.0
  0
LINE
  5
700
330
1F
100
AcDbEntity
  8
Object
100
AcDbLine
 10
7.9
 20
12.63132268698012
 30
0.0
 11
8.022
 21
12.62432268698012
 31
0.0
  0
LINE
  5
701
330
1F
100
AcDbEntity
  8
Object
100
AcDbLine
 10
8.022
 20
12.62432268698012
 30
0.0
 11
8.022
 21
12.54432268698012
 31
0.0
  0
LINE
  5
702
330
1F
100
AcDbEntity
  8
Object
100
AcDbLine
 10
7.9
 20
12.63132268698012
 30
0.0
 11
7.780000000000001
 21
12.65432268698012
 31
0.0
  0
LINE
  5
703
330
1F
100
AcDbEntity
  8
Object
100
AcDbLine
 10
7.780000000000001
 20
12.65432268698012
 30
0.0
 11
7.663
 21
12.69132268698012
 31
0.0
  0
LINE
  5
704
330
1F
100
AcDbEntity
  8
Object
100
AcDbLine
 10
7.663
 20
12.69132268698012
 30
0.0
 11
7.551
 21
12.74132268698012
 31
0.0
  0
LINE
  5
705
330
1F
100
AcDbEntity
  8
Object
100
AcDbLine
 10
7.469000000000001
 20
14.45632268698012
 30
0.0
 11
7.57
 21
14.51632268698012
 31
0.0
  0
LINE
  5
706
330
1F
100
AcDbEntity
  8
Object
100
AcDbLine
 10
7.580999999999999
 20
14.61032268698012
 30
0.0
 11
7.467999999999999
 21
14.55132268698012
 31
0.0
  0
LINE
  5
707
330
1F
100
AcDbEntity
  8
Object
100
AcDbLine
 10
7.551
 20
12.74132268698012
 30
0.0
 11
7.446999999999999
 21
12.80632268698012
 31
0.0
  0
LINE
  5
708
330
1F
100
AcDbEntity
  8
Object
100
AcDbLine
 10
7.375
 20
14.38632268698012
 30
0.0
 11
7.469000000000001
 21
14.45632268698012
 31
0.0
  0
LINE
  5
709
330
1F
100
AcDbEntity
  8
Object
100
AcDbLine
 10
7.455
 20
14.19932268698012
 30
0.0
 11
7.455
 21
14.11932268698012
 31
0.0
  0
LINE
  5
70A
330
1F
100
AcDbEntity
  8
Object
100
AcDbLine
 10
7.455
 20
14.11932268698012
 30
0.0
 11
7.32
 21
14.11932268698012
 31
0.0
  0
LINE
  5
70B
330
1F
100
AcDbEntity
  8
Object
100
AcDbLine
 10
7.446999999999999
 20
12.80632268698012
 30
0.0
 11
7.350999999999999
 21
12.88232268698012
 31
0.0
  0
LINE
  5
70C
330
1F
100
AcDbEntity
  8
Object
100
AcDbLine
 10
7.289999999999999
 20
14.30532268698012
 30
0.0
 11
7.375
 21
14.38632268698012
 31
0.0
  0
LINE
  5
70D
330
1F
100
AcDbEntity
  8
Object
100
AcDbLine
 10
7.350999999999999
 20
12.88232268698012
 30
0.0
 11
7.266
 21
12.97032268698012
 31
0.0
  0
LINE
  5
70E
330
1F
100
AcDbEntity
  8
Object
100
AcDbLine
 10
7.455
 20
14.19932268698012
 30
0.0
 11
7.222999999999998
 21
14.19932268698012
 31
0.0
  0
LINE
  5
70F
330
1F
100
AcDbEntity
  8
Object
100
AcDbLine
 10
7.32
 20
14.11932268698012
 30
0.0
 11
7.315000000000001
 21
14.09332268698012
 31
0.0
  0
LINE
  5
710
330
1F
100
AcDbEntity
  8
Object
100
AcDbLine
 10
7.315000000000001
 20
14.09332268698012
 30
0.0
 11
7.3
 21
14.07132268698012
 31
0.0
  0
LINE
  5
711
330
1F
100
AcDbEntity
  8
Object
100
AcDbLine
 10
7.3
 20
14.07132268698012
 30
0.0
 11
7.278999999999999
 21
14.05732268698012
 31
0.0
  0
LINE
  5
712
330
1F
100
AcDbEntity
  8
Object
100
AcDbLine
 10
7.278999999999999
 20
14.05732268698012
 30
0.0
 11
7.253
 21
14.05232268698012
 31
0.0
  0
LINE
  5
713
330
1F
100
AcDbEntity
  8
Object
100
AcDbLine
 10
7.253
 20
14.05232268698012
 30
0.0
 11
7.227999999999999
 21
14.05732268698012
 31
0.0
  0
LINE
  5
714
330
1F
100
AcDbEntity
  8
Object
100
AcDbLine
 10
7.227999999999999
 20
14.05732268698012
 30
0.0
 11
7.205999999999999
 21
14.07132268698012
 31
0.0
  0
LINE
  5
715
330
1F
100
AcDbEntity
  8
Object
100
AcDbLine
 10
7.205999999999999
 20
14.07132268698012
 30
0.0
 11
7.190999999999998
 21
14.09332268698012
 31
0.0
  0
LINE
  5
716
330
1F
100
AcDbEntity
  8
Object
100
AcDbLine
 10
7.216000000000001
 20
14.20232268698012
 30
0.0
 11
7.217999999999999
 21
14.20032268698012
 31
0.0
  0
LINE
  5
717
330
1F
100
AcDbEntity
  8
Object
100
AcDbLine
 10
7.217999999999999
 20
14.20032268698012
 30
0.0
 11
7.221
 21
14.19932268698012
 31
0.0
  0
LINE
  5
718
330
1F
100
AcDbEntity
  8
Object
100
AcDbLine
 10
7.221
 20
14.19932268698012
 30
0.0
 11
7.222999999999998
 21
14.19932268698012
 31
0.0
  0
LINE
  5
719
330
1F
100
AcDbEntity
  8
Object
100
AcDbLine
 10
7.185999999999999
 20
14.11932268698012
 30
0.0
 11
7.190999999999998
 21
14.09332268698012
 31
0.0
  0
LINE
  5
71A
330
1F
100
AcDbEntity
  8
Object
100
AcDbLine
 10
7.289999999999999
 20
14.30532268698012
 30
0.0
 11
7.214999999999999
 21
14.21532268698012
 31
0.0
  0
LINE
  5
71B
330
1F
100
AcDbEntity
  8
Object
100
AcDbLine
 10
7.214999999999999
 20
14.21532268698012
 30
0.0
 11
7.214
 21
14.21232268698012
 31
0.0
  0
LINE
  5
71C
330
1F
100
AcDbEntity
  8
Object
100
AcDbLine
 10
7.216000000000001
 20
14.20232268698012
 30
0.0
 11
7.214
 21
14.20432268698012
 31
0.0
  0
LINE
  5
71D
330
1F
100
AcDbEntity
  8
Object
100
AcDbLine
 10
7.266
 20
12.97032268698012
 30
0.0
 11
7.192
 21
13.06732268698012
 31
0.0
  0
LINE
  5
71E
330
1F
100
AcDbEntity
  8
Object
100
AcDbLine
 10
7.213
 20
14.20932268698012
 30
0.0
 11
7.214
 21
14.21232268698012
 31
0.0
  0
LINE
  5
71F
330
1F
100
AcDbEntity
  8
Object
100
AcDbLine
 10
7.156
 20
14.11832268698012
 30
0.0
 11
7.153999999999999
 21
14.11732268698012
 31
0.0
  0
LINE
  5
720
330
1F
100
AcDbEntity
  8
Object
100
AcDbLine
 10
7.153999999999999
 20
14.11732268698012
 30
0.0
 11
7.152000000000001
 21
14.11632268698012
 31
0.0
  0
LINE
  5
721
330
1F
100
AcDbEntity
  8
Object
100
AcDbLine
 10
7.152000000000001
 20
14.11632268698012
 30
0.0
 11
7.15
 21
14.11432268698012
 31
0.0
  0
LINE
  5
722
330
1F
100
AcDbEntity
  8
Object
100
AcDbLine
 10
7.213
 20
14.20932268698012
 30
0.0
 11
7.214
 21
14.20732268698012
 31
0.0
  0
LINE
  5
723
330
1F
100
AcDbEntity
  8
Object
100
AcDbLine
 10
7.214
 20
14.20732268698012
 30
0.0
 11
7.214
 21
14.20432268698012
 31
0.0
  0
LINE
  5
724
330
1F
100
AcDbEntity
  8
Object
100
AcDbLine
 10
7.156
 20
14.11832268698012
 30
0.0
 11
7.158999999999998
 21
14.11932268698012
 31
0.0
  0
LINE
  5
725
330
1F
100
AcDbEntity
  8
Object
100
AcDbLine
 10
7.192
 20
13.06732268698012
 30
0.0
 11
7.129999999999999
 21
13.17332268698012
 31
0.0
  0
LINE
  5
726
330
1F
100
AcDbEntity
  8
Object
100
AcDbLine
 10
7.097000000000001
 20
14.00332268698012
 30
0.0
 11
7.15
 21
14.11432268698012
 31
0.0
  0
LINE
  5
727
330
1F
100
AcDbEntity
  8
Object
100
AcDbLine
 10
7.129999999999999
 20
13.17332268698012
 30
0.0
 11
7.080999999999999
 21
13.28532268698012
 31
0.0
  0
LINE
  5
728
330
1F
100
AcDbEntity
  8
Object
100
AcDbLine
 10
7.057
 20
13.88732268698012
 30
0.0
 11
7.097000000000001
 21
14.00332268698012
 31
0.0
  0
LINE
  5
729
330
1F
100
AcDbEntity
  8
Object
100
AcDbLine
 10
7.080999999999999
 20
13.28532268698012
 30
0.0
 11
7.047
 21
13.40232268698012
 31
0.0
  0
LINE
  5
72A
330
1F
100
AcDbEntity
  8
Object
100
AcDbLine
 10
7.032
 20
13.76832268698012
 30
0.0
 11
7.057
 21
13.88732268698012
 31
0.0
  0
LINE
  5
72B
330
1F
100
AcDbEntity
  8
Object
100
AcDbLine
 10
7.047
 20
13.40232268698012
 30
0.0
 11
7.027000000000001
 21
13.52332268698012
 31
0.0
  0
LINE
  5
72C
330
1F
100
AcDbEntity
  8
Object
100
AcDbLine
 10
7.032
 20
13.76832268698012
 30
0.0
 11
7.022
 21
13.64632268698012
 31
0.0
  0
LINE
  5
72D
330
1F
100
AcDbEntity
  8
Object
100
AcDbLine
 10
7.022
 20
13.64632268698012
 30
0.0
 11
7.027000000000001
 21
13.52332268698012
 31
0.0
  0
LINE
  5
72E
330
1F
100
AcDbEntity
  8
Object
100
AcDbLine
 10
8.686999999999999
 20
14.36832268698012
 30
0.0
 11
8.689999999999999
 21
14.36732268698012
 31
0.0
  0
LINE
  5
72F
330
1F
100
AcDbEntity
  8
Object
100
AcDbLine
 10
8.689999999999999
 20
14.36732268698012
 30
0.0
 11
8.692
 21
14.36632268698012
 31
0.0
  0
LINE
  5
730
330
1F
100
AcDbEntity
  8
Object
100
AcDbLine
 10
8.682
 20
14.36732268698012
 30
0.0
 11
8.684000000000001
 21
14.36832268698012
 31
0.0
  0
LINE
  5
731
330
1F
100
AcDbEntity
  8
Object
100
AcDbLine
 10
8.684000000000001
 20
14.36832268698012
 30
0.0
 11
8.686999999999999
 21
14.36832268698012
 31
0.0
  0
LINE
  5
732
330
1F
100
AcDbEntity
  8
Object
100
AcDbLine
 10
8.596
 20
14.31132268698012
 30
0.0
 11
8.676
 21
14.31132268698012
 31
0.0
  0
LINE
  5
733
330
1F
100
AcDbEntity
  8
Object
100
AcDbLine
 10
7.158999999999998
 20
14.11932268698012
 30
0.0
 11
7.185999999999999
 21
14.11932268698012
 31
0.0
  0
LINE
  5
734
330
1F
100
AcDbEntity
  8
Object
100
AcDbLine
 10
7.455
 20
14.11932268698012
 30
0.0
 11
7.455
 21
14.19932268698012
 31
0.0
  0
TEXT
  5
735
330
1F
100
AcDbEntity
  8
Title Block
100
AcDbText
 10
17.77669501265554
 20
2.672489851525508
 30
0.0
 40
0.05
  1
FILENAME:
100
AcDbText
  0
TEXT
  5
736
330
1F
100
AcDbEntity
  8
Title Block
100
AcDbText
 10
17.76928502872825
 20
2.076224967549325
 30
0.0
 40
0.35
  1
PANDUIT
100
AcDbText
  0
TEXT
  5
737
330
1F
100
AcDbEntity
  8
Title Block
100
AcDbText
 10
19.72182039882138
 20
2.061410940562986
 30
0.0
 40
0.125
  1
CORP. TINLEY PARK, IL
100
AcDbText
  0
TEXT
  5
738
330
1F
100
AcDbEntity
  8
Title Block
100
AcDbText
 10
17.78039997670861
 20
1.91697409709392
 30
0.0
 40
0.05
  1
TITLE:
100
AcDbText
  0
MTEXT
  5
739
330
1F
100
AcDbEntity
  8
Title Block
100
AcDbMText
 10
19.0
 20
1.372215793536348
 30
0.0
 40
0.075
 41
2.5
 71
     5
 72
     5
  1
UNLESS OTHERWISE SPECIFIED,\PDIMENSIONAL TOLERANCES ARE:       
 73
     1
 44
1.0
1001
ACAD
1000
MTEXTBEGIN
1070
    73
1070
     1
1070
    44
1040
1.0
1070
    74
1070
     0
1000
MTEXTEND
  0
MTEXT
  5
73A
330
1F
100
AcDbEntity
  8
Title Block
100
AcDbMText
 10
18.39237986661001
 20
1.131487708483632
 30
0.0
 40
0.075
 41
2.5
 71
     5
 72
     5
  1
(.X)\P(.XX)
 73
     1
 44
1.0
1001
ACAD
1000
MTEXTBEGIN
1070
    73
1070
     1
1070
    44
1040
1.0
1070
    74
1070
     0
1000
MTEXTEND
  0
MTEXT
  5
73B
330
1F
100
AcDbEntity
  8
Title Block
100
AcDbMText
 10
19.40014005312411
 20
1.131487708483632
 30
0.0
 40
0.075
 41
2.5
 71
     5
 72
     5
  1
(.XXX)\PANGLES:
 73
     1
 44
1.0
1001
ACAD
1000
MTEXTBEGIN
1070
    73
1070
     1
1070
    44
1040
1.0
1070
    74
1070
     0
1000
MTEXTEND
  0
MTEXT
  5
73C
330
1F
100
AcDbEntity
  8
Title Block
100
AcDbMText
 10
21.0
 20
1.25
 30
0.0
 40
0.06
 41
1.5
 71
     5
 72
     5
  1
UNLESS OTHERWISE SPECIFIED,\PALL DIMENSIONS ARE GIVEN IN INCHES, THIRD ANGLE PROJECTION
 73
     1
 44
1.0
1001
ACAD
1000
MTEXTBEGIN
1070
    73
1070
     1
1070
    44
1040
1.0
1070
    74
1070
     0
1000
MTEXTEND
  0
TEXT
  5
73D
330
1F
100
AcDbEntity
  8
Title Block
100
AcDbText
 10
17.76076445430618
 20
0.9281373372752312
 30
0.0
 40
0.05
  1
DRAWN BY:
100
AcDbText
  0
TEXT
  5
73E
330
1F
100
AcDbEntity
  8
Title Block
100
AcDbText
 10
17.76446947418043
 20
0.6811431865635028
 30
0.0
 40
0.05
  1
DATE:
100
AcDbText
  0
TEXT
  5
73F
330
1F
100
AcDbEntity
  8
Title Block
100
AcDbText
 10
17.76817443823349
 20
0.4304455338317968
 30
0.0
 40
0.05
  1
CHECKED BY:
100
AcDbText
  0
TEXT
  5
740
330
1F
100
AcDbEntity
  8
Title Block
100
AcDbText
 10
18.52028959313306
 20
0.9281373372752312
 30
0.0
 40
0.05
  1
MATERIAL:
100
AcDbText
  0
TEXT
  5
741
330
1F
100
AcDbEntity
  8
Title Block
100
AcDbText
 10
20.26534493878154
 20
0.9281373372752312
 30
0.0
 40
0.05
  1
SCALE:
100
AcDbText
  0
TEXT
  5
742
330
1F
100
AcDbEntity
  8
Title Block
100
AcDbText
 10
20.26534493878154
 20
0.6725952630490007
 30
0.0
 40
0.05
  1
DRAWING NUMBER:
100
AcDbText
  0
TEXT
  5
743
330
1F
100
AcDbEntity
  8
Title Block
100
AcDbText
 10
21.34942622928997
 20
0.6762987650689816
 30
0.0
 40
0.05
  1
DRAWING
100
AcDbText
  0
TEXT
  5
744
330
1F
100
AcDbEntity
  8
Title Block
100
AcDbText
 10
21.42723125590085
 20
0.2811642688682026
 30
0.0
 40
0.05
  1
SIZE
100
AcDbText
  0
TEXT
  5
745
330
1F
100
AcDbEntity
  8
Title Block
100
AcDbText
 10
21.39373130657865
 20
0.3826699445861052
 30
0.0
 40
0.25
  1
C
100
AcDbText
  0
MTEXT
  5
746
330
1F
100
AcDbEntity
  8
Title Block
100
AcDbMText
 10
11.37499999999999
 20
0.375
 30
0.0
 40
0.05
 41
0.25
 71
     5
 72
     5
  1
REV
 73
     1
 44
1.0
1001
ACAD
1000
MTEXTBEGIN
1070
    73
1070
     1
1070
    44
1040
1.0
1070
    74
1070
     0
1000
MTEXTEND
  0
MTEXT
  5
747
330
1F
100
AcDbEntity
  8
Title Block
100
AcDbMText
 10
11.74999999999999
 20
0.375
 30
0.0
 40
0.05
 41
0.5
 71
     5
 72
     5
  1
DATE
 73
     1
 44
1.0
1001
ACAD
1000
MTEXTBEGIN
1070
    73
1070
     1
1070
    44
1040
1.0
1070
    74
1070
     0
1000
MTEXTEND
  0
MTEXT
  5
748
330
1F
100
AcDbEntity
  8
Title Block
100
AcDbMText
 10
12.18999999999999
 20
0.375
 30
0.0
 40
0.05
 41
0.38
 71
     5
 72
     5
  1
BY
 73
     1
 44
1.0
1001
ACAD
1000
MTEXTBEGIN
1070
    73
1070
     1
1070
    44
1040
1.0
1070
    74
1070
     0
1000
MTEXTEND
  0
MTEXT
  5
749
330
1F
100
AcDbEntity
  8
Title Block
100
AcDbMText
 10
12.56499999999999
 20
0.375
 30
0.0
 40
0.05
 41
0.38
 71
     5
 72
     5
  1
CHK
 73
     1
 44
1.0
1001
ACAD
1000
MTEXTBEGIN
1070
    73
1070
     1
1070
    44
1040
1.0
1070
    74
1070
     0
1000
MTEXTEND
  0
MTEXT
  5
74A
330
1F
100
AcDbEntity
  8
Title Block
100
AcDbMText
 10
14.12499999999999
 20
0.375
 30
0.0
 40
0.05
 41
2.75
 71
     5
 72
     5
  1
DESCRIPTION
 73
     1
 44
1.0
1001
ACAD
1000
MTEXTBEGIN
1070
    73
1070
     1
1070
    44
1040
1.0
1070
    74
1070
     0
1000
MTEXTEND
  0
MTEXT
  5
74B
330
1F
100
AcDbEntity
  8
Title Block
100
AcDbMText
 10
16.065
 20
0.375
 30
0.0
 40
0.05
 41
1.129999999999999
 71
     5
 72
     5
  1
ECN   -   R
 73
     1
 44
1.0
1001
ACAD
1000
MTEXTBEGIN
1070
    73
1070
     1
1070
    44
1040
1.0
1070
    74
1070
     0
1000
MTEXTEND
  0
MTEXT
  5
74C
330
1F
100
AcDbEntity
  8
Title Block
100
AcDbMText
 10
16.81499999999999
 20
0.375
 30
0.0
 40
0.05
 41
0.38
 71
     5
 72
     5
  1
CUST
 73
     1
 44
1.0
1001
ACAD
1000
MTEXTBEGIN
1070
    73
1070
     1
1070
    44
1040
1.0
1070
    74
1070
     0
1000
MTEXTEND
  0
MTEXT
  5
74D
330
1F
100
AcDbEntity
  8
Title Block
100
AcDbMText
 10
17.19
 20
0.375
 30
0.0
 40
0.05
 41
0.38
 71
     5
 72
     5
  1
SUP
 73
     1
 44
1.0
1001
ACAD
1000
MTEXTBEGIN
1070
    73
1070
     1
1070
    44
1040
1.0
1070
    74
1070
     0
1000
MTEXTEND
  0
LINE
  5
74E
330
1F
100
AcDbEntity
  8
Title Block
100
AcDbLine
 10
21.75
 20
2.749999999999999
 30
0.0
 11
11.25
 21
2.75
 31
0.0
  0
LINE
  5
74F
330
1F
100
AcDbEntity
  8
Title Block
100
AcDbLine
 10
17.74999999999999
 20
2.75
 30
0.0
 11
17.74999999999999
 21
0.25
 31
0.0
  0
LINE
  5
750
330
1F
100
AcDbEntity
  8
Title Block
100
AcDbLine
 10
21.75
 20
2.499999999999999
 30
0.0
 11
11.25
 21
2.5
 31
0.0
  0
LINE
  5
751
330
1F
100
AcDbEntity
  8
Title Block
100
AcDbLine
 10
17.74999999999999
 20
2.25
 30
0.0
 11
11.25
 21
2.25
 31
0.0
  0
LINE
  5
752
330
1F
100
AcDbEntity
  8
Title Block
100
AcDbLine
 10
21.75
 20
1.999999999999999
 30
0.0
 11
11.25
 21
2.0
 31
0.0
  0
LINE
  5
753
330
1F
100
AcDbEntity
  8
Title Block
100
AcDbLine
 10
17.74999999999999
 20
1.75
 30
0.0
 11
11.25
 21
1.75
 31
0.0
  0
LINE
  5
754
330
1F
100
AcDbEntity
  8
Title Block
100
AcDbLine
 10
21.75
 20
1.499999999999999
 30
0.0
 11
11.25
 21
1.5
 31
0.0
  0
LINE
  5
755
330
1F
100
AcDbEntity
  8
Title Block
100
AcDbLine
 10
17.74999999999999
 20
1.25
 30
0.0
 11
11.25
 21
1.25
 31
0.0
  0
LINE
  5
756
330
1F
100
AcDbEntity
  8
Title Block
100
AcDbLine
 10
21.75
 20
0.9999999999999996
 30
0.0
 11
11.25
 21
1.0
 31
0.0
  0
LINE
  5
757
330
1F
100
AcDbEntity
  8
Title Block
100
AcDbLine
 10
18.49999999999999
 20
0.75
 30
0.0
 11
11.25
 21
0.7500000000000009
 31
0.0
  0
LINE
  5
758
330
1F
100
AcDbEntity
  8
Title Block
100
AcDbLine
 10
18.49999999999999
 20
0.5
 30
0.0
 11
11.25
 21
0.5000000000000009
 31
0.0
  0
LINE
  5
759
330
1F
100
AcDbEntity
  8
Title Block
100
AcDbLine
 10
11.25
 20
0.25
 30
0.0
 11
11.25
 21
2.75
 31
0.0
  0
LINE
  5
75A
330
1F
100
AcDbEntity
  8
Title Block
100
AcDbLine
 10
11.49999999999999
 20
0.25
 30
0.0
 11
11.49999999999999
 21
2.750000000000001
 31
0.0
  0
LINE
  5
75B
330
1F
100
AcDbEntity
  8
Title Block
100
AcDbLine
 10
11.99999999999999
 20
0.25
 30
0.0
 11
11.99999999999999
 21
2.750000000000001
 31
0.0
  0
LINE
  5
75C
330
1F
100
AcDbEntity
  8
Title Block
100
AcDbLine
 10
12.375
 20
0.25
 30
0.0
 11
12.375
 21
2.750000000000001
 31
0.0
  0
LINE
  5
75D
330
1F
100
AcDbEntity
  8
Title Block
100
AcDbLine
 10
12.74999999999999
 20
0.25
 30
0.0
 11
12.74999999999999
 21
2.750000000000001
 31
0.0
  0
LINE
  5
75E
330
1F
100
AcDbEntity
  8
Title Block
100
AcDbLine
 10
17.375
 20
2.75
 30
0.0
 11
17.375
 21
0.25
 31
0.0
  0
LINE
  5
75F
330
1F
100
AcDbEntity
  8
Title Block
100
AcDbLine
 10
17.0
 20
2.75
 30
0.0
 11
17.0
 21
0.25
 31
0.0
  0
LINE
  5
760
330
1F
100
AcDbEntity
  8
Title Block
100
AcDbLine
 10
16.62499999999999
 20
2.75
 30
0.0
 11
16.62499999999999
 21
0.25
 31
0.0
  0
LINE
  5
761
330
1F
100
AcDbEntity
  8
Title Block
100
AcDbLine
 10
16.25
 20
2.75
 30
0.0
 11
16.25
 21
0.5000000000000002
 31
0.0
  0
LINE
  5
762
330
1F
100
AcDbEntity
  8
Title Block
100
AcDbLine
 10
15.5
 20
2.75
 30
0.0
 11
15.5
 21
0.25
 31
0.0
  0
LINE
  5
763
330
1F
100
AcDbEntity
  8
Title Block
100
AcDbLine
 10
20.25
 20
0.75
 30
0.0
 11
20.25
 21
1.499999999999999
 31
0.0
  0
LINE
  5
764
330
1F
100
AcDbEntity
  8
Title Block
100
AcDbLine
 10
20.25
 20
0.75
 30
0.0
 11
20.25
 21
0.25
 31
0.0
  0
LINE
  5
765
330
1F
100
AcDbEntity
  8
Title Block
100
AcDbLine
 10
20.25
 20
0.75
 30
0.0
 11
21.75
 21
0.75
 31
0.0
  0
LINE
  5
766
330
1F
100
AcDbEntity
  8
Title Block
100
AcDbLine
 10
18.49999999999999
 20
0.5
 30
0.0
 11
18.49999999999999
 21
0.25
 31
0.0
  0
LINE
  5
767
330
1F
100
AcDbEntity
  8
Title Block
100
AcDbLine
 10
18.49999999999999
 20
0.5
 30
0.0
 11
18.49999999999999
 21
1.0
 31
0.0
  0
LINE
  5
768
330
1F
100
AcDbEntity
  8
Title Block
100
AcDbLine
 10
21.25
 20
0.75
 30
0.0
 11
21.25
 21
0.25
 31
0.0
  0
LWPOLYLINE
  5
769
330
1F
100
AcDbEntity
  8
Title Block
100
AcDbPolyline
 90
        4
 70
     1
 43
0.01
 10
21.75
 20
16.75
 10
21.75
 20
0.25
 10
0.25
 20
0.25
 10
0.250000000000001
 20
16.75
  0
POINT
  5
76A
330
1F
100
AcDbEntity
  8
Title Block
100
AcDbPoint
 10
22.0
 20
0.0
 30
0.0
  0
POINT
  5
76B
330
1F
100
AcDbEntity
  8
Title Block
100
AcDbPoint
 10
22.0
 20
17.0
 30
0.0
  0
POINT
  5
76C
330
1F
100
AcDbEntity
  8
Title Block
100
AcDbPoint
 10
0.000000000000001
 20
17.0
 30
0.0
  0
POINT
  5
76D
330
1F
100
AcDbEntity
  8
Title Block
100
AcDbPoint
 10
0.0
 20
0.0
 30
0.0
  0
MTEXT
  5
76E
330
1F
100
AcDbEntity
  8
Text
100
AcDbMText
 10
11.37324893148254
 20
0.6275685908585027
 30
0.0
 40
0.09
 41
0.25
 71
     5
 72
     5
  1
R
 73
     1
 44
1.0
1001
ACAD
1000
MTEXTBEGIN
1070
    73
1070
     1
1070
    44
1040
1.0
1070
    74
1070
     0
1000
MTEXTEND
  0
MTEXT
  5
76F
330
1F
100
AcDbEntity
  8
Text
100
AcDbMText
 10
11.74824893148254
 20
0.6275685908585027
 30
0.0
 40
0.07
 41
0.5
 71
     5
 72
     5
  1
1-5-01
 73
     1
 44
1.0
1001
ACAD
1000
MTEXTBEGIN
1070
    73
1070
     1
1070
    44
1040
1.0
1070
    74
1070
     0
1000
MTEXTEND
  0
MTEXT
  5
770
330
1F
100
AcDbEntity
  8
Text
100
AcDbMText
 10
12.18574893148254
 20
0.6275685908585027
 30
0.0
 40
0.09
 41
0.375
 71
     5
 72
     5
  1
MSO
 73
     1
 44
1.0
1001
ACAD
1000
MTEXTBEGIN
1070
    73
1070
     1
1070
    44
1040
1.0
1070
    74
1070
     0
1000
MTEXTEND
  0
MTEXT
  5
771
330
1F
100
AcDbEntity
  8
Text
100
AcDbMText
 10
12.56074893148254
 20
0.6275685908585027
 30
0.0
 40
0.09
 41
0.375
 71
     5
 72
     5
  1
HIW
 73
     1
 44
1.0
1001
ACAD
1000
MTEXTBEGIN
1070
    73
1070
     1
1070
    44
1040
1.0
1070
    74
1070
     0
1000
MTEXTEND
  0
MTEXT
  5
772
330
1F
100
AcDbEntity
  8
Text
100
AcDbMText
 10
14.12324893148254
 20
0.6275685908585023
 30
0.0
 40
0.09
 41
2.75
 71
     5
 72
     5
  1
DRAWING RELEASED
 73
     1
 44
1.0
1001
ACAD
1000
MTEXTBEGIN
1070
    73
1070
     1
1070
    44
1040
1.0
1070
    74
1070
     0
1000
MTEXTEND
  0
MTEXT
  5
775
330
1F
100
AcDbEntity
  8
Text
100
AcDbMText
 10
18.47324893148254
 20
0.8525685908585018
 30
0.0
 40
0.09
 41
0.75
 71
     6
 72
     5
  1
MSO
 73
     1
 44
1.0
1001
ACAD
1000
MTEXTBEGIN
1070
    73
1070
     1
1070
    44
1040
1.0
1070
    74
1070
     0
1000
MTEXTEND
  0
MTEXT
  5
776
330
1F
100
AcDbEntity
  8
Text
100
AcDbMText
 10
18.47324893148254
 20
0.6025685908585017
 30
0.0
 40
0.09
 41
0.75
 71
     6
 72
     5
  1
1-5-01
 73
     1
 44
1.0
1001
ACAD
1000
MTEXTBEGIN
1070
    73
1070
     1
1070
    44
1040
1.0
1070
    74
1070
     0
1000
MTEXTEND
  0
MTEXT
  5
777
330
1F
100
AcDbEntity
  8
Text
100
AcDbMText
 10
18.47324893148254
 20
0.3525685908585019
 30
0.0
 40
0.09
 41
0.75
 71
     6
 72
     5
  1
HIW
 73
     1
 44
1.0
1001
ACAD
1000
MTEXTBEGIN
1070
    73
1070
     1
1070
    44
1040
1.0
1070
    74
1070
     0
1000
MTEXTEND
  0
MTEXT
  5
778
330
1F
100
AcDbEntity
  8
Text
100
AcDbMText
 10
19.74824893148254
 20
2.627568590858501
 30
0.0
 40
0.09
 41
4.0
 71
     5
 72
     5
  1
TRC4BL.dwg
 73
     1
 44
1.0
1001
ACAD
1000
MTEXTBEGIN
1070
    73
1070
     1
1070
    44
1040
1.0
1070
    74
1070
     0
1000
MTEXTEND
  0
MTEXT
  5
779
330
1F
100
AcDbEntity
  8
Text
100
AcDbMText
 10
19.74824893148254
 20
1.752568590858501
 30
0.0
 40
0.09
 41
4.0
 71
     5
 72
     5
  1
FIBER-DUCT 4x4 AND PANDUCT FS AND G WIRING DUCT\PBEND RADIUS CONTROL TRUMPET (TRC4BL)\PMARKETING DRAWING
 73
     1
 44
1.0
1001
ACAD
1000
MTEXTBEGIN
1070
    73
1070
     1
1070
    44
1040
1.0
1070
    74
1070
     0
1000
MTEXTEND
  0
MTEXT
  5
77A
330
1F
100
AcDbEntity
  8
Text
100
AcDbMText
 10
20.99824893148254
 20
0.8775685908585016
 30
0.0
 40
0.12
 41
1.5
 71
     5
 72
     5
  1
FULL
 73
     1
 44
1.0
1001
ACAD
1000
MTEXTBEGIN
1070
    73
1070
     1
1070
    44
1040
1.0
1070
    74
1070
     0
1000
MTEXTEND
  0
MTEXT
  5
77B
330
1F
100
AcDbEntity
  8
Text
100
AcDbMText
 10
20.74824893148254
 20
0.5025685908585018
 30
0.0
 40
0.12
 41
1.0
 71
     5
 72
     5
  1
36897-623
 73
     1
 44
1.0
1001
ACAD
1000
MTEXTBEGIN
1070
    73
1070
     1
1070
    44
1040
1.0
1070
    74
1070
     0
1000
MTEXTEND
  0
DIMENSION
  5
780
102
{ACAD_XDICTIONARY
360
78F
102
}
102
{ACAD_REACTORS
330
79A
102
}
330
1F
100
AcDbEntity
  8
Dimension
100
AcDbDimension
  2
*D1
 10
10.68361554106395
 20
14.73532268698012
 30
0.0
 11
10.68361554106394
 21
13.62482268698012
 31
0.0
 70
    32
 71
     5
 42
2.221
  3
Standard
100
AcDbAlignedDimension
 13
8.022
 23
12.51432268698012
 33
0.0
 14
8.022999999999999
 24
14.73532268698012
 34
0.0
 50
90.0
100
AcDbRotatedDimension
  0
DIMENSION
  5
7A6
102
{ACAD_XDICTIONARY
360
7B4
102
}
102
{ACAD_REACTORS
330
7BF
102
}
330
1F
100
AcDbEntity
  8
Dimension
100
AcDbDimension
  2
*D2
 10
8.894999999999999
 20
9.728219805736358
 30
0.0
 11
6.163999999999999
 21
9.728219805736358
 31
0.0
 70
    32
 71
     5
 42
5.461999999999999
  3
Standard
100
AcDbAlignedDimension
 13
3.432999999999999
 23
4.889322686980124
 33
0.0
 14
8.894999999999999
 24
4.889322686980124
 34
0.0
100
AcDbRotatedDimension
  0
DIMENSION
  5
7C1
330
1F
100
AcDbEntity
  8
Dimension
100
AcDbDimension
  2
*D3
 10
13.87134836797117
 20
8.467322686980123
 30
0.0
 11
13.87134836797117
 21
6.625822686980126
 31
0.0
 70
    32
  1
3.68 [93.6mm]
 71
     5
 42
3.682999999999999
  3
Standard
100
AcDbAlignedDimension
 13
17.331
 23
4.784322686980123
 33
0.0
 14
15.833
 24
8.467322686980123
 34
0.0
 50
90.0
100
AcDbRotatedDimension
  0
TEXT
  5
7DC
330
1F
100
AcDbEntity
  8
Text
100
AcDbText
 10
5.755379409376395
 20
11.89201610815632
 30
0.0
 40
0.125
  1
TOP VIEW
100
AcDbText
  0
TEXT
  5
7DD
330
1F
100
AcDbEntity
  8
Text
100
AcDbText
 10
5.6462350012374
 20
4.070434780875293
 30
0.0
 40
0.125
  1
FRONT VIEW
100
AcDbText
  0
TEXT
  5
7DE
330
1F
100
AcDbEntity
  8
Text
100
AcDbText
 10
16.27036216835381
 20
4.072198593304964
 30
0.0
 40
0.125
  1
RIGHT SIDE VIEW
100
AcDbText
  0
MTEXT
  5
7E5
330
1F
100
AcDbEntity
  8
Text
100
AcDbMText
 10
11.37324893148254
 20
0.8775685908585026
 30
0.0
 40
0.09
 41
0.25
 71
     5
 72
     5
  1
1
 73
     1
 44
1.0
1001
ACAD
1000
MTEXTBEGIN
1070
    73
1070
     1
1070
    44
1040
1.0
1070
    74
1070
     0
1000
MTEXTEND
  0
MTEXT
  5
7E6
330
1F
100
AcDbEntity
  8
Text
100
AcDbMText
 10
11.74824893148254
 20
0.8775685908585026
 30
0.0
 40
0.07
 41
0.5
 71
     5
 72
     5
  1
5-12-05
 73
     1
 44
1.0
1001
ACAD
1000
MTEXTBEGIN
1070
    73
1070
     1
1070
    44
1040
1.0
1070
    74
1070
     0
1000
MTEXTEND
  0
MTEXT
  5
7E7
330
1F
100
AcDbEntity
  8
Text
100
AcDbMText
 10
12.18574893148254
 20
0.8775685908585026
 30
0.0
 40
0.09
 41
0.375
 71
     5
 72
     5
  1
MSO
 73
     1
 44
1.0
1001
ACAD
1000
MTEXTBEGIN
1070
    73
1070
     1
1070
    44
1040
1.0
1070
    74
1070
     0
1000
MTEXTEND
  0
MTEXT
  5
7E8
330
1F
100
AcDbEntity
  8
Text
100
AcDbMText
 10
12.56074893148254
 20
0.8775685908585026
 30
0.0
 40
0.07
 41
0.375
 71
     5
 72
     5
  1
DJWA
 73
     1
 44
1.0
1001
ACAD
1000
MTEXTBEGIN
1070
    73
1070
     1
1070
    44
1040
1.0
1070
    74
1070
     0
1000
MTEXTEND
  0
MTEXT
  5
7E9
330
1F
100
AcDbEntity
  8
Text
100
AcDbMText
 10
12.77324893148254
 20
0.8775685908585021
 30
0.0
 40
0.07
 41
2.75
 71
     4
 72
     5
  1
B. REVISED PART GEOMETRY.\PA. REVISED DRAWING TITLE.
 73
     1
 44
1.0
1001
ACAD
1000
MTEXTBEGIN
1070
    73
1070
     1
1070
    44
1040
1.0
1070
    74
1070
     0
1000
MTEXTEND
  0
MTEXT
  5
7ED
330
1F
100
AcDbEntity
  8
Text
100
AcDbMText
 10
11.37324893148254
 20
1.127568590858502
 30
0.0
 40
0.09
 41
0.25
 71
     5
 72
     5
  1
-
 73
     1
 44
1.0
1001
ACAD
1000
MTEXTBEGIN
1070
    73
1070
     1
1070
    44
1040
1.0
1070
    74
1070
     0
1000
MTEXTEND
  0
MTEXT
  5
7EE
330
1F
100
AcDbEntity
  8
Text
100
AcDbMText
 10
11.74824893148254
 20
1.127568590858502
 30
0.0
 40
0.07
 41
0.5
 71
     5
 72
     5
  1
--------
 73
     1
 44
1.0
1001
ACAD
1000
MTEXTBEGIN
1070
    73
1070
     1
1070
    44
1040
1.0
1070
    74
1070
     0
1000
MTEXTEND
  0
MTEXT
  5
7EF
330
1F
100
AcDbEntity
  8
Text
100
AcDbMText
 10
12.18574893148254
 20
1.127568590858502
 30
0.0
 40
0.09
 41
0.375
 71
     5
 72
     5
  1
---
 73
     1
 44
1.0
1001
ACAD
1000
MTEXTBEGIN
1070
    73
1070
     1
1070
    44
1040
1.0
1070
    74
1070
     0
1000
MTEXTEND
  0
MTEXT
  5
7F0
330
1F
100
AcDbEntity
  8
Text
100
AcDbMText
 10
12.56074893148254
 20
1.127568590858502
 30
0.0
 40
0.07
 41
0.375
 71
     5
 72
     5
  1
----
 73
     1
 44
1.0
1001
ACAD
1000
MTEXTBEGIN
1070
    73
1070
     1
1070
    44
1040
1.0
1070
    74
1070
     0
1000
MTEXTEND
  0
MTEXT
  5
7F4
330
1F
100
AcDbEntity
  8
Text
100
AcDbMText
 10
12.77324893148254
 20
1.127568590858502
 30
0.0
 40
0.07
 41
2.75
 71
     4
 72
     5
  1
C. REVISED DIMENSIONS.
 73
     1
 44
1.0
1001
ACAD
1000
MTEXTBEGIN
1070
    73
1070
     1
1070
    44
1040
1.0
1070
    74
1070
     0
1000
MTEXTEND
  0
LINE
  5
7F8
330
1F
100
AcDbEntity
  8
Text
100
AcDbLine
 10
17.77499999999999
 20
1.524999999999999
 30
0.0
 11
18.07499999999999
 21
1.524999999999999
 31
0.0
  0
LINE
  5
7F9
330
1F
100
AcDbEntity
  8
Text
100
AcDbLine
 10
18.07499999999999
 20
1.524999999999999
 30
0.0
 11
17.92499999999999
 21
1.784807621135336
 31
0.0
  0
LINE
  5
7FA
330
1F
100
AcDbEntity
  8
Text
100
AcDbLine
 10
17.77499999999999
 20
1.524999999999999
 30
0.0
 11
17.92499999999999
 21
1.784807621135335
 31
0.0
  0
TEXT
  5
7FB
330
1F
100
AcDbEntity
  8
Text
100
AcDbText
 10
17.88553591460605
 20
1.578611454134376
 30
0.0
 40
0.09
  1
A
100
AcDbText
  0
LINE
  5
809
330
1F
100
AcDbEntity
  8
Text
100
AcDbLine
 10
5.460273686745896
 20
11.83176043051213
 30
0.0
 11
5.760273686745897
 21
11.83176043051213
 31
0.0
  0
LINE
  5
80A
330
1F
100
AcDbEntity
  8
Text
100
AcDbLine
 10
5.760273686745897
 20
11.83176043051213
 30
0.0
 11
5.610273686745898
 21
12.09156805164747
 31
0.0
  0
LINE
  5
80B
330
1F
100
AcDbEntity
  8
Text
100
AcDbLine
 10
5.460273686745896
 20
11.83176043051213
 30
0.0
 11
5.610273686745898
 21
12.09156805164747
 31
0.0
  0
TEXT
  5
80C
330
1F
100
AcDbEntity
  8
Text
100
AcDbText
 10
5.570809601351957
 20
11.88537188464651
 30
0.0
 40
0.09
  1
B
100
AcDbText
  0
LINE
  5
80D
330
1F
100
AcDbEntity
  8
Text
100
AcDbLine
 10
5.992338761678876
 20
9.89477557589921
 30
0.0
 11
6.292338761678877
 21
9.89477557589921
 31
0.0
  0
LINE
  5
80E
330
1F
100
AcDbEntity
  8
Text
100
AcDbLine
 10
6.292338761678877
 20
9.89477557589921
 30
0.0
 11
6.142338761678878
 21
10.15458319703454
 31
0.0
  0
LINE
  5
80F
330
1F
100
AcDbEntity
  8
Text
100
AcDbLine
 10
5.992338761678876
 20
9.89477557589921
 30
0.0
 11
6.142338761678878
 21
10.15458319703454
 31
0.0
  0
TEXT
  5
810
330
1F
100
AcDbEntity
  8
Text
100
AcDbText
 10
6.102874676284937
 20
9.948387030033586
 30
0.0
 40
0.09
  1
C
100
AcDbText
  0
LINE
  5
811
330
1F
100
AcDbEntity
  8
Text
100
AcDbLine
 10
5.325048230262421
 20
3.991332722330994
 30
0.0
 11
5.625048230262422
 21
3.991332722330994
 31
0.0
  0
LINE
  5
812
330
1F
100
AcDbEntity
  8
Text
100
AcDbLine
 10
5.625048230262422
 20
3.991332722330994
 30
0.0
 11
5.475048230262423
 21
4.251140343466331
 31
0.0
  0
LINE
  5
813
330
1F
100
AcDbEntity
  8
Text
100
AcDbLine
 10
5.325048230262421
 20
3.991332722330994
 30
0.0
 11
5.475048230262423
 21
4.25114034346633
 31
0.0
  0
TEXT
  5
814
330
1F
100
AcDbEntity
  8
Text
100
AcDbText
 10
5.435584144868482
 20
4.044944176465371
 30
0.0
 40
0.09
  1
B
100
AcDbText
  0
LINE
  5
815
330
1F
100
AcDbEntity
  8
Text
100
AcDbLine
 10
12.96391732351191
 20
6.496139176750444
 30
0.0
 11
13.26391732351191
 21
6.496139176750444
 31
0.0
  0
LINE
  5
816
330
1F
100
AcDbEntity
  8
Text
100
AcDbLine
 10
13.26391732351191
 20
6.496139176750444
 30
0.0
 11
13.11391732351191
 21
6.75594679788578
 31
0.0
  0
LINE
  5
817
330
1F
100
AcDbEntity
  8
Text
100
AcDbLine
 10
12.96391732351191
 20
6.496139176750444
 30
0.0
 11
13.11391732351191
 21
6.75594679788578
 31
0.0
  0
TEXT
  5
818
330
1F
100
AcDbEntity
  8
Text
100
AcDbText
 10
13.07445323811797
 20
6.549750630884821
 30
0.0
 40
0.09
  1
C
100
AcDbText
  0
LINE
  5
819
330
1F
100
AcDbEntity
  8
Text
100
AcDbLine
 10
15.9658408285442
 20
3.982066980335559
 30
0.0
 11
16.2658408285442
 21
3.982066980335559
 31
0.0
  0
LINE
  5
81A
330
1F
100
AcDbEntity
  8
Text
100
AcDbLine
 10
16.2658408285442
 20
3.982066980335559
 30
0.0
 11
16.1158408285442
 21
4.241874601470896
 31
0.0
  0
LINE
  5
81B
330
1F
100
AcDbEntity
  8
Text
100
AcDbLine
 10
15.9658408285442
 20
3.982066980335559
 30
0.0
 11
16.1158408285442
 21
4.241874601470895
 31
0.0
  0
TEXT
  5
81C
330
1F
100
AcDbEntity
  8
Text
100
AcDbText
 10
16.07637674315026
 20
4.035678434469936
 30
0.0
 40
0.09
  1
B
100
AcDbText
  0
MTEXT
  5
835
330
1F
100
AcDbEntity
  8
Text
100
AcDbMText
 10
11.37324893148254
 20
1.377568590858502
 30
0.0
 40
0.09
 41
0.25
 71
     5
 72
     5
  1
2
 73
     1
 44
1.0
1001
ACAD
1000
MTEXTBEGIN
1070
    73
1070
     1
1070
    44
1040
1.0
1070
    74
1070
     0
1000
MTEXTEND
  0
MTEXT
  5
836
330
1F
100
AcDbEntity
  8
Text
100
AcDbMText
 10
11.74824893148254
 20
1.377568590858502
 30
0.0
 40
0.07
 41
0.5
 71
     5
 72
     5
  1
10-14-05
 73
     1
 44
1.0
1001
ACAD
1000
MTEXTBEGIN
1070
    73
1070
     1
1070
    44
1040
1.0
1070
    74
1070
     0
1000
MTEXTEND
  0
MTEXT
  5
837
330
1F
100
AcDbEntity
  8
Text
100
AcDbMText
 10
12.18574893148254
 20
1.377568590858502
 30
0.0
 40
0.09
 41
0.375
 71
     5
 72
     5
  1
MSO
 73
     1
 44
1.0
1001
ACAD
1000
MTEXTBEGIN
1070
    73
1070
     1
1070
    44
1040
1.0
1070
    74
1070
     0
1000
MTEXTEND
  0
MTEXT
  5
838
330
1F
100
AcDbEntity
  8
Text
100
AcDbMText
 10
12.56074893148254
 20
1.377568590858502
 30
0.0
 40
0.07
 41
0.375
 71
     5
 72
     5
  1
DJWA
 73
     1
 44
1.0
1001
ACAD
1000
MTEXTBEGIN
1070
    73
1070
     1
1070
    44
1040
1.0
1070
    74
1070
     0
1000
MTEXTEND
  0
MTEXT
  5
839
330
1F
100
AcDbEntity
  8
Text
100
AcDbMText
 10
12.77324893148254
 20
1.377568590858502
 30
0.0
 40
0.07
 41
2.75
 71
     4
 72
     5
  1
D. REVISED DRAWING TITLE.
 73
     1
 44
1.0
1001
ACAD
1000
MTEXTBEGIN
1070
    73
1070
     1
1070
    44
1040
1.0
1070
    74
1070
     0
1000
MTEXTEND
  0
LINE
  5
83E
330
1F
100
AcDbEntity
  8
Text
100
AcDbLine
 10
18.10096937271847
 20
1.524999999999999
 30
0.0
 11
18.40096937271847
 21
1.524999999999999
 31
0.0
  0
LINE
  5
83F
330
1F
100
AcDbEntity
  8
Text
100
AcDbLine
 10
18.40096937271847
 20
1.524999999999999
 30
0.0
 11
18.25096937271847
 21
1.784807621135336
 31
0.0
  0
LINE
  5
840
330
1F
100
AcDbEntity
  8
Text
100
AcDbLine
 10
18.10096937271847
 20
1.524999999999999
 30
0.0
 11
18.25096937271847
 21
1.784807621135335
 31
0.0
  0
TEXT
  5
841
330
1F
100
AcDbEntity
  8
Text
100
AcDbText
 10
18.21964764361216
 20
1.578611454134376
 30
0.0
 40
0.09
  1
D
100
AcDbText
  0
MTEXT
  5
89D
330
1F
100
AcDbEntity
  8
Text
100
AcDbMText
 10
11.37324893148254
 20
1.627568590858502
 30
0.0
 40
0.09
 41
0.25
 71
     5
 72
     5
  1
3
 73
     1
 44
1.0
1001
ACAD
1000
MTEXTBEGIN
1070
    73
1070
     1
1070
    44
1040
1.0
1070
    74
1070
     0
1000
MTEXTEND
  0
MTEXT
  5
89E
330
1F
100
AcDbEntity
  8
Text
100
AcDbMText
 10
11.74824893148254
 20
1.627568590858502
 30
0.0
 40
0.07
 41
0.5
 71
     5
 72
     5
  1
6-6-07
 73
     1
 44
1.0
1001
ACAD
1000
MTEXTBEGIN
1070
    73
1070
     1
1070
    44
1040
1.0
1070
    74
1070
     0
1000
MTEXTEND
  0
MTEXT
  5
89F
330
1F
100
AcDbEntity
  8
Text
100
AcDbMText
 10
12.18574893148254
 20
1.627568590858502
 30
0.0
 40
0.09
 41
0.375
 71
     5
 72
     5
  1
DTP
 73
     1
 44
1.0
1001
ACAD
1000
MTEXTBEGIN
1070
    73
1070
     1
1070
    44
1040
1.0
1070
    74
1070
     0
1000
MTEXTEND
  0
MTEXT
  5
8A0
330
1F
100
AcDbEntity
  8
Text
100
AcDbMText
 10
12.56074893148254
 20
1.627568590858502
 30
0.0
 40
0.07
 41
0.375
 71
     5
 72
     5
  1
DJWA
 73
     1
 44
1.0
1001
ACAD
1000
MTEXTBEGIN
1070
    73
1070
     1
1070
    44
1040
1.0
1070
    74
1070
     0
1000
MTEXTEND
  0
MTEXT
  5
8A1
330
1F
100
AcDbEntity
  8
Text
100
AcDbMText
 10
12.77324893148254
 20
1.627568590858502
 30
0.0
 40
0.07
 41
2.75
 71
     4
 72
     5
  1
F. REVISED DIMENSION.\PE. REVISED DRAWING TITLE.
 73
     1
 44
1.0
1001
ACAD
1000
MTEXTBEGIN
1070
    73
1070
     1
1070
    44
1040
1.0
1070
    74
1070
     0
1000
MTEXTEND
  0
LINE
  5
8A2
330
1F
100
AcDbEntity
  8
Text
100
AcDbLine
 10
21.40861599672874
 20
1.524999999999999
 30
0.0
 11
21.70861599672873
 21
1.524999999999999
 31
0.0
  0
LINE
  5
8A3
330
1F
100
AcDbEntity
  8
Text
100
AcDbLine
 10
21.70861599672873
 20
1.524999999999999
 30
0.0
 11
21.55861599672874
 21
1.784807621135336
 31
0.0
  0
LINE
  5
8A4
330
1F
100
AcDbEntity
  8
Text
100
AcDbLine
 10
21.40861599672874
 20
1.524999999999999
 30
0.0
 11
21.55861599672874
 21
1.784807621135335
 31
0.0
  0
TEXT
  5
8A5
330
1F
100
AcDbEntity
  8
Text
100
AcDbText
 10
21.52729426762243
 20
1.578611454134376
 30
0.0
 40
0.09
  1
E
100
AcDbText
  0
LINE
  5
8A6
330
1F
100
AcDbEntity
  8
Text
100
AcDbLine
 10
12.61499422296491
 20
6.490596054605198
 30
0.0
 11
12.91499422296492
 21
6.490596054605198
 31
0.0
  0
LINE
  5
8A7
330
1F
100
AcDbEntity
  8
Text
100
AcDbLine
 10
12.91499422296492
 20
6.490596054605198
 30
0.0
 11
12.76499422296492
 21
6.750403675740534
 31
0.0
  0
LINE
  5
8A8
330
1F
100
AcDbEntity
  8
Text
100
AcDbLine
 10
12.61499422296491
 20
6.490596054605198
 30
0.0
 11
12.76499422296492
 21
6.750403675740534
 31
0.0
  0
TEXT
  5
8A9
330
1F
100
AcDbEntity
  8
Text
100
AcDbText
 10
12.73367249385861
 20
6.544207508739575
 30
0.0
 40
0.09
  1
F
100
AcDbText
  0
ENDSEC
  0
SECTION
  2
OBJECTS
  0
DICTIONARY
  5
C
330
0
100
AcDbDictionary
281
     1
  3
ACAD_COLOR
350
73
  3
ACAD_GROUP
350
D
  3
ACAD_LAYOUT
350
1A
  3
ACAD_MATERIAL
350
72
  3
ACAD_MLINESTYLE
350
17
  3
ACAD_PLOTSETTINGS
350
19
  3
ACAD_PLOTSTYLENAME
350
E
  3
ACAD_TABLESTYLE
350
86
  3
ACDBHEADERROUNDTRIPXREC
350
8C8
  3
AcDbVariableDictionary
350
66
  0
DICTIONARY
  5
77D
330
1F
100
AcDbDictionary
280
     1
281
     1
  3
ACAD_SORTENTS
360
77E
  0
DICTIONARY
  5
78F
330
780
100
AcDbDictionary
280
     1
281
     1
  3
ACAD_DIMASSOC
360
79A
  0
DICTIONARY
  5
7B4
330
7A6
100
AcDbDictionary
280
     1
281
     1
  3
ACAD_DIMASSOC
360
7BF
  0
DICTIONARY
  5
73
102
{ACAD_REACTORS
330
C
102
}
330
C
100
AcDbDictionary
281
     1
  0
DICTIONARY
  5
D
102
{ACAD_REACTORS
330
C
102
}
330
C
100
AcDbDictionary
281
     1
  0
DICTIONARY
  5
1A
102
{ACAD_REACTORS
330
C
102
}
330
C
100
AcDbDictionary
281
     1
  3
Layout1
350
59
  3
Layout2
350
5E
  3
Model
350
22
  0
DICTIONARY
  5
72
102
{ACAD_REACTORS
330
C
102
}
330
C
100
AcDbDictionary
281
     1
  0
DICTIONARY
  5
17
102
{ACAD_REACTORS
330
C
102
}
330
C
100
AcDbDictionary
281
     1
  3
Standard
350
18
  0
DICTIONARY
  5
19
102
{ACAD_REACTORS
330
C
102
}
330
C
100
AcDbDictionary
281
     1
  0
ACDBDICTIONARYWDFLT
  5
E
102
{ACAD_REACTORS
330
C
102
}
330
C
100
AcDbDictionary
281
     1
  3
Normal
350
F
100
AcDbDictionaryWithDefault
340
F
  0
DICTIONARY
  5
86
102
{ACAD_REACTORS
330
C
102
}
330
C
100
AcDbDictionary
281
     1
  3
Standard
350
87
  0
DICTIONARY
  5
8C8
102
{ACAD_REACTORS
330
C
102
}
330
C
100
AcDbDictionary
281
     1
  0
DICTIONARY
  5
66
102
{ACAD_REACTORS
330
C
102
}
330
C
100
AcDbDictionary
281
     1
  3
CTABLESTYLE
350
805
  3
DIMASSOC
350
67
  3
HIDETEXT
350
6B
  3
PROJECTNAME
350
8C6
  0
SORTENTSTABLE
  5
77E
102
{ACAD_REACTORS
330
77D
102
}
330
77D
100
AcDbSortentsTable
330
1F
331
384
  5
3CC
331
365
  5
3AD
331
545
  5
58D
331
346
  5
38E
331
526
  5
56E
331
327
  5
36F
331
310
  5
358
331
4F0
  5
538
331
2F1
  5
339
331
2D2
  5
31A
331
4B2
  5
4FA
331
2B3
  5
2FB
331
493
  5
4DB
331
29C
  5
2E4
331
27D
  5
2C5
331
45D
  5
4A5
331
25E
  5
2A6
331
43E
  5
486
331
23F
  5
287
331
209
  5
251
331
1EA
  5
232
331
3CA
  5
412
331
1CB
  5
213
331
3AB
  5
3F3
331
3E9
  5
431
331
41F
  5
467
331
47C
  5
4C4
331
4D1
  5
519
331
507
  5
54F
331
564
  5
5AC
331
6D8
  5
720
331
6A2
  5
6EA
331
664
  5
6AC
331
62E
  5
676
331
5F0
  5
638
331
5D9
  5
621
331
59B
  5
5E3
331
57C
  5
5C4
331
5BA
  5
602
331
60F
  5
657
331
64D
  5
695
331
683
  5
6CB
331
6C1
  5
709
331
565
  5
5AD
331
546
  5
58E
331
527
  5
56F
331
366
  5
3AE
331
508
  5
550
331
4F1
  5
539
331
328
  5
370
331
4D2
  5
51A
331
4B3
  5
4FB
331
2F2
  5
33A
331
494
  5
4DC
331
2D3
  5
31B
331
47D
  5
4C5
331
45E
  5
4A6
331
29D
  5
2E5
331
43F
  5
487
331
420
  5
468
331
25F
  5
2A7
331
3EA
  5
432
331
3CB
  5
413
331
20A
  5
252
331
3AC
  5
3F4
331
1CC
  5
214
331
1EB
  5
233
331
240
  5
288
331
27E
  5
2C6
331
2B4
  5
2FC
331
311
  5
359
331
347
  5
38F
331
385
  5
3CD
331
6F8
  5
740
331
6C2
  5
70A
331
684
  5
6CC
331
64E
  5
696
331
610
  5
658
331
5F1
  5
639
331
5BB
  5
603
331
57D
  5
5C5
331
59C
  5
5E4
331
5DA
  5
622
331
62F
  5
677
331
665
  5
6AD
331
6A3
  5
6EB
331
6D9
  5
721
331
566
  5
5AE
331
547
  5
58F
331
386
  5
3CE
331
528
  5
570
331
509
  5
551
331
348
  5
390
331
4F2
  5
53A
331
329
  5
371
331
4D3
  5
51B
331
4B4
  5
4FC
331
2F3
  5
33B
331
495
  5
4DD
331
47E
  5
4C6
331
2B5
  5
2FD
331
45F
  5
4A7
331
440
  5
488
331
27F
  5
2C7
331
421
  5
469
331
260
  5
2A8
331
3EB
  5
433
331
3CC
  5
414
331
3AD
  5
3F5
331
1EC
  5
234
331
1CD
  5
215
331
20B
  5
253
331
241
  5
289
331
29E
  5
2E6
331
2D4
  5
31C
331
312
  5
35A
331
367
  5
3AF
331
6F9
  5
741
331
6DA
  5
722
331
6A4
  5
6EC
331
666
  5
6AE
331
630
  5
678
331
5F2
  5
63A
331
5DB
  5
623
331
59D
  5
5E5
331
57E
  5
5C6
331
5BC
  5
604
331
611
  5
659
331
64F
  5
697
331
685
  5
6CD
331
6C3
  5
70B
331
718
  5
760
331
567
  5
5AF
331
548
  5
590
331
529
  5
571
331
368
  5
3B0
331
50A
  5
552
331
4F3
  5
53B
331
32A
  5
372
331
4D4
  5
51C
331
313
  5
35B
331
4B5
  5
4FD
331
496
  5
4DE
331
2D5
  5
31D
331
47F
  5
4C7
331
2B6
  5
2FE
331
460
  5
4A8
331
441
  5
489
331
280
  5
2C8
331
422
  5
46A
331
3EC
  5
434
331
3CD
  5
415
331
20C
  5
254
331
3AE
  5
3F6
331
1CE
  5
216
331
1ED
  5
235
331
242
  5
28A
331
261
  5
2A9
331
29F
  5
2E7
331
2F4
  5
33C
331
349
  5
391
331
387
  5
3CF
331
719
  5
761
331
6FA
  5
742
331
6C4
  5
70C
331
686
  5
6CE
331
667
  5
6AF
331
612
  5
65A
331
5F3
  5
63B
331
5BD
  5
605
331
57F
  5
5C7
331
59E
  5
5E6
331
5DC
  5
624
331
631
  5
679
331
650
  5
698
331
6A5
  5
6ED
331
6DB
  5
723
331
738
  5
1A5
331
568
  5
5B0
331
549
  5
591
331
388
  5
3D0
331
52A
  5
572
331
50B
  5
553
331
34A
  5
392
331
4F4
  5
53C
331
32B
  5
373
331
4D5
  5
51D
331
4B6
  5
4FE
331
2F5
  5
33D
331
497
  5
4DF
331
461
  5
4A9
331
442
  5
48A
331
281
  5
2C9
331
423
  5
46B
331
262
  5
2AA
331
3ED
  5
435
331
3CE
  5
416
331
3AF
  5
3F7
331
1EE
  5
236
331
1CF
  5
217
331
20D
  5
255
331
243
  5
28B
331
2B7
  5
2FF
331
2D6
  5
31E
331
314
  5
35C
331
369
  5
3B1
331
739
  5
1A6
331
71A
  5
762
331
6DC
  5
724
331
6A6
  5
6EE
331
668
  5
6B0
331
632
  5
67A
331
613
  5
65B
331
5DD
  5
625
331
59F
  5
5E7
331
580
  5
5C8
331
5BE
  5
606
331
5F4
  5
63C
331
651
  5
699
331
687
  5
6CF
331
6C5
  5
70D
331
6FB
  5
743
331
569
  5
5B1
331
54A
  5
592
331
52B
  5
573
331
36A
  5
3B2
331
50C
  5
554
331
4F5
  5
53D
331
32C
  5
374
331
4D6
  5
51E
331
315
  5
35D
331
4B7
  5
4FF
331
498
  5
4E0
331
2D7
  5
31F
331
462
  5
4AA
331
443
  5
48B
331
282
  5
2CA
331
424
  5
46C
331
3EE
  5
436
331
3CF
  5
417
331
20E
  5
256
331
1EF
  5
237
331
244
  5
28C
331
263
  5
2AB
331
2B8
  5
300
331
2F6
  5
33E
331
34B
  5
393
331
389
  5
3D1
331
71B
  5
763
331
6FC
  5
744
331
6C6
  5
70E
331
688
  5
6D0
331
669
  5
6B1
331
614
  5
65C
331
5F5
  5
63D
331
5BF
  5
607
331
581
  5
5C9
331
5A0
  5
5E8
331
5DE
  5
626
331
633
  5
67B
331
652
  5
69A
331
6A7
  5
6EF
331
6DD
  5
725
331
73A
  5
1A7
331
56A
  5
5B2
331
54B
  5
593
331
38A
  5
3D2
331
52C
  5
574
331
50D
  5
555
331
34C
  5
394
331
4F6
  5
53E
331
32D
  5
375
331
4D7
  5
51F
331
4B8
  5
500
331
2F7
  5
33F
331
499
  5
4E1
331
463
  5
4AB
331
2B9
  5
301
331
444
  5
48C
331
425
  5
46D
331
264
  5
2AC
331
3EF
  5
437
331
20F
  5
257
331
245
  5
28D
331
283
  5
2CB
331
2D8
  5
320
331
316
  5
35E
331
36B
  5
3B3
331
73B
  5
1A8
331
71C
  5
764
331
6DE
  5
726
331
6A8
  5
6F0
331
689
  5
6D1
331
634
  5
67C
331
615
  5
65D
331
5DF
  5
627
331
5A1
  5
5E9
331
582
  5
5CA
331
5C0
  5
608
331
5F6
  5
63E
331
653
  5
69B
331
66A
  5
6B2
331
6C7
  5
70F
331
6FD
  5
745
331
56B
  5
5B3
331
54C
  5
594
331
52D
  5
575
331
36C
  5
3B4
331
50E
  5
556
331
4F7
  5
53F
331
32E
  5
376
331
4D8
  5
520
331
317
  5
35F
331
4B9
  5
501
331
49A
  5
4E2
331
2D9
  5
321
331
464
  5
4AC
331
445
  5
48D
331
284
  5
2CC
331
426
  5
46E
331
246
  5
28E
331
265
  5
2AD
331
2BA
  5
302
331
2F8
  5
340
331
34D
  5
395
331
38B
  5
3D3
331
73C
  5
1A9
331
6FE
  5
746
331
6DF
  5
727
331
68A
  5
6D2
331
66B
  5
6B3
331
635
  5
67D
331
5F7
  5
63F
331
5C1
  5
609
331
583
  5
5CB
331
5A2
  5
5EA
331
5E0
  5
628
331
616
  5
65E
331
654
  5
69C
331
6A9
  5
6F1
331
6C8
  5
710
331
71D
  5
765
331
56C
  5
5B4
331
54D
  5
595
331
38C
  5
3D4
331
52E
  5
576
331
50F
  5
557
331
34E
  5
396
331
4D9
  5
521
331
4BA
  5
502
331
2F9
  5
341
331
49B
  5
4E3
331
465
  5
4AD
331
2BB
  5
303
331
446
  5
48E
331
427
  5
46F
331
266
  5
2AE
331
247
  5
28F
331
285
  5
2CD
331
2DA
  5
322
331
32F
  5
377
331
36D
  5
3B5
331
73D
  5
1AA
331
71E
  5
766
331
6E0
  5
728
331
6AA
  5
6F2
331
68B
  5
6D3
331
636
  5
67E
331
617
  5
65F
331
5E1
  5
629
331
5A3
  5
5EB
331
584
  5
5CC
331
5C2
  5
60A
331
5F8
  5
640
331
655
  5
69D
331
66C
  5
6B4
331
6C9
  5
711
331
6FF
  5
747
331
38D
  5
3D5
331
36E
  5
3B6
331
54E
  5
596
331
34F
  5
397
331
330
  5
378
331
510
  5
558
331
2FA
  5
342
331
2DB
  5
323
331
4BB
  5
503
331
2BC
  5
304
331
286
  5
2CE
331
466
  5
4AE
331
267
  5
2AF
331
447
  5
48F
331
49C
  5
4E4
331
4DA
  5
522
331
52F
  5
577
331
56D
  5
5B5
331
73E
  5
1AB
331
700
  5
748
331
6E1
  5
729
331
6AB
  5
6F3
331
66D
  5
6B5
331
637
  5
67F
331
5F9
  5
641
331
5C3
  5
60B
331
5A4
  5
5EC
331
585
  5
5CD
331
5E2
  5
62A
331
618
  5
660
331
656
  5
69E
331
68C
  5
6D4
331
6CA
  5
712
331
71F
  5
767
331
38E
  5
3D6
331
56E
  5
5B6
331
36F
  5
3B7
331
350
  5
398
331
530
  5
578
331
331
  5
379
331
2FB
  5
343
331
4DB
  5
523
331
2DC
  5
324
331
2BD
  5
305
331
49D
  5
4E5
331
287
  5
2CF
331
467
  5
4AF
331
4BC
  5
504
331
511
  5
559
331
54F
  5
597
331
720
  5
768
331
6E2
  5
72A
331
6AC
  5
6F4
331
68D
  5
6D5
331
657
  5
69F
331
619
  5
661
331
5FA
  5
642
331
5A5
  5
5ED
331
586
  5
5CE
331
5C4
  5
60C
331
5E3
  5
62B
331
638
  5
680
331
66E
  5
6B6
331
6CB
  5
713
331
701
  5
749
331
73F
  5
1AC
331
38F
  5
3D7
331
370
  5
3B8
331
550
  5
598
331
351
  5
399
331
332
  5
37A
331
512
  5
55A
331
2FC
  5
344
331
2DD
  5
325
331
4BD
  5
505
331
2BE
  5
306
331
49E
  5
4E6
331
4DC
  5
524
331
531
  5
579
331
56F
  5
5B7
331
740
  5
1AD
331
702
  5
74A
331
6E3
  5
72B
331
6AD
  5
6F5
331
66F
  5
6B7
331
639
  5
681
331
5FB
  5
643
331
5C5
  5
60D
331
5A6
  5
5EE
331
587
  5
5CF
331
5E4
  5
62C
331
61A
  5
662
331
658
  5
6A0
331
68E
  5
6D6
331
6CC
  5
714
331
721
  5
769
331
371
  5
3B9
331
352
  5
39A
331
532
  5
57A
331
333
  5
37B
331
2FD
  5
345
331
4DD
  5
525
331
2DE
  5
326
331
2BF
  5
307
331
49F
  5
4E7
331
4BE
  5
506
331
513
  5
55B
331
551
  5
599
331
722
  5
76A
331
6E4
  5
72C
331
6CD
  5
715
331
68F
  5
6D7
331
670
  5
6B8
331
61B
  5
663
331
5FC
  5
644
331
5C6
  5
60E
331
588
  5
5D0
331
5A7
  5
5EF
331
5E5
  5
62D
331
63A
  5
682
331
659
  5
6A1
331
6AE
  5
6F6
331
703
  5
74B
331
741
  5
1AE
331
372
  5
3BA
331
552
  5
59A
331
353
  5
39B
331
334
  5
37C
331
514
  5
55C
331
2FE
  5
346
331
2DF
  5
327
331
4BF
  5
507
331
4DE
  5
526
331
533
  5
57B
331
742
  5
1AF
331
704
  5
74C
331
6E5
  5
72D
331
6AF
  5
6F7
331
671
  5
6B9
331
63B
  5
683
331
5FD
  5
645
331
5C7
  5
60F
331
5A8
  5
5F0
331
589
  5
5D1
331
5E6
  5
62E
331
61C
  5
664
331
65A
  5
6A2
331
690
  5
6D8
331
6CE
  5
716
331
723
  5
76B
331
373
  5
3BB
331
354
  5
39C
331
534
  5
57C
331
335
  5
37D
331
2FF
  5
347
331
4DF
  5
527
331
515
  5
55D
331
553
  5
59B
331
724
  5
76C
331
6E6
  5
72E
331
6CF
  5
717
331
691
  5
6D9
331
672
  5
6BA
331
61D
  5
665
331
5FE
  5
646
331
5C8
  5
610
331
58A
  5
5D2
331
5A9
  5
5F1
331
5E7
  5
62F
331
63C
  5
684
331
65B
  5
6A3
331
6B0
  5
6F8
331
705
  5
74D
331
743
  5
1B0
331
374
  5
3BC
331
554
  5
59C
331
355
  5
39D
331
535
  5
57D
331
336
  5
37E
331
516
  5
55E
331
744
  5
1B1
331
706
  5
74E
331
6E7
  5
72F
331
6B1
  5
6F9
331
673
  5
6BB
331
63D
  5
685
331
5FF
  5
647
331
5AA
  5
5F2
331
58B
  5
5D3
331
5C9
  5
611
331
61E
  5
666
331
65C
  5
6A4
331
692
  5
6DA
331
6D0
  5
718
331
725
  5
76D
331
375
  5
3BD
331
356
  5
39E
331
536
  5
57E
331
337
  5
37F
331
517
  5
55F
331
555
  5
59D
331
726
  5
76E
331
6E8
  5
730
331
6D1
  5
719
331
693
  5
6DB
331
674
  5
6BC
331
61F
  5
667
331
5CA
  5
612
331
58C
  5
5D4
331
5AB
  5
5F3
331
600
  5
648
331
63E
  5
686
331
65D
  5
6A5
331
6B2
  5
6FA
331
707
  5
74F
331
745
  5
1B2
331
376
  5
3BE
331
556
  5
59E
331
357
  5
39F
331
537
  5
57F
331
746
  5
1B3
331
708
  5
750
331
6E9
  5
731
331
6B3
  5
6FB
331
675
  5
6BD
331
63F
  5
687
331
601
  5
649
331
5AC
  5
5F4
331
58D
  5
5D5
331
5CB
  5
613
331
620
  5
668
331
65E
  5
6A6
331
694
  5
6DC
331
6D2
  5
71A
331
727
  5
76F
331
377
  5
3BF
331
557
  5
59F
331
728
  5
770
331
709
  5
751
331
6D3
  5
71B
331
695
  5
6DD
331
676
  5
6BE
331
621
  5
669
331
5CC
  5
614
331
58E
  5
5D6
331
5AD
  5
5F5
331
602
  5
64A
331
640
  5
688
331
6B4
  5
6FC
331
6EA
  5
732
331
747
  5
1B4
331
70A
  5
752
331
6EB
  5
733
331
6B5
  5
6FD
331
677
  5
6BF
331
641
  5
689
331
603
  5
64B
331
5AE
  5
5F6
331
58F
  5
5D7
331
5CD
  5
615
331
622
  5
66A
331
696
  5
6DE
331
6D4
  5
71C
331
729
  5
771
331
748
  5
1B5
331
72A
  5
772
331
70B
  5
753
331
6D5
  5
71D
331
697
  5
6DF
331
678
  5
6C0
331
623
  5
66B
331
5CE
  5
616
331
5AF
  5
5F7
331
604
  5
64C
331
642
  5
68A
331
6B6
  5
6FE
331
6EC
  5
734
331
749
  5
1B6
331
750
  5
1BD
331
72B
  5
773
331
6ED
  5
735
331
6B7
  5
6FF
331
679
  5
6C1
331
643
  5
68B
331
624
  5
66C
331
5CF
  5
617
331
605
  5
64D
331
698
  5
6E0
331
6D6
  5
71E
331
70C
  5
754
331
74A
  5
1B7
331
770
  5
1DD
331
751
  5
1BE
331
72C
  5
774
331
70D
  5
755
331
6D7
  5
71F
331
699
  5
6E1
331
67A
  5
6C2
331
625
  5
66D
331
606
  5
64E
331
644
  5
68C
331
6B8
  5
700
331
6EE
  5
736
331
74B
  5
1B8
331
771
  5
1DE
331
752
  5
1BF
331
72D
  5
775
331
6B9
  5
701
331
69A
  5
6E2
331
645
  5
68D
331
626
  5
66E
331
607
  5
64F
331
67B
  5
6C3
331
6EF
  5
737
331
70E
  5
756
331
74C
  5
1B9
331
772
  5
1DF
331
753
  5
1C0
331
74D
  5
1BA
331
70F
  5
757
331
69B
  5
6E3
331
67C
  5
6C4
331
646
  5
68E
331
627
  5
66F
331
6BA
  5
702
331
6F0
  5
738
331
72E
  5
776
331
754
  5
1C1
331
72F
  5
777
331
6BB
  5
703
331
69C
  5
6E4
331
647
  5
68F
331
67D
  5
6C5
331
6F1
  5
739
331
710
  5
758
331
74E
  5
1BB
331
755
  5
1C2
331
74F
  5
1BC
331
711
  5
759
331
6BC
  5
704
331
67E
  5
6C6
331
69D
  5
6E5
331
6F2
  5
73A
331
730
  5
778
331
775
  5
1E2
331
756
  5
1C3
331
731
  5
779
331
6BD
  5
705
331
69E
  5
6E6
331
67F
  5
6C7
331
6F3
  5
73B
331
712
  5
75A
331
776
  5
1E3
331
757
  5
1C4
331
713
  5
75B
331
6BE
  5
706
331
69F
  5
6E7
331
6F4
  5
73C
331
732
  5
77A
331
777
  5
1E4
331
758
  5
1C5
331
733
  5
77B
331
6F5
  5
73D
331
6BF
  5
707
331
714
  5
75C
331
778
  5
1E5
331
759
  5
1C6
331
1A2
  5
1EA
331
715
  5
75D
331
6F6
  5
73E
331
734
  5
77C
331
779
  5
1E6
331
75A
  5
1C7
331
1A3
  5
1EB
331
735
  5
1A2
331
6F7
  5
73F
331
716
  5
75E
331
77A
  5
1E7
331
75B
  5
1C8
331
1A4
  5
1EC
331
717
  5
75F
331
736
  5
1A3
331
77B
  5
1E8
331
75C
  5
1C9
331
1A5
  5
1ED
331
737
  5
1A4
331
75D
  5
1CA
331
1A6
  5
1EE
331
75E
  5
1CB
331
1A7
  5
1EF
331
75F
  5
1CC
331
1A8
  5
1F0
331
760
  5
1CD
331
1B0
  5
1F8
331
390
  5
3D8
331
1A9
  5
1F1
331
1D0
  5
218
331
761
  5
1CE
331
1B1
  5
1F9
331
391
  5
3D9
331
3B0
  5
3F8
331
1AA
  5
1F2
331
1F0
  5
238
331
3D0
  5
418
331
1D1
  5
219
331
3B1
  5
3F9
331
762
  5
1CF
331
1B2
  5
1FA
331
392
  5
3DA
331
1AB
  5
1F3
331
210
  5
258
331
3F0
  5
438
331
1F1
  5
239
331
3D1
  5
419
331
1D2
  5
21A
331
763
  5
1D0
331
1B3
  5
1FB
331
393
  5
3DB
331
3B2
  5
3FA
331
1AC
  5
1F4
331
228
  5
270
331
408
  5
450
331
211
  5
259
331
3F1
  5
439
331
1F2
  5
23A
331
1D3
  5
21B
331
3B3
  5
3FB
331
764
  5
1D1
331
1B4
  5
1FC
331
394
  5
3DC
331
3D2
  5
41A
331
1AD
  5
1F5
331
248
  5
290
331
428
  5
470
331
229
  5
271
331
212
  5
25A
331
3F2
  5
43A
331
1F3
  5
23B
331
3D3
  5
41B
331
1D4
  5
21C
331
765
  5
1D2
331
1B5
  5
1FD
331
395
  5
3DD
331
3B4
  5
3FC
331
409
  5
451
331
1AE
  5
1F6
331
268
  5
2B0
331
448
  5
490
331
249
  5
291
331
22A
  5
272
331
40A
  5
452
331
213
  5
25B
331
3F3
  5
43B
331
1F4
  5
23C
331
1D5
  5
21D
331
3B5
  5
3FD
331
766
  5
1D3
331
1B6
  5
1FE
331
396
  5
3DE
331
3D4
  5
41C
331
429
  5
471
331
1AF
  5
1F7
331
288
  5
2D0
331
468
  5
4B0
331
269
  5
2B1
331
24A
  5
292
331
42A
  5
472
331
22B
  5
273
331
40B
  5
453
331
214
  5
25C
331
1F5
  5
23D
331
3D5
  5
41D
331
1D6
  5
21E
331
767
  5
1D4
331
1B7
  5
1FF
331
397
  5
3DF
331
3B6
  5
3FE
331
3F4
  5
43C
331
449
  5
491
331
2A0
  5
2E8
331
480
  5
4C8
331
289
  5
2D1
331
26A
  5
2B2
331
44A
  5
492
331
24B
  5
293
331
22C
  5
274
331
40C
  5
454
331
215
  5
25D
331
3F5
  5
43D
331
1F6
  5
23E
331
1D7
  5
21F
331
3B7
  5
3FF
331
768
  5
1D5
331
1B8
  5
200
331
398
  5
3E0
331
3D6
  5
41E
331
42B
  5
473
331
469
  5
4B1
331
2C0
  5
308
331
2A1
  5
2E9
331
481
  5
4C9
331
28A
  5
2D2
331
46A
  5
4B2
331
26B
  5
2B3
331
24C
  5
294
331
42C
  5
474
331
22D
  5
275
331
40D
  5
455
331
216
  5
25E
331
1F7
  5
23F
331
3D7
  5
41F
331
1D8
  5
220
331
769
  5
1D6
331
1B9
  5
201
331
399
  5
3E1
331
3B8
  5
400
331
3F6
  5
43E
331
44B
  5
493
331
4A0
  5
4E8
331
2E0
  5
328
331
2C1
  5
309
331
4A1
  5
4E9
331
2A2
  5
2EA
331
482
  5
4CA
331
28B
  5
2D3
331
26C
  5
2B4
331
44C
  5
494
331
24D
  5
295
331
42D
  5
475
331
22E
  5
276
331
217
  5
25F
331
3F7
  5
43F
331
1F8
  5
240
331
1D9
  5
221
331
3B9
  5
401
331
76A
  5
1D7
331
1BA
  5
202
331
39A
  5
3E2
331
3D8
  5
420
331
40E
  5
456
331
46B
  5
4B3
331
4C0
  5
508
331
300
  5
348
331
2E1
  5
329
331
4C1
  5
509
331
2C2
  5
30A
331
2A3
  5
2EB
331
483
  5
4CB
331
28C
  5
2D4
331
46C
  5
4B4
331
26D
  5
2B5
331
24E
  5
296
331
42E
  5
476
331
22F
  5
277
331
40F
  5
457
331
218
  5
260
331
1F9
  5
241
331
3D9
  5
421
331
1DA
  5
222
331
76B
  5
1D8
331
1BB
  5
203
331
39B
  5
3E3
331
3BA
  5
402
331
3F8
  5
440
331
44D
  5
495
331
4A2
  5
4EA
331
4E0
  5
528
331
318
  5
360
331
301
  5
349
331
4E1
  5
529
331
2E2
  5
32A
331
2C3
  5
30B
331
4A3
  5
4EB
331
2A4
  5
2EC
331
484
  5
4CC
331
28D
  5
2D5
331
26E
  5
2B6
331
44E
  5
496
331
24F
  5
297
331
42F
  5
477
331
230
  5
278
331
219
  5
261
331
3F9
  5
441
331
1FA
  5
242
331
1DB
  5
223
331
3BB
  5
403
331
76C
  5
1D9
331
1BC
  5
204
331
39C
  5
3E4
331
3DA
  5
422
331
410
  5
458
331
46D
  5
4B5
331
4C2
  5
50A
331
4F8
  5
540
331
338
  5
380
331
319
  5
361
331
4F9
  5
541
331
302
  5
34A
331
2E3
  5
32B
331
4C3
  5
50B
331
2C4
  5
30C
331
4A4
  5
4EC
331
2A5
  5
2ED
331
28E
  5
2D6
331
46E
  5
4B6
331
26F
  5
2B7
331
44F
  5
497
331
250
  5
298
331
231
  5
279
331
411
  5
459
331
21A
  5
262
331
1FB
  5
243
331
3DB
  5
423
331
1DC
  5
224
331
76D
  5
1DA
331
1BD
  5
205
331
39D
  5
3E5
331
3BC
  5
404
331
3FA
  5
442
331
430
  5
478
331
485
  5
4CD
331
4E2
  5
52A
331
518
  5
560
331
358
  5
3A0
331
339
  5
381
331
519
  5
561
331
31A
  5
362
331
303
  5
34B
331
4E3
  5
52B
331
2E4
  5
32C
331
2C5
  5
30D
331
4A5
  5
4ED
331
2A6
  5
2EE
331
486
  5
4CE
331
28F
  5
2D7
331
270
  5
2B8
331
450
  5
498
331
251
  5
299
331
431
  5
479
331
232
  5
27A
331
21B
  5
263
331
3FB
  5
443
331
1FC
  5
244
331
1DD
  5
225
331
3BD
  5
405
331
76E
  5
1DB
331
1BE
  5
206
331
39E
  5
3E6
331
3DC
  5
424
331
412
  5
45A
331
46F
  5
4B7
331
4C4
  5
50C
331
4FA
  5
542
331
538
  5
580
331
378
  5
3C0
331
558
  5
5A0
331
359
  5
3A1
331
539
  5
581
331
33A
  5
382
331
31B
  5
363
331
4FB
  5
543
331
304
  5
34C
331
2E5
  5
32D
331
4C5
  5
50D
331
2C6
  5
30E
331
4A6
  5
4EE
331
2A7
  5
2EF
331
290
  5
2D8
331
470
  5
4B8
331
271
  5
2B9
331
451
  5
499
331
252
  5
29A
331
233
  5
27B
331
413
  5
45B
331
21C
  5
264
331
1FD
  5
245
331
3DD
  5
425
331
1DE
  5
226
331
3BE
  5
406
331
76F
  5
1DC
331
1BF
  5
207
331
39F
  5
3E7
331
3FC
  5
444
331
432
  5
47A
331
487
  5
4CF
331
4E4
  5
52C
331
51A
  5
562
331
570
  5
5B8
331
379
  5
3C1
331
559
  5
5A1
331
35A
  5
3A2
331
33B
  5
383
331
51B
  5
563
331
31C
  5
364
331
305
  5
34D
331
4E5
  5
52D
331
2E6
  5
32E
331
4C6
  5
50E
331
2C7
  5
30F
331
2A8
  5
2F0
331
488
  5
4D0
331
291
  5
2D9
331
471
  5
4B9
331
272
  5
2BA
331
253
  5
29B
331
433
  5
47B
331
234
  5
27C
331
414
  5
45C
331
21D
  5
265
331
1FE
  5
246
331
1DF
  5
227
331
3BF
  5
407
331
1C0
  5
208
331
3A0
  5
3E8
331
3DE
  5
426
331
3FD
  5
445
331
452
  5
49A
331
4A7
  5
4EF
331
4FC
  5
544
331
53A
  5
582
331
590
  5
5D8
331
571
  5
5B9
331
37A
  5
3C2
331
35B
  5
3A3
331
53B
  5
583
331
33C
  5
384
331
31D
  5
365
331
4FD
  5
545
331
306
  5
34E
331
2E7
  5
32F
331
4C7
  5
50F
331
2C8
  5
310
331
4A8
  5
4F0
331
2A9
  5
2F1
331
292
  5
2DA
331
472
  5
4BA
331
273
  5
2BB
331
453
  5
49B
331
254
  5
29C
331
235
  5
27D
331
415
  5
45D
331
21E
  5
266
331
1FF
  5
247
331
3DF
  5
427
331
1E0
  5
228
331
3C0
  5
408
331
1C1
  5
209
331
3A1
  5
3E9
331
3FE
  5
446
331
434
  5
47C
331
489
  5
4D1
331
4E6
  5
52E
331
51C
  5
564
331
55A
  5
5A2
331
5B0
  5
5F8
331
572
  5
5BA
331
591
  5
5D9
331
37B
  5
3C3
331
55B
  5
5A3
331
35C
  5
3A4
331
33D
  5
385
331
51D
  5
565
331
31E
  5
366
331
307
  5
34F
331
4E7
  5
52F
331
2E8
  5
330
331
4C8
  5
510
331
2C9
  5
311
331
2AA
  5
2F2
331
48A
  5
4D2
331
293
  5
2DB
331
473
  5
4BB
331
274
  5
2BC
331
255
  5
29D
331
435
  5
47D
331
236
  5
27E
331
416
  5
45E
331
21F
  5
267
331
200
  5
248
331
3E0
  5
428
331
1E1
  5
229
331
1C2
  5
20A
331
3A2
  5
3EA
331
3C1
  5
409
331
3FF
  5
447
331
454
  5
49C
331
4A9
  5
4F1
331
4FE
  5
546
331
53C
  5
584
331
5D0
  5
618
331
592
  5
5DA
331
573
  5
5BB
331
5B1
  5
5F9
331
37C
  5
3C4
331
35D
  5
3A5
331
53D
  5
585
331
33E
  5
386
331
31F
  5
367
331
4FF
  5
547
331
308
  5
350
331
4E8
  5
530
331
2E9
  5
331
331
2CA
  5
312
331
4AA
  5
4F2
331
2AB
  5
2F3
331
48B
  5
4D3
331
294
  5
2DC
331
275
  5
2BD
331
455
  5
49D
331
256
  5
29E
331
237
  5
27F
331
417
  5
45F
331
220
  5
268
331
201
  5
249
331
3E1
  5
429
331
1E2
  5
22A
331
3C2
  5
40A
331
1C3
  5
20B
331
3A3
  5
3EB
331
400
  5
448
331
436
  5
47E
331
474
  5
4BC
331
4C9
  5
511
331
51E
  5
566
331
55C
  5
5A4
331
5E8
  5
630
331
5B2
  5
5FA
331
593
  5
5DB
331
574
  5
5BC
331
5D1
  5
619
331
37D
  5
3C5
331
55D
  5
5A5
331
35E
  5
3A6
331
33F
  5
387
331
51F
  5
567
331
320
  5
368
331
500
  5
548
331
309
  5
351
331
2EA
  5
332
331
4CA
  5
512
331
2CB
  5
313
331
2AC
  5
2F4
331
48C
  5
4D4
331
295
  5
2DD
331
475
  5
4BD
331
276
  5
2BE
331
257
  5
29F
331
437
  5
47F
331
238
  5
280
331
418
  5
460
331
221
  5
269
331
202
  5
24A
331
3E2
  5
42A
331
1E3
  5
22B
331
1C4
  5
20C
331
3A4
  5
3EC
331
3C3
  5
40B
331
401
  5
449
331
456
  5
49E
331
4AB
  5
4F3
331
4E9
  5
531
331
53E
  5
586
331
608
  5
650
331
5D2
  5
61A
331
594
  5
5DC
331
575
  5
5BD
331
5B3
  5
5FB
331
5E9
  5
631
331
37E
  5
3C6
331
35F
  5
3A7
331
53F
  5
587
331
340
  5
388
331
321
  5
369
331
501
  5
549
331
30A
  5
352
331
4EA
  5
532
331
2EB
  5
333
331
2CC
  5
314
331
4AC
  5
4F4
331
2AD
  5
2F5
331
48D
  5
4D5
331
296
  5
2DE
331
277
  5
2BF
331
457
  5
49F
331
258
  5
2A0
331
239
  5
281
331
419
  5
461
331
222
  5
26A
331
402
  5
44A
331
203
  5
24B
331
1E4
  5
22C
331
3C4
  5
40C
331
1C5
  5
20D
331
3A5
  5
3ED
331
3E3
  5
42B
331
438
  5
480
331
476
  5
4BE
331
4CB
  5
513
331
520
  5
568
331
55E
  5
5A6
331
628
  5
670
331
5EA
  5
632
331
5B4
  5
5FC
331
595
  5
5DD
331
576
  5
5BE
331
5D3
  5
61B
331
609
  5
651
331
37F
  5
3C7
331
55F
  5
5A7
331
360
  5
3A8
331
341
  5
389
331
521
  5
569
331
322
  5
36A
331
502
  5
54A
331
30B
  5
353
331
2EC
  5
334
331
4CC
  5
514
331
2CD
  5
315
331
2AE
  5
2F6
331
48E
  5
4D6
331
297
  5
2DF
331
477
  5
4BF
331
278
  5
2C0
331
259
  5
2A1
331
439
  5
481
331
23A
  5
282
331
41A
  5
462
331
223
  5
26B
331
204
  5
24C
331
3E4
  5
42C
331
1E5
  5
22D
331
1C6
  5
20E
331
3A6
  5
3EE
331
3C5
  5
40D
331
403
  5
44B
331
458
  5
4A0
331
4AD
  5
4F5
331
4EB
  5
533
331
540
  5
588
331
648
  5
690
331
60A
  5
652
331
5D4
  5
61C
331
5B5
  5
5FD
331
577
  5
5BF
331
596
  5
5DE
331
5EB
  5
633
331
629
  5
671
331
380
  5
3C8
331
361
  5
3A9
331
541
  5
589
331
342
  5
38A
331
323
  5
36B
331
503
  5
54B
331
30C
  5
354
331
4EC
  5
534
331
2ED
  5
335
331
2CE
  5
316
331
4AE
  5
4F6
331
2AF
  5
2F7
331
48F
  5
4D7
331
298
  5
2E0
331
279
  5
2C1
331
459
  5
4A1
331
25A
  5
2A2
331
23B
  5
283
331
41B
  5
463
331
224
  5
26C
331
404
  5
44C
331
205
  5
24D
331
1E6
  5
22E
331
3C6
  5
40E
331
1C7
  5
20F
331
3A7
  5
3EF
331
3E5
  5
42D
331
43A
  5
482
331
478
  5
4C0
331
4CD
  5
515
331
522
  5
56A
331
560
  5
5A8
331
660
  5
6A8
331
62A
  5
672
331
5EC
  5
634
331
5B6
  5
5FE
331
597
  5
5DF
331
578
  5
5C0
331
5D5
  5
61D
331
60B
  5
653
331
649
  5
691
331
381
  5
3C9
331
561
  5
5A9
331
362
  5
3AA
331
343
  5
38B
331
523
  5
56B
331
324
  5
36C
331
504
  5
54C
331
30D
  5
355
331
2EE
  5
336
331
4CE
  5
516
331
2CF
  5
317
331
2B0
  5
2F8
331
490
  5
4D8
331
299
  5
2E1
331
479
  5
4C1
331
27A
  5
2C2
331
25B
  5
2A3
331
43B
  5
483
331
23C
  5
284
331
41C
  5
464
331
225
  5
26D
331
206
  5
24E
331
3E6
  5
42E
331
1E7
  5
22F
331
1C8
  5
210
331
3A8
  5
3F0
331
3C7
  5
40F
331
405
  5
44D
331
45A
  5
4A2
331
4AF
  5
4F7
331
4ED
  5
535
331
542
  5
58A
331
680
  5
6C8
331
64A
  5
692
331
60C
  5
654
331
5D6
  5
61E
331
5B7
  5
5FF
331
579
  5
5C1
331
598
  5
5E0
331
5ED
  5
635
331
62B
  5
673
331
661
  5
6A9
331
382
  5
3CA
331
363
  5
3AB
331
543
  5
58B
331
344
  5
38C
331
524
  5
56C
331
325
  5
36D
331
30E
  5
356
331
4EE
  5
536
331
2EF
  5
337
331
2D0
  5
318
331
4B0
  5
4F8
331
2B1
  5
2F9
331
491
  5
4D9
331
29A
  5
2E2
331
27B
  5
2C3
331
45B
  5
4A3
331
25C
  5
2A4
331
23D
  5
285
331
41D
  5
465
331
226
  5
26E
331
406
  5
44E
331
207
  5
24F
331
1E8
  5
230
331
3C8
  5
410
331
1C9
  5
211
331
3A9
  5
3F1
331
3E7
  5
42F
331
43C
  5
484
331
47A
  5
4C2
331
4CF
  5
517
331
505
  5
54D
331
562
  5
5AA
331
6A0
  5
6E8
331
662
  5
6AA
331
62C
  5
674
331
5EE
  5
636
331
5D7
  5
61F
331
599
  5
5E1
331
57A
  5
5C2
331
5B8
  5
600
331
60D
  5
655
331
64B
  5
693
331
681
  5
6C9
331
383
  5
3CB
331
364
  5
3AC
331
345
  5
38D
331
525
  5
56D
331
326
  5
36E
331
506
  5
54E
331
30F
  5
357
331
2F0
  5
338
331
4D0
  5
518
331
2D1
  5
319
331
2B2
  5
2FA
331
492
  5
4DA
331
29B
  5
2E3
331
47B
  5
4C3
331
27C
  5
2C4
331
25D
  5
2A5
331
43D
  5
485
331
23E
  5
286
331
41E
  5
466
331
227
  5
26F
331
208
  5
250
331
3E8
  5
430
331
1E9
  5
231
331
1CA
  5
212
331
3AA
  5
3F2
331
3C9
  5
411
331
407
  5
44F
331
45C
  5
4A4
331
4B1
  5
4F9
331
4EF
  5
537
331
544
  5
58C
331
563
  5
5AB
331
6C0
  5
708
331
682
  5
6CA
331
64C
  5
694
331
60E
  5
656
331
5EF
  5
637
331
5B9
  5
601
331
57B
  5
5C3
331
59A
  5
5E2
331
5D8
  5
620
331
62D
  5
675
331
663
  5
6AB
331
6A1
  5
6E9
  0
DIMASSOC
  5
79A
102
{ACAD_REACTORS
330
78F
102
}
330
78F
100
AcDbDimAssoc
330
780
 90
        3
 70
     0
 71
     0
  1
AcDbOsnapPointRef
 72
     1
331
6F3
 73
     2
 91
        0
 40
1.0
 10
0.0
 20
0.0
 30
2.000000000000000E+50
 75
     0
  1
AcDbOsnapPointRef
 72
    13
331
62A
 73
     2
 91
        0
 40
0.0
 10
0.0
 20
0.0
 30
2.000000000000000E+50
 75
     0
  0
DIMASSOC
  5
7BF
102
{ACAD_REACTORS
330
7B4
102
}
330
7B4
100
AcDbDimAssoc
330
7A6
 90
        3
 70
     0
 71
     0
  1
AcDbOsnapPointRef
 72
     1
331
412
 73
     2
 91
        0
 40
1.0
 10
0.0
 20
0.0
 30
2.000000000000000E+50
 75
     0
  1
AcDbOsnapPointRef
 72
    13
331
4BF
 73
     2
 91
        0
 40
0.0
 10
0.0
 20
0.0
 30
2.000000000000000E+50
 75
     0
  0
LAYOUT
  5
59
102
{ACAD_XDICTIONARY
360
8CB
102
}
102
{ACAD_REACTORS
330
1A
102
}
330
1A
100
AcDbPlotSettings
  1

  2
None
  4

  6

 40
0.0
 41
0.0
 42
0.0
 43
0.0
 44
0.0
 45
0.0
 46
0.0
 47
0.0
 48
0.0
 49
0.0
140
0.0
141
0.0
142
1.0
143
1.0
 70
   688
 72
     0
 73
     0
 74
     5
  7

 75
    16
147
1.0
148
0.0
149
0.0
100
AcDbLayout
  1
Layout1
 70
     1
 71
     1
 10
0.0
 20
0.0
 11
12.0
 21
9.0
 12
0.0
 22
0.0
 32
0.0
 14
0.0
 24
0.0
 34
0.0
 15
0.0
 25
0.0
 35
0.0
146
0.0
 13
0.0
 23
0.0
 33
0.0
 16
1.0
 26
0.0
 36
0.0
 17
0.0
 27
1.0
 37
0.0
 76
     0
330
58
  0
LAYOUT
  5
5E
102
{ACAD_XDICTIONARY
360
8CD
102
}
102
{ACAD_REACTORS
330
1A
102
}
330
1A
100
AcDbPlotSettings
  1

  2
None
  4

  6

 40
0.0
 41
0.0
 42
0.0
 43
0.0
 44
0.0
 45
0.0
 46
0.0
 47
0.0
 48
0.0
 49
0.0
140
0.0
141
0.0
142
1.0
143
1.0
 70
   688
 72
     0
 73
     0
 74
     5
  7

 75
    16
147
1.0
148
0.0
149
0.0
100
AcDbLayout
  1
Layout2
 70
     1
 71
     2
 10
0.0
 20
0.0
 11
12.0
 21
9.0
 12
0.0
 22
0.0
 32
0.0
 14
0.0
 24
0.0
 34
0.0
 15
0.0
 25
0.0
 35
0.0
146
0.0
 13
0.0
 23
0.0
 33
0.0
 16
1.0
 26
0.0
 36
0.0
 17
0.0
 27
1.0
 37
0.0
 76
     0
330
5D
  0
LAYOUT
  5
22
102
{ACAD_XDICTIONARY
360
8C9
102
}
102
{ACAD_REACTORS
330
1A
102
}
330
1A
100
AcDbPlotSettings
  1

  2
none_device
  4
ANSI_A_(8.50_x_11.00_Inches)
  6

 40
6.349999904632568
 41
19.04999923706055
 42
6.350006103515625
 43
19.04998779296875
 44
215.8999938964844
 45
279.3999938964844
 46
0.0
 47
0.0
 48
0.0
 49
0.0
140
0.0
141
0.0
142
1.0
143
2.584895464708373
 70
 11952
 72
     0
 73
     1
 74
     0
  7

 75
     0
147
0.3868628397755418
148
0.0
149
0.0
100
AcDbLayout
  1
Model
 70
     1
 71
     0
 10
0.0
 20
0.0
 11
12.0
 21
9.0
 12
0.0
 22
0.0
 32
0.0
 14
0.0
 24
0.0
 34
0.0
 15
0.0
 25
0.0
 35
0.0
146
0.0
 13
0.0
 23
0.0
 33
0.0
 16
1.0
 26
0.0
 36
0.0
 17
0.0
 27
1.0
 37
0.0
 76
     0
330
1F
  0
MLINESTYLE
  5
18
102
{ACAD_REACTORS
330
17
102
}
330
17
100
AcDbMlineStyle
  2
STANDARD
 70
     0
  3

 62
   256
 51
90.0
 52
90.0
 71
     2
 49
0.5
 62
   256
  6
BYLAYER
 49
-0.5
 62
   256
  6
BYLAYER
  0
ACDBPLACEHOLDER
  5
F
102
{ACAD_REACTORS
330
E
102
}
330
E
  0
TABLESTYLE
  5
87
102
{ACAD_REACTORS
330
86
102
}
330
86
100
AcDbTableStyle
  3
Standard
 70
     0
 71
     0
 40
0.06
 41
0.06
280
     0
281
     0
  7
Standard
140
0.18
170
     2
 62
     0
 63
     7
283
     0
274
    -2
284
     1
 64
     0
275
    -2
285
     1
 65
     0
276
    -2
286
     1
 66
     0
277
    -2
287
     1
 67
     0
278
    -2
288
     1
 68
     0
279
    -2
289
     1
 69
     0
  7
Standard
140
0.25
170
     5
 62
     0
 63
     7
283
     0
274
    -2
284
     1
 64
     0
275
    -2
285
     1
 65
     0
276
    -2
286
     1
 66
     0
277
    -2
287
     1
 67
     0
278
    -2
288
     1
 68
     0
279
    -2
289
     1
 69
     0
  7
Standard
140
0.18
170
     5
 62
     0
 63
     7
283
     0
274
    -2
284
     1
 64
     0
275
    -2
285
     1
 65
     0
276
    -2
286
     1
 66
     0
277
    -2
287
     1
 67
     0
278
    -2
288
     1
 68
     0
279
    -2
289
     1
 69
     0
  0
DICTIONARYVAR
  5
805
102
{ACAD_REACTORS
330
66
102
}
330
66
100
DictionaryVariables
280
     0
  1
STANDARD
  0
DICTIONARYVAR
  5
67
102
{ACAD_REACTORS
330
66
102
}
330
66
100
DictionaryVariables
280
     0
  1
2
  0
DICTIONARYVAR
  5
6B
102
{ACAD_REACTORS
330
66
102
}
330
66
100
DictionaryVariables
280
     0
  1
1
  0
DICTIONARYVAR
  5
8C6
102
{ACAD_REACTORS
330
66
102
}
330
66
100
DictionaryVariables
280
     0
  1

  0
DICTIONARY
  5
8CB
330
59
100
AcDbDictionary
280
     1
281
     1
  3
ACAD_XREC_ROUNDTRIP
360
8CC
  0
DICTIONARY
  5
8CD
330
5E
100
AcDbDictionary
280
     1
281
     1
  3
ACAD_XREC_ROUNDTRIP
360
8CE
  0
DICTIONARY
  5
8C9
330
22
100
AcDbDictionary
280
     1
281
     1
  3
ACAD_XREC_ROUNDTRIP
360
8CA
  0
XRECORD
  5
8CC
102
{ACAD_REACTORS
330
8CB
102
}
330
8CB
100
AcDbXrecord
280
     1
102
SHADEPLOT
 70
     0
102
SHADEPLOTRESLEVEL
 70
     2
102
SHADEPLOTCUSTOMDPI
 70
   300
  0
XRECORD
  5
8CE
102
{ACAD_REACTORS
330
8CD
102
}
330
8CD
100
AcDbXrecord
280
     1
102
SHADEPLOT
 70
     0
102
SHADEPLOTRESLEVEL
 70
     2
102
SHADEPLOTCUSTOMDPI
 70
   300
  0
XRECORD
  5
8CA
102
{ACAD_REACTORS
330
8C9
102
}
330
8C9
100
AcDbXrecord
280
     1
102
SHADEPLOT
 70
     0
102
SHADEPLOTRESLEVEL
 70
     2
102
SHADEPLOTCUSTOMDPI
 70
   300
  0
ENDSEC
  0
EOF
