  0
SECTION
  2
HEADER
  9
$ACADVER
  1
AC1015
  9
$ACADMAINTVER
 70
    20
  9
$DWGCODEPAGE
  3
ANSI_1252
  9
$INSBASE
 10
0.0
 20
0.0
 30
0.0
  9
$EXTMIN
 10
-0.075
 20
-0.075
 30
0.0
  9
$EXTMAX
 10
11.075
 20
8.575000000000001
 30
0.0
  9
$LIMMIN
 10
0.0
 20
0.0
  9
$LIMMAX
 10
12.0
 20
9.0
  9
$ORTHOMODE
 70
     0
  9
$REGENMODE
 70
     1
  9
$FILLMODE
 70
     1
  9
$QTEXTMODE
 70
     0
  9
$MIRRTEXT
 70
     0
  9
$LTSCALE
 40
1.0
  9
$ATTMODE
 70
     1
  9
$TEXTSIZE
 40
0.09
  9
$TRACEWID
 40
0.05
  9
$TEXTSTYLE
  7
Standard
  9
$CLAYER
  8
0
  9
$CELTYPE
  6
ByLayer
  9
$CECOLOR
 62
   256
  9
$CELTSCALE
 40
1.0
  9
$DISPSILH
 70
     0
  9
$DIMSCALE
 40
1.0
  9
$DIMASZ
 40
0.125
  9
$DIMEXO
 40
0.0625
  9
$DIMDLI
 40
0.38
  9
$DIMRND
 40
0.0
  9
$DIMDLE
 40
0.0
  9
$DIMEXE
 40
0.125
  9
$DIMTP
 40
0.0
  9
$DIMTM
 40
0.0
  9
$DIMTXT
 40
0.09
  9
$DIMCEN
 40
0.09
  9
$DIMTSZ
 40
0.0
  9
$DIMTOL
 70
     0
  9
$DIMLIM
 70
     0
  9
$DIMTIH
 70
     1
  9
$DIMTOH
 70
     1
  9
$DIMSE1
 70
     0
  9
$DIMSE2
 70
     0
  9
$DIMTAD
 70
     0
  9
$DIMZIN
 70
     0
  9
$DIMBLK
  1

  9
$DIMASO
 70
     1
  9
$DIMSHO
 70
     1
  9
$DIMPOST
  1

  9
$DIMAPOST
  1
mm
  9
$DIMALT
 70
     1
  9
$DIMALTD
 70
     1
  9
$DIMALTF
 40
25.4
  9
$DIMLFAC
 40
1.0
  9
$DIMTOFL
 70
     0
  9
$DIMTVP
 40
0.0
  9
$DIMTIX
 70
     0
  9
$DIMSOXD
 70
     0
  9
$DIMSAH
 70
     0
  9
$DIMBLK1
  1

  9
$DIMBLK2
  1

  9
$DIMSTYLE
  2
Standard
  9
$DIMCLRD
 70
     0
  9
$DIMCLRE
 70
     0
  9
$DIMCLRT
 70
     0
  9
$DIMTFAC
 40
1.0
  9
$DIMGAP
 40
0.09
  9
$DIMJUST
 70
     0
  9
$DIMSD1
 70
     0
  9
$DIMSD2
 70
     0
  9
$DIMTOLJ
 70
     1
  9
$DIMTZIN
 70
     0
  9
$DIMALTZ
 70
     0
  9
$DIMALTTZ
 70
     0
  9
$DIMUPT
 70
     0
  9
$DIMDEC
 70
     2
  9
$DIMTDEC
 70
     2
  9
$DIMALTU
 70
     2
  9
$DIMALTTD
 70
     1
  9
$DIMTXSTY
  7
Standard
  9
$DIMAUNIT
 70
     0
  9
$DIMADEC
 70
     0
  9
$DIMALTRND
 40
0.0
  9
$DIMAZIN
 70
     0
  9
$DIMDSEP
 70
    46
  9
$DIMATFIT
 70
     3
  9
$DIMFRAC
 70
     0
  9
$DIMLDRBLK
  1

  9
$DIMLUNIT
 70
     2
  9
$DIMLWD
 70
    -2
  9
$DIMLWE
 70
    -2
  9
$DIMTMOVE
 70
     0
  9
$LUNITS
 70
     2
  9
$LUPREC
 70
     4
  9
$SKETCHINC
 40
0.1
  9
$FILLETRAD
 40
0.0
  9
$AUNITS
 70
     0
  9
$AUPREC
 70
     0
  9
$MENU
  1
.
  9
$ELEVATION
 40
0.0
  9
$PELEVATION
 40
0.0
  9
$THICKNESS
 40
0.0
  9
$LIMCHECK
 70
     0
  9
$CHAMFERA
 40
0.0
  9
$CHAMFERB
 40
0.0
  9
$CHAMFERC
 40
0.0
  9
$CHAMFERD
 40
0.0
  9
$SKPOLY
 70
     0
  9
$TDCREATE
 40
2454118.438521123
  9
$TDUCREATE
 40
2454118.646854456
  9
$TDUPDATE
 40
2454294.557072164
  9
$TDUUPDATE
 40
2454294.765405498
  9
$TDINDWG
 40
0.1318486690
  9
$TDUSRTIMER
 40
0.1318486690
  9
$USRTIMER
 70
     1
  9
$ANGBASE
 50
0.0
  9
$ANGDIR
 70
     0
  9
$PDMODE
 70
     2
  9
$PDSIZE
 40
0.075
  9
$PLINEWID
 40
0.0
  9
$SPLFRAME
 70
     0
  9
$SPLINETYPE
 70
     6
  9
$SPLINESEGS
 70
     8
  9
$HANDSEED
  5
75B
  9
$SURFTAB1
 70
     6
  9
$SURFTAB2
 70
     6
  9
$SURFTYPE
 70
     6
  9
$SURFU
 70
     6
  9
$SURFV
 70
     6
  9
$UCSBASE
  2

  9
$UCSNAME
  2

  9
$UCSORG
 10
0.0
 20
0.0
 30
0.0
  9
$UCSXDIR
 10
1.0
 20
0.0
 30
0.0
  9
$UCSYDIR
 10
0.0
 20
1.0
 30
0.0
  9
$UCSORTHOREF
  2

  9
$UCSORTHOVIEW
 70
     0
  9
$UCSORGTOP
 10
0.0
 20
0.0
 30
0.0
  9
$UCSORGBOTTOM
 10
0.0
 20
0.0
 30
0.0
  9
$UCSORGLEFT
 10
0.0
 20
0.0
 30
0.0
  9
$UCSORGRIGHT
 10
0.0
 20
0.0
 30
0.0
  9
$UCSORGFRONT
 10
0.0
 20
0.0
 30
0.0
  9
$UCSORGBACK
 10
0.0
 20
0.0
 30
0.0
  9
$PUCSBASE
  2

  9
$PUCSNAME
  2

  9
$PUCSORG
 10
0.0
 20
0.0
 30
0.0
  9
$PUCSXDIR
 10
1.0
 20
0.0
 30
0.0
  9
$PUCSYDIR
 10
0.0
 20
1.0
 30
0.0
  9
$PUCSORTHOREF
  2

  9
$PUCSORTHOVIEW
 70
     0
  9
$PUCSORGTOP
 10
0.0
 20
0.0
 30
0.0
  9
$PUCSORGBOTTOM
 10
0.0
 20
0.0
 30
0.0
  9
$PUCSORGLEFT
 10
0.0
 20
0.0
 30
0.0
  9
$PUCSORGRIGHT
 10
0.0
 20
0.0
 30
0.0
  9
$PUCSORGFRONT
 10
0.0
 20
0.0
 30
0.0
  9
$PUCSORGBACK
 10
0.0
 20
0.0
 30
0.0
  9
$USERI1
 70
     0
  9
$USERI2
 70
     0
  9
$USERI3
 70
     0
  9
$USERI4
 70
     0
  9
$USERI5
 70
     0
  9
$USERR1
 40
0.0
  9
$USERR2
 40
0.0
  9
$USERR3
 40
0.0
  9
$USERR4
 40
0.0
  9
$USERR5
 40
0.0
  9
$WORLDVIEW
 70
     1
  9
$SHADEDGE
 70
     3
  9
$SHADEDIF
 70
    70
  9
$TILEMODE
 70
     1
  9
$MAXACTVP
 70
    64
  9
$PINSBASE
 10
0.0
 20
0.0
 30
0.0
  9
$PLIMCHECK
 70
     0
  9
$PEXTMIN
 10
0.0
 20
0.0
 30
0.0
  9
$PEXTMAX
 10
0.0
 20
0.0
 30
0.0
  9
$PLIMMIN
 10
0.0
 20
0.0
  9
$PLIMMAX
 10
12.0
 20
9.0
  9
$UNITMODE
 70
     0
  9
$VISRETAIN
 70
     1
  9
$PLINEGEN
 70
     0
  9
$PSLTSCALE
 70
     1
  9
$TREEDEPTH
 70
  3020
  9
$CMLSTYLE
  2
Standard
  9
$CMLJUST
 70
     0
  9
$CMLSCALE
 40
1.0
  9
$PROXYGRAPHICS
 70
     1
  9
$MEASUREMENT
 70
     0
  9
$CELWEIGHT
370
    -1
  9
$ENDCAPS
280
     0
  9
$JOINSTYLE
280
     0
  9
$LWDISPLAY
290
     0
  9
$INSUNITS
 70
     1
  9
$HYPERLINKBASE
  1

  9
$STYLESHEET
  1

  9
$XEDIT
290
     1
  9
$CEPSNTYPE
380
     0
  9
$PSTYLEMODE
290
     1
  9
$FINGERPRINTGUID
  2
{B4C547F3-B864-42CF-B019-4A2563996521}
  9
$VERSIONGUID
  2
{5582DF58-0656-4377-886D-8565379E0ED6}
  9
$EXTNAMES
290
     1
  9
$PSVPSCALE
 40
0.0
  9
$OLESTARTUP
290
     0
  0
ENDSEC
  0
SECTION
  2
CLASSES
  0
CLASS
  1
ACDBDICTIONARYWDFLT
  2
AcDbDictionaryWithDefault
  3
ObjectDBX Classes
 90
        0
280
     0
281
     0
  0
CLASS
  1
ACDBPLACEHOLDER
  2
AcDbPlaceHolder
  3
ObjectDBX Classes
 90
        0
280
     0
281
     0
  0
CLASS
  1
LAYOUT
  2
AcDbLayout
  3
ObjectDBX Classes
 90
        0
280
     0
281
     0
  0
CLASS
  1
DICTIONARYVAR
  2
AcDbDictionaryVar
  3
ObjectDBX Classes
 90
        0
280
     0
281
     0
  0
CLASS
  1
TABLESTYLE
  2
AcDbTableStyle
  3
ObjectDBX Classes
 90
     2047
280
     0
281
     0
  0
CLASS
  1
SORTENTSTABLE
  2
AcDbSortentsTable
  3
ObjectDBX Classes
 90
        0
280
     0
281
     0
  0
CLASS
  1
DIMASSOC
  2
AcDbDimAssoc
  3
"AcDbDimAssoc|Product Desc:     AcDim ARX App For Dimension|Company:          Autodesk, Inc.|WEB Address:      www.autodesk.com"
 90
        0
280
     0
281
     0
  0
ENDSEC
  0
SECTION
  2
TABLES
  0
TABLE
  2
VPORT
  5
8
330
0
100
AcDbSymbolTable
 70
     2
  0
VPORT
  5
753
330
8
100
AcDbSymbolTableRecord
100
AcDbViewportTableRecord
  2
*Active
 70
     0
 10
0.0
 20
0.0
 11
1.0
 21
1.0
 12
5.500076113951622
 22
4.554399225646854
 13
0.0
 23
0.0
 14
0.5
 24
0.5
 15
0.5
 25
0.5
 16
0.0
 26
0.0
 36
1.0
 17
0.0
 27
0.0
 37
0.0
 40
9.315327483987998
 41
1.499364675984752
 42
50.0
 43
0.0
 44
0.0
 50
0.0
 51
0.0
 71
     0
 72
  1000
 73
     1
 74
     3
 75
     0
 76
     0
 77
     0
 78
     0
281
     0
 65
     1
110
0.0
120
0.0
130
0.0
111
1.0
121
0.0
131
0.0
112
0.0
122
1.0
132
0.0
 79
     0
146
0.0
  0
ENDTAB
  0
TABLE
  2
LTYPE
  5
5
330
0
100
AcDbSymbolTable
 70
     1
  0
LTYPE
  5
14
330
5
100
AcDbSymbolTableRecord
100
AcDbLinetypeTableRecord
  2
ByBlock
 70
     0
  3

 72
    65
 73
     0
 40
0.0
  0
LTYPE
  5
15
330
5
100
AcDbSymbolTableRecord
100
AcDbLinetypeTableRecord
  2
ByLayer
 70
     0
  3

 72
    65
 73
     0
 40
0.0
  0
LTYPE
  5
16
330
5
100
AcDbSymbolTableRecord
100
AcDbLinetypeTableRecord
  2
Continuous
 70
     0
  3
Solid line
 72
    65
 73
     0
 40
0.0
  0
ENDTAB
  0
TABLE
  2
LAYER
  5
2
330
0
100
AcDbSymbolTable
 70
     6
  0
LAYER
  5
10
330
2
100
AcDbSymbolTableRecord
100
AcDbLayerTableRecord
  2
0
 70
     0
 62
     7
  6
Continuous
370
    -3
390
F
  0
LAYER
  5
98
330
2
100
AcDbSymbolTableRecord
100
AcDbLayerTableRecord
  2
Title Block
 70
     0
 62
     3
  6
Continuous
370
    -3
390
F
  0
LAYER
  5
99
330
2
100
AcDbSymbolTableRecord
100
AcDbLayerTableRecord
  2
Dimension
 70
     0
 62
     6
  6
Continuous
370
    -3
390
F
  0
LAYER
  5
9A
330
2
100
AcDbSymbolTableRecord
100
AcDbLayerTableRecord
  2
Text
 70
     0
 62
     1
  6
Continuous
370
    -3
390
F
  0
LAYER
  5
9B
330
2
100
AcDbSymbolTableRecord
100
AcDbLayerTableRecord
  2
Defpoints
 70
     0
 62
     7
  6
Continuous
290
     0
370
    -3
390
F
  0
LAYER
  5
9C
330
2
100
AcDbSymbolTableRecord
100
AcDbLayerTableRecord
  2
Object
 70
     0
 62
     5
  6
Continuous
370
    -3
390
F
1001
AcAecLayerStandard
1000

1000

  0
ENDTAB
  0
TABLE
  2
STYLE
  5
3
330
0
100
AcDbSymbolTable
 70
     1
  0
STYLE
  5
11
330
3
100
AcDbSymbolTableRecord
100
AcDbTextStyleTableRecord
  2
Standard
 70
     0
 40
0.0
 41
1.0
 50
0.0
 71
     0
 42
0.09
  3
technic_.ttf
  4

1001
ACAD
1000
Technic
1071
      514
  0
ENDTAB
  0
TABLE
  2
VIEW
  5
6
330
0
100
AcDbSymbolTable
 70
     0
  0
ENDTAB
  0
TABLE
  2
UCS
  5
7
330
0
100
AcDbSymbolTable
 70
     0
  0
ENDTAB
  0
TABLE
  2
APPID
  5
9
330
0
100
AcDbSymbolTable
 70
     4
  0
APPID
  5
12
330
9
100
AcDbSymbolTableRecord
100
AcDbRegAppTableRecord
  2
ACAD
 70
     0
  0
APPID
  5
9E
330
9
100
AcDbSymbolTableRecord
100
AcDbRegAppTableRecord
  2
DCO15
 70
     0
  0
APPID
  5
9F
330
9
100
AcDbSymbolTableRecord
100
AcDbRegAppTableRecord
  2
AcAecLayerStandard
 70
     0
  0
APPID
  5
A0
330
9
100
AcDbSymbolTableRecord
100
AcDbRegAppTableRecord
  2
ACAD_DSTYLE_DIMTEXT_FILL
 70
     0
  0
ENDTAB
  0
TABLE
  2
DIMSTYLE
  5
A
330
0
100
AcDbSymbolTable
 70
     1
100
AcDbDimStyleTable
 71
     1
340
27
  0
DIMSTYLE
105
27
102
{ACAD_REACTORS
330
134
330
62F
330
6C7
102
}
330
A
100
AcDbSymbolTableRecord
100
AcDbDimStyleTableRecord
  2
Standard
 70
     0
  4
mm
 41
0.125
 44
0.125
140
0.09
170
     1
171
     1
271
     2
272
     2
274
     1
340
11
  0
ENDTAB
  0
TABLE
  2
BLOCK_RECORD
  5
1
330
0
100
AcDbSymbolTable
 70
     4
  0
BLOCK_RECORD
  5
1F
102
{ACAD_XDICTIONARY
360
147
102
}
330
1
100
AcDbSymbolTableRecord
100
AcDbBlockTableRecord
  2
*Model_Space
340
22
  0
BLOCK_RECORD
  5
58
330
1
100
AcDbSymbolTableRecord
100
AcDbBlockTableRecord
  2
*Paper_Space
340
59
  0
BLOCK_RECORD
  5
5D
330
1
100
AcDbSymbolTableRecord
100
AcDbBlockTableRecord
  2
*Paper_Space0
340
5E
  0
BLOCK_RECORD
  5
13A
330
1
100
AcDbSymbolTableRecord
100
AcDbBlockTableRecord
  2
*D1
340
0
  0
BLOCK_RECORD
  5
630
330
1
100
AcDbSymbolTableRecord
100
AcDbBlockTableRecord
  2
*D2
340
0
  0
BLOCK_RECORD
  5
6C8
330
1
100
AcDbSymbolTableRecord
100
AcDbBlockTableRecord
  2
*D3
340
0
  0
ENDTAB
  0
ENDSEC
  0
SECTION
  2
BLOCKS
  0
BLOCK
  5
20
330
1F
100
AcDbEntity
  8
0
100
AcDbBlockBegin
  2
*Model_Space
 70
     0
 10
0.0
 20
0.0
 30
0.0
  3
*Model_Space
  1

  0
ENDBLK
  5
21
330
1F
100
AcDbEntity
  8
0
100
AcDbBlockEnd
  0
BLOCK
  5
5A
330
58
100
AcDbEntity
 67
     1
  8
0
100
AcDbBlockBegin
  2
*Paper_Space
 70
     0
 10
0.0
 20
0.0
 30
0.0
  3
*Paper_Space
  1

  0
ENDBLK
  5
5B
330
58
100
AcDbEntity
 67
     1
  8
0
100
AcDbBlockEnd
  0
BLOCK
  5
5F
330
5D
100
AcDbEntity
  8
0
100
AcDbBlockBegin
  2
*Paper_Space0
 70
     0
 10
0.0
 20
0.0
 30
0.0
  3
*Paper_Space0
  1

  0
ENDBLK
  5
60
330
5D
100
AcDbEntity
  8
0
100
AcDbBlockEnd
  0
BLOCK
  5
145
330
13A
100
AcDbEntity
  8
0
100
AcDbBlockBegin
  2
*D1
 70
     1
 10
0.0
 20
0.0
 30
0.0
  3
*D1
  1

  0
LINE
  5
6FC
330
13A
100
AcDbEntity
  8
Dimension
 62
     0
370
    -2
100
AcDbLine
 10
6.518454913827119
 20
4.225203404377014
 30
0.0
 11
7.638890213757997
 21
4.225203404377014
 31
0.0
  0
LINE
  5
6FD
330
13A
100
AcDbEntity
  8
Dimension
 62
     0
370
    -2
100
AcDbLine
 10
6.51945491382712
 20
6.225203404377014
 30
0.0
 11
7.638890213757997
 21
6.225203404377014
 31
0.0
  0
LINE
  5
6FE
330
13A
100
AcDbEntity
  8
Dimension
 62
     0
370
    -2
100
AcDbLine
 10
7.513890213757997
 20
4.350203404377014
 30
0.0
 11
7.513890213757997
 21
5.041109540424494
 31
0.0
  0
LINE
  5
6FF
330
13A
100
AcDbEntity
  8
Dimension
 62
     0
370
    -2
100
AcDbLine
 10
7.513890213757997
 20
6.100203404377014
 30
0.0
 11
7.513890213757997
 21
5.34716217200344
 31
0.0
  0
SOLID
  5
700
330
13A
100
AcDbEntity
  8
Dimension
 62
     0
100
AcDbTrace
 10
7.493056880424664
 20
4.350203404377014
 30
0.0
 11
7.53472354709133
 21
4.350203404377014
 31
0.0
 12
7.513890213757997
 22
4.225203404377014
 32
0.0
 13
7.513890213757997
 23
4.225203404377014
 33
0.0
  0
SOLID
  5
701
330
13A
100
AcDbEntity
  8
Dimension
 62
     0
100
AcDbTrace
 10
7.493056880424664
 20
6.100203404377014
 30
0.0
 11
7.53472354709133
 21
6.100203404377014
 31
0.0
 12
7.513890213757997
 22
6.225203404377014
 32
0.0
 13
7.513890213757997
 23
6.225203404377014
 33
0.0
  0
MTEXT
  5
702
330
13A
100
AcDbEntity
  8
Dimension
 62
     0
100
AcDbMText
 10
7.513890213757996
 20
5.194135856213968
 30
0.0
 40
0.09
 41
0.0
 71
     5
 72
     1
  1
\A1;2.00 [50.8mm]
 73
     1
 44
1.0
1001
ACAD
1000
MTEXTBEGIN
1070
    73
1070
     1
1070
    44
1040
1.0
1070
    74
1070
     0
1000
MTEXTEND
  0
POINT
  5
703
330
13A
100
AcDbEntity
  8
Defpoints
 62
     0
100
AcDbPoint
 10
6.455954913827119
 20
4.225203404377014
 30
0.0
  0
POINT
  5
704
330
13A
100
AcDbEntity
  8
Defpoints
 62
     0
100
AcDbPoint
 10
6.45695491382712
 20
6.225203404377014
 30
0.0
  0
POINT
  5
705
330
13A
100
AcDbEntity
  8
Defpoints
 62
     0
100
AcDbPoint
 10
7.513890213757997
 20
6.225203404377014
 30
0.0
  0
ENDBLK
  5
146
330
13A
100
AcDbEntity
  8
0
100
AcDbBlockEnd
  0
BLOCK
  5
63B
330
630
100
AcDbEntity
  8
0
100
AcDbBlockBegin
  2
*D2
 70
     1
 10
0.0
 20
0.0
 30
0.0
  3
*D2
  1

  0
LINE
  5
72D
330
630
100
AcDbEntity
  8
Dimension
 62
     0
370
    -2
100
AcDbLine
 10
4.250954913827119
 20
6.252703404377013
 30
0.0
 11
4.250954913827119
 21
6.963235667192119
 31
0.0
  0
LINE
  5
72E
330
630
100
AcDbEntity
  8
Dimension
 62
     0
370
    -2
100
AcDbLine
 10
6.606954913827119
 20
6.252703404377013
 30
0.0
 11
6.606954913827119
 21
6.963235667192119
 31
0.0
  0
LINE
  5
72F
330
630
100
AcDbEntity
  8
Dimension
 62
     0
370
    -2
100
AcDbLine
 10
4.375954913827119
 20
6.838235667192119
 30
0.0
 11
4.964191755932383
 21
6.838235667192119
 31
0.0
  0
LINE
  5
730
330
630
100
AcDbEntity
  8
Dimension
 62
     0
370
    -2
100
AcDbLine
 10
6.481954913827119
 20
6.838235667192119
 30
0.0
 11
5.894718071721857
 21
6.838235667192119
 31
0.0
  0
SOLID
  5
731
330
630
100
AcDbEntity
  8
Dimension
 62
     0
100
AcDbTrace
 10
4.375954913827119
 20
6.859069000525452
 30
0.0
 11
4.375954913827119
 21
6.817402333858786
 31
0.0
 12
4.250954913827119
 22
6.838235667192119
 32
0.0
 13
4.250954913827119
 23
6.838235667192119
 33
0.0
  0
SOLID
  5
732
330
630
100
AcDbEntity
  8
Dimension
 62
     0
100
AcDbTrace
 10
6.481954913827119
 20
6.859069000525452
 30
0.0
 11
6.481954913827119
 21
6.817402333858786
 31
0.0
 12
6.606954913827119
 22
6.838235667192119
 32
0.0
 13
6.606954913827119
 23
6.838235667192119
 33
0.0
  0
MTEXT
  5
733
330
630
100
AcDbEntity
  8
Dimension
 62
     0
100
AcDbMText
 10
5.42945491382712
 20
6.838235667192119
 30
0.0
 40
0.09
 41
0.0
 71
     5
 72
     1
  1
\A1;2.17 [55.1mm]
 73
     1
 44
1.0
1001
ACAD
1000
MTEXTBEGIN
1070
    73
1070
     1
1070
    44
1040
1.0
1070
    74
1070
     0
1000
MTEXTEND
  0
POINT
  5
734
330
630
100
AcDbEntity
  8
Defpoints
 62
     0
100
AcDbPoint
 10
4.250954913827119
 20
6.190203404377013
 30
0.0
  0
POINT
  5
735
330
630
100
AcDbEntity
  8
Defpoints
 62
     0
100
AcDbPoint
 10
6.606954913827119
 20
6.190203404377013
 30
0.0
  0
POINT
  5
736
330
630
100
AcDbEntity
  8
Defpoints
 62
     0
100
AcDbPoint
 10
6.606954913827119
 20
6.838235667192119
 30
0.0
  0
ENDBLK
  5
63C
330
630
100
AcDbEntity
  8
0
100
AcDbBlockEnd
  0
BLOCK
  5
6D3
330
6C8
100
AcDbEntity
  8
0
100
AcDbBlockBegin
  2
*D3
 70
     1
 10
0.0
 20
0.0
 30
0.0
  3
*D3
  1

  0
LINE
  5
710
330
6C8
100
AcDbEntity
  8
Dimension
 62
     0
370
    -2
100
AcDbLine
 10
4.594788869051
 20
5.219703404377014
 30
0.0
 11
4.719788869051
 21
5.219703404377014
 31
0.0
  0
LINE
  5
711
330
6C8
100
AcDbEntity
  8
Dimension
 62
     0
370
    -2
100
AcDbLine
 10
4.264454913827119
 20
5.219703404377014
 30
0.0
 11
4.066922955196655
 21
5.219703404377014
 31
0.0
  0
SOLID
  5
712
330
6C8
100
AcDbEntity
  8
Dimension
 62
     0
100
AcDbTrace
 10
4.594788869051
 20
5.240536737710347
 30
0.0
 11
4.594788869051
 21
5.198870071043681
 31
0.0
 12
4.469788869051
 22
5.219703404377014
 32
0.0
 13
4.469788869051
 23
5.219703404377014
 33
0.0
  0
SOLID
  5
713
330
6C8
100
AcDbEntity
  8
Dimension
 62
     0
100
AcDbTrace
 10
4.264454913827119
 20
5.240536737710347
 30
0.0
 11
4.264454913827119
 21
5.198870071043681
 31
0.0
 12
4.389454913827119
 22
5.219703404377014
 32
0.0
 13
4.389454913827119
 23
5.219703404377014
 33
0.0
  0
MTEXT
  5
714
330
6C8
100
AcDbEntity
  8
Dimension
 62
     0
100
AcDbMText
 10
3.609422955196656
 20
5.219703404377014
 30
0.0
 40
0.09
 41
0.0
 71
     5
 72
     1
  1
\A1;0.08 [2.0mm]
 73
     1
 44
1.0
1001
ACAD
1000
MTEXTBEGIN
1070
    73
1070
     1
1070
    44
1040
1.0
1070
    74
1070
     0
1000
MTEXTEND
  0
POINT
  5
715
330
6C8
100
AcDbEntity
  8
Defpoints
 62
     0
100
AcDbPoint
 10
4.389454913827119
 20
5.219703404377014
 30
0.0
  0
POINT
  5
716
330
6C8
100
AcDbEntity
  8
Defpoints
 62
     0
100
AcDbPoint
 10
4.469788869051
 20
5.219703404377014
 30
0.0
  0
POINT
  5
717
330
6C8
100
AcDbEntity
  8
Defpoints
 62
     0
100
AcDbPoint
 10
4.469788869051
 20
5.219703404377014
 30
0.0
  0
ENDBLK
  5
6D4
330
6C8
100
AcDbEntity
  8
0
100
AcDbBlockEnd
  0
ENDSEC
  0
SECTION
  2
ENTITIES
  0
TEXT
  5
F0
330
1F
100
AcDbEntity
  8
Title Block
100
AcDbText
 10
6.776695012655547
 20
2.672489851525508
 30
0.0
 40
0.05
  1
FILENAME:
100
AcDbText
  0
TEXT
  5
F1
330
1F
100
AcDbEntity
  8
Title Block
100
AcDbText
 10
6.769285028728251
 20
2.076224967549325
 30
0.0
 40
0.35
  1
PANDUIT
100
AcDbText
  0
TEXT
  5
F2
330
1F
100
AcDbEntity
  8
Title Block
100
AcDbText
 10
8.721820398821382
 20
2.061410940562986
 30
0.0
 40
0.125
  1
CORP. TINLEY PARK, IL
100
AcDbText
  0
TEXT
  5
F3
330
1F
100
AcDbEntity
  8
Title Block
100
AcDbText
 10
6.780399976708615
 20
1.91697409709392
 30
0.0
 40
0.05
  1
TITLE:
100
AcDbText
  0
MTEXT
  5
F4
330
1F
100
AcDbEntity
  8
Title Block
100
AcDbMText
 10
8.0
 20
1.372215793536348
 30
0.0
 40
0.075
 41
2.5
 71
     5
 72
     5
  1
UNLESS OTHERWISE SPECIFIED,\PDIMENSIONAL TOLERANCES ARE:       
 73
     1
 44
1.0
1001
ACAD
1000
MTEXTBEGIN
1070
    73
1070
     1
1070
    44
1040
1.0
1070
    74
1070
     0
1000
MTEXTEND
  0
MTEXT
  5
F5
330
1F
100
AcDbEntity
  8
Title Block
100
AcDbMText
 10
7.392379866610014
 20
1.131487708483632
 30
0.0
 40
0.075
 41
2.5
 71
     5
 72
     5
  1
(.X)\P(.XX)
 73
     1
 44
1.0
1001
ACAD
1000
MTEXTBEGIN
1070
    73
1070
     1
1070
    44
1040
1.0
1070
    74
1070
     0
1000
MTEXTEND
  0
MTEXT
  5
F6
330
1F
100
AcDbEntity
  8
Title Block
100
AcDbMText
 10
8.400140053124118
 20
1.131487708483632
 30
0.0
 40
0.075
 41
2.5
 71
     5
 72
     5
  1
(.XXX)\PANGLES:
 73
     1
 44
1.0
1001
ACAD
1000
MTEXTBEGIN
1070
    73
1070
     1
1070
    44
1040
1.0
1070
    74
1070
     0
1000
MTEXTEND
  0
MTEXT
  5
F7
330
1F
100
AcDbEntity
  8
Title Block
100
AcDbMText
 10
10.0
 20
1.25
 30
0.0
 40
0.06
 41
1.5
 71
     5
 72
     5
  1
UNLESS OTHERWISE SPECIFIED,\PALL DIMENSIONS ARE GIVEN IN INCHES, THIRD ANGLE PROJECTION
 73
     1
 44
1.0
1001
ACAD
1000
MTEXTBEGIN
1070
    73
1070
     1
1070
    44
1040
1.0
1070
    74
1070
     0
1000
MTEXTEND
  0
TEXT
  5
F8
330
1F
100
AcDbEntity
  8
Title Block
100
AcDbText
 10
6.760764454306187
 20
0.9281373372752312
 30
0.0
 40
0.05
  1
DRAWN BY:
100
AcDbText
  0
TEXT
  5
F9
330
1F
100
AcDbEntity
  8
Title Block
100
AcDbText
 10
6.764469474180437
 20
0.6811431865635028
 30
0.0
 40
0.05
  1
DATE:
100
AcDbText
  0
TEXT
  5
FA
330
1F
100
AcDbEntity
  8
Title Block
100
AcDbText
 10
6.768174438233497
 20
0.4304455338317968
 30
0.0
 40
0.05
  1
CHECKED BY:
100
AcDbText
  0
TEXT
  5
FB
330
1F
100
AcDbEntity
  8
Title Block
100
AcDbText
 10
7.520289593133067
 20
0.9281373372752312
 30
0.0
 40
0.05
  1
MATERIAL:
100
AcDbText
  0
TEXT
  5
FC
330
1F
100
AcDbEntity
  8
Title Block
100
AcDbText
 10
9.265344938781542
 20
0.9281373372752312
 30
0.0
 40
0.05
  1
SCALE:
100
AcDbText
  0
TEXT
  5
FD
330
1F
100
AcDbEntity
  8
Title Block
100
AcDbText
 10
9.265344938781542
 20
0.6725952630490007
 30
0.0
 40
0.05
  1
DRAWING NUMBER:
100
AcDbText
  0
TEXT
  5
FE
330
1F
100
AcDbEntity
  8
Title Block
100
AcDbText
 10
10.34942622928998
 20
0.6762987650689816
 30
0.0
 40
0.05
  1
DRAWING
100
AcDbText
  0
TEXT
  5
FF
330
1F
100
AcDbEntity
  8
Title Block
100
AcDbText
 10
10.42723125590085
 20
0.2811642688682026
 30
0.0
 40
0.05
  1
SIZE
100
AcDbText
  0
TEXT
  5
100
330
1F
100
AcDbEntity
  8
Title Block
100
AcDbText
 10
10.38647626056889
 20
0.3911285990572359
 30
0.0
 40
0.25
  1
A
100
AcDbText
  0
MTEXT
  5
101
330
1F
100
AcDbEntity
  8
Title Block
100
AcDbMText
 10
0.375
 20
0.375
 30
0.0
 40
0.05
 41
0.25
 71
     5
 72
     5
  1
REV
 73
     1
 44
1.0
1001
ACAD
1000
MTEXTBEGIN
1070
    73
1070
     1
1070
    44
1040
1.0
1070
    74
1070
     0
1000
MTEXTEND
  0
MTEXT
  5
102
330
1F
100
AcDbEntity
  8
Title Block
100
AcDbMText
 10
0.75
 20
0.375
 30
0.0
 40
0.05
 41
0.5
 71
     5
 72
     5
  1
DATE
 73
     1
 44
1.0
1001
ACAD
1000
MTEXTBEGIN
1070
    73
1070
     1
1070
    44
1040
1.0
1070
    74
1070
     0
1000
MTEXTEND
  0
MTEXT
  5
103
330
1F
100
AcDbEntity
  8
Title Block
100
AcDbMText
 10
1.189999999999999
 20
0.375
 30
0.0
 40
0.05
 41
0.38
 71
     5
 72
     5
  1
BY
 73
     1
 44
1.0
1001
ACAD
1000
MTEXTBEGIN
1070
    73
1070
     1
1070
    44
1040
1.0
1070
    74
1070
     0
1000
MTEXTEND
  0
MTEXT
  5
104
330
1F
100
AcDbEntity
  8
Title Block
100
AcDbMText
 10
1.564999999999999
 20
0.375
 30
0.0
 40
0.05
 41
0.38
 71
     5
 72
     5
  1
CHK
 73
     1
 44
1.0
1001
ACAD
1000
MTEXTBEGIN
1070
    73
1070
     1
1070
    44
1040
1.0
1070
    74
1070
     0
1000
MTEXTEND
  0
MTEXT
  5
105
330
1F
100
AcDbEntity
  8
Title Block
100
AcDbMText
 10
3.125
 20
0.375
 30
0.0
 40
0.05
 41
2.75
 71
     5
 72
     5
  1
DESCRIPTION
 73
     1
 44
1.0
1001
ACAD
1000
MTEXTBEGIN
1070
    73
1070
     1
1070
    44
1040
1.0
1070
    74
1070
     0
1000
MTEXTEND
  0
MTEXT
  5
106
330
1F
100
AcDbEntity
  8
Title Block
100
AcDbMText
 10
5.064999999999999
 20
0.375
 30
0.0
 40
0.05
 41
1.129999999999999
 71
     5
 72
     5
  1
ECN   -   R
 73
     1
 44
1.0
1001
ACAD
1000
MTEXTBEGIN
1070
    73
1070
     1
1070
    44
1040
1.0
1070
    74
1070
     0
1000
MTEXTEND
  0
MTEXT
  5
107
330
1F
100
AcDbEntity
  8
Title Block
100
AcDbMText
 10
5.815
 20
0.375
 30
0.0
 40
0.05
 41
0.38
 71
     5
 72
     5
  1
CUST
 73
     1
 44
1.0
1001
ACAD
1000
MTEXTBEGIN
1070
    73
1070
     1
1070
    44
1040
1.0
1070
    74
1070
     0
1000
MTEXTEND
  0
MTEXT
  5
108
330
1F
100
AcDbEntity
  8
Title Block
100
AcDbMText
 10
6.19
 20
0.375
 30
0.0
 40
0.05
 41
0.38
 71
     5
 72
     5
  1
SUP
 73
     1
 44
1.0
1001
ACAD
1000
MTEXTBEGIN
1070
    73
1070
     1
1070
    44
1040
1.0
1070
    74
1070
     0
1000
MTEXTEND
  0
LWPOLYLINE
  5
109
330
1F
100
AcDbEntity
  8
Title Block
100
AcDbPolyline
 90
        4
 70
     1
 43
0.01
 10
0.25
 20
8.250000000000001
 10
0.25
 20
0.25
 10
10.75
 20
0.25
 10
10.75
 20
8.25
  0
LINE
  5
10A
330
1F
100
AcDbEntity
  8
Title Block
100
AcDbLine
 10
10.75
 20
2.749999999999999
 30
0.0
 11
0.25
 21
2.75
 31
0.0
  0
LINE
  5
10B
330
1F
100
AcDbEntity
  8
Title Block
100
AcDbLine
 10
6.75
 20
2.75
 30
0.0
 11
6.75
 21
0.25
 31
0.0
  0
LINE
  5
10C
330
1F
100
AcDbEntity
  8
Title Block
100
AcDbLine
 10
10.75
 20
2.499999999999999
 30
0.0
 11
0.25
 21
2.5
 31
0.0
  0
LINE
  5
10D
330
1F
100
AcDbEntity
  8
Title Block
100
AcDbLine
 10
6.75
 20
2.25
 30
0.0
 11
0.25
 21
2.25
 31
0.0
  0
LINE
  5
10E
330
1F
100
AcDbEntity
  8
Title Block
100
AcDbLine
 10
10.75
 20
1.999999999999999
 30
0.0
 11
0.25
 21
2.0
 31
0.0
  0
LINE
  5
10F
330
1F
100
AcDbEntity
  8
Title Block
100
AcDbLine
 10
6.75
 20
1.75
 30
0.0
 11
0.25
 21
1.75
 31
0.0
  0
LINE
  5
110
330
1F
100
AcDbEntity
  8
Title Block
100
AcDbLine
 10
10.75
 20
1.499999999999999
 30
0.0
 11
0.25
 21
1.5
 31
0.0
  0
LINE
  5
111
330
1F
100
AcDbEntity
  8
Title Block
100
AcDbLine
 10
6.75
 20
1.25
 30
0.0
 11
0.25
 21
1.25
 31
0.0
  0
LINE
  5
112
330
1F
100
AcDbEntity
  8
Title Block
100
AcDbLine
 10
10.75
 20
0.9999999999999996
 30
0.0
 11
0.25
 21
1.0
 31
0.0
  0
LINE
  5
113
330
1F
100
AcDbEntity
  8
Title Block
100
AcDbLine
 10
7.5
 20
0.75
 30
0.0
 11
0.25
 21
0.7500000000000009
 31
0.0
  0
LINE
  5
114
330
1F
100
AcDbEntity
  8
Title Block
100
AcDbLine
 10
7.5
 20
0.5
 30
0.0
 11
0.25
 21
0.5000000000000009
 31
0.0
  0
LINE
  5
115
330
1F
100
AcDbEntity
  8
Title Block
100
AcDbLine
 10
0.25
 20
0.25
 30
0.0
 11
0.25
 21
2.75
 31
0.0
  0
LINE
  5
116
330
1F
100
AcDbEntity
  8
Title Block
100
AcDbLine
 10
0.5
 20
0.25
 30
0.0
 11
0.5
 21
2.750000000000001
 31
0.0
  0
LINE
  5
117
330
1F
100
AcDbEntity
  8
Title Block
100
AcDbLine
 10
1.0
 20
0.25
 30
0.0
 11
1.0
 21
2.750000000000001
 31
0.0
  0
LINE
  5
118
330
1F
100
AcDbEntity
  8
Title Block
100
AcDbLine
 10
1.375
 20
0.25
 30
0.0
 11
1.375
 21
2.750000000000001
 31
0.0
  0
LINE
  5
119
330
1F
100
AcDbEntity
  8
Title Block
100
AcDbLine
 10
1.75
 20
0.25
 30
0.0
 11
1.75
 21
2.750000000000001
 31
0.0
  0
LINE
  5
11A
330
1F
100
AcDbEntity
  8
Title Block
100
AcDbLine
 10
6.375
 20
2.75
 30
0.0
 11
6.375
 21
0.25
 31
0.0
  0
LINE
  5
11B
330
1F
100
AcDbEntity
  8
Title Block
100
AcDbLine
 10
6.0
 20
2.75
 30
0.0
 11
6.0
 21
0.25
 31
0.0
  0
LINE
  5
11C
330
1F
100
AcDbEntity
  8
Title Block
100
AcDbLine
 10
5.625
 20
2.75
 30
0.0
 11
5.625
 21
0.25
 31
0.0
  0
LINE
  5
11D
330
1F
100
AcDbEntity
  8
Title Block
100
AcDbLine
 10
5.25
 20
2.75
 30
0.0
 11
5.25
 21
0.5000000000000002
 31
0.0
  0
LINE
  5
11E
330
1F
100
AcDbEntity
  8
Title Block
100
AcDbLine
 10
4.5
 20
2.75
 30
0.0
 11
4.5
 21
0.25
 31
0.0
  0
LINE
  5
11F
330
1F
100
AcDbEntity
  8
Title Block
100
AcDbLine
 10
9.25
 20
0.75
 30
0.0
 11
9.25
 21
1.499999999999999
 31
0.0
  0
LINE
  5
120
330
1F
100
AcDbEntity
  8
Title Block
100
AcDbLine
 10
9.25
 20
0.75
 30
0.0
 11
9.25
 21
0.25
 31
0.0
  0
LINE
  5
121
330
1F
100
AcDbEntity
  8
Title Block
100
AcDbLine
 10
9.25
 20
0.75
 30
0.0
 11
10.75
 21
0.75
 31
0.0
  0
LINE
  5
122
330
1F
100
AcDbEntity
  8
Title Block
100
AcDbLine
 10
7.5
 20
0.5
 30
0.0
 11
7.5
 21
0.25
 31
0.0
  0
LINE
  5
123
330
1F
100
AcDbEntity
  8
Title Block
100
AcDbLine
 10
7.5
 20
0.5
 30
0.0
 11
7.5
 21
1.0
 31
0.0
  0
LINE
  5
124
330
1F
100
AcDbEntity
  8
Title Block
100
AcDbLine
 10
10.25
 20
0.75
 30
0.0
 11
10.25
 21
0.25
 31
0.0
  0
POINT
  5
125
330
1F
100
AcDbEntity
  8
Title Block
100
AcDbPoint
 10
11.0
 20
8.5
 30
0.0
  0
POINT
  5
126
330
1F
100
AcDbEntity
  8
Title Block
100
AcDbPoint
 10
11.0
 20
0.0
 30
0.0
  0
POINT
  5
127
330
1F
100
AcDbEntity
  8
Title Block
100
AcDbPoint
 10
0.0
 20
0.0
 30
0.0
  0
POINT
  5
128
330
1F
100
AcDbEntity
  8
Title Block
100
AcDbPoint
 10
0.0
 20
8.500000000000001
 30
0.0
  0
MTEXT
  5
129
330
1F
100
AcDbEntity
  8
Text
100
AcDbMText
 10
0.375
 20
0.6250000000000009
 30
0.0
 40
0.09
 41
0.25
 71
     5
 72
     5
  1
R
 73
     1
 44
1.0
1001
ACAD
1000
MTEXTBEGIN
1070
    73
1070
     1
1070
    44
1040
1.0
1070
    74
1070
     0
1000
MTEXTEND
  0
MTEXT
  5
12A
330
1F
100
AcDbEntity
  8
Text
100
AcDbMText
 10
0.75
 20
0.6250000000000009
 30
0.0
 40
0.07
 41
0.5
 71
     5
 72
     5
  1
12-27-00
 73
     1
 44
1.0
1001
ACAD
1000
MTEXTBEGIN
1070
    73
1070
     1
1070
    44
1040
1.0
1070
    74
1070
     0
1000
MTEXTEND
  0
MTEXT
  5
12B
330
1F
100
AcDbEntity
  8
Text
100
AcDbMText
 10
1.1875
 20
0.6250000000000009
 30
0.0
 40
0.09
 41
0.375
 71
     5
 72
     5
  1
MSO
 73
     1
 44
1.0
1001
ACAD
1000
MTEXTBEGIN
1070
    73
1070
     1
1070
    44
1040
1.0
1070
    74
1070
     0
1000
MTEXTEND
  0
MTEXT
  5
12C
330
1F
100
AcDbEntity
  8
Text
100
AcDbMText
 10
3.125
 20
0.6250000000000005
 30
0.0
 40
0.09
 41
2.75
 71
     5
 72
     5
  1
DRAWING RELEASED
 73
     1
 44
1.0
1001
ACAD
1000
MTEXTBEGIN
1070
    73
1070
     1
1070
    44
1040
1.0
1070
    74
1070
     0
1000
MTEXTEND
  0
MTEXT
  5
12D
330
1F
100
AcDbEntity
  8
Text
100
AcDbMText
 10
7.474999999999999
 20
0.85
 30
0.0
 40
0.09
 41
0.75
 71
     6
 72
     5
  1
MSO
 73
     1
 44
1.0
1001
ACAD
1000
MTEXTBEGIN
1070
    73
1070
     1
1070
    44
1040
1.0
1070
    74
1070
     0
1000
MTEXTEND
  0
MTEXT
  5
12E
330
1F
100
AcDbEntity
  8
Text
100
AcDbMText
 10
7.474999999999999
 20
0.5999999999999999
 30
0.0
 40
0.09
 41
0.75
 71
     6
 72
     5
  1
12-27-00
 73
     1
 44
1.0
1001
ACAD
1000
MTEXTBEGIN
1070
    73
1070
     1
1070
    44
1040
1.0
1070
    74
1070
     0
1000
MTEXTEND
  0
MTEXT
  5
12F
330
1F
100
AcDbEntity
  8
Text
100
AcDbMText
 10
7.474999999999999
 20
0.3500000000000001
 30
0.0
 40
0.09
 41
0.75
 71
     6
 72
     5
  1
HIW
 73
     1
 44
1.0
1001
ACAD
1000
MTEXTBEGIN
1070
    73
1070
     1
1070
    44
1040
1.0
1070
    74
1070
     0
1000
MTEXTEND
  0
MTEXT
  5
130
330
1F
100
AcDbEntity
  8
Text
100
AcDbMText
 10
8.75
 20
2.625
 30
0.0
 40
0.09
 41
4.0
 71
     5
 72
     5
  1
S2X2NM.dwg
 73
     1
 44
1.0
1001
ACAD
1000
MTEXTBEGIN
1070
    73
1070
     1
1070
    44
1040
1.0
1070
    74
1070
     0
1000
MTEXTEND
  0
MTEXT
  5
131
330
1F
100
AcDbEntity
  8
Text
100
AcDbMText
 10
8.75
 20
1.75
 30
0.0
 40
0.09
 41
4.0
 71
     5
 72
     5
  1
FIBER-DUCT 2x2 SOLID WALL CHANNEL\P- NO MOUNTING HOLES (S2X2**2NM, S2X2**6NM)\PMARKETING DRAWING
 73
     1
 44
1.0
1001
ACAD
1000
MTEXTBEGIN
1070
    73
1070
     1
1070
    44
1040
1.0
1070
    74
1070
     0
1000
MTEXTEND
  0
MTEXT
  5
132
330
1F
100
AcDbEntity
  8
Text
100
AcDbMText
 10
10.0
 20
0.8749999999999998
 30
0.0
 40
0.12
 41
1.5
 71
     5
 72
     5
  1
FULL
 73
     1
 44
1.0
1001
ACAD
1000
MTEXTBEGIN
1070
    73
1070
     1
1070
    44
1040
1.0
1070
    74
1070
     0
1000
MTEXTEND
  0
MTEXT
  5
133
330
1F
100
AcDbEntity
  8
Text
100
AcDbMText
 10
9.75
 20
0.5
 30
0.0
 40
0.12
 41
1.0
 71
     5
 72
     5
  1
36897-604
 73
     1
 44
1.0
1001
ACAD
1000
MTEXTBEGIN
1070
    73
1070
     1
1070
    44
1040
1.0
1070
    74
1070
     0
1000
MTEXTEND
  0
DIMENSION
  5
134
330
1F
100
AcDbEntity
  8
Dimension
100
AcDbDimension
  2
*D1
 10
7.513890213757997
 20
6.225203404377014
 30
0.0
 11
7.513890213757996
 21
5.194135856213968
 31
0.0
 70
   160
 71
     5
 42
2.0
  3
Standard
100
AcDbAlignedDimension
 13
6.455954913827119
 23
4.225203404377014
 33
0.0
 14
6.45695491382712
 24
6.225203404377014
 34
0.0
 50
90.0
100
AcDbRotatedDimension
  0
TEXT
  5
137
330
1F
100
AcDbEntity
  8
Text
100
AcDbText
 10
4.942528703179
 20
3.637971967733422
 30
0.0
 40
0.125
  1
FRONT VIEW
100
AcDbText
  0
MTEXT
  5
139
330
1F
100
AcDbEntity
  8
Text
100
AcDbMText
 10
1.560400281422708
 20
0.626249074032665
 30
0.0
 40
0.09
 41
0.375
 71
     5
 72
     5
  1
HIW
 73
     1
 44
1.0
1001
ACAD
1000
MTEXTBEGIN
1070
    73
1070
     1
1070
    44
1040
1.0
1070
    74
1070
     0
1000
MTEXTEND
  0
LINE
  5
395
330
1F
100
AcDbEntity
  8
Text
100
AcDbLine
 10
6.76571650437247
 20
1.512568155032479
 30
0.0
 11
7.06571650437247
 21
1.512568155032479
 31
0.0
  0
LINE
  5
396
330
1F
100
AcDbEntity
  8
Text
100
AcDbLine
 10
7.06571650437247
 20
1.512568155032479
 30
0.0
 11
6.915716504372469
 21
1.772375776167809
 31
0.0
  0
LINE
  5
397
330
1F
100
AcDbEntity
  8
Text
100
AcDbLine
 10
6.765716504372471
 20
1.512568155032479
 30
0.0
 11
6.915716504372469
 21
1.772375776167809
 31
0.0
  0
TEXT
  5
398
330
1F
100
AcDbEntity
  8
Text
100
AcDbText
 10
6.87887536253222
 20
1.57226685506027
 30
0.0
 40
0.09
  1
A
100
AcDbText
  0
LINE
  5
39D
330
1F
100
AcDbEntity
  8
Text
100
AcDbLine
 10
4.616791327675642
 20
3.583404947783289
 30
0.0
 11
4.916791327675642
 21
3.583404947783289
 31
0.0
  0
LINE
  5
39E
330
1F
100
AcDbEntity
  8
Text
100
AcDbLine
 10
4.916791327675642
 20
3.583404947783289
 30
0.0
 11
4.766791327675641
 21
3.84321256891862
 31
0.0
  0
LINE
  5
39F
330
1F
100
AcDbEntity
  8
Text
100
AcDbLine
 10
4.616791327675643
 20
3.583404947783289
 30
0.0
 11
4.766791327675641
 21
3.84321256891862
 31
0.0
  0
TEXT
  5
3A0
330
1F
100
AcDbEntity
  8
Text
100
AcDbText
 10
4.730548105027146
 20
3.639517488677682
 30
0.0
 40
0.09
  1
B
100
AcDbText
  0
MTEXT
  5
3A4
330
1F
100
AcDbEntity
  8
Text
100
AcDbMText
 10
0.375
 20
0.8750000000000008
 30
0.0
 40
0.09
 41
0.25
 71
     5
 72
     5
  1
1
 73
     1
 44
1.0
1001
ACAD
1000
MTEXTBEGIN
1070
    73
1070
     1
1070
    44
1040
1.0
1070
    74
1070
     0
1000
MTEXTEND
  0
MTEXT
  5
3A5
330
1F
100
AcDbEntity
  8
Text
100
AcDbMText
 10
0.75
 20
0.8750000000000008
 30
0.0
 40
0.07
 41
0.5
 71
     5
 72
     5
  1
1-17-07
 73
     1
 44
1.0
1001
ACAD
1000
MTEXTBEGIN
1070
    73
1070
     1
1070
    44
1040
1.0
1070
    74
1070
     0
1000
MTEXTEND
  0
MTEXT
  5
3A6
330
1F
100
AcDbEntity
  8
Text
100
AcDbMText
 10
1.1875
 20
0.8750000000000008
 30
0.0
 40
0.09
 41
0.375
 71
     5
 72
     5
  1
MSO
 73
     1
 44
1.0
1001
ACAD
1000
MTEXTBEGIN
1070
    73
1070
     1
1070
    44
1040
1.0
1070
    74
1070
     0
1000
MTEXTEND
  0
MTEXT
  5
3A7
330
1F
100
AcDbEntity
  8
Text
100
AcDbMText
 10
1.7755
 20
0.8750000000000003
 30
0.0
 40
0.07
 41
2.75
 71
     4
 72
     5
  1
B. REVISED PART GEOMETRY.\PA. REVISED DRAWING TITLE.
 73
     1
 44
1.0
1001
ACAD
1000
MTEXTBEGIN
1070
    73
1070
     1
1070
    44
1040
1.0
1070
    74
1070
     0
1000
MTEXTEND
  0
MTEXT
  5
3A8
330
1F
100
AcDbEntity
  8
Text
100
AcDbMText
 10
1.560400281422708
 20
0.8762490740326649
 30
0.0
 40
0.07
 41
0.375
 71
     5
 72
     5
  1
DJWA
 73
     1
 44
1.0
1001
ACAD
1000
MTEXTBEGIN
1070
    73
1070
     1
1070
    44
1040
1.0
1070
    74
1070
     0
1000
MTEXTEND
  0
LINE
  5
4CB
330
1F
100
AcDbEntity
  8
Object
100
AcDbLine
 10
6.606954913827119
 20
6.190203404377013
 30
0.0
 11
6.60595491382712
 21
6.194203404377014
 31
0.0
  0
LINE
  5
4CC
330
1F
100
AcDbEntity
  8
Object
100
AcDbLine
 10
6.598954913827119
 20
6.200203404377013
 30
0.0
 11
6.60295491382712
 21
6.198203404377014
 31
0.0
  0
LINE
  5
4CD
330
1F
100
AcDbEntity
  8
Object
100
AcDbLine
 10
6.60295491382712
 20
6.198203404377014
 30
0.0
 11
6.60595491382712
 21
6.194203404377014
 31
0.0
  0
LINE
  5
4CE
330
1F
100
AcDbEntity
  8
Object
100
AcDbLine
 10
6.60295491382712
 20
6.124203404377014
 30
0.0
 11
6.59995491382712
 21
6.121203404377014
 31
0.0
  0
LINE
  5
4CF
330
1F
100
AcDbEntity
  8
Object
100
AcDbLine
 10
6.59995491382712
 20
6.121203404377014
 30
0.0
 11
6.59495491382712
 21
6.119203404377014
 31
0.0
  0
LINE
  5
4D0
330
1F
100
AcDbEntity
  8
Object
100
AcDbLine
 10
6.59495491382712
 20
6.119203404377014
 30
0.0
 11
6.593954913827119
 21
6.119203404377014
 31
0.0
  0
LINE
  5
4D1
330
1F
100
AcDbEntity
  8
Object
100
AcDbLine
 10
6.606954913827119
 20
6.190203404377013
 30
0.0
 11
6.604954913827119
 21
6.129203404377014
 31
0.0
  0
LINE
  5
4D2
330
1F
100
AcDbEntity
  8
Object
100
AcDbLine
 10
6.604954913827119
 20
6.129203404377014
 30
0.0
 11
6.60295491382712
 21
6.124203404377014
 31
0.0
  0
LINE
  5
4D3
330
1F
100
AcDbEntity
  8
Object
100
AcDbLine
 10
6.593954913827119
 20
6.119203404377014
 30
0.0
 11
6.592954913827119
 21
6.119203404377014
 31
0.0
  0
LINE
  5
4D4
330
1F
100
AcDbEntity
  8
Object
100
AcDbLine
 10
6.592954913827119
 20
6.119203404377014
 30
0.0
 11
6.510954913827119
 21
6.134203404377013
 31
0.0
  0
LINE
  5
4D5
330
1F
100
AcDbEntity
  8
Object
100
AcDbLine
 10
6.510954913827119
 20
6.134203404377013
 30
0.0
 11
6.50695491382712
 21
6.134203404377013
 31
0.0
  0
LINE
  5
4D6
330
1F
100
AcDbEntity
  8
Object
100
AcDbLine
 10
6.598954913827119
 20
6.200203404377013
 30
0.0
 11
6.45695491382712
 21
6.225203404377014
 31
0.0
  0
LINE
  5
4D7
330
1F
100
AcDbEntity
  8
Object
100
AcDbLine
 10
6.502954913827119
 20
6.132203404377014
 30
0.0
 11
6.50695491382712
 21
6.134203404377013
 31
0.0
  0
LINE
  5
4D8
330
1F
100
AcDbEntity
  8
Object
100
AcDbLine
 10
6.455954913827119
 20
4.305203404377014
 30
0.0
 11
6.471954913827119
 21
4.302203404377014
 31
0.0
  0
LINE
  5
4D9
330
1F
100
AcDbEntity
  8
Object
100
AcDbLine
 10
6.471954913827119
 20
4.302203404377014
 30
0.0
 11
6.484954913827119
 21
4.293203404377013
 31
0.0
  0
LINE
  5
4DA
330
1F
100
AcDbEntity
  8
Object
100
AcDbLine
 10
6.484954913827119
 20
4.293203404377013
 30
0.0
 11
6.492954913827119
 21
4.280203404377013
 31
0.0
  0
LINE
  5
4DB
330
1F
100
AcDbEntity
  8
Object
100
AcDbLine
 10
6.492954913827119
 20
4.280203404377013
 30
0.0
 11
6.495954913827119
 21
4.265203404377014
 31
0.0
  0
LINE
  5
4DC
330
1F
100
AcDbEntity
  8
Object
100
AcDbLine
 10
6.495954913827119
 20
4.265203404377014
 30
0.0
 11
6.492954913827119
 21
4.249203404377014
 31
0.0
  0
LINE
  5
4DD
330
1F
100
AcDbEntity
  8
Object
100
AcDbLine
 10
6.492954913827119
 20
4.249203404377014
 30
0.0
 11
6.484954913827119
 21
4.237203404377014
 31
0.0
  0
LINE
  5
4DE
330
1F
100
AcDbEntity
  8
Object
100
AcDbLine
 10
6.484954913827119
 20
4.237203404377014
 30
0.0
 11
6.471954913827119
 21
4.228203404377014
 31
0.0
  0
LINE
  5
4DF
330
1F
100
AcDbEntity
  8
Object
100
AcDbLine
 10
6.471954913827119
 20
4.228203404377014
 30
0.0
 11
6.455954913827119
 21
4.225203404377014
 31
0.0
  0
LINE
  5
4E0
330
1F
100
AcDbEntity
  8
Object
100
AcDbLine
 10
6.455954913827119
 20
4.305203404377014
 30
0.0
 11
6.44595491382712
 21
4.305203404377014
 31
0.0
  0
LINE
  5
4E1
330
1F
100
AcDbEntity
  8
Object
100
AcDbLine
 10
6.44595491382712
 20
4.305203404377014
 30
0.0
 11
6.441954913827119
 21
4.306203404377013
 31
0.0
  0
LINE
  5
4E2
330
1F
100
AcDbEntity
  8
Object
100
AcDbLine
 10
6.43295491382712
 20
6.219203404377013
 30
0.0
 11
6.443954913827119
 21
6.224203404377013
 31
0.0
  0
LINE
  5
4E3
330
1F
100
AcDbEntity
  8
Object
100
AcDbLine
 10
6.443954913827119
 20
6.224203404377013
 30
0.0
 11
6.45695491382712
 21
6.225203404377014
 31
0.0
  0
LINE
  5
4E4
330
1F
100
AcDbEntity
  8
Object
100
AcDbLine
 10
6.43295491382712
 20
6.219203404377013
 30
0.0
 11
6.42495491382712
 21
6.209203404377014
 31
0.0
  0
LINE
  5
4E5
330
1F
100
AcDbEntity
  8
Object
100
AcDbLine
 10
6.42495491382712
 20
6.209203404377014
 30
0.0
 11
6.42195491382712
 21
6.196203404377014
 31
0.0
  0
LINE
  5
4E6
330
1F
100
AcDbEntity
  8
Object
100
AcDbLine
 10
6.502954913827119
 20
6.132203404377014
 30
0.0
 11
6.500954913827119
 21
6.128203404377014
 31
0.0
  0
LINE
  5
4E7
330
1F
100
AcDbEntity
  8
Object
100
AcDbLine
 10
6.500954913827119
 20
6.128203404377014
 30
0.0
 11
6.499954913827119
 21
6.124203404377014
 31
0.0
  0
LINE
  5
4E8
330
1F
100
AcDbEntity
  8
Object
100
AcDbLine
 10
6.436954913827119
 20
4.311203404377014
 30
0.0
 11
6.435954913827119
 21
4.315203404377013
 31
0.0
  0
LINE
  5
4E9
330
1F
100
AcDbEntity
  8
Object
100
AcDbLine
 10
6.375954913827119
 20
4.320203404377014
 30
0.0
 11
6.375954913827119
 21
4.305203404377014
 31
0.0
  0
LINE
  5
4EA
330
1F
100
AcDbEntity
  8
Object
100
AcDbLine
 10
6.435954913827119
 20
4.315203404377013
 30
0.0
 11
6.499954913827119
 21
6.124203404377014
 31
0.0
  0
LINE
  5
4EB
330
1F
100
AcDbEntity
  8
Object
100
AcDbLine
 10
6.436954913827119
 20
4.311203404377014
 30
0.0
 11
6.438954913827119
 21
4.308203404377014
 31
0.0
  0
LINE
  5
4EC
330
1F
100
AcDbEntity
  8
Object
100
AcDbLine
 10
6.438954913827119
 20
4.308203404377014
 30
0.0
 11
6.441954913827119
 21
4.306203404377013
 31
0.0
  0
LINE
  5
4ED
330
1F
100
AcDbEntity
  8
Object
100
AcDbLine
 10
6.375954913827119
 20
4.320203404377014
 30
0.0
 11
6.35595491382712
 21
4.320203404377014
 31
0.0
  0
LINE
  5
4EE
330
1F
100
AcDbEntity
  8
Object
100
AcDbLine
 10
6.35595491382712
 20
4.320203404377014
 30
0.0
 11
6.42195491382712
 21
6.196203404377014
 31
0.0
  0
LINE
  5
4EF
330
1F
100
AcDbEntity
  8
Object
100
AcDbLine
 10
6.375954913827119
 20
4.305203404377014
 30
0.0
 11
4.481954913827119
 21
4.305203404377014
 31
0.0
  0
LINE
  5
4F0
330
1F
100
AcDbEntity
  8
Object
100
AcDbLine
 10
4.481954913827119
 20
4.305203404377014
 30
0.0
 11
4.481954913827119
 21
4.320203404377014
 31
0.0
  0
LINE
  5
4F1
330
1F
100
AcDbEntity
  8
Object
100
AcDbLine
 10
4.420954913827119
 20
4.315203404377013
 30
0.0
 11
4.420954913827119
 21
4.311203404377014
 31
0.0
  0
LINE
  5
4F2
330
1F
100
AcDbEntity
  8
Object
100
AcDbLine
 10
4.420954913827119
 20
4.311203404377014
 30
0.0
 11
4.41895491382712
 21
4.308203404377014
 31
0.0
  0
LINE
  5
4F3
330
1F
100
AcDbEntity
  8
Object
100
AcDbLine
 10
4.41895491382712
 20
4.308203404377014
 30
0.0
 11
4.414954913827119
 21
4.306203404377013
 31
0.0
  0
LINE
  5
4F4
330
1F
100
AcDbEntity
  8
Object
100
AcDbLine
 10
4.40095491382712
 20
4.305203404377014
 30
0.0
 11
4.41095491382712
 21
4.305203404377014
 31
0.0
  0
LINE
  5
4F5
330
1F
100
AcDbEntity
  8
Object
100
AcDbLine
 10
4.41095491382712
 20
4.305203404377014
 30
0.0
 11
4.414954913827119
 21
4.306203404377013
 31
0.0
  0
LINE
  5
4F6
330
1F
100
AcDbEntity
  8
Object
100
AcDbLine
 10
4.40095491382712
 20
4.225203404377014
 30
0.0
 11
6.455954913827119
 21
4.225203404377014
 31
0.0
  0
LINE
  5
4F7
330
1F
100
AcDbEntity
  8
Object
100
AcDbLine
 10
4.399954913827119
 20
6.225203404377014
 30
0.0
 11
4.412954913827119
 21
6.224203404377013
 31
0.0
  0
LINE
  5
4F8
330
1F
100
AcDbEntity
  8
Object
100
AcDbLine
 10
4.412954913827119
 20
6.224203404377013
 30
0.0
 11
4.42495491382712
 21
6.219203404377013
 31
0.0
  0
LINE
  5
4F9
330
1F
100
AcDbEntity
  8
Object
100
AcDbLine
 10
4.42495491382712
 20
6.219203404377013
 30
0.0
 11
4.43295491382712
 21
6.209203404377014
 31
0.0
  0
LINE
  5
4FA
330
1F
100
AcDbEntity
  8
Object
100
AcDbLine
 10
4.43295491382712
 20
6.209203404377014
 30
0.0
 11
4.435954913827119
 21
6.196203404377014
 31
0.0
  0
LINE
  5
4FB
330
1F
100
AcDbEntity
  8
Object
100
AcDbLine
 10
4.40095491382712
 20
4.305203404377014
 30
0.0
 11
4.385954913827119
 21
4.302203404377014
 31
0.0
  0
LINE
  5
4FC
330
1F
100
AcDbEntity
  8
Object
100
AcDbLine
 10
4.40095491382712
 20
4.225203404377014
 30
0.0
 11
4.385954913827119
 21
4.228203404377014
 31
0.0
  0
LINE
  5
4FD
330
1F
100
AcDbEntity
  8
Object
100
AcDbLine
 10
4.385954913827119
 20
4.228203404377014
 30
0.0
 11
4.372954913827119
 21
4.237203404377014
 31
0.0
  0
LINE
  5
4FE
330
1F
100
AcDbEntity
  8
Object
100
AcDbLine
 10
4.372954913827119
 20
4.237203404377014
 30
0.0
 11
4.363954913827119
 21
4.249203404377014
 31
0.0
  0
LINE
  5
4FF
330
1F
100
AcDbEntity
  8
Object
100
AcDbLine
 10
4.363954913827119
 20
4.280203404377013
 30
0.0
 11
4.372954913827119
 21
4.293203404377013
 31
0.0
  0
LINE
  5
500
330
1F
100
AcDbEntity
  8
Object
100
AcDbLine
 10
4.372954913827119
 20
4.293203404377013
 30
0.0
 11
4.385954913827119
 21
4.302203404377014
 31
0.0
  0
LINE
  5
501
330
1F
100
AcDbEntity
  8
Object
100
AcDbLine
 10
4.363954913827119
 20
4.249203404377014
 30
0.0
 11
4.36095491382712
 21
4.265203404377014
 31
0.0
  0
LINE
  5
502
330
1F
100
AcDbEntity
  8
Object
100
AcDbLine
 10
4.36095491382712
 20
4.265203404377014
 30
0.0
 11
4.363954913827119
 21
4.280203404377013
 31
0.0
  0
LINE
  5
503
330
1F
100
AcDbEntity
  8
Object
100
AcDbLine
 10
4.500954913827119
 20
4.320203404377014
 30
0.0
 11
4.435954913827119
 21
6.196203404377014
 31
0.0
  0
LINE
  5
504
330
1F
100
AcDbEntity
  8
Object
100
AcDbLine
 10
4.35795491382712
 20
6.124203404377014
 30
0.0
 11
4.420954913827119
 21
4.315203404377013
 31
0.0
  0
LINE
  5
505
330
1F
100
AcDbEntity
  8
Object
100
AcDbLine
 10
4.481954913827119
 20
4.320203404377014
 30
0.0
 11
4.500954913827119
 21
4.320203404377014
 31
0.0
  0
LINE
  5
506
330
1F
100
AcDbEntity
  8
Object
100
AcDbLine
 10
4.35795491382712
 20
6.124203404377014
 30
0.0
 11
4.356954913827119
 21
6.128203404377014
 31
0.0
  0
LINE
  5
507
330
1F
100
AcDbEntity
  8
Object
100
AcDbLine
 10
4.356954913827119
 20
6.128203404377014
 30
0.0
 11
4.353954913827119
 21
6.132203404377014
 31
0.0
  0
LINE
  5
508
330
1F
100
AcDbEntity
  8
Object
100
AcDbLine
 10
4.353954913827119
 20
6.132203404377014
 30
0.0
 11
4.350954913827119
 21
6.134203404377013
 31
0.0
  0
LINE
  5
509
330
1F
100
AcDbEntity
  8
Object
100
AcDbLine
 10
4.350954913827119
 20
6.134203404377013
 30
0.0
 11
4.345954913827119
 21
6.134203404377013
 31
0.0
  0
LINE
  5
50A
330
1F
100
AcDbEntity
  8
Object
100
AcDbLine
 10
4.345954913827119
 20
6.134203404377013
 30
0.0
 11
4.26495491382712
 21
6.119203404377014
 31
0.0
  0
LINE
  5
50B
330
1F
100
AcDbEntity
  8
Object
100
AcDbLine
 10
4.399954913827119
 20
6.225203404377014
 30
0.0
 11
4.258954913827119
 21
6.200203404377013
 31
0.0
  0
LINE
  5
50C
330
1F
100
AcDbEntity
  8
Object
100
AcDbLine
 10
4.26495491382712
 20
6.119203404377014
 30
0.0
 11
4.263954913827119
 21
6.119203404377014
 31
0.0
  0
LINE
  5
50D
330
1F
100
AcDbEntity
  8
Object
100
AcDbLine
 10
4.263954913827119
 20
6.119203404377014
 30
0.0
 11
4.262954913827119
 21
6.119203404377014
 31
0.0
  0
LINE
  5
50E
330
1F
100
AcDbEntity
  8
Object
100
AcDbLine
 10
4.262954913827119
 20
6.119203404377014
 30
0.0
 11
4.257954913827119
 21
6.121203404377014
 31
0.0
  0
LINE
  5
50F
330
1F
100
AcDbEntity
  8
Object
100
AcDbLine
 10
4.257954913827119
 20
6.121203404377014
 30
0.0
 11
4.253954913827119
 21
6.124203404377014
 31
0.0
  0
LINE
  5
510
330
1F
100
AcDbEntity
  8
Object
100
AcDbLine
 10
4.253954913827119
 20
6.124203404377014
 30
0.0
 11
4.252954913827119
 21
6.129203404377014
 31
0.0
  0
LINE
  5
511
330
1F
100
AcDbEntity
  8
Object
100
AcDbLine
 10
4.25195491382712
 20
6.194203404377014
 30
0.0
 11
4.254954913827119
 21
6.198203404377014
 31
0.0
  0
LINE
  5
512
330
1F
100
AcDbEntity
  8
Object
100
AcDbLine
 10
4.254954913827119
 20
6.198203404377014
 30
0.0
 11
4.258954913827119
 21
6.200203404377013
 31
0.0
  0
LINE
  5
513
330
1F
100
AcDbEntity
  8
Object
100
AcDbLine
 10
4.252954913827119
 20
6.129203404377014
 30
0.0
 11
4.250954913827119
 21
6.190203404377013
 31
0.0
  0
LINE
  5
514
330
1F
100
AcDbEntity
  8
Object
100
AcDbLine
 10
4.250954913827119
 20
6.190203404377013
 30
0.0
 11
4.25195491382712
 21
6.194203404377014
 31
0.0
  0
LINE
  5
515
330
1F
100
AcDbEntity
  8
Object
100
AcDbLine
 10
6.510954913827119
 20
6.134203404377013
 30
0.0
 11
6.592954913827119
 21
6.119203404377014
 31
0.0
  0
LINE
  5
516
330
1F
100
AcDbEntity
  8
Object
100
AcDbLine
 10
4.399954913827119
 20
6.225203404377014
 30
0.0
 11
4.258954913827119
 21
6.200203404377013
 31
0.0
  0
LINE
  5
517
330
1F
100
AcDbEntity
  8
Object
100
AcDbLine
 10
6.45695491382712
 20
6.225203404377014
 30
0.0
 11
6.443954913827119
 21
6.224203404377013
 31
0.0
  0
LINE
  5
518
330
1F
100
AcDbEntity
  8
Object
100
AcDbLine
 10
6.443954913827119
 20
6.224203404377013
 30
0.0
 11
6.43295491382712
 21
6.219203404377013
 31
0.0
  0
LINE
  5
519
330
1F
100
AcDbEntity
  8
Object
100
AcDbLine
 10
6.43295491382712
 20
6.219203404377013
 30
0.0
 11
6.42495491382712
 21
6.209203404377014
 31
0.0
  0
LINE
  5
51A
330
1F
100
AcDbEntity
  8
Object
100
AcDbLine
 10
6.42495491382712
 20
6.209203404377014
 30
0.0
 11
6.42195491382712
 21
6.196203404377014
 31
0.0
  0
LINE
  5
51B
330
1F
100
AcDbEntity
  8
Object
100
AcDbLine
 10
6.510954913827119
 20
6.134203404377013
 30
0.0
 11
6.50695491382712
 21
6.134203404377013
 31
0.0
  0
LINE
  5
51C
330
1F
100
AcDbEntity
  8
Object
100
AcDbLine
 10
6.50695491382712
 20
6.134203404377013
 30
0.0
 11
6.502954913827119
 21
6.132203404377014
 31
0.0
  0
LINE
  5
51D
330
1F
100
AcDbEntity
  8
Object
100
AcDbLine
 10
6.502954913827119
 20
6.132203404377014
 30
0.0
 11
6.500954913827119
 21
6.128203404377014
 31
0.0
  0
LINE
  5
51E
330
1F
100
AcDbEntity
  8
Object
100
AcDbLine
 10
6.500954913827119
 20
6.128203404377014
 30
0.0
 11
6.499954913827119
 21
6.124203404377014
 31
0.0
  0
LINE
  5
51F
330
1F
100
AcDbEntity
  8
Object
100
AcDbLine
 10
6.35595491382712
 20
4.320203404377014
 30
0.0
 11
6.375954913827119
 21
4.320203404377014
 31
0.0
  0
LINE
  5
520
330
1F
100
AcDbEntity
  8
Object
100
AcDbLine
 10
4.262954913827119
 20
6.119203404377014
 30
0.0
 11
4.257954913827119
 21
6.121203404377014
 31
0.0
  0
LINE
  5
521
330
1F
100
AcDbEntity
  8
Object
100
AcDbLine
 10
4.257954913827119
 20
6.121203404377014
 30
0.0
 11
4.253954913827119
 21
6.124203404377014
 31
0.0
  0
LINE
  5
522
330
1F
100
AcDbEntity
  8
Object
100
AcDbLine
 10
4.253954913827119
 20
6.124203404377014
 30
0.0
 11
4.252954913827119
 21
6.129203404377014
 31
0.0
  0
LINE
  5
523
330
1F
100
AcDbEntity
  8
Object
100
AcDbLine
 10
4.252954913827119
 20
6.129203404377014
 30
0.0
 11
4.250954913827119
 21
6.190203404377013
 31
0.0
  0
LINE
  5
524
330
1F
100
AcDbEntity
  8
Object
100
AcDbLine
 10
4.481954913827119
 20
4.320203404377014
 30
0.0
 11
4.500954913827119
 21
4.320203404377014
 31
0.0
  0
LINE
  5
525
330
1F
100
AcDbEntity
  8
Object
100
AcDbLine
 10
6.604954913827119
 20
6.129203404377014
 30
0.0
 11
6.606954913827119
 21
6.190203404377013
 31
0.0
  0
LINE
  5
526
330
1F
100
AcDbEntity
  8
Object
100
AcDbLine
 10
4.41095491382712
 20
4.305203404377014
 30
0.0
 11
4.40095491382712
 21
4.305203404377014
 31
0.0
  0
LINE
  5
527
330
1F
100
AcDbEntity
  8
Object
100
AcDbLine
 10
4.420954913827119
 20
4.315203404377013
 30
0.0
 11
4.420954913827119
 21
4.311203404377014
 31
0.0
  0
LINE
  5
528
330
1F
100
AcDbEntity
  8
Object
100
AcDbLine
 10
4.420954913827119
 20
4.311203404377014
 30
0.0
 11
4.41895491382712
 21
4.308203404377014
 31
0.0
  0
LINE
  5
529
330
1F
100
AcDbEntity
  8
Object
100
AcDbLine
 10
4.41895491382712
 20
4.308203404377014
 30
0.0
 11
4.414954913827119
 21
4.306203404377013
 31
0.0
  0
LINE
  5
52A
330
1F
100
AcDbEntity
  8
Object
100
AcDbLine
 10
4.414954913827119
 20
4.306203404377013
 30
0.0
 11
4.41095491382712
 21
4.305203404377014
 31
0.0
  0
LINE
  5
52B
102
{ACAD_REACTORS
330
6E0
102
}
330
1F
100
AcDbEntity
  8
Object
100
AcDbLine
 10
4.35795491382712
 20
6.124203404377014
 30
0.0
 11
4.420954913827119
 21
4.315203404377013
 31
0.0
  0
LINE
  5
52C
330
1F
100
AcDbEntity
  8
Object
100
AcDbLine
 10
6.59495491382712
 20
6.119203404377014
 30
0.0
 11
6.593954913827119
 21
6.119203404377014
 31
0.0
  0
LINE
  5
52D
330
1F
100
AcDbEntity
  8
Object
100
AcDbLine
 10
6.593954913827119
 20
6.119203404377014
 30
0.0
 11
6.592954913827119
 21
6.119203404377014
 31
0.0
  0
LINE
  5
52E
330
1F
100
AcDbEntity
  8
Object
100
AcDbLine
 10
4.500954913827119
 20
4.320203404377014
 30
0.0
 11
4.435954913827119
 21
6.196203404377014
 31
0.0
  0
LINE
  5
52F
330
1F
100
AcDbEntity
  8
Object
100
AcDbLine
 10
6.42195491382712
 20
6.196203404377014
 30
0.0
 11
6.35595491382712
 21
4.320203404377014
 31
0.0
  0
LINE
  5
530
330
1F
100
AcDbEntity
  8
Object
100
AcDbLine
 10
6.44595491382712
 20
4.305203404377014
 30
0.0
 11
6.441954913827119
 21
4.306203404377013
 31
0.0
  0
LINE
  5
531
330
1F
100
AcDbEntity
  8
Object
100
AcDbLine
 10
6.441954913827119
 20
4.306203404377013
 30
0.0
 11
6.438954913827119
 21
4.308203404377014
 31
0.0
  0
LINE
  5
532
330
1F
100
AcDbEntity
  8
Object
100
AcDbLine
 10
6.438954913827119
 20
4.308203404377014
 30
0.0
 11
6.436954913827119
 21
4.311203404377014
 31
0.0
  0
LINE
  5
533
330
1F
100
AcDbEntity
  8
Object
100
AcDbLine
 10
6.436954913827119
 20
4.311203404377014
 30
0.0
 11
6.435954913827119
 21
4.315203404377013
 31
0.0
  0
LINE
  5
534
330
1F
100
AcDbEntity
  8
Object
100
AcDbLine
 10
6.375954913827119
 20
4.305203404377014
 30
0.0
 11
4.481954913827119
 21
4.305203404377014
 31
0.0
  0
LINE
  5
535
330
1F
100
AcDbEntity
  8
Object
100
AcDbLine
 10
6.435954913827119
 20
4.315203404377013
 30
0.0
 11
6.499954913827119
 21
6.124203404377014
 31
0.0
  0
LINE
  5
536
330
1F
100
AcDbEntity
  8
Object
100
AcDbLine
 10
4.26495491382712
 20
6.119203404377014
 30
0.0
 11
4.263954913827119
 21
6.119203404377014
 31
0.0
  0
LINE
  5
537
330
1F
100
AcDbEntity
  8
Object
100
AcDbLine
 10
4.263954913827119
 20
6.119203404377014
 30
0.0
 11
4.262954913827119
 21
6.119203404377014
 31
0.0
  0
LINE
  5
538
330
1F
100
AcDbEntity
  8
Object
100
AcDbLine
 10
6.598954913827119
 20
6.200203404377013
 30
0.0
 11
6.45695491382712
 21
6.225203404377014
 31
0.0
  0
LINE
  5
539
330
1F
100
AcDbEntity
  8
Object
100
AcDbLine
 10
6.606954913827119
 20
6.190203404377013
 30
0.0
 11
6.60595491382712
 21
6.194203404377014
 31
0.0
  0
LINE
  5
53A
330
1F
100
AcDbEntity
  8
Object
100
AcDbLine
 10
6.60595491382712
 20
6.194203404377014
 30
0.0
 11
6.60295491382712
 21
6.198203404377014
 31
0.0
  0
LINE
  5
53B
330
1F
100
AcDbEntity
  8
Object
100
AcDbLine
 10
6.60295491382712
 20
6.198203404377014
 30
0.0
 11
6.598954913827119
 21
6.200203404377013
 31
0.0
  0
LINE
  5
53C
330
1F
100
AcDbEntity
  8
Object
100
AcDbLine
 10
4.258954913827119
 20
6.200203404377013
 30
0.0
 11
4.254954913827119
 21
6.198203404377014
 31
0.0
  0
LINE
  5
53D
330
1F
100
AcDbEntity
  8
Object
100
AcDbLine
 10
4.254954913827119
 20
6.198203404377014
 30
0.0
 11
4.25195491382712
 21
6.194203404377014
 31
0.0
  0
LINE
  5
53E
330
1F
100
AcDbEntity
  8
Object
100
AcDbLine
 10
4.25195491382712
 20
6.194203404377014
 30
0.0
 11
4.250954913827119
 21
6.190203404377013
 31
0.0
  0
LINE
  5
53F
330
1F
100
AcDbEntity
  8
Object
100
AcDbLine
 10
6.604954913827119
 20
6.129203404377014
 30
0.0
 11
6.60295491382712
 21
6.124203404377014
 31
0.0
  0
LINE
  5
540
330
1F
100
AcDbEntity
  8
Object
100
AcDbLine
 10
6.60295491382712
 20
6.124203404377014
 30
0.0
 11
6.59995491382712
 21
6.121203404377014
 31
0.0
  0
LINE
  5
541
330
1F
100
AcDbEntity
  8
Object
100
AcDbLine
 10
6.59995491382712
 20
6.121203404377014
 30
0.0
 11
6.59495491382712
 21
6.119203404377014
 31
0.0
  0
LINE
  5
542
330
1F
100
AcDbEntity
  8
Object
100
AcDbLine
 10
4.40095491382712
 20
4.225203404377014
 30
0.0
 11
6.455954913827119
 21
4.225203404377014
 31
0.0
  0
LINE
  5
543
330
1F
100
AcDbEntity
  8
Object
100
AcDbLine
 10
6.375954913827119
 20
4.320203404377014
 30
0.0
 11
6.375954913827119
 21
4.305203404377014
 31
0.0
  0
LINE
  5
544
330
1F
100
AcDbEntity
  8
Object
100
AcDbLine
 10
6.455954913827119
 20
4.305203404377014
 30
0.0
 11
6.44595491382712
 21
4.305203404377014
 31
0.0
  0
LINE
  5
545
330
1F
100
AcDbEntity
  8
Object
100
AcDbLine
 10
6.492954913827119
 20
4.280203404377013
 30
0.0
 11
6.495954913827119
 21
4.265203404377014
 31
0.0
  0
LINE
  5
546
330
1F
100
AcDbEntity
  8
Object
100
AcDbLine
 10
6.495954913827119
 20
4.265203404377014
 30
0.0
 11
6.492954913827119
 21
4.249203404377014
 31
0.0
  0
LINE
  5
547
330
1F
100
AcDbEntity
  8
Object
100
AcDbLine
 10
6.492954913827119
 20
4.249203404377014
 30
0.0
 11
6.484954913827119
 21
4.237203404377014
 31
0.0
  0
LINE
  5
548
330
1F
100
AcDbEntity
  8
Object
100
AcDbLine
 10
6.492954913827119
 20
4.280203404377013
 30
0.0
 11
6.484954913827119
 21
4.293203404377013
 31
0.0
  0
LINE
  5
549
330
1F
100
AcDbEntity
  8
Object
100
AcDbLine
 10
6.484954913827119
 20
4.293203404377013
 30
0.0
 11
6.471954913827119
 21
4.302203404377014
 31
0.0
  0
LINE
  5
54A
330
1F
100
AcDbEntity
  8
Object
100
AcDbLine
 10
6.484954913827119
 20
4.237203404377014
 30
0.0
 11
6.471954913827119
 21
4.228203404377014
 31
0.0
  0
LINE
  5
54B
330
1F
100
AcDbEntity
  8
Object
100
AcDbLine
 10
6.471954913827119
 20
4.228203404377014
 30
0.0
 11
6.455954913827119
 21
4.225203404377014
 31
0.0
  0
LINE
  5
54C
330
1F
100
AcDbEntity
  8
Object
100
AcDbLine
 10
6.471954913827119
 20
4.302203404377014
 30
0.0
 11
6.455954913827119
 21
4.305203404377014
 31
0.0
  0
LINE
  5
54D
330
1F
100
AcDbEntity
  8
Object
100
AcDbLine
 10
4.40095491382712
 20
4.305203404377014
 30
0.0
 11
4.385954913827119
 21
4.302203404377014
 31
0.0
  0
LINE
  5
54E
330
1F
100
AcDbEntity
  8
Object
100
AcDbLine
 10
4.40095491382712
 20
4.225203404377014
 30
0.0
 11
4.385954913827119
 21
4.228203404377014
 31
0.0
  0
LINE
  5
54F
330
1F
100
AcDbEntity
  8
Object
100
AcDbLine
 10
4.385954913827119
 20
4.228203404377014
 30
0.0
 11
4.372954913827119
 21
4.237203404377014
 31
0.0
  0
LINE
  5
550
330
1F
100
AcDbEntity
  8
Object
100
AcDbLine
 10
4.385954913827119
 20
4.302203404377014
 30
0.0
 11
4.372954913827119
 21
4.293203404377013
 31
0.0
  0
LINE
  5
551
330
1F
100
AcDbEntity
  8
Object
100
AcDbLine
 10
4.372954913827119
 20
4.293203404377013
 30
0.0
 11
4.363954913827119
 21
4.280203404377013
 31
0.0
  0
LINE
  5
552
330
1F
100
AcDbEntity
  8
Object
100
AcDbLine
 10
4.372954913827119
 20
4.237203404377014
 30
0.0
 11
4.363954913827119
 21
4.249203404377014
 31
0.0
  0
LINE
  5
553
330
1F
100
AcDbEntity
  8
Object
100
AcDbLine
 10
4.363954913827119
 20
4.249203404377014
 30
0.0
 11
4.36095491382712
 21
4.265203404377014
 31
0.0
  0
LINE
  5
554
330
1F
100
AcDbEntity
  8
Object
100
AcDbLine
 10
4.36095491382712
 20
4.265203404377014
 30
0.0
 11
4.363954913827119
 21
4.280203404377013
 31
0.0
  0
LINE
  5
555
330
1F
100
AcDbEntity
  8
Object
100
AcDbLine
 10
4.481954913827119
 20
4.305203404377014
 30
0.0
 11
4.481954913827119
 21
4.320203404377014
 31
0.0
  0
LINE
  5
556
330
1F
100
AcDbEntity
  8
Object
100
AcDbLine
 10
4.35795491382712
 20
6.124203404377014
 30
0.0
 11
4.356954913827119
 21
6.128203404377014
 31
0.0
  0
LINE
  5
557
330
1F
100
AcDbEntity
  8
Object
100
AcDbLine
 10
4.356954913827119
 20
6.128203404377014
 30
0.0
 11
4.353954913827119
 21
6.132203404377014
 31
0.0
  0
LINE
  5
558
330
1F
100
AcDbEntity
  8
Object
100
AcDbLine
 10
4.353954913827119
 20
6.132203404377014
 30
0.0
 11
4.350954913827119
 21
6.134203404377013
 31
0.0
  0
LINE
  5
559
330
1F
100
AcDbEntity
  8
Object
100
AcDbLine
 10
4.350954913827119
 20
6.134203404377013
 30
0.0
 11
4.345954913827119
 21
6.134203404377013
 31
0.0
  0
LINE
  5
55A
330
1F
100
AcDbEntity
  8
Object
100
AcDbLine
 10
4.345954913827119
 20
6.134203404377013
 30
0.0
 11
4.26495491382712
 21
6.119203404377014
 31
0.0
  0
LINE
  5
55B
330
1F
100
AcDbEntity
  8
Object
100
AcDbLine
 10
4.435954913827119
 20
6.196203404377014
 30
0.0
 11
4.43295491382712
 21
6.209203404377014
 31
0.0
  0
LINE
  5
55C
330
1F
100
AcDbEntity
  8
Object
100
AcDbLine
 10
4.43295491382712
 20
6.209203404377014
 30
0.0
 11
4.42495491382712
 21
6.219203404377013
 31
0.0
  0
LINE
  5
55D
330
1F
100
AcDbEntity
  8
Object
100
AcDbLine
 10
4.42495491382712
 20
6.219203404377013
 30
0.0
 11
4.412954913827119
 21
6.224203404377013
 31
0.0
  0
LINE
  5
55E
330
1F
100
AcDbEntity
  8
Object
100
AcDbLine
 10
4.412954913827119
 20
6.224203404377013
 30
0.0
 11
4.399954913827119
 21
6.225203404377014
 31
0.0
  0
DIMENSION
  5
62F
330
1F
100
AcDbEntity
  8
Dimension
100
AcDbDimension
  2
*D2
 10
6.606954913827119
 20
6.838235667192119
 30
0.0
 11
5.42945491382712
 21
6.838235667192119
 31
0.0
 70
   160
  1
2.17 [55.1mm]
 71
     5
 42
2.355999999999999
  3
Standard
100
AcDbAlignedDimension
 13
4.250954913827119
 23
6.190203404377013
 33
0.0
 14
6.606954913827119
 24
6.190203404377013
 34
0.0
100
AcDbRotatedDimension
  0
DIMENSION
  5
6C7
102
{ACAD_XDICTIONARY
360
6D5
102
}
102
{ACAD_REACTORS
330
6E0
102
}
330
1F
100
AcDbEntity
  8
Dimension
100
AcDbDimension
  2
*D3
 10
4.469788869051
 20
5.219703404377014
 30
0.0
 11
3.609422955196656
 21
5.219703404377014
 31
0.0
 70
   160
 71
     5
 42
0.0803339552238809
  3
Standard
100
AcDbAlignedDimension
 13
4.389454913827119
 23
5.219703404377014
 33
0.0
 14
4.469788869051
 24
5.219703404377014
 34
0.0
100
AcDbRotatedDimension
1001
ACAD
1000
DSTYLE
1002
{
1070
    76
1070
     1
1070
    75
1070
     1
1002
}
  0
MTEXT
  5
737
330
1F
100
AcDbEntity
  8
Text
100
AcDbMText
 10
0.375
 20
1.125
 30
0.0
 40
0.09
 41
0.25
 71
     5
 72
     5
  1
2
 73
     1
 44
1.0
1001
ACAD
1000
MTEXTBEGIN
1070
    73
1070
     1
1070
    44
1040
1.0
1070
    74
1070
     0
1000
MTEXTEND
  0
MTEXT
  5
738
330
1F
100
AcDbEntity
  8
Text
100
AcDbMText
 10
0.75
 20
1.125
 30
0.0
 40
0.07
 41
0.5
 71
     5
 72
     5
  1
6-7-07
 73
     1
 44
1.0
1001
ACAD
1000
MTEXTBEGIN
1070
    73
1070
     1
1070
    44
1040
1.0
1070
    74
1070
     0
1000
MTEXTEND
  0
MTEXT
  5
739
330
1F
100
AcDbEntity
  8
Text
100
AcDbMText
 10
1.1875
 20
1.125
 30
0.0
 40
0.09
 41
0.375
 71
     5
 72
     5
  1
DTP
 73
     1
 44
1.0
1001
ACAD
1000
MTEXTBEGIN
1070
    73
1070
     1
1070
    44
1040
1.0
1070
    74
1070
     0
1000
MTEXTEND
  0
MTEXT
  5
73A
330
1F
100
AcDbEntity
  8
Text
100
AcDbMText
 10
1.7755
 20
1.125
 30
0.0
 40
0.07
 41
2.75
 71
     4
 72
     5
  1
C. REVISED DIMENSIONS.
 73
     1
 44
1.0
1001
ACAD
1000
MTEXTBEGIN
1070
    73
1070
     1
1070
    44
1040
1.0
1070
    74
1070
     0
1000
MTEXTEND
  0
MTEXT
  5
73B
330
1F
100
AcDbEntity
  8
Text
100
AcDbMText
 10
1.560400281422708
 20
1.126249074032664
 30
0.0
 40
0.07
 41
0.375
 71
     5
 72
     5
  1
DJWA
 73
     1
 44
1.0
1001
ACAD
1000
MTEXTBEGIN
1070
    73
1070
     1
1070
    44
1040
1.0
1070
    74
1070
     0
1000
MTEXTEND
  0
LINE
  5
73C
330
1F
100
AcDbEntity
  8
Text
100
AcDbLine
 10
2.911637574187081
 20
5.105773104432323
 30
0.0
 11
3.211637574187081
 21
5.105773104432323
 31
0.0
  0
LINE
  5
73D
330
1F
100
AcDbEntity
  8
Text
100
AcDbLine
 10
3.211637574187081
 20
5.105773104432323
 30
0.0
 11
3.061637574187081
 21
5.365580725567653
 31
0.0
  0
LINE
  5
73E
330
1F
100
AcDbEntity
  8
Text
100
AcDbLine
 10
2.911637574187082
 20
5.105773104432323
 30
0.0
 11
3.061637574187081
 21
5.365580725567653
 31
0.0
  0
TEXT
  5
73F
330
1F
100
AcDbEntity
  8
Text
100
AcDbText
 10
3.025394351538586
 20
5.161885645326716
 30
0.0
 40
0.09
  1
C
100
AcDbText
  0
LINE
  5
740
330
1F
100
AcDbEntity
  8
Text
100
AcDbLine
 10
5.298141597105199
 20
6.964942430028553
 30
0.0
 11
5.598141597105199
 21
6.964942430028553
 31
0.0
  0
LINE
  5
741
330
1F
100
AcDbEntity
  8
Text
100
AcDbLine
 10
5.598141597105199
 20
6.964942430028553
 30
0.0
 11
5.448141597105198
 21
7.224750051163884
 31
0.0
  0
LINE
  5
742
330
1F
100
AcDbEntity
  8
Text
100
AcDbLine
 10
5.2981415971052
 20
6.964942430028553
 30
0.0
 11
5.448141597105198
 21
7.224750051163884
 31
0.0
  0
TEXT
  5
743
330
1F
100
AcDbEntity
  8
Text
100
AcDbText
 10
5.411898374456703
 20
7.021054970922946
 30
0.0
 40
0.09
  1
C
100
AcDbText
  0
ENDSEC
  0
SECTION
  2
OBJECTS
  0
DICTIONARY
  5
C
330
0
100
AcDbDictionary
281
     1
  3
ACAD_COLOR
350
73
  3
ACAD_GROUP
350
D
  3
ACAD_LAYOUT
350
1A
  3
ACAD_MATERIAL
350
72
  3
ACAD_MLINESTYLE
350
17
  3
ACAD_PLOTSETTINGS
350
19
  3
ACAD_PLOTSTYLENAME
350
E
  3
ACAD_TABLESTYLE
350
86
  3
ACDBHEADERROUNDTRIPXREC
350
754
  3
AcDbVariableDictionary
350
66
  0
DICTIONARY
  5
147
330
1F
100
AcDbDictionary
280
     1
281
     1
  3
ACAD_SORTENTS
360
148
  0
DICTIONARY
  5
6D5
330
6C7
100
AcDbDictionary
280
     1
281
     1
  3
ACAD_DIMASSOC
360
6E0
  0
DICTIONARY
  5
73
102
{ACAD_REACTORS
330
C
102
}
330
C
100
AcDbDictionary
281
     1
  0
DICTIONARY
  5
D
102
{ACAD_REACTORS
330
C
102
}
330
C
100
AcDbDictionary
281
     1
  0
DICTIONARY
  5
1A
102
{ACAD_REACTORS
330
C
102
}
330
C
100
AcDbDictionary
281
     1
  3
Layout1
350
59
  3
Layout2
350
5E
  3
Model
350
22
  0
DICTIONARY
  5
72
102
{ACAD_REACTORS
330
C
102
}
330
C
100
AcDbDictionary
281
     1
  0
DICTIONARY
  5
17
102
{ACAD_REACTORS
330
C
102
}
330
C
100
AcDbDictionary
281
     1
  3
Standard
350
18
  0
DICTIONARY
  5
19
102
{ACAD_REACTORS
330
C
102
}
330
C
100
AcDbDictionary
281
     1
  0
ACDBDICTIONARYWDFLT
  5
E
102
{ACAD_REACTORS
330
C
102
}
330
C
100
AcDbDictionary
281
     1
  3
Normal
350
F
100
AcDbDictionaryWithDefault
340
F
  0
DICTIONARY
  5
86
102
{ACAD_REACTORS
330
C
102
}
330
C
100
AcDbDictionary
281
     1
  3
Standard
350
87
  0
DICTIONARY
  5
754
102
{ACAD_REACTORS
330
C
102
}
330
C
100
AcDbDictionary
281
     1
  0
DICTIONARY
  5
66
102
{ACAD_REACTORS
330
C
102
}
330
C
100
AcDbDictionary
281
     1
  3
CTABLESTYLE
350
3AB
  3
DIMASSOC
350
67
  3
HIDETEXT
350
6B
  3
PROJECTNAME
350
752
  0
SORTENTSTABLE
  5
148
102
{ACAD_REACTORS
330
147
102
}
330
147
100
AcDbSortentsTable
330
1F
331
115
  5
115
331
F0
  5
F0
331
124
  5
124
331
FF
  5
FF
331
108
  5
108
331
117
  5
117
331
F2
  5
F2
331
128
  5
128
331
126
  5
126
331
101
  5
101
331
10A
  5
10A
331
137
  5
137
331
119
  5
119
331
F4
  5
F4
331
12A
  5
12A
331
103
  5
103
331
139
  5
139
331
10C
  5
10C
331
F6
  5
F6
331
11B
  5
11B
331
12C
  5
12C
331
105
  5
105
331
10E
  5
10E
331
F8
  5
F8
331
11D
  5
11D
331
12E
  5
12E
331
107
  5
107
331
110
  5
110
331
FA
  5
FA
331
11F
  5
11F
331
130
  5
130
331
112
  5
112
331
FC
  5
FC
331
121
  5
121
331
132
  5
132
331
114
  5
114
331
FE
  5
FE
331
123
  5
123
331
134
  5
134
331
F1
  5
F1
331
116
  5
116
331
100
  5
100
331
125
  5
125
331
109
  5
109
331
F3
  5
F3
331
118
  5
118
331
129
  5
129
331
102
  5
102
331
127
  5
127
331
10B
  5
10B
331
F5
  5
F5
331
11A
  5
11A
331
12B
  5
12B
331
104
  5
104
331
10D
  5
10D
331
F7
  5
F7
331
11C
  5
11C
331
12D
  5
12D
331
106
  5
106
331
10F
  5
10F
331
F9
  5
F9
331
11E
  5
11E
331
12F
  5
12F
331
111
  5
111
331
120
  5
120
331
FB
  5
FB
331
131
  5
131
331
113
  5
113
331
122
  5
122
331
FD
  5
FD
331
133
  5
133
  0
DIMASSOC
  5
6E0
102
{ACAD_REACTORS
330
6D5
102
}
330
6D5
100
AcDbDimAssoc
330
6C7
 90
        1
 70
     0
 71
     0
  1
AcDbOsnapPointRef
 72
     2
331
52B
 73
     2
 91
        0
 40
0.5
 10
0.0
 20
0.0
 30
0.0
 75
     0
  0
LAYOUT
  5
59
102
{ACAD_XDICTIONARY
360
757
102
}
102
{ACAD_REACTORS
330
1A
102
}
330
1A
100
AcDbPlotSettings
  1

  2
None
  4

  6

 40
0.0
 41
0.0
 42
0.0
 43
0.0
 44
0.0
 45
0.0
 46
0.0
 47
0.0
 48
0.0
 49
0.0
140
0.0
141
0.0
142
1.0
143
1.0
 70
   688
 72
     0
 73
     0
 74
     5
  7

 75
    16
147
1.0
148
0.0
149
0.0
100
AcDbLayout
  1
Layout1
 70
     1
 71
     1
 10
0.0
 20
0.0
 11
12.0
 21
9.0
 12
0.0
 22
0.0
 32
0.0
 14
0.0
 24
0.0
 34
0.0
 15
0.0
 25
0.0
 35
0.0
146
0.0
 13
0.0
 23
0.0
 33
0.0
 16
1.0
 26
0.0
 36
0.0
 17
0.0
 27
1.0
 37
0.0
 76
     0
330
58
  0
LAYOUT
  5
5E
102
{ACAD_XDICTIONARY
360
759
102
}
102
{ACAD_REACTORS
330
1A
102
}
330
1A
100
AcDbPlotSettings
  1

  2
None
  4

  6

 40
0.0
 41
0.0
 42
0.0
 43
0.0
 44
0.0
 45
0.0
 46
0.0
 47
0.0
 48
0.0
 49
0.0
140
0.0
141
0.0
142
1.0
143
1.0
 70
   688
 72
     0
 73
     0
 74
     5
  7

 75
    16
147
1.0
148
0.0
149
0.0
100
AcDbLayout
  1
Layout2
 70
     1
 71
     2
 10
0.0
 20
0.0
 11
12.0
 21
9.0
 12
0.0
 22
0.0
 32
0.0
 14
0.0
 24
0.0
 34
0.0
 15
0.0
 25
0.0
 35
0.0
146
0.0
 13
0.0
 23
0.0
 33
0.0
 16
1.0
 26
0.0
 36
0.0
 17
0.0
 27
1.0
 37
0.0
 76
     0
330
5D
  0
LAYOUT
  5
22
102
{ACAD_XDICTIONARY
360
755
102
}
102
{ACAD_REACTORS
330
1A
102
}
330
1A
100
AcDbPlotSettings
  1

  2
none_device
  4
ANSI_A_(8.50_x_11.00_Inches)
  6

 40
6.349999904632568
 41
19.04999923706055
 42
6.350006103515625
 43
19.04998779296875
 44
215.8999938964844
 45
279.3999938964844
 46
0.0
 47
0.0
 48
0.0
 49
0.0
140
0.0
141
0.0
142
1.0
143
2.584895464708373
 70
 11952
 72
     0
 73
     1
 74
     0
  7

 75
     0
147
0.3868628397755418
148
0.0
149
0.0
100
AcDbLayout
  1
Model
 70
     1
 71
     0
 10
0.0
 20
0.0
 11
12.0
 21
9.0
 12
0.0
 22
0.0
 32
0.0
 14
0.0
 24
0.0
 34
0.0
 15
0.0
 25
0.0
 35
0.0
146
0.0
 13
0.0
 23
0.0
 33
0.0
 16
1.0
 26
0.0
 36
0.0
 17
0.0
 27
1.0
 37
0.0
 76
     0
330
1F
  0
MLINESTYLE
  5
18
102
{ACAD_REACTORS
330
17
102
}
330
17
100
AcDbMlineStyle
  2
STANDARD
 70
     0
  3

 62
   256
 51
90.0
 52
90.0
 71
     2
 49
0.5
 62
   256
  6
BYLAYER
 49
-0.5
 62
   256
  6
BYLAYER
  0
ACDBPLACEHOLDER
  5
F
102
{ACAD_REACTORS
330
E
102
}
330
E
  0
TABLESTYLE
  5
87
102
{ACAD_REACTORS
330
86
102
}
330
86
100
AcDbTableStyle
  3
Standard
 70
     0
 71
     0
 40
0.06
 41
0.06
280
     0
281
     0
  7
Standard
140
0.18
170
     2
 62
     0
 63
     7
283
     0
274
    -2
284
     1
 64
     0
275
    -2
285
     1
 65
     0
276
    -2
286
     1
 66
     0
277
    -2
287
     1
 67
     0
278
    -2
288
     1
 68
     0
279
    -2
289
     1
 69
     0
  7
Standard
140
0.25
170
     5
 62
     0
 63
     7
283
     0
274
    -2
284
     1
 64
     0
275
    -2
285
     1
 65
     0
276
    -2
286
     1
 66
     0
277
    -2
287
     1
 67
     0
278
    -2
288
     1
 68
     0
279
    -2
289
     1
 69
     0
  7
Standard
140
0.18
170
     5
 62
     0
 63
     7
283
     0
274
    -2
284
     1
 64
     0
275
    -2
285
     1
 65
     0
276
    -2
286
     1
 66
     0
277
    -2
287
     1
 67
     0
278
    -2
288
     1
 68
     0
279
    -2
289
     1
 69
     0
  0
DICTIONARYVAR
  5
3AB
102
{ACAD_REACTORS
330
66
102
}
330
66
100
DictionaryVariables
280
     0
  1
STANDARD
  0
DICTIONARYVAR
  5
67
102
{ACAD_REACTORS
330
66
102
}
330
66
100
DictionaryVariables
280
     0
  1
2
  0
DICTIONARYVAR
  5
6B
102
{ACAD_REACTORS
330
66
102
}
330
66
100
DictionaryVariables
280
     0
  1
1
  0
DICTIONARYVAR
  5
752
102
{ACAD_REACTORS
330
66
102
}
330
66
100
DictionaryVariables
280
     0
  1

  0
DICTIONARY
  5
757
330
59
100
AcDbDictionary
280
     1
281
     1
  3
ACAD_XREC_ROUNDTRIP
360
758
  0
DICTIONARY
  5
759
330
5E
100
AcDbDictionary
280
     1
281
     1
  3
ACAD_XREC_ROUNDTRIP
360
75A
  0
DICTIONARY
  5
755
330
22
100
AcDbDictionary
280
     1
281
     1
  3
ACAD_XREC_ROUNDTRIP
360
756
  0
XRECORD
  5
758
102
{ACAD_REACTORS
330
757
102
}
330
757
100
AcDbXrecord
280
     1
102
SHADEPLOT
 70
     0
102
SHADEPLOTRESLEVEL
 70
     2
102
SHADEPLOTCUSTOMDPI
 70
   300
  0
XRECORD
  5
75A
102
{ACAD_REACTORS
330
759
102
}
330
759
100
AcDbXrecord
280
     1
102
SHADEPLOT
 70
     0
102
SHADEPLOTRESLEVEL
 70
     2
102
SHADEPLOTCUSTOMDPI
 70
   300
  0
XRECORD
  5
756
102
{ACAD_REACTORS
330
755
102
}
330
755
100
AcDbXrecord
280
     1
102
SHADEPLOT
 70
     0
102
SHADEPLOTRESLEVEL
 70
     2
102
SHADEPLOTCUSTOMDPI
 70
   300
  0
ENDSEC
  0
EOF
