  0
SECTION
  2
HEADER
  9
$ACADVER
  1
AC1015
  9
$ACADMAINTVER
 70
    20
  9
$DWGCODEPAGE
  3
ANSI_1252
  9
$INSBASE
 10
0.0
 20
0.0
 30
0.0
  9
$EXTMIN
 10
-0.075
 20
-0.075
 30
0.0
  9
$EXTMAX
 10
22.075
 20
17.075
 30
0.0
  9
$LIMMIN
 10
0.0
 20
0.0
  9
$LIMMAX
 10
12.0
 20
9.0
  9
$ORTHOMODE
 70
     0
  9
$REGENMODE
 70
     1
  9
$FILLMODE
 70
     1
  9
$QTEXTMODE
 70
     0
  9
$MIRRTEXT
 70
     1
  9
$LTSCALE
 40
1.0
  9
$ATTMODE
 70
     1
  9
$TEXTSIZE
 40
0.09
  9
$TRACEWID
 40
0.05
  9
$TEXTSTYLE
  7
STANDARD
  9
$CLAYER
  8
0
  9
$CELTYPE
  6
BYLAYER
  9
$CECOLOR
 62
   256
  9
$CELTSCALE
 40
1.0
  9
$DISPSILH
 70
     0
  9
$DIMSCALE
 40
1.0
  9
$DIMASZ
 40
0.125
  9
$DIMEXO
 40
0.0625
  9
$DIMDLI
 40
0.38
  9
$DIMRND
 40
0.0
  9
$DIMDLE
 40
0.0
  9
$DIMEXE
 40
0.125
  9
$DIMTP
 40
0.0
  9
$DIMTM
 40
0.0
  9
$DIMTXT
 40
0.09
  9
$DIMCEN
 40
0.09
  9
$DIMTSZ
 40
0.0
  9
$DIMTOL
 70
     0
  9
$DIMLIM
 70
     0
  9
$DIMTIH
 70
     1
  9
$DIMTOH
 70
     1
  9
$DIMSE1
 70
     0
  9
$DIMSE2
 70
     0
  9
$DIMTAD
 70
     0
  9
$DIMZIN
 70
     0
  9
$DIMBLK
  1

  9
$DIMASO
 70
     1
  9
$DIMSHO
 70
     1
  9
$DIMPOST
  1

  9
$DIMAPOST
  1
mm
  9
$DIMALT
 70
     1
  9
$DIMALTD
 70
     1
  9
$DIMALTF
 40
25.4
  9
$DIMLFAC
 40
1.0
  9
$DIMTOFL
 70
     0
  9
$DIMTVP
 40
0.0
  9
$DIMTIX
 70
     0
  9
$DIMSOXD
 70
     0
  9
$DIMSAH
 70
     0
  9
$DIMBLK1
  1

  9
$DIMBLK2
  1

  9
$DIMSTYLE
  2
STANDARD
  9
$DIMCLRD
 70
     0
  9
$DIMCLRE
 70
     0
  9
$DIMCLRT
 70
     0
  9
$DIMTFAC
 40
1.0
  9
$DIMGAP
 40
0.09
  9
$DIMJUST
 70
     0
  9
$DIMSD1
 70
     0
  9
$DIMSD2
 70
     0
  9
$DIMTOLJ
 70
     1
  9
$DIMTZIN
 70
     0
  9
$DIMALTZ
 70
     0
  9
$DIMALTTZ
 70
     0
  9
$DIMUPT
 70
     0
  9
$DIMDEC
 70
     2
  9
$DIMTDEC
 70
     2
  9
$DIMALTU
 70
     2
  9
$DIMALTTD
 70
     1
  9
$DIMTXSTY
  7
STANDARD
  9
$DIMAUNIT
 70
     0
  9
$DIMADEC
 70
     0
  9
$DIMALTRND
 40
0.0
  9
$DIMAZIN
 70
     0
  9
$DIMDSEP
 70
    46
  9
$DIMATFIT
 70
     3
  9
$DIMFRAC
 70
     0
  9
$DIMLDRBLK
  1

  9
$DIMLUNIT
 70
     2
  9
$DIMLWD
 70
    -2
  9
$DIMLWE
 70
    -2
  9
$DIMTMOVE
 70
     0
  9
$LUNITS
 70
     2
  9
$LUPREC
 70
     2
  9
$SKETCHINC
 40
0.1
  9
$FILLETRAD
 40
0.5
  9
$AUNITS
 70
     0
  9
$AUPREC
 70
     0
  9
$MENU
  1
.
  9
$ELEVATION
 40
0.0
  9
$PELEVATION
 40
0.0
  9
$THICKNESS
 40
0.0
  9
$LIMCHECK
 70
     0
  9
$CHAMFERA
 40
0.5
  9
$CHAMFERB
 40
0.5
  9
$CHAMFERC
 40
1.0
  9
$CHAMFERD
 40
0.0
  9
$SKPOLY
 70
     0
  9
$TDCREATE
 40
2451681.555436007
  9
$TDUCREATE
 40
2451681.763769340
  9
$TDUPDATE
 40
2454294.670226574
  9
$TDUUPDATE
 40
2454294.878559907
  9
$TDINDWG
 40
0.2355125694
  9
$TDUSRTIMER
 40
0.2355125694
  9
$USRTIMER
 70
     1
  9
$ANGBASE
 50
0.0
  9
$ANGDIR
 70
     0
  9
$PDMODE
 70
     2
  9
$PDSIZE
 40
0.075
  9
$PLINEWID
 40
0.0
  9
$SPLFRAME
 70
     0
  9
$SPLINETYPE
 70
     6
  9
$SPLINESEGS
 70
     8
  9
$HANDSEED
  5
50F
  9
$SURFTAB1
 70
     6
  9
$SURFTAB2
 70
     6
  9
$SURFTYPE
 70
     6
  9
$SURFU
 70
     6
  9
$SURFV
 70
     6
  9
$UCSBASE
  2

  9
$UCSNAME
  2

  9
$UCSORG
 10
0.0
 20
0.0
 30
0.0
  9
$UCSXDIR
 10
1.0
 20
0.0
 30
0.0
  9
$UCSYDIR
 10
0.0
 20
1.0
 30
0.0
  9
$UCSORTHOREF
  2

  9
$UCSORTHOVIEW
 70
     0
  9
$UCSORGTOP
 10
0.0
 20
0.0
 30
0.0
  9
$UCSORGBOTTOM
 10
0.0
 20
0.0
 30
0.0
  9
$UCSORGLEFT
 10
0.0
 20
0.0
 30
0.0
  9
$UCSORGRIGHT
 10
0.0
 20
0.0
 30
0.0
  9
$UCSORGFRONT
 10
0.0
 20
0.0
 30
0.0
  9
$UCSORGBACK
 10
0.0
 20
0.0
 30
0.0
  9
$PUCSBASE
  2

  9
$PUCSNAME
  2

  9
$PUCSORG
 10
0.0
 20
0.0
 30
0.0
  9
$PUCSXDIR
 10
1.0
 20
0.0
 30
0.0
  9
$PUCSYDIR
 10
0.0
 20
1.0
 30
0.0
  9
$PUCSORTHOREF
  2

  9
$PUCSORTHOVIEW
 70
     0
  9
$PUCSORGTOP
 10
0.0
 20
0.0
 30
0.0
  9
$PUCSORGBOTTOM
 10
0.0
 20
0.0
 30
0.0
  9
$PUCSORGLEFT
 10
0.0
 20
0.0
 30
0.0
  9
$PUCSORGRIGHT
 10
0.0
 20
0.0
 30
0.0
  9
$PUCSORGFRONT
 10
0.0
 20
0.0
 30
0.0
  9
$PUCSORGBACK
 10
0.0
 20
0.0
 30
0.0
  9
$USERI1
 70
     0
  9
$USERI2
 70
     0
  9
$USERI3
 70
     0
  9
$USERI4
 70
     0
  9
$USERI5
 70
     0
  9
$USERR1
 40
0.0
  9
$USERR2
 40
0.0
  9
$USERR3
 40
0.0
  9
$USERR4
 40
0.0
  9
$USERR5
 40
0.0
  9
$WORLDVIEW
 70
     1
  9
$SHADEDGE
 70
     3
  9
$SHADEDIF
 70
    70
  9
$TILEMODE
 70
     1
  9
$MAXACTVP
 70
    48
  9
$PINSBASE
 10
0.0
 20
0.0
 30
0.0
  9
$PLIMCHECK
 70
     0
  9
$PEXTMIN
 10
1.000000000000000E+20
 20
1.000000000000000E+20
 30
1.000000000000000E+20
  9
$PEXTMAX
 10
-1.000000000000000E+20
 20
-1.000000000000000E+20
 30
-1.000000000000000E+20
  9
$PLIMMIN
 10
0.0
 20
0.0
  9
$PLIMMAX
 10
12.0
 20
9.0
  9
$UNITMODE
 70
     0
  9
$VISRETAIN
 70
     1
  9
$PLINEGEN
 70
     0
  9
$PSLTSCALE
 70
     1
  9
$TREEDEPTH
 70
  3020
  9
$CMLSTYLE
  2
STANDARD
  9
$CMLJUST
 70
     0
  9
$CMLSCALE
 40
1.0
  9
$PROXYGRAPHICS
 70
     1
  9
$MEASUREMENT
 70
     0
  9
$CELWEIGHT
370
    -1
  9
$ENDCAPS
280
     0
  9
$JOINSTYLE
280
     0
  9
$LWDISPLAY
290
     0
  9
$INSUNITS
 70
     0
  9
$HYPERLINKBASE
  1

  9
$STYLESHEET
  1

  9
$XEDIT
290
     1
  9
$CEPSNTYPE
380
     0
  9
$PSTYLEMODE
290
     1
  9
$FINGERPRINTGUID
  2
{71EC7F31-AA06-4ECF-8D30-7E7FC2EDBC33}
  9
$VERSIONGUID
  2
{C31043D3-437B-4BFD-9435-C910B37818CE}
  9
$EXTNAMES
290
     1
  9
$PSVPSCALE
 40
0.0
  9
$OLESTARTUP
290
     0
  0
ENDSEC
  0
SECTION
  2
CLASSES
  0
CLASS
  1
ACDBDICTIONARYWDFLT
  2
AcDbDictionaryWithDefault
  3
ObjectDBX Classes
 90
        0
280
     0
281
     0
  0
CLASS
  1
TABLESTYLE
  2
AcDbTableStyle
  3
ObjectDBX Classes
 90
     2047
280
     0
281
     0
  0
CLASS
  1
DICTIONARYVAR
  2
AcDbDictionaryVar
  3
ObjectDBX Classes
 90
        0
280
     0
281
     0
  0
CLASS
  1
ACDBPLACEHOLDER
  2
AcDbPlaceHolder
  3
ObjectDBX Classes
 90
        0
280
     0
281
     0
  0
CLASS
  1
LAYOUT
  2
AcDbLayout
  3
ObjectDBX Classes
 90
        0
280
     0
281
     0
  0
ENDSEC
  0
SECTION
  2
TABLES
  0
TABLE
  2
VPORT
  5
8
330
0
100
AcDbSymbolTable
 70
     2
  0
VPORT
  5
509
330
8
100
AcDbSymbolTableRecord
100
AcDbViewportTableRecord
  2
*Active
 70
     0
 10
0.0
 20
0.0
 11
1.0
 21
1.0
 12
11.00000015472541
 22
9.103873819164817
 13
0.0
 23
0.0
 14
0.5
 24
0.5
 15
0.5
 25
0.5
 16
0.0
 26
0.0
 36
1.0
 17
0.0
 27
0.0
 37
0.0
 40
18.46820989900854
 41
1.499364675984752
 42
50.0
 43
0.0
 44
0.0
 50
0.0
 51
0.0
 71
     0
 72
   100
 73
     1
 74
     1
 75
     0
 76
     0
 77
     0
 78
     0
281
     0
 65
     1
110
0.0
120
0.0
130
0.0
111
1.0
121
0.0
131
0.0
112
0.0
122
1.0
132
0.0
 79
     0
146
0.0
  0
ENDTAB
  0
TABLE
  2
LTYPE
  5
5
330
0
100
AcDbSymbolTable
 70
     1
  0
LTYPE
  5
12
330
5
100
AcDbSymbolTableRecord
100
AcDbLinetypeTableRecord
  2
BYBLOCK
 70
     0
  3

 72
    65
 73
     0
 40
0.0
  0
LTYPE
  5
13
330
5
100
AcDbSymbolTableRecord
100
AcDbLinetypeTableRecord
  2
BYLAYER
 70
     0
  3

 72
    65
 73
     0
 40
0.0
  0
LTYPE
  5
14
330
5
100
AcDbSymbolTableRecord
100
AcDbLinetypeTableRecord
  2
CONTINUOUS
 70
     0
  3
Solid line
 72
    65
 73
     0
 40
0.0
  0
ENDTAB
  0
TABLE
  2
LAYER
  5
2
102
{ACAD_XDICTIONARY
360
154
102
}
330
0
100
AcDbSymbolTable
 70
     6
  0
LAYER
  5
E
330
2
100
AcDbSymbolTableRecord
100
AcDbLayerTableRecord
  2
0
 70
     0
 62
     7
  6
CONTINUOUS
370
    -3
390
10B
  0
LAYER
  5
20
330
2
100
AcDbSymbolTableRecord
100
AcDbLayerTableRecord
  2
Title Block
 70
     0
 62
     3
  6
CONTINUOUS
370
    -3
390
10B
  0
LAYER
  5
21
330
2
100
AcDbSymbolTableRecord
100
AcDbLayerTableRecord
  2
Dimension
 70
     0
 62
     6
  6
CONTINUOUS
370
    -3
390
10B
  0
LAYER
  5
22
330
2
100
AcDbSymbolTableRecord
100
AcDbLayerTableRecord
  2
Text
 70
     0
 62
     1
  6
CONTINUOUS
370
    -3
390
10B
  0
LAYER
  5
23
330
2
100
AcDbSymbolTableRecord
100
AcDbLayerTableRecord
  2
Object
 70
     0
 62
     5
  6
CONTINUOUS
370
    -3
390
10B
  0
LAYER
  5
179
330
2
100
AcDbSymbolTableRecord
100
AcDbLayerTableRecord
  2
Defpoints
 70
     0
 62
     7
  6
CONTINUOUS
290
     0
370
    -3
390
10B
  0
ENDTAB
  0
TABLE
  2
STYLE
  5
3
330
0
100
AcDbSymbolTable
 70
     1
  0
STYLE
  5
F
330
3
100
AcDbSymbolTableRecord
100
AcDbTextStyleTableRecord
  2
STANDARD
 70
     0
 40
0.0
 41
1.0
 50
0.0
 71
     0
 42
0.09
  3
technic_.ttf
  4

1001
ACAD
1000
Technic
1071
      514
  0
ENDTAB
  0
TABLE
  2
VIEW
  5
6
330
0
100
AcDbSymbolTable
 70
     0
  0
ENDTAB
  0
TABLE
  2
UCS
  5
7
330
0
100
AcDbSymbolTable
 70
     0
  0
ENDTAB
  0
TABLE
  2
APPID
  5
9
330
0
100
AcDbSymbolTable
 70
     4
  0
APPID
  5
10
330
9
100
AcDbSymbolTableRecord
100
AcDbRegAppTableRecord
  2
ACAD
 70
     0
  0
APPID
  5
149
330
9
100
AcDbSymbolTableRecord
100
AcDbRegAppTableRecord
  2
DCO15
 70
     0
  0
APPID
  5
153
330
9
100
AcDbSymbolTableRecord
100
AcDbRegAppTableRecord
  2
AcAecLayerStandard
 70
     0
  0
APPID
  5
1A9
330
9
100
AcDbSymbolTableRecord
100
AcDbRegAppTableRecord
  2
ACAD_DSTYLE_DIMTEXT_FILL
 70
     0
  0
ENDTAB
  0
TABLE
  2
DIMSTYLE
  5
A
330
0
100
AcDbSymbolTable
 70
     1
100
AcDbDimStyleTable
 71
     1
340
1D
  0
DIMSTYLE
105
1D
102
{ACAD_REACTORS
330
497
330
4A5
330
4B3
102
}
330
A
100
AcDbSymbolTableRecord
100
AcDbDimStyleTableRecord
  2
STANDARD
 70
     0
  4
mm
 41
0.125
 44
0.125
140
0.09
170
     1
171
     1
271
     2
272
     2
274
     1
340
F
  0
ENDTAB
  0
TABLE
  2
BLOCK_RECORD
  5
1
330
0
100
AcDbSymbolTable
 70
     3
  0
BLOCK_RECORD
  5
18
330
1
100
AcDbSymbolTableRecord
100
AcDbBlockTableRecord
  2
*MODEL_SPACE
340
112
  0
BLOCK_RECORD
  5
15
330
1
100
AcDbSymbolTableRecord
100
AcDbBlockTableRecord
  2
*PAPER_SPACE
340
113
  0
BLOCK_RECORD
  5
498
330
1
100
AcDbSymbolTableRecord
100
AcDbBlockTableRecord
  2
*D0
340
0
  0
BLOCK_RECORD
  5
4A6
330
1
100
AcDbSymbolTableRecord
100
AcDbBlockTableRecord
  2
*D1
340
0
  0
BLOCK_RECORD
  5
4B4
330
1
100
AcDbSymbolTableRecord
100
AcDbBlockTableRecord
  2
*D2
340
0
  0
ENDTAB
  0
ENDSEC
  0
SECTION
  2
BLOCKS
  0
BLOCK
  5
19
330
18
100
AcDbEntity
  8
0
100
AcDbBlockBegin
  2
*MODEL_SPACE
 70
     0
 10
0.0
 20
0.0
 30
0.0
  3
*MODEL_SPACE
  1

  0
ENDBLK
  5
1A
330
18
100
AcDbEntity
  8
0
100
AcDbBlockEnd
  0
BLOCK
  5
16
330
15
100
AcDbEntity
 67
     1
  8
0
100
AcDbBlockBegin
  2
*PAPER_SPACE
 70
     0
 10
0.0
 20
0.0
 30
0.0
  3
*PAPER_SPACE
  1

  0
ENDBLK
  5
17
330
15
100
AcDbEntity
 67
     1
  8
0
100
AcDbBlockEnd
  0
BLOCK
  5
4A3
330
498
100
AcDbEntity
  8
0
100
AcDbBlockBegin
  2
*D0
 70
     1
 10
0.0
 20
0.0
 30
0.0
  3
*D0
  1

  0
LINE
  5
499
330
498
100
AcDbEntity
  8
Dimension
 62
     0
370
    -2
100
AcDbLine
 10
9.9165
 20
14.40693043956432
 30
0.0
 11
11.33187844515167
 21
14.40693043956432
 31
0.0
  0
LINE
  5
49A
330
498
100
AcDbEntity
  8
Dimension
 62
     0
370
    -2
100
AcDbLine
 10
9.9165
 20
12.40693043956432
 30
0.0
 11
11.33187844515167
 21
12.40693043956432
 31
0.0
  0
LINE
  5
49B
330
498
100
AcDbEntity
  8
Dimension
 62
     0
370
    -2
100
AcDbLine
 10
11.20687844515167
 20
14.28193043956432
 30
0.0
 11
11.20687844515167
 21
13.55995675535379
 31
0.0
  0
LINE
  5
49C
330
498
100
AcDbEntity
  8
Dimension
 62
     0
370
    -2
100
AcDbLine
 10
11.20687844515167
 20
12.53193043956432
 30
0.0
 11
11.20687844515167
 21
13.25390412377484
 31
0.0
  0
SOLID
  5
49D
330
498
100
AcDbEntity
  8
Dimension
 62
     0
100
AcDbTrace
 10
11.18604511181834
 20
14.28193043956432
 30
0.0
 11
11.22771177848501
 21
14.28193043956432
 31
0.0
 12
11.20687844515167
 22
14.40693043956432
 32
0.0
 13
11.20687844515167
 23
14.40693043956432
 33
0.0
  0
SOLID
  5
49E
330
498
100
AcDbEntity
  8
Dimension
 62
     0
100
AcDbTrace
 10
11.18604511181834
 20
12.53193043956432
 30
0.0
 11
11.22771177848501
 21
12.53193043956432
 31
0.0
 12
11.20687844515167
 22
12.40693043956432
 32
0.0
 13
11.20687844515167
 23
12.40693043956432
 33
0.0
  0
MTEXT
  5
49F
330
498
100
AcDbEntity
  8
Dimension
 62
     0
100
AcDbMText
 10
11.20687844515167
 20
13.40693043956432
 30
0.0
 40
0.09
 41
0.0
 71
     5
 72
     1
  1
\A1;2.00 [50.8mm]
 73
     1
 44
1.0
1001
ACAD
1000
MTEXTBEGIN
1070
    73
1070
     1
1070
    44
1040
1.0
1070
    74
1070
     0
1000
MTEXTEND
  0
POINT
  5
4A0
330
498
100
AcDbEntity
  8
Defpoints
 62
     0
100
AcDbPoint
 10
9.854
 20
14.40693043956432
 30
0.0
  0
POINT
  5
4A1
330
498
100
AcDbEntity
  8
Defpoints
 62
     0
100
AcDbPoint
 10
9.854
 20
12.40693043956432
 30
0.0
  0
POINT
  5
4A2
330
498
100
AcDbEntity
  8
Defpoints
 62
     0
100
AcDbPoint
 10
11.20687844515167
 20
12.40693043956432
 30
0.0
  0
ENDBLK
  5
4A4
330
498
100
AcDbEntity
  8
0
100
AcDbBlockEnd
  0
BLOCK
  5
4B1
330
4A6
100
AcDbEntity
  8
0
100
AcDbBlockBegin
  2
*D1
 70
     1
 10
0.0
 20
0.0
 30
0.0
  3
*D1
  1

  0
LINE
  5
4A7
330
4A6
100
AcDbEntity
  8
Dimension
 62
     0
370
    -2
100
AcDbLine
 10
3.362999999999999
 20
8.476430439564317
 30
0.0
 11
3.362999999999999
 21
9.572892650843265
 31
0.0
  0
LINE
  5
4A8
330
4A6
100
AcDbEntity
  8
Dimension
 62
     0
370
    -2
100
AcDbLine
 10
10.104
 20
8.715430439564318
 30
0.0
 11
10.104
 21
9.572892650843265
 31
0.0
  0
LINE
  5
4A9
330
4A6
100
AcDbEntity
  8
Dimension
 62
     0
370
    -2
100
AcDbLine
 10
3.487999999999999
 20
9.447892650843265
 30
0.0
 11
6.229355263157894
 21
9.447892650843265
 31
0.0
  0
LINE
  5
4AA
330
4A6
100
AcDbEntity
  8
Dimension
 62
     0
370
    -2
100
AcDbLine
 10
9.979
 20
9.447892650843265
 30
0.0
 11
7.237644736842105
 21
9.447892650843265
 31
0.0
  0
SOLID
  5
4AB
330
4A6
100
AcDbEntity
  8
Dimension
 62
     0
100
AcDbTrace
 10
3.487999999999999
 20
9.468725984176598
 30
0.0
 11
3.487999999999999
 21
9.427059317509931
 31
0.0
 12
3.362999999999999
 22
9.447892650843265
 32
0.0
 13
3.362999999999999
 23
9.447892650843265
 33
0.0
  0
SOLID
  5
4AC
330
4A6
100
AcDbEntity
  8
Dimension
 62
     0
100
AcDbTrace
 10
9.979
 20
9.468725984176598
 30
0.0
 11
9.979
 21
9.427059317509931
 31
0.0
 12
10.104
 22
9.447892650843265
 32
0.0
 13
10.104
 23
9.447892650843265
 33
0.0
  0
MTEXT
  5
4AD
330
4A6
100
AcDbEntity
  8
Dimension
 62
     0
100
AcDbMText
 10
6.7335
 20
9.447892650843265
 30
0.0
 40
0.09
 41
0.0
 71
     5
 72
     1
  1
\A1;6.74 [171.2mm]
 73
     1
 44
1.0
1001
ACAD
1000
MTEXTBEGIN
1070
    73
1070
     1
1070
    44
1040
1.0
1070
    74
1070
     0
1000
MTEXTEND
  0
POINT
  5
4AE
330
4A6
100
AcDbEntity
  8
Defpoints
 62
     0
100
AcDbPoint
 10
3.362999999999999
 20
8.413930439564317
 30
0.0
  0
POINT
  5
4AF
330
4A6
100
AcDbEntity
  8
Defpoints
 62
     0
100
AcDbPoint
 10
10.104
 20
8.652930439564318
 30
0.0
  0
POINT
  5
4B0
330
4A6
100
AcDbEntity
  8
Defpoints
 62
     0
100
AcDbPoint
 10
10.104
 20
9.447892650843265
 30
0.0
  0
ENDBLK
  5
4B2
330
4A6
100
AcDbEntity
  8
0
100
AcDbBlockEnd
  0
BLOCK
  5
4BF
330
4B4
100
AcDbEntity
  8
0
100
AcDbBlockBegin
  2
*D2
 70
     1
 10
0.0
 20
0.0
 30
0.0
  3
*D2
  1

  0
LINE
  5
4B5
330
4B4
100
AcDbEntity
  8
Dimension
 62
     0
370
    -2
100
AcDbLine
 10
16.4205
 20
8.652930439564318
 30
0.0
 11
15.42544428783699
 21
8.652930439564318
 31
0.0
  0
LINE
  5
4B6
330
4B4
100
AcDbEntity
  8
Dimension
 62
     0
370
    -2
100
AcDbLine
 10
16.6705
 20
4.161930439564317
 30
0.0
 11
15.42544428783699
 21
4.161930439564317
 31
0.0
  0
LINE
  5
4B7
330
4B4
100
AcDbEntity
  8
Dimension
 62
     0
370
    -2
100
AcDbLine
 10
15.55044428783699
 20
8.527930439564318
 30
0.0
 11
15.55044428783699
 21
6.560456755353791
 31
0.0
  0
LINE
  5
4B8
330
4B4
100
AcDbEntity
  8
Dimension
 62
     0
370
    -2
100
AcDbLine
 10
15.55044428783699
 20
4.286930439564317
 30
0.0
 11
15.55044428783699
 21
6.254404123774844
 31
0.0
  0
SOLID
  5
4B9
330
4B4
100
AcDbEntity
  8
Dimension
 62
     0
100
AcDbTrace
 10
15.52961095450366
 20
8.527930439564318
 30
0.0
 11
15.57127762117033
 21
8.527930439564318
 31
0.0
 12
15.55044428783699
 22
8.652930439564318
 32
0.0
 13
15.55044428783699
 23
8.652930439564318
 33
0.0
  0
SOLID
  5
4BA
330
4B4
100
AcDbEntity
  8
Dimension
 62
     0
100
AcDbTrace
 10
15.52961095450366
 20
4.286930439564317
 30
0.0
 11
15.57127762117033
 21
4.286930439564317
 31
0.0
 12
15.55044428783699
 22
4.161930439564317
 32
0.0
 13
15.55044428783699
 23
4.161930439564317
 33
0.0
  0
MTEXT
  5
4BB
330
4B4
100
AcDbEntity
  8
Dimension
 62
     0
100
AcDbMText
 10
15.55044428783699
 20
6.40743043956432
 30
0.0
 40
0.09
 41
0.0
 71
     5
 72
     1
  1
\A1;4.49 [114.1mm]
 73
     1
 44
1.0
1001
ACAD
1000
MTEXTBEGIN
1070
    73
1070
     1
1070
    44
1040
1.0
1070
    74
1070
     0
1000
MTEXTEND
  0
POINT
  5
4BC
330
4B4
100
AcDbEntity
  8
Defpoints
 62
     0
100
AcDbPoint
 10
16.483
 20
8.652930439564318
 30
0.0
  0
POINT
  5
4BD
330
4B4
100
AcDbEntity
  8
Defpoints
 62
     0
100
AcDbPoint
 10
16.733
 20
4.161930439564317
 30
0.0
  0
POINT
  5
4BE
330
4B4
100
AcDbEntity
  8
Defpoints
 62
     0
100
AcDbPoint
 10
15.55044428783699
 20
4.161930439564317
 30
0.0
  0
ENDBLK
  5
4C0
330
4B4
100
AcDbEntity
  8
0
100
AcDbBlockEnd
  0
ENDSEC
  0
SECTION
  2
ENTITIES
  0
TEXT
  5
51
330
18
100
AcDbEntity
  8
Title Block
100
AcDbText
 10
17.77669501265554
 20
2.672489851525508
 30
0.0
 40
0.05
  1
FILENAME:
100
AcDbText
  0
TEXT
  5
52
330
18
100
AcDbEntity
  8
Title Block
100
AcDbText
 10
17.76928502872825
 20
2.076224967549325
 30
0.0
 40
0.35
  1
PANDUIT
100
AcDbText
  0
TEXT
  5
53
330
18
100
AcDbEntity
  8
Title Block
100
AcDbText
 10
19.72182039882138
 20
2.061410940562986
 30
0.0
 40
0.125
  1
CORP. TINLEY PARK, IL
100
AcDbText
  0
TEXT
  5
54
330
18
100
AcDbEntity
  8
Title Block
100
AcDbText
 10
17.78039997670861
 20
1.91697409709392
 30
0.0
 40
0.05
  1
TITLE:
100
AcDbText
  0
MTEXT
  5
57
330
18
100
AcDbEntity
  8
Title Block
100
AcDbMText
 10
19.0
 20
1.372215793536348
 30
0.0
 40
0.075
 41
2.5
 71
     5
 72
     5
  1
UNLESS OTHERWISE SPECIFIED,\PDIMENSIONAL TOLERANCES ARE:       
 73
     1
 44
1.0
1001
ACAD
1000
MTEXTBEGIN
1070
    73
1070
     1
1070
    44
1040
1.0
1070
    74
1070
     0
1000
MTEXTEND
  0
MTEXT
  5
58
330
18
100
AcDbEntity
  8
Title Block
100
AcDbMText
 10
18.39237986661001
 20
1.131487708483632
 30
0.0
 40
0.075
 41
2.5
 71
     5
 72
     5
  1
(.X)\P(.XX)
 73
     1
 44
1.0
1001
ACAD
1000
MTEXTBEGIN
1070
    73
1070
     1
1070
    44
1040
1.0
1070
    74
1070
     0
1000
MTEXTEND
  0
MTEXT
  5
59
330
18
100
AcDbEntity
  8
Title Block
100
AcDbMText
 10
19.40014005312411
 20
1.131487708483632
 30
0.0
 40
0.075
 41
2.5
 71
     5
 72
     5
  1
(.XXX)\PANGLES:
 73
     1
 44
1.0
1001
ACAD
1000
MTEXTBEGIN
1070
    73
1070
     1
1070
    44
1040
1.0
1070
    74
1070
     0
1000
MTEXTEND
  0
MTEXT
  5
5A
330
18
100
AcDbEntity
  8
Title Block
100
AcDbMText
 10
21.0
 20
1.25
 30
0.0
 40
0.06
 41
1.5
 71
     5
 72
     5
  1
UNLESS OTHERWISE SPECIFIED,\PALL DIMENSIONS ARE GIVEN IN INCHES, THIRD ANGLE PROJECTION
 73
     1
 44
1.0
1001
ACAD
1000
MTEXTBEGIN
1070
    73
1070
     1
1070
    44
1040
1.0
1070
    74
1070
     0
1000
MTEXTEND
  0
TEXT
  5
5E
330
18
100
AcDbEntity
  8
Title Block
100
AcDbText
 10
17.76076445430618
 20
0.9281373372752312
 30
0.0
 40
0.05
  1
DRAWN BY:
100
AcDbText
  0
TEXT
  5
5F
330
18
100
AcDbEntity
  8
Title Block
100
AcDbText
 10
17.76446947418043
 20
0.6811431865635028
 30
0.0
 40
0.05
  1
DATE:
100
AcDbText
  0
TEXT
  5
60
330
18
100
AcDbEntity
  8
Title Block
100
AcDbText
 10
17.76817443823349
 20
0.4304455338317968
 30
0.0
 40
0.05
  1
CHECKED BY:
100
AcDbText
  0
TEXT
  5
62
330
18
100
AcDbEntity
  8
Title Block
100
AcDbText
 10
18.52028959313306
 20
0.9281373372752312
 30
0.0
 40
0.05
  1
MATERIAL:
100
AcDbText
  0
TEXT
  5
63
330
18
100
AcDbEntity
  8
Title Block
100
AcDbText
 10
20.26534493878154
 20
0.9281373372752312
 30
0.0
 40
0.05
  1
SCALE:
100
AcDbText
  0
TEXT
  5
64
330
18
100
AcDbEntity
  8
Title Block
100
AcDbText
 10
20.26534493878154
 20
0.6725952630490007
 30
0.0
 40
0.05
  1
DRAWING NUMBER:
100
AcDbText
  0
TEXT
  5
65
330
18
100
AcDbEntity
  8
Title Block
100
AcDbText
 10
21.34942622928997
 20
0.6762987650689816
 30
0.0
 40
0.05
  1
DRAWING
100
AcDbText
  0
TEXT
  5
66
330
18
100
AcDbEntity
  8
Title Block
100
AcDbText
 10
21.42723125590085
 20
0.2811642688682026
 30
0.0
 40
0.05
  1
SIZE
100
AcDbText
  0
TEXT
  5
67
330
18
100
AcDbEntity
  8
Title Block
100
AcDbText
 10
21.39373130657865
 20
0.3826699445861052
 30
0.0
 40
0.25
  1
C
100
AcDbText
  0
MTEXT
  5
68
330
18
100
AcDbEntity
  8
Title Block
100
AcDbMText
 10
11.37499999999999
 20
0.375
 30
0.0
 40
0.05
 41
0.25
 71
     5
 72
     5
  1
REV
 73
     1
 44
1.0
1001
ACAD
1000
MTEXTBEGIN
1070
    73
1070
     1
1070
    44
1040
1.0
1070
    74
1070
     0
1000
MTEXTEND
  0
MTEXT
  5
69
330
18
100
AcDbEntity
  8
Title Block
100
AcDbMText
 10
11.74999999999999
 20
0.375
 30
0.0
 40
0.05
 41
0.5
 71
     5
 72
     5
  1
DATE
 73
     1
 44
1.0
1001
ACAD
1000
MTEXTBEGIN
1070
    73
1070
     1
1070
    44
1040
1.0
1070
    74
1070
     0
1000
MTEXTEND
  0
MTEXT
  5
6A
330
18
100
AcDbEntity
  8
Title Block
100
AcDbMText
 10
12.18999999999999
 20
0.375
 30
0.0
 40
0.05
 41
0.38
 71
     5
 72
     5
  1
BY
 73
     1
 44
1.0
1001
ACAD
1000
MTEXTBEGIN
1070
    73
1070
     1
1070
    44
1040
1.0
1070
    74
1070
     0
1000
MTEXTEND
  0
MTEXT
  5
6B
330
18
100
AcDbEntity
  8
Title Block
100
AcDbMText
 10
12.56499999999999
 20
0.375
 30
0.0
 40
0.05
 41
0.38
 71
     5
 72
     5
  1
CHK
 73
     1
 44
1.0
1001
ACAD
1000
MTEXTBEGIN
1070
    73
1070
     1
1070
    44
1040
1.0
1070
    74
1070
     0
1000
MTEXTEND
  0
MTEXT
  5
6C
330
18
100
AcDbEntity
  8
Title Block
100
AcDbMText
 10
14.12499999999999
 20
0.375
 30
0.0
 40
0.05
 41
2.75
 71
     5
 72
     5
  1
DESCRIPTION
 73
     1
 44
1.0
1001
ACAD
1000
MTEXTBEGIN
1070
    73
1070
     1
1070
    44
1040
1.0
1070
    74
1070
     0
1000
MTEXTEND
  0
MTEXT
  5
6D
330
18
100
AcDbEntity
  8
Title Block
100
AcDbMText
 10
16.065
 20
0.375
 30
0.0
 40
0.05
 41
1.129999999999999
 71
     5
 72
     5
  1
ECN   -   R
 73
     1
 44
1.0
1001
ACAD
1000
MTEXTBEGIN
1070
    73
1070
     1
1070
    44
1040
1.0
1070
    74
1070
     0
1000
MTEXTEND
  0
MTEXT
  5
6E
330
18
100
AcDbEntity
  8
Title Block
100
AcDbMText
 10
16.81499999999999
 20
0.375
 30
0.0
 40
0.05
 41
0.38
 71
     5
 72
     5
  1
CUST
 73
     1
 44
1.0
1001
ACAD
1000
MTEXTBEGIN
1070
    73
1070
     1
1070
    44
1040
1.0
1070
    74
1070
     0
1000
MTEXTEND
  0
MTEXT
  5
6F
330
18
100
AcDbEntity
  8
Title Block
100
AcDbMText
 10
17.19
 20
0.375
 30
0.0
 40
0.05
 41
0.38
 71
     5
 72
     5
  1
SUP
 73
     1
 44
1.0
1001
ACAD
1000
MTEXTBEGIN
1070
    73
1070
     1
1070
    44
1040
1.0
1070
    74
1070
     0
1000
MTEXTEND
  0
LINE
  5
A5
330
18
100
AcDbEntity
  8
Title Block
100
AcDbLine
 10
21.75
 20
2.749999999999999
 30
0.0
 11
11.25
 21
2.75
 31
0.0
  0
LINE
  5
A6
330
18
100
AcDbEntity
  8
Title Block
100
AcDbLine
 10
17.74999999999999
 20
2.75
 30
0.0
 11
17.74999999999999
 21
0.25
 31
0.0
  0
LINE
  5
A7
330
18
100
AcDbEntity
  8
Title Block
100
AcDbLine
 10
21.75
 20
2.499999999999999
 30
0.0
 11
11.25
 21
2.5
 31
0.0
  0
LINE
  5
A8
330
18
100
AcDbEntity
  8
Title Block
100
AcDbLine
 10
17.74999999999999
 20
2.25
 30
0.0
 11
11.25
 21
2.25
 31
0.0
  0
LINE
  5
A9
330
18
100
AcDbEntity
  8
Title Block
100
AcDbLine
 10
21.75
 20
1.999999999999999
 30
0.0
 11
11.25
 21
2.0
 31
0.0
  0
LINE
  5
AA
330
18
100
AcDbEntity
  8
Title Block
100
AcDbLine
 10
17.74999999999999
 20
1.75
 30
0.0
 11
11.25
 21
1.75
 31
0.0
  0
LINE
  5
AB
330
18
100
AcDbEntity
  8
Title Block
100
AcDbLine
 10
21.75
 20
1.499999999999999
 30
0.0
 11
11.25
 21
1.5
 31
0.0
  0
LINE
  5
AC
330
18
100
AcDbEntity
  8
Title Block
100
AcDbLine
 10
17.74999999999999
 20
1.25
 30
0.0
 11
11.25
 21
1.25
 31
0.0
  0
LINE
  5
AD
330
18
100
AcDbEntity
  8
Title Block
100
AcDbLine
 10
21.75
 20
0.9999999999999996
 30
0.0
 11
11.25
 21
1.0
 31
0.0
  0
LINE
  5
AE
330
18
100
AcDbEntity
  8
Title Block
100
AcDbLine
 10
18.49999999999999
 20
0.75
 30
0.0
 11
11.25
 21
0.7500000000000009
 31
0.0
  0
LINE
  5
AF
330
18
100
AcDbEntity
  8
Title Block
100
AcDbLine
 10
18.49999999999999
 20
0.5
 30
0.0
 11
11.25
 21
0.5000000000000009
 31
0.0
  0
LINE
  5
B6
330
18
100
AcDbEntity
  8
Title Block
100
AcDbLine
 10
11.25
 20
0.25
 30
0.0
 11
11.25
 21
2.75
 31
0.0
  0
LINE
  5
BC
330
18
100
AcDbEntity
  8
Title Block
100
AcDbLine
 10
11.49999999999999
 20
0.25
 30
0.0
 11
11.49999999999999
 21
2.750000000000001
 31
0.0
  0
LINE
  5
BD
330
18
100
AcDbEntity
  8
Title Block
100
AcDbLine
 10
11.99999999999999
 20
0.25
 30
0.0
 11
11.99999999999999
 21
2.750000000000001
 31
0.0
  0
LINE
  5
C0
330
18
100
AcDbEntity
  8
Title Block
100
AcDbLine
 10
12.375
 20
0.25
 30
0.0
 11
12.375
 21
2.750000000000001
 31
0.0
  0
LINE
  5
C1
330
18
100
AcDbEntity
  8
Title Block
100
AcDbLine
 10
12.74999999999999
 20
0.25
 30
0.0
 11
12.74999999999999
 21
2.750000000000001
 31
0.0
  0
LINE
  5
C2
330
18
100
AcDbEntity
  8
Title Block
100
AcDbLine
 10
17.375
 20
2.75
 30
0.0
 11
17.375
 21
0.25
 31
0.0
  0
LINE
  5
C3
330
18
100
AcDbEntity
  8
Title Block
100
AcDbLine
 10
17.0
 20
2.75
 30
0.0
 11
17.0
 21
0.25
 31
0.0
  0
LINE
  5
C4
330
18
100
AcDbEntity
  8
Title Block
100
AcDbLine
 10
16.62499999999999
 20
2.75
 30
0.0
 11
16.62499999999999
 21
0.25
 31
0.0
  0
LINE
  5
C5
330
18
100
AcDbEntity
  8
Title Block
100
AcDbLine
 10
16.25
 20
2.75
 30
0.0
 11
16.25
 21
0.5000000000000002
 31
0.0
  0
LINE
  5
C6
330
18
100
AcDbEntity
  8
Title Block
100
AcDbLine
 10
15.5
 20
2.75
 30
0.0
 11
15.5
 21
0.25
 31
0.0
  0
LINE
  5
C7
330
18
100
AcDbEntity
  8
Title Block
100
AcDbLine
 10
20.25
 20
0.75
 30
0.0
 11
20.25
 21
1.499999999999999
 31
0.0
  0
LINE
  5
C8
330
18
100
AcDbEntity
  8
Title Block
100
AcDbLine
 10
20.25
 20
0.75
 30
0.0
 11
20.25
 21
0.25
 31
0.0
  0
LINE
  5
C9
330
18
100
AcDbEntity
  8
Title Block
100
AcDbLine
 10
20.25
 20
0.75
 30
0.0
 11
21.75
 21
0.75
 31
0.0
  0
LINE
  5
CA
330
18
100
AcDbEntity
  8
Title Block
100
AcDbLine
 10
18.49999999999999
 20
0.5
 30
0.0
 11
18.49999999999999
 21
0.25
 31
0.0
  0
LINE
  5
CB
330
18
100
AcDbEntity
  8
Title Block
100
AcDbLine
 10
18.49999999999999
 20
0.5
 30
0.0
 11
18.49999999999999
 21
1.0
 31
0.0
  0
LINE
  5
CD
330
18
100
AcDbEntity
  8
Title Block
100
AcDbLine
 10
21.25
 20
0.75
 30
0.0
 11
21.25
 21
0.25
 31
0.0
  0
LWPOLYLINE
  5
F8
330
18
100
AcDbEntity
  8
Title Block
100
AcDbPolyline
 90
        4
 70
     1
 43
0.01
 10
21.75
 20
16.75
 10
21.75
 20
0.25
 10
0.25
 20
0.25
 10
0.250000000000001
 20
16.75
  0
POINT
  5
FC
330
18
100
AcDbEntity
  8
Title Block
100
AcDbPoint
 10
22.0
 20
0.0
 30
0.0
  0
POINT
  5
FF
330
18
100
AcDbEntity
  8
Title Block
100
AcDbPoint
 10
22.0
 20
17.0
 30
0.0
  0
POINT
  5
102
330
18
100
AcDbEntity
  8
Title Block
100
AcDbPoint
 10
0.000000000000001
 20
17.0
 30
0.0
  0
POINT
  5
105
330
18
100
AcDbEntity
  8
Title Block
100
AcDbPoint
 10
0.0
 20
0.0
 30
0.0
  0
MTEXT
  5
12C
330
18
100
AcDbEntity
  8
Text
100
AcDbMText
 10
11.37324893148254
 20
0.6275685908585027
 30
0.0
 40
0.09
 41
0.25
 71
     5
 72
     5
  1
R
 73
     1
 44
1.0
1001
ACAD
1000
MTEXTBEGIN
1070
    73
1070
     1
1070
    44
1040
1.0
1070
    74
1070
     0
1000
MTEXTEND
  0
MTEXT
  5
12D
330
18
100
AcDbEntity
  8
Text
100
AcDbMText
 10
11.74824893148254
 20
0.6275685908585027
 30
0.0
 40
0.07
 41
0.5
 71
     5
 72
     5
  1
1-10-01
 73
     1
 44
1.0
1001
ACAD
1000
MTEXTBEGIN
1070
    73
1070
     1
1070
    44
1040
1.0
1070
    74
1070
     0
1000
MTEXTEND
  0
MTEXT
  5
12E
330
18
100
AcDbEntity
  8
Text
100
AcDbMText
 10
12.18574893148254
 20
0.6275685908585027
 30
0.0
 40
0.09
 41
0.375
 71
     5
 72
     5
  1
MSO
 73
     1
 44
1.0
1001
ACAD
1000
MTEXTBEGIN
1070
    73
1070
     1
1070
    44
1040
1.0
1070
    74
1070
     0
1000
MTEXTEND
  0
MTEXT
  5
130
330
18
100
AcDbEntity
  8
Text
100
AcDbMText
 10
14.12324893148254
 20
0.6275685908585023
 30
0.0
 40
0.09
 41
2.75
 71
     5
 72
     5
  1
DRAWING RELEASED
 73
     1
 44
1.0
1001
ACAD
1000
MTEXTBEGIN
1070
    73
1070
     1
1070
    44
1040
1.0
1070
    74
1070
     0
1000
MTEXTEND
  0
MTEXT
  5
133
330
18
100
AcDbEntity
  8
Text
100
AcDbMText
 10
18.47324893148254
 20
0.8525685908585018
 30
0.0
 40
0.09
 41
0.75
 71
     6
 72
     5
  1
MSO
 73
     1
 44
1.0
1001
ACAD
1000
MTEXTBEGIN
1070
    73
1070
     1
1070
    44
1040
1.0
1070
    74
1070
     0
1000
MTEXTEND
  0
MTEXT
  5
134
330
18
100
AcDbEntity
  8
Text
100
AcDbMText
 10
18.47324893148254
 20
0.6025685908585017
 30
0.0
 40
0.09
 41
0.75
 71
     6
 72
     5
  1
1-10-01
 73
     1
 44
1.0
1001
ACAD
1000
MTEXTBEGIN
1070
    73
1070
     1
1070
    44
1040
1.0
1070
    74
1070
     0
1000
MTEXTEND
  0
MTEXT
  5
135
330
18
100
AcDbEntity
  8
Text
100
AcDbMText
 10
18.47324893148254
 20
0.3525685908585019
 30
0.0
 40
0.09
 41
0.75
 71
     6
 72
     5
  1
HIW
 73
     1
 44
1.0
1001
ACAD
1000
MTEXTBEGIN
1070
    73
1070
     1
1070
    44
1040
1.0
1070
    74
1070
     0
1000
MTEXTEND
  0
MTEXT
  5
136
330
18
100
AcDbEntity
  8
Text
100
AcDbMText
 10
19.74824893148254
 20
2.627568590858501
 30
0.0
 40
0.09
 41
4.0
 71
     5
 72
     5
  1
FUSB.dwg
 73
     1
 44
1.0
1001
ACAD
1000
MTEXTBEGIN
1070
    73
1070
     1
1070
    44
1040
1.0
1070
    74
1070
     0
1000
MTEXTEND
  0
MTEXT
  5
137
330
18
100
AcDbEntity
  8
Text
100
AcDbMText
 10
19.74824893148254
 20
1.752568590858501
 30
0.0
 40
0.09
 41
4.0
 71
     5
 72
     5
  1
FIBER-DUCT 2x2, 4x4 AND FIBERRUNNER 2x2 \PUNDERFLOOR SUPPORT BRACKET (FUSB, FUSBM)\PMARKETING DRAWING
 73
     1
 44
1.0
1001
ACAD
1000
MTEXTBEGIN
1070
    73
1070
     1
1070
    44
1040
1.0
1070
    74
1070
     0
1000
MTEXTEND
  0
MTEXT
  5
138
330
18
100
AcDbEntity
  8
Text
100
AcDbMText
 10
20.99824893148254
 20
0.8775685908585016
 30
0.0
 40
0.12
 41
1.5
 71
     5
 72
     5
  1
FULL
 73
     1
 44
1.0
1001
ACAD
1000
MTEXTBEGIN
1070
    73
1070
     1
1070
    44
1040
1.0
1070
    74
1070
     0
1000
MTEXTEND
  0
MTEXT
  5
139
330
18
100
AcDbEntity
  8
Text
100
AcDbMText
 10
20.74824893148254
 20
0.4749215363520492
 30
0.0
 40
0.12
 41
1.0
 71
     5
 72
     5
  1
36897-649
 73
     1
 44
1.0
1001
ACAD
1000
MTEXTBEGIN
1070
    73
1070
     1
1070
    44
1040
1.0
1070
    74
1070
     0
1000
MTEXTEND
  0
MTEXT
  5
2AA
330
18
100
AcDbEntity
  8
Text
100
AcDbMText
 10
16.03435962675193
 20
16.4054997944675
 30
0.0
 40
0.09
 41
5.528619639671259
 71
     1
 72
     5
  3
{\LNOTES:}\P\P1. THE FIBER-DUCT 2x2, 4x4 AND FIBERRUNNER 2x2 UNDER-FLOOR SUPPORT BRACKET \P   INCLUDES:\P   ONE (1) BRACKET,\P   TWO (2) {\H0.7x;\S1#4;}-20x2x1{\H0.7x;\S1#8;}x1 ROUND BEND U-BOLTS (FUSB ONLY),\P   TWO (2) M6x1x50x28.6x24.6 ROUND BEND 
  3
U-BOLTS (FUSBM ONLY),\P   TWO (2) {\H0.7x;\S1#4;}-20 HEX NUTS (FUSB ONLY),\P   TWO (2) M6x1 (FUSBM ONLY),\P   TWO (2) {\H0.7x;\S1#4;} HELICAL SPRING LOCKWASHERS (FUSB ONLY),\P   TWO (2) M6 LOCKWASHERS (FUSBM ONLY),\P   TWO (2) #10-32-{\H0.7x;\S1#2;} 
  3
PAN HEAD SLOTTED MACHINE SCREWS (FUSB ONLY),\P   TWO (2) M5x.8x16 PAN HEAD SLOTTED MACHINE SCREWS (FUSBM ONLY),\P   TWO (2) #10 HELICAL SPRING LOCKWASHERS (FUSB ONLY),\P   TWO (2) M5 HELICAL SPRING LOCKWASHERS (FUSBM ONLY),\P   TWO (2) #10-32 HEX MAC
  1
HINE SCREW NUTS (FUSB ONLY),\P   TWO (2) M5x.8 HEX NUTS (FUSBM ONLY).
 73
     1
 44
1.0
1001
ACAD
1000
MTEXTBEGIN
1070
    73
1070
     1
1070
    44
1040
1.0
1070
    74
1070
     1
1000
MTEXTEND
  0
TEXT
  5
2AB
330
18
100
AcDbEntity
  8
Text
100
AcDbText
 10
6.370599562709131
 20
11.99799666637734
 30
0.0
 40
0.125
  1
TOP VIEW
100
AcDbText
  0
TEXT
  5
2AC
330
18
100
AcDbEntity
  8
Text
100
AcDbText
 10
6.315326957444365
 20
3.72615970349697
 30
0.0
 40
0.125
  1
FRONT VIEW
100
AcDbText
  0
TEXT
  5
2AD
330
18
100
AcDbEntity
  8
Text
100
AcDbText
 10
16.74835513942191
 20
3.664211571605839
 30
0.0
 40
0.125
  1
RIGHT SIDE VIEW
100
AcDbText
  0
MTEXT
  5
2BE
330
18
100
AcDbEntity
  8
Text
100
AcDbMText
 10
12.5604002814227
 20
0.626249074032665
 30
0.0
 40
0.09
 41
0.375
 71
     5
 72
     5
  1
HIW
 73
     1
 44
1.0
1001
ACAD
1000
MTEXTBEGIN
1070
    73
1070
     1
1070
    44
1040
1.0
1070
    74
1070
     0
1000
MTEXTEND
  0
LINE
  5
2CD
330
18
100
AcDbEntity
  8
Object
100
AcDbLine
 10
16.733
 20
8.473930439564316
 30
0.0
 11
18.233
 21
8.473930439564316
 31
0.0
  0
LINE
  5
2CE
330
18
100
AcDbEntity
  8
Object
100
AcDbLine
 10
16.733
 20
8.652930439564318
 30
0.0
 11
18.233
 21
8.652930439564318
 31
0.0
  0
LINE
  5
2CF
330
18
100
AcDbEntity
  8
Object
100
AcDbLine
 10
18.233
 20
8.652930439564318
 30
0.0
 11
18.233
 21
8.473930439564316
 31
0.0
  0
LINE
  5
2D0
330
18
100
AcDbEntity
  8
Object
100
AcDbLine
 10
18.233
 20
8.652930439564318
 30
0.0
 11
18.483
 21
8.652930439564318
 31
0.0
  0
LINE
  5
2D1
330
18
100
AcDbEntity
  8
Object
100
AcDbLine
 10
18.483
 20
8.652930439564318
 30
0.0
 11
18.483
 21
8.473930439564316
 31
0.0
  0
LINE
  5
2D2
330
18
100
AcDbEntity
  8
Object
100
AcDbLine
 10
18.483
 20
8.473930439564316
 30
0.0
 11
18.233
 21
8.473930439564316
 31
0.0
  0
LINE
  5
2D3
330
18
100
AcDbEntity
  8
Object
100
AcDbLine
 10
18.233
 20
8.473930439564316
 30
0.0
 11
18.483
 21
8.473930439564316
 31
0.0
  0
LINE
  5
2D4
330
18
100
AcDbEntity
  8
Object
100
AcDbLine
 10
18.233
 20
8.473930439564316
 30
0.0
 11
16.733
 21
8.473930439564316
 31
0.0
  0
LINE
  5
2D5
330
18
100
AcDbEntity
  8
Object
100
AcDbLine
 10
16.733
 20
8.473930439564316
 30
0.0
 11
16.483
 21
8.473930439564316
 31
0.0
  0
LINE
  5
2D6
330
18
100
AcDbEntity
  8
Object
100
AcDbLine
 10
16.483
 20
8.652930439564318
 30
0.0
 11
16.733
 21
8.652930439564318
 31
0.0
  0
LINE
  5
2D7
330
18
100
AcDbEntity
  8
Object
100
AcDbLine
 10
16.733
 20
8.652930439564318
 30
0.0
 11
16.733
 21
8.473930439564316
 31
0.0
  0
LINE
  5
2D8
330
18
100
AcDbEntity
  8
Object
100
AcDbLine
 10
16.733
 20
8.473930439564316
 30
0.0
 11
16.483
 21
8.473930439564316
 31
0.0
  0
LINE
  5
2D9
330
18
100
AcDbEntity
  8
Object
100
AcDbLine
 10
16.483
 20
8.473930439564316
 30
0.0
 11
16.483
 21
8.652930439564318
 31
0.0
  0
LINE
  5
2DA
330
18
100
AcDbEntity
  8
Object
100
AcDbLine
 10
18.483
 20
8.652930439564318
 30
0.0
 11
18.233
 21
8.652930439564318
 31
0.0
  0
LINE
  5
2DB
330
18
100
AcDbEntity
  8
Object
100
AcDbLine
 10
18.233
 20
8.652930439564318
 30
0.0
 11
16.733
 21
8.652930439564318
 31
0.0
  0
LINE
  5
2DC
330
18
100
AcDbEntity
  8
Object
100
AcDbLine
 10
16.733
 20
8.652930439564318
 30
0.0
 11
16.483
 21
8.652930439564318
 31
0.0
  0
LINE
  5
2DD
330
18
100
AcDbEntity
  8
Object
100
AcDbLine
 10
18.483
 20
8.413930439564317
 30
0.0
 11
18.483
 21
8.436930439564317
 31
0.0
  0
LINE
  5
2DE
330
18
100
AcDbEntity
  8
Object
100
AcDbLine
 10
18.483
 20
8.455930439564317
 30
0.0
 11
18.483
 21
8.468930439564317
 31
0.0
  0
LINE
  5
2DF
330
18
100
AcDbEntity
  8
Object
100
AcDbLine
 10
18.483
 20
8.652930439564318
 30
0.0
 11
18.483
 21
8.473930439564316
 31
0.0
  0
LINE
  5
2E0
330
18
100
AcDbEntity
  8
Object
100
AcDbLine
 10
18.483
 20
8.473930439564316
 30
0.0
 11
18.483
 21
8.468930439564317
 31
0.0
  0
LINE
  5
2E1
330
18
100
AcDbEntity
  8
Object
100
AcDbLine
 10
18.483
 20
8.436930439564317
 30
0.0
 11
18.483
 21
8.455930439564317
 31
0.0
  0
LINE
  5
2E2
330
18
100
AcDbEntity
  8
Object
100
AcDbLine
 10
18.483
 20
4.411930439564317
 30
0.0
 11
18.483
 21
8.413930439564317
 31
0.0
  0
LINE
  5
2E3
330
18
100
AcDbEntity
  8
Object
100
AcDbLine
 10
18.483
 20
8.436930439564317
 30
0.0
 11
18.483
 21
8.455930439564317
 31
0.0
  0
LINE
  5
2E4
330
18
100
AcDbEntity
  8
Object
100
AcDbLine
 10
16.483
 20
8.436930439564317
 30
0.0
 11
16.483
 21
8.455930439564317
 31
0.0
  0
LINE
  5
2E5
330
18
100
AcDbEntity
  8
Object
100
AcDbLine
 10
16.483
 20
8.455930439564317
 30
0.0
 11
16.483
 21
8.468930439564317
 31
0.0
  0
LINE
  5
2E6
330
18
100
AcDbEntity
  8
Object
100
AcDbLine
 10
16.483
 20
8.468930439564317
 30
0.0
 11
16.483
 21
8.473930439564316
 31
0.0
  0
LINE
  5
2E7
330
18
100
AcDbEntity
  8
Object
100
AcDbLine
 10
18.483
 20
8.473930439564316
 30
0.0
 11
18.483
 21
8.468930439564317
 31
0.0
  0
LINE
  5
2E8
330
18
100
AcDbEntity
  8
Object
100
AcDbLine
 10
18.483
 20
8.468930439564317
 30
0.0
 11
18.483
 21
8.455930439564317
 31
0.0
  0
LINE
  5
2E9
330
18
100
AcDbEntity
  8
Object
100
AcDbLine
 10
16.483
 20
8.436930439564317
 30
0.0
 11
16.483
 21
8.413930439564317
 31
0.0
  0
LINE
  5
2EA
330
18
100
AcDbEntity
  8
Object
100
AcDbLine
 10
18.483
 20
8.413930439564317
 30
0.0
 11
18.483
 21
8.436930439564317
 31
0.0
  0
LINE
  5
2EB
330
18
100
AcDbEntity
  8
Object
100
AcDbLine
 10
16.483
 20
8.473930439564316
 30
0.0
 11
16.483
 21
8.468930439564317
 31
0.0
  0
LINE
  5
2EC
330
18
100
AcDbEntity
  8
Object
100
AcDbLine
 10
16.483
 20
8.455930439564317
 30
0.0
 11
16.483
 21
8.436930439564317
 31
0.0
  0
LINE
  5
2ED
330
18
100
AcDbEntity
  8
Object
100
AcDbLine
 10
16.483
 20
4.411930439564317
 30
0.0
 11
16.483
 21
8.413930439564317
 31
0.0
  0
LINE
  5
2EE
330
18
100
AcDbEntity
  8
Object
100
AcDbLine
 10
16.483
 20
8.413930439564317
 30
0.0
 11
16.483
 21
8.436930439564317
 31
0.0
  0
LINE
  5
2EF
330
18
100
AcDbEntity
  8
Object
100
AcDbLine
 10
16.483
 20
8.468930439564317
 30
0.0
 11
16.483
 21
8.455930439564317
 31
0.0
  0
LINE
  5
2F0
330
18
100
AcDbEntity
  8
Object
100
AcDbLine
 10
16.483
 20
8.652930439564318
 30
0.0
 11
16.483
 21
8.473930439564316
 31
0.0
  0
LINE
  5
2F1
330
18
100
AcDbEntity
  8
Object
100
AcDbLine
 10
18.303
 20
7.618930439564318
 30
0.0
 11
18.31
 21
7.661930439564318
 31
0.0
  0
LINE
  5
2F2
330
18
100
AcDbEntity
  8
Object
100
AcDbLine
 10
18.31
 20
7.661930439564318
 30
0.0
 11
18.303
 21
7.704930439564317
 31
0.0
  0
LINE
  5
2F3
330
18
100
AcDbEntity
  8
Object
100
AcDbLine
 10
18.483
 20
4.411930439564317
 30
0.0
 11
18.483
 21
8.413930439564317
 31
0.0
  0
LINE
  5
2F4
330
18
100
AcDbEntity
  8
Object
100
AcDbLine
 10
18.303
 20
5.118930439564318
 30
0.0
 11
18.31
 21
5.161930439564318
 31
0.0
  0
LINE
  5
2F5
330
18
100
AcDbEntity
  8
Object
100
AcDbLine
 10
18.31
 20
5.161930439564318
 30
0.0
 11
18.303
 21
5.204930439564317
 31
0.0
  0
LINE
  5
2F6
330
18
100
AcDbEntity
  8
Object
100
AcDbLine
 10
18.283
 20
7.743930439564318
 30
0.0
 11
18.303
 21
7.704930439564317
 31
0.0
  0
LINE
  5
2F7
330
18
100
AcDbEntity
  8
Object
100
AcDbLine
 10
18.283
 20
5.243930439564318
 30
0.0
 11
18.303
 21
5.204930439564317
 31
0.0
  0
LINE
  5
2F8
330
18
100
AcDbEntity
  8
Object
100
AcDbLine
 10
18.303
 20
7.618930439564318
 30
0.0
 11
18.283
 21
7.579930439564317
 31
0.0
  0
LINE
  5
2F9
330
18
100
AcDbEntity
  8
Object
100
AcDbLine
 10
18.303
 20
5.118930439564318
 30
0.0
 11
18.283
 21
5.079930439564317
 31
0.0
  0
LINE
  5
2FA
330
18
100
AcDbEntity
  8
Object
100
AcDbLine
 10
18.252
 20
7.773930439564318
 30
0.0
 11
18.283
 21
7.743930439564318
 31
0.0
  0
LINE
  5
2FB
330
18
100
AcDbEntity
  8
Object
100
AcDbLine
 10
18.283
 20
7.579930439564317
 30
0.0
 11
18.252
 21
7.548930439564317
 31
0.0
  0
LINE
  5
2FC
330
18
100
AcDbEntity
  8
Object
100
AcDbLine
 10
18.252
 20
5.273930439564317
 30
0.0
 11
18.283
 21
5.243930439564318
 31
0.0
  0
LINE
  5
2FD
330
18
100
AcDbEntity
  8
Object
100
AcDbLine
 10
18.283
 20
5.079930439564317
 30
0.0
 11
18.252
 21
5.048930439564317
 31
0.0
  0
LINE
  5
2FE
330
18
100
AcDbEntity
  8
Object
100
AcDbLine
 10
18.214
 20
7.793930439564317
 30
0.0
 11
18.252
 21
7.773930439564318
 31
0.0
  0
LINE
  5
2FF
330
18
100
AcDbEntity
  8
Object
100
AcDbLine
 10
18.252
 20
5.048930439564317
 30
0.0
 11
18.214
 21
5.029930439564317
 31
0.0
  0
LINE
  5
300
330
18
100
AcDbEntity
  8
Object
100
AcDbLine
 10
18.171
 20
7.800930439564317
 30
0.0
 11
18.214
 21
7.793930439564317
 31
0.0
  0
LINE
  5
301
330
18
100
AcDbEntity
  8
Object
100
AcDbLine
 10
18.233
 20
4.161930439564317
 30
0.0
 11
18.483
 21
4.411930439564317
 31
0.0
  0
LINE
  5
302
330
18
100
AcDbEntity
  8
Object
100
AcDbLine
 10
18.214
 20
5.029930439564317
 30
0.0
 11
18.171
 21
5.022930439564317
 31
0.0
  0
LINE
  5
303
330
18
100
AcDbEntity
  8
Object
100
AcDbLine
 10
18.128
 20
7.793930439564317
 30
0.0
 11
18.171
 21
7.800930439564317
 31
0.0
  0
LINE
  5
304
330
18
100
AcDbEntity
  8
Object
100
AcDbLine
 10
18.171
 20
5.022930439564317
 30
0.0
 11
18.128
 21
5.029930439564317
 31
0.0
  0
LINE
  5
305
330
18
100
AcDbEntity
  8
Object
100
AcDbLine
 10
18.058
 20
7.743930439564318
 30
0.0
 11
18.038
 21
7.704930439564317
 31
0.0
  0
LINE
  5
306
330
18
100
AcDbEntity
  8
Object
100
AcDbLine
 10
18.038
 20
7.704930439564317
 30
0.0
 11
18.032
 21
7.661930439564318
 31
0.0
  0
LINE
  5
307
330
18
100
AcDbEntity
  8
Object
100
AcDbLine
 10
18.032
 20
7.661930439564318
 30
0.0
 11
18.038
 21
7.618930439564318
 31
0.0
  0
LINE
  5
308
330
18
100
AcDbEntity
  8
Object
100
AcDbLine
 10
18.038
 20
7.618930439564318
 30
0.0
 11
18.058
 21
7.579930439564317
 31
0.0
  0
LINE
  5
309
330
18
100
AcDbEntity
  8
Object
100
AcDbLine
 10
18.058
 20
7.579930439564317
 30
0.0
 11
18.089
 21
7.548930439564317
 31
0.0
  0
LINE
  5
30A
330
18
100
AcDbEntity
  8
Object
100
AcDbLine
 10
18.089
 20
7.548930439564317
 30
0.0
 11
18.128
 21
7.529930439564317
 31
0.0
  0
LINE
  5
30B
330
18
100
AcDbEntity
  8
Object
100
AcDbLine
 10
18.128
 20
7.529930439564317
 30
0.0
 11
18.171
 21
7.522930439564317
 31
0.0
  0
LINE
  5
30C
330
18
100
AcDbEntity
  8
Object
100
AcDbLine
 10
18.171
 20
7.522930439564317
 30
0.0
 11
18.214
 21
7.529930439564317
 31
0.0
  0
LINE
  5
30D
330
18
100
AcDbEntity
  8
Object
100
AcDbLine
 10
18.214
 20
7.529930439564317
 30
0.0
 11
18.252
 21
7.548930439564317
 31
0.0
  0
LINE
  5
30E
330
18
100
AcDbEntity
  8
Object
100
AcDbLine
 10
17.622
 20
7.897930439564317
 30
0.0
 11
17.622
 21
6.675930439564317
 31
0.0
  0
LINE
  5
30F
330
18
100
AcDbEntity
  8
Object
100
AcDbLine
 10
18.214
 20
5.293930439564317
 30
0.0
 11
18.252
 21
5.273930439564317
 31
0.0
  0
LINE
  5
310
330
18
100
AcDbEntity
  8
Object
100
AcDbLine
 10
18.058
 20
5.243930439564318
 30
0.0
 11
18.089
 21
5.273930439564317
 31
0.0
  0
LINE
  5
311
330
18
100
AcDbEntity
  8
Object
100
AcDbLine
 10
17.622
 20
6.147930439564317
 30
0.0
 11
17.622
 21
4.925930439564317
 31
0.0
  0
LINE
  5
312
330
18
100
AcDbEntity
  8
Object
100
AcDbLine
 10
18.058
 20
5.243930439564318
 30
0.0
 11
18.038
 21
5.204930439564317
 31
0.0
  0
LINE
  5
313
330
18
100
AcDbEntity
  8
Object
100
AcDbLine
 10
18.038
 20
5.204930439564317
 30
0.0
 11
18.032
 21
5.161930439564318
 31
0.0
  0
LINE
  5
314
330
18
100
AcDbEntity
  8
Object
100
AcDbLine
 10
18.032
 20
5.161930439564318
 30
0.0
 11
18.038
 21
5.118930439564318
 31
0.0
  0
LINE
  5
315
330
18
100
AcDbEntity
  8
Object
100
AcDbLine
 10
18.038
 20
5.118930439564318
 30
0.0
 11
18.058
 21
5.079930439564317
 31
0.0
  0
LINE
  5
316
330
18
100
AcDbEntity
  8
Object
100
AcDbLine
 10
18.171
 20
5.300930439564317
 30
0.0
 11
18.214
 21
5.293930439564317
 31
0.0
  0
LINE
  5
317
330
18
100
AcDbEntity
  8
Object
100
AcDbLine
 10
18.089
 20
5.273930439564317
 30
0.0
 11
18.128
 21
5.293930439564317
 31
0.0
  0
LINE
  5
318
330
18
100
AcDbEntity
  8
Object
100
AcDbLine
 10
18.128
 20
5.293930439564317
 30
0.0
 11
18.171
 21
5.300930439564317
 31
0.0
  0
LINE
  5
319
330
18
100
AcDbEntity
  8
Object
100
AcDbLine
 10
17.615
 20
7.940930439564318
 30
0.0
 11
17.622
 21
7.897930439564317
 31
0.0
  0
LINE
  5
31A
330
18
100
AcDbEntity
  8
Object
100
AcDbLine
 10
18.058
 20
7.743930439564318
 30
0.0
 11
18.089
 21
7.773930439564318
 31
0.0
  0
LINE
  5
31B
330
18
100
AcDbEntity
  8
Object
100
AcDbLine
 10
17.622
 20
6.675930439564317
 30
0.0
 11
17.615
 21
6.632930439564318
 31
0.0
  0
LINE
  5
31C
330
18
100
AcDbEntity
  8
Object
100
AcDbLine
 10
17.615
 20
6.190930439564318
 30
0.0
 11
17.622
 21
6.147930439564317
 31
0.0
  0
LINE
  5
31D
330
18
100
AcDbEntity
  8
Object
100
AcDbLine
 10
18.089
 20
5.048930439564317
 30
0.0
 11
18.058
 21
5.079930439564317
 31
0.0
  0
LINE
  5
31E
330
18
100
AcDbEntity
  8
Object
100
AcDbLine
 10
17.622
 20
4.925930439564317
 30
0.0
 11
17.615
 21
4.882930439564317
 31
0.0
  0
LINE
  5
31F
330
18
100
AcDbEntity
  8
Object
100
AcDbLine
 10
18.089
 20
7.773930439564318
 30
0.0
 11
18.128
 21
7.793930439564317
 31
0.0
  0
LINE
  5
320
330
18
100
AcDbEntity
  8
Object
100
AcDbLine
 10
17.595
 20
7.979930439564317
 30
0.0
 11
17.615
 21
7.940930439564318
 31
0.0
  0
LINE
  5
321
330
18
100
AcDbEntity
  8
Object
100
AcDbLine
 10
17.595
 20
6.229930439564317
 30
0.0
 11
17.615
 21
6.190930439564318
 31
0.0
  0
LINE
  5
322
330
18
100
AcDbEntity
  8
Object
100
AcDbLine
 10
17.615
 20
6.632930439564318
 30
0.0
 11
17.595
 21
6.593930439564317
 31
0.0
  0
LINE
  5
323
330
18
100
AcDbEntity
  8
Object
100
AcDbLine
 10
17.615
 20
4.882930439564317
 30
0.0
 11
17.595
 21
4.843930439564317
 31
0.0
  0
LINE
  5
324
330
18
100
AcDbEntity
  8
Object
100
AcDbLine
 10
18.128
 20
5.029930439564317
 30
0.0
 11
18.089
 21
5.048930439564317
 31
0.0
  0
LINE
  5
325
330
18
100
AcDbEntity
  8
Object
100
AcDbLine
 10
17.564
 20
8.009930439564318
 30
0.0
 11
17.595
 21
7.979930439564317
 31
0.0
  0
LINE
  5
326
330
18
100
AcDbEntity
  8
Object
100
AcDbLine
 10
17.564
 20
6.259930439564318
 30
0.0
 11
17.595
 21
6.229930439564317
 31
0.0
  0
LINE
  5
327
330
18
100
AcDbEntity
  8
Object
100
AcDbLine
 10
17.595
 20
6.593930439564317
 30
0.0
 11
17.564
 21
6.562930439564317
 31
0.0
  0
LINE
  5
328
330
18
100
AcDbEntity
  8
Object
100
AcDbLine
 10
17.595
 20
4.843930439564317
 30
0.0
 11
17.564
 21
4.812930439564317
 31
0.0
  0
LINE
  5
329
330
18
100
AcDbEntity
  8
Object
100
AcDbLine
 10
17.526
 20
8.029930439564317
 30
0.0
 11
17.564
 21
8.009930439564318
 31
0.0
  0
LINE
  5
32A
330
18
100
AcDbEntity
  8
Object
100
AcDbLine
 10
17.526
 20
6.279930439564317
 30
0.0
 11
17.564
 21
6.259930439564318
 31
0.0
  0
LINE
  5
32B
330
18
100
AcDbEntity
  8
Object
100
AcDbLine
 10
17.564
 20
6.562930439564317
 30
0.0
 11
17.526
 21
6.543930439564317
 31
0.0
  0
LINE
  5
32C
330
18
100
AcDbEntity
  8
Object
100
AcDbLine
 10
17.564
 20
4.812930439564317
 30
0.0
 11
17.526
 21
4.793930439564317
 31
0.0
  0
LINE
  5
32D
330
18
100
AcDbEntity
  8
Object
100
AcDbLine
 10
17.483
 20
8.036930439564319
 30
0.0
 11
17.526
 21
8.029930439564317
 31
0.0
  0
LINE
  5
32E
330
18
100
AcDbEntity
  8
Object
100
AcDbLine
 10
17.483
 20
6.286930439564318
 30
0.0
 11
17.526
 21
6.279930439564317
 31
0.0
  0
LINE
  5
32F
330
18
100
AcDbEntity
  8
Object
100
AcDbLine
 10
17.526
 20
6.543930439564317
 30
0.0
 11
17.483
 21
6.536930439564318
 31
0.0
  0
LINE
  5
330
330
18
100
AcDbEntity
  8
Object
100
AcDbLine
 10
17.526
 20
4.793930439564317
 30
0.0
 11
17.483
 21
4.786930439564318
 31
0.0
  0
LINE
  5
331
330
18
100
AcDbEntity
  8
Object
100
AcDbLine
 10
17.483
 20
6.536930439564318
 30
0.0
 11
17.44
 21
6.543930439564317
 31
0.0
  0
LINE
  5
332
330
18
100
AcDbEntity
  8
Object
100
AcDbLine
 10
17.483
 20
6.286930439564318
 30
0.0
 11
17.44
 21
6.279930439564317
 31
0.0
  0
LINE
  5
333
330
18
100
AcDbEntity
  8
Object
100
AcDbLine
 10
17.44
 20
6.279930439564317
 30
0.0
 11
17.401
 21
6.259930439564318
 31
0.0
  0
LINE
  5
334
330
18
100
AcDbEntity
  8
Object
100
AcDbLine
 10
17.44
 20
6.543930439564317
 30
0.0
 11
17.401
 21
6.562930439564317
 31
0.0
  0
LINE
  5
335
330
18
100
AcDbEntity
  8
Object
100
AcDbLine
 10
17.401
 20
6.562930439564317
 30
0.0
 11
17.37
 21
6.593930439564317
 31
0.0
  0
LINE
  5
336
330
18
100
AcDbEntity
  8
Object
100
AcDbLine
 10
17.401
 20
6.259930439564318
 30
0.0
 11
17.37
 21
6.229930439564317
 31
0.0
  0
LINE
  5
337
330
18
100
AcDbEntity
  8
Object
100
AcDbLine
 10
17.37
 20
6.229930439564317
 30
0.0
 11
17.35
 21
6.190930439564318
 31
0.0
  0
LINE
  5
338
330
18
100
AcDbEntity
  8
Object
100
AcDbLine
 10
17.37
 20
6.593930439564317
 30
0.0
 11
17.35
 21
6.632930439564318
 31
0.0
  0
LINE
  5
339
330
18
100
AcDbEntity
  8
Object
100
AcDbLine
 10
16.928
 20
7.618930439564318
 30
0.0
 11
16.935
 21
7.661930439564318
 31
0.0
  0
LINE
  5
33A
330
18
100
AcDbEntity
  8
Object
100
AcDbLine
 10
16.935
 20
7.661930439564318
 30
0.0
 11
16.928
 21
7.704930439564317
 31
0.0
  0
LINE
  5
33B
330
18
100
AcDbEntity
  8
Object
100
AcDbLine
 10
16.928
 20
5.118930439564318
 30
0.0
 11
16.935
 21
5.161930439564318
 31
0.0
  0
LINE
  5
33C
330
18
100
AcDbEntity
  8
Object
100
AcDbLine
 10
16.935
 20
5.161930439564318
 30
0.0
 11
16.928
 21
5.204930439564317
 31
0.0
  0
LINE
  5
33D
330
18
100
AcDbEntity
  8
Object
100
AcDbLine
 10
16.928
 20
7.618930439564318
 30
0.0
 11
16.908
 21
7.579930439564317
 31
0.0
  0
LINE
  5
33E
330
18
100
AcDbEntity
  8
Object
100
AcDbLine
 10
16.908
 20
7.743930439564318
 30
0.0
 11
16.928
 21
7.704930439564317
 31
0.0
  0
LINE
  5
33F
330
18
100
AcDbEntity
  8
Object
100
AcDbLine
 10
17.35
 20
7.940930439564318
 30
0.0
 11
17.344
 21
7.897930439564317
 31
0.0
  0
LINE
  5
340
330
18
100
AcDbEntity
  8
Object
100
AcDbLine
 10
17.344
 20
7.897930439564317
 30
0.0
 11
17.344
 21
6.675930439564317
 31
0.0
  0
LINE
  5
341
330
18
100
AcDbEntity
  8
Object
100
AcDbLine
 10
17.344
 20
6.147930439564317
 30
0.0
 11
17.344
 21
4.925930439564317
 31
0.0
  0
LINE
  5
342
330
18
100
AcDbEntity
  8
Object
100
AcDbLine
 10
17.344
 20
4.925930439564317
 30
0.0
 11
17.35
 21
4.882930439564317
 31
0.0
  0
LINE
  5
343
330
18
100
AcDbEntity
  8
Object
100
AcDbLine
 10
16.928
 20
5.118930439564318
 30
0.0
 11
16.908
 21
5.079930439564317
 31
0.0
  0
LINE
  5
344
330
18
100
AcDbEntity
  8
Object
100
AcDbLine
 10
16.908
 20
5.243930439564318
 30
0.0
 11
16.928
 21
5.204930439564317
 31
0.0
  0
LINE
  5
345
330
18
100
AcDbEntity
  8
Object
100
AcDbLine
 10
17.35
 20
7.940930439564318
 30
0.0
 11
17.37
 21
7.979930439564317
 31
0.0
  0
LINE
  5
346
330
18
100
AcDbEntity
  8
Object
100
AcDbLine
 10
16.877
 20
7.773930439564318
 30
0.0
 11
16.908
 21
7.743930439564318
 31
0.0
  0
LINE
  5
347
330
18
100
AcDbEntity
  8
Object
100
AcDbLine
 10
16.908
 20
7.579930439564317
 30
0.0
 11
16.877
 21
7.548930439564317
 31
0.0
  0
LINE
  5
348
330
18
100
AcDbEntity
  8
Object
100
AcDbLine
 10
16.877
 20
5.273930439564317
 30
0.0
 11
16.908
 21
5.243930439564318
 31
0.0
  0
LINE
  5
349
330
18
100
AcDbEntity
  8
Object
100
AcDbLine
 10
16.908
 20
5.079930439564317
 30
0.0
 11
16.877
 21
5.048930439564317
 31
0.0
  0
LINE
  5
34A
330
18
100
AcDbEntity
  8
Object
100
AcDbLine
 10
17.37
 20
4.843930439564317
 30
0.0
 11
17.35
 21
4.882930439564317
 31
0.0
  0
LINE
  5
34B
330
18
100
AcDbEntity
  8
Object
100
AcDbLine
 10
16.839
 20
7.793930439564317
 30
0.0
 11
16.877
 21
7.773930439564318
 31
0.0
  0
LINE
  5
34C
330
18
100
AcDbEntity
  8
Object
100
AcDbLine
 10
16.877
 20
7.548930439564317
 30
0.0
 11
16.839
 21
7.529930439564317
 31
0.0
  0
LINE
  5
34D
330
18
100
AcDbEntity
  8
Object
100
AcDbLine
 10
16.877
 20
5.048930439564317
 30
0.0
 11
16.839
 21
5.029930439564317
 31
0.0
  0
LINE
  5
34E
330
18
100
AcDbEntity
  8
Object
100
AcDbLine
 10
16.839
 20
5.293930439564317
 30
0.0
 11
16.877
 21
5.273930439564317
 31
0.0
  0
LINE
  5
34F
330
18
100
AcDbEntity
  8
Object
100
AcDbLine
 10
16.839
 20
7.529930439564317
 30
0.0
 11
16.796
 21
7.522930439564317
 31
0.0
  0
LINE
  5
350
330
18
100
AcDbEntity
  8
Object
100
AcDbLine
 10
16.796
 20
5.300930439564317
 30
0.0
 11
16.839
 21
5.293930439564317
 31
0.0
  0
LINE
  5
351
330
18
100
AcDbEntity
  8
Object
100
AcDbLine
 10
16.796
 20
7.522930439564317
 30
0.0
 11
16.753
 21
7.529930439564317
 31
0.0
  0
LINE
  5
352
330
18
100
AcDbEntity
  8
Object
100
AcDbLine
 10
16.753
 20
5.293930439564317
 30
0.0
 11
16.796
 21
5.300930439564317
 31
0.0
  0
LINE
  5
353
330
18
100
AcDbEntity
  8
Object
100
AcDbLine
 10
16.839
 20
5.029930439564317
 30
0.0
 11
16.796
 21
5.022930439564317
 31
0.0
  0
LINE
  5
354
330
18
100
AcDbEntity
  8
Object
100
AcDbLine
 10
16.733
 20
4.161930439564317
 30
0.0
 11
18.233
 21
4.161930439564317
 31
0.0
  0
LINE
  5
355
330
18
100
AcDbEntity
  8
Object
100
AcDbLine
 10
17.401
 20
4.812930439564317
 30
0.0
 11
17.44
 21
4.793930439564317
 31
0.0
  0
LINE
  5
356
330
18
100
AcDbEntity
  8
Object
100
AcDbLine
 10
17.44
 20
4.793930439564317
 30
0.0
 11
17.483
 21
4.786930439564318
 31
0.0
  0
LINE
  5
357
330
18
100
AcDbEntity
  8
Object
100
AcDbLine
 10
17.401
 20
4.812930439564317
 30
0.0
 11
17.37
 21
4.843930439564317
 31
0.0
  0
LINE
  5
358
330
18
100
AcDbEntity
  8
Object
100
AcDbLine
 10
16.753
 20
7.529930439564317
 30
0.0
 11
16.714
 21
7.548930439564317
 31
0.0
  0
LINE
  5
359
330
18
100
AcDbEntity
  8
Object
100
AcDbLine
 10
17.35
 20
6.632930439564318
 30
0.0
 11
17.344
 21
6.675930439564317
 31
0.0
  0
LINE
  5
35A
330
18
100
AcDbEntity
  8
Object
100
AcDbLine
 10
17.344
 20
6.147930439564317
 30
0.0
 11
17.35
 21
6.190930439564318
 31
0.0
  0
LINE
  5
35B
330
18
100
AcDbEntity
  8
Object
100
AcDbLine
 10
16.714
 20
5.273930439564317
 30
0.0
 11
16.753
 21
5.293930439564317
 31
0.0
  0
LINE
  5
35C
330
18
100
AcDbEntity
  8
Object
100
AcDbLine
 10
16.714
 20
7.548930439564317
 30
0.0
 11
16.683
 21
7.579930439564317
 31
0.0
  0
LINE
  5
35D
330
18
100
AcDbEntity
  8
Object
100
AcDbLine
 10
16.683
 20
5.243930439564318
 30
0.0
 11
16.714
 21
5.273930439564317
 31
0.0
  0
LINE
  5
35E
330
18
100
AcDbEntity
  8
Object
100
AcDbLine
 10
16.683
 20
7.579930439564317
 30
0.0
 11
16.663
 21
7.618930439564318
 31
0.0
  0
LINE
  5
35F
330
18
100
AcDbEntity
  8
Object
100
AcDbLine
 10
16.663
 20
5.204930439564317
 30
0.0
 11
16.683
 21
5.243930439564318
 31
0.0
  0
LINE
  5
360
330
18
100
AcDbEntity
  8
Object
100
AcDbLine
 10
16.796
 20
7.800930439564317
 30
0.0
 11
16.839
 21
7.793930439564317
 31
0.0
  0
LINE
  5
361
330
18
100
AcDbEntity
  8
Object
100
AcDbLine
 10
16.714
 20
7.773930439564318
 30
0.0
 11
16.683
 21
7.743930439564318
 31
0.0
  0
LINE
  5
362
330
18
100
AcDbEntity
  8
Object
100
AcDbLine
 10
16.683
 20
7.743930439564318
 30
0.0
 11
16.663
 21
7.704930439564317
 31
0.0
  0
LINE
  5
363
330
18
100
AcDbEntity
  8
Object
100
AcDbLine
 10
16.663
 20
7.704930439564317
 30
0.0
 11
16.657
 21
7.661930439564318
 31
0.0
  0
LINE
  5
364
330
18
100
AcDbEntity
  8
Object
100
AcDbLine
 10
16.657
 20
7.661930439564318
 30
0.0
 11
16.663
 21
7.618930439564318
 31
0.0
  0
LINE
  5
365
330
18
100
AcDbEntity
  8
Object
100
AcDbLine
 10
16.714
 20
7.773930439564318
 30
0.0
 11
16.753
 21
7.793930439564317
 31
0.0
  0
LINE
  5
366
330
18
100
AcDbEntity
  8
Object
100
AcDbLine
 10
16.753
 20
7.793930439564317
 30
0.0
 11
16.796
 21
7.800930439564317
 31
0.0
  0
LINE
  5
367
330
18
100
AcDbEntity
  8
Object
100
AcDbLine
 10
18.483
 20
8.413930439564317
 30
0.0
 11
16.483
 21
8.413930439564317
 31
0.0
  0
LINE
  5
368
330
18
100
AcDbEntity
  8
Object
100
AcDbLine
 10
17.483
 20
8.036930439564319
 30
0.0
 11
17.44
 21
8.029930439564317
 31
0.0
  0
LINE
  5
369
330
18
100
AcDbEntity
  8
Object
100
AcDbLine
 10
17.44
 20
8.029930439564317
 30
0.0
 11
17.401
 21
8.009930439564318
 31
0.0
  0
LINE
  5
36A
330
18
100
AcDbEntity
  8
Object
100
AcDbLine
 10
17.401
 20
8.009930439564318
 30
0.0
 11
17.37
 21
7.979930439564317
 31
0.0
  0
LINE
  5
36B
330
18
100
AcDbEntity
  8
Object
100
AcDbLine
 10
16.733
 20
4.161930439564317
 30
0.0
 11
16.483
 21
4.411930439564317
 31
0.0
  0
LINE
  5
36C
330
18
100
AcDbEntity
  8
Object
100
AcDbLine
 10
16.483
 20
4.411930439564317
 30
0.0
 11
16.483
 21
8.413930439564317
 31
0.0
  0
LINE
  5
36D
330
18
100
AcDbEntity
  8
Object
100
AcDbLine
 10
16.663
 20
5.204930439564317
 30
0.0
 11
16.657
 21
5.161930439564318
 31
0.0
  0
LINE
  5
36E
330
18
100
AcDbEntity
  8
Object
100
AcDbLine
 10
16.657
 20
5.161930439564318
 30
0.0
 11
16.663
 21
5.118930439564318
 31
0.0
  0
LINE
  5
36F
330
18
100
AcDbEntity
  8
Object
100
AcDbLine
 10
16.663
 20
5.118930439564318
 30
0.0
 11
16.683
 21
5.079930439564317
 31
0.0
  0
LINE
  5
370
330
18
100
AcDbEntity
  8
Object
100
AcDbLine
 10
16.683
 20
5.079930439564317
 30
0.0
 11
16.714
 21
5.048930439564317
 31
0.0
  0
LINE
  5
371
330
18
100
AcDbEntity
  8
Object
100
AcDbLine
 10
16.714
 20
5.048930439564317
 30
0.0
 11
16.753
 21
5.029930439564317
 31
0.0
  0
LINE
  5
372
330
18
100
AcDbEntity
  8
Object
100
AcDbLine
 10
16.753
 20
5.029930439564317
 30
0.0
 11
16.796
 21
5.022930439564317
 31
0.0
  0
LINE
  5
373
330
18
100
AcDbEntity
  8
Object
100
AcDbLine
 10
18.233
 20
4.161930439564317
 30
0.0
 11
18.483
 21
4.411930439564317
 31
0.0
  0
LINE
  5
374
330
18
100
AcDbEntity
  8
Object
100
AcDbLine
 10
16.483
 20
4.411930439564317
 30
0.0
 11
16.733
 21
4.161930439564317
 31
0.0
  0
LINE
  5
375
330
18
100
AcDbEntity
  8
Object
100
AcDbLine
 10
17.622
 20
6.147930439564317
 30
0.0
 11
17.615
 21
6.190930439564318
 31
0.0
  0
LINE
  5
376
330
18
100
AcDbEntity
  8
Object
100
AcDbLine
 10
17.615
 20
6.190930439564318
 30
0.0
 11
17.595
 21
6.229930439564317
 31
0.0
  0
LINE
  5
377
330
18
100
AcDbEntity
  8
Object
100
AcDbLine
 10
17.595
 20
6.229930439564317
 30
0.0
 11
17.564
 21
6.259930439564318
 31
0.0
  0
LINE
  5
378
330
18
100
AcDbEntity
  8
Object
100
AcDbLine
 10
17.564
 20
6.259930439564318
 30
0.0
 11
17.526
 21
6.279930439564317
 31
0.0
  0
LINE
  5
379
330
18
100
AcDbEntity
  8
Object
100
AcDbLine
 10
17.526
 20
6.279930439564317
 30
0.0
 11
17.483
 21
6.286930439564318
 31
0.0
  0
LINE
  5
37A
330
18
100
AcDbEntity
  8
Object
100
AcDbLine
 10
17.622
 20
7.897930439564317
 30
0.0
 11
17.615
 21
7.940930439564318
 31
0.0
  0
LINE
  5
37B
330
18
100
AcDbEntity
  8
Object
100
AcDbLine
 10
17.615
 20
7.940930439564318
 30
0.0
 11
17.595
 21
7.979930439564317
 31
0.0
  0
LINE
  5
37C
330
18
100
AcDbEntity
  8
Object
100
AcDbLine
 10
17.595
 20
7.979930439564317
 30
0.0
 11
17.564
 21
8.009930439564318
 31
0.0
  0
LINE
  5
37D
330
18
100
AcDbEntity
  8
Object
100
AcDbLine
 10
17.564
 20
8.009930439564318
 30
0.0
 11
17.526
 21
8.029930439564317
 31
0.0
  0
LINE
  5
37E
330
18
100
AcDbEntity
  8
Object
100
AcDbLine
 10
17.526
 20
8.029930439564317
 30
0.0
 11
17.483
 21
8.036930439564319
 31
0.0
  0
LINE
  5
37F
330
18
100
AcDbEntity
  8
Object
100
AcDbLine
 10
16.733
 20
4.161930439564317
 30
0.0
 11
18.233
 21
4.161930439564317
 31
0.0
  0
LINE
  5
380
330
18
100
AcDbEntity
  8
Object
100
AcDbLine
 10
17.344
 20
4.925930439564317
 30
0.0
 11
17.344
 21
6.147930439564317
 31
0.0
  0
LINE
  5
381
330
18
100
AcDbEntity
  8
Object
100
AcDbLine
 10
17.483
 20
8.036930439564319
 30
0.0
 11
17.44
 21
8.029930439564317
 31
0.0
  0
LINE
  5
382
330
18
100
AcDbEntity
  8
Object
100
AcDbLine
 10
17.44
 20
8.029930439564317
 30
0.0
 11
17.401
 21
8.009930439564318
 31
0.0
  0
LINE
  5
383
330
18
100
AcDbEntity
  8
Object
100
AcDbLine
 10
17.401
 20
8.009930439564318
 30
0.0
 11
17.37
 21
7.979930439564317
 31
0.0
  0
LINE
  5
384
330
18
100
AcDbEntity
  8
Object
100
AcDbLine
 10
17.37
 20
7.979930439564317
 30
0.0
 11
17.35
 21
7.940930439564318
 31
0.0
  0
LINE
  5
385
330
18
100
AcDbEntity
  8
Object
100
AcDbLine
 10
17.35
 20
7.940930439564318
 30
0.0
 11
17.344
 21
7.897930439564317
 31
0.0
  0
LINE
  5
386
330
18
100
AcDbEntity
  8
Object
100
AcDbLine
 10
17.622
 20
6.675930439564317
 30
0.0
 11
17.615
 21
6.632930439564318
 31
0.0
  0
LINE
  5
387
330
18
100
AcDbEntity
  8
Object
100
AcDbLine
 10
17.615
 20
6.632930439564318
 30
0.0
 11
17.595
 21
6.593930439564317
 31
0.0
  0
LINE
  5
388
330
18
100
AcDbEntity
  8
Object
100
AcDbLine
 10
17.595
 20
6.593930439564317
 30
0.0
 11
17.564
 21
6.562930439564317
 31
0.0
  0
LINE
  5
389
330
18
100
AcDbEntity
  8
Object
100
AcDbLine
 10
17.564
 20
6.562930439564317
 30
0.0
 11
17.526
 21
6.543930439564317
 31
0.0
  0
LINE
  5
38A
330
18
100
AcDbEntity
  8
Object
100
AcDbLine
 10
17.526
 20
6.543930439564317
 30
0.0
 11
17.483
 21
6.536930439564318
 31
0.0
  0
LINE
  5
38B
330
18
100
AcDbEntity
  8
Object
100
AcDbLine
 10
17.483
 20
6.536930439564318
 30
0.0
 11
17.44
 21
6.543930439564317
 31
0.0
  0
LINE
  5
38C
330
18
100
AcDbEntity
  8
Object
100
AcDbLine
 10
17.44
 20
6.543930439564317
 30
0.0
 11
17.401
 21
6.562930439564317
 31
0.0
  0
LINE
  5
38D
330
18
100
AcDbEntity
  8
Object
100
AcDbLine
 10
17.401
 20
6.562930439564317
 30
0.0
 11
17.37
 21
6.593930439564317
 31
0.0
  0
LINE
  5
38E
330
18
100
AcDbEntity
  8
Object
100
AcDbLine
 10
17.37
 20
6.593930439564317
 30
0.0
 11
17.35
 21
6.632930439564318
 31
0.0
  0
LINE
  5
38F
330
18
100
AcDbEntity
  8
Object
100
AcDbLine
 10
17.35
 20
6.632930439564318
 30
0.0
 11
17.344
 21
6.675930439564317
 31
0.0
  0
LINE
  5
390
330
18
100
AcDbEntity
  8
Object
100
AcDbLine
 10
16.753
 20
5.293930439564317
 30
0.0
 11
16.796
 21
5.300930439564317
 31
0.0
  0
LINE
  5
391
330
18
100
AcDbEntity
  8
Object
100
AcDbLine
 10
16.796
 20
5.022930439564317
 30
0.0
 11
16.753
 21
5.029930439564317
 31
0.0
  0
LINE
  5
392
330
18
100
AcDbEntity
  8
Object
100
AcDbLine
 10
16.714
 20
5.273930439564317
 30
0.0
 11
16.753
 21
5.293930439564317
 31
0.0
  0
LINE
  5
393
330
18
100
AcDbEntity
  8
Object
100
AcDbLine
 10
16.753
 20
5.029930439564317
 30
0.0
 11
16.714
 21
5.048930439564317
 31
0.0
  0
LINE
  5
394
330
18
100
AcDbEntity
  8
Object
100
AcDbLine
 10
16.714
 20
5.048930439564317
 30
0.0
 11
16.683
 21
5.079930439564317
 31
0.0
  0
LINE
  5
395
330
18
100
AcDbEntity
  8
Object
100
AcDbLine
 10
16.714
 20
5.273930439564317
 30
0.0
 11
16.683
 21
5.243930439564318
 31
0.0
  0
LINE
  5
396
330
18
100
AcDbEntity
  8
Object
100
AcDbLine
 10
16.683
 20
5.243930439564318
 30
0.0
 11
16.663
 21
5.204930439564317
 31
0.0
  0
LINE
  5
397
330
18
100
AcDbEntity
  8
Object
100
AcDbLine
 10
16.683
 20
5.079930439564317
 30
0.0
 11
16.663
 21
5.118930439564318
 31
0.0
  0
LINE
  5
398
330
18
100
AcDbEntity
  8
Object
100
AcDbLine
 10
16.663
 20
5.118930439564318
 30
0.0
 11
16.657
 21
5.161930439564318
 31
0.0
  0
LINE
  5
399
330
18
100
AcDbEntity
  8
Object
100
AcDbLine
 10
16.657
 20
5.161930439564318
 30
0.0
 11
16.663
 21
5.204930439564317
 31
0.0
  0
LINE
  5
39A
330
18
100
AcDbEntity
  8
Object
100
AcDbLine
 10
16.928
 20
5.118930439564318
 30
0.0
 11
16.935
 21
5.161930439564318
 31
0.0
  0
LINE
  5
39B
330
18
100
AcDbEntity
  8
Object
100
AcDbLine
 10
16.935
 20
5.161930439564318
 30
0.0
 11
16.928
 21
5.204930439564317
 31
0.0
  0
LINE
  5
39C
330
18
100
AcDbEntity
  8
Object
100
AcDbLine
 10
16.928
 20
5.204930439564317
 30
0.0
 11
16.908
 21
5.243930439564318
 31
0.0
  0
LINE
  5
39D
330
18
100
AcDbEntity
  8
Object
100
AcDbLine
 10
16.928
 20
5.118930439564318
 30
0.0
 11
16.908
 21
5.079930439564317
 31
0.0
  0
LINE
  5
39E
330
18
100
AcDbEntity
  8
Object
100
AcDbLine
 10
16.908
 20
5.079930439564317
 30
0.0
 11
16.877
 21
5.048930439564317
 31
0.0
  0
LINE
  5
39F
330
18
100
AcDbEntity
  8
Object
100
AcDbLine
 10
16.908
 20
5.243930439564318
 30
0.0
 11
16.877
 21
5.273930439564317
 31
0.0
  0
LINE
  5
3A0
330
18
100
AcDbEntity
  8
Object
100
AcDbLine
 10
16.877
 20
5.273930439564317
 30
0.0
 11
16.839
 21
5.293930439564317
 31
0.0
  0
LINE
  5
3A1
330
18
100
AcDbEntity
  8
Object
100
AcDbLine
 10
16.877
 20
5.048930439564317
 30
0.0
 11
16.839
 21
5.029930439564317
 31
0.0
  0
LINE
  5
3A2
330
18
100
AcDbEntity
  8
Object
100
AcDbLine
 10
16.839
 20
5.029930439564317
 30
0.0
 11
16.796
 21
5.022930439564317
 31
0.0
  0
LINE
  5
3A3
330
18
100
AcDbEntity
  8
Object
100
AcDbLine
 10
16.796
 20
5.300930439564317
 30
0.0
 11
16.839
 21
5.293930439564317
 31
0.0
  0
LINE
  5
3A4
330
18
100
AcDbEntity
  8
Object
100
AcDbLine
 10
18.128
 20
5.293930439564317
 30
0.0
 11
18.171
 21
5.300930439564317
 31
0.0
  0
LINE
  5
3A5
330
18
100
AcDbEntity
  8
Object
100
AcDbLine
 10
18.171
 20
5.022930439564317
 30
0.0
 11
18.128
 21
5.029930439564317
 31
0.0
  0
LINE
  5
3A6
330
18
100
AcDbEntity
  8
Object
100
AcDbLine
 10
18.089
 20
5.273930439564317
 30
0.0
 11
18.128
 21
5.293930439564317
 31
0.0
  0
LINE
  5
3A7
330
18
100
AcDbEntity
  8
Object
100
AcDbLine
 10
18.128
 20
5.029930439564317
 30
0.0
 11
18.089
 21
5.048930439564317
 31
0.0
  0
LINE
  5
3A8
330
18
100
AcDbEntity
  8
Object
100
AcDbLine
 10
18.089
 20
5.048930439564317
 30
0.0
 11
18.058
 21
5.079930439564317
 31
0.0
  0
LINE
  5
3A9
330
18
100
AcDbEntity
  8
Object
100
AcDbLine
 10
18.089
 20
5.273930439564317
 30
0.0
 11
18.058
 21
5.243930439564318
 31
0.0
  0
LINE
  5
3AA
330
18
100
AcDbEntity
  8
Object
100
AcDbLine
 10
18.058
 20
5.243930439564318
 30
0.0
 11
18.038
 21
5.204930439564317
 31
0.0
  0
LINE
  5
3AB
330
18
100
AcDbEntity
  8
Object
100
AcDbLine
 10
18.058
 20
5.079930439564317
 30
0.0
 11
18.038
 21
5.118930439564318
 31
0.0
  0
LINE
  5
3AC
330
18
100
AcDbEntity
  8
Object
100
AcDbLine
 10
18.038
 20
5.118930439564318
 30
0.0
 11
18.032
 21
5.161930439564318
 31
0.0
  0
LINE
  5
3AD
330
18
100
AcDbEntity
  8
Object
100
AcDbLine
 10
18.032
 20
5.161930439564318
 30
0.0
 11
18.038
 21
5.204930439564317
 31
0.0
  0
LINE
  5
3AE
330
18
100
AcDbEntity
  8
Object
100
AcDbLine
 10
17.483
 20
6.286930439564318
 30
0.0
 11
17.44
 21
6.279930439564317
 31
0.0
  0
LINE
  5
3AF
330
18
100
AcDbEntity
  8
Object
100
AcDbLine
 10
17.44
 20
6.279930439564317
 30
0.0
 11
17.401
 21
6.259930439564318
 31
0.0
  0
LINE
  5
3B0
330
18
100
AcDbEntity
  8
Object
100
AcDbLine
 10
17.401
 20
6.259930439564318
 30
0.0
 11
17.37
 21
6.229930439564317
 31
0.0
  0
LINE
  5
3B1
330
18
100
AcDbEntity
  8
Object
100
AcDbLine
 10
17.37
 20
6.229930439564317
 30
0.0
 11
17.35
 21
6.190930439564318
 31
0.0
  0
LINE
  5
3B2
330
18
100
AcDbEntity
  8
Object
100
AcDbLine
 10
17.35
 20
6.190930439564318
 30
0.0
 11
17.344
 21
6.147930439564317
 31
0.0
  0
LINE
  5
3B3
330
18
100
AcDbEntity
  8
Object
100
AcDbLine
 10
17.622
 20
4.925930439564317
 30
0.0
 11
17.615
 21
4.882930439564317
 31
0.0
  0
LINE
  5
3B4
330
18
100
AcDbEntity
  8
Object
100
AcDbLine
 10
17.615
 20
4.882930439564317
 30
0.0
 11
17.595
 21
4.843930439564317
 31
0.0
  0
LINE
  5
3B5
330
18
100
AcDbEntity
  8
Object
100
AcDbLine
 10
17.595
 20
4.843930439564317
 30
0.0
 11
17.564
 21
4.812930439564317
 31
0.0
  0
LINE
  5
3B6
330
18
100
AcDbEntity
  8
Object
100
AcDbLine
 10
17.564
 20
4.812930439564317
 30
0.0
 11
17.526
 21
4.793930439564317
 31
0.0
  0
LINE
  5
3B7
330
18
100
AcDbEntity
  8
Object
100
AcDbLine
 10
17.526
 20
4.793930439564317
 30
0.0
 11
17.483
 21
4.786930439564318
 31
0.0
  0
LINE
  5
3B8
330
18
100
AcDbEntity
  8
Object
100
AcDbLine
 10
17.483
 20
4.786930439564318
 30
0.0
 11
17.44
 21
4.793930439564317
 31
0.0
  0
LINE
  5
3B9
330
18
100
AcDbEntity
  8
Object
100
AcDbLine
 10
17.44
 20
4.793930439564317
 30
0.0
 11
17.401
 21
4.812930439564317
 31
0.0
  0
LINE
  5
3BA
330
18
100
AcDbEntity
  8
Object
100
AcDbLine
 10
17.401
 20
4.812930439564317
 30
0.0
 11
17.37
 21
4.843930439564317
 31
0.0
  0
LINE
  5
3BB
330
18
100
AcDbEntity
  8
Object
100
AcDbLine
 10
17.37
 20
4.843930439564317
 30
0.0
 11
17.35
 21
4.882930439564317
 31
0.0
  0
LINE
  5
3BC
330
18
100
AcDbEntity
  8
Object
100
AcDbLine
 10
17.35
 20
4.882930439564317
 30
0.0
 11
17.344
 21
4.925930439564317
 31
0.0
  0
LINE
  5
3BD
330
18
100
AcDbEntity
  8
Object
100
AcDbLine
 10
16.928
 20
7.618930439564318
 30
0.0
 11
16.935
 21
7.661930439564318
 31
0.0
  0
LINE
  5
3BE
330
18
100
AcDbEntity
  8
Object
100
AcDbLine
 10
16.935
 20
7.661930439564318
 30
0.0
 11
16.928
 21
7.704930439564317
 31
0.0
  0
LINE
  5
3BF
330
18
100
AcDbEntity
  8
Object
100
AcDbLine
 10
16.928
 20
7.704930439564317
 30
0.0
 11
16.908
 21
7.743930439564318
 31
0.0
  0
LINE
  5
3C0
330
18
100
AcDbEntity
  8
Object
100
AcDbLine
 10
16.928
 20
7.618930439564318
 30
0.0
 11
16.908
 21
7.579930439564317
 31
0.0
  0
LINE
  5
3C1
330
18
100
AcDbEntity
  8
Object
100
AcDbLine
 10
16.908
 20
7.579930439564317
 30
0.0
 11
16.877
 21
7.548930439564317
 31
0.0
  0
LINE
  5
3C2
330
18
100
AcDbEntity
  8
Object
100
AcDbLine
 10
16.908
 20
7.743930439564318
 30
0.0
 11
16.877
 21
7.773930439564318
 31
0.0
  0
LINE
  5
3C3
330
18
100
AcDbEntity
  8
Object
100
AcDbLine
 10
16.877
 20
7.773930439564318
 30
0.0
 11
16.839
 21
7.793930439564317
 31
0.0
  0
LINE
  5
3C4
330
18
100
AcDbEntity
  8
Object
100
AcDbLine
 10
16.877
 20
7.548930439564317
 30
0.0
 11
16.839
 21
7.529930439564317
 31
0.0
  0
LINE
  5
3C5
330
18
100
AcDbEntity
  8
Object
100
AcDbLine
 10
16.839
 20
7.529930439564317
 30
0.0
 11
16.796
 21
7.522930439564317
 31
0.0
  0
LINE
  5
3C6
330
18
100
AcDbEntity
  8
Object
100
AcDbLine
 10
16.796
 20
7.800930439564317
 30
0.0
 11
16.839
 21
7.793930439564317
 31
0.0
  0
LINE
  5
3C7
330
18
100
AcDbEntity
  8
Object
100
AcDbLine
 10
17.622
 20
6.147930439564317
 30
0.0
 11
17.622
 21
4.925930439564317
 31
0.0
  0
LINE
  5
3C8
330
18
100
AcDbEntity
  8
Object
100
AcDbLine
 10
16.753
 20
7.793930439564317
 30
0.0
 11
16.796
 21
7.800930439564317
 31
0.0
  0
LINE
  5
3C9
330
18
100
AcDbEntity
  8
Object
100
AcDbLine
 10
16.796
 20
7.522930439564317
 30
0.0
 11
16.753
 21
7.529930439564317
 31
0.0
  0
LINE
  5
3CA
330
18
100
AcDbEntity
  8
Object
100
AcDbLine
 10
16.714
 20
7.773930439564318
 30
0.0
 11
16.753
 21
7.793930439564317
 31
0.0
  0
LINE
  5
3CB
330
18
100
AcDbEntity
  8
Object
100
AcDbLine
 10
16.753
 20
7.529930439564317
 30
0.0
 11
16.714
 21
7.548930439564317
 31
0.0
  0
LINE
  5
3CC
330
18
100
AcDbEntity
  8
Object
100
AcDbLine
 10
16.714
 20
7.548930439564317
 30
0.0
 11
16.683
 21
7.579930439564317
 31
0.0
  0
LINE
  5
3CD
330
18
100
AcDbEntity
  8
Object
100
AcDbLine
 10
16.714
 20
7.773930439564318
 30
0.0
 11
16.683
 21
7.743930439564318
 31
0.0
  0
LINE
  5
3CE
330
18
100
AcDbEntity
  8
Object
100
AcDbLine
 10
16.683
 20
7.743930439564318
 30
0.0
 11
16.663
 21
7.704930439564317
 31
0.0
  0
LINE
  5
3CF
330
18
100
AcDbEntity
  8
Object
100
AcDbLine
 10
16.683
 20
7.579930439564317
 30
0.0
 11
16.663
 21
7.618930439564318
 31
0.0
  0
LINE
  5
3D0
330
18
100
AcDbEntity
  8
Object
100
AcDbLine
 10
16.663
 20
7.618930439564318
 30
0.0
 11
16.657
 21
7.661930439564318
 31
0.0
  0
LINE
  5
3D1
330
18
100
AcDbEntity
  8
Object
100
AcDbLine
 10
16.657
 20
7.661930439564318
 30
0.0
 11
16.663
 21
7.704930439564317
 31
0.0
  0
LINE
  5
3D2
330
18
100
AcDbEntity
  8
Object
100
AcDbLine
 10
17.344
 20
6.675930439564317
 30
0.0
 11
17.344
 21
7.897930439564317
 31
0.0
  0
LINE
  5
3D3
330
18
100
AcDbEntity
  8
Object
100
AcDbLine
 10
18.128
 20
7.793930439564317
 30
0.0
 11
18.171
 21
7.800930439564317
 31
0.0
  0
LINE
  5
3D4
330
18
100
AcDbEntity
  8
Object
100
AcDbLine
 10
18.171
 20
7.522930439564317
 30
0.0
 11
18.128
 21
7.529930439564317
 31
0.0
  0
LINE
  5
3D5
330
18
100
AcDbEntity
  8
Object
100
AcDbLine
 10
18.089
 20
7.773930439564318
 30
0.0
 11
18.128
 21
7.793930439564317
 31
0.0
  0
LINE
  5
3D6
330
18
100
AcDbEntity
  8
Object
100
AcDbLine
 10
18.128
 20
7.529930439564317
 30
0.0
 11
18.089
 21
7.548930439564317
 31
0.0
  0
LINE
  5
3D7
330
18
100
AcDbEntity
  8
Object
100
AcDbLine
 10
18.089
 20
7.548930439564317
 30
0.0
 11
18.058
 21
7.579930439564317
 31
0.0
  0
LINE
  5
3D8
330
18
100
AcDbEntity
  8
Object
100
AcDbLine
 10
18.089
 20
7.773930439564318
 30
0.0
 11
18.058
 21
7.743930439564318
 31
0.0
  0
LINE
  5
3D9
330
18
100
AcDbEntity
  8
Object
100
AcDbLine
 10
18.058
 20
7.743930439564318
 30
0.0
 11
18.038
 21
7.704930439564317
 31
0.0
  0
LINE
  5
3DA
330
18
100
AcDbEntity
  8
Object
100
AcDbLine
 10
18.058
 20
7.579930439564317
 30
0.0
 11
18.038
 21
7.618930439564318
 31
0.0
  0
LINE
  5
3DB
330
18
100
AcDbEntity
  8
Object
100
AcDbLine
 10
18.038
 20
7.618930439564318
 30
0.0
 11
18.032
 21
7.661930439564318
 31
0.0
  0
LINE
  5
3DC
330
18
100
AcDbEntity
  8
Object
100
AcDbLine
 10
18.032
 20
7.661930439564318
 30
0.0
 11
18.038
 21
7.704930439564317
 31
0.0
  0
LINE
  5
3DD
330
18
100
AcDbEntity
  8
Object
100
AcDbLine
 10
18.303
 20
7.618930439564318
 30
0.0
 11
18.31
 21
7.661930439564318
 31
0.0
  0
LINE
  5
3DE
330
18
100
AcDbEntity
  8
Object
100
AcDbLine
 10
18.31
 20
7.661930439564318
 30
0.0
 11
18.303
 21
7.704930439564317
 31
0.0
  0
LINE
  5
3DF
330
18
100
AcDbEntity
  8
Object
100
AcDbLine
 10
18.303
 20
7.704930439564317
 30
0.0
 11
18.283
 21
7.743930439564318
 31
0.0
  0
LINE
  5
3E0
330
18
100
AcDbEntity
  8
Object
100
AcDbLine
 10
18.303
 20
7.618930439564318
 30
0.0
 11
18.283
 21
7.579930439564317
 31
0.0
  0
LINE
  5
3E1
330
18
100
AcDbEntity
  8
Object
100
AcDbLine
 10
18.283
 20
7.579930439564317
 30
0.0
 11
18.252
 21
7.548930439564317
 31
0.0
  0
LINE
  5
3E2
330
18
100
AcDbEntity
  8
Object
100
AcDbLine
 10
18.283
 20
7.743930439564318
 30
0.0
 11
18.252
 21
7.773930439564318
 31
0.0
  0
LINE
  5
3E3
330
18
100
AcDbEntity
  8
Object
100
AcDbLine
 10
18.252
 20
7.773930439564318
 30
0.0
 11
18.214
 21
7.793930439564317
 31
0.0
  0
LINE
  5
3E4
330
18
100
AcDbEntity
  8
Object
100
AcDbLine
 10
18.252
 20
7.548930439564317
 30
0.0
 11
18.214
 21
7.529930439564317
 31
0.0
  0
LINE
  5
3E5
330
18
100
AcDbEntity
  8
Object
100
AcDbLine
 10
18.214
 20
7.529930439564317
 30
0.0
 11
18.171
 21
7.522930439564317
 31
0.0
  0
LINE
  5
3E6
330
18
100
AcDbEntity
  8
Object
100
AcDbLine
 10
18.171
 20
7.800930439564317
 30
0.0
 11
18.214
 21
7.793930439564317
 31
0.0
  0
LINE
  5
3E7
330
18
100
AcDbEntity
  8
Object
100
AcDbLine
 10
18.303
 20
5.118930439564318
 30
0.0
 11
18.31
 21
5.161930439564318
 31
0.0
  0
LINE
  5
3E8
330
18
100
AcDbEntity
  8
Object
100
AcDbLine
 10
18.31
 20
5.161930439564318
 30
0.0
 11
18.303
 21
5.204930439564317
 31
0.0
  0
LINE
  5
3E9
330
18
100
AcDbEntity
  8
Object
100
AcDbLine
 10
18.303
 20
5.204930439564317
 30
0.0
 11
18.283
 21
5.243930439564318
 31
0.0
  0
LINE
  5
3EA
330
18
100
AcDbEntity
  8
Object
100
AcDbLine
 10
18.303
 20
5.118930439564318
 30
0.0
 11
18.283
 21
5.079930439564317
 31
0.0
  0
LINE
  5
3EB
330
18
100
AcDbEntity
  8
Object
100
AcDbLine
 10
18.283
 20
5.079930439564317
 30
0.0
 11
18.252
 21
5.048930439564317
 31
0.0
  0
LINE
  5
3EC
330
18
100
AcDbEntity
  8
Object
100
AcDbLine
 10
18.283
 20
5.243930439564318
 30
0.0
 11
18.252
 21
5.273930439564317
 31
0.0
  0
LINE
  5
3ED
330
18
100
AcDbEntity
  8
Object
100
AcDbLine
 10
18.252
 20
5.273930439564317
 30
0.0
 11
18.214
 21
5.293930439564317
 31
0.0
  0
LINE
  5
3EE
330
18
100
AcDbEntity
  8
Object
100
AcDbLine
 10
18.252
 20
5.048930439564317
 30
0.0
 11
18.214
 21
5.029930439564317
 31
0.0
  0
LINE
  5
3EF
330
18
100
AcDbEntity
  8
Object
100
AcDbLine
 10
18.214
 20
5.029930439564317
 30
0.0
 11
18.171
 21
5.022930439564317
 31
0.0
  0
LINE
  5
3F0
330
18
100
AcDbEntity
  8
Object
100
AcDbLine
 10
18.171
 20
5.300930439564317
 30
0.0
 11
18.214
 21
5.293930439564317
 31
0.0
  0
LINE
  5
3F1
330
18
100
AcDbEntity
  8
Object
100
AcDbLine
 10
17.622
 20
7.897930439564317
 30
0.0
 11
17.622
 21
6.675930439564317
 31
0.0
  0
LINE
  5
3F2
330
18
100
AcDbEntity
  8
Object
100
AcDbLine
 10
10.104
 20
8.652930439564318
 30
0.0
 11
10.104
 21
8.473930439564316
 31
0.0
  0
LINE
  5
3F3
330
18
100
AcDbEntity
  8
Object
100
AcDbLine
 10
10.104
 20
8.473930439564316
 30
0.0
 11
9.854
 21
8.473930439564316
 31
0.0
  0
LINE
  5
3F4
330
18
100
AcDbEntity
  8
Object
100
AcDbLine
 10
9.854
 20
8.473930439564316
 30
0.0
 11
3.602
 21
8.473930439564316
 31
0.0
  0
LINE
  5
3F5
330
18
100
AcDbEntity
  8
Object
100
AcDbLine
 10
9.854
 20
8.652930439564318
 30
0.0
 11
10.104
 21
8.652930439564318
 31
0.0
  0
LINE
  5
3F6
330
18
100
AcDbEntity
  8
Object
100
AcDbLine
 10
10.104
 20
8.652930439564318
 30
0.0
 11
10.104
 21
8.473930439564316
 31
0.0
  0
LINE
  5
3F7
330
18
100
AcDbEntity
  8
Object
100
AcDbLine
 10
10.104
 20
8.473930439564316
 30
0.0
 11
9.854
 21
8.473930439564316
 31
0.0
  0
LINE
  5
3F8
330
18
100
AcDbEntity
  8
Object
100
AcDbLine
 10
10.104
 20
8.652930439564318
 30
0.0
 11
9.854
 21
8.652930439564318
 31
0.0
  0
LINE
  5
3F9
330
18
100
AcDbEntity
  8
Object
100
AcDbLine
 10
9.854
 20
8.652930439564318
 30
0.0
 11
3.602
 21
8.652930439564318
 31
0.0
  0
LINE
  5
3FA
330
18
100
AcDbEntity
  8
Object
100
AcDbLine
 10
3.602
 20
8.473930439564316
 30
0.0
 11
3.579
 21
8.468930439564317
 31
0.0
  0
LINE
  5
3FB
330
18
100
AcDbEntity
  8
Object
100
AcDbLine
 10
3.579
 20
8.468930439564317
 30
0.0
 11
3.56
 21
8.455930439564317
 31
0.0
  0
LINE
  5
3FC
330
18
100
AcDbEntity
  8
Object
100
AcDbLine
 10
3.56
 20
8.455930439564317
 30
0.0
 11
3.547
 21
8.436930439564317
 31
0.0
  0
LINE
  5
3FD
330
18
100
AcDbEntity
  8
Object
100
AcDbLine
 10
3.547
 20
8.436930439564317
 30
0.0
 11
3.541999999999999
 21
8.413930439564317
 31
0.0
  0
LINE
  5
3FE
330
18
100
AcDbEntity
  8
Object
100
AcDbLine
 10
3.602
 20
8.652930439564318
 30
0.0
 11
9.854
 21
8.652930439564318
 31
0.0
  0
LINE
  5
3FF
330
18
100
AcDbEntity
  8
Object
100
AcDbLine
 10
9.854
 20
8.652930439564318
 30
0.0
 11
9.854
 21
8.473930439564316
 31
0.0
  0
LINE
  5
400
330
18
100
AcDbEntity
  8
Object
100
AcDbLine
 10
9.854
 20
8.473930439564316
 30
0.0
 11
3.602
 21
8.473930439564316
 31
0.0
  0
LINE
  5
401
330
18
100
AcDbEntity
  8
Object
100
AcDbLine
 10
3.602
 20
8.652930439564318
 30
0.0
 11
3.548999999999999
 21
8.646930439564318
 31
0.0
  0
LINE
  5
402
330
18
100
AcDbEntity
  8
Object
100
AcDbLine
 10
3.579
 20
8.468930439564317
 30
0.0
 11
3.602
 21
8.473930439564316
 31
0.0
  0
LINE
  5
403
330
18
100
AcDbEntity
  8
Object
100
AcDbLine
 10
3.548999999999999
 20
8.646930439564318
 30
0.0
 11
3.498000000000001
 21
8.628930439564317
 31
0.0
  0
LINE
  5
404
330
18
100
AcDbEntity
  8
Object
100
AcDbLine
 10
3.56
 20
8.455930439564317
 30
0.0
 11
3.579
 21
8.468930439564317
 31
0.0
  0
LINE
  5
405
330
18
100
AcDbEntity
  8
Object
100
AcDbLine
 10
3.498000000000001
 20
8.628930439564317
 30
0.0
 11
3.452999999999999
 21
8.600930439564319
 31
0.0
  0
LINE
  5
406
330
18
100
AcDbEntity
  8
Object
100
AcDbLine
 10
3.452999999999999
 20
8.600930439564319
 30
0.0
 11
3.414999999999999
 21
8.562930439564318
 31
0.0
  0
LINE
  5
407
330
18
100
AcDbEntity
  8
Object
100
AcDbLine
 10
3.414999999999999
 20
8.562930439564318
 30
0.0
 11
3.387
 21
8.517930439564317
 31
0.0
  0
LINE
  5
408
330
18
100
AcDbEntity
  8
Object
100
AcDbLine
 10
3.56
 20
8.455930439564317
 30
0.0
 11
3.547
 21
8.436930439564317
 31
0.0
  0
LINE
  5
409
330
18
100
AcDbEntity
  8
Object
100
AcDbLine
 10
3.547
 20
8.436930439564317
 30
0.0
 11
3.541999999999999
 21
8.413930439564317
 31
0.0
  0
LINE
  5
40A
330
18
100
AcDbEntity
  8
Object
100
AcDbLine
 10
3.387
 20
8.517930439564317
 30
0.0
 11
3.368999999999999
 21
8.466930439564318
 31
0.0
  0
LINE
  5
40B
330
18
100
AcDbEntity
  8
Object
100
AcDbLine
 10
3.368999999999999
 20
8.466930439564318
 30
0.0
 11
3.362999999999999
 21
8.413930439564317
 31
0.0
  0
LINE
  5
40C
330
18
100
AcDbEntity
  8
Object
100
AcDbLine
 10
3.541999999999999
 20
8.413930439564317
 30
0.0
 11
3.541999999999999
 21
4.411930439564317
 31
0.0
  0
LINE
  5
40D
330
18
100
AcDbEntity
  8
Object
100
AcDbLine
 10
3.541999999999999
 20
4.411930439564317
 30
0.0
 11
3.362999999999999
 21
4.411930439564317
 31
0.0
  0
LINE
  5
40E
330
18
100
AcDbEntity
  8
Object
100
AcDbLine
 10
3.362999999999999
 20
4.411930439564317
 30
0.0
 11
3.362999999999999
 21
8.413930439564317
 31
0.0
  0
LINE
  5
40F
330
18
100
AcDbEntity
  8
Object
100
AcDbLine
 10
3.602
 20
8.652930439564318
 30
0.0
 11
3.548999999999999
 21
8.646930439564318
 31
0.0
  0
LINE
  5
410
330
18
100
AcDbEntity
  8
Object
100
AcDbLine
 10
3.548999999999999
 20
8.646930439564318
 30
0.0
 11
3.498000000000001
 21
8.628930439564317
 31
0.0
  0
LINE
  5
411
330
18
100
AcDbEntity
  8
Object
100
AcDbLine
 10
3.498000000000001
 20
8.628930439564317
 30
0.0
 11
3.452999999999999
 21
8.600930439564319
 31
0.0
  0
LINE
  5
412
330
18
100
AcDbEntity
  8
Object
100
AcDbLine
 10
3.452999999999999
 20
8.600930439564319
 30
0.0
 11
3.414999999999999
 21
8.562930439564318
 31
0.0
  0
LINE
  5
413
330
18
100
AcDbEntity
  8
Object
100
AcDbLine
 10
3.414999999999999
 20
8.562930439564318
 30
0.0
 11
3.387
 21
8.517930439564317
 31
0.0
  0
LINE
  5
414
330
18
100
AcDbEntity
  8
Object
100
AcDbLine
 10
3.387
 20
8.517930439564317
 30
0.0
 11
3.368999999999999
 21
8.466930439564318
 31
0.0
  0
LINE
  5
415
330
18
100
AcDbEntity
  8
Object
100
AcDbLine
 10
3.368999999999999
 20
8.466930439564318
 30
0.0
 11
3.362999999999999
 21
8.413930439564317
 31
0.0
  0
LINE
  5
416
330
18
100
AcDbEntity
  8
Object
100
AcDbLine
 10
3.362999999999999
 20
8.413930439564317
 30
0.0
 11
3.362999999999999
 21
4.411930439564317
 31
0.0
  0
LINE
  5
417
330
18
100
AcDbEntity
  8
Object
100
AcDbLine
 10
3.362999999999999
 20
4.411930439564317
 30
0.0
 11
3.362999999999999
 21
4.161930439564317
 31
0.0
  0
LINE
  5
418
330
18
100
AcDbEntity
  8
Object
100
AcDbLine
 10
3.541999999999999
 20
4.161930439564317
 30
0.0
 11
3.541999999999999
 21
4.411930439564317
 31
0.0
  0
LINE
  5
419
330
18
100
AcDbEntity
  8
Object
100
AcDbLine
 10
3.541999999999999
 20
4.411930439564317
 30
0.0
 11
3.541999999999999
 21
8.413930439564317
 31
0.0
  0
LINE
  5
41A
330
18
100
AcDbEntity
  8
Object
100
AcDbLine
 10
3.362999999999999
 20
4.411930439564317
 30
0.0
 11
3.362999999999999
 21
4.161930439564317
 31
0.0
  0
LINE
  5
41B
330
18
100
AcDbEntity
  8
Object
100
AcDbLine
 10
3.541999999999999
 20
4.411930439564317
 30
0.0
 11
3.541999999999999
 21
4.161930439564317
 31
0.0
  0
LINE
  5
41C
330
18
100
AcDbEntity
  8
Object
100
AcDbLine
 10
3.541999999999999
 20
4.161930439564317
 30
0.0
 11
3.362999999999999
 21
4.161930439564317
 31
0.0
  0
LINE
  5
41D
330
18
100
AcDbEntity
  8
Object
100
AcDbLine
 10
3.362999999999999
 20
4.161930439564317
 30
0.0
 11
3.541999999999999
 21
4.161930439564317
 31
0.0
  0
LINE
  5
41E
330
18
100
AcDbEntity
  8
Object
100
AcDbLine
 10
10.104
 20
12.65693043956432
 30
0.0
 11
10.104
 21
14.15693043956432
 31
0.0
  0
LINE
  5
41F
330
18
100
AcDbEntity
  8
Object
100
AcDbLine
 10
10.104
 20
14.15693043956432
 30
0.0
 11
9.854
 21
14.40693043956432
 31
0.0
  0
LINE
  5
420
330
18
100
AcDbEntity
  8
Object
100
AcDbLine
 10
9.854
 20
12.40693043956432
 30
0.0
 11
10.104
 21
12.65693043956432
 31
0.0
  0
LINE
  5
421
330
18
100
AcDbEntity
  8
Object
100
AcDbLine
 10
9.477999999999999
 20
13.42493043956431
 30
0.0
 11
9.477999999999999
 21
13.38793043956432
 31
0.0
  0
LINE
  5
422
330
18
100
AcDbEntity
  8
Object
100
AcDbLine
 10
10.104
 20
12.65693043956432
 30
0.0
 11
10.104
 21
14.15693043956432
 31
0.0
  0
LINE
  5
423
330
18
100
AcDbEntity
  8
Object
100
AcDbLine
 10
9.464999999999999
 20
13.45893043956432
 30
0.0
 11
9.477999999999999
 21
13.42493043956431
 31
0.0
  0
LINE
  5
424
330
18
100
AcDbEntity
  8
Object
100
AcDbLine
 10
9.477999999999999
 20
13.38793043956432
 30
0.0
 11
9.464999999999999
 21
13.35393043956432
 31
0.0
  0
LINE
  5
425
330
18
100
AcDbEntity
  8
Object
100
AcDbLine
 10
9.442
 20
13.48693043956432
 30
0.0
 11
9.464999999999999
 21
13.45893043956432
 31
0.0
  0
LINE
  5
426
330
18
100
AcDbEntity
  8
Object
100
AcDbLine
 10
9.464999999999999
 20
13.35393043956432
 30
0.0
 11
9.442
 21
13.32593043956432
 31
0.0
  0
LINE
  5
427
330
18
100
AcDbEntity
  8
Object
100
AcDbLine
 10
9.41
 20
13.50493043956431
 30
0.0
 11
9.442
 21
13.48693043956432
 31
0.0
  0
LINE
  5
428
330
18
100
AcDbEntity
  8
Object
100
AcDbLine
 10
10.104
 20
14.15693043956432
 30
0.0
 11
9.854
 21
14.40693043956432
 31
0.0
  0
LINE
  5
429
330
18
100
AcDbEntity
  8
Object
100
AcDbLine
 10
9.442
 20
13.32593043956432
 30
0.0
 11
9.41
 21
13.30793043956432
 31
0.0
  0
LINE
  5
42A
330
18
100
AcDbEntity
  8
Object
100
AcDbLine
 10
9.854
 20
12.40693043956432
 30
0.0
 11
10.104
 21
12.65693043956432
 31
0.0
  0
LINE
  5
42B
330
18
100
AcDbEntity
  8
Object
100
AcDbLine
 10
9.374
 20
13.51193043956432
 30
0.0
 11
9.41
 21
13.50493043956431
 31
0.0
  0
LINE
  5
42C
330
18
100
AcDbEntity
  8
Object
100
AcDbLine
 10
9.41
 20
13.30793043956432
 30
0.0
 11
9.374
 21
13.30193043956432
 31
0.0
  0
LINE
  5
42D
330
18
100
AcDbEntity
  8
Object
100
AcDbLine
 10
7.522
 20
13.51193043956432
 30
0.0
 11
9.374
 21
13.51193043956432
 31
0.0
  0
LINE
  5
42E
330
18
100
AcDbEntity
  8
Object
100
AcDbLine
 10
9.374
 20
13.30193043956432
 30
0.0
 11
7.522
 21
13.30193043956432
 31
0.0
  0
LINE
  5
42F
330
18
100
AcDbEntity
  8
Object
100
AcDbLine
 10
6.666
 20
13.42493043956431
 30
0.0
 11
6.666
 21
13.38793043956432
 31
0.0
  0
LINE
  5
430
330
18
100
AcDbEntity
  8
Object
100
AcDbLine
 10
7.419
 20
13.38793043956432
 30
0.0
 11
7.419
 21
13.42493043956431
 31
0.0
  0
LINE
  5
431
330
18
100
AcDbEntity
  8
Object
100
AcDbLine
 10
6.666
 20
13.38793043956432
 30
0.0
 11
6.653
 21
13.35393043956432
 31
0.0
  0
LINE
  5
432
330
18
100
AcDbEntity
  8
Object
100
AcDbLine
 10
7.455
 20
13.48693043956432
 30
0.0
 11
7.431
 21
13.45893043956432
 31
0.0
  0
LINE
  5
433
330
18
100
AcDbEntity
  8
Object
100
AcDbLine
 10
7.431
 20
13.45893043956432
 30
0.0
 11
7.419
 21
13.42493043956431
 31
0.0
  0
LINE
  5
434
330
18
100
AcDbEntity
  8
Object
100
AcDbLine
 10
7.419
 20
13.38793043956432
 30
0.0
 11
7.431
 21
13.35393043956432
 31
0.0
  0
LINE
  5
435
330
18
100
AcDbEntity
  8
Object
100
AcDbLine
 10
7.431
 20
13.35393043956432
 30
0.0
 11
7.455
 21
13.32593043956432
 31
0.0
  0
LINE
  5
436
330
18
100
AcDbEntity
  8
Object
100
AcDbLine
 10
6.666
 20
13.42493043956431
 30
0.0
 11
6.653
 21
13.45893043956432
 31
0.0
  0
LINE
  5
437
330
18
100
AcDbEntity
  8
Object
100
AcDbLine
 10
6.653
 20
13.45893043956432
 30
0.0
 11
6.629999999999999
 21
13.48693043956432
 31
0.0
  0
LINE
  5
438
330
18
100
AcDbEntity
  8
Object
100
AcDbLine
 10
7.485999999999999
 20
13.30793043956432
 30
0.0
 11
7.455
 21
13.32593043956432
 31
0.0
  0
LINE
  5
439
330
18
100
AcDbEntity
  8
Object
100
AcDbLine
 10
6.653
 20
13.35393043956432
 30
0.0
 11
6.629999999999999
 21
13.32593043956432
 31
0.0
  0
LINE
  5
43A
330
18
100
AcDbEntity
  8
Object
100
AcDbLine
 10
6.629999999999999
 20
13.32593043956432
 30
0.0
 11
6.597999999999999
 21
13.30793043956432
 31
0.0
  0
LINE
  5
43B
330
18
100
AcDbEntity
  8
Object
100
AcDbLine
 10
6.597999999999999
 20
13.50493043956431
 30
0.0
 11
6.629999999999999
 21
13.48693043956432
 31
0.0
  0
LINE
  5
43C
330
18
100
AcDbEntity
  8
Object
100
AcDbLine
 10
7.455
 20
13.48693043956432
 30
0.0
 11
7.485999999999999
 21
13.50493043956431
 31
0.0
  0
LINE
  5
43D
330
18
100
AcDbEntity
  8
Object
100
AcDbLine
 10
6.597999999999999
 20
13.30793043956432
 30
0.0
 11
6.562
 21
13.30193043956432
 31
0.0
  0
LINE
  5
43E
330
18
100
AcDbEntity
  8
Object
100
AcDbLine
 10
7.485999999999999
 20
13.50493043956431
 30
0.0
 11
7.522
 21
13.51193043956432
 31
0.0
  0
LINE
  5
43F
330
18
100
AcDbEntity
  8
Object
100
AcDbLine
 10
7.522
 20
13.30193043956432
 30
0.0
 11
7.485999999999999
 21
13.30793043956432
 31
0.0
  0
LINE
  5
440
330
18
100
AcDbEntity
  8
Object
100
AcDbLine
 10
6.597999999999999
 20
13.50493043956431
 30
0.0
 11
6.562
 21
13.51193043956432
 31
0.0
  0
LINE
  5
441
330
18
100
AcDbEntity
  8
Object
100
AcDbLine
 10
6.562
 20
13.51193043956432
 30
0.0
 11
4.709999999999999
 21
13.51193043956432
 31
0.0
  0
LINE
  5
442
330
18
100
AcDbEntity
  8
Object
100
AcDbLine
 10
4.709999999999999
 20
13.51193043956432
 30
0.0
 11
4.674
 21
13.50493043956431
 31
0.0
  0
LINE
  5
443
330
18
100
AcDbEntity
  8
Object
100
AcDbLine
 10
4.674
 20
13.50493043956431
 30
0.0
 11
4.642999999999999
 21
13.48693043956432
 31
0.0
  0
LINE
  5
444
330
18
100
AcDbEntity
  8
Object
100
AcDbLine
 10
4.642999999999999
 20
13.48693043956432
 30
0.0
 11
4.618999999999999
 21
13.45893043956432
 31
0.0
  0
LINE
  5
445
330
18
100
AcDbEntity
  8
Object
100
AcDbLine
 10
4.618999999999999
 20
13.45893043956432
 30
0.0
 11
4.607
 21
13.42493043956431
 31
0.0
  0
LINE
  5
446
330
18
100
AcDbEntity
  8
Object
100
AcDbLine
 10
9.854
 20
14.40693043956432
 30
0.0
 11
3.602
 21
14.40693043956432
 31
0.0
  0
LINE
  5
447
330
18
100
AcDbEntity
  8
Object
100
AcDbLine
 10
4.607
 20
13.42493043956431
 30
0.0
 11
4.607
 21
13.38793043956432
 31
0.0
  0
LINE
  5
448
330
18
100
AcDbEntity
  8
Object
100
AcDbLine
 10
4.607
 20
13.38793043956432
 30
0.0
 11
4.618999999999999
 21
13.35393043956432
 31
0.0
  0
LINE
  5
449
330
18
100
AcDbEntity
  8
Object
100
AcDbLine
 10
4.618999999999999
 20
13.35393043956432
 30
0.0
 11
4.642999999999999
 21
13.32593043956432
 31
0.0
  0
LINE
  5
44A
330
18
100
AcDbEntity
  8
Object
100
AcDbLine
 10
4.642999999999999
 20
13.32593043956432
 30
0.0
 11
4.674
 21
13.30793043956432
 31
0.0
  0
LINE
  5
44B
330
18
100
AcDbEntity
  8
Object
100
AcDbLine
 10
4.674
 20
13.30793043956432
 30
0.0
 11
4.709999999999999
 21
13.30193043956432
 31
0.0
  0
LINE
  5
44C
330
18
100
AcDbEntity
  8
Object
100
AcDbLine
 10
4.709999999999999
 20
13.30193043956432
 30
0.0
 11
6.562
 21
13.30193043956432
 31
0.0
  0
LINE
  5
44D
330
18
100
AcDbEntity
  8
Object
100
AcDbLine
 10
3.602
 20
12.40693043956432
 30
0.0
 11
9.854
 21
12.40693043956432
 31
0.0
  0
LINE
  5
44E
330
18
100
AcDbEntity
  8
Object
100
AcDbLine
 10
9.854
 20
14.40693043956432
 30
0.0
 11
3.602
 21
14.40693043956432
 31
0.0
  0
LINE
  5
44F
330
18
100
AcDbEntity
  8
Object
100
AcDbLine
 10
3.602
 20
14.40693043956432
 30
0.0
 11
3.548999999999999
 21
14.40693043956432
 31
0.0
  0
LINE
  5
450
330
18
100
AcDbEntity
  8
Object
100
AcDbLine
 10
3.548999999999999
 20
14.40693043956432
 30
0.0
 11
3.498000000000001
 21
14.40693043956432
 31
0.0
  0
LINE
  5
451
330
18
100
AcDbEntity
  8
Object
100
AcDbLine
 10
3.498000000000001
 20
14.40693043956432
 30
0.0
 11
3.452999999999999
 21
14.40693043956432
 31
0.0
  0
LINE
  5
452
330
18
100
AcDbEntity
  8
Object
100
AcDbLine
 10
3.452999999999999
 20
14.40693043956432
 30
0.0
 11
3.414999999999999
 21
14.40693043956432
 31
0.0
  0
LINE
  5
453
330
18
100
AcDbEntity
  8
Object
100
AcDbLine
 10
3.414999999999999
 20
14.40693043956432
 30
0.0
 11
3.387
 21
14.40693043956432
 31
0.0
  0
LINE
  5
454
330
18
100
AcDbEntity
  8
Object
100
AcDbLine
 10
3.387
 20
14.40693043956432
 30
0.0
 11
3.368999999999999
 21
14.40693043956432
 31
0.0
  0
LINE
  5
455
330
18
100
AcDbEntity
  8
Object
100
AcDbLine
 10
3.368999999999999
 20
14.40693043956432
 30
0.0
 11
3.362999999999999
 21
14.40693043956432
 31
0.0
  0
LINE
  5
456
330
18
100
AcDbEntity
  8
Object
100
AcDbLine
 10
6.562
 20
13.30193043956432
 30
0.0
 11
4.709999999999999
 21
13.30193043956432
 31
0.0
  0
LINE
  5
457
330
18
100
AcDbEntity
  8
Object
100
AcDbLine
 10
7.522
 20
13.51193043956432
 30
0.0
 11
9.374
 21
13.51193043956432
 31
0.0
  0
LINE
  5
458
330
18
100
AcDbEntity
  8
Object
100
AcDbLine
 10
4.709999999999999
 20
13.30193043956432
 30
0.0
 11
4.674
 21
13.30793043956432
 31
0.0
  0
LINE
  5
459
330
18
100
AcDbEntity
  8
Object
100
AcDbLine
 10
4.709999999999999
 20
13.51193043956432
 30
0.0
 11
4.674
 21
13.50493043956431
 31
0.0
  0
LINE
  5
45A
330
18
100
AcDbEntity
  8
Object
100
AcDbLine
 10
4.674
 20
13.50493043956431
 30
0.0
 11
4.642999999999999
 21
13.48693043956432
 31
0.0
  0
LINE
  5
45B
330
18
100
AcDbEntity
  8
Object
100
AcDbLine
 10
4.674
 20
13.30793043956432
 30
0.0
 11
4.642999999999999
 21
13.32593043956432
 31
0.0
  0
LINE
  5
45C
330
18
100
AcDbEntity
  8
Object
100
AcDbLine
 10
4.642999999999999
 20
13.32593043956432
 30
0.0
 11
4.618999999999999
 21
13.35393043956432
 31
0.0
  0
LINE
  5
45D
330
18
100
AcDbEntity
  8
Object
100
AcDbLine
 10
4.642999999999999
 20
13.48693043956432
 30
0.0
 11
4.618999999999999
 21
13.45893043956432
 31
0.0
  0
LINE
  5
45E
330
18
100
AcDbEntity
  8
Object
100
AcDbLine
 10
4.618999999999999
 20
13.45893043956432
 30
0.0
 11
4.607
 21
13.42493043956431
 31
0.0
  0
LINE
  5
45F
330
18
100
AcDbEntity
  8
Object
100
AcDbLine
 10
4.618999999999999
 20
13.35393043956432
 30
0.0
 11
4.607
 21
13.38793043956432
 31
0.0
  0
LINE
  5
460
330
18
100
AcDbEntity
  8
Object
100
AcDbLine
 10
4.607
 20
13.38793043956432
 30
0.0
 11
4.607
 21
13.42493043956431
 31
0.0
  0
LINE
  5
461
330
18
100
AcDbEntity
  8
Object
100
AcDbLine
 10
4.709999999999999
 20
13.51193043956432
 30
0.0
 11
6.562
 21
13.51193043956432
 31
0.0
  0
LINE
  5
462
330
18
100
AcDbEntity
  8
Object
100
AcDbLine
 10
7.522
 20
13.30193043956432
 30
0.0
 11
7.485999999999999
 21
13.30793043956432
 31
0.0
  0
LINE
  5
463
330
18
100
AcDbEntity
  8
Object
100
AcDbLine
 10
7.522
 20
13.51193043956432
 30
0.0
 11
7.485999999999999
 21
13.50493043956431
 31
0.0
  0
LINE
  5
464
330
18
100
AcDbEntity
  8
Object
100
AcDbLine
 10
7.485999999999999
 20
13.50493043956431
 30
0.0
 11
7.455
 21
13.48693043956432
 31
0.0
  0
LINE
  5
465
330
18
100
AcDbEntity
  8
Object
100
AcDbLine
 10
7.485999999999999
 20
13.30793043956432
 30
0.0
 11
7.455
 21
13.32593043956432
 31
0.0
  0
LINE
  5
466
330
18
100
AcDbEntity
  8
Object
100
AcDbLine
 10
7.455
 20
13.32593043956432
 30
0.0
 11
7.431
 21
13.35393043956432
 31
0.0
  0
LINE
  5
467
330
18
100
AcDbEntity
  8
Object
100
AcDbLine
 10
7.455
 20
13.48693043956432
 30
0.0
 11
7.431
 21
13.45893043956432
 31
0.0
  0
LINE
  5
468
330
18
100
AcDbEntity
  8
Object
100
AcDbLine
 10
7.431
 20
13.45893043956432
 30
0.0
 11
7.419
 21
13.42493043956431
 31
0.0
  0
LINE
  5
469
330
18
100
AcDbEntity
  8
Object
100
AcDbLine
 10
7.431
 20
13.35393043956432
 30
0.0
 11
7.419
 21
13.38793043956432
 31
0.0
  0
LINE
  5
46A
330
18
100
AcDbEntity
  8
Object
100
AcDbLine
 10
7.419
 20
13.38793043956432
 30
0.0
 11
7.419
 21
13.42493043956431
 31
0.0
  0
LINE
  5
46B
330
18
100
AcDbEntity
  8
Object
100
AcDbLine
 10
9.854
 20
12.40693043956432
 30
0.0
 11
3.602
 21
12.40693043956432
 31
0.0
  0
LINE
  5
46C
330
18
100
AcDbEntity
  8
Object
100
AcDbLine
 10
3.602
 20
12.40693043956432
 30
0.0
 11
3.548999999999999
 21
12.40693043956432
 31
0.0
  0
LINE
  5
46D
330
18
100
AcDbEntity
  8
Object
100
AcDbLine
 10
3.548999999999999
 20
12.40693043956432
 30
0.0
 11
3.498000000000001
 21
12.40693043956432
 31
0.0
  0
LINE
  5
46E
330
18
100
AcDbEntity
  8
Object
100
AcDbLine
 10
3.498000000000001
 20
12.40693043956432
 30
0.0
 11
3.452999999999999
 21
12.40693043956432
 31
0.0
  0
LINE
  5
46F
330
18
100
AcDbEntity
  8
Object
100
AcDbLine
 10
3.452999999999999
 20
12.40693043956432
 30
0.0
 11
3.414999999999999
 21
12.40693043956432
 31
0.0
  0
LINE
  5
470
330
18
100
AcDbEntity
  8
Object
100
AcDbLine
 10
3.414999999999999
 20
12.40693043956432
 30
0.0
 11
3.387
 21
12.40693043956432
 31
0.0
  0
LINE
  5
471
330
18
100
AcDbEntity
  8
Object
100
AcDbLine
 10
3.387
 20
12.40693043956432
 30
0.0
 11
3.368999999999999
 21
12.40693043956432
 31
0.0
  0
LINE
  5
472
330
18
100
AcDbEntity
  8
Object
100
AcDbLine
 10
3.368999999999999
 20
12.40693043956432
 30
0.0
 11
3.362999999999999
 21
12.40693043956432
 31
0.0
  0
LINE
  5
473
330
18
100
AcDbEntity
  8
Object
100
AcDbLine
 10
6.666
 20
13.42493043956431
 30
0.0
 11
6.666
 21
13.38793043956432
 31
0.0
  0
LINE
  5
474
330
18
100
AcDbEntity
  8
Object
100
AcDbLine
 10
6.666
 20
13.38793043956432
 30
0.0
 11
6.653
 21
13.35393043956432
 31
0.0
  0
LINE
  5
475
330
18
100
AcDbEntity
  8
Object
100
AcDbLine
 10
6.666
 20
13.42493043956431
 30
0.0
 11
6.653
 21
13.45893043956432
 31
0.0
  0
LINE
  5
476
330
18
100
AcDbEntity
  8
Object
100
AcDbLine
 10
6.653
 20
13.45893043956432
 30
0.0
 11
6.629999999999999
 21
13.48693043956432
 31
0.0
  0
LINE
  5
477
330
18
100
AcDbEntity
  8
Object
100
AcDbLine
 10
6.653
 20
13.35393043956432
 30
0.0
 11
6.629999999999999
 21
13.32593043956432
 31
0.0
  0
LINE
  5
478
330
18
100
AcDbEntity
  8
Object
100
AcDbLine
 10
6.629999999999999
 20
13.32593043956432
 30
0.0
 11
6.597999999999999
 21
13.30793043956432
 31
0.0
  0
LINE
  5
479
330
18
100
AcDbEntity
  8
Object
100
AcDbLine
 10
6.629999999999999
 20
13.48693043956432
 30
0.0
 11
6.597999999999999
 21
13.50493043956431
 31
0.0
  0
LINE
  5
47A
330
18
100
AcDbEntity
  8
Object
100
AcDbLine
 10
6.597999999999999
 20
13.50493043956431
 30
0.0
 11
6.562
 21
13.51193043956432
 31
0.0
  0
LINE
  5
47B
330
18
100
AcDbEntity
  8
Object
100
AcDbLine
 10
6.597999999999999
 20
13.30793043956432
 30
0.0
 11
6.562
 21
13.30193043956432
 31
0.0
  0
LINE
  5
47C
330
18
100
AcDbEntity
  8
Object
100
AcDbLine
 10
9.477999999999999
 20
13.42493043956431
 30
0.0
 11
9.477999999999999
 21
13.38793043956432
 31
0.0
  0
LINE
  5
47D
330
18
100
AcDbEntity
  8
Object
100
AcDbLine
 10
9.477999999999999
 20
13.38793043956432
 30
0.0
 11
9.464999999999999
 21
13.35393043956432
 31
0.0
  0
LINE
  5
47E
330
18
100
AcDbEntity
  8
Object
100
AcDbLine
 10
9.477999999999999
 20
13.42493043956431
 30
0.0
 11
9.464999999999999
 21
13.45893043956432
 31
0.0
  0
LINE
  5
47F
330
18
100
AcDbEntity
  8
Object
100
AcDbLine
 10
9.464999999999999
 20
13.45893043956432
 30
0.0
 11
9.442
 21
13.48693043956432
 31
0.0
  0
LINE
  5
480
330
18
100
AcDbEntity
  8
Object
100
AcDbLine
 10
9.464999999999999
 20
13.35393043956432
 30
0.0
 11
9.442
 21
13.32593043956432
 31
0.0
  0
LINE
  5
481
330
18
100
AcDbEntity
  8
Object
100
AcDbLine
 10
9.442
 20
13.32593043956432
 30
0.0
 11
9.41
 21
13.30793043956432
 31
0.0
  0
LINE
  5
482
330
18
100
AcDbEntity
  8
Object
100
AcDbLine
 10
9.442
 20
13.48693043956432
 30
0.0
 11
9.41
 21
13.50493043956431
 31
0.0
  0
LINE
  5
483
330
18
100
AcDbEntity
  8
Object
100
AcDbLine
 10
9.41
 20
13.50493043956431
 30
0.0
 11
9.374
 21
13.51193043956432
 31
0.0
  0
LINE
  5
484
330
18
100
AcDbEntity
  8
Object
100
AcDbLine
 10
9.41
 20
13.30793043956432
 30
0.0
 11
9.374
 21
13.30193043956432
 31
0.0
  0
LINE
  5
485
330
18
100
AcDbEntity
  8
Object
100
AcDbLine
 10
9.374
 20
13.30193043956432
 30
0.0
 11
7.522
 21
13.30193043956432
 31
0.0
  0
LINE
  5
486
330
18
100
AcDbEntity
  8
Object
100
AcDbLine
 10
3.548999999999999
 20
14.40693043956432
 30
0.0
 11
3.602
 21
14.40693043956432
 31
0.0
  0
LINE
  5
487
330
18
100
AcDbEntity
  8
Object
100
AcDbLine
 10
3.602
 20
14.40693043956432
 30
0.0
 11
3.602
 21
12.40693043956432
 31
0.0
  0
LINE
  5
488
330
18
100
AcDbEntity
  8
Object
100
AcDbLine
 10
3.602
 20
12.40693043956432
 30
0.0
 11
3.548999999999999
 21
12.40693043956432
 31
0.0
  0
LINE
  5
489
330
18
100
AcDbEntity
  8
Object
100
AcDbLine
 10
3.548999999999999
 20
14.40693043956432
 30
0.0
 11
3.498000000000001
 21
14.40693043956432
 31
0.0
  0
LINE
  5
48A
330
18
100
AcDbEntity
  8
Object
100
AcDbLine
 10
3.548999999999999
 20
12.40693043956432
 30
0.0
 11
3.498000000000001
 21
12.40693043956432
 31
0.0
  0
LINE
  5
48B
330
18
100
AcDbEntity
  8
Object
100
AcDbLine
 10
3.498000000000001
 20
12.40693043956432
 30
0.0
 11
3.452999999999999
 21
12.40693043956432
 31
0.0
  0
LINE
  5
48C
330
18
100
AcDbEntity
  8
Object
100
AcDbLine
 10
3.498000000000001
 20
14.40693043956432
 30
0.0
 11
3.452999999999999
 21
14.40693043956432
 31
0.0
  0
LINE
  5
48D
330
18
100
AcDbEntity
  8
Object
100
AcDbLine
 10
3.452999999999999
 20
14.40693043956432
 30
0.0
 11
3.414999999999999
 21
14.40693043956432
 31
0.0
  0
LINE
  5
48E
330
18
100
AcDbEntity
  8
Object
100
AcDbLine
 10
3.452999999999999
 20
12.40693043956432
 30
0.0
 11
3.414999999999999
 21
12.40693043956432
 31
0.0
  0
LINE
  5
48F
330
18
100
AcDbEntity
  8
Object
100
AcDbLine
 10
3.414999999999999
 20
12.40693043956432
 30
0.0
 11
3.387
 21
12.40693043956432
 31
0.0
  0
LINE
  5
490
330
18
100
AcDbEntity
  8
Object
100
AcDbLine
 10
3.414999999999999
 20
14.40693043956432
 30
0.0
 11
3.387
 21
14.40693043956432
 31
0.0
  0
LINE
  5
491
330
18
100
AcDbEntity
  8
Object
100
AcDbLine
 10
3.368999999999999
 20
12.40693043956432
 30
0.0
 11
3.387
 21
12.40693043956432
 31
0.0
  0
LINE
  5
492
330
18
100
AcDbEntity
  8
Object
100
AcDbLine
 10
3.387
 20
14.40693043956432
 30
0.0
 11
3.368999999999999
 21
14.40693043956432
 31
0.0
  0
LINE
  5
493
330
18
100
AcDbEntity
  8
Object
100
AcDbLine
 10
3.368999999999999
 20
12.40693043956432
 30
0.0
 11
3.362999999999999
 21
12.40693043956432
 31
0.0
  0
LINE
  5
494
330
18
100
AcDbEntity
  8
Object
100
AcDbLine
 10
3.362999999999999
 20
12.40693043956432
 30
0.0
 11
3.362999999999999
 21
14.40693043956432
 31
0.0
  0
LINE
  5
495
330
18
100
AcDbEntity
  8
Object
100
AcDbLine
 10
3.362999999999999
 20
14.40693043956432
 30
0.0
 11
3.368999999999999
 21
14.40693043956432
 31
0.0
  0
LINE
  5
496
330
18
100
AcDbEntity
  8
Object
100
AcDbLine
 10
3.362999999999999
 20
14.40693043956432
 30
0.0
 11
3.362999999999999
 21
12.40693043956432
 31
0.0
  0
DIMENSION
  5
497
330
18
100
AcDbEntity
  8
Dimension
100
AcDbDimension
  2
*D0
 10
11.20687844515167
 20
12.40693043956432
 30
0.0
 11
11.20687844515167
 21
13.40693043956432
 31
0.0
 70
    32
 71
     5
 42
2.0
  3
STANDARD
100
AcDbAlignedDimension
 13
9.854
 23
14.40693043956432
 33
0.0
 14
9.854
 24
12.40693043956432
 34
0.0
 50
90.0
100
AcDbRotatedDimension
  0
DIMENSION
  5
4A5
330
18
100
AcDbEntity
  8
Dimension
100
AcDbDimension
  2
*D1
 10
10.104
 20
9.447892650843265
 30
0.0
 11
6.7335
 21
9.447892650843265
 31
0.0
 70
    32
 71
     5
 42
6.741000000000001
  3
STANDARD
100
AcDbAlignedDimension
 13
3.362999999999999
 23
8.413930439564317
 33
0.0
 14
10.104
 24
8.652930439564318
 34
0.0
100
AcDbRotatedDimension
  0
DIMENSION
  5
4B3
330
18
100
AcDbEntity
  8
Dimension
100
AcDbDimension
  2
*D2
 10
15.55044428783699
 20
4.161930439564317
 30
0.0
 11
15.55044428783699
 21
6.40743043956432
 31
0.0
 70
    32
 71
     5
 42
4.491000000000001
  3
STANDARD
100
AcDbAlignedDimension
 13
16.483
 23
8.652930439564318
 33
0.0
 14
16.733
 24
4.161930439564317
 34
0.0
 50
90.0
100
AcDbRotatedDimension
  0
MTEXT
  5
4C1
330
18
100
AcDbEntity
  8
Text
100
AcDbMText
 10
11.37324893148254
 20
0.8775685908585026
 30
0.0
 40
0.09
 41
0.25
 71
     5
 72
     5
  1
1
 73
     1
 44
1.0
1001
ACAD
1000
MTEXTBEGIN
1070
    73
1070
     1
1070
    44
1040
1.0
1070
    74
1070
     0
1000
MTEXTEND
  0
MTEXT
  5
4C2
330
18
100
AcDbEntity
  8
Text
100
AcDbMText
 10
11.74824893148254
 20
0.8775685908585026
 30
0.0
 40
0.07
 41
0.5
 71
     5
 72
     5
  1
6-26-07
 73
     1
 44
1.0
1001
ACAD
1000
MTEXTBEGIN
1070
    73
1070
     1
1070
    44
1040
1.0
1070
    74
1070
     0
1000
MTEXTEND
  0
MTEXT
  5
4C3
330
18
100
AcDbEntity
  8
Text
100
AcDbMText
 10
12.18574893148254
 20
0.8775685908585026
 30
0.0
 40
0.09
 41
0.375
 71
     5
 72
     5
  1
DTP
 73
     1
 44
1.0
1001
ACAD
1000
MTEXTBEGIN
1070
    73
1070
     1
1070
    44
1040
1.0
1070
    74
1070
     0
1000
MTEXTEND
  0
MTEXT
  5
4C4
330
18
100
AcDbEntity
  8
Text
100
AcDbMText
 10
12.77324893148254
 20
0.8775685908585021
 30
0.0
 40
0.07
 41
2.75
 71
     4
 72
     5
  1
B. REVISED PART NUMBER.\PA. REVISED DRAWING TITLE.
 73
     1
 44
1.0
1001
ACAD
1000
MTEXTBEGIN
1070
    73
1070
     1
1070
    44
1040
1.0
1070
    74
1070
     0
1000
MTEXTEND
  0
MTEXT
  5
4C5
330
18
100
AcDbEntity
  8
Text
100
AcDbMText
 10
12.5604002814227
 20
0.8762490740326649
 30
0.0
 40
0.07
 41
0.375
 71
     5
 72
     5
  1
DJWA
 73
     1
 44
1.0
1001
ACAD
1000
MTEXTBEGIN
1070
    73
1070
     1
1070
    44
1040
1.0
1070
    74
1070
     0
1000
MTEXTEND
  0
MTEXT
  5
4C6
330
18
100
AcDbEntity
  8
Text
100
AcDbMText
 10
11.37324893148254
 20
1.127568590858502
 30
0.0
 40
0.09
 41
0.25
 71
     5
 72
     5
  1
-
 73
     1
 44
1.0
1001
ACAD
1000
MTEXTBEGIN
1070
    73
1070
     1
1070
    44
1040
1.0
1070
    74
1070
     0
1000
MTEXTEND
  0
MTEXT
  5
4C7
330
18
100
AcDbEntity
  8
Text
100
AcDbMText
 10
11.74824893148254
 20
1.127568590858502
 30
0.0
 40
0.07
 41
0.5
 71
     5
 72
     5
  1
--------
 73
     1
 44
1.0
1001
ACAD
1000
MTEXTBEGIN
1070
    73
1070
     1
1070
    44
1040
1.0
1070
    74
1070
     0
1000
MTEXTEND
  0
MTEXT
  5
4C8
330
18
100
AcDbEntity
  8
Text
100
AcDbMText
 10
12.18574893148254
 20
1.127568590858502
 30
0.0
 40
0.09
 41
0.375
 71
     5
 72
     5
  1
---
 73
     1
 44
1.0
1001
ACAD
1000
MTEXTBEGIN
1070
    73
1070
     1
1070
    44
1040
1.0
1070
    74
1070
     0
1000
MTEXTEND
  0
MTEXT
  5
4C9
330
18
100
AcDbEntity
  8
Text
100
AcDbMText
 10
12.77324893148254
 20
1.127568590858502
 30
0.0
 40
0.07
 41
2.75
 71
     4
 72
     5
  1
D. ADDED GENERAL NOTES.\PC. REVISED PART GEOMETRY.
 73
     1
 44
1.0
1001
ACAD
1000
MTEXTBEGIN
1070
    73
1070
     1
1070
    44
1040
1.0
1070
    74
1070
     0
1000
MTEXTEND
  0
MTEXT
  5
4CA
330
18
100
AcDbEntity
  8
Text
100
AcDbMText
 10
12.5604002814227
 20
1.126249074032664
 30
0.0
 40
0.07
 41
0.375
 71
     5
 72
     5
  1
----
 73
     1
 44
1.0
1001
ACAD
1000
MTEXTBEGIN
1070
    73
1070
     1
1070
    44
1040
1.0
1070
    74
1070
     0
1000
MTEXTEND
  0
LINE
  5
4CB
330
18
100
AcDbEntity
  8
Text
100
AcDbLine
 10
17.76453427685879
 20
1.513536291363891
 30
0.0
 11
17.91453427685879
 21
1.773343912499224
 31
0.0
  0
LINE
  5
4CD
330
18
100
AcDbEntity
  8
Text
100
AcDbLine
 10
17.91453427685879
 20
1.773343912499224
 30
0.0
 11
18.0645342768588
 21
1.513536291363893
 31
0.0
  0
LINE
  5
4CE
330
18
100
AcDbEntity
  8
Text
100
AcDbLine
 10
18.0645342768588
 20
1.513536291363893
 30
0.0
 11
17.76453427685879
 21
1.513536291363891
 31
0.0
  0
TEXT
  5
4CF
330
18
100
AcDbEntity
  8
Text
100
AcDbText
 10
17.8753980680109
 20
1.571404789521676
 30
0.0
 40
0.09
  1
A
100
AcDbText
  0
LINE
  5
4D0
330
18
100
AcDbEntity
  8
Text
100
AcDbLine
 10
21.4212976721404
 20
1.519233064551779
 30
0.0
 11
21.5712976721404
 21
1.779040685687112
 31
0.0
  0
LINE
  5
4D1
330
18
100
AcDbEntity
  8
Text
100
AcDbLine
 10
21.5712976721404
 20
1.779040685687112
 30
0.0
 11
21.7212976721404
 21
1.519233064551781
 31
0.0
  0
LINE
  5
4D2
330
18
100
AcDbEntity
  8
Text
100
AcDbLine
 10
21.7212976721404
 20
1.519233064551781
 30
0.0
 11
21.4212976721404
 21
1.519233064551779
 31
0.0
  0
TEXT
  5
4D3
330
18
100
AcDbEntity
  8
Text
100
AcDbText
 10
21.53501105879011
 20
1.574253135876218
 30
0.0
 40
0.09
  1
B
100
AcDbText
  0
LINE
  5
4D4
330
18
100
AcDbEntity
  8
Text
100
AcDbLine
 10
16.4061780642422
 20
3.607668597836777
 30
0.0
 11
16.5561780642422
 21
3.86747621897211
 31
0.0
  0
LINE
  5
4D5
330
18
100
AcDbEntity
  8
Text
100
AcDbLine
 10
16.5561780642422
 20
3.86747621897211
 30
0.0
 11
16.7061780642422
 21
3.607668597836779
 31
0.0
  0
LINE
  5
4D6
330
18
100
AcDbEntity
  8
Text
100
AcDbLine
 10
16.7061780642422
 20
3.607668597836779
 30
0.0
 11
16.4061780642422
 21
3.607668597836777
 31
0.0
  0
TEXT
  5
4D7
330
18
100
AcDbEntity
  8
Text
100
AcDbText
 10
16.5113427935095
 20
3.668385482588509
 30
0.0
 40
0.09
  1
C
100
AcDbText
  0
LINE
  5
4D8
330
18
100
AcDbEntity
  8
Text
100
AcDbLine
 10
5.987040837116943
 20
3.658014504175525
 30
0.0
 11
6.137040837116941
 21
3.917822125310858
 31
0.0
  0
LINE
  5
4D9
330
18
100
AcDbEntity
  8
Text
100
AcDbLine
 10
6.137040837116941
 20
3.917822125310858
 30
0.0
 11
6.287040837116943
 21
3.658014504175527
 31
0.0
  0
LINE
  5
4DA
330
18
100
AcDbEntity
  8
Text
100
AcDbLine
 10
6.287040837116943
 20
3.658014504175527
 30
0.0
 11
5.987040837116943
 21
3.658014504175525
 31
0.0
  0
TEXT
  5
4DB
330
18
100
AcDbEntity
  8
Text
100
AcDbText
 10
6.092205566384247
 20
3.718731388927257
 30
0.0
 40
0.09
  1
C
100
AcDbText
  0
LINE
  5
4DC
330
18
100
AcDbEntity
  8
Text
100
AcDbLine
 10
6.085863083114105
 20
11.92742817896517
 30
0.0
 11
6.235863083114104
 21
12.1872358001005
 31
0.0
  0
LINE
  5
4DD
330
18
100
AcDbEntity
  8
Text
100
AcDbLine
 10
6.235863083114104
 20
12.1872358001005
 30
0.0
 11
6.385863083114106
 21
11.92742817896517
 31
0.0
  0
LINE
  5
4DE
330
18
100
AcDbEntity
  8
Text
100
AcDbLine
 10
6.385863083114106
 20
11.92742817896517
 30
0.0
 11
6.085863083114105
 21
11.92742817896517
 31
0.0
  0
TEXT
  5
4DF
330
18
100
AcDbEntity
  8
Text
100
AcDbText
 10
6.193195834111083
 20
11.98381071633775
 30
0.0
 40
0.09
  1
C
100
AcDbText
  0
LINE
  5
4E0
330
18
100
AcDbEntity
  8
Text
100
AcDbLine
 10
15.69529417102642
 20
16.22125705157764
 30
0.0
 11
15.84529417102642
 21
16.48106467271298
 31
0.0
  0
LINE
  5
4E1
330
18
100
AcDbEntity
  8
Text
100
AcDbLine
 10
15.84529417102642
 20
16.48106467271298
 30
0.0
 11
15.99529417102642
 21
16.22125705157764
 31
0.0
  0
LINE
  5
4E2
330
18
100
AcDbEntity
  8
Text
100
AcDbLine
 10
15.99529417102642
 20
16.22125705157764
 30
0.0
 11
15.69529417102642
 21
16.22125705157764
 31
0.0
  0
TEXT
  5
4E3
330
18
100
AcDbEntity
  8
Text
100
AcDbText
 10
15.8070812951585
 20
16.27535419188579
 30
0.0
 40
0.09
  1
D
100
AcDbText
  0
ENDSEC
  0
SECTION
  2
OBJECTS
  0
DICTIONARY
  5
C
330
0
100
AcDbDictionary
281
     1
  3
ACAD_COLOR
350
10D
  3
ACAD_GROUP
350
D
  3
ACAD_LAYOUT
350
110
  3
ACAD_MATERIAL
350
10C
  3
ACAD_MLINESTYLE
350
1B
  3
ACAD_PLOTSETTINGS
350
111
  3
ACAD_PLOTSTYLENAME
350
10A
  3
ACAD_TABLESTYLE
350
10E
  3
ACDBHEADERROUNDTRIPXREC
350
50A
  3
AcDbVariableDictionary
350
13E
  3
ASE_INDEX_DICTIONARY
350
148
  0
DICTIONARY
  5
154
330
2
100
AcDbDictionary
280
     1
281
     1
  3
ACAD_LAYERFILTERS
360
158
  3
ACLYDICTIONARY
360
157
  0
DICTIONARY
  5
10D
102
{ACAD_REACTORS
330
C
102
}
330
C
100
AcDbDictionary
281
     1
  0
DICTIONARY
  5
D
102
{ACAD_REACTORS
330
C
102
}
330
C
100
AcDbDictionary
281
     1
  0
DICTIONARY
  5
110
102
{ACAD_REACTORS
330
C
102
}
330
C
100
AcDbDictionary
281
     1
  3
Layout1
350
113
  3
Model
350
112
  0
DICTIONARY
  5
10C
102
{ACAD_REACTORS
330
C
102
}
330
C
100
AcDbDictionary
281
     1
  0
DICTIONARY
  5
1B
102
{ACAD_REACTORS
330
C
102
}
330
C
100
AcDbDictionary
281
     1
  3
STANDARD
350
1C
  0
DICTIONARY
  5
111
102
{ACAD_REACTORS
330
C
102
}
330
C
100
AcDbDictionary
281
     1
  0
ACDBDICTIONARYWDFLT
  5
10A
102
{ACAD_REACTORS
330
C
102
}
330
C
100
AcDbDictionary
281
     1
  3
Normal
350
10B
100
AcDbDictionaryWithDefault
340
10B
  0
DICTIONARY
  5
10E
102
{ACAD_REACTORS
330
C
102
}
330
C
100
AcDbDictionary
281
     1
  3
Standard
350
10F
  0
DICTIONARY
  5
50A
102
{ACAD_REACTORS
330
C
102
}
330
C
100
AcDbDictionary
281
     1
  0
DICTIONARY
  5
13E
102
{ACAD_REACTORS
330
C
102
}
330
C
100
AcDbDictionary
281
     1
  3
CTABLESTYLE
350
13F
  3
DIMASSOC
350
507
  3
PROJECTNAME
350
508
  0
DICTIONARY
  5
148
102
{ACAD_REACTORS
330
C
102
}
330
C
100
AcDbDictionary
281
     1
  3
ASEBlockHierarchyIndexRecord
350
14A
1001
DCO15
1040
1529148047.148
  0
DICTIONARY
  5
158
102
{ACAD_REACTORS
330
154
102
}
330
154
100
AcDbDictionary
281
     1
  0
DICTIONARY
  5
157
102
{ACAD_REACTORS
330
154
102
}
330
154
100
AcDbDictionary
281
     1
1001
ACAD
1000
<All
  0
LAYOUT
  5
113
102
{ACAD_XDICTIONARY
360
50D
102
}
102
{ACAD_REACTORS
330
110
102
}
330
110
100
AcDbPlotSettings
  1

  2
\\RSENG\RSplotter4NT
  4

  6

 40
0.0
 41
0.0
 42
0.0
 43
0.0
 44
0.0
 45
0.0
 46
0.0
 47
0.0
 48
0.0
 49
0.0
140
0.0
141
0.0
142
1.0
143
1.0
 70
   688
 72
     0
 73
     0
 74
     5
  7
Symantec Fax Starter Edition
 75
    16
147
1.0
148
0.0
149
0.0
100
AcDbLayout
  1
Layout1
 70
     1
 71
     1
 10
0.0
 20
0.0
 11
12.0
 21
9.0
 12
0.0
 22
0.0
 32
0.0
 14
1.000000000000000E+20
 24
1.000000000000000E+20
 34
1.000000000000000E+20
 15
-1.000000000000000E+20
 25
-1.000000000000000E+20
 35
-1.000000000000000E+20
146
0.0
 13
0.0
 23
0.0
 33
0.0
 16
1.0
 26
0.0
 36
0.0
 17
0.0
 27
1.0
 37
0.0
 76
     0
330
15
  0
LAYOUT
  5
112
102
{ACAD_XDICTIONARY
360
50B
102
}
102
{ACAD_REACTORS
330
110
102
}
330
110
100
AcDbPlotSettings
  1

  2
\\RSENG\RSplotter4NT
  4

  6

 40
0.0
 41
0.0
 42
0.0
 43
0.0
 44
0.0
 45
0.0
 46
0.0
 47
0.0
 48
0.0
 49
0.0
140
0.0
141
0.0
142
1.0
143
1.0
 70
  1712
 72
     0
 73
     0
 74
     0
  7
Symantec Fax Starter Edition
 75
     0
147
1.0
148
0.0
149
0.0
100
AcDbLayout
  1
Model
 70
     1
 71
     0
 10
0.0
 20
0.0
 11
12.0
 21
9.0
 12
0.0
 22
0.0
 32
0.0
 14
0.0
 24
0.0
 34
0.0
 15
0.0
 25
0.0
 35
0.0
146
0.0
 13
0.0
 23
0.0
 33
0.0
 16
1.0
 26
0.0
 36
0.0
 17
0.0
 27
1.0
 37
0.0
 76
     0
330
18
  0
MLINESTYLE
  5
1C
102
{ACAD_REACTORS
330
1B
102
}
330
1B
100
AcDbMlineStyle
  2
STANDARD
 70
     0
  3

 62
   256
 51
90.0
 52
90.0
 71
     2
 49
0.5
 62
   256
  6
BYLAYER
 49
-0.5
 62
   256
  6
BYLAYER
  0
ACDBPLACEHOLDER
  5
10B
102
{ACAD_REACTORS
330
10A
102
}
330
10A
  0
TABLESTYLE
  5
10F
102
{ACAD_REACTORS
330
10E
102
}
330
10E
100
AcDbTableStyle
  3
Standard
 70
     0
 71
     0
 40
0.06
 41
0.06
280
     0
281
     0
  7
STANDARD
140
0.18
170
     2
 62
     0
 63
     7
283
     0
274
    -2
284
     1
 64
     0
275
    -2
285
     1
 65
     0
276
    -2
286
     1
 66
     0
277
    -2
287
     1
 67
     0
278
    -2
288
     1
 68
     0
279
    -2
289
     1
 69
     0
  7
STANDARD
140
0.25
170
     5
 62
     0
 63
     7
283
     0
274
    -2
284
     1
 64
     0
275
    -2
285
     1
 65
     0
276
    -2
286
     1
 66
     0
277
    -2
287
     1
 67
     0
278
    -2
288
     1
 68
     0
279
    -2
289
     1
 69
     0
  7
STANDARD
140
0.18
170
     5
 62
     0
 63
     7
283
     0
274
    -2
284
     1
 64
     0
275
    -2
285
     1
 65
     0
276
    -2
286
     1
 66
     0
277
    -2
287
     1
 67
     0
278
    -2
288
     1
 68
     0
279
    -2
289
     1
 69
     0
  0
DICTIONARYVAR
  5
13F
102
{ACAD_REACTORS
330
13E
102
}
330
13E
100
DictionaryVariables
280
     0
  1
STANDARD
  0
DICTIONARYVAR
  5
507
102
{ACAD_REACTORS
330
13E
102
}
330
13E
100
DictionaryVariables
280
     0
  1
1
  0
DICTIONARYVAR
  5
508
102
{ACAD_REACTORS
330
13E
102
}
330
13E
100
DictionaryVariables
280
     0
  1

  0
XRECORD
  5
14A
102
{ACAD_REACTORS
330
148
102
}
330
148
100
AcDbXrecord
280
     1
  0
DICTIONARY
  5
50D
330
113
100
AcDbDictionary
280
     1
281
     1
  3
ACAD_XREC_ROUNDTRIP
360
50E
  0
DICTIONARY
  5
50B
330
112
100
AcDbDictionary
280
     1
281
     1
  3
ACAD_XREC_ROUNDTRIP
360
50C
  0
XRECORD
  5
50E
102
{ACAD_REACTORS
330
50D
102
}
330
50D
100
AcDbXrecord
280
     1
102
SHADEPLOT
 70
     0
102
SHADEPLOTRESLEVEL
 70
     2
102
SHADEPLOTCUSTOMDPI
 70
   300
  0
XRECORD
  5
50C
102
{ACAD_REACTORS
330
50B
102
}
330
50B
100
AcDbXrecord
280
     1
102
SHADEPLOT
 70
     0
102
SHADEPLOTRESLEVEL
 70
     2
102
SHADEPLOTCUSTOMDPI
 70
   300
  0
ENDSEC
  0
EOF
