  0
SECTION
  2
HEADER
  9
$ACADVER
  1
AC1015
  9
$ACADMAINTVER
 70
    20
  9
$DWGCODEPAGE
  3
ANSI_1252
  9
$INSBASE
 10
0.0
 20
0.0
 30
0.0
  9
$EXTMIN
 10
-0.075
 20
-0.075
 30
0.0
  9
$EXTMAX
 10
22.075
 20
17.075
 30
0.0
  9
$LIMMIN
 10
0.0
 20
0.0
  9
$LIMMAX
 10
12.0
 20
9.0
  9
$ORTHOMODE
 70
     0
  9
$REGENMODE
 70
     1
  9
$FILLMODE
 70
     1
  9
$QTEXTMODE
 70
     0
  9
$MIRRTEXT
 70
     1
  9
$LTSCALE
 40
1.0
  9
$ATTMODE
 70
     1
  9
$TEXTSIZE
 40
0.125
  9
$TRACEWID
 40
0.05
  9
$TEXTSTYLE
  7
STANDARD
  9
$CLAYER
  8
0
  9
$CELTYPE
  6
BYLAYER
  9
$CECOLOR
 62
   256
  9
$CELTSCALE
 40
1.0
  9
$DISPSILH
 70
     0
  9
$DIMSCALE
 40
1.0
  9
$DIMASZ
 40
0.125
  9
$DIMEXO
 40
0.0625
  9
$DIMDLI
 40
0.38
  9
$DIMRND
 40
0.0
  9
$DIMDLE
 40
0.0
  9
$DIMEXE
 40
0.125
  9
$DIMTP
 40
0.0
  9
$DIMTM
 40
0.0
  9
$DIMTXT
 40
0.09
  9
$DIMCEN
 40
0.09
  9
$DIMTSZ
 40
0.0
  9
$DIMTOL
 70
     0
  9
$DIMLIM
 70
     0
  9
$DIMTIH
 70
     1
  9
$DIMTOH
 70
     1
  9
$DIMSE1
 70
     0
  9
$DIMSE2
 70
     0
  9
$DIMTAD
 70
     0
  9
$DIMZIN
 70
     0
  9
$DIMBLK
  1

  9
$DIMASO
 70
     1
  9
$DIMSHO
 70
     1
  9
$DIMPOST
  1

  9
$DIMAPOST
  1
mm
  9
$DIMALT
 70
     1
  9
$DIMALTD
 70
     1
  9
$DIMALTF
 40
25.4
  9
$DIMLFAC
 40
1.0
  9
$DIMTOFL
 70
     0
  9
$DIMTVP
 40
0.0
  9
$DIMTIX
 70
     0
  9
$DIMSOXD
 70
     0
  9
$DIMSAH
 70
     0
  9
$DIMBLK1
  1

  9
$DIMBLK2
  1

  9
$DIMSTYLE
  2
STANDARD
  9
$DIMCLRD
 70
     0
  9
$DIMCLRE
 70
     0
  9
$DIMCLRT
 70
     0
  9
$DIMTFAC
 40
1.0
  9
$DIMGAP
 40
0.09
  9
$DIMJUST
 70
     0
  9
$DIMSD1
 70
     0
  9
$DIMSD2
 70
     0
  9
$DIMTOLJ
 70
     1
  9
$DIMTZIN
 70
     0
  9
$DIMALTZ
 70
     0
  9
$DIMALTTZ
 70
     0
  9
$DIMUPT
 70
     0
  9
$DIMDEC
 70
     2
  9
$DIMTDEC
 70
     2
  9
$DIMALTU
 70
     2
  9
$DIMALTTD
 70
     1
  9
$DIMTXSTY
  7
STANDARD
  9
$DIMAUNIT
 70
     0
  9
$DIMADEC
 70
     0
  9
$DIMALTRND
 40
0.0
  9
$DIMAZIN
 70
     0
  9
$DIMDSEP
 70
    46
  9
$DIMATFIT
 70
     3
  9
$DIMFRAC
 70
     0
  9
$DIMLDRBLK
  1

  9
$DIMLUNIT
 70
     2
  9
$DIMLWD
 70
    -2
  9
$DIMLWE
 70
    -2
  9
$DIMTMOVE
 70
     0
  9
$LUNITS
 70
     2
  9
$LUPREC
 70
     2
  9
$SKETCHINC
 40
0.1
  9
$FILLETRAD
 40
0.5
  9
$AUNITS
 70
     0
  9
$AUPREC
 70
     0
  9
$MENU
  1
.
  9
$ELEVATION
 40
0.0
  9
$PELEVATION
 40
0.0
  9
$THICKNESS
 40
0.0
  9
$LIMCHECK
 70
     0
  9
$CHAMFERA
 40
0.5
  9
$CHAMFERB
 40
0.5
  9
$CHAMFERC
 40
1.0
  9
$CHAMFERD
 40
0.0
  9
$SKPOLY
 70
     0
  9
$TDCREATE
 40
2451681.555436007
  9
$TDUCREATE
 40
2451681.763769340
  9
$TDUPDATE
 40
2454294.585823785
  9
$TDUUPDATE
 40
2454294.794157118
  9
$TDINDWG
 40
0.2097294792
  9
$TDUSRTIMER
 40
0.2097294792
  9
$USRTIMER
 70
     1
  9
$ANGBASE
 50
0.0
  9
$ANGDIR
 70
     0
  9
$PDMODE
 70
     2
  9
$PDSIZE
 40
0.075
  9
$PLINEWID
 40
0.0
  9
$SPLFRAME
 70
     0
  9
$SPLINETYPE
 70
     6
  9
$SPLINESEGS
 70
     8
  9
$HANDSEED
  5
87B
  9
$SURFTAB1
 70
     6
  9
$SURFTAB2
 70
     6
  9
$SURFTYPE
 70
     6
  9
$SURFU
 70
     6
  9
$SURFV
 70
     6
  9
$UCSBASE
  2

  9
$UCSNAME
  2

  9
$UCSORG
 10
0.0
 20
0.0
 30
0.0
  9
$UCSXDIR
 10
1.0
 20
0.0
 30
0.0
  9
$UCSYDIR
 10
0.0
 20
1.0
 30
0.0
  9
$UCSORTHOREF
  2

  9
$UCSORTHOVIEW
 70
     0
  9
$UCSORGTOP
 10
0.0
 20
0.0
 30
0.0
  9
$UCSORGBOTTOM
 10
0.0
 20
0.0
 30
0.0
  9
$UCSORGLEFT
 10
0.0
 20
0.0
 30
0.0
  9
$UCSORGRIGHT
 10
0.0
 20
0.0
 30
0.0
  9
$UCSORGFRONT
 10
0.0
 20
0.0
 30
0.0
  9
$UCSORGBACK
 10
0.0
 20
0.0
 30
0.0
  9
$PUCSBASE
  2

  9
$PUCSNAME
  2

  9
$PUCSORG
 10
0.0
 20
0.0
 30
0.0
  9
$PUCSXDIR
 10
1.0
 20
0.0
 30
0.0
  9
$PUCSYDIR
 10
0.0
 20
1.0
 30
0.0
  9
$PUCSORTHOREF
  2

  9
$PUCSORTHOVIEW
 70
     0
  9
$PUCSORGTOP
 10
0.0
 20
0.0
 30
0.0
  9
$PUCSORGBOTTOM
 10
0.0
 20
0.0
 30
0.0
  9
$PUCSORGLEFT
 10
0.0
 20
0.0
 30
0.0
  9
$PUCSORGRIGHT
 10
0.0
 20
0.0
 30
0.0
  9
$PUCSORGFRONT
 10
0.0
 20
0.0
 30
0.0
  9
$PUCSORGBACK
 10
0.0
 20
0.0
 30
0.0
  9
$USERI1
 70
     0
  9
$USERI2
 70
     0
  9
$USERI3
 70
     0
  9
$USERI4
 70
     0
  9
$USERI5
 70
     0
  9
$USERR1
 40
0.0
  9
$USERR2
 40
0.0
  9
$USERR3
 40
0.0
  9
$USERR4
 40
0.0
  9
$USERR5
 40
0.0
  9
$WORLDVIEW
 70
     1
  9
$SHADEDGE
 70
     3
  9
$SHADEDIF
 70
    70
  9
$TILEMODE
 70
     1
  9
$MAXACTVP
 70
    48
  9
$PINSBASE
 10
0.0
 20
0.0
 30
0.0
  9
$PLIMCHECK
 70
     0
  9
$PEXTMIN
 10
1.000000000000000E+20
 20
1.000000000000000E+20
 30
1.000000000000000E+20
  9
$PEXTMAX
 10
-1.000000000000000E+20
 20
-1.000000000000000E+20
 30
-1.000000000000000E+20
  9
$PLIMMIN
 10
0.0
 20
0.0
  9
$PLIMMAX
 10
12.0
 20
9.0
  9
$UNITMODE
 70
     0
  9
$VISRETAIN
 70
     1
  9
$PLINEGEN
 70
     0
  9
$PSLTSCALE
 70
     1
  9
$TREEDEPTH
 70
  3020
  9
$CMLSTYLE
  2
STANDARD
  9
$CMLJUST
 70
     0
  9
$CMLSCALE
 40
1.0
  9
$PROXYGRAPHICS
 70
     1
  9
$MEASUREMENT
 70
     0
  9
$CELWEIGHT
370
    -1
  9
$ENDCAPS
280
     0
  9
$JOINSTYLE
280
     0
  9
$LWDISPLAY
290
     0
  9
$INSUNITS
 70
     0
  9
$HYPERLINKBASE
  1

  9
$STYLESHEET
  1

  9
$XEDIT
290
     1
  9
$CEPSNTYPE
380
     0
  9
$PSTYLEMODE
290
     1
  9
$FINGERPRINTGUID
  2
{71EC7F31-AA06-4ECF-8D30-7E7FC2EDBC33}
  9
$VERSIONGUID
  2
{A3DA2423-1CBB-41D4-B9FC-B0B9BC29AE4F}
  9
$EXTNAMES
290
     1
  9
$PSVPSCALE
 40
0.0
  9
$OLESTARTUP
290
     0
  0
ENDSEC
  0
SECTION
  2
CLASSES
  0
CLASS
  1
ACDBDICTIONARYWDFLT
  2
AcDbDictionaryWithDefault
  3
ObjectDBX Classes
 90
        0
280
     0
281
     0
  0
CLASS
  1
TABLESTYLE
  2
AcDbTableStyle
  3
ObjectDBX Classes
 90
     2047
280
     0
281
     0
  0
CLASS
  1
DICTIONARYVAR
  2
AcDbDictionaryVar
  3
ObjectDBX Classes
 90
        0
280
     0
281
     0
  0
CLASS
  1
ACDBPLACEHOLDER
  2
AcDbPlaceHolder
  3
ObjectDBX Classes
 90
        0
280
     0
281
     0
  0
CLASS
  1
LAYOUT
  2
AcDbLayout
  3
ObjectDBX Classes
 90
        0
280
     0
281
     0
  0
ENDSEC
  0
SECTION
  2
TABLES
  0
TABLE
  2
VPORT
  5
8
330
0
100
AcDbSymbolTable
 70
     2
  0
VPORT
  5
875
330
8
100
AcDbSymbolTableRecord
100
AcDbViewportTableRecord
  2
*Active
 70
     0
 10
0.0
 20
0.0
 11
1.0
 21
1.0
 12
11.00000010314714
 22
9.103929070580019
 13
0.0
 23
0.0
 14
0.5
 24
0.5
 15
0.5
 25
0.5
 16
0.0
 26
0.0
 36
1.0
 17
0.0
 27
0.0
 37
0.0
 40
18.4699008689387
 41
1.499364675984752
 42
50.0
 43
0.0
 44
0.0
 50
0.0
 51
0.0
 71
     0
 72
   100
 73
     1
 74
     1
 75
     0
 76
     0
 77
     0
 78
     0
281
     0
 65
     1
110
0.0
120
0.0
130
0.0
111
1.0
121
0.0
131
0.0
112
0.0
122
1.0
132
0.0
 79
     0
146
0.0
  0
ENDTAB
  0
TABLE
  2
LTYPE
  5
5
330
0
100
AcDbSymbolTable
 70
     1
  0
LTYPE
  5
12
330
5
100
AcDbSymbolTableRecord
100
AcDbLinetypeTableRecord
  2
BYBLOCK
 70
     0
  3

 72
    65
 73
     0
 40
0.0
  0
LTYPE
  5
13
330
5
100
AcDbSymbolTableRecord
100
AcDbLinetypeTableRecord
  2
BYLAYER
 70
     0
  3

 72
    65
 73
     0
 40
0.0
  0
LTYPE
  5
14
330
5
100
AcDbSymbolTableRecord
100
AcDbLinetypeTableRecord
  2
CONTINUOUS
 70
     0
  3
Solid line
 72
    65
 73
     0
 40
0.0
  0
ENDTAB
  0
TABLE
  2
LAYER
  5
2
102
{ACAD_XDICTIONARY
360
154
102
}
330
0
100
AcDbSymbolTable
 70
     6
  0
LAYER
  5
E
330
2
100
AcDbSymbolTableRecord
100
AcDbLayerTableRecord
  2
0
 70
     0
 62
     7
  6
CONTINUOUS
370
    -3
390
10B
  0
LAYER
  5
20
330
2
100
AcDbSymbolTableRecord
100
AcDbLayerTableRecord
  2
Title Block
 70
     0
 62
     3
  6
CONTINUOUS
370
    -3
390
10B
  0
LAYER
  5
21
330
2
100
AcDbSymbolTableRecord
100
AcDbLayerTableRecord
  2
Dimension
 70
     0
 62
     6
  6
CONTINUOUS
370
    -3
390
10B
  0
LAYER
  5
22
330
2
100
AcDbSymbolTableRecord
100
AcDbLayerTableRecord
  2
Text
 70
     0
 62
     1
  6
CONTINUOUS
370
    -3
390
10B
  0
LAYER
  5
23
330
2
100
AcDbSymbolTableRecord
100
AcDbLayerTableRecord
  2
Object
 70
     0
 62
     5
  6
CONTINUOUS
370
    -3
390
10B
  0
LAYER
  5
179
330
2
100
AcDbSymbolTableRecord
100
AcDbLayerTableRecord
  2
Defpoints
 70
     0
 62
     7
  6
CONTINUOUS
290
     0
370
    -3
390
10B
  0
ENDTAB
  0
TABLE
  2
STYLE
  5
3
330
0
100
AcDbSymbolTable
 70
     1
  0
STYLE
  5
F
330
3
100
AcDbSymbolTableRecord
100
AcDbTextStyleTableRecord
  2
STANDARD
 70
     0
 40
0.0
 41
1.0
 50
0.0
 71
     0
 42
0.125
  3
technic_.ttf
  4

1001
ACAD
1000
Technic
1071
      514
  0
ENDTAB
  0
TABLE
  2
VIEW
  5
6
330
0
100
AcDbSymbolTable
 70
     0
  0
ENDTAB
  0
TABLE
  2
UCS
  5
7
330
0
100
AcDbSymbolTable
 70
     0
  0
ENDTAB
  0
TABLE
  2
APPID
  5
9
330
0
100
AcDbSymbolTable
 70
     4
  0
APPID
  5
10
330
9
100
AcDbSymbolTableRecord
100
AcDbRegAppTableRecord
  2
ACAD
 70
     0
  0
APPID
  5
149
330
9
100
AcDbSymbolTableRecord
100
AcDbRegAppTableRecord
  2
DCO15
 70
     0
  0
APPID
  5
153
330
9
100
AcDbSymbolTableRecord
100
AcDbRegAppTableRecord
  2
AcAecLayerStandard
 70
     0
  0
APPID
  5
1A9
330
9
100
AcDbSymbolTableRecord
100
AcDbRegAppTableRecord
  2
ACAD_DSTYLE_DIMTEXT_FILL
 70
     0
  0
ENDTAB
  0
TABLE
  2
DIMSTYLE
  5
A
330
0
100
AcDbSymbolTable
 70
     1
100
AcDbDimStyleTable
 71
     1
340
1D
  0
DIMSTYLE
105
1D
102
{ACAD_REACTORS
330
807
330
815
330
823
102
}
330
A
100
AcDbSymbolTableRecord
100
AcDbDimStyleTableRecord
  2
STANDARD
 70
     0
  4
mm
 41
0.125
 44
0.125
140
0.09
170
     1
171
     1
271
     2
272
     2
274
     1
340
F
  0
ENDTAB
  0
TABLE
  2
BLOCK_RECORD
  5
1
330
0
100
AcDbSymbolTable
 70
     3
  0
BLOCK_RECORD
  5
18
330
1
100
AcDbSymbolTableRecord
100
AcDbBlockTableRecord
  2
*MODEL_SPACE
340
112
  0
BLOCK_RECORD
  5
15
330
1
100
AcDbSymbolTableRecord
100
AcDbBlockTableRecord
  2
*PAPER_SPACE
340
113
  0
BLOCK_RECORD
  5
808
330
1
100
AcDbSymbolTableRecord
100
AcDbBlockTableRecord
  2
*D0
340
0
  0
BLOCK_RECORD
  5
816
330
1
100
AcDbSymbolTableRecord
100
AcDbBlockTableRecord
  2
*D1
340
0
  0
BLOCK_RECORD
  5
824
330
1
100
AcDbSymbolTableRecord
100
AcDbBlockTableRecord
  2
*D2
340
0
  0
ENDTAB
  0
ENDSEC
  0
SECTION
  2
BLOCKS
  0
BLOCK
  5
19
330
18
100
AcDbEntity
  8
0
100
AcDbBlockBegin
  2
*MODEL_SPACE
 70
     0
 10
0.0
 20
0.0
 30
0.0
  3
*MODEL_SPACE
  1

  0
ENDBLK
  5
1A
330
18
100
AcDbEntity
  8
0
100
AcDbBlockEnd
  0
BLOCK
  5
16
330
15
100
AcDbEntity
 67
     1
  8
0
100
AcDbBlockBegin
  2
*PAPER_SPACE
 70
     0
 10
0.0
 20
0.0
 30
0.0
  3
*PAPER_SPACE
  1

  0
ENDBLK
  5
17
330
15
100
AcDbEntity
 67
     1
  8
0
100
AcDbBlockEnd
  0
BLOCK
  5
813
330
808
100
AcDbEntity
  8
0
100
AcDbBlockBegin
  2
*D0
 70
     1
 10
0.0
 20
0.0
 30
0.0
  3
*D0
  1

  0
LINE
  5
809
330
808
100
AcDbEntity
  8
Dimension
 62
     0
370
    -2
100
AcDbLine
 10
9.1765
 20
15.98171335838249
 30
0.0
 11
12.58566809265821
 21
15.98171335838249
 31
0.0
  0
LINE
  5
80A
330
808
100
AcDbEntity
  8
Dimension
 62
     0
370
    -2
100
AcDbLine
 10
11.3475
 20
11.98171335838249
 30
0.0
 11
12.58566809265821
 21
11.98171335838249
 31
0.0
  0
LINE
  5
80B
330
808
100
AcDbEntity
  8
Dimension
 62
     0
370
    -2
100
AcDbLine
 10
12.46066809265821
 20
15.85671335838249
 30
0.0
 11
12.46066809265821
 21
14.13473967417196
 31
0.0
  0
LINE
  5
80C
330
808
100
AcDbEntity
  8
Dimension
 62
     0
370
    -2
100
AcDbLine
 10
12.46066809265821
 20
12.10671335838249
 30
0.0
 11
12.46066809265821
 21
13.82868704259302
 31
0.0
  0
SOLID
  5
80D
330
808
100
AcDbEntity
  8
Dimension
 62
     0
100
AcDbTrace
 10
12.43983475932487
 20
15.85671335838249
 30
0.0
 11
12.48150142599154
 21
15.85671335838249
 31
0.0
 12
12.46066809265821
 22
15.98171335838249
 32
0.0
 13
12.46066809265821
 23
15.98171335838249
 33
0.0
  0
SOLID
  5
80E
330
808
100
AcDbEntity
  8
Dimension
 62
     0
100
AcDbTrace
 10
12.43983475932487
 20
12.10671335838249
 30
0.0
 11
12.48150142599154
 21
12.10671335838249
 31
0.0
 12
12.46066809265821
 22
11.98171335838249
 32
0.0
 13
12.46066809265821
 23
11.98171335838249
 33
0.0
  0
MTEXT
  5
80F
330
808
100
AcDbEntity
  8
Dimension
 62
     0
100
AcDbMText
 10
12.4606680926582
 20
13.9817133583825
 30
0.0
 40
0.09
 41
0.0
 71
     5
 72
     1
  1
\A1;4.00 [101.6mm]
 73
     1
 44
1.0
1001
ACAD
1000
MTEXTBEGIN
1070
    73
1070
     1
1070
    44
1040
1.0
1070
    74
1070
     0
1000
MTEXTEND
  0
POINT
  5
810
330
808
100
AcDbEntity
  8
Defpoints
 62
     0
100
AcDbPoint
 10
9.114
 20
15.98171335838249
 30
0.0
  0
POINT
  5
811
330
808
100
AcDbEntity
  8
Defpoints
 62
     0
100
AcDbPoint
 10
11.285
 20
11.98171335838249
 30
0.0
  0
POINT
  5
812
330
808
100
AcDbEntity
  8
Defpoints
 62
     0
100
AcDbPoint
 10
12.46066809265821
 20
11.98171335838249
 30
0.0
  0
ENDBLK
  5
814
330
808
100
AcDbEntity
  8
0
100
AcDbBlockEnd
  0
BLOCK
  5
821
330
816
100
AcDbEntity
  8
0
100
AcDbBlockBegin
  2
*D1
 70
     1
 10
0.0
 20
0.0
 30
0.0
  3
*D1
  1

  0
LINE
  5
817
330
816
100
AcDbEntity
  8
Dimension
 62
     0
370
    -2
100
AcDbLine
 10
15.2955
 20
9.432267710199765
 30
0.0
 11
14.10370017086825
 21
9.432267710199765
 31
0.0
  0
LINE
  5
818
330
816
100
AcDbEntity
  8
Dimension
 62
     0
370
    -2
100
AcDbLine
 10
15.2935
 20
3.471267710199765
 30
0.0
 11
14.10370017086825
 21
3.471267710199766
 31
0.0
  0
LINE
  5
819
330
816
100
AcDbEntity
  8
Dimension
 62
     0
370
    -2
100
AcDbLine
 10
14.22870017086825
 20
9.307267710199765
 30
0.0
 11
14.22870017086825
 21
6.604794025989239
 31
0.0
  0
LINE
  5
81A
330
816
100
AcDbEntity
  8
Dimension
 62
     0
370
    -2
100
AcDbLine
 10
14.22870017086825
 20
3.596267710199766
 30
0.0
 11
14.22870017086825
 21
6.298741394410292
 31
0.0
  0
SOLID
  5
81B
330
816
100
AcDbEntity
  8
Dimension
 62
     0
100
AcDbTrace
 10
14.20786683753491
 20
9.307267710199765
 30
0.0
 11
14.24953350420158
 21
9.307267710199765
 31
0.0
 12
14.22870017086825
 22
9.432267710199765
 32
0.0
 13
14.22870017086825
 23
9.432267710199765
 33
0.0
  0
SOLID
  5
81C
330
816
100
AcDbEntity
  8
Dimension
 62
     0
100
AcDbTrace
 10
14.20786683753491
 20
3.596267710199766
 30
0.0
 11
14.24953350420158
 21
3.596267710199766
 31
0.0
 12
14.22870017086825
 22
3.471267710199766
 32
0.0
 13
14.22870017086825
 23
3.471267710199766
 33
0.0
  0
MTEXT
  5
81D
330
816
100
AcDbEntity
  8
Dimension
 62
     0
100
AcDbMText
 10
14.22870017086825
 20
6.451767710199768
 30
0.0
 40
0.09
 41
0.0
 71
     5
 72
     1
  1
\A1;5.96 [151.4mm]
 73
     1
 44
1.0
1001
ACAD
1000
MTEXTBEGIN
1070
    73
1070
     1
1070
    44
1040
1.0
1070
    74
1070
     0
1000
MTEXTEND
  0
POINT
  5
81E
330
816
100
AcDbEntity
  8
Defpoints
 62
     0
100
AcDbPoint
 10
15.358
 20
9.432267710199765
 30
0.0
  0
POINT
  5
81F
330
816
100
AcDbEntity
  8
Defpoints
 62
     0
100
AcDbPoint
 10
15.356
 20
3.471267710199765
 30
0.0
  0
POINT
  5
820
330
816
100
AcDbEntity
  8
Defpoints
 62
     0
100
AcDbPoint
 10
14.22870017086825
 20
3.471267710199766
 30
0.0
  0
ENDBLK
  5
822
330
816
100
AcDbEntity
  8
0
100
AcDbBlockEnd
  0
BLOCK
  5
82F
330
824
100
AcDbEntity
  8
0
100
AcDbBlockBegin
  2
*D2
 70
     1
 10
0.0
 20
0.0
 30
0.0
  3
*D2
  1

  0
LINE
  5
859
330
824
100
AcDbEntity
  8
Dimension
 62
     0
370
    -2
100
AcDbLine
 10
1.928
 20
9.495767710199766
 30
0.0
 11
1.928
 21
10.47931311712768
 31
0.0
  0
LINE
  5
85A
330
824
100
AcDbEntity
  8
Dimension
 62
     0
370
    -2
100
AcDbLine
 10
11.285
 20
9.495767710199766
 30
0.0
 11
11.285
 21
10.47931311712768
 31
0.0
  0
LINE
  5
85B
330
824
100
AcDbEntity
  8
Dimension
 62
     0
370
    -2
100
AcDbLine
 10
2.053
 20
10.35431311712768
 30
0.0
 11
6.062092105263158
 21
10.35431311712768
 31
0.0
  0
LINE
  5
85C
330
824
100
AcDbEntity
  8
Dimension
 62
     0
370
    -2
100
AcDbLine
 10
11.16
 20
10.35431311712768
 30
0.0
 11
7.150907894736842
 21
10.35431311712768
 31
0.0
  0
SOLID
  5
85D
330
824
100
AcDbEntity
  8
Dimension
 62
     0
100
AcDbTrace
 10
2.053
 20
10.37514645046101
 30
0.0
 11
2.053
 21
10.33347978379435
 31
0.0
 12
1.928
 22
10.35431311712768
 32
0.0
 13
1.928
 23
10.35431311712768
 33
0.0
  0
SOLID
  5
85E
330
824
100
AcDbEntity
  8
Dimension
 62
     0
100
AcDbTrace
 10
11.16
 20
10.37514645046101
 30
0.0
 11
11.16
 21
10.33347978379435
 31
0.0
 12
11.285
 22
10.35431311712768
 32
0.0
 13
11.285
 23
10.35431311712768
 33
0.0
  0
MTEXT
  5
85F
330
824
100
AcDbEntity
  8
Dimension
 62
     0
100
AcDbMText
 10
6.6065
 20
10.35431311712768
 30
0.0
 40
0.09
 41
0.0
 71
     5
 72
     1
  1
\A1;9.36 [237.6mm]
 73
     1
 44
1.0
1001
ACAD
1000
MTEXTBEGIN
1070
    73
1070
     1
1070
    44
1040
1.0
1070
    74
1070
     0
1000
MTEXTEND
  0
POINT
  5
860
330
824
100
AcDbEntity
  8
Defpoints
 62
     0
100
AcDbPoint
 10
1.928
 20
9.433267710199766
 30
0.0
  0
POINT
  5
861
330
824
100
AcDbEntity
  8
Defpoints
 62
     0
100
AcDbPoint
 10
11.285
 20
9.433267710199766
 30
0.0
  0
POINT
  5
862
330
824
100
AcDbEntity
  8
Defpoints
 62
     0
100
AcDbPoint
 10
11.285
 20
10.35431311712768
 30
0.0
  0
ENDBLK
  5
830
330
824
100
AcDbEntity
  8
0
100
AcDbBlockEnd
  0
ENDSEC
  0
SECTION
  2
ENTITIES
  0
TEXT
  5
51
330
18
100
AcDbEntity
  8
Title Block
100
AcDbText
 10
17.77669501265554
 20
2.672489851525508
 30
0.0
 40
0.05
  1
FILENAME:
100
AcDbText
  0
TEXT
  5
52
330
18
100
AcDbEntity
  8
Title Block
100
AcDbText
 10
17.76928502872825
 20
2.076224967549325
 30
0.0
 40
0.35
  1
PANDUIT
100
AcDbText
  0
TEXT
  5
53
330
18
100
AcDbEntity
  8
Title Block
100
AcDbText
 10
19.72182039882138
 20
2.061410940562986
 30
0.0
 40
0.125
  1
CORP. TINLEY PARK, IL
100
AcDbText
  0
TEXT
  5
54
330
18
100
AcDbEntity
  8
Title Block
100
AcDbText
 10
17.78039997670861
 20
1.91697409709392
 30
0.0
 40
0.05
  1
TITLE:
100
AcDbText
  0
MTEXT
  5
57
330
18
100
AcDbEntity
  8
Title Block
100
AcDbMText
 10
19.0
 20
1.372215793536348
 30
0.0
 40
0.075
 41
2.5
 71
     5
 72
     5
  1
UNLESS OTHERWISE SPECIFIED,\PDIMENSIONAL TOLERANCES ARE:       
 73
     1
 44
1.0
1001
ACAD
1000
MTEXTBEGIN
1070
    73
1070
     1
1070
    44
1040
1.0
1070
    74
1070
     0
1000
MTEXTEND
  0
MTEXT
  5
58
330
18
100
AcDbEntity
  8
Title Block
100
AcDbMText
 10
18.39237986661001
 20
1.131487708483632
 30
0.0
 40
0.075
 41
2.5
 71
     5
 72
     5
  1
(.X)\P(.XX)
 73
     1
 44
1.0
1001
ACAD
1000
MTEXTBEGIN
1070
    73
1070
     1
1070
    44
1040
1.0
1070
    74
1070
     0
1000
MTEXTEND
  0
MTEXT
  5
59
330
18
100
AcDbEntity
  8
Title Block
100
AcDbMText
 10
19.40014005312411
 20
1.131487708483632
 30
0.0
 40
0.075
 41
2.5
 71
     5
 72
     5
  1
(.XXX)\PANGLES:
 73
     1
 44
1.0
1001
ACAD
1000
MTEXTBEGIN
1070
    73
1070
     1
1070
    44
1040
1.0
1070
    74
1070
     0
1000
MTEXTEND
  0
MTEXT
  5
5A
330
18
100
AcDbEntity
  8
Title Block
100
AcDbMText
 10
21.0
 20
1.25
 30
0.0
 40
0.06
 41
1.5
 71
     5
 72
     5
  1
UNLESS OTHERWISE SPECIFIED,\PALL DIMENSIONS ARE GIVEN IN INCHES, THIRD ANGLE PROJECTION
 73
     1
 44
1.0
1001
ACAD
1000
MTEXTBEGIN
1070
    73
1070
     1
1070
    44
1040
1.0
1070
    74
1070
     0
1000
MTEXTEND
  0
TEXT
  5
5E
330
18
100
AcDbEntity
  8
Title Block
100
AcDbText
 10
17.76076445430618
 20
0.9281373372752312
 30
0.0
 40
0.05
  1
DRAWN BY:
100
AcDbText
  0
TEXT
  5
5F
330
18
100
AcDbEntity
  8
Title Block
100
AcDbText
 10
17.76446947418043
 20
0.6811431865635028
 30
0.0
 40
0.05
  1
DATE:
100
AcDbText
  0
TEXT
  5
60
330
18
100
AcDbEntity
  8
Title Block
100
AcDbText
 10
17.76817443823349
 20
0.4304455338317968
 30
0.0
 40
0.05
  1
CHECKED BY:
100
AcDbText
  0
TEXT
  5
62
330
18
100
AcDbEntity
  8
Title Block
100
AcDbText
 10
18.52028959313306
 20
0.9281373372752312
 30
0.0
 40
0.05
  1
MATERIAL:
100
AcDbText
  0
TEXT
  5
63
330
18
100
AcDbEntity
  8
Title Block
100
AcDbText
 10
20.26534493878154
 20
0.9281373372752312
 30
0.0
 40
0.05
  1
SCALE:
100
AcDbText
  0
TEXT
  5
64
330
18
100
AcDbEntity
  8
Title Block
100
AcDbText
 10
20.26534493878154
 20
0.6725952630490007
 30
0.0
 40
0.05
  1
DRAWING NUMBER:
100
AcDbText
  0
TEXT
  5
65
330
18
100
AcDbEntity
  8
Title Block
100
AcDbText
 10
21.34942622928997
 20
0.6762987650689816
 30
0.0
 40
0.05
  1
DRAWING
100
AcDbText
  0
TEXT
  5
66
330
18
100
AcDbEntity
  8
Title Block
100
AcDbText
 10
21.42723125590085
 20
0.2811642688682026
 30
0.0
 40
0.05
  1
SIZE
100
AcDbText
  0
TEXT
  5
67
330
18
100
AcDbEntity
  8
Title Block
100
AcDbText
 10
21.39373130657865
 20
0.3826699445861052
 30
0.0
 40
0.25
  1
C
100
AcDbText
  0
MTEXT
  5
68
330
18
100
AcDbEntity
  8
Title Block
100
AcDbMText
 10
11.37499999999999
 20
0.375
 30
0.0
 40
0.05
 41
0.25
 71
     5
 72
     5
  1
REV
 73
     1
 44
1.0
1001
ACAD
1000
MTEXTBEGIN
1070
    73
1070
     1
1070
    44
1040
1.0
1070
    74
1070
     0
1000
MTEXTEND
  0
MTEXT
  5
69
330
18
100
AcDbEntity
  8
Title Block
100
AcDbMText
 10
11.74999999999999
 20
0.375
 30
0.0
 40
0.05
 41
0.5
 71
     5
 72
     5
  1
DATE
 73
     1
 44
1.0
1001
ACAD
1000
MTEXTBEGIN
1070
    73
1070
     1
1070
    44
1040
1.0
1070
    74
1070
     0
1000
MTEXTEND
  0
MTEXT
  5
6A
330
18
100
AcDbEntity
  8
Title Block
100
AcDbMText
 10
12.18999999999999
 20
0.375
 30
0.0
 40
0.05
 41
0.38
 71
     5
 72
     5
  1
BY
 73
     1
 44
1.0
1001
ACAD
1000
MTEXTBEGIN
1070
    73
1070
     1
1070
    44
1040
1.0
1070
    74
1070
     0
1000
MTEXTEND
  0
MTEXT
  5
6B
330
18
100
AcDbEntity
  8
Title Block
100
AcDbMText
 10
12.56499999999999
 20
0.375
 30
0.0
 40
0.05
 41
0.38
 71
     5
 72
     5
  1
CHK
 73
     1
 44
1.0
1001
ACAD
1000
MTEXTBEGIN
1070
    73
1070
     1
1070
    44
1040
1.0
1070
    74
1070
     0
1000
MTEXTEND
  0
MTEXT
  5
6C
330
18
100
AcDbEntity
  8
Title Block
100
AcDbMText
 10
14.12499999999999
 20
0.375
 30
0.0
 40
0.05
 41
2.75
 71
     5
 72
     5
  1
DESCRIPTION
 73
     1
 44
1.0
1001
ACAD
1000
MTEXTBEGIN
1070
    73
1070
     1
1070
    44
1040
1.0
1070
    74
1070
     0
1000
MTEXTEND
  0
MTEXT
  5
6D
330
18
100
AcDbEntity
  8
Title Block
100
AcDbMText
 10
16.065
 20
0.375
 30
0.0
 40
0.05
 41
1.129999999999999
 71
     5
 72
     5
  1
ECN   -   R
 73
     1
 44
1.0
1001
ACAD
1000
MTEXTBEGIN
1070
    73
1070
     1
1070
    44
1040
1.0
1070
    74
1070
     0
1000
MTEXTEND
  0
MTEXT
  5
6E
330
18
100
AcDbEntity
  8
Title Block
100
AcDbMText
 10
16.81499999999999
 20
0.375
 30
0.0
 40
0.05
 41
0.38
 71
     5
 72
     5
  1
CUST
 73
     1
 44
1.0
1001
ACAD
1000
MTEXTBEGIN
1070
    73
1070
     1
1070
    44
1040
1.0
1070
    74
1070
     0
1000
MTEXTEND
  0
MTEXT
  5
6F
330
18
100
AcDbEntity
  8
Title Block
100
AcDbMText
 10
17.19
 20
0.375
 30
0.0
 40
0.05
 41
0.38
 71
     5
 72
     5
  1
SUP
 73
     1
 44
1.0
1001
ACAD
1000
MTEXTBEGIN
1070
    73
1070
     1
1070
    44
1040
1.0
1070
    74
1070
     0
1000
MTEXTEND
  0
LINE
  5
A5
330
18
100
AcDbEntity
  8
Title Block
100
AcDbLine
 10
21.75
 20
2.749999999999999
 30
0.0
 11
11.25
 21
2.75
 31
0.0
  0
LINE
  5
A6
330
18
100
AcDbEntity
  8
Title Block
100
AcDbLine
 10
17.74999999999999
 20
2.75
 30
0.0
 11
17.74999999999999
 21
0.25
 31
0.0
  0
LINE
  5
A7
330
18
100
AcDbEntity
  8
Title Block
100
AcDbLine
 10
21.75
 20
2.499999999999999
 30
0.0
 11
11.25
 21
2.5
 31
0.0
  0
LINE
  5
A8
330
18
100
AcDbEntity
  8
Title Block
100
AcDbLine
 10
17.74999999999999
 20
2.25
 30
0.0
 11
11.25
 21
2.25
 31
0.0
  0
LINE
  5
A9
330
18
100
AcDbEntity
  8
Title Block
100
AcDbLine
 10
21.75
 20
1.999999999999999
 30
0.0
 11
11.25
 21
2.0
 31
0.0
  0
LINE
  5
AA
330
18
100
AcDbEntity
  8
Title Block
100
AcDbLine
 10
17.74999999999999
 20
1.75
 30
0.0
 11
11.25
 21
1.75
 31
0.0
  0
LINE
  5
AB
330
18
100
AcDbEntity
  8
Title Block
100
AcDbLine
 10
21.75
 20
1.499999999999999
 30
0.0
 11
11.25
 21
1.5
 31
0.0
  0
LINE
  5
AC
330
18
100
AcDbEntity
  8
Title Block
100
AcDbLine
 10
17.74999999999999
 20
1.25
 30
0.0
 11
11.25
 21
1.25
 31
0.0
  0
LINE
  5
AD
330
18
100
AcDbEntity
  8
Title Block
100
AcDbLine
 10
21.75
 20
0.9999999999999996
 30
0.0
 11
11.25
 21
1.0
 31
0.0
  0
LINE
  5
AE
330
18
100
AcDbEntity
  8
Title Block
100
AcDbLine
 10
18.49999999999999
 20
0.75
 30
0.0
 11
11.25
 21
0.7500000000000009
 31
0.0
  0
LINE
  5
AF
330
18
100
AcDbEntity
  8
Title Block
100
AcDbLine
 10
18.49999999999999
 20
0.5
 30
0.0
 11
11.25
 21
0.5000000000000009
 31
0.0
  0
LINE
  5
B6
330
18
100
AcDbEntity
  8
Title Block
100
AcDbLine
 10
11.25
 20
0.25
 30
0.0
 11
11.25
 21
2.75
 31
0.0
  0
LINE
  5
BC
330
18
100
AcDbEntity
  8
Title Block
100
AcDbLine
 10
11.49999999999999
 20
0.25
 30
0.0
 11
11.49999999999999
 21
2.750000000000001
 31
0.0
  0
LINE
  5
BD
330
18
100
AcDbEntity
  8
Title Block
100
AcDbLine
 10
11.99999999999999
 20
0.25
 30
0.0
 11
11.99999999999999
 21
2.750000000000001
 31
0.0
  0
LINE
  5
C0
330
18
100
AcDbEntity
  8
Title Block
100
AcDbLine
 10
12.375
 20
0.25
 30
0.0
 11
12.375
 21
2.750000000000001
 31
0.0
  0
LINE
  5
C1
330
18
100
AcDbEntity
  8
Title Block
100
AcDbLine
 10
12.74999999999999
 20
0.25
 30
0.0
 11
12.74999999999999
 21
2.750000000000001
 31
0.0
  0
LINE
  5
C2
330
18
100
AcDbEntity
  8
Title Block
100
AcDbLine
 10
17.375
 20
2.75
 30
0.0
 11
17.375
 21
0.25
 31
0.0
  0
LINE
  5
C3
330
18
100
AcDbEntity
  8
Title Block
100
AcDbLine
 10
17.0
 20
2.75
 30
0.0
 11
17.0
 21
0.25
 31
0.0
  0
LINE
  5
C4
330
18
100
AcDbEntity
  8
Title Block
100
AcDbLine
 10
16.62499999999999
 20
2.75
 30
0.0
 11
16.62499999999999
 21
0.25
 31
0.0
  0
LINE
  5
C5
330
18
100
AcDbEntity
  8
Title Block
100
AcDbLine
 10
16.25
 20
2.75
 30
0.0
 11
16.25
 21
0.5000000000000002
 31
0.0
  0
LINE
  5
C6
330
18
100
AcDbEntity
  8
Title Block
100
AcDbLine
 10
15.5
 20
2.75
 30
0.0
 11
15.5
 21
0.25
 31
0.0
  0
LINE
  5
C7
330
18
100
AcDbEntity
  8
Title Block
100
AcDbLine
 10
20.25
 20
0.75
 30
0.0
 11
20.25
 21
1.499999999999999
 31
0.0
  0
LINE
  5
C8
330
18
100
AcDbEntity
  8
Title Block
100
AcDbLine
 10
20.25
 20
0.75
 30
0.0
 11
20.25
 21
0.25
 31
0.0
  0
LINE
  5
C9
330
18
100
AcDbEntity
  8
Title Block
100
AcDbLine
 10
20.25
 20
0.75
 30
0.0
 11
21.75
 21
0.75
 31
0.0
  0
LINE
  5
CA
330
18
100
AcDbEntity
  8
Title Block
100
AcDbLine
 10
18.49999999999999
 20
0.5
 30
0.0
 11
18.49999999999999
 21
0.25
 31
0.0
  0
LINE
  5
CB
330
18
100
AcDbEntity
  8
Title Block
100
AcDbLine
 10
18.49999999999999
 20
0.5
 30
0.0
 11
18.49999999999999
 21
1.0
 31
0.0
  0
LINE
  5
CD
330
18
100
AcDbEntity
  8
Title Block
100
AcDbLine
 10
21.25
 20
0.75
 30
0.0
 11
21.25
 21
0.25
 31
0.0
  0
LWPOLYLINE
  5
F8
330
18
100
AcDbEntity
  8
Title Block
100
AcDbPolyline
 90
        4
 70
     1
 43
0.01
 10
21.75
 20
16.75
 10
21.75
 20
0.25
 10
0.25
 20
0.25
 10
0.250000000000001
 20
16.75
  0
POINT
  5
FC
330
18
100
AcDbEntity
  8
Title Block
100
AcDbPoint
 10
22.0
 20
0.0
 30
0.0
  0
POINT
  5
FF
330
18
100
AcDbEntity
  8
Title Block
100
AcDbPoint
 10
22.0
 20
17.0
 30
0.0
  0
POINT
  5
102
330
18
100
AcDbEntity
  8
Title Block
100
AcDbPoint
 10
0.000000000000001
 20
17.0
 30
0.0
  0
POINT
  5
105
330
18
100
AcDbEntity
  8
Title Block
100
AcDbPoint
 10
0.0
 20
0.0
 30
0.0
  0
MTEXT
  5
12C
330
18
100
AcDbEntity
  8
Text
100
AcDbMText
 10
11.37324893148254
 20
0.6275685908585027
 30
0.0
 40
0.09
 41
0.25
 71
     5
 72
     5
  1
R
 73
     1
 44
1.0
1001
ACAD
1000
MTEXTBEGIN
1070
    73
1070
     1
1070
    44
1040
1.0
1070
    74
1070
     0
1000
MTEXTEND
  0
MTEXT
  5
12D
330
18
100
AcDbEntity
  8
Text
100
AcDbMText
 10
11.74824893148254
 20
0.6275685908585027
 30
0.0
 40
0.07
 41
0.5
 71
     5
 72
     5
  1
6-22-07
 73
     1
 44
1.0
1001
ACAD
1000
MTEXTBEGIN
1070
    73
1070
     1
1070
    44
1040
1.0
1070
    74
1070
     0
1000
MTEXTEND
  0
MTEXT
  5
12E
330
18
100
AcDbEntity
  8
Text
100
AcDbMText
 10
12.18574893148254
 20
0.6275685908585027
 30
0.0
 40
0.09
 41
0.375
 71
     5
 72
     5
  1
DTP
 73
     1
 44
1.0
1001
ACAD
1000
MTEXTBEGIN
1070
    73
1070
     1
1070
    44
1040
1.0
1070
    74
1070
     0
1000
MTEXTEND
  0
MTEXT
  5
130
330
18
100
AcDbEntity
  8
Text
100
AcDbMText
 10
14.12324893148254
 20
0.6275685908585023
 30
0.0
 40
0.09
 41
2.75
 71
     5
 72
     5
  1
DRAWING RELEASED
 73
     1
 44
1.0
1001
ACAD
1000
MTEXTBEGIN
1070
    73
1070
     1
1070
    44
1040
1.0
1070
    74
1070
     0
1000
MTEXTEND
  0
MTEXT
  5
133
330
18
100
AcDbEntity
  8
Text
100
AcDbMText
 10
18.47324893148254
 20
0.8525685908585018
 30
0.0
 40
0.09
 41
0.75
 71
     6
 72
     5
  1
DTP
 73
     1
 44
1.0
1001
ACAD
1000
MTEXTBEGIN
1070
    73
1070
     1
1070
    44
1040
1.0
1070
    74
1070
     0
1000
MTEXTEND
  0
MTEXT
  5
134
330
18
100
AcDbEntity
  8
Text
100
AcDbMText
 10
18.47324893148254
 20
0.6025685908585017
 30
0.0
 40
0.09
 41
0.75
 71
     6
 72
     5
  1
6-22-07
 73
     1
 44
1.0
1001
ACAD
1000
MTEXTBEGIN
1070
    73
1070
     1
1070
    44
1040
1.0
1070
    74
1070
     0
1000
MTEXTEND
  0
MTEXT
  5
135
330
18
100
AcDbEntity
  8
Text
100
AcDbMText
 10
18.47324893148254
 20
0.3525685908585019
 30
0.0
 40
0.09
 41
0.75
 71
     6
 72
     5
  1
DJWA
 73
     1
 44
1.0
1001
ACAD
1000
MTEXTBEGIN
1070
    73
1070
     1
1070
    44
1040
1.0
1070
    74
1070
     0
1000
MTEXTEND
  0
MTEXT
  5
136
330
18
100
AcDbEntity
  8
Text
100
AcDbMText
 10
19.74824893148254
 20
2.627568590858501
 30
0.0
 40
0.09
 41
4.0
 71
     5
 72
     5
  1
FRTR4X4.dwg
 73
     1
 44
1.0
1001
ACAD
1000
MTEXTBEGIN
1070
    73
1070
     1
1070
    44
1040
1.0
1070
    74
1070
     0
1000
MTEXTEND
  0
MTEXT
  5
137
330
18
100
AcDbEntity
  8
Text
100
AcDbMText
 10
19.74824893148254
 20
1.752568590858501
 30
0.0
 40
0.09
 41
4.0
 71
     5
 72
     5
  1
FIBERRUNNER 4x4 3-SIDED BEND RADIUS\PCONTROL TRUMPET (FRTR4X4)\PMARKETING DRAWING
 73
     1
 44
1.0
1001
ACAD
1000
MTEXTBEGIN
1070
    73
1070
     1
1070
    44
1040
1.0
1070
    74
1070
     0
1000
MTEXTEND
  0
MTEXT
  5
138
330
18
100
AcDbEntity
  8
Text
100
AcDbMText
 10
20.99824893148254
 20
0.8775685908585016
 30
0.0
 40
0.12
 41
1.5
 71
     5
 72
     5
  1
FULL
 73
     1
 44
1.0
1001
ACAD
1000
MTEXTBEGIN
1070
    73
1070
     1
1070
    44
1040
1.0
1070
    74
1070
     0
1000
MTEXTEND
  0
MTEXT
  5
139
330
18
100
AcDbEntity
  8
Text
100
AcDbMText
 10
20.74824893148254
 20
0.5025685908585018
 30
0.0
 40
0.12
 41
1.0
 71
     5
 72
     5
  1
36897-1186
 73
     1
 44
1.0
1001
ACAD
1000
MTEXTBEGIN
1070
    73
1070
     1
1070
    44
1040
1.0
1070
    74
1070
     0
1000
MTEXTEND
  0
TEXT
  5
2AB
330
18
100
AcDbEntity
  8
Text
100
AcDbText
 10
6.185902032285198
 20
11.58552542006714
 30
0.0
 40
0.125
  1
TOP VIEW
100
AcDbText
  0
TEXT
  5
2AC
330
18
100
AcDbEntity
  8
Text
100
AcDbText
 10
6.051361250824641
 20
3.156475979631458
 30
0.0
 40
0.125
  1
FRONT VIEW
100
AcDbText
  0
TEXT
  5
2AD
330
18
100
AcDbEntity
  8
Text
100
AcDbText
 10
16.63666325123059
 20
3.226912961054821
 30
0.0
 40
0.125
  1
RIGHT SIDE VIEW
100
AcDbText
  0
MTEXT
  5
2BE
330
18
100
AcDbEntity
  8
Text
100
AcDbMText
 10
12.5604002814227
 20
0.626249074032665
 30
0.0
 40
0.07
 41
0.375
 71
     5
 72
     5
  1
DJWA
 73
     1
 44
1.0
1001
ACAD
1000
MTEXTBEGIN
1070
    73
1070
     1
1070
    44
1040
1.0
1070
    74
1070
     0
1000
MTEXTEND
  0
LINE
  5
2CD
330
18
100
AcDbEntity
  8
Object
100
AcDbLine
 10
15.486
 20
3.555267710199766
 30
0.0
 11
15.486
 21
3.581267710199766
 31
0.0
  0
LINE
  5
2CE
330
18
100
AcDbEntity
  8
Object
100
AcDbLine
 10
15.482
 20
3.691267710199765
 30
0.0
 11
15.491
 21
3.691267710199765
 31
0.0
  0
LINE
  5
2CF
330
18
100
AcDbEntity
  8
Object
100
AcDbLine
 10
15.486
 20
3.531267710199765
 30
0.0
 11
15.486
 21
3.538267710199765
 31
0.0
  0
LINE
  5
2D0
330
18
100
AcDbEntity
  8
Object
100
AcDbLine
 10
15.486
 20
3.581267710199766
 30
0.0
 11
15.486
 21
3.591267710199765
 31
0.0
  0
LINE
  5
2D1
330
18
100
AcDbEntity
  8
Object
100
AcDbLine
 10
15.486
 20
3.538267710199765
 30
0.0
 11
15.486
 21
3.555267710199766
 31
0.0
  0
LINE
  5
2D2
330
18
100
AcDbEntity
  8
Object
100
AcDbLine
 10
15.486
 20
3.691267710199765
 30
0.0
 11
15.481
 21
3.691267710199765
 31
0.0
  0
LINE
  5
2D3
330
18
100
AcDbEntity
  8
Object
100
AcDbLine
 10
15.481
 20
3.531267710199765
 30
0.0
 11
15.486
 21
3.531267710199765
 31
0.0
  0
LINE
  5
2D4
330
18
100
AcDbEntity
  8
Object
100
AcDbLine
 10
15.482
 20
3.691267710199765
 30
0.0
 11
15.491
 21
3.691267710199765
 31
0.0
  0
LINE
  5
2D5
330
18
100
AcDbEntity
  8
Object
100
AcDbLine
 10
15.486
 20
3.581267710199766
 30
0.0
 11
15.486
 21
3.591267710199765
 31
0.0
  0
LINE
  5
2D6
330
18
100
AcDbEntity
  8
Object
100
AcDbLine
 10
15.486
 20
3.555267710199766
 30
0.0
 11
15.486
 21
3.538267710199765
 31
0.0
  0
LINE
  5
2D7
330
18
100
AcDbEntity
  8
Object
100
AcDbLine
 10
15.486
 20
3.538267710199765
 30
0.0
 11
15.486
 21
3.531267710199765
 31
0.0
  0
LINE
  5
2D8
330
18
100
AcDbEntity
  8
Object
100
AcDbLine
 10
15.486
 20
3.555267710199766
 30
0.0
 11
15.486
 21
3.581267710199766
 31
0.0
  0
LINE
  5
2D9
330
18
100
AcDbEntity
  8
Object
100
AcDbLine
 10
15.481
 20
3.501267710199766
 30
0.0
 11
15.481
 21
3.509267710199765
 31
0.0
  0
LINE
  5
2DA
330
18
100
AcDbEntity
  8
Object
100
AcDbLine
 10
15.481
 20
3.532267710199765
 30
0.0
 11
15.481
 21
3.570267710199765
 31
0.0
  0
LINE
  5
2DB
330
18
100
AcDbEntity
  8
Object
100
AcDbLine
 10
15.481
 20
3.624267710199765
 30
0.0
 11
15.481
 21
3.692267710199765
 31
0.0
  0
LINE
  5
2DC
330
18
100
AcDbEntity
  8
Object
100
AcDbLine
 10
15.481
 20
3.774267710199765
 30
0.0
 11
15.481
 21
3.870267710199765
 31
0.0
  0
LINE
  5
2DD
330
18
100
AcDbEntity
  8
Object
100
AcDbLine
 10
15.481
 20
3.979267710199765
 30
0.0
 11
15.481
 21
4.100267710199766
 31
0.0
  0
LINE
  5
2DE
330
18
100
AcDbEntity
  8
Object
100
AcDbLine
 10
15.481
 20
4.233267710199765
 30
0.0
 11
15.481
 21
4.377267710199765
 31
0.0
  0
LINE
  5
2DF
330
18
100
AcDbEntity
  8
Object
100
AcDbLine
 10
15.481
 20
4.531267710199765
 30
0.0
 11
15.481
 21
4.694267710199765
 31
0.0
  0
LINE
  5
2E0
330
18
100
AcDbEntity
  8
Object
100
AcDbLine
 10
15.481
 20
4.864267710199765
 30
0.0
 11
15.481
 21
5.042267710199765
 31
0.0
  0
LINE
  5
2E1
330
18
100
AcDbEntity
  8
Object
100
AcDbLine
 10
15.481
 20
5.226267710199765
 30
0.0
 11
15.481
 21
5.414267710199765
 31
0.0
  0
LINE
  5
2E2
330
18
100
AcDbEntity
  8
Object
100
AcDbLine
 10
15.481
 20
5.606267710199765
 30
0.0
 11
15.481
 21
5.799267710199766
 31
0.0
  0
LINE
  5
2E3
330
18
100
AcDbEntity
  8
Object
100
AcDbLine
 10
15.481
 20
5.799267710199766
 30
0.0
 11
15.481
 21
9.430267710199766
 31
0.0
  0
LINE
  5
2E4
330
18
100
AcDbEntity
  8
Object
100
AcDbLine
 10
15.481
 20
5.414267710199765
 30
0.0
 11
15.481
 21
5.606267710199765
 31
0.0
  0
LINE
  5
2E5
330
18
100
AcDbEntity
  8
Object
100
AcDbLine
 10
15.481
 20
5.042267710199765
 30
0.0
 11
15.481
 21
5.226267710199765
 31
0.0
  0
LINE
  5
2E6
330
18
100
AcDbEntity
  8
Object
100
AcDbLine
 10
15.481
 20
4.694267710199765
 30
0.0
 11
15.481
 21
4.864267710199765
 31
0.0
  0
LINE
  5
2E7
330
18
100
AcDbEntity
  8
Object
100
AcDbLine
 10
15.481
 20
4.377267710199765
 30
0.0
 11
15.481
 21
4.531267710199765
 31
0.0
  0
LINE
  5
2E8
330
18
100
AcDbEntity
  8
Object
100
AcDbLine
 10
15.481
 20
4.100267710199766
 30
0.0
 11
15.481
 21
4.233267710199765
 31
0.0
  0
LINE
  5
2E9
330
18
100
AcDbEntity
  8
Object
100
AcDbLine
 10
15.481
 20
3.870267710199765
 30
0.0
 11
15.481
 21
3.979267710199765
 31
0.0
  0
LINE
  5
2EA
330
18
100
AcDbEntity
  8
Object
100
AcDbLine
 10
15.481
 20
3.692267710199765
 30
0.0
 11
15.481
 21
3.774267710199765
 31
0.0
  0
LINE
  5
2EB
330
18
100
AcDbEntity
  8
Object
100
AcDbLine
 10
15.481
 20
3.570267710199765
 30
0.0
 11
15.481
 21
3.624267710199765
 31
0.0
  0
LINE
  5
2EC
330
18
100
AcDbEntity
  8
Object
100
AcDbLine
 10
15.481
 20
3.509267710199765
 30
0.0
 11
15.481
 21
3.532267710199765
 31
0.0
  0
LINE
  5
2ED
330
18
100
AcDbEntity
  8
Object
100
AcDbLine
 10
19.356
 20
9.363267710199766
 30
0.0
 11
17.356
 21
9.398267710199766
 31
0.0
  0
LINE
  5
2EE
330
18
100
AcDbEntity
  8
Object
100
AcDbLine
 10
17.356
 20
9.398267710199766
 30
0.0
 11
17.266
 21
9.399267710199765
 31
0.0
  0
LINE
  5
2EF
330
18
100
AcDbEntity
  8
Object
100
AcDbLine
 10
17.356
 20
9.398267710199766
 30
0.0
 11
17.221
 21
9.400267710199765
 31
0.0
  0
LINE
  5
2F0
330
18
100
AcDbEntity
  8
Object
100
AcDbLine
 10
17.176
 20
9.401267710199766
 30
0.0
 11
17.266
 21
9.399267710199765
 31
0.0
  0
LINE
  5
2F1
330
18
100
AcDbEntity
  8
Object
100
AcDbLine
 10
17.221
 20
9.400267710199765
 30
0.0
 11
17.086
 21
9.402267710199765
 31
0.0
  0
LINE
  5
2F2
330
18
100
AcDbEntity
  8
Object
100
AcDbLine
 10
17.1
 20
9.402267710199765
 30
0.0
 11
17.176
 21
9.401267710199766
 31
0.0
  0
LINE
  5
2F3
330
18
100
AcDbEntity
  8
Object
100
AcDbLine
 10
16.95
 20
9.404267710199766
 30
0.0
 11
16.899
 21
9.406267710199765
 31
0.0
  0
LINE
  5
2F4
330
18
100
AcDbEntity
  8
Object
100
AcDbLine
 10
16.899
 20
9.406267710199765
 30
0.0
 11
16.805
 21
9.407267710199766
 31
0.0
  0
LINE
  5
2F5
330
18
100
AcDbEntity
  8
Object
100
AcDbLine
 10
16.805
 20
9.407267710199766
 30
0.0
 11
16.779
 21
9.407267710199766
 31
0.0
  0
LINE
  5
2F6
330
18
100
AcDbEntity
  8
Object
100
AcDbLine
 10
16.562
 20
9.411267710199766
 30
0.0
 11
16.528
 21
9.412267710199765
 31
0.0
  0
LINE
  5
2F7
330
18
100
AcDbEntity
  8
Object
100
AcDbLine
 10
16.528
 20
9.412267710199765
 30
0.0
 11
16.437
 21
9.414267710199766
 31
0.0
  0
LINE
  5
2F8
330
18
100
AcDbEntity
  8
Object
100
AcDbLine
 10
16.437
 20
9.414267710199766
 30
0.0
 11
16.384
 21
9.414267710199766
 31
0.0
  0
LINE
  5
2F9
330
18
100
AcDbEntity
  8
Object
100
AcDbLine
 10
16.101
 20
9.419267710199765
 30
0.0
 11
16.095
 21
9.420267710199766
 31
0.0
  0
LINE
  5
2FA
330
18
100
AcDbEntity
  8
Object
100
AcDbLine
 10
16.095
 20
9.420267710199766
 30
0.0
 11
16.016
 21
9.421267710199765
 31
0.0
  0
LINE
  5
2FB
330
18
100
AcDbEntity
  8
Object
100
AcDbLine
 10
16.016
 20
9.421267710199765
 30
0.0
 11
15.99
 21
9.421267710199765
 31
0.0
  0
LINE
  5
2FC
330
18
100
AcDbEntity
  8
Object
100
AcDbLine
 10
15.879
 20
9.423267710199766
 30
0.0
 11
15.87
 21
9.424267710199766
 31
0.0
  0
LINE
  5
2FD
330
18
100
AcDbEntity
  8
Object
100
AcDbLine
 10
15.87
 20
9.424267710199766
 30
0.0
 11
15.858
 21
9.424267710199766
 31
0.0
  0
LINE
  5
2FE
330
18
100
AcDbEntity
  8
Object
100
AcDbLine
 10
17.086
 20
9.402267710199765
 30
0.0
 11
15.5
 21
9.430267710199766
 31
0.0
  0
LINE
  5
2FF
330
18
100
AcDbEntity
  8
Object
100
AcDbLine
 10
15.5
 20
9.430267710199766
 30
0.0
 11
15.485
 21
9.430267710199766
 31
0.0
  0
LINE
  5
300
330
18
100
AcDbEntity
  8
Object
100
AcDbLine
 10
15.485
 20
9.430267710199766
 30
0.0
 11
15.481
 21
9.430267710199766
 31
0.0
  0
LINE
  5
301
330
18
100
AcDbEntity
  8
Object
100
AcDbLine
 10
15.481
 20
9.430267710199766
 30
0.0
 11
15.478
 21
9.430267710199766
 31
0.0
  0
LINE
  5
302
330
18
100
AcDbEntity
  8
Object
100
AcDbLine
 10
15.478
 20
9.430267710199766
 30
0.0
 11
15.472
 21
9.431267710199765
 31
0.0
  0
LINE
  5
303
330
18
100
AcDbEntity
  8
Object
100
AcDbLine
 10
15.474
 20
9.430267710199766
 30
0.0
 11
15.496
 21
9.430267710199766
 31
0.0
  0
LINE
  5
304
330
18
100
AcDbEntity
  8
Object
100
AcDbLine
 10
15.472
 20
9.431267710199765
 30
0.0
 11
15.462
 21
9.431267710199765
 31
0.0
  0
LINE
  5
305
330
18
100
AcDbEntity
  8
Object
100
AcDbLine
 10
15.462
 20
9.431267710199765
 30
0.0
 11
15.451
 21
9.431267710199765
 31
0.0
  0
LINE
  5
306
330
18
100
AcDbEntity
  8
Object
100
AcDbLine
 10
15.462
 20
9.431267710199765
 30
0.0
 11
15.433
 21
9.431267710199765
 31
0.0
  0
LINE
  5
307
330
18
100
AcDbEntity
  8
Object
100
AcDbLine
 10
15.433
 20
9.431267710199765
 30
0.0
 11
15.408
 21
9.432267710199765
 31
0.0
  0
LINE
  5
308
330
18
100
AcDbEntity
  8
Object
100
AcDbLine
 10
15.408
 20
9.432267710199765
 30
0.0
 11
15.403
 21
9.432267710199765
 31
0.0
  0
LINE
  5
309
330
18
100
AcDbEntity
  8
Object
100
AcDbLine
 10
15.358
 20
9.433267710199766
 30
0.0
 11
15.358
 21
9.432267710199765
 31
0.0
  0
LINE
  5
30A
330
18
100
AcDbEntity
  8
Object
100
AcDbLine
 10
15.451
 20
9.431267710199765
 30
0.0
 11
15.356
 21
9.433267710199766
 31
0.0
  0
LINE
  5
30B
330
18
100
AcDbEntity
  8
Object
100
AcDbLine
 10
15.356
 20
9.433267710199766
 30
0.0
 11
15.358
 21
9.433267710199766
 31
0.0
  0
LINE
  5
30C
330
18
100
AcDbEntity
  8
Object
100
AcDbLine
 10
17.221
 20
9.400267710199765
 30
0.0
 11
17.356
 21
9.398267710199766
 31
0.0
  0
LINE
  5
30D
330
18
100
AcDbEntity
  8
Object
100
AcDbLine
 10
17.356
 20
9.398267710199766
 30
0.0
 11
17.356
 21
5.946267710199765
 31
0.0
  0
LINE
  5
30E
330
18
100
AcDbEntity
  8
Object
100
AcDbLine
 10
17.221
 20
9.400267710199765
 30
0.0
 11
17.086
 21
9.402267710199765
 31
0.0
  0
LINE
  5
30F
330
18
100
AcDbEntity
  8
Object
100
AcDbLine
 10
17.192
 20
5.945267710199765
 30
0.0
 11
17.03
 21
5.944267710199765
 31
0.0
  0
LINE
  5
310
330
18
100
AcDbEntity
  8
Object
100
AcDbLine
 10
17.03
 20
5.944267710199765
 30
0.0
 11
16.87
 21
5.941267710199765
 31
0.0
  0
LINE
  5
311
330
18
100
AcDbEntity
  8
Object
100
AcDbLine
 10
16.87
 20
5.941267710199765
 30
0.0
 11
16.714
 21
5.938267710199765
 31
0.0
  0
LINE
  5
312
330
18
100
AcDbEntity
  8
Object
100
AcDbLine
 10
16.714
 20
5.938267710199765
 30
0.0
 11
16.563
 21
5.933267710199765
 31
0.0
  0
LINE
  5
313
330
18
100
AcDbEntity
  8
Object
100
AcDbLine
 10
16.563
 20
5.933267710199765
 30
0.0
 11
16.418
 21
5.928267710199765
 31
0.0
  0
LINE
  5
314
330
18
100
AcDbEntity
  8
Object
100
AcDbLine
 10
16.409
 20
9.345267710199765
 30
0.0
 11
16.395
 21
9.345267710199765
 31
0.0
  0
LINE
  5
315
330
18
100
AcDbEntity
  8
Object
100
AcDbLine
 10
16.28
 20
5.922267710199765
 30
0.0
 11
16.418
 21
5.928267710199765
 31
0.0
  0
LINE
  5
316
330
18
100
AcDbEntity
  8
Object
100
AcDbLine
 10
16.395
 20
9.345267710199765
 30
0.0
 11
16.384
 21
9.345267710199765
 31
0.0
  0
LINE
  5
317
330
18
100
AcDbEntity
  8
Object
100
AcDbLine
 10
16.28
 20
5.922267710199765
 30
0.0
 11
16.15
 21
5.915267710199765
 31
0.0
  0
LINE
  5
318
330
18
100
AcDbEntity
  8
Object
100
AcDbLine
 10
16.15
 20
5.915267710199765
 30
0.0
 11
16.03
 21
5.907267710199765
 31
0.0
  0
LINE
  5
319
330
18
100
AcDbEntity
  8
Object
100
AcDbLine
 10
16.03
 20
5.907267710199765
 30
0.0
 11
15.919
 21
5.899267710199765
 31
0.0
  0
LINE
  5
31A
330
18
100
AcDbEntity
  8
Object
100
AcDbLine
 10
15.919
 20
5.899267710199765
 30
0.0
 11
15.82
 21
5.890267710199766
 31
0.0
  0
LINE
  5
31B
330
18
100
AcDbEntity
  8
Object
100
AcDbLine
 10
15.82
 20
5.890267710199766
 30
0.0
 11
15.732
 21
5.880267710199765
 31
0.0
  0
LINE
  5
31C
330
18
100
AcDbEntity
  8
Object
100
AcDbLine
 10
15.732
 20
5.880267710199765
 30
0.0
 11
15.656
 21
5.870267710199765
 31
0.0
  0
LINE
  5
31D
330
18
100
AcDbEntity
  8
Object
100
AcDbLine
 10
15.656
 20
5.870267710199765
 30
0.0
 11
15.594
 21
5.860267710199766
 31
0.0
  0
LINE
  5
31E
330
18
100
AcDbEntity
  8
Object
100
AcDbLine
 10
15.593
 20
9.331267710199766
 30
0.0
 11
15.563
 21
9.331267710199766
 31
0.0
  0
LINE
  5
31F
330
18
100
AcDbEntity
  8
Object
100
AcDbLine
 10
15.563
 20
9.331267710199766
 30
0.0
 11
15.538
 21
9.330267710199766
 31
0.0
  0
LINE
  5
320
330
18
100
AcDbEntity
  8
Object
100
AcDbLine
 10
15.485
 20
9.430267710199766
 30
0.0
 11
15.5
 21
9.430267710199766
 31
0.0
  0
LINE
  5
321
330
18
100
AcDbEntity
  8
Object
100
AcDbLine
 10
15.5
 20
9.430267710199766
 30
0.0
 11
15.5
 21
9.330267710199766
 31
0.0
  0
LINE
  5
322
330
18
100
AcDbEntity
  8
Object
100
AcDbLine
 10
15.485
 20
9.430267710199766
 30
0.0
 11
15.481
 21
9.430267710199766
 31
0.0
  0
LINE
  5
323
330
18
100
AcDbEntity
  8
Object
100
AcDbLine
 10
15.481
 20
3.501267710199766
 30
0.0
 11
15.477
 21
3.486267710199765
 31
0.0
  0
LINE
  5
324
330
18
100
AcDbEntity
  8
Object
100
AcDbLine
 10
15.477
 20
3.486267710199765
 30
0.0
 11
15.466
 21
3.475267710199766
 31
0.0
  0
LINE
  5
325
330
18
100
AcDbEntity
  8
Object
100
AcDbLine
 10
15.466
 20
3.475267710199766
 30
0.0
 11
15.451
 21
3.471267710199765
 31
0.0
  0
LINE
  5
326
330
18
100
AcDbEntity
  8
Object
100
AcDbLine
 10
15.486
 20
3.691267710199765
 30
0.0
 11
15.486
 21
3.591267710199765
 31
0.0
  0
LINE
  5
327
330
18
100
AcDbEntity
  8
Object
100
AcDbLine
 10
15.486
 20
3.591267710199765
 30
0.0
 11
15.481
 21
3.591267710199765
 31
0.0
  0
LINE
  5
328
330
18
100
AcDbEntity
  8
Object
100
AcDbLine
 10
15.486
 20
3.691267710199765
 30
0.0
 11
15.481
 21
3.691267710199765
 31
0.0
  0
LINE
  5
329
330
18
100
AcDbEntity
  8
Object
100
AcDbLine
 10
15.478
 20
9.430267710199766
 30
0.0
 11
15.481
 21
9.430267710199766
 31
0.0
  0
LINE
  5
32A
330
18
100
AcDbEntity
  8
Object
100
AcDbLine
 10
15.481
 20
9.430267710199766
 30
0.0
 11
15.481
 21
5.799267710199766
 31
0.0
  0
LINE
  5
32B
330
18
100
AcDbEntity
  8
Object
100
AcDbLine
 10
15.478
 20
9.430267710199766
 30
0.0
 11
15.472
 21
9.431267710199765
 31
0.0
  0
LINE
  5
32C
330
18
100
AcDbEntity
  8
Object
100
AcDbLine
 10
15.472
 20
9.431267710199765
 30
0.0
 11
15.462
 21
9.431267710199765
 31
0.0
  0
LINE
  5
32D
330
18
100
AcDbEntity
  8
Object
100
AcDbLine
 10
15.462
 20
9.431267710199765
 30
0.0
 11
15.451
 21
9.431267710199765
 31
0.0
  0
LINE
  5
32E
330
18
100
AcDbEntity
  8
Object
100
AcDbLine
 10
17.133
 20
5.582267710199765
 30
0.0
 11
17.185
 21
5.589267710199766
 31
0.0
  0
LINE
  5
32F
330
18
100
AcDbEntity
  8
Object
100
AcDbLine
 10
16.928
 20
5.546267710199765
 30
0.0
 11
17.025
 21
5.567267710199765
 31
0.0
  0
LINE
  5
330
330
18
100
AcDbEntity
  8
Object
100
AcDbLine
 10
16.781
 20
5.505267710199765
 30
0.0
 11
16.858
 21
5.529267710199765
 31
0.0
  0
LINE
  5
331
330
18
100
AcDbEntity
  8
Object
100
AcDbLine
 10
16.629
 20
5.449267710199765
 30
0.0
 11
16.695
 21
5.476267710199765
 31
0.0
  0
LINE
  5
332
330
18
100
AcDbEntity
  8
Object
100
AcDbLine
 10
16.476
 20
5.376267710199766
 30
0.0
 11
16.537
 21
5.408267710199766
 31
0.0
  0
LINE
  5
333
330
18
100
AcDbEntity
  8
Object
100
AcDbLine
 10
16.322
 20
5.285267710199765
 30
0.0
 11
16.396
 21
5.331267710199766
 31
0.0
  0
LINE
  5
334
330
18
100
AcDbEntity
  8
Object
100
AcDbLine
 10
16.195
 20
5.193267710199766
 30
0.0
 11
16.25
 21
5.235267710199766
 31
0.0
  0
LINE
  5
335
330
18
100
AcDbEntity
  8
Object
100
AcDbLine
 10
16.052
 20
5.068267710199766
 30
0.0
 11
16.123
 21
5.133267710199765
 31
0.0
  0
LINE
  5
336
330
18
100
AcDbEntity
  8
Object
100
AcDbLine
 10
15.942
 20
4.952267710199765
 30
0.0
 11
16.008
 21
5.024267710199765
 31
0.0
  0
LINE
  5
337
330
18
100
AcDbEntity
  8
Object
100
AcDbLine
 10
15.832
 20
4.814267710199765
 30
0.0
 11
15.895
 21
4.895267710199766
 31
0.0
  0
LINE
  5
338
330
18
100
AcDbEntity
  8
Object
100
AcDbLine
 10
15.741
 20
4.674267710199766
 30
0.0
 11
15.802
 21
4.770267710199766
 31
0.0
  0
LINE
  5
339
330
18
100
AcDbEntity
  8
Object
100
AcDbLine
 10
15.664
 20
4.530267710199765
 30
0.0
 11
15.713
 21
4.624267710199765
 31
0.0
  0
LINE
  5
33A
330
18
100
AcDbEntity
  8
Object
100
AcDbLine
 10
15.637
 20
4.468267710199765
 30
0.0
 11
15.642
 21
4.479267710199765
 31
0.0
  0
LINE
  5
33B
330
18
100
AcDbEntity
  8
Object
100
AcDbLine
 10
15.597
 20
4.370267710199765
 30
0.0
 11
15.638
 21
4.470267710199765
 31
0.0
  0
LINE
  5
33C
330
18
100
AcDbEntity
  8
Object
100
AcDbLine
 10
15.58
 20
4.320267710199765
 30
0.0
 11
15.603
 21
4.385267710199766
 31
0.0
  0
LINE
  5
33D
330
18
100
AcDbEntity
  8
Object
100
AcDbLine
 10
15.548
 20
4.220267710199765
 30
0.0
 11
15.581
 21
4.323267710199765
 31
0.0
  0
LINE
  5
33E
330
18
100
AcDbEntity
  8
Object
100
AcDbLine
 10
15.536
 20
4.172267710199765
 30
0.0
 11
15.555
 21
4.244267710199766
 31
0.0
  0
LINE
  5
33F
330
18
100
AcDbEntity
  8
Object
100
AcDbLine
 10
15.509
 20
4.051267710199765
 30
0.0
 11
15.529
 21
4.141267710199765
 31
0.0
  0
LINE
  5
340
330
18
100
AcDbEntity
  8
Object
100
AcDbLine
 10
15.506
 20
4.025267710199765
 30
0.0
 11
15.518
 21
4.091267710199765
 31
0.0
  0
LINE
  5
341
330
18
100
AcDbEntity
  8
Object
100
AcDbLine
 10
15.488
 20
3.890267710199765
 30
0.0
 11
15.499
 21
3.975267710199766
 31
0.0
  0
LINE
  5
342
330
18
100
AcDbEntity
  8
Object
100
AcDbLine
 10
15.481
 20
3.591267710199765
 30
0.0
 11
15.486
 21
3.591267710199765
 31
0.0
  0
LINE
  5
343
330
18
100
AcDbEntity
  8
Object
100
AcDbLine
 10
17.356
 20
5.946267710199765
 30
0.0
 11
17.356
 21
5.876267710199766
 31
0.0
  0
LINE
  5
344
330
18
100
AcDbEntity
  8
Object
100
AcDbLine
 10
17.356
 20
5.876267710199766
 30
0.0
 11
17.356
 21
5.810267710199766
 31
0.0
  0
LINE
  5
345
330
18
100
AcDbEntity
  8
Object
100
AcDbLine
 10
17.356
 20
5.946267710199765
 30
0.0
 11
17.192
 21
5.945267710199765
 31
0.0
  0
LINE
  5
346
330
18
100
AcDbEntity
  8
Object
100
AcDbLine
 10
17.183
 20
5.589267710199766
 30
0.0
 11
17.356
 21
5.597267710199766
 31
0.0
  0
LINE
  5
347
330
18
100
AcDbEntity
  8
Object
100
AcDbLine
 10
17.356
 20
5.810267710199766
 30
0.0
 11
17.356
 21
5.750267710199765
 31
0.0
  0
LINE
  5
348
330
18
100
AcDbEntity
  8
Object
100
AcDbLine
 10
17.356
 20
5.750267710199765
 30
0.0
 11
17.356
 21
5.698267710199766
 31
0.0
  0
LINE
  5
349
330
18
100
AcDbEntity
  8
Object
100
AcDbLine
 10
17.356
 20
5.698267710199766
 30
0.0
 11
17.356
 21
5.655267710199765
 31
0.0
  0
LINE
  5
34A
330
18
100
AcDbEntity
  8
Object
100
AcDbLine
 10
17.356
 20
5.655267710199765
 30
0.0
 11
17.356
 21
5.623267710199765
 31
0.0
  0
LINE
  5
34B
330
18
100
AcDbEntity
  8
Object
100
AcDbLine
 10
17.356
 20
5.623267710199765
 30
0.0
 11
17.356
 21
5.603267710199765
 31
0.0
  0
LINE
  5
34C
330
18
100
AcDbEntity
  8
Object
100
AcDbLine
 10
17.356
 20
5.603267710199765
 30
0.0
 11
17.356
 21
5.597267710199766
 31
0.0
  0
LINE
  5
34D
330
18
100
AcDbEntity
  8
Object
100
AcDbLine
 10
17.183
 20
5.589267710199766
 30
0.0
 11
17.011
 21
5.565267710199766
 31
0.0
  0
LINE
  5
34E
330
18
100
AcDbEntity
  8
Object
100
AcDbLine
 10
17.011
 20
5.565267710199766
 30
0.0
 11
16.842
 21
5.525267710199766
 31
0.0
  0
LINE
  5
34F
330
18
100
AcDbEntity
  8
Object
100
AcDbLine
 10
16.842
 20
5.525267710199766
 30
0.0
 11
16.678
 21
5.470267710199765
 31
0.0
  0
LINE
  5
350
330
18
100
AcDbEntity
  8
Object
100
AcDbLine
 10
16.678
 20
5.470267710199765
 30
0.0
 11
16.52
 21
5.400267710199766
 31
0.0
  0
LINE
  5
351
330
18
100
AcDbEntity
  8
Object
100
AcDbLine
 10
16.52
 20
5.400267710199766
 30
0.0
 11
16.368
 21
5.316267710199765
 31
0.0
  0
LINE
  5
352
330
18
100
AcDbEntity
  8
Object
100
AcDbLine
 10
16.368
 20
5.316267710199765
 30
0.0
 11
16.226
 21
5.218267710199765
 31
0.0
  0
LINE
  5
353
330
18
100
AcDbEntity
  8
Object
100
AcDbLine
 10
16.226
 20
5.218267710199765
 30
0.0
 11
16.092
 21
5.108267710199766
 31
0.0
  0
LINE
  5
354
330
18
100
AcDbEntity
  8
Object
100
AcDbLine
 10
16.092
 20
5.108267710199766
 30
0.0
 11
15.97
 21
4.985267710199766
 31
0.0
  0
LINE
  5
355
330
18
100
AcDbEntity
  8
Object
100
AcDbLine
 10
15.97
 20
4.985267710199766
 30
0.0
 11
15.859
 21
4.852267710199765
 31
0.0
  0
LINE
  5
356
330
18
100
AcDbEntity
  8
Object
100
AcDbLine
 10
15.859
 20
4.852267710199765
 30
0.0
 11
15.761
 21
4.709267710199766
 31
0.0
  0
LINE
  5
357
330
18
100
AcDbEntity
  8
Object
100
AcDbLine
 10
15.761
 20
4.709267710199766
 30
0.0
 11
15.677
 21
4.558267710199766
 31
0.0
  0
LINE
  5
358
330
18
100
AcDbEntity
  8
Object
100
AcDbLine
 10
15.677
 20
4.558267710199766
 30
0.0
 11
15.607
 21
4.400267710199765
 31
0.0
  0
LINE
  5
359
330
18
100
AcDbEntity
  8
Object
100
AcDbLine
 10
15.607
 20
4.400267710199765
 30
0.0
 11
15.552
 21
4.236267710199765
 31
0.0
  0
LINE
  5
35A
330
18
100
AcDbEntity
  8
Object
100
AcDbLine
 10
15.594
 20
5.860267710199766
 30
0.0
 11
15.544
 21
5.849267710199765
 31
0.0
  0
LINE
  5
35B
330
18
100
AcDbEntity
  8
Object
100
AcDbLine
 10
15.512
 20
4.067267710199765
 30
0.0
 11
15.552
 21
4.236267710199765
 31
0.0
  0
LINE
  5
35C
330
18
100
AcDbEntity
  8
Object
100
AcDbLine
 10
15.544
 20
5.849267710199765
 30
0.0
 11
15.509
 21
5.838267710199765
 31
0.0
  0
LINE
  5
35D
330
18
100
AcDbEntity
  8
Object
100
AcDbLine
 10
15.489
 20
3.896267710199765
 30
0.0
 11
15.512
 21
4.067267710199765
 31
0.0
  0
LINE
  5
35E
330
18
100
AcDbEntity
  8
Object
100
AcDbLine
 10
15.509
 20
5.838267710199765
 30
0.0
 11
15.488
 21
5.826267710199766
 31
0.0
  0
LINE
  5
35F
330
18
100
AcDbEntity
  8
Object
100
AcDbLine
 10
15.488
 20
5.826267710199766
 30
0.0
 11
15.481
 21
5.815267710199766
 31
0.0
  0
LINE
  5
360
330
18
100
AcDbEntity
  8
Object
100
AcDbLine
 10
15.481
 20
3.721267710199765
 30
0.0
 11
15.489
 21
3.896267710199765
 31
0.0
  0
LINE
  5
361
330
18
100
AcDbEntity
  8
Object
100
AcDbLine
 10
15.486
 20
3.691267710199765
 30
0.0
 11
15.481
 21
3.691267710199765
 31
0.0
  0
LINE
  5
362
330
18
100
AcDbEntity
  8
Object
100
AcDbLine
 10
15.477
 20
5.798267710199765
 30
0.0
 11
15.481
 21
5.799267710199766
 31
0.0
  0
LINE
  5
363
330
18
100
AcDbEntity
  8
Object
100
AcDbLine
 10
15.481
 20
5.799267710199766
 30
0.0
 11
15.481
 21
5.606267710199765
 31
0.0
  0
LINE
  5
364
330
18
100
AcDbEntity
  8
Object
100
AcDbLine
 10
15.481
 20
5.226267710199765
 30
0.0
 11
15.481
 21
5.414267710199765
 31
0.0
  0
LINE
  5
365
330
18
100
AcDbEntity
  8
Object
100
AcDbLine
 10
15.481
 20
5.414267710199765
 30
0.0
 11
15.481
 21
5.606267710199765
 31
0.0
  0
LINE
  5
366
330
18
100
AcDbEntity
  8
Object
100
AcDbLine
 10
15.481
 20
4.864267710199765
 30
0.0
 11
15.481
 21
5.042267710199765
 31
0.0
  0
LINE
  5
367
330
18
100
AcDbEntity
  8
Object
100
AcDbLine
 10
15.481
 20
5.042267710199765
 30
0.0
 11
15.481
 21
5.226267710199765
 31
0.0
  0
LINE
  5
368
330
18
100
AcDbEntity
  8
Object
100
AcDbLine
 10
15.481
 20
4.531267710199765
 30
0.0
 11
15.481
 21
4.694267710199765
 31
0.0
  0
LINE
  5
369
330
18
100
AcDbEntity
  8
Object
100
AcDbLine
 10
15.481
 20
4.694267710199765
 30
0.0
 11
15.481
 21
4.864267710199765
 31
0.0
  0
LINE
  5
36A
330
18
100
AcDbEntity
  8
Object
100
AcDbLine
 10
15.481
 20
4.233267710199765
 30
0.0
 11
15.481
 21
4.377267710199765
 31
0.0
  0
LINE
  5
36B
330
18
100
AcDbEntity
  8
Object
100
AcDbLine
 10
15.481
 20
4.377267710199765
 30
0.0
 11
15.481
 21
4.531267710199765
 31
0.0
  0
LINE
  5
36C
330
18
100
AcDbEntity
  8
Object
100
AcDbLine
 10
15.481
 20
3.979267710199765
 30
0.0
 11
15.481
 21
4.100267710199766
 31
0.0
  0
LINE
  5
36D
330
18
100
AcDbEntity
  8
Object
100
AcDbLine
 10
15.481
 20
4.100267710199766
 30
0.0
 11
15.481
 21
4.233267710199765
 31
0.0
  0
LINE
  5
36E
330
18
100
AcDbEntity
  8
Object
100
AcDbLine
 10
15.481
 20
3.624267710199765
 30
0.0
 11
15.481
 21
3.692267710199765
 31
0.0
  0
LINE
  5
36F
330
18
100
AcDbEntity
  8
Object
100
AcDbLine
 10
15.481
 20
3.774267710199765
 30
0.0
 11
15.481
 21
3.870267710199765
 31
0.0
  0
LINE
  5
370
330
18
100
AcDbEntity
  8
Object
100
AcDbLine
 10
15.481
 20
3.870267710199765
 30
0.0
 11
15.481
 21
3.979267710199765
 31
0.0
  0
LINE
  5
371
330
18
100
AcDbEntity
  8
Object
100
AcDbLine
 10
15.481
 20
3.692267710199765
 30
0.0
 11
15.481
 21
3.774267710199765
 31
0.0
  0
LINE
  5
372
330
18
100
AcDbEntity
  8
Object
100
AcDbLine
 10
15.481
 20
3.532267710199765
 30
0.0
 11
15.481
 21
3.570267710199765
 31
0.0
  0
LINE
  5
373
330
18
100
AcDbEntity
  8
Object
100
AcDbLine
 10
15.481
 20
3.501267710199766
 30
0.0
 11
15.481
 21
3.509267710199765
 31
0.0
  0
LINE
  5
374
330
18
100
AcDbEntity
  8
Object
100
AcDbLine
 10
15.481
 20
3.570267710199765
 30
0.0
 11
15.481
 21
3.624267710199765
 31
0.0
  0
LINE
  5
375
330
18
100
AcDbEntity
  8
Object
100
AcDbLine
 10
15.481
 20
3.509267710199765
 30
0.0
 11
15.481
 21
3.532267710199765
 31
0.0
  0
LINE
  5
376
330
18
100
AcDbEntity
  8
Object
100
AcDbLine
 10
15.477
 20
3.486267710199765
 30
0.0
 11
15.481
 21
3.501267710199766
 31
0.0
  0
LINE
  5
377
330
18
100
AcDbEntity
  8
Object
100
AcDbLine
 10
15.477
 20
5.798267710199765
 30
0.0
 11
15.466
 21
5.798267710199765
 31
0.0
  0
LINE
  5
378
330
18
100
AcDbEntity
  8
Object
100
AcDbLine
 10
15.466
 20
3.475267710199766
 30
0.0
 11
15.477
 21
3.486267710199765
 31
0.0
  0
LINE
  5
379
330
18
100
AcDbEntity
  8
Object
100
AcDbLine
 10
15.466
 20
5.798267710199765
 30
0.0
 11
15.451
 21
5.797267710199765
 31
0.0
  0
LINE
  5
37A
330
18
100
AcDbEntity
  8
Object
100
AcDbLine
 10
15.451
 20
3.471267710199765
 30
0.0
 11
15.466
 21
3.475267710199766
 31
0.0
  0
LINE
  5
37B
330
18
100
AcDbEntity
  8
Object
100
AcDbLine
 10
19.356
 20
5.639267710199765
 30
0.0
 11
19.356
 21
5.662267710199765
 31
0.0
  0
LINE
  5
37C
330
18
100
AcDbEntity
  8
Object
100
AcDbLine
 10
19.356
 20
5.700267710199765
 30
0.0
 11
19.356
 21
5.749267710199766
 31
0.0
  0
LINE
  5
37D
330
18
100
AcDbEntity
  8
Object
100
AcDbLine
 10
19.356
 20
5.809267710199765
 30
0.0
 11
19.356
 21
5.876267710199766
 31
0.0
  0
LINE
  5
37E
330
18
100
AcDbEntity
  8
Object
100
AcDbLine
 10
19.356
 20
9.363267710199766
 30
0.0
 11
19.356
 21
5.948267710199766
 31
0.0
  0
LINE
  5
37F
330
18
100
AcDbEntity
  8
Object
100
AcDbLine
 10
19.356
 20
5.948267710199766
 30
0.0
 11
19.356
 21
5.876267710199766
 31
0.0
  0
LINE
  5
380
330
18
100
AcDbEntity
  8
Object
100
AcDbLine
 10
19.356
 20
5.749267710199766
 30
0.0
 11
19.356
 21
5.809267710199765
 31
0.0
  0
LINE
  5
381
330
18
100
AcDbEntity
  8
Object
100
AcDbLine
 10
19.356
 20
5.662267710199765
 30
0.0
 11
19.356
 21
5.700267710199765
 31
0.0
  0
LINE
  5
382
330
18
100
AcDbEntity
  8
Object
100
AcDbLine
 10
19.356
 20
5.632267710199766
 30
0.0
 11
19.356
 21
5.639267710199765
 31
0.0
  0
LINE
  5
383
330
18
100
AcDbEntity
  8
Object
100
AcDbLine
 10
15.356
 20
5.797267710199765
 30
0.0
 11
15.356
 21
9.433267710199766
 31
0.0
  0
LINE
  5
384
330
18
100
AcDbEntity
  8
Object
100
AcDbLine
 10
15.356
 20
9.433267710199766
 30
0.0
 11
15.451
 21
9.431267710199765
 31
0.0
  0
LINE
  5
385
330
18
100
AcDbEntity
  8
Object
100
AcDbLine
 10
15.451
 20
9.431267710199765
 30
0.0
 11
15.451
 21
5.797267710199765
 31
0.0
  0
LINE
  5
386
330
18
100
AcDbEntity
  8
Object
100
AcDbLine
 10
15.356
 20
3.503267710199765
 30
0.0
 11
15.356
 21
3.479267710199765
 31
0.0
  0
LINE
  5
387
330
18
100
AcDbEntity
  8
Object
100
AcDbLine
 10
15.356
 20
3.595267710199765
 30
0.0
 11
15.356
 21
3.541267710199765
 31
0.0
  0
LINE
  5
388
330
18
100
AcDbEntity
  8
Object
100
AcDbLine
 10
15.356
 20
3.747267710199765
 30
0.0
 11
15.356
 21
3.664267710199766
 31
0.0
  0
LINE
  5
389
330
18
100
AcDbEntity
  8
Object
100
AcDbLine
 10
15.356
 20
3.954267710199765
 30
0.0
 11
15.356
 21
3.844267710199765
 31
0.0
  0
LINE
  5
38A
330
18
100
AcDbEntity
  8
Object
100
AcDbLine
 10
15.356
 20
4.212267710199766
 30
0.0
 11
15.356
 21
4.077267710199765
 31
0.0
  0
LINE
  5
38B
330
18
100
AcDbEntity
  8
Object
100
AcDbLine
 10
15.356
 20
4.513267710199765
 30
0.0
 11
15.356
 21
4.358267710199765
 31
0.0
  0
LINE
  5
38C
330
18
100
AcDbEntity
  8
Object
100
AcDbLine
 10
15.356
 20
4.851267710199765
 30
0.0
 11
15.356
 21
4.678267710199765
 31
0.0
  0
LINE
  5
38D
330
18
100
AcDbEntity
  8
Object
100
AcDbLine
 10
15.356
 20
5.217267710199766
 30
0.0
 11
15.356
 21
5.031267710199765
 31
0.0
  0
LINE
  5
38E
330
18
100
AcDbEntity
  8
Object
100
AcDbLine
 10
15.356
 20
5.601267710199765
 30
0.0
 11
15.356
 21
5.407267710199765
 31
0.0
  0
LINE
  5
38F
330
18
100
AcDbEntity
  8
Object
100
AcDbLine
 10
15.356
 20
9.433267710199766
 30
0.0
 11
15.356
 21
5.797267710199765
 31
0.0
  0
LINE
  5
390
330
18
100
AcDbEntity
  8
Object
100
AcDbLine
 10
15.356
 20
5.797267710199765
 30
0.0
 11
15.356
 21
5.601267710199765
 31
0.0
  0
LINE
  5
391
330
18
100
AcDbEntity
  8
Object
100
AcDbLine
 10
15.356
 20
5.407267710199765
 30
0.0
 11
15.356
 21
5.217267710199766
 31
0.0
  0
LINE
  5
392
330
18
100
AcDbEntity
  8
Object
100
AcDbLine
 10
15.356
 20
5.031267710199765
 30
0.0
 11
15.356
 21
4.851267710199765
 31
0.0
  0
LINE
  5
393
330
18
100
AcDbEntity
  8
Object
100
AcDbLine
 10
15.356
 20
4.678267710199765
 30
0.0
 11
15.356
 21
4.513267710199765
 31
0.0
  0
LINE
  5
394
330
18
100
AcDbEntity
  8
Object
100
AcDbLine
 10
15.356
 20
4.358267710199765
 30
0.0
 11
15.356
 21
4.212267710199766
 31
0.0
  0
LINE
  5
395
330
18
100
AcDbEntity
  8
Object
100
AcDbLine
 10
15.356
 20
4.077267710199765
 30
0.0
 11
15.356
 21
3.954267710199765
 31
0.0
  0
LINE
  5
396
330
18
100
AcDbEntity
  8
Object
100
AcDbLine
 10
15.356
 20
3.844267710199765
 30
0.0
 11
15.356
 21
3.747267710199765
 31
0.0
  0
LINE
  5
397
330
18
100
AcDbEntity
  8
Object
100
AcDbLine
 10
15.356
 20
3.664267710199766
 30
0.0
 11
15.356
 21
3.595267710199765
 31
0.0
  0
LINE
  5
398
330
18
100
AcDbEntity
  8
Object
100
AcDbLine
 10
15.356
 20
3.541267710199765
 30
0.0
 11
15.356
 21
3.503267710199765
 31
0.0
  0
LINE
  5
399
330
18
100
AcDbEntity
  8
Object
100
AcDbLine
 10
15.356
 20
3.479267710199765
 30
0.0
 11
15.356
 21
3.471267710199765
 31
0.0
  0
LINE
  5
39A
330
18
100
AcDbEntity
  8
Object
100
AcDbLine
 10
19.356
 20
9.363267710199766
 30
0.0
 11
19.356
 21
5.948267710199766
 31
0.0
  0
LINE
  5
39B
330
18
100
AcDbEntity
  8
Object
100
AcDbLine
 10
19.356
 20
5.948267710199766
 30
0.0
 11
17.356
 21
5.946267710199765
 31
0.0
  0
LINE
  5
39C
330
18
100
AcDbEntity
  8
Object
100
AcDbLine
 10
19.356
 20
9.363267710199766
 30
0.0
 11
17.356
 21
9.398267710199766
 31
0.0
  0
LINE
  5
39D
330
18
100
AcDbEntity
  8
Object
100
AcDbLine
 10
15.5
 20
9.430267710199766
 30
0.0
 11
17.086
 21
9.402267710199765
 31
0.0
  0
LINE
  5
39E
330
18
100
AcDbEntity
  8
Object
100
AcDbLine
 10
17.086
 20
9.402267710199765
 30
0.0
 11
17.086
 21
9.357267710199765
 31
0.0
  0
LINE
  5
39F
330
18
100
AcDbEntity
  8
Object
100
AcDbLine
 10
17.086
 20
9.357267710199765
 30
0.0
 11
15.5
 21
9.330267710199766
 31
0.0
  0
LINE
  5
3A0
330
18
100
AcDbEntity
  8
Object
100
AcDbLine
 10
17.356
 20
9.398267710199766
 30
0.0
 11
17.266
 21
9.399267710199765
 31
0.0
  0
LINE
  5
3A1
330
18
100
AcDbEntity
  8
Object
100
AcDbLine
 10
17.266
 20
9.399267710199765
 30
0.0
 11
17.176
 21
9.401267710199766
 31
0.0
  0
LINE
  5
3A2
330
18
100
AcDbEntity
  8
Object
100
AcDbLine
 10
17.176
 20
9.401267710199766
 30
0.0
 11
17.1
 21
9.402267710199765
 31
0.0
  0
LINE
  5
3A3
330
18
100
AcDbEntity
  8
Object
100
AcDbLine
 10
16.95
 20
9.404267710199766
 30
0.0
 11
16.899
 21
9.406267710199765
 31
0.0
  0
LINE
  5
3A4
330
18
100
AcDbEntity
  8
Object
100
AcDbLine
 10
16.899
 20
9.406267710199765
 30
0.0
 11
16.805
 21
9.407267710199766
 31
0.0
  0
LINE
  5
3A5
330
18
100
AcDbEntity
  8
Object
100
AcDbLine
 10
16.805
 20
9.407267710199766
 30
0.0
 11
16.779
 21
9.407267710199766
 31
0.0
  0
LINE
  5
3A6
330
18
100
AcDbEntity
  8
Object
100
AcDbLine
 10
16.562
 20
9.411267710199766
 30
0.0
 11
16.528
 21
9.412267710199765
 31
0.0
  0
LINE
  5
3A7
330
18
100
AcDbEntity
  8
Object
100
AcDbLine
 10
16.528
 20
9.412267710199765
 30
0.0
 11
16.437
 21
9.414267710199766
 31
0.0
  0
LINE
  5
3A8
330
18
100
AcDbEntity
  8
Object
100
AcDbLine
 10
16.437
 20
9.414267710199766
 30
0.0
 11
16.384
 21
9.414267710199766
 31
0.0
  0
LINE
  5
3A9
330
18
100
AcDbEntity
  8
Object
100
AcDbLine
 10
16.101
 20
9.419267710199765
 30
0.0
 11
16.095
 21
9.420267710199766
 31
0.0
  0
LINE
  5
3AA
330
18
100
AcDbEntity
  8
Object
100
AcDbLine
 10
16.095
 20
9.420267710199766
 30
0.0
 11
16.016
 21
9.421267710199765
 31
0.0
  0
LINE
  5
3AB
330
18
100
AcDbEntity
  8
Object
100
AcDbLine
 10
16.016
 20
9.421267710199765
 30
0.0
 11
15.99
 21
9.421267710199765
 31
0.0
  0
LINE
  5
3AC
330
18
100
AcDbEntity
  8
Object
100
AcDbLine
 10
15.879
 20
9.423267710199766
 30
0.0
 11
15.87
 21
9.424267710199766
 31
0.0
  0
LINE
  5
3AD
330
18
100
AcDbEntity
  8
Object
100
AcDbLine
 10
15.87
 20
9.424267710199766
 30
0.0
 11
15.858
 21
9.424267710199766
 31
0.0
  0
LINE
  5
3AE
330
18
100
AcDbEntity
  8
Object
100
AcDbLine
 10
15.496
 20
9.430267710199766
 30
0.0
 11
15.474
 21
9.430267710199766
 31
0.0
  0
LINE
  5
3AF
330
18
100
AcDbEntity
  8
Object
100
AcDbLine
 10
15.462
 20
9.431267710199765
 30
0.0
 11
15.433
 21
9.431267710199765
 31
0.0
  0
LINE
  5
3B0
330
18
100
AcDbEntity
  8
Object
100
AcDbLine
 10
15.433
 20
9.431267710199765
 30
0.0
 11
15.408
 21
9.432267710199765
 31
0.0
  0
LINE
  5
3B1
330
18
100
AcDbEntity
  8
Object
100
AcDbLine
 10
15.408
 20
9.432267710199765
 30
0.0
 11
15.403
 21
9.432267710199765
 31
0.0
  0
LINE
  5
3B2
330
18
100
AcDbEntity
  8
Object
100
AcDbLine
 10
15.358
 20
9.432267710199765
 30
0.0
 11
15.358
 21
9.433267710199766
 31
0.0
  0
LINE
  5
3B3
330
18
100
AcDbEntity
  8
Object
100
AcDbLine
 10
15.358
 20
9.433267710199766
 30
0.0
 11
15.356
 21
9.433267710199766
 31
0.0
  0
LINE
  5
3B4
330
18
100
AcDbEntity
  8
Object
100
AcDbLine
 10
16.409
 20
9.345267710199765
 30
0.0
 11
16.395
 21
9.345267710199765
 31
0.0
  0
LINE
  5
3B5
330
18
100
AcDbEntity
  8
Object
100
AcDbLine
 10
16.395
 20
9.345267710199765
 30
0.0
 11
16.384
 21
9.345267710199765
 31
0.0
  0
LINE
  5
3B6
330
18
100
AcDbEntity
  8
Object
100
AcDbLine
 10
15.593
 20
9.331267710199766
 30
0.0
 11
15.563
 21
9.331267710199766
 31
0.0
  0
LINE
  5
3B7
330
18
100
AcDbEntity
  8
Object
100
AcDbLine
 10
15.563
 20
9.331267710199766
 30
0.0
 11
15.538
 21
9.330267710199766
 31
0.0
  0
LINE
  5
3B8
330
18
100
AcDbEntity
  8
Object
100
AcDbLine
 10
15.5
 20
9.330267710199766
 30
0.0
 11
17.086
 21
9.357267710199765
 31
0.0
  0
LINE
  5
3B9
330
18
100
AcDbEntity
  8
Object
100
AcDbLine
 10
15.356
 20
3.471267710199765
 30
0.0
 11
15.451
 21
3.471267710199765
 31
0.0
  0
LINE
  5
3BA
330
18
100
AcDbEntity
  8
Object
100
AcDbLine
 10
15.486
 20
3.591267710199765
 30
0.0
 11
15.486
 21
3.691267710199765
 31
0.0
  0
LINE
  5
3BB
330
18
100
AcDbEntity
  8
Object
100
AcDbLine
 10
15.502
 20
3.993267710199765
 30
0.0
 11
17.083
 21
5.575267710199765
 31
0.0
  0
LINE
  5
3BC
330
18
100
AcDbEntity
  8
Object
100
AcDbLine
 10
16.212
 20
5.206267710199766
 30
0.0
 11
16.19
 21
5.188267710199765
 31
0.0
  0
LINE
  5
3BD
330
18
100
AcDbEntity
  8
Object
100
AcDbLine
 10
16.327
 20
5.288267710199765
 30
0.0
 11
16.319
 21
5.283267710199766
 31
0.0
  0
LINE
  5
3BE
330
18
100
AcDbEntity
  8
Object
100
AcDbLine
 10
16.714
 20
5.482267710199765
 30
0.0
 11
16.69
 21
5.474267710199765
 31
0.0
  0
LINE
  5
3BF
330
18
100
AcDbEntity
  8
Object
100
AcDbLine
 10
16.882
 20
5.535267710199765
 30
0.0
 11
16.846
 21
5.525267710199766
 31
0.0
  0
LINE
  5
3C0
330
18
100
AcDbEntity
  8
Object
100
AcDbLine
 10
17.048
 20
5.570267710199765
 30
0.0
 11
16.996
 21
5.561267710199765
 31
0.0
  0
LINE
  5
3C1
330
18
100
AcDbEntity
  8
Object
100
AcDbLine
 10
15.502
 20
3.993267710199765
 30
0.0
 11
17.083
 21
5.575267710199765
 31
0.0
  0
LINE
  5
3C2
330
18
100
AcDbEntity
  8
Object
100
AcDbLine
 10
17.356
 20
5.597267710199766
 30
0.0
 11
19.356
 21
5.632267710199766
 31
0.0
  0
LINE
  5
3C3
330
18
100
AcDbEntity
  8
Object
100
AcDbLine
 10
19.356
 20
5.809267710199765
 30
0.0
 11
19.356
 21
5.876267710199766
 31
0.0
  0
LINE
  5
3C4
330
18
100
AcDbEntity
  8
Object
100
AcDbLine
 10
19.356
 20
5.876267710199766
 30
0.0
 11
19.356
 21
5.948267710199766
 31
0.0
  0
LINE
  5
3C5
330
18
100
AcDbEntity
  8
Object
100
AcDbLine
 10
19.356
 20
5.700267710199765
 30
0.0
 11
19.356
 21
5.749267710199766
 31
0.0
  0
LINE
  5
3C6
330
18
100
AcDbEntity
  8
Object
100
AcDbLine
 10
19.356
 20
5.662267710199765
 30
0.0
 11
19.356
 21
5.639267710199765
 31
0.0
  0
LINE
  5
3C7
330
18
100
AcDbEntity
  8
Object
100
AcDbLine
 10
19.356
 20
5.639267710199765
 30
0.0
 11
19.356
 21
5.632267710199766
 31
0.0
  0
LINE
  5
3C8
330
18
100
AcDbEntity
  8
Object
100
AcDbLine
 10
19.356
 20
5.632267710199766
 30
0.0
 11
17.356
 21
5.597267710199766
 31
0.0
  0
LINE
  5
3C9
330
18
100
AcDbEntity
  8
Object
100
AcDbLine
 10
19.356
 20
5.662267710199765
 30
0.0
 11
19.356
 21
5.700267710199765
 31
0.0
  0
LINE
  5
3CA
330
18
100
AcDbEntity
  8
Object
100
AcDbLine
 10
19.356
 20
5.749267710199766
 30
0.0
 11
19.356
 21
5.809267710199765
 31
0.0
  0
LINE
  5
3CB
330
18
100
AcDbEntity
  8
Object
100
AcDbLine
 10
15.356
 20
5.601267710199765
 30
0.0
 11
15.356
 21
5.797267710199765
 31
0.0
  0
LINE
  5
3CC
330
18
100
AcDbEntity
  8
Object
100
AcDbLine
 10
15.356
 20
5.797267710199765
 30
0.0
 11
15.451
 21
5.797267710199765
 31
0.0
  0
LINE
  5
3CD
330
18
100
AcDbEntity
  8
Object
100
AcDbLine
 10
15.451
 20
5.797267710199765
 30
0.0
 11
15.451
 21
5.601267710199765
 31
0.0
  0
LINE
  5
3CE
330
18
100
AcDbEntity
  8
Object
100
AcDbLine
 10
15.451
 20
5.601267710199765
 30
0.0
 11
15.451
 21
5.407267710199765
 31
0.0
  0
LINE
  5
3CF
330
18
100
AcDbEntity
  8
Object
100
AcDbLine
 10
15.356
 20
5.601267710199765
 30
0.0
 11
15.356
 21
5.407267710199765
 31
0.0
  0
LINE
  5
3D0
330
18
100
AcDbEntity
  8
Object
100
AcDbLine
 10
15.356
 20
5.407267710199765
 30
0.0
 11
15.356
 21
5.217267710199766
 31
0.0
  0
LINE
  5
3D1
330
18
100
AcDbEntity
  8
Object
100
AcDbLine
 10
15.451
 20
5.407267710199765
 30
0.0
 11
15.451
 21
5.217267710199766
 31
0.0
  0
LINE
  5
3D2
330
18
100
AcDbEntity
  8
Object
100
AcDbLine
 10
15.451
 20
5.217267710199766
 30
0.0
 11
15.451
 21
5.031267710199765
 31
0.0
  0
LINE
  5
3D3
330
18
100
AcDbEntity
  8
Object
100
AcDbLine
 10
15.356
 20
5.217267710199766
 30
0.0
 11
15.356
 21
5.031267710199765
 31
0.0
  0
LINE
  5
3D4
330
18
100
AcDbEntity
  8
Object
100
AcDbLine
 10
15.356
 20
5.031267710199765
 30
0.0
 11
15.356
 21
4.851267710199765
 31
0.0
  0
LINE
  5
3D5
330
18
100
AcDbEntity
  8
Object
100
AcDbLine
 10
15.451
 20
5.031267710199765
 30
0.0
 11
15.451
 21
4.851267710199765
 31
0.0
  0
LINE
  5
3D6
330
18
100
AcDbEntity
  8
Object
100
AcDbLine
 10
15.451
 20
4.851267710199765
 30
0.0
 11
15.451
 21
4.678267710199765
 31
0.0
  0
LINE
  5
3D7
330
18
100
AcDbEntity
  8
Object
100
AcDbLine
 10
15.356
 20
4.851267710199765
 30
0.0
 11
15.356
 21
4.678267710199765
 31
0.0
  0
LINE
  5
3D8
330
18
100
AcDbEntity
  8
Object
100
AcDbLine
 10
15.451
 20
4.358267710199765
 30
0.0
 11
15.451
 21
4.513267710199765
 31
0.0
  0
LINE
  5
3D9
330
18
100
AcDbEntity
  8
Object
100
AcDbLine
 10
15.356
 20
4.358267710199765
 30
0.0
 11
15.356
 21
4.513267710199765
 31
0.0
  0
LINE
  5
3DA
330
18
100
AcDbEntity
  8
Object
100
AcDbLine
 10
15.356
 20
4.513267710199765
 30
0.0
 11
15.356
 21
4.678267710199765
 31
0.0
  0
LINE
  5
3DB
330
18
100
AcDbEntity
  8
Object
100
AcDbLine
 10
15.451
 20
4.513267710199765
 30
0.0
 11
15.451
 21
4.678267710199765
 31
0.0
  0
LINE
  5
3DC
330
18
100
AcDbEntity
  8
Object
100
AcDbLine
 10
15.451
 20
4.077267710199765
 30
0.0
 11
15.451
 21
4.212267710199766
 31
0.0
  0
LINE
  5
3DD
330
18
100
AcDbEntity
  8
Object
100
AcDbLine
 10
15.356
 20
4.077267710199765
 30
0.0
 11
15.356
 21
4.212267710199766
 31
0.0
  0
LINE
  5
3DE
330
18
100
AcDbEntity
  8
Object
100
AcDbLine
 10
15.356
 20
4.212267710199766
 30
0.0
 11
15.356
 21
4.358267710199765
 31
0.0
  0
LINE
  5
3DF
330
18
100
AcDbEntity
  8
Object
100
AcDbLine
 10
15.451
 20
4.212267710199766
 30
0.0
 11
15.451
 21
4.358267710199765
 31
0.0
  0
LINE
  5
3E0
330
18
100
AcDbEntity
  8
Object
100
AcDbLine
 10
15.356
 20
4.077267710199765
 30
0.0
 11
15.356
 21
3.954267710199765
 31
0.0
  0
LINE
  5
3E1
330
18
100
AcDbEntity
  8
Object
100
AcDbLine
 10
15.451
 20
3.954267710199765
 30
0.0
 11
15.451
 21
4.077267710199765
 31
0.0
  0
LINE
  5
3E2
330
18
100
AcDbEntity
  8
Object
100
AcDbLine
 10
15.451
 20
3.664267710199766
 30
0.0
 11
15.451
 21
3.747267710199765
 31
0.0
  0
LINE
  5
3E3
330
18
100
AcDbEntity
  8
Object
100
AcDbLine
 10
15.356
 20
3.747267710199765
 30
0.0
 11
15.356
 21
3.664267710199766
 31
0.0
  0
LINE
  5
3E4
330
18
100
AcDbEntity
  8
Object
100
AcDbLine
 10
15.451
 20
3.844267710199765
 30
0.0
 11
15.451
 21
3.954267710199765
 31
0.0
  0
LINE
  5
3E5
330
18
100
AcDbEntity
  8
Object
100
AcDbLine
 10
15.356
 20
3.954267710199765
 30
0.0
 11
15.356
 21
3.844267710199765
 31
0.0
  0
LINE
  5
3E6
330
18
100
AcDbEntity
  8
Object
100
AcDbLine
 10
15.356
 20
3.844267710199765
 30
0.0
 11
15.356
 21
3.747267710199765
 31
0.0
  0
LINE
  5
3E7
330
18
100
AcDbEntity
  8
Object
100
AcDbLine
 10
15.451
 20
3.747267710199765
 30
0.0
 11
15.451
 21
3.844267710199765
 31
0.0
  0
LINE
  5
3E8
330
18
100
AcDbEntity
  8
Object
100
AcDbLine
 10
15.356
 20
3.664267710199766
 30
0.0
 11
15.356
 21
3.595267710199765
 31
0.0
  0
LINE
  5
3E9
330
18
100
AcDbEntity
  8
Object
100
AcDbLine
 10
15.451
 20
3.595267710199765
 30
0.0
 11
15.451
 21
3.664267710199766
 31
0.0
  0
LINE
  5
3EA
330
18
100
AcDbEntity
  8
Object
100
AcDbLine
 10
15.451
 20
3.479267710199765
 30
0.0
 11
15.451
 21
3.503267710199765
 31
0.0
  0
LINE
  5
3EB
330
18
100
AcDbEntity
  8
Object
100
AcDbLine
 10
15.356
 20
3.503267710199765
 30
0.0
 11
15.356
 21
3.479267710199765
 31
0.0
  0
LINE
  5
3EC
330
18
100
AcDbEntity
  8
Object
100
AcDbLine
 10
15.451
 20
3.541267710199765
 30
0.0
 11
15.451
 21
3.595267710199765
 31
0.0
  0
LINE
  5
3ED
330
18
100
AcDbEntity
  8
Object
100
AcDbLine
 10
15.356
 20
3.595267710199765
 30
0.0
 11
15.356
 21
3.541267710199765
 31
0.0
  0
LINE
  5
3EE
330
18
100
AcDbEntity
  8
Object
100
AcDbLine
 10
15.356
 20
3.541267710199765
 30
0.0
 11
15.356
 21
3.503267710199765
 31
0.0
  0
LINE
  5
3EF
330
18
100
AcDbEntity
  8
Object
100
AcDbLine
 10
15.451
 20
3.503267710199765
 30
0.0
 11
15.451
 21
3.541267710199765
 31
0.0
  0
LINE
  5
3F0
330
18
100
AcDbEntity
  8
Object
100
AcDbLine
 10
15.356
 20
3.479267710199765
 30
0.0
 11
15.356
 21
3.471267710199765
 31
0.0
  0
LINE
  5
3F1
330
18
100
AcDbEntity
  8
Object
100
AcDbLine
 10
15.451
 20
3.479267710199765
 30
0.0
 11
15.451
 21
3.471267710199765
 31
0.0
  0
LINE
  5
3F2
330
18
100
AcDbEntity
  8
Object
100
AcDbLine
 10
15.451
 20
3.471267710199765
 30
0.0
 11
15.356
 21
3.471267710199765
 31
0.0
  0
LINE
  5
3F3
330
18
100
AcDbEntity
  8
Object
100
AcDbLine
 10
9.615
 20
9.422267710199765
 30
0.0
 11
9.543000000000001
 21
9.421267710199765
 31
0.0
  0
LINE
  5
3F4
330
18
100
AcDbEntity
  8
Object
100
AcDbLine
 10
9.543000000000001
 20
9.421267710199765
 30
0.0
 11
9.476
 21
9.420267710199766
 31
0.0
  0
LINE
  5
3F5
330
18
100
AcDbEntity
  8
Object
100
AcDbLine
 10
9.476
 20
9.420267710199766
 30
0.0
 11
9.413
 21
9.418267710199765
 31
0.0
  0
LINE
  5
3F6
330
18
100
AcDbEntity
  8
Object
100
AcDbLine
 10
4.224
 20
9.363267710199766
 30
0.0
 11
4.187000000000001
 21
9.398267710199766
 31
0.0
  0
LINE
  5
3F7
330
18
100
AcDbEntity
  8
Object
100
AcDbLine
 10
4.187000000000001
 20
9.398267710199766
 30
0.0
 11
4.185
 21
9.399267710199765
 31
0.0
  0
LINE
  5
3F8
330
18
100
AcDbEntity
  8
Object
100
AcDbLine
 10
4.185
 20
9.399267710199765
 30
0.0
 11
4.178
 21
9.401267710199766
 31
0.0
  0
LINE
  5
3F9
330
18
100
AcDbEntity
  8
Object
100
AcDbLine
 10
4.178
 20
9.401267710199766
 30
0.0
 11
4.167999999999999
 21
9.402267710199765
 31
0.0
  0
LINE
  5
3FA
330
18
100
AcDbEntity
  8
Object
100
AcDbLine
 10
4.167999999999999
 20
9.402267710199765
 30
0.0
 11
4.153
 21
9.404267710199766
 31
0.0
  0
LINE
  5
3FB
330
18
100
AcDbEntity
  8
Object
100
AcDbLine
 10
4.153
 20
9.404267710199766
 30
0.0
 11
4.132999999999999
 21
9.406267710199765
 31
0.0
  0
LINE
  5
3FC
330
18
100
AcDbEntity
  8
Object
100
AcDbLine
 10
4.132999999999999
 20
9.406267710199765
 30
0.0
 11
4.108999999999999
 21
9.407267710199766
 31
0.0
  0
LINE
  5
3FD
330
18
100
AcDbEntity
  8
Object
100
AcDbLine
 10
4.108999999999999
 20
9.407267710199766
 30
0.0
 11
4.079
 21
9.409267710199765
 31
0.0
  0
LINE
  5
3FE
330
18
100
AcDbEntity
  8
Object
100
AcDbLine
 10
4.079
 20
9.409267710199765
 30
0.0
 11
4.044999999999999
 21
9.410267710199766
 31
0.0
  0
LINE
  5
3FF
330
18
100
AcDbEntity
  8
Object
100
AcDbLine
 10
3.669
 20
9.421267710199765
 30
0.0
 11
3.597999999999998
 21
9.422267710199765
 31
0.0
  0
LINE
  5
400
330
18
100
AcDbEntity
  8
Object
100
AcDbLine
 10
3.597999999999998
 20
9.422267710199765
 30
0.0
 11
3.522
 21
9.424267710199766
 31
0.0
  0
LINE
  5
401
330
18
100
AcDbEntity
  8
Object
100
AcDbLine
 10
3.522
 20
9.424267710199766
 30
0.0
 11
3.443999999999999
 21
9.425267710199765
 31
0.0
  0
LINE
  5
402
330
18
100
AcDbEntity
  8
Object
100
AcDbLine
 10
3.443999999999999
 20
9.425267710199765
 30
0.0
 11
3.362
 21
9.426267710199766
 31
0.0
  0
LINE
  5
403
330
18
100
AcDbEntity
  8
Object
100
AcDbLine
 10
3.362
 20
9.426267710199766
 30
0.0
 11
3.277000000000001
 21
9.427267710199766
 31
0.0
  0
LINE
  5
404
330
18
100
AcDbEntity
  8
Object
100
AcDbLine
 10
3.277000000000001
 20
9.427267710199766
 30
0.0
 11
3.189999999999999
 21
9.428267710199765
 31
0.0
  0
LINE
  5
405
330
18
100
AcDbEntity
  8
Object
100
AcDbLine
 10
3.189999999999999
 20
9.428267710199765
 30
0.0
 11
3.099999999999999
 21
9.429267710199765
 31
0.0
  0
LINE
  5
406
330
18
100
AcDbEntity
  8
Object
100
AcDbLine
 10
3.099999999999999
 20
9.429267710199765
 30
0.0
 11
3.009999999999999
 21
9.429267710199765
 31
0.0
  0
LINE
  5
407
330
18
100
AcDbEntity
  8
Object
100
AcDbLine
 10
3.009999999999999
 20
9.429267710199765
 30
0.0
 11
2.917999999999999
 21
9.430267710199766
 31
0.0
  0
LINE
  5
408
330
18
100
AcDbEntity
  8
Object
100
AcDbLine
 10
2.917999999999999
 20
9.430267710199766
 30
0.0
 11
2.824999999999999
 21
9.431267710199765
 31
0.0
  0
LINE
  5
409
330
18
100
AcDbEntity
  8
Object
100
AcDbLine
 10
2.824999999999999
 20
9.431267710199765
 30
0.0
 11
2.730999999999999
 21
9.431267710199765
 31
0.0
  0
LINE
  5
40A
330
18
100
AcDbEntity
  8
Object
100
AcDbLine
 10
2.730999999999999
 20
9.431267710199765
 30
0.0
 11
2.637999999999999
 21
9.432267710199765
 31
0.0
  0
LINE
  5
40B
330
18
100
AcDbEntity
  8
Object
100
AcDbLine
 10
2.637999999999999
 20
9.432267710199765
 30
0.0
 11
2.544
 21
9.432267710199765
 31
0.0
  0
LINE
  5
40C
330
18
100
AcDbEntity
  8
Object
100
AcDbLine
 10
2.544
 20
9.432267710199765
 30
0.0
 11
2.451
 21
9.432267710199765
 31
0.0
  0
LINE
  5
40D
330
18
100
AcDbEntity
  8
Object
100
AcDbLine
 10
1.928
 20
9.433267710199766
 30
0.0
 11
1.928
 21
9.431267710199765
 31
0.0
  0
LINE
  5
40E
330
18
100
AcDbEntity
  8
Object
100
AcDbLine
 10
1.928
 20
9.431267710199765
 30
0.0
 11
2.182
 21
5.797267710199765
 31
0.0
  0
LINE
  5
40F
330
18
100
AcDbEntity
  8
Object
100
AcDbLine
 10
8.989
 20
9.363267710199766
 30
0.0
 11
8.75
 21
5.957267710199765
 31
0.0
  0
LINE
  5
410
330
18
100
AcDbEntity
  8
Object
100
AcDbLine
 10
8.75
 20
5.957267710199765
 30
0.0
 11
8.74
 21
5.904267710199765
 31
0.0
  0
LINE
  5
411
330
18
100
AcDbEntity
  8
Object
100
AcDbLine
 10
8.74
 20
5.904267710199765
 30
0.0
 11
8.717
 21
5.856267710199765
 31
0.0
  0
LINE
  5
412
330
18
100
AcDbEntity
  8
Object
100
AcDbLine
 10
8.717
 20
5.856267710199765
 30
0.0
 11
8.682999999999999
 21
5.814267710199765
 31
0.0
  0
LINE
  5
413
330
18
100
AcDbEntity
  8
Object
100
AcDbLine
 10
8.682999999999999
 20
5.814267710199765
 30
0.0
 11
8.638999999999999
 21
5.783267710199766
 31
0.0
  0
LINE
  5
414
330
18
100
AcDbEntity
  8
Object
100
AcDbLine
 10
8.638999999999999
 20
5.783267710199766
 30
0.0
 11
8.589
 21
5.763267710199765
 31
0.0
  0
LINE
  5
415
330
18
100
AcDbEntity
  8
Object
100
AcDbLine
 10
8.589
 20
5.763267710199765
 30
0.0
 11
8.535999999999999
 21
5.757267710199766
 31
0.0
  0
LINE
  5
416
330
18
100
AcDbEntity
  8
Object
100
AcDbLine
 10
8.535999999999999
 20
5.757267710199766
 30
0.0
 11
4.676999999999999
 21
5.757267710199766
 31
0.0
  0
LINE
  5
417
330
18
100
AcDbEntity
  8
Object
100
AcDbLine
 10
4.676999999999999
 20
5.757267710199766
 30
0.0
 11
4.623999999999998
 21
5.763267710199765
 31
0.0
  0
LINE
  5
418
330
18
100
AcDbEntity
  8
Object
100
AcDbLine
 10
4.623999999999998
 20
5.763267710199765
 30
0.0
 11
4.573999999999999
 21
5.783267710199766
 31
0.0
  0
LINE
  5
419
330
18
100
AcDbEntity
  8
Object
100
AcDbLine
 10
4.573999999999999
 20
5.783267710199766
 30
0.0
 11
4.530000000000001
 21
5.814267710199765
 31
0.0
  0
LINE
  5
41A
330
18
100
AcDbEntity
  8
Object
100
AcDbLine
 10
4.530000000000001
 20
5.814267710199765
 30
0.0
 11
4.496
 21
5.856267710199765
 31
0.0
  0
LINE
  5
41B
330
18
100
AcDbEntity
  8
Object
100
AcDbLine
 10
4.496
 20
5.856267710199765
 30
0.0
 11
4.472999999999998
 21
5.904267710199765
 31
0.0
  0
LINE
  5
41C
330
18
100
AcDbEntity
  8
Object
100
AcDbLine
 10
4.472999999999998
 20
5.904267710199765
 30
0.0
 11
4.461999999999999
 21
5.957267710199765
 31
0.0
  0
LINE
  5
41D
330
18
100
AcDbEntity
  8
Object
100
AcDbLine
 10
4.461999999999999
 20
5.957267710199765
 30
0.0
 11
4.224
 21
9.363267710199766
 31
0.0
  0
LINE
  5
41E
330
18
100
AcDbEntity
  8
Object
100
AcDbLine
 10
11.03
 20
5.797267710199765
 30
0.0
 11
11.285
 21
9.433267710199766
 31
0.0
  0
LINE
  5
41F
330
18
100
AcDbEntity
  8
Object
100
AcDbLine
 10
11.285
 20
9.433267710199766
 30
0.0
 11
11.033
 21
9.433267710199766
 31
0.0
  0
LINE
  5
420
330
18
100
AcDbEntity
  8
Object
100
AcDbLine
 10
11.03
 20
5.797267710199765
 30
0.0
 11
11.285
 21
9.433267710199766
 31
0.0
  0
LINE
  5
421
330
18
100
AcDbEntity
  8
Object
100
AcDbLine
 10
11.033
 20
9.433267710199766
 30
0.0
 11
10.78
 21
5.815267710199766
 31
0.0
  0
LINE
  5
422
330
18
100
AcDbEntity
  8
Object
100
AcDbLine
 10
11.03
 20
5.797267710199765
 30
0.0
 11
11.009
 21
5.601267710199765
 31
0.0
  0
LINE
  5
423
330
18
100
AcDbEntity
  8
Object
100
AcDbLine
 10
11.009
 20
5.601267710199765
 30
0.0
 11
10.972
 21
5.407267710199765
 31
0.0
  0
LINE
  5
424
330
18
100
AcDbEntity
  8
Object
100
AcDbLine
 10
10.972
 20
5.407267710199765
 30
0.0
 11
10.92
 21
5.217267710199766
 31
0.0
  0
LINE
  5
425
330
18
100
AcDbEntity
  8
Object
100
AcDbLine
 10
10.92
 20
5.217267710199766
 30
0.0
 11
10.853
 21
5.031267710199765
 31
0.0
  0
LINE
  5
426
330
18
100
AcDbEntity
  8
Object
100
AcDbLine
 10
10.853
 20
5.031267710199765
 30
0.0
 11
10.771
 21
4.851267710199765
 31
0.0
  0
LINE
  5
427
330
18
100
AcDbEntity
  8
Object
100
AcDbLine
 10
10.771
 20
4.851267710199765
 30
0.0
 11
10.676
 21
4.678267710199765
 31
0.0
  0
LINE
  5
428
330
18
100
AcDbEntity
  8
Object
100
AcDbLine
 10
10.676
 20
4.678267710199765
 30
0.0
 11
10.567
 21
4.513267710199765
 31
0.0
  0
LINE
  5
429
330
18
100
AcDbEntity
  8
Object
100
AcDbLine
 10
10.567
 20
4.513267710199765
 30
0.0
 11
10.446
 21
4.358267710199765
 31
0.0
  0
LINE
  5
42A
330
18
100
AcDbEntity
  8
Object
100
AcDbLine
 10
10.446
 20
4.358267710199765
 30
0.0
 11
10.312
 21
4.212267710199766
 31
0.0
  0
LINE
  5
42B
330
18
100
AcDbEntity
  8
Object
100
AcDbLine
 10
10.312
 20
4.212267710199766
 30
0.0
 11
10.168
 21
4.077267710199765
 31
0.0
  0
LINE
  5
42C
330
18
100
AcDbEntity
  8
Object
100
AcDbLine
 10
10.168
 20
4.077267710199765
 30
0.0
 11
10.013
 21
3.954267710199765
 31
0.0
  0
LINE
  5
42D
330
18
100
AcDbEntity
  8
Object
100
AcDbLine
 10
10.013
 20
3.954267710199765
 30
0.0
 11
9.849999999999999
 21
3.844267710199765
 31
0.0
  0
LINE
  5
42E
330
18
100
AcDbEntity
  8
Object
100
AcDbLine
 10
9.928
 20
4.204267710199765
 30
0.0
 11
9.775999999999999
 21
4.094267710199765
 31
0.0
  0
LINE
  5
42F
330
18
100
AcDbEntity
  8
Object
100
AcDbLine
 10
9.849999999999999
 20
3.844267710199765
 30
0.0
 11
9.678
 21
3.747267710199765
 31
0.0
  0
LINE
  5
430
330
18
100
AcDbEntity
  8
Object
100
AcDbLine
 10
9.678
 20
3.747267710199765
 30
0.0
 11
9.497999999999999
 21
3.664267710199766
 31
0.0
  0
LINE
  5
431
330
18
100
AcDbEntity
  8
Object
100
AcDbLine
 10
9.615
 20
3.997267710199765
 30
0.0
 11
9.447
 21
3.914267710199766
 31
0.0
  0
LINE
  5
432
330
18
100
AcDbEntity
  8
Object
100
AcDbLine
 10
9.447
 20
3.914267710199766
 30
0.0
 11
9.272999999999999
 21
3.846267710199765
 31
0.0
  0
LINE
  5
433
330
18
100
AcDbEntity
  8
Object
100
AcDbLine
 10
9.497999999999999
 20
3.664267710199766
 30
0.0
 11
9.313
 21
3.595267710199765
 31
0.0
  0
LINE
  5
434
330
18
100
AcDbEntity
  8
Object
100
AcDbLine
 10
9.313
 20
3.595267710199765
 30
0.0
 11
9.122999999999999
 21
3.541267710199765
 31
0.0
  0
LINE
  5
435
330
18
100
AcDbEntity
  8
Object
100
AcDbLine
 10
9.272999999999999
 20
3.846267710199765
 30
0.0
 11
9.092999999999999
 21
3.792267710199766
 31
0.0
  0
LINE
  5
436
330
18
100
AcDbEntity
  8
Object
100
AcDbLine
 10
9.092999999999999
 20
3.792267710199766
 30
0.0
 11
8.909
 21
3.753267710199765
 31
0.0
  0
LINE
  5
437
330
18
100
AcDbEntity
  8
Object
100
AcDbLine
 10
9.122999999999999
 20
3.541267710199765
 30
0.0
 11
8.929999999999999
 21
3.503267710199765
 31
0.0
  0
LINE
  5
438
330
18
100
AcDbEntity
  8
Object
100
AcDbLine
 10
8.929999999999999
 20
3.503267710199765
 30
0.0
 11
8.733999999999999
 21
3.479267710199765
 31
0.0
  0
LINE
  5
439
330
18
100
AcDbEntity
  8
Object
100
AcDbLine
 10
8.909
 20
3.753267710199765
 30
0.0
 11
8.723
 21
3.729267710199765
 31
0.0
  0
LINE
  5
43A
330
18
100
AcDbEntity
  8
Object
100
AcDbLine
 10
8.723
 20
3.729267710199765
 30
0.0
 11
8.535999999999999
 21
3.721267710199765
 31
0.0
  0
LINE
  5
43B
330
18
100
AcDbEntity
  8
Object
100
AcDbLine
 10
8.535999999999999
 20
3.471267710199765
 30
0.0
 11
8.733999999999999
 21
3.479267710199765
 31
0.0
  0
LINE
  5
43C
330
18
100
AcDbEntity
  8
Object
100
AcDbLine
 10
8.535999999999999
 20
3.721267710199765
 30
0.0
 11
4.676999999999999
 21
3.721267710199765
 31
0.0
  0
LINE
  5
43D
330
18
100
AcDbEntity
  8
Object
100
AcDbLine
 10
8.535999999999999
 20
3.471267710199765
 30
0.0
 11
4.676
 21
3.471267710199765
 31
0.0
  0
LINE
  5
43E
330
18
100
AcDbEntity
  8
Object
100
AcDbLine
 10
4.676
 20
3.471267710199765
 30
0.0
 11
4.478999999999999
 21
3.479267710199765
 31
0.0
  0
LINE
  5
43F
330
18
100
AcDbEntity
  8
Object
100
AcDbLine
 10
4.676999999999999
 20
3.721267710199765
 30
0.0
 11
4.489
 21
3.729267710199765
 31
0.0
  0
LINE
  5
440
330
18
100
AcDbEntity
  8
Object
100
AcDbLine
 10
4.489
 20
3.729267710199765
 30
0.0
 11
4.303
 21
3.753267710199765
 31
0.0
  0
LINE
  5
441
330
18
100
AcDbEntity
  8
Object
100
AcDbLine
 10
4.283000000000001
 20
3.503267710199765
 30
0.0
 11
4.478999999999999
 21
3.479267710199765
 31
0.0
  0
LINE
  5
442
330
18
100
AcDbEntity
  8
Object
100
AcDbLine
 10
4.303
 20
3.753267710199765
 30
0.0
 11
4.12
 21
3.792267710199766
 31
0.0
  0
LINE
  5
443
330
18
100
AcDbEntity
  8
Object
100
AcDbLine
 10
4.089
 20
3.541267710199765
 30
0.0
 11
4.283000000000001
 21
3.503267710199765
 31
0.0
  0
LINE
  5
444
330
18
100
AcDbEntity
  8
Object
100
AcDbLine
 10
4.12
 20
3.792267710199766
 30
0.0
 11
3.939999999999999
 21
3.846267710199765
 31
0.0
  0
LINE
  5
445
330
18
100
AcDbEntity
  8
Object
100
AcDbLine
 10
4.089
 20
3.541267710199765
 30
0.0
 11
3.899
 21
3.595267710199765
 31
0.0
  0
LINE
  5
446
330
18
100
AcDbEntity
  8
Object
100
AcDbLine
 10
3.899
 20
3.595267710199765
 30
0.0
 11
3.714
 21
3.664267710199766
 31
0.0
  0
LINE
  5
447
330
18
100
AcDbEntity
  8
Object
100
AcDbLine
 10
3.939999999999999
 20
3.846267710199765
 30
0.0
 11
3.766
 21
3.914267710199766
 31
0.0
  0
LINE
  5
448
330
18
100
AcDbEntity
  8
Object
100
AcDbLine
 10
3.766
 20
3.914267710199766
 30
0.0
 11
3.596999999999999
 21
3.997267710199765
 31
0.0
  0
LINE
  5
449
330
18
100
AcDbEntity
  8
Object
100
AcDbLine
 10
3.535
 20
3.747267710199765
 30
0.0
 11
3.714
 21
3.664267710199766
 31
0.0
  0
LINE
  5
44A
330
18
100
AcDbEntity
  8
Object
100
AcDbLine
 10
3.596999999999999
 20
3.997267710199765
 30
0.0
 11
3.437000000000001
 21
4.094267710199765
 31
0.0
  0
LINE
  5
44B
330
18
100
AcDbEntity
  8
Object
100
AcDbLine
 10
3.362999999999999
 20
3.844267710199765
 30
0.0
 11
3.535
 21
3.747267710199765
 31
0.0
  0
LINE
  5
44C
330
18
100
AcDbEntity
  8
Object
100
AcDbLine
 10
3.437000000000001
 20
4.094267710199765
 30
0.0
 11
3.285
 21
4.204267710199765
 31
0.0
  0
LINE
  5
44D
330
18
100
AcDbEntity
  8
Object
100
AcDbLine
 10
3.362999999999999
 20
3.844267710199765
 30
0.0
 11
3.198999999999999
 21
3.954267710199765
 31
0.0
  0
LINE
  5
44E
330
18
100
AcDbEntity
  8
Object
100
AcDbLine
 10
3.198999999999999
 20
3.954267710199765
 30
0.0
 11
3.044999999999999
 21
4.077267710199765
 31
0.0
  0
LINE
  5
44F
330
18
100
AcDbEntity
  8
Object
100
AcDbLine
 10
3.285
 20
4.204267710199765
 30
0.0
 11
3.141999999999999
 21
4.326267710199765
 31
0.0
  0
LINE
  5
450
330
18
100
AcDbEntity
  8
Object
100
AcDbLine
 10
3.141999999999999
 20
4.326267710199765
 30
0.0
 11
3.010999999999999
 21
4.460267710199765
 31
0.0
  0
LINE
  5
451
330
18
100
AcDbEntity
  8
Object
100
AcDbLine
 10
3.044999999999999
 20
4.077267710199765
 30
0.0
 11
2.9
 21
4.212267710199766
 31
0.0
  0
LINE
  5
452
330
18
100
AcDbEntity
  8
Object
100
AcDbLine
 10
2.9
 20
4.212267710199766
 30
0.0
 11
2.766999999999999
 21
4.358267710199765
 31
0.0
  0
LINE
  5
453
330
18
100
AcDbEntity
  8
Object
100
AcDbLine
 10
3.010999999999999
 20
4.460267710199765
 30
0.0
 11
2.89
 21
4.604267710199765
 31
0.0
  0
LINE
  5
454
330
18
100
AcDbEntity
  8
Object
100
AcDbLine
 10
2.89
 20
4.604267710199765
 30
0.0
 11
2.782999999999999
 21
4.757267710199766
 31
0.0
  0
LINE
  5
455
330
18
100
AcDbEntity
  8
Object
100
AcDbLine
 10
2.766999999999999
 20
4.358267710199765
 30
0.0
 11
2.646
 21
4.513267710199765
 31
0.0
  0
LINE
  5
456
330
18
100
AcDbEntity
  8
Object
100
AcDbLine
 10
2.646
 20
4.513267710199765
 30
0.0
 11
2.536999999999999
 21
4.678267710199765
 31
0.0
  0
LINE
  5
457
330
18
100
AcDbEntity
  8
Object
100
AcDbLine
 10
2.782999999999999
 20
4.757267710199766
 30
0.0
 11
2.688
 21
4.919267710199766
 31
0.0
  0
LINE
  5
458
330
18
100
AcDbEntity
  8
Object
100
AcDbLine
 10
2.688
 20
4.919267710199766
 30
0.0
 11
2.606999999999999
 21
5.089267710199766
 31
0.0
  0
LINE
  5
459
330
18
100
AcDbEntity
  8
Object
100
AcDbLine
 10
2.440999999999998
 20
4.851267710199765
 30
0.0
 11
2.536999999999999
 21
4.678267710199765
 31
0.0
  0
LINE
  5
45A
330
18
100
AcDbEntity
  8
Object
100
AcDbLine
 10
2.606999999999999
 20
5.089267710199766
 30
0.0
 11
2.541
 21
5.264267710199765
 31
0.0
  0
LINE
  5
45B
330
18
100
AcDbEntity
  8
Object
100
AcDbLine
 10
2.359999999999999
 20
5.031267710199765
 30
0.0
 11
2.440999999999998
 21
4.851267710199765
 31
0.0
  0
LINE
  5
45C
330
18
100
AcDbEntity
  8
Object
100
AcDbLine
 10
2.541
 20
5.264267710199765
 30
0.0
 11
2.489
 21
5.444267710199765
 31
0.0
  0
LINE
  5
45D
330
18
100
AcDbEntity
  8
Object
100
AcDbLine
 10
2.292999999999999
 20
5.217267710199766
 30
0.0
 11
2.359999999999999
 21
5.031267710199765
 31
0.0
  0
LINE
  5
45E
330
18
100
AcDbEntity
  8
Object
100
AcDbLine
 10
2.489
 20
5.444267710199765
 30
0.0
 11
2.452999999999999
 21
5.628267710199765
 31
0.0
  0
LINE
  5
45F
330
18
100
AcDbEntity
  8
Object
100
AcDbLine
 10
2.240999999999999
 20
5.407267710199765
 30
0.0
 11
2.292999999999999
 21
5.217267710199766
 31
0.0
  0
LINE
  5
460
330
18
100
AcDbEntity
  8
Object
100
AcDbLine
 10
2.452999999999999
 20
5.628267710199765
 30
0.0
 11
2.432
 21
5.815267710199766
 31
0.0
  0
LINE
  5
461
330
18
100
AcDbEntity
  8
Object
100
AcDbLine
 10
2.240999999999999
 20
5.407267710199765
 30
0.0
 11
2.204
 21
5.601267710199765
 31
0.0
  0
LINE
  5
462
330
18
100
AcDbEntity
  8
Object
100
AcDbLine
 10
2.204
 20
5.601267710199765
 30
0.0
 11
2.182
 21
5.797267710199765
 31
0.0
  0
LINE
  5
463
330
18
100
AcDbEntity
  8
Object
100
AcDbLine
 10
2.432
 20
5.815267710199766
 30
0.0
 11
2.179
 21
9.433267710199766
 31
0.0
  0
LINE
  5
464
330
18
100
AcDbEntity
  8
Object
100
AcDbLine
 10
2.182
 20
5.797267710199765
 30
0.0
 11
1.928
 21
9.433267710199766
 31
0.0
  0
LINE
  5
465
330
18
100
AcDbEntity
  8
Object
100
AcDbLine
 10
1.928
 20
9.433267710199766
 30
0.0
 11
2.179
 21
9.433267710199766
 31
0.0
  0
LINE
  5
466
330
18
100
AcDbEntity
  8
Object
100
AcDbLine
 10
11.033
 20
9.433267710199766
 30
0.0
 11
10.944
 21
9.433267710199766
 31
0.0
  0
LINE
  5
467
330
18
100
AcDbEntity
  8
Object
100
AcDbLine
 10
10.761
 20
9.432267710199765
 30
0.0
 11
10.853
 21
9.432267710199765
 31
0.0
  0
LINE
  5
468
330
18
100
AcDbEntity
  8
Object
100
AcDbLine
 10
10.853
 20
9.432267710199765
 30
0.0
 11
10.944
 21
9.433267710199766
 31
0.0
  0
LINE
  5
469
330
18
100
AcDbEntity
  8
Object
100
AcDbLine
 10
10.78
 20
5.815267710199766
 30
0.0
 11
10.607
 21
5.827267710199765
 31
0.0
  0
LINE
  5
46A
330
18
100
AcDbEntity
  8
Object
100
AcDbLine
 10
10.607
 20
5.827267710199765
 30
0.0
 11
10.434
 21
5.839267710199766
 31
0.0
  0
LINE
  5
46B
330
18
100
AcDbEntity
  8
Object
100
AcDbLine
 10
10.575
 20
9.432267710199765
 30
0.0
 11
10.669
 21
9.432267710199765
 31
0.0
  0
LINE
  5
46C
330
18
100
AcDbEntity
  8
Object
100
AcDbLine
 10
10.669
 20
9.432267710199765
 30
0.0
 11
10.761
 21
9.432267710199765
 31
0.0
  0
LINE
  5
46D
330
18
100
AcDbEntity
  8
Object
100
AcDbLine
 10
10.388
 20
9.431267710199765
 30
0.0
 11
10.482
 21
9.431267710199765
 31
0.0
  0
LINE
  5
46E
330
18
100
AcDbEntity
  8
Object
100
AcDbLine
 10
10.482
 20
9.431267710199765
 30
0.0
 11
10.575
 21
9.432267710199765
 31
0.0
  0
LINE
  5
46F
330
18
100
AcDbEntity
  8
Object
100
AcDbLine
 10
10.434
 20
5.839267710199766
 30
0.0
 11
10.264
 21
5.851267710199765
 31
0.0
  0
LINE
  5
470
330
18
100
AcDbEntity
  8
Object
100
AcDbLine
 10
10.264
 20
5.851267710199765
 30
0.0
 11
10.098
 21
5.863267710199766
 31
0.0
  0
LINE
  5
471
330
18
100
AcDbEntity
  8
Object
100
AcDbLine
 10
10.388
 20
9.431267710199765
 30
0.0
 11
10.295
 21
9.430267710199766
 31
0.0
  0
LINE
  5
472
330
18
100
AcDbEntity
  8
Object
100
AcDbLine
 10
10.112
 20
9.429267710199765
 30
0.0
 11
10.203
 21
9.429267710199765
 31
0.0
  0
LINE
  5
473
330
18
100
AcDbEntity
  8
Object
100
AcDbLine
 10
10.203
 20
9.429267710199765
 30
0.0
 11
10.295
 21
9.430267710199766
 31
0.0
  0
LINE
  5
474
330
18
100
AcDbEntity
  8
Object
100
AcDbLine
 10
9.936999999999999
 20
5.874267710199766
 30
0.0
 11
10.098
 21
5.863267710199766
 31
0.0
  0
LINE
  5
475
330
18
100
AcDbEntity
  8
Object
100
AcDbLine
 10
9.935999999999999
 20
9.427267710199766
 30
0.0
 11
10.023
 21
9.428267710199765
 31
0.0
  0
LINE
  5
476
330
18
100
AcDbEntity
  8
Object
100
AcDbLine
 10
10.023
 20
9.428267710199765
 30
0.0
 11
10.112
 21
9.429267710199765
 31
0.0
  0
LINE
  5
477
330
18
100
AcDbEntity
  8
Object
100
AcDbLine
 10
9.782999999999999
 20
5.885267710199765
 30
0.0
 11
9.936999999999999
 21
5.874267710199766
 31
0.0
  0
LINE
  5
478
330
18
100
AcDbEntity
  8
Object
100
AcDbLine
 10
9.935999999999999
 20
9.427267710199766
 30
0.0
 11
9.851
 21
9.426267710199766
 31
0.0
  0
LINE
  5
479
330
18
100
AcDbEntity
  8
Object
100
AcDbLine
 10
9.782999999999999
 20
5.885267710199765
 30
0.0
 11
9.636000000000001
 21
5.895267710199766
 31
0.0
  0
LINE
  5
47A
330
18
100
AcDbEntity
  8
Object
100
AcDbLine
 10
9.636000000000001
 20
5.895267710199766
 30
0.0
 11
9.497999999999999
 21
5.905267710199765
 31
0.0
  0
LINE
  5
47B
330
18
100
AcDbEntity
  8
Object
100
AcDbLine
 10
9.689999999999999
 20
9.424267710199766
 30
0.0
 11
9.769
 21
9.425267710199765
 31
0.0
  0
LINE
  5
47C
330
18
100
AcDbEntity
  8
Object
100
AcDbLine
 10
9.769
 20
9.425267710199765
 30
0.0
 11
9.851
 21
9.426267710199766
 31
0.0
  0
LINE
  5
47D
330
18
100
AcDbEntity
  8
Object
100
AcDbLine
 10
9.689999999999999
 20
9.424267710199766
 30
0.0
 11
9.615
 21
9.422267710199765
 31
0.0
  0
LINE
  5
47E
330
18
100
AcDbEntity
  8
Object
100
AcDbLine
 10
9.497999999999999
 20
5.905267710199765
 30
0.0
 11
9.37
 21
5.913267710199765
 31
0.0
  0
LINE
  5
47F
330
18
100
AcDbEntity
  8
Object
100
AcDbLine
 10
9.37
 20
5.913267710199765
 30
0.0
 11
9.252
 21
5.922267710199765
 31
0.0
  0
LINE
  5
480
330
18
100
AcDbEntity
  8
Object
100
AcDbLine
 10
9.413
 20
9.418267710199765
 30
0.0
 11
9.354
 21
9.417267710199766
 31
0.0
  0
LINE
  5
481
330
18
100
AcDbEntity
  8
Object
100
AcDbLine
 10
9.252
 20
5.922267710199765
 30
0.0
 11
9.146
 21
5.929267710199765
 31
0.0
  0
LINE
  5
482
330
18
100
AcDbEntity
  8
Object
100
AcDbLine
 10
9.146
 20
5.929267710199765
 30
0.0
 11
9.053
 21
5.936267710199765
 31
0.0
  0
LINE
  5
483
330
18
100
AcDbEntity
  8
Object
100
AcDbLine
 10
9.250999999999999
 20
9.414267710199766
 30
0.0
 11
9.3
 21
9.415267710199765
 31
0.0
  0
LINE
  5
484
330
18
100
AcDbEntity
  8
Object
100
AcDbLine
 10
9.3
 20
9.415267710199765
 30
0.0
 11
9.354
 21
9.417267710199766
 31
0.0
  0
LINE
  5
485
330
18
100
AcDbEntity
  8
Object
100
AcDbLine
 10
9.168000000000001
 20
9.410267710199766
 30
0.0
 11
9.207
 21
9.412267710199765
 31
0.0
  0
LINE
  5
486
330
18
100
AcDbEntity
  8
Object
100
AcDbLine
 10
9.207
 20
9.412267710199765
 30
0.0
 11
9.250999999999999
 21
9.414267710199766
 31
0.0
  0
LINE
  5
487
330
18
100
AcDbEntity
  8
Object
100
AcDbLine
 10
9.053
 20
5.936267710199765
 30
0.0
 11
8.971999999999999
 21
5.941267710199765
 31
0.0
  0
LINE
  5
488
330
18
100
AcDbEntity
  8
Object
100
AcDbLine
 10
8.971999999999999
 20
5.941267710199765
 30
0.0
 11
8.906
 21
5.946267710199765
 31
0.0
  0
LINE
  5
489
330
18
100
AcDbEntity
  8
Object
100
AcDbLine
 10
9.168000000000001
 20
9.410267710199766
 30
0.0
 11
9.133
 21
9.409267710199765
 31
0.0
  0
LINE
  5
48A
330
18
100
AcDbEntity
  8
Object
100
AcDbLine
 10
9.08
 20
9.406267710199765
 30
0.0
 11
9.104
 21
9.407267710199766
 31
0.0
  0
LINE
  5
48B
330
18
100
AcDbEntity
  8
Object
100
AcDbLine
 10
9.104
 20
9.407267710199766
 30
0.0
 11
9.133
 21
9.409267710199765
 31
0.0
  0
LINE
  5
48C
330
18
100
AcDbEntity
  8
Object
100
AcDbLine
 10
8.906
 20
5.946267710199765
 30
0.0
 11
8.852999999999999
 21
5.950267710199765
 31
0.0
  0
LINE
  5
48D
330
18
100
AcDbEntity
  8
Object
100
AcDbLine
 10
8.852999999999999
 20
5.950267710199765
 30
0.0
 11
8.816
 21
5.952267710199765
 31
0.0
  0
LINE
  5
48E
330
18
100
AcDbEntity
  8
Object
100
AcDbLine
 10
9.044999999999999
 20
9.402267710199765
 30
0.0
 11
9.06
 21
9.404267710199766
 31
0.0
  0
LINE
  5
48F
330
18
100
AcDbEntity
  8
Object
100
AcDbLine
 10
9.06
 20
9.404267710199766
 30
0.0
 11
9.08
 21
9.406267710199765
 31
0.0
  0
LINE
  5
490
330
18
100
AcDbEntity
  8
Object
100
AcDbLine
 10
9.028
 20
9.399267710199765
 30
0.0
 11
9.034
 21
9.401267710199766
 31
0.0
  0
LINE
  5
491
330
18
100
AcDbEntity
  8
Object
100
AcDbLine
 10
9.034
 20
9.401267710199766
 30
0.0
 11
9.044999999999999
 21
9.402267710199765
 31
0.0
  0
LINE
  5
492
330
18
100
AcDbEntity
  8
Object
100
AcDbLine
 10
8.816
 20
5.952267710199765
 30
0.0
 11
8.793000000000001
 21
5.954267710199765
 31
0.0
  0
LINE
  5
493
330
18
100
AcDbEntity
  8
Object
100
AcDbLine
 10
8.793000000000001
 20
5.954267710199765
 30
0.0
 11
8.785
 21
5.954267710199765
 31
0.0
  0
LINE
  5
494
330
18
100
AcDbEntity
  8
Object
100
AcDbLine
 10
8.785
 20
5.954267710199765
 30
0.0
 11
9.025999999999999
 21
9.398267710199766
 31
0.0
  0
LINE
  5
495
330
18
100
AcDbEntity
  8
Object
100
AcDbLine
 10
9.025999999999999
 20
9.398267710199766
 30
0.0
 11
9.028
 21
9.399267710199765
 31
0.0
  0
LINE
  5
496
330
18
100
AcDbEntity
  8
Object
100
AcDbLine
 10
9.025999999999999
 20
9.398267710199766
 30
0.0
 11
8.989
 21
9.363267710199766
 31
0.0
  0
LINE
  5
497
330
18
100
AcDbEntity
  8
Object
100
AcDbLine
 10
8.75
 20
5.957267710199765
 30
0.0
 11
8.785
 21
5.954267710199765
 31
0.0
  0
LINE
  5
498
330
18
100
AcDbEntity
  8
Object
100
AcDbLine
 10
4.419999999999999
 20
5.954267710199765
 30
0.0
 11
4.426999999999999
 21
5.954267710199765
 31
0.0
  0
LINE
  5
499
330
18
100
AcDbEntity
  8
Object
100
AcDbLine
 10
4.426999999999999
 20
5.954267710199765
 30
0.0
 11
4.187000000000001
 21
9.398267710199766
 31
0.0
  0
LINE
  5
49A
330
18
100
AcDbEntity
  8
Object
100
AcDbLine
 10
4.419999999999999
 20
5.954267710199765
 30
0.0
 11
4.397
 21
5.952267710199765
 31
0.0
  0
LINE
  5
49B
330
18
100
AcDbEntity
  8
Object
100
AcDbLine
 10
4.397
 20
5.952267710199765
 30
0.0
 11
4.358999999999999
 21
5.950267710199765
 31
0.0
  0
LINE
  5
49C
330
18
100
AcDbEntity
  8
Object
100
AcDbLine
 10
4.358999999999999
 20
5.950267710199765
 30
0.0
 11
4.307
 21
5.946267710199765
 31
0.0
  0
LINE
  5
49D
330
18
100
AcDbEntity
  8
Object
100
AcDbLine
 10
4.307
 20
5.946267710199765
 30
0.0
 11
4.240999999999999
 21
5.941267710199765
 31
0.0
  0
LINE
  5
49E
330
18
100
AcDbEntity
  8
Object
100
AcDbLine
 10
4.044999999999999
 20
9.410267710199766
 30
0.0
 11
4.006
 21
9.412267710199765
 31
0.0
  0
LINE
  5
49F
330
18
100
AcDbEntity
  8
Object
100
AcDbLine
 10
4.006
 20
9.412267710199765
 30
0.0
 11
3.961999999999999
 21
9.414267710199766
 31
0.0
  0
LINE
  5
4A0
330
18
100
AcDbEntity
  8
Object
100
AcDbLine
 10
4.16
 20
5.936267710199765
 30
0.0
 11
4.240999999999999
 21
5.941267710199765
 31
0.0
  0
LINE
  5
4A1
330
18
100
AcDbEntity
  8
Object
100
AcDbLine
 10
3.961999999999999
 20
9.414267710199766
 30
0.0
 11
3.911999999999999
 21
9.415267710199765
 31
0.0
  0
LINE
  5
4A2
330
18
100
AcDbEntity
  8
Object
100
AcDbLine
 10
4.067
 20
5.929267710199765
 30
0.0
 11
4.16
 21
5.936267710199765
 31
0.0
  0
LINE
  5
4A3
330
18
100
AcDbEntity
  8
Object
100
AcDbLine
 10
3.911999999999999
 20
9.415267710199765
 30
0.0
 11
3.858999999999999
 21
9.417267710199766
 31
0.0
  0
LINE
  5
4A4
330
18
100
AcDbEntity
  8
Object
100
AcDbLine
 10
3.858999999999999
 20
9.417267710199766
 30
0.0
 11
3.8
 21
9.418267710199765
 31
0.0
  0
LINE
  5
4A5
330
18
100
AcDbEntity
  8
Object
100
AcDbLine
 10
3.961
 20
5.922267710199765
 30
0.0
 11
4.067
 21
5.929267710199765
 31
0.0
  0
LINE
  5
4A6
330
18
100
AcDbEntity
  8
Object
100
AcDbLine
 10
3.8
 20
9.418267710199765
 30
0.0
 11
3.737
 21
9.420267710199766
 31
0.0
  0
LINE
  5
4A7
330
18
100
AcDbEntity
  8
Object
100
AcDbLine
 10
3.842999999999999
 20
5.913267710199765
 30
0.0
 11
3.961
 21
5.922267710199765
 31
0.0
  0
LINE
  5
4A8
330
18
100
AcDbEntity
  8
Object
100
AcDbLine
 10
3.737
 20
9.420267710199766
 30
0.0
 11
3.669
 21
9.421267710199765
 31
0.0
  0
LINE
  5
4A9
330
18
100
AcDbEntity
  8
Object
100
AcDbLine
 10
3.842999999999999
 20
5.913267710199765
 30
0.0
 11
3.714999999999999
 21
5.905267710199765
 31
0.0
  0
LINE
  5
4AA
330
18
100
AcDbEntity
  8
Object
100
AcDbLine
 10
3.714999999999999
 20
5.905267710199765
 30
0.0
 11
3.576999999999999
 21
5.895267710199766
 31
0.0
  0
LINE
  5
4AB
330
18
100
AcDbEntity
  8
Object
100
AcDbLine
 10
3.576999999999999
 20
5.895267710199766
 30
0.0
 11
3.429999999999999
 21
5.885267710199765
 31
0.0
  0
LINE
  5
4AC
330
18
100
AcDbEntity
  8
Object
100
AcDbLine
 10
3.429999999999999
 20
5.885267710199765
 30
0.0
 11
3.275
 21
5.874267710199766
 31
0.0
  0
LINE
  5
4AD
330
18
100
AcDbEntity
  8
Object
100
AcDbLine
 10
3.275
 20
5.874267710199766
 30
0.0
 11
3.115
 21
5.863267710199766
 31
0.0
  0
LINE
  5
4AE
330
18
100
AcDbEntity
  8
Object
100
AcDbLine
 10
3.115
 20
5.863267710199766
 30
0.0
 11
2.948999999999999
 21
5.851267710199765
 31
0.0
  0
LINE
  5
4AF
330
18
100
AcDbEntity
  8
Object
100
AcDbLine
 10
2.948999999999999
 20
5.851267710199765
 30
0.0
 11
2.778999999999999
 21
5.839267710199766
 31
0.0
  0
LINE
  5
4B0
330
18
100
AcDbEntity
  8
Object
100
AcDbLine
 10
2.778999999999999
 20
5.839267710199766
 30
0.0
 11
2.605999999999999
 21
5.827267710199765
 31
0.0
  0
LINE
  5
4B1
330
18
100
AcDbEntity
  8
Object
100
AcDbLine
 10
2.451
 20
9.432267710199765
 30
0.0
 11
2.358999999999999
 21
9.432267710199765
 31
0.0
  0
LINE
  5
4B2
330
18
100
AcDbEntity
  8
Object
100
AcDbLine
 10
2.358999999999999
 20
9.432267710199765
 30
0.0
 11
2.269
 21
9.433267710199766
 31
0.0
  0
LINE
  5
4B3
330
18
100
AcDbEntity
  8
Object
100
AcDbLine
 10
2.432
 20
5.815267710199766
 30
0.0
 11
2.605999999999999
 21
5.827267710199765
 31
0.0
  0
LINE
  5
4B4
330
18
100
AcDbEntity
  8
Object
100
AcDbLine
 10
2.269
 20
9.433267710199766
 30
0.0
 11
2.179
 21
9.433267710199766
 31
0.0
  0
LINE
  5
4B5
330
18
100
AcDbEntity
  8
Object
100
AcDbLine
 10
4.426999999999999
 20
5.954267710199765
 30
0.0
 11
4.461999999999999
 21
5.957267710199765
 31
0.0
  0
LINE
  5
4B6
330
18
100
AcDbEntity
  8
Object
100
AcDbLine
 10
2.182
 20
5.797267710199765
 30
0.0
 11
1.928
 21
9.433267710199766
 31
0.0
  0
LINE
  5
4B7
330
18
100
AcDbEntity
  8
Object
100
AcDbLine
 10
1.928
 20
9.433267710199766
 30
0.0
 11
1.928
 21
9.431267710199765
 31
0.0
  0
LINE
  5
4B8
330
18
100
AcDbEntity
  8
Object
100
AcDbLine
 10
1.928
 20
9.431267710199765
 30
0.0
 11
2.182
 21
5.797267710199765
 31
0.0
  0
LINE
  5
4B9
330
18
100
AcDbEntity
  8
Object
100
AcDbLine
 10
4.676
 20
3.471267710199765
 30
0.0
 11
8.535999999999999
 21
3.471267710199765
 31
0.0
  0
LINE
  5
4BA
330
18
100
AcDbEntity
  8
Object
100
AcDbLine
 10
11.03
 20
5.797267710199765
 30
0.0
 11
11.009
 21
5.601267710199765
 31
0.0
  0
LINE
  5
4BB
330
18
100
AcDbEntity
  8
Object
100
AcDbLine
 10
11.009
 20
5.601267710199765
 30
0.0
 11
10.972
 21
5.407267710199765
 31
0.0
  0
LINE
  5
4BC
330
18
100
AcDbEntity
  8
Object
100
AcDbLine
 10
10.972
 20
5.407267710199765
 30
0.0
 11
10.92
 21
5.217267710199766
 31
0.0
  0
LINE
  5
4BD
330
18
100
AcDbEntity
  8
Object
100
AcDbLine
 10
10.92
 20
5.217267710199766
 30
0.0
 11
10.853
 21
5.031267710199765
 31
0.0
  0
LINE
  5
4BE
330
18
100
AcDbEntity
  8
Object
100
AcDbLine
 10
10.853
 20
5.031267710199765
 30
0.0
 11
10.771
 21
4.851267710199765
 31
0.0
  0
LINE
  5
4BF
330
18
100
AcDbEntity
  8
Object
100
AcDbLine
 10
10.771
 20
4.851267710199765
 30
0.0
 11
10.676
 21
4.678267710199765
 31
0.0
  0
LINE
  5
4C0
330
18
100
AcDbEntity
  8
Object
100
AcDbLine
 10
10.676
 20
4.678267710199765
 30
0.0
 11
10.567
 21
4.513267710199765
 31
0.0
  0
LINE
  5
4C1
330
18
100
AcDbEntity
  8
Object
100
AcDbLine
 10
10.567
 20
4.513267710199765
 30
0.0
 11
10.446
 21
4.358267710199765
 31
0.0
  0
LINE
  5
4C2
330
18
100
AcDbEntity
  8
Object
100
AcDbLine
 10
10.446
 20
4.358267710199765
 30
0.0
 11
10.312
 21
4.212267710199766
 31
0.0
  0
LINE
  5
4C3
330
18
100
AcDbEntity
  8
Object
100
AcDbLine
 10
10.312
 20
4.212267710199766
 30
0.0
 11
10.168
 21
4.077267710199765
 31
0.0
  0
LINE
  5
4C4
330
18
100
AcDbEntity
  8
Object
100
AcDbLine
 10
10.168
 20
4.077267710199765
 30
0.0
 11
10.013
 21
3.954267710199765
 31
0.0
  0
LINE
  5
4C5
330
18
100
AcDbEntity
  8
Object
100
AcDbLine
 10
10.013
 20
3.954267710199765
 30
0.0
 11
9.849999999999999
 21
3.844267710199765
 31
0.0
  0
LINE
  5
4C6
330
18
100
AcDbEntity
  8
Object
100
AcDbLine
 10
9.849999999999999
 20
3.844267710199765
 30
0.0
 11
9.678
 21
3.747267710199765
 31
0.0
  0
LINE
  5
4C7
330
18
100
AcDbEntity
  8
Object
100
AcDbLine
 10
9.678
 20
3.747267710199765
 30
0.0
 11
9.497999999999999
 21
3.664267710199766
 31
0.0
  0
LINE
  5
4C8
330
18
100
AcDbEntity
  8
Object
100
AcDbLine
 10
9.497999999999999
 20
3.664267710199766
 30
0.0
 11
9.313
 21
3.595267710199765
 31
0.0
  0
LINE
  5
4C9
330
18
100
AcDbEntity
  8
Object
100
AcDbLine
 10
9.313
 20
3.595267710199765
 30
0.0
 11
9.122999999999999
 21
3.541267710199765
 31
0.0
  0
LINE
  5
4CA
330
18
100
AcDbEntity
  8
Object
100
AcDbLine
 10
9.122999999999999
 20
3.541267710199765
 30
0.0
 11
8.929999999999999
 21
3.503267710199765
 31
0.0
  0
LINE
  5
4CB
330
18
100
AcDbEntity
  8
Object
100
AcDbLine
 10
8.929999999999999
 20
3.503267710199765
 30
0.0
 11
8.733999999999999
 21
3.479267710199765
 31
0.0
  0
LINE
  5
4CC
330
18
100
AcDbEntity
  8
Object
100
AcDbLine
 10
8.733999999999999
 20
3.479267710199765
 30
0.0
 11
8.535999999999999
 21
3.471267710199765
 31
0.0
  0
LINE
  5
4CD
330
18
100
AcDbEntity
  8
Object
100
AcDbLine
 10
4.676
 20
3.471267710199765
 30
0.0
 11
4.478999999999999
 21
3.479267710199765
 31
0.0
  0
LINE
  5
4CE
330
18
100
AcDbEntity
  8
Object
100
AcDbLine
 10
4.478999999999999
 20
3.479267710199765
 30
0.0
 11
4.283000000000001
 21
3.503267710199765
 31
0.0
  0
LINE
  5
4CF
330
18
100
AcDbEntity
  8
Object
100
AcDbLine
 10
4.283000000000001
 20
3.503267710199765
 30
0.0
 11
4.089
 21
3.541267710199765
 31
0.0
  0
LINE
  5
4D0
330
18
100
AcDbEntity
  8
Object
100
AcDbLine
 10
4.089
 20
3.541267710199765
 30
0.0
 11
3.899
 21
3.595267710199765
 31
0.0
  0
LINE
  5
4D1
330
18
100
AcDbEntity
  8
Object
100
AcDbLine
 10
3.899
 20
3.595267710199765
 30
0.0
 11
3.714
 21
3.664267710199766
 31
0.0
  0
LINE
  5
4D2
330
18
100
AcDbEntity
  8
Object
100
AcDbLine
 10
3.714
 20
3.664267710199766
 30
0.0
 11
3.535
 21
3.747267710199765
 31
0.0
  0
LINE
  5
4D3
330
18
100
AcDbEntity
  8
Object
100
AcDbLine
 10
3.535
 20
3.747267710199765
 30
0.0
 11
3.362999999999999
 21
3.844267710199765
 31
0.0
  0
LINE
  5
4D4
330
18
100
AcDbEntity
  8
Object
100
AcDbLine
 10
3.362999999999999
 20
3.844267710199765
 30
0.0
 11
3.198999999999999
 21
3.954267710199765
 31
0.0
  0
LINE
  5
4D5
330
18
100
AcDbEntity
  8
Object
100
AcDbLine
 10
3.198999999999999
 20
3.954267710199765
 30
0.0
 11
3.044999999999999
 21
4.077267710199765
 31
0.0
  0
LINE
  5
4D6
330
18
100
AcDbEntity
  8
Object
100
AcDbLine
 10
3.044999999999999
 20
4.077267710199765
 30
0.0
 11
2.9
 21
4.212267710199766
 31
0.0
  0
LINE
  5
4D7
330
18
100
AcDbEntity
  8
Object
100
AcDbLine
 10
2.9
 20
4.212267710199766
 30
0.0
 11
2.766999999999999
 21
4.358267710199765
 31
0.0
  0
LINE
  5
4D8
330
18
100
AcDbEntity
  8
Object
100
AcDbLine
 10
2.766999999999999
 20
4.358267710199765
 30
0.0
 11
2.646
 21
4.513267710199765
 31
0.0
  0
LINE
  5
4D9
330
18
100
AcDbEntity
  8
Object
100
AcDbLine
 10
2.646
 20
4.513267710199765
 30
0.0
 11
2.536999999999999
 21
4.678267710199765
 31
0.0
  0
LINE
  5
4DA
330
18
100
AcDbEntity
  8
Object
100
AcDbLine
 10
2.536999999999999
 20
4.678267710199765
 30
0.0
 11
2.440999999999998
 21
4.851267710199765
 31
0.0
  0
LINE
  5
4DB
330
18
100
AcDbEntity
  8
Object
100
AcDbLine
 10
2.440999999999998
 20
4.851267710199765
 30
0.0
 11
2.359999999999999
 21
5.031267710199765
 31
0.0
  0
LINE
  5
4DC
330
18
100
AcDbEntity
  8
Object
100
AcDbLine
 10
2.359999999999999
 20
5.031267710199765
 30
0.0
 11
2.292999999999999
 21
5.217267710199766
 31
0.0
  0
LINE
  5
4DD
330
18
100
AcDbEntity
  8
Object
100
AcDbLine
 10
2.292999999999999
 20
5.217267710199766
 30
0.0
 11
2.240999999999999
 21
5.407267710199765
 31
0.0
  0
LINE
  5
4DE
330
18
100
AcDbEntity
  8
Object
100
AcDbLine
 10
2.240999999999999
 20
5.407267710199765
 30
0.0
 11
2.204
 21
5.601267710199765
 31
0.0
  0
LINE
  5
4DF
330
18
100
AcDbEntity
  8
Object
100
AcDbLine
 10
2.204
 20
5.601267710199765
 30
0.0
 11
2.182
 21
5.797267710199765
 31
0.0
  0
LINE
  5
4E0
330
18
100
AcDbEntity
  8
Object
100
AcDbLine
 10
8.535999999999999
 20
5.757267710199766
 30
0.0
 11
8.535999999999999
 21
5.722267710199766
 31
0.0
  0
LINE
  5
4E1
330
18
100
AcDbEntity
  8
Object
100
AcDbLine
 10
8.535999999999999
 20
5.722267710199766
 30
0.0
 11
4.676999999999999
 21
5.722267710199766
 31
0.0
  0
LINE
  5
4E2
330
18
100
AcDbEntity
  8
Object
100
AcDbLine
 10
8.785
 20
5.954267710199765
 30
0.0
 11
8.772999999999999
 21
5.893267710199765
 31
0.0
  0
LINE
  5
4E3
330
18
100
AcDbEntity
  8
Object
100
AcDbLine
 10
8.772999999999999
 20
5.893267710199765
 30
0.0
 11
8.746
 21
5.837267710199765
 31
0.0
  0
LINE
  5
4E4
330
18
100
AcDbEntity
  8
Object
100
AcDbLine
 10
8.746
 20
5.837267710199765
 30
0.0
 11
8.705999999999999
 21
5.789267710199765
 31
0.0
  0
LINE
  5
4E5
330
18
100
AcDbEntity
  8
Object
100
AcDbLine
 10
8.705999999999999
 20
5.789267710199765
 30
0.0
 11
8.656
 21
5.752267710199765
 31
0.0
  0
LINE
  5
4E6
330
18
100
AcDbEntity
  8
Object
100
AcDbLine
 10
8.656
 20
5.752267710199765
 30
0.0
 11
8.598
 21
5.730267710199766
 31
0.0
  0
LINE
  5
4E7
330
18
100
AcDbEntity
  8
Object
100
AcDbLine
 10
8.598
 20
5.730267710199766
 30
0.0
 11
8.535999999999999
 21
5.722267710199766
 31
0.0
  0
LINE
  5
4E8
330
18
100
AcDbEntity
  8
Object
100
AcDbLine
 10
4.676999999999999
 20
5.757267710199766
 30
0.0
 11
4.676999999999999
 21
5.722267710199766
 31
0.0
  0
LINE
  5
4E9
330
18
100
AcDbEntity
  8
Object
100
AcDbLine
 10
4.676999999999999
 20
5.722267710199766
 30
0.0
 11
4.615
 21
5.730267710199766
 31
0.0
  0
LINE
  5
4EA
330
18
100
AcDbEntity
  8
Object
100
AcDbLine
 10
4.615
 20
5.730267710199766
 30
0.0
 11
4.557
 21
5.752267710199765
 31
0.0
  0
LINE
  5
4EB
330
18
100
AcDbEntity
  8
Object
100
AcDbLine
 10
4.557
 20
5.752267710199765
 30
0.0
 11
4.506
 21
5.789267710199765
 31
0.0
  0
LINE
  5
4EC
330
18
100
AcDbEntity
  8
Object
100
AcDbLine
 10
4.506
 20
5.789267710199765
 30
0.0
 11
4.466000000000001
 21
5.837267710199765
 31
0.0
  0
LINE
  5
4ED
330
18
100
AcDbEntity
  8
Object
100
AcDbLine
 10
4.466000000000001
 20
5.837267710199765
 30
0.0
 11
4.440000000000001
 21
5.893267710199765
 31
0.0
  0
LINE
  5
4EE
330
18
100
AcDbEntity
  8
Object
100
AcDbLine
 10
7.230999999999999
 20
4.105267710199765
 30
0.0
 11
7.230999999999999
 21
3.981267710199765
 31
0.0
  0
LINE
  5
4EF
330
18
100
AcDbEntity
  8
Object
100
AcDbLine
 10
8.535999999999999
 20
3.896267710199765
 30
0.0
 11
8.535999999999999
 21
4.069267710199765
 31
0.0
  0
LINE
  5
4F0
330
18
100
AcDbEntity
  8
Object
100
AcDbLine
 10
7.230999999999999
 20
3.981267710199765
 30
0.0
 11
7.230999999999999
 21
3.857267710199765
 31
0.0
  0
LINE
  5
4F1
330
18
100
AcDbEntity
  8
Object
100
AcDbLine
 10
8.535999999999999
 20
4.069267710199765
 30
0.0
 11
8.535999999999999
 21
4.239267710199765
 31
0.0
  0
LINE
  5
4F2
330
18
100
AcDbEntity
  8
Object
100
AcDbLine
 10
8.535999999999999
 20
3.721267710199765
 30
0.0
 11
8.535999999999999
 21
3.896267710199765
 31
0.0
  0
LINE
  5
4F3
330
18
100
AcDbEntity
  8
Object
100
AcDbLine
 10
7.230999999999999
 20
3.857267710199765
 30
0.0
 11
7.230999999999999
 21
3.732267710199765
 31
0.0
  0
LINE
  5
4F4
330
18
100
AcDbEntity
  8
Object
100
AcDbLine
 10
5.980999999999999
 20
4.105267710199765
 30
0.0
 11
7.230999999999999
 21
4.105267710199765
 31
0.0
  0
LINE
  5
4F5
330
18
100
AcDbEntity
  8
Object
100
AcDbLine
 10
8.535999999999999
 20
5.691267710199765
 30
0.0
 11
8.535999999999999
 21
5.654267710199765
 31
0.0
  0
LINE
  5
4F6
330
18
100
AcDbEntity
  8
Object
100
AcDbLine
 10
8.535999999999999
 20
5.654267710199765
 30
0.0
 11
8.535999999999999
 21
5.601267710199765
 31
0.0
  0
LINE
  5
4F7
330
18
100
AcDbEntity
  8
Object
100
AcDbLine
 10
8.535999999999999
 20
5.691267710199765
 30
0.0
 11
8.535999999999999
 21
5.714267710199766
 31
0.0
  0
LINE
  5
4F8
330
18
100
AcDbEntity
  8
Object
100
AcDbLine
 10
8.535999999999999
 20
5.714267710199766
 30
0.0
 11
8.535999999999999
 21
5.722267710199766
 31
0.0
  0
LINE
  5
4F9
330
18
100
AcDbEntity
  8
Object
100
AcDbLine
 10
8.535999999999999
 20
5.534267710199765
 30
0.0
 11
8.535999999999999
 21
5.601267710199765
 31
0.0
  0
LINE
  5
4FA
330
18
100
AcDbEntity
  8
Object
100
AcDbLine
 10
8.535999999999999
 20
5.360267710199766
 30
0.0
 11
8.535999999999999
 21
5.454267710199765
 31
0.0
  0
LINE
  5
4FB
330
18
100
AcDbEntity
  8
Object
100
AcDbLine
 10
8.535999999999999
 20
5.454267710199765
 30
0.0
 11
8.535999999999999
 21
5.534267710199765
 31
0.0
  0
LINE
  5
4FC
330
18
100
AcDbEntity
  8
Object
100
AcDbLine
 10
8.535999999999999
 20
5.254267710199766
 30
0.0
 11
8.535999999999999
 21
5.136267710199765
 31
0.0
  0
LINE
  5
4FD
330
18
100
AcDbEntity
  8
Object
100
AcDbLine
 10
8.535999999999999
 20
5.136267710199765
 30
0.0
 11
8.535999999999999
 21
5.007267710199765
 31
0.0
  0
LINE
  5
4FE
330
18
100
AcDbEntity
  8
Object
100
AcDbLine
 10
8.535999999999999
 20
5.254267710199766
 30
0.0
 11
8.535999999999999
 21
5.360267710199766
 31
0.0
  0
LINE
  5
4FF
330
18
100
AcDbEntity
  8
Object
100
AcDbLine
 10
8.535999999999999
 20
5.007267710199765
 30
0.0
 11
8.535999999999999
 21
4.869267710199766
 31
0.0
  0
LINE
  5
500
330
18
100
AcDbEntity
  8
Object
100
AcDbLine
 10
8.535999999999999
 20
4.869267710199766
 30
0.0
 11
8.535999999999999
 21
4.722267710199766
 31
0.0
  0
LINE
  5
501
330
18
100
AcDbEntity
  8
Object
100
AcDbLine
 10
8.535999999999999
 20
4.722267710199766
 30
0.0
 11
8.535999999999999
 21
4.567267710199765
 31
0.0
  0
LINE
  5
502
330
18
100
AcDbEntity
  8
Object
100
AcDbLine
 10
8.535999999999999
 20
4.239267710199765
 30
0.0
 11
8.535999999999999
 21
4.406267710199765
 31
0.0
  0
LINE
  5
503
330
18
100
AcDbEntity
  8
Object
100
AcDbLine
 10
8.535999999999999
 20
4.406267710199765
 30
0.0
 11
8.535999999999999
 21
4.567267710199765
 31
0.0
  0
LINE
  5
504
330
18
100
AcDbEntity
  8
Object
100
AcDbLine
 10
5.980999999999999
 20
4.105267710199765
 30
0.0
 11
5.980999999999999
 21
3.981267710199765
 31
0.0
  0
LINE
  5
505
330
18
100
AcDbEntity
  8
Object
100
AcDbLine
 10
5.980999999999999
 20
3.981267710199765
 30
0.0
 11
5.980999999999999
 21
3.857267710199765
 31
0.0
  0
LINE
  5
506
330
18
100
AcDbEntity
  8
Object
100
AcDbLine
 10
5.980999999999999
 20
3.857267710199765
 30
0.0
 11
5.980999999999999
 21
3.732267710199765
 31
0.0
  0
LINE
  5
507
330
18
100
AcDbEntity
  8
Object
100
AcDbLine
 10
5.980999999999999
 20
3.732267710199765
 30
0.0
 11
7.230999999999999
 21
3.732267710199765
 31
0.0
  0
LINE
  5
508
330
18
100
AcDbEntity
  8
Object
100
AcDbLine
 10
10.78
 20
5.815267710199766
 30
0.0
 11
10.76
 21
5.628267710199765
 31
0.0
  0
LINE
  5
509
330
18
100
AcDbEntity
  8
Object
100
AcDbLine
 10
10.76
 20
5.628267710199765
 30
0.0
 11
10.723
 21
5.444267710199765
 31
0.0
  0
LINE
  5
50A
330
18
100
AcDbEntity
  8
Object
100
AcDbLine
 10
10.723
 20
5.444267710199765
 30
0.0
 11
10.672
 21
5.264267710199765
 31
0.0
  0
LINE
  5
50B
330
18
100
AcDbEntity
  8
Object
100
AcDbLine
 10
10.672
 20
5.264267710199765
 30
0.0
 11
10.605
 21
5.089267710199766
 31
0.0
  0
LINE
  5
50C
330
18
100
AcDbEntity
  8
Object
100
AcDbLine
 10
10.605
 20
5.089267710199766
 30
0.0
 11
10.525
 21
4.919267710199766
 31
0.0
  0
LINE
  5
50D
330
18
100
AcDbEntity
  8
Object
100
AcDbLine
 10
10.525
 20
4.919267710199766
 30
0.0
 11
10.43
 21
4.757267710199766
 31
0.0
  0
LINE
  5
50E
330
18
100
AcDbEntity
  8
Object
100
AcDbLine
 10
10.43
 20
4.757267710199766
 30
0.0
 11
10.322
 21
4.604267710199765
 31
0.0
  0
LINE
  5
50F
330
18
100
AcDbEntity
  8
Object
100
AcDbLine
 10
10.322
 20
4.604267710199765
 30
0.0
 11
10.202
 21
4.460267710199765
 31
0.0
  0
LINE
  5
510
330
18
100
AcDbEntity
  8
Object
100
AcDbLine
 10
10.202
 20
4.460267710199765
 30
0.0
 11
10.07
 21
4.326267710199765
 31
0.0
  0
LINE
  5
511
330
18
100
AcDbEntity
  8
Object
100
AcDbLine
 10
10.07
 20
4.326267710199765
 30
0.0
 11
9.928
 21
4.204267710199765
 31
0.0
  0
LINE
  5
512
330
18
100
AcDbEntity
  8
Object
100
AcDbLine
 10
9.615
 20
3.997267710199765
 30
0.0
 11
9.775999999999999
 21
4.094267710199765
 31
0.0
  0
LINE
  5
513
330
18
100
AcDbEntity
  8
Object
100
AcDbLine
 10
4.676999999999999
 20
5.722267710199766
 30
0.0
 11
4.676999999999999
 21
5.714267710199766
 31
0.0
  0
LINE
  5
514
330
18
100
AcDbEntity
  8
Object
100
AcDbLine
 10
4.676999999999999
 20
5.714267710199766
 30
0.0
 11
4.676999999999999
 21
5.691267710199765
 31
0.0
  0
LINE
  5
515
330
18
100
AcDbEntity
  8
Object
100
AcDbLine
 10
4.676999999999999
 20
5.691267710199765
 30
0.0
 11
4.676999999999999
 21
5.654267710199765
 31
0.0
  0
LINE
  5
516
330
18
100
AcDbEntity
  8
Object
100
AcDbLine
 10
4.676999999999999
 20
5.654267710199765
 30
0.0
 11
4.676999999999999
 21
5.601267710199765
 31
0.0
  0
LINE
  5
517
330
18
100
AcDbEntity
  8
Object
100
AcDbLine
 10
4.676999999999999
 20
5.601267710199765
 30
0.0
 11
4.676999999999999
 21
5.534267710199765
 31
0.0
  0
LINE
  5
518
330
18
100
AcDbEntity
  8
Object
100
AcDbLine
 10
4.676999999999999
 20
5.534267710199765
 30
0.0
 11
4.676999999999999
 21
5.454267710199765
 31
0.0
  0
LINE
  5
519
330
18
100
AcDbEntity
  8
Object
100
AcDbLine
 10
4.676999999999999
 20
5.454267710199765
 30
0.0
 11
4.676999999999999
 21
5.360267710199766
 31
0.0
  0
LINE
  5
51A
330
18
100
AcDbEntity
  8
Object
100
AcDbLine
 10
4.676999999999999
 20
5.360267710199766
 30
0.0
 11
4.676999999999999
 21
5.254267710199766
 31
0.0
  0
LINE
  5
51B
330
18
100
AcDbEntity
  8
Object
100
AcDbLine
 10
4.676999999999999
 20
5.254267710199766
 30
0.0
 11
4.676999999999999
 21
5.136267710199765
 31
0.0
  0
LINE
  5
51C
330
18
100
AcDbEntity
  8
Object
100
AcDbLine
 10
4.676999999999999
 20
5.136267710199765
 30
0.0
 11
4.676999999999999
 21
5.007267710199765
 31
0.0
  0
LINE
  5
51D
330
18
100
AcDbEntity
  8
Object
100
AcDbLine
 10
4.676999999999999
 20
5.007267710199765
 30
0.0
 11
4.676999999999999
 21
4.869267710199766
 31
0.0
  0
LINE
  5
51E
330
18
100
AcDbEntity
  8
Object
100
AcDbLine
 10
4.676999999999999
 20
4.869267710199766
 30
0.0
 11
4.676999999999999
 21
4.722267710199766
 31
0.0
  0
LINE
  5
51F
330
18
100
AcDbEntity
  8
Object
100
AcDbLine
 10
4.676999999999999
 20
4.722267710199766
 30
0.0
 11
4.676999999999999
 21
4.567267710199765
 31
0.0
  0
LINE
  5
520
330
18
100
AcDbEntity
  8
Object
100
AcDbLine
 10
4.676999999999999
 20
4.567267710199765
 30
0.0
 11
4.676999999999999
 21
4.406267710199765
 31
0.0
  0
LINE
  5
521
330
18
100
AcDbEntity
  8
Object
100
AcDbLine
 10
4.676999999999999
 20
4.406267710199765
 30
0.0
 11
4.676999999999999
 21
4.239267710199765
 31
0.0
  0
LINE
  5
522
330
18
100
AcDbEntity
  8
Object
100
AcDbLine
 10
4.676999999999999
 20
4.239267710199765
 30
0.0
 11
4.676999999999999
 21
4.069267710199765
 31
0.0
  0
LINE
  5
523
330
18
100
AcDbEntity
  8
Object
100
AcDbLine
 10
4.676999999999999
 20
4.069267710199765
 30
0.0
 11
4.676999999999999
 21
3.896267710199765
 31
0.0
  0
LINE
  5
524
330
18
100
AcDbEntity
  8
Object
100
AcDbLine
 10
4.676999999999999
 20
3.896267710199765
 30
0.0
 11
4.676999999999999
 21
3.721267710199765
 31
0.0
  0
LINE
  5
525
330
18
100
AcDbEntity
  8
Object
100
AcDbLine
 10
4.440000000000001
 20
5.893267710199765
 30
0.0
 11
4.426999999999999
 21
5.954267710199765
 31
0.0
  0
LINE
  5
526
330
18
100
AcDbEntity
  8
Object
100
AcDbLine
 10
7.230999999999999
 20
3.731267710199765
 30
0.0
 11
5.980999999999999
 21
3.731267710199765
 31
0.0
  0
LINE
  5
527
330
18
100
AcDbEntity
  8
Object
100
AcDbLine
 10
5.980999999999999
 20
3.731267710199765
 30
0.0
 11
5.980999999999999
 21
3.732267710199765
 31
0.0
  0
LINE
  5
528
330
18
100
AcDbEntity
  8
Object
100
AcDbLine
 10
7.230999999999999
 20
3.731267710199765
 30
0.0
 11
7.230999999999999
 21
3.732267710199765
 31
0.0
  0
LINE
  5
529
330
18
100
AcDbEntity
  8
Object
100
AcDbLine
 10
7.230999999999999
 20
3.857267710199765
 30
0.0
 11
7.230999999999999
 21
3.981267710199765
 31
0.0
  0
LINE
  5
52A
330
18
100
AcDbEntity
  8
Object
100
AcDbLine
 10
7.230999999999999
 20
3.981267710199765
 30
0.0
 11
7.230999999999999
 21
4.105267710199765
 31
0.0
  0
LINE
  5
52B
330
18
100
AcDbEntity
  8
Object
100
AcDbLine
 10
7.230999999999999
 20
3.731267710199765
 30
0.0
 11
7.230999999999999
 21
3.732267710199765
 31
0.0
  0
LINE
  5
52C
330
18
100
AcDbEntity
  8
Object
100
AcDbLine
 10
7.230999999999999
 20
3.732267710199765
 30
0.0
 11
7.230999999999999
 21
3.857267710199765
 31
0.0
  0
LINE
  5
52D
330
18
100
AcDbEntity
  8
Object
100
AcDbLine
 10
7.230999999999999
 20
3.732267710199765
 30
0.0
 11
7.230999999999999
 21
3.731267710199765
 31
0.0
  0
LINE
  5
52E
330
18
100
AcDbEntity
  8
Object
100
AcDbLine
 10
5.980999999999999
 20
3.732267710199765
 30
0.0
 11
5.980999999999999
 21
3.731267710199765
 31
0.0
  0
LINE
  5
52F
330
18
100
AcDbEntity
  8
Object
100
AcDbLine
 10
5.980999999999999
 20
3.731267710199765
 30
0.0
 11
5.980999999999999
 21
3.732267710199765
 31
0.0
  0
LINE
  5
530
330
18
100
AcDbEntity
  8
Object
100
AcDbLine
 10
5.980999999999999
 20
3.732267710199765
 30
0.0
 11
5.980999999999999
 21
3.857267710199765
 31
0.0
  0
LINE
  5
531
330
18
100
AcDbEntity
  8
Object
100
AcDbLine
 10
5.980999999999999
 20
3.857267710199765
 30
0.0
 11
5.980999999999999
 21
3.981267710199765
 31
0.0
  0
LINE
  5
532
330
18
100
AcDbEntity
  8
Object
100
AcDbLine
 10
5.980999999999999
 20
3.981267710199765
 30
0.0
 11
5.980999999999999
 21
4.105267710199765
 31
0.0
  0
LINE
  5
533
330
18
100
AcDbEntity
  8
Object
100
AcDbLine
 10
5.980999999999999
 20
4.104267710199765
 30
0.0
 11
7.230999999999999
 21
4.104267710199765
 31
0.0
  0
LINE
  5
534
330
18
100
AcDbEntity
  8
Object
100
AcDbLine
 10
7.230999999999999
 20
3.731267710199765
 30
0.0
 11
7.230999999999999
 21
3.732267710199765
 31
0.0
  0
LINE
  5
535
330
18
100
AcDbEntity
  8
Object
100
AcDbLine
 10
7.201
 20
3.950267710199765
 30
0.0
 11
7.155
 21
3.950267710199765
 31
0.0
  0
LINE
  5
536
330
18
100
AcDbEntity
  8
Object
100
AcDbLine
 10
7.155
 20
3.791267710199765
 30
0.0
 11
7.092999999999999
 21
3.791267710199765
 31
0.0
  0
LINE
  5
537
330
18
100
AcDbEntity
  8
Object
100
AcDbLine
 10
7.092999999999999
 20
3.950267710199765
 30
0.0
 11
7.052
 21
3.950267710199765
 31
0.0
  0
LINE
  5
538
330
18
100
AcDbEntity
  8
Object
100
AcDbLine
 10
7.017
 20
3.791267710199765
 30
0.0
 11
6.963
 21
3.791267710199765
 31
0.0
  0
LINE
  5
539
330
18
100
AcDbEntity
  8
Object
100
AcDbLine
 10
6.927999999999999
 20
3.826267710199765
 30
0.0
 11
6.923
 21
3.809267710199765
 31
0.0
  0
LINE
  5
53A
330
18
100
AcDbEntity
  8
Object
100
AcDbLine
 10
6.923
 20
3.809267710199765
 30
0.0
 11
6.91
 21
3.796267710199765
 31
0.0
  0
LINE
  5
53B
330
18
100
AcDbEntity
  8
Object
100
AcDbLine
 10
6.91
 20
3.796267710199765
 30
0.0
 11
6.892
 21
3.791267710199765
 31
0.0
  0
LINE
  5
53C
330
18
100
AcDbEntity
  8
Object
100
AcDbLine
 10
6.892
 20
3.791267710199765
 30
0.0
 11
6.820999999999999
 21
3.791267710199765
 31
0.0
  0
LINE
  5
53D
330
18
100
AcDbEntity
  8
Object
100
AcDbLine
 10
6.79
 20
3.809267710199765
 30
0.0
 11
6.785
 21
3.826267710199765
 31
0.0
  0
LINE
  5
53E
330
18
100
AcDbEntity
  8
Object
100
AcDbLine
 10
6.75
 20
3.826267710199765
 30
0.0
 11
6.745
 21
3.809267710199765
 31
0.0
  0
LINE
  5
53F
330
18
100
AcDbEntity
  8
Object
100
AcDbLine
 10
6.802999999999999
 20
3.796267710199765
 30
0.0
 11
6.79
 21
3.809267710199765
 31
0.0
  0
LINE
  5
540
330
18
100
AcDbEntity
  8
Object
100
AcDbLine
 10
6.745
 20
3.809267710199765
 30
0.0
 11
6.732
 21
3.796267710199765
 31
0.0
  0
LINE
  5
541
330
18
100
AcDbEntity
  8
Object
100
AcDbLine
 10
6.820999999999999
 20
3.791267710199765
 30
0.0
 11
6.802999999999999
 21
3.796267710199765
 31
0.0
  0
LINE
  5
542
330
18
100
AcDbEntity
  8
Object
100
AcDbLine
 10
6.732
 20
3.796267710199765
 30
0.0
 11
6.714
 21
3.791267710199765
 31
0.0
  0
LINE
  5
543
330
18
100
AcDbEntity
  8
Object
100
AcDbLine
 10
6.714
 20
3.791267710199765
 30
0.0
 11
6.600999999999999
 21
3.791267710199765
 31
0.0
  0
LINE
  5
544
330
18
100
AcDbEntity
  8
Object
100
AcDbLine
 10
6.506
 20
3.791267710199765
 30
0.0
 11
6.469
 21
3.876267710199766
 31
0.0
  0
LINE
  5
545
330
18
100
AcDbEntity
  8
Object
100
AcDbLine
 10
6.275999999999999
 20
3.791267710199765
 30
0.0
 11
6.288999999999999
 21
3.820267710199765
 31
0.0
  0
LINE
  5
546
330
18
100
AcDbEntity
  8
Object
100
AcDbLine
 10
6.288999999999999
 20
3.820267710199765
 30
0.0
 11
6.365
 21
3.820267710199765
 31
0.0
  0
LINE
  5
547
330
18
100
AcDbEntity
  8
Object
100
AcDbLine
 10
6.365
 20
3.820267710199765
 30
0.0
 11
6.379
 21
3.791267710199765
 31
0.0
  0
LINE
  5
548
330
18
100
AcDbEntity
  8
Object
100
AcDbLine
 10
6.229
 20
3.873267710199765
 30
0.0
 11
6.241999999999999
 21
3.876267710199766
 31
0.0
  0
LINE
  5
549
330
18
100
AcDbEntity
  8
Object
100
AcDbLine
 10
6.241999999999999
 20
3.876267710199766
 30
0.0
 11
6.254
 21
3.881267710199765
 31
0.0
  0
LINE
  5
54A
330
18
100
AcDbEntity
  8
Object
100
AcDbLine
 10
6.229
 20
3.873267710199765
 30
0.0
 11
6.214999999999999
 21
3.872267710199765
 31
0.0
  0
LINE
  5
54B
330
18
100
AcDbEntity
  8
Object
100
AcDbLine
 10
6.214999999999999
 20
3.872267710199765
 30
0.0
 11
6.150999999999999
 21
3.872267710199765
 31
0.0
  0
LINE
  5
54C
330
18
100
AcDbEntity
  8
Object
100
AcDbLine
 10
6.150999999999999
 20
3.791267710199765
 30
0.0
 11
6.033
 21
3.791267710199765
 31
0.0
  0
LINE
  5
54D
330
18
100
AcDbEntity
  8
Object
100
AcDbLine
 10
6.275999999999999
 20
3.791267710199765
 30
0.0
 11
6.217
 21
3.791267710199765
 31
0.0
  0
LINE
  5
54E
330
18
100
AcDbEntity
  8
Object
100
AcDbLine
 10
6.469
 20
3.791267710199765
 30
0.0
 11
6.379
 21
3.791267710199765
 31
0.0
  0
LINE
  5
54F
330
18
100
AcDbEntity
  8
Object
100
AcDbLine
 10
6.565999999999999
 20
3.791267710199765
 30
0.0
 11
6.506
 21
3.791267710199765
 31
0.0
  0
LINE
  5
550
330
18
100
AcDbEntity
  8
Object
100
AcDbLine
 10
5.980999999999999
 20
3.732267710199765
 30
0.0
 11
5.980999999999999
 21
3.731267710199765
 31
0.0
  0
LINE
  5
551
330
18
100
AcDbEntity
  8
Object
100
AcDbLine
 10
6.365
 20
3.820267710199765
 30
0.0
 11
6.379
 21
3.791267710199765
 31
0.0
  0
LINE
  5
552
330
18
100
AcDbEntity
  8
Object
100
AcDbLine
 10
6.469
 20
3.876267710199766
 30
0.0
 11
6.506
 21
3.791267710199765
 31
0.0
  0
LINE
  5
553
330
18
100
AcDbEntity
  8
Object
100
AcDbLine
 10
6.565999999999999
 20
3.791267710199765
 30
0.0
 11
6.565999999999999
 21
3.991267710199766
 31
0.0
  0
LINE
  5
554
330
18
100
AcDbEntity
  8
Object
100
AcDbLine
 10
6.785
 20
3.826267710199765
 30
0.0
 11
6.785
 21
3.827267710199765
 31
0.0
  0
LINE
  5
555
330
18
100
AcDbEntity
  8
Object
100
AcDbLine
 10
6.785
 20
3.827267710199765
 30
0.0
 11
6.785
 21
3.991267710199766
 31
0.0
  0
LINE
  5
556
330
18
100
AcDbEntity
  8
Object
100
AcDbLine
 10
6.150999999999999
 20
3.873267710199765
 30
0.0
 11
6.214999999999999
 21
3.873267710199765
 31
0.0
  0
LINE
  5
557
330
18
100
AcDbEntity
  8
Object
100
AcDbLine
 10
6.214999999999999
 20
3.873267710199765
 30
0.0
 11
6.214999999999999
 21
3.872267710199765
 31
0.0
  0
LINE
  5
558
330
18
100
AcDbEntity
  8
Object
100
AcDbLine
 10
6.272
 20
3.791267710199765
 30
0.0
 11
6.280999999999999
 21
3.791267710199765
 31
0.0
  0
LINE
  5
559
330
18
100
AcDbEntity
  8
Object
100
AcDbLine
 10
6.217
 20
3.791267710199765
 30
0.0
 11
6.275999999999999
 21
3.791267710199765
 31
0.0
  0
LINE
  5
55A
330
18
100
AcDbEntity
  8
Object
100
AcDbLine
 10
6.469
 20
3.876267710199766
 30
0.0
 11
6.469
 21
3.791267710199765
 31
0.0
  0
LINE
  5
55B
330
18
100
AcDbEntity
  8
Object
100
AcDbLine
 10
6.820999999999999
 20
3.791267710199765
 30
0.0
 11
6.892
 21
3.791267710199765
 31
0.0
  0
LINE
  5
55C
330
18
100
AcDbEntity
  8
Object
100
AcDbLine
 10
6.927999999999999
 20
3.991267710199766
 30
0.0
 11
6.886
 21
3.991267710199766
 31
0.0
  0
LINE
  5
55D
330
18
100
AcDbEntity
  8
Object
100
AcDbLine
 10
6.506
 20
3.791267710199765
 30
0.0
 11
6.565999999999999
 21
3.791267710199765
 31
0.0
  0
LINE
  5
55E
330
18
100
AcDbEntity
  8
Object
100
AcDbLine
 10
6.600999999999999
 20
3.791267710199765
 30
0.0
 11
6.600999999999999
 21
3.991267710199766
 31
0.0
  0
LINE
  5
55F
330
18
100
AcDbEntity
  8
Object
100
AcDbLine
 10
6.850999999999999
 20
3.991267710199766
 30
0.0
 11
6.785
 21
3.991267710199766
 31
0.0
  0
LINE
  5
560
330
18
100
AcDbEntity
  8
Object
100
AcDbLine
 10
6.288999999999999
 20
3.820267710199765
 30
0.0
 11
6.365
 21
3.820267710199765
 31
0.0
  0
LINE
  5
561
330
18
100
AcDbEntity
  8
Object
100
AcDbLine
 10
6.515
 20
3.991267710199766
 30
0.0
 11
6.515
 21
3.910267710199765
 31
0.0
  0
LINE
  5
562
330
18
100
AcDbEntity
  8
Object
100
AcDbLine
 10
6.411999999999999
 20
3.991267710199766
 30
0.0
 11
6.411999999999999
 21
3.861267710199765
 31
0.0
  0
LINE
  5
563
330
18
100
AcDbEntity
  8
Object
100
AcDbLine
 10
6.963
 20
3.791267710199765
 30
0.0
 11
7.017
 21
3.791267710199765
 31
0.0
  0
LINE
  5
564
330
18
100
AcDbEntity
  8
Object
100
AcDbLine
 10
6.959
 20
3.791267710199765
 30
0.0
 11
6.967999999999999
 21
3.791267710199765
 31
0.0
  0
LINE
  5
565
330
18
100
AcDbEntity
  8
Object
100
AcDbLine
 10
7.155
 20
3.950267710199765
 30
0.0
 11
7.155
 21
3.791267710199765
 31
0.0
  0
LINE
  5
566
330
18
100
AcDbEntity
  8
Object
100
AcDbLine
 10
6.75
 20
3.826267710199765
 30
0.0
 11
6.75
 21
3.827267710199765
 31
0.0
  0
LINE
  5
567
330
18
100
AcDbEntity
  8
Object
100
AcDbLine
 10
6.75
 20
3.827267710199765
 30
0.0
 11
6.75
 21
3.956267710199766
 31
0.0
  0
LINE
  5
568
330
18
100
AcDbEntity
  8
Object
100
AcDbLine
 10
6.963
 20
3.791267710199765
 30
0.0
 11
6.963
 21
3.991267710199766
 31
0.0
  0
LINE
  5
569
330
18
100
AcDbEntity
  8
Object
100
AcDbLine
 10
7.092999999999999
 20
3.950267710199765
 30
0.0
 11
7.052
 21
3.950267710199765
 31
0.0
  0
LINE
  5
56A
330
18
100
AcDbEntity
  8
Object
100
AcDbLine
 10
6.850999999999999
 20
3.847267710199766
 30
0.0
 11
6.850999999999999
 21
3.991267710199766
 31
0.0
  0
LINE
  5
56B
330
18
100
AcDbEntity
  8
Object
100
AcDbLine
 10
6.48
 20
3.991267710199766
 30
0.0
 11
6.411999999999999
 21
3.991267710199766
 31
0.0
  0
LINE
  5
56C
330
18
100
AcDbEntity
  8
Object
100
AcDbLine
 10
7.155
 20
3.950267710199765
 30
0.0
 11
7.201
 21
3.950267710199765
 31
0.0
  0
LINE
  5
56D
330
18
100
AcDbEntity
  8
Object
100
AcDbLine
 10
6.354
 20
3.991267710199766
 30
0.0
 11
6.301
 21
3.991267710199766
 31
0.0
  0
LINE
  5
56E
330
18
100
AcDbEntity
  8
Object
100
AcDbLine
 10
6.214999999999999
 20
4.052267710199766
 30
0.0
 11
6.033
 21
4.052267710199766
 31
0.0
  0
LINE
  5
56F
330
18
100
AcDbEntity
  8
Object
100
AcDbLine
 10
7.092999999999999
 20
3.791267710199765
 30
0.0
 11
7.092999999999999
 21
3.950267710199765
 31
0.0
  0
LINE
  5
570
330
18
100
AcDbEntity
  8
Object
100
AcDbLine
 10
7.201
 20
3.991267710199766
 30
0.0
 11
7.052
 21
3.991267710199766
 31
0.0
  0
LINE
  5
571
330
18
100
AcDbEntity
  8
Object
100
AcDbLine
 10
7.017
 20
3.991267710199766
 30
0.0
 11
7.017
 21
3.791267710199765
 31
0.0
  0
LINE
  5
572
330
18
100
AcDbEntity
  8
Object
100
AcDbLine
 10
6.150999999999999
 20
3.791267710199765
 30
0.0
 11
6.150999999999999
 21
3.873267710199765
 31
0.0
  0
LINE
  5
573
330
18
100
AcDbEntity
  8
Object
100
AcDbLine
 10
7.150999999999999
 20
3.791267710199765
 30
0.0
 11
7.16
 21
3.791267710199765
 31
0.0
  0
LINE
  5
574
330
18
100
AcDbEntity
  8
Object
100
AcDbLine
 10
7.092999999999999
 20
3.791267710199765
 30
0.0
 11
7.155
 21
3.791267710199765
 31
0.0
  0
LINE
  5
575
330
18
100
AcDbEntity
  8
Object
100
AcDbLine
 10
6.254999999999999
 20
3.882267710199766
 30
0.0
 11
6.217
 21
3.791267710199765
 31
0.0
  0
LINE
  5
576
330
18
100
AcDbEntity
  8
Object
100
AcDbLine
 10
7.052
 20
3.950267710199765
 30
0.0
 11
7.052
 21
3.991267710199766
 31
0.0
  0
LINE
  5
577
330
18
100
AcDbEntity
  8
Object
100
AcDbLine
 10
6.802999999999999
 20
3.796267710199765
 30
0.0
 11
6.820999999999999
 21
3.791267710199765
 31
0.0
  0
LINE
  5
578
330
18
100
AcDbEntity
  8
Object
100
AcDbLine
 10
6.802999999999999
 20
3.796267710199765
 30
0.0
 11
6.79
 21
3.809267710199765
 31
0.0
  0
LINE
  5
579
330
18
100
AcDbEntity
  8
Object
100
AcDbLine
 10
6.785
 20
3.826267710199765
 30
0.0
 11
6.785
 21
3.827267710199765
 31
0.0
  0
LINE
  5
57A
330
18
100
AcDbEntity
  8
Object
100
AcDbLine
 10
6.785
 20
3.827267710199765
 30
0.0
 11
6.79
 21
3.809267710199765
 31
0.0
  0
LINE
  5
57B
330
18
100
AcDbEntity
  8
Object
100
AcDbLine
 10
6.927999999999999
 20
3.826267710199765
 30
0.0
 11
6.927999999999999
 21
3.827267710199765
 31
0.0
  0
LINE
  5
57C
330
18
100
AcDbEntity
  8
Object
100
AcDbLine
 10
6.927999999999999
 20
3.827267710199765
 30
0.0
 11
6.927999999999999
 21
3.991267710199766
 31
0.0
  0
LINE
  5
57D
330
18
100
AcDbEntity
  8
Object
100
AcDbLine
 10
6.469
 20
3.791267710199765
 30
0.0
 11
6.379
 21
3.791267710199765
 31
0.0
  0
LINE
  5
57E
330
18
100
AcDbEntity
  8
Object
100
AcDbLine
 10
7.201
 20
3.991267710199766
 30
0.0
 11
7.201
 21
3.950267710199765
 31
0.0
  0
LINE
  5
57F
330
18
100
AcDbEntity
  8
Object
100
AcDbLine
 10
6.927999999999999
 20
3.826267710199765
 30
0.0
 11
6.927999999999999
 21
3.827267710199765
 31
0.0
  0
LINE
  5
580
330
18
100
AcDbEntity
  8
Object
100
AcDbLine
 10
6.147
 20
3.791267710199765
 30
0.0
 11
6.155999999999999
 21
3.791267710199765
 31
0.0
  0
LINE
  5
581
330
18
100
AcDbEntity
  8
Object
100
AcDbLine
 10
6.033
 20
3.791267710199765
 30
0.0
 11
6.150999999999999
 21
3.791267710199765
 31
0.0
  0
LINE
  5
582
330
18
100
AcDbEntity
  8
Object
100
AcDbLine
 10
6.565999999999999
 20
3.991267710199766
 30
0.0
 11
6.515
 21
3.991267710199766
 31
0.0
  0
LINE
  5
583
330
18
100
AcDbEntity
  8
Object
100
AcDbLine
 10
6.714
 20
3.991267710199766
 30
0.0
 11
6.600999999999999
 21
3.991267710199766
 31
0.0
  0
LINE
  5
584
330
18
100
AcDbEntity
  8
Object
100
AcDbLine
 10
6.285
 20
3.820267710199765
 30
0.0
 11
6.294
 21
3.820267710199765
 31
0.0
  0
LINE
  5
585
330
18
100
AcDbEntity
  8
Object
100
AcDbLine
 10
6.600999999999999
 20
3.791267710199765
 30
0.0
 11
6.714
 21
3.791267710199765
 31
0.0
  0
LINE
  5
586
330
18
100
AcDbEntity
  8
Object
100
AcDbLine
 10
6.597
 20
3.791267710199765
 30
0.0
 11
6.605999999999999
 21
3.791267710199765
 31
0.0
  0
LINE
  5
587
330
18
100
AcDbEntity
  8
Object
100
AcDbLine
 10
6.033
 20
3.791267710199765
 30
0.0
 11
6.033
 21
4.052267710199766
 31
0.0
  0
LINE
  5
588
330
18
100
AcDbEntity
  8
Object
100
AcDbLine
 10
6.75
 20
3.826267710199765
 30
0.0
 11
6.75
 21
3.827267710199765
 31
0.0
  0
LINE
  5
589
330
18
100
AcDbEntity
  8
Object
100
AcDbLine
 10
6.886
 20
3.991267710199766
 30
0.0
 11
6.886
 21
3.847267710199766
 31
0.0
  0
LINE
  5
58A
330
18
100
AcDbEntity
  8
Object
100
AcDbLine
 10
6.515
 20
3.991267710199766
 30
0.0
 11
6.515
 21
3.910267710199765
 31
0.0
  0
LINE
  5
58B
330
18
100
AcDbEntity
  8
Object
100
AcDbLine
 10
6.565999999999999
 20
3.791267710199765
 30
0.0
 11
6.565999999999999
 21
3.991267710199766
 31
0.0
  0
LINE
  5
58C
330
18
100
AcDbEntity
  8
Object
100
AcDbLine
 10
6.515
 20
3.910267710199765
 30
0.0
 11
6.48
 21
3.991267710199766
 31
0.0
  0
LINE
  5
58D
330
18
100
AcDbEntity
  8
Object
100
AcDbLine
 10
6.411999999999999
 20
3.991267710199766
 30
0.0
 11
6.411999999999999
 21
3.861267710199765
 31
0.0
  0
LINE
  5
58E
330
18
100
AcDbEntity
  8
Object
100
AcDbLine
 10
6.469
 20
3.791267710199765
 30
0.0
 11
6.469
 21
3.876267710199766
 31
0.0
  0
LINE
  5
58F
330
18
100
AcDbEntity
  8
Object
100
AcDbLine
 10
6.411999999999999
 20
3.861267710199765
 30
0.0
 11
6.354
 21
3.991267710199766
 31
0.0
  0
LINE
  5
590
330
18
100
AcDbEntity
  8
Object
100
AcDbLine
 10
6.326
 20
3.920267710199765
 30
0.0
 11
6.352
 21
3.863267710199766
 31
0.0
  0
LINE
  5
591
330
18
100
AcDbEntity
  8
Object
100
AcDbLine
 10
6.352
 20
3.863267710199766
 30
0.0
 11
6.301
 21
3.863267710199766
 31
0.0
  0
LINE
  5
592
330
18
100
AcDbEntity
  8
Object
100
AcDbLine
 10
6.301
 20
3.863267710199766
 30
0.0
 11
6.326
 21
3.920267710199765
 31
0.0
  0
LINE
  5
593
330
18
100
AcDbEntity
  8
Object
100
AcDbLine
 10
6.275999999999999
 20
3.791267710199765
 30
0.0
 11
6.288999999999999
 21
3.820267710199765
 31
0.0
  0
LINE
  5
594
330
18
100
AcDbEntity
  8
Object
100
AcDbLine
 10
6.251999999999999
 20
4.045267710199765
 30
0.0
 11
6.282
 21
4.023267710199766
 31
0.0
  0
LINE
  5
595
330
18
100
AcDbEntity
  8
Object
100
AcDbLine
 10
6.282
 20
4.023267710199766
 30
0.0
 11
6.301
 21
3.991267710199766
 31
0.0
  0
LINE
  5
596
330
18
100
AcDbEntity
  8
Object
100
AcDbLine
 10
6.241999999999999
 20
3.877267710199765
 30
0.0
 11
6.254999999999999
 21
3.882267710199766
 31
0.0
  0
LINE
  5
597
330
18
100
AcDbEntity
  8
Object
100
AcDbLine
 10
6.189
 20
3.994267710199766
 30
0.0
 11
6.189
 21
3.927267710199766
 31
0.0
  0
LINE
  5
598
330
18
100
AcDbEntity
  8
Object
100
AcDbLine
 10
6.251999999999999
 20
4.045267710199765
 30
0.0
 11
6.214999999999999
 21
4.052267710199766
 31
0.0
  0
LINE
  5
599
330
18
100
AcDbEntity
  8
Object
100
AcDbLine
 10
6.241999999999999
 20
3.877267710199765
 30
0.0
 11
6.229
 21
3.874267710199765
 31
0.0
  0
LINE
  5
59A
330
18
100
AcDbEntity
  8
Object
100
AcDbLine
 10
6.229
 20
3.874267710199765
 30
0.0
 11
6.214999999999999
 21
3.873267710199765
 31
0.0
  0
LINE
  5
59B
330
18
100
AcDbEntity
  8
Object
100
AcDbLine
 10
6.189
 20
3.927267710199766
 30
0.0
 11
6.187999999999999
 21
3.921267710199765
 31
0.0
  0
LINE
  5
59C
330
18
100
AcDbEntity
  8
Object
100
AcDbLine
 10
6.189
 20
3.994267710199766
 30
0.0
 11
6.187999999999999
 21
4.000267710199765
 31
0.0
  0
LINE
  5
59D
330
18
100
AcDbEntity
  8
Object
100
AcDbLine
 10
6.187999999999999
 20
4.000267710199765
 30
0.0
 11
6.182999999999999
 21
4.005267710199765
 31
0.0
  0
LINE
  5
59E
330
18
100
AcDbEntity
  8
Object
100
AcDbLine
 10
6.187999999999999
 20
3.921267710199765
 30
0.0
 11
6.182999999999999
 21
3.916267710199765
 31
0.0
  0
LINE
  5
59F
330
18
100
AcDbEntity
  8
Object
100
AcDbLine
 10
6.182999999999999
 20
3.916267710199765
 30
0.0
 11
6.177
 21
3.915267710199765
 31
0.0
  0
LINE
  5
5A0
330
18
100
AcDbEntity
  8
Object
100
AcDbLine
 10
6.182999999999999
 20
4.005267710199765
 30
0.0
 11
6.177
 21
4.006267710199765
 31
0.0
  0
LINE
  5
5A1
330
18
100
AcDbEntity
  8
Object
100
AcDbLine
 10
6.177
 20
4.006267710199765
 30
0.0
 11
6.150999999999999
 21
4.006267710199765
 31
0.0
  0
LINE
  5
5A2
330
18
100
AcDbEntity
  8
Object
100
AcDbLine
 10
6.177
 20
3.915267710199765
 30
0.0
 11
6.150999999999999
 21
3.915267710199765
 31
0.0
  0
LINE
  5
5A3
330
18
100
AcDbEntity
  8
Object
100
AcDbLine
 10
6.150999999999999
 20
3.915267710199765
 30
0.0
 11
6.150999999999999
 21
4.006267710199765
 31
0.0
  0
LINE
  5
5A4
330
18
100
AcDbEntity
  8
Object
100
AcDbLine
 10
6.150999999999999
 20
3.791267710199765
 30
0.0
 11
6.150999999999999
 21
3.873267710199765
 31
0.0
  0
LINE
  5
5A5
330
18
100
AcDbEntity
  8
Object
100
AcDbLine
 10
6.033
 20
4.052267710199766
 30
0.0
 11
6.033
 21
3.791267710199765
 31
0.0
  0
LINE
  5
5A6
330
18
100
AcDbEntity
  8
Object
100
AcDbLine
 10
6.886
 20
3.991267710199766
 30
0.0
 11
6.886
 21
3.847267710199766
 31
0.0
  0
LINE
  5
5A7
330
18
100
AcDbEntity
  8
Object
100
AcDbLine
 10
6.927999999999999
 20
3.991267710199766
 30
0.0
 11
6.927999999999999
 21
3.827267710199765
 31
0.0
  0
LINE
  5
5A8
330
18
100
AcDbEntity
  8
Object
100
AcDbLine
 10
6.927999999999999
 20
3.827267710199765
 30
0.0
 11
6.923
 21
3.809267710199765
 31
0.0
  0
LINE
  5
5A9
330
18
100
AcDbEntity
  8
Object
100
AcDbLine
 10
6.886
 20
3.847267710199766
 30
0.0
 11
6.884999999999999
 21
3.842267710199765
 31
0.0
  0
LINE
  5
5AA
330
18
100
AcDbEntity
  8
Object
100
AcDbLine
 10
6.884999999999999
 20
3.842267710199765
 30
0.0
 11
6.881
 21
3.839267710199765
 31
0.0
  0
LINE
  5
5AB
330
18
100
AcDbEntity
  8
Object
100
AcDbLine
 10
6.923
 20
3.809267710199765
 30
0.0
 11
6.91
 21
3.796267710199765
 31
0.0
  0
LINE
  5
5AC
330
18
100
AcDbEntity
  8
Object
100
AcDbLine
 10
6.91
 20
3.796267710199765
 30
0.0
 11
6.892
 21
3.791267710199765
 31
0.0
  0
LINE
  5
5AD
330
18
100
AcDbEntity
  8
Object
100
AcDbLine
 10
6.881
 20
3.839267710199765
 30
0.0
 11
6.876
 21
3.837267710199766
 31
0.0
  0
LINE
  5
5AE
330
18
100
AcDbEntity
  8
Object
100
AcDbLine
 10
6.876
 20
3.837267710199766
 30
0.0
 11
6.862
 21
3.837267710199766
 31
0.0
  0
LINE
  5
5AF
330
18
100
AcDbEntity
  8
Object
100
AcDbLine
 10
6.852999999999999
 20
3.842267710199765
 30
0.0
 11
6.855999999999999
 21
3.839267710199765
 31
0.0
  0
LINE
  5
5B0
330
18
100
AcDbEntity
  8
Object
100
AcDbLine
 10
6.855999999999999
 20
3.839267710199765
 30
0.0
 11
6.862
 21
3.837267710199766
 31
0.0
  0
LINE
  5
5B1
330
18
100
AcDbEntity
  8
Object
100
AcDbLine
 10
6.850999999999999
 20
3.847267710199766
 30
0.0
 11
6.850999999999999
 21
3.991267710199766
 31
0.0
  0
LINE
  5
5B2
330
18
100
AcDbEntity
  8
Object
100
AcDbLine
 10
6.785
 20
3.991267710199766
 30
0.0
 11
6.785
 21
3.827267710199765
 31
0.0
  0
LINE
  5
5B3
330
18
100
AcDbEntity
  8
Object
100
AcDbLine
 10
6.852999999999999
 20
3.842267710199765
 30
0.0
 11
6.850999999999999
 21
3.847267710199766
 31
0.0
  0
LINE
  5
5B4
330
18
100
AcDbEntity
  8
Object
100
AcDbLine
 10
6.690999999999999
 20
3.939267710199765
 30
0.0
 11
6.690999999999999
 21
3.847267710199766
 31
0.0
  0
LINE
  5
5B5
330
18
100
AcDbEntity
  8
Object
100
AcDbLine
 10
6.75
 20
3.827267710199765
 30
0.0
 11
6.75
 21
3.956267710199766
 31
0.0
  0
LINE
  5
5B6
330
18
100
AcDbEntity
  8
Object
100
AcDbLine
 10
6.714
 20
3.991267710199766
 30
0.0
 11
6.732
 21
3.986267710199765
 31
0.0
  0
LINE
  5
5B7
330
18
100
AcDbEntity
  8
Object
100
AcDbLine
 10
6.732
 20
3.986267710199765
 30
0.0
 11
6.745
 21
3.973267710199765
 31
0.0
  0
LINE
  5
5B8
330
18
100
AcDbEntity
  8
Object
100
AcDbLine
 10
6.745
 20
3.973267710199765
 30
0.0
 11
6.75
 21
3.956267710199766
 31
0.0
  0
LINE
  5
5B9
330
18
100
AcDbEntity
  8
Object
100
AcDbLine
 10
6.69
 20
3.944267710199765
 30
0.0
 11
6.690999999999999
 21
3.939267710199765
 31
0.0
  0
LINE
  5
5BA
330
18
100
AcDbEntity
  8
Object
100
AcDbLine
 10
6.75
 20
3.827267710199765
 30
0.0
 11
6.745
 21
3.809267710199765
 31
0.0
  0
LINE
  5
5BB
330
18
100
AcDbEntity
  8
Object
100
AcDbLine
 10
6.745
 20
3.809267710199765
 30
0.0
 11
6.732
 21
3.796267710199765
 31
0.0
  0
LINE
  5
5BC
330
18
100
AcDbEntity
  8
Object
100
AcDbLine
 10
6.732
 20
3.796267710199765
 30
0.0
 11
6.714
 21
3.791267710199765
 31
0.0
  0
LINE
  5
5BD
330
18
100
AcDbEntity
  8
Object
100
AcDbLine
 10
6.690999999999999
 20
3.847267710199766
 30
0.0
 11
6.69
 21
3.842267710199765
 31
0.0
  0
LINE
  5
5BE
330
18
100
AcDbEntity
  8
Object
100
AcDbLine
 10
6.685999999999999
 20
3.948267710199765
 30
0.0
 11
6.69
 21
3.944267710199765
 31
0.0
  0
LINE
  5
5BF
330
18
100
AcDbEntity
  8
Object
100
AcDbLine
 10
6.69
 20
3.842267710199765
 30
0.0
 11
6.685999999999999
 21
3.839267710199765
 31
0.0
  0
LINE
  5
5C0
330
18
100
AcDbEntity
  8
Object
100
AcDbLine
 10
6.681
 20
3.949267710199766
 30
0.0
 11
6.685999999999999
 21
3.948267710199765
 31
0.0
  0
LINE
  5
5C1
330
18
100
AcDbEntity
  8
Object
100
AcDbLine
 10
6.685999999999999
 20
3.839267710199765
 30
0.0
 11
6.681
 21
3.837267710199766
 31
0.0
  0
LINE
  5
5C2
330
18
100
AcDbEntity
  8
Object
100
AcDbLine
 10
6.661
 20
3.949267710199766
 30
0.0
 11
6.681
 21
3.949267710199766
 31
0.0
  0
LINE
  5
5C3
330
18
100
AcDbEntity
  8
Object
100
AcDbLine
 10
6.681
 20
3.837267710199766
 30
0.0
 11
6.661
 21
3.837267710199766
 31
0.0
  0
LINE
  5
5C4
330
18
100
AcDbEntity
  8
Object
100
AcDbLine
 10
6.661
 20
3.837267710199766
 30
0.0
 11
6.661
 21
3.949267710199766
 31
0.0
  0
LINE
  5
5C5
330
18
100
AcDbEntity
  8
Object
100
AcDbLine
 10
6.600999999999999
 20
3.991267710199766
 30
0.0
 11
6.600999999999999
 21
3.791267710199765
 31
0.0
  0
LINE
  5
5C6
330
18
100
AcDbEntity
  8
Object
100
AcDbLine
 10
7.017
 20
3.791267710199765
 30
0.0
 11
7.017
 21
3.991267710199766
 31
0.0
  0
LINE
  5
5C7
330
18
100
AcDbEntity
  8
Object
100
AcDbLine
 10
6.963
 20
3.791267710199765
 30
0.0
 11
6.963
 21
3.991267710199766
 31
0.0
  0
LINE
  5
5C8
330
18
100
AcDbEntity
  8
Object
100
AcDbLine
 10
6.963
 20
3.991267710199766
 30
0.0
 11
7.017
 21
3.991267710199766
 31
0.0
  0
LINE
  5
5C9
330
18
100
AcDbEntity
  8
Object
100
AcDbLine
 10
7.201
 20
3.950267710199765
 30
0.0
 11
7.201
 21
3.991267710199766
 31
0.0
  0
LINE
  5
5CA
330
18
100
AcDbEntity
  8
Object
100
AcDbLine
 10
7.155
 20
3.791267710199765
 30
0.0
 11
7.155
 21
3.950267710199765
 31
0.0
  0
LINE
  5
5CB
330
18
100
AcDbEntity
  8
Object
100
AcDbLine
 10
7.092999999999999
 20
3.950267710199765
 30
0.0
 11
7.092999999999999
 21
3.791267710199765
 31
0.0
  0
LINE
  5
5CC
330
18
100
AcDbEntity
  8
Object
100
AcDbLine
 10
7.052
 20
3.991267710199766
 30
0.0
 11
7.052
 21
3.950267710199765
 31
0.0
  0
LINE
  5
5CD
330
18
100
AcDbEntity
  8
Object
100
AcDbLine
 10
6.177
 20
4.006267710199765
 30
0.0
 11
6.150999999999999
 21
4.006267710199765
 31
0.0
  0
LINE
  5
5CE
330
18
100
AcDbEntity
  8
Object
100
AcDbLine
 10
6.326
 20
3.920267710199765
 30
0.0
 11
6.326
 21
3.919267710199765
 31
0.0
  0
LINE
  5
5CF
330
18
100
AcDbEntity
  8
Object
100
AcDbLine
 10
6.326
 20
3.919267710199765
 30
0.0
 11
6.301
 21
3.863267710199766
 31
0.0
  0
LINE
  5
5D0
330
18
100
AcDbEntity
  8
Object
100
AcDbLine
 10
6.189
 20
3.994267710199766
 30
0.0
 11
6.189
 21
3.927267710199766
 31
0.0
  0
LINE
  5
5D1
330
18
100
AcDbEntity
  8
Object
100
AcDbLine
 10
6.150999999999999
 20
3.915267710199765
 30
0.0
 11
6.150999999999999
 21
4.006267710199765
 31
0.0
  0
LINE
  5
5D2
330
18
100
AcDbEntity
  8
Object
100
AcDbLine
 10
6.187999999999999
 20
3.999267710199765
 30
0.0
 11
6.182999999999999
 21
4.004267710199766
 31
0.0
  0
LINE
  5
5D3
330
18
100
AcDbEntity
  8
Object
100
AcDbLine
 10
6.182999999999999
 20
4.004267710199766
 30
0.0
 11
6.177
 21
4.006267710199765
 31
0.0
  0
LINE
  5
5D4
330
18
100
AcDbEntity
  8
Object
100
AcDbLine
 10
6.661
 20
3.837267710199766
 30
0.0
 11
6.661
 21
3.949267710199766
 31
0.0
  0
LINE
  5
5D5
330
18
100
AcDbEntity
  8
Object
100
AcDbLine
 10
6.685999999999999
 20
3.947267710199765
 30
0.0
 11
6.681
 21
3.949267710199766
 31
0.0
  0
LINE
  5
5D6
330
18
100
AcDbEntity
  8
Object
100
AcDbLine
 10
6.681
 20
3.949267710199766
 30
0.0
 11
6.661
 21
3.949267710199766
 31
0.0
  0
LINE
  5
5D7
330
18
100
AcDbEntity
  8
Object
100
AcDbLine
 10
6.690999999999999
 20
3.939267710199765
 30
0.0
 11
6.690999999999999
 21
3.847267710199766
 31
0.0
  0
LINE
  5
5D8
330
18
100
AcDbEntity
  8
Object
100
AcDbLine
 10
6.189
 20
3.993267710199765
 30
0.0
 11
6.187999999999999
 21
3.999267710199765
 31
0.0
  0
LINE
  5
5D9
330
18
100
AcDbEntity
  8
Object
100
AcDbLine
 10
6.350999999999999
 20
3.863267710199766
 30
0.0
 11
6.326
 21
3.919267710199765
 31
0.0
  0
LINE
  5
5DA
330
18
100
AcDbEntity
  8
Object
100
AcDbLine
 10
6.690999999999999
 20
3.939267710199765
 30
0.0
 11
6.69
 21
3.944267710199765
 31
0.0
  0
LINE
  5
5DB
330
18
100
AcDbEntity
  8
Object
100
AcDbLine
 10
6.69
 20
3.944267710199765
 30
0.0
 11
6.685999999999999
 21
3.947267710199765
 31
0.0
  0
LINE
  5
5DC
330
18
100
AcDbEntity
  8
Object
100
AcDbLine
 10
11.254
 20
12.10671335838249
 30
0.0
 11
11.033
 21
12.10671335838249
 31
0.0
  0
LINE
  5
5DD
330
18
100
AcDbEntity
  8
Object
100
AcDbLine
 10
2.179
 20
12.10671335838249
 30
0.0
 11
1.958
 21
12.10671335838249
 31
0.0
  0
LINE
  5
5DE
330
18
100
AcDbEntity
  8
Object
100
AcDbLine
 10
11.254
 20
12.10671335838249
 30
0.0
 11
11.033
 21
12.10671335838249
 31
0.0
  0
LINE
  5
5DF
330
18
100
AcDbEntity
  8
Object
100
AcDbLine
 10
11.033
 20
11.98171335838249
 30
0.0
 11
11.285
 21
11.98171335838249
 31
0.0
  0
LINE
  5
5E0
330
18
100
AcDbEntity
  8
Object
100
AcDbLine
 10
9.543000000000001
 20
12.6417133583825
 30
0.0
 11
9.476
 21
12.72071335838249
 31
0.0
  0
LINE
  5
5E1
330
18
100
AcDbEntity
  8
Object
100
AcDbLine
 10
9.476
 20
12.72071335838249
 30
0.0
 11
9.413
 21
12.80271335838249
 31
0.0
  0
LINE
  5
5E2
330
18
100
AcDbEntity
  8
Object
100
AcDbLine
 10
9.543000000000001
 20
12.6417133583825
 30
0.0
 11
9.615
 21
12.56671335838249
 31
0.0
  0
LINE
  5
5E3
330
18
100
AcDbEntity
  8
Object
100
AcDbLine
 10
10.763
 20
12.12571335838249
 30
0.0
 11
9.170999999999999
 21
13.71171335838249
 31
0.0
  0
LINE
  5
5E4
330
18
100
AcDbEntity
  8
Object
100
AcDbLine
 10
9.170999999999999
 20
13.71171335838249
 30
0.0
 11
9.156
 21
13.84671335838249
 31
0.0
  0
LINE
  5
5E5
330
18
100
AcDbEntity
  8
Object
100
AcDbLine
 10
9.114
 20
15.98171335838249
 30
0.0
 11
8.989
 21
15.98171335838249
 31
0.0
  0
LINE
  5
5E6
330
18
100
AcDbEntity
  8
Object
100
AcDbLine
 10
11.033
 20
12.10671335838249
 30
0.0
 11
10.898
 21
12.11071335838249
 31
0.0
  0
LINE
  5
5E7
330
18
100
AcDbEntity
  8
Object
100
AcDbLine
 10
10.898
 20
12.11071335838249
 30
0.0
 11
10.763
 21
12.12571335838249
 31
0.0
  0
LINE
  5
5E8
330
18
100
AcDbEntity
  8
Object
100
AcDbLine
 10
9.156
 20
13.84671335838249
 30
0.0
 11
9.150999999999999
 21
13.98171335838249
 31
0.0
  0
LINE
  5
5E9
330
18
100
AcDbEntity
  8
Object
100
AcDbLine
 10
4.099
 20
15.98171335838249
 30
0.0
 11
4.224
 21
15.98171335838249
 31
0.0
  0
LINE
  5
5EA
330
18
100
AcDbEntity
  8
Object
100
AcDbLine
 10
4.224
 20
15.98171335838249
 30
0.0
 11
4.187000000000001
 21
13.98171335838249
 31
0.0
  0
LINE
  5
5EB
330
18
100
AcDbEntity
  8
Object
100
AcDbLine
 10
4.187000000000001
 20
13.98171335838249
 30
0.0
 11
4.185
 21
13.8917133583825
 31
0.0
  0
LINE
  5
5EC
330
18
100
AcDbEntity
  8
Object
100
AcDbLine
 10
4.099
 20
15.98171335838249
 30
0.0
 11
4.060999999999999
 21
13.98171335838249
 31
0.0
  0
LINE
  5
5ED
330
18
100
AcDbEntity
  8
Object
100
AcDbLine
 10
4.060999999999999
 20
13.98171335838249
 30
0.0
 11
4.056
 21
13.84671335838249
 31
0.0
  0
LINE
  5
5EE
330
18
100
AcDbEntity
  8
Object
100
AcDbLine
 10
4.185
 20
13.8917133583825
 30
0.0
 11
4.178
 21
13.80171335838249
 31
0.0
  0
LINE
  5
5EF
330
18
100
AcDbEntity
  8
Object
100
AcDbLine
 10
4.178
 20
13.80171335838249
 30
0.0
 11
4.167999999999999
 21
13.70971335838249
 31
0.0
  0
LINE
  5
5F0
330
18
100
AcDbEntity
  8
Object
100
AcDbLine
 10
4.056
 20
13.84671335838249
 30
0.0
 11
4.041999999999999
 21
13.71171335838249
 31
0.0
  0
LINE
  5
5F1
330
18
100
AcDbEntity
  8
Object
100
AcDbLine
 10
4.167999999999999
 20
13.70971335838249
 30
0.0
 11
4.153
 21
13.61771335838249
 31
0.0
  0
LINE
  5
5F2
330
18
100
AcDbEntity
  8
Object
100
AcDbLine
 10
4.153
 20
13.61771335838249
 30
0.0
 11
4.132999999999999
 21
13.52471335838249
 31
0.0
  0
LINE
  5
5F3
330
18
100
AcDbEntity
  8
Object
100
AcDbLine
 10
4.132999999999999
 20
13.52471335838249
 30
0.0
 11
4.108999999999999
 21
13.4307133583825
 31
0.0
  0
LINE
  5
5F4
330
18
100
AcDbEntity
  8
Object
100
AcDbLine
 10
4.108999999999999
 20
13.4307133583825
 30
0.0
 11
4.079
 21
13.33771335838249
 31
0.0
  0
LINE
  5
5F5
330
18
100
AcDbEntity
  8
Object
100
AcDbLine
 10
4.079
 20
13.33771335838249
 30
0.0
 11
4.044999999999999
 21
13.24471335838249
 31
0.0
  0
LINE
  5
5F6
330
18
100
AcDbEntity
  8
Object
100
AcDbLine
 10
4.044999999999999
 20
13.24471335838249
 30
0.0
 11
4.006
 21
13.15271335838249
 31
0.0
  0
LINE
  5
5F7
330
18
100
AcDbEntity
  8
Object
100
AcDbLine
 10
4.006
 20
13.15271335838249
 30
0.0
 11
3.961999999999999
 21
13.06271335838249
 31
0.0
  0
LINE
  5
5F8
330
18
100
AcDbEntity
  8
Object
100
AcDbLine
 10
3.961999999999999
 20
13.06271335838249
 30
0.0
 11
3.911999999999999
 21
12.97371335838249
 31
0.0
  0
LINE
  5
5F9
330
18
100
AcDbEntity
  8
Object
100
AcDbLine
 10
3.911999999999999
 20
12.97371335838249
 30
0.0
 11
3.858999999999999
 21
12.88671335838249
 31
0.0
  0
LINE
  5
5FA
330
18
100
AcDbEntity
  8
Object
100
AcDbLine
 10
3.858999999999999
 20
12.88671335838249
 30
0.0
 11
3.8
 21
12.80271335838249
 31
0.0
  0
LINE
  5
5FB
330
18
100
AcDbEntity
  8
Object
100
AcDbLine
 10
3.8
 20
12.80271335838249
 30
0.0
 11
3.737
 21
12.72071335838249
 31
0.0
  0
LINE
  5
5FC
330
18
100
AcDbEntity
  8
Object
100
AcDbLine
 10
3.737
 20
12.72071335838249
 30
0.0
 11
3.669
 21
12.6417133583825
 31
0.0
  0
LINE
  5
5FD
330
18
100
AcDbEntity
  8
Object
100
AcDbLine
 10
4.041999999999999
 20
13.71171335838249
 30
0.0
 11
2.448999999999999
 21
12.12571335838249
 31
0.0
  0
LINE
  5
5FE
330
18
100
AcDbEntity
  8
Object
100
AcDbLine
 10
3.669
 20
12.6417133583825
 30
0.0
 11
3.597999999999998
 21
12.56671335838249
 31
0.0
  0
LINE
  5
5FF
330
18
100
AcDbEntity
  8
Object
100
AcDbLine
 10
3.597999999999998
 20
12.56671335838249
 30
0.0
 11
3.522
 21
12.49571335838249
 31
0.0
  0
LINE
  5
600
330
18
100
AcDbEntity
  8
Object
100
AcDbLine
 10
3.522
 20
12.49571335838249
 30
0.0
 11
3.443999999999999
 21
12.42871335838249
 31
0.0
  0
LINE
  5
601
330
18
100
AcDbEntity
  8
Object
100
AcDbLine
 10
3.443999999999999
 20
12.42871335838249
 30
0.0
 11
3.362
 21
12.36571335838249
 31
0.0
  0
LINE
  5
602
330
18
100
AcDbEntity
  8
Object
100
AcDbLine
 10
3.362
 20
12.36571335838249
 30
0.0
 11
3.277000000000001
 21
12.30771335838249
 31
0.0
  0
LINE
  5
603
330
18
100
AcDbEntity
  8
Object
100
AcDbLine
 10
3.277000000000001
 20
12.30771335838249
 30
0.0
 11
3.189999999999999
 21
12.25371335838249
 31
0.0
  0
LINE
  5
604
330
18
100
AcDbEntity
  8
Object
100
AcDbLine
 10
3.189999999999999
 20
12.25371335838249
 30
0.0
 11
3.099999999999999
 21
12.20471335838249
 31
0.0
  0
LINE
  5
605
330
18
100
AcDbEntity
  8
Object
100
AcDbLine
 10
3.099999999999999
 20
12.20471335838249
 30
0.0
 11
3.009999999999999
 21
12.1607133583825
 31
0.0
  0
LINE
  5
606
330
18
100
AcDbEntity
  8
Object
100
AcDbLine
 10
3.009999999999999
 20
12.1607133583825
 30
0.0
 11
2.917999999999999
 21
12.12171335838249
 31
0.0
  0
LINE
  5
607
330
18
100
AcDbEntity
  8
Object
100
AcDbLine
 10
2.917999999999999
 20
12.12171335838249
 30
0.0
 11
2.824999999999999
 21
12.08771335838249
 31
0.0
  0
LINE
  5
608
330
18
100
AcDbEntity
  8
Object
100
AcDbLine
 10
2.824999999999999
 20
12.08771335838249
 30
0.0
 11
2.730999999999999
 21
12.0587133583825
 31
0.0
  0
LINE
  5
609
330
18
100
AcDbEntity
  8
Object
100
AcDbLine
 10
2.730999999999999
 20
12.0587133583825
 30
0.0
 11
2.637999999999999
 21
12.03371335838249
 31
0.0
  0
LINE
  5
60A
330
18
100
AcDbEntity
  8
Object
100
AcDbLine
 10
2.637999999999999
 20
12.03371335838249
 30
0.0
 11
2.544
 21
12.01471335838249
 31
0.0
  0
LINE
  5
60B
330
18
100
AcDbEntity
  8
Object
100
AcDbLine
 10
2.544
 20
12.01471335838249
 30
0.0
 11
2.451
 21
11.99971335838249
 31
0.0
  0
LINE
  5
60C
330
18
100
AcDbEntity
  8
Object
100
AcDbLine
 10
2.451
 20
11.99971335838249
 30
0.0
 11
2.358999999999999
 21
11.98971335838249
 31
0.0
  0
LINE
  5
60D
330
18
100
AcDbEntity
  8
Object
100
AcDbLine
 10
2.448999999999999
 20
12.12571335838249
 30
0.0
 11
2.314999999999999
 21
12.11071335838249
 31
0.0
  0
LINE
  5
60E
330
18
100
AcDbEntity
  8
Object
100
AcDbLine
 10
2.269
 20
11.98271335838249
 30
0.0
 11
2.358999999999999
 21
11.98971335838249
 31
0.0
  0
LINE
  5
60F
330
18
100
AcDbEntity
  8
Object
100
AcDbLine
 10
2.314999999999999
 20
12.11071335838249
 30
0.0
 11
2.179
 21
12.10671335838249
 31
0.0
  0
LINE
  5
610
330
18
100
AcDbEntity
  8
Object
100
AcDbLine
 10
2.179
 20
11.98171335838249
 30
0.0
 11
2.269
 21
11.98271335838249
 31
0.0
  0
LINE
  5
611
330
18
100
AcDbEntity
  8
Object
100
AcDbLine
 10
2.179
 20
12.10671335838249
 30
0.0
 11
1.958
 21
12.10671335838249
 31
0.0
  0
LINE
  5
612
330
18
100
AcDbEntity
  8
Object
100
AcDbLine
 10
1.946999999999999
 20
12.10371335838249
 30
0.0
 11
1.936999999999999
 21
12.09771335838249
 31
0.0
  0
LINE
  5
613
330
18
100
AcDbEntity
  8
Object
100
AcDbLine
 10
1.936999999999999
 20
12.09771335838249
 30
0.0
 11
1.929999999999999
 21
12.08771335838249
 31
0.0
  0
LINE
  5
614
330
18
100
AcDbEntity
  8
Object
100
AcDbLine
 10
1.958
 20
12.10671335838249
 30
0.0
 11
1.946999999999999
 21
12.10371335838249
 31
0.0
  0
LINE
  5
615
330
18
100
AcDbEntity
  8
Object
100
AcDbLine
 10
1.929999999999999
 20
12.08771335838249
 30
0.0
 11
1.928
 21
12.07671335838249
 31
0.0
  0
LINE
  5
616
330
18
100
AcDbEntity
  8
Object
100
AcDbLine
 10
2.179
 20
11.98171335838249
 30
0.0
 11
1.928
 21
11.98171335838249
 31
0.0
  0
LINE
  5
617
330
18
100
AcDbEntity
  8
Object
100
AcDbLine
 10
1.928
 20
11.98171335838249
 30
0.0
 11
1.928
 21
12.07671335838249
 31
0.0
  0
LINE
  5
618
330
18
100
AcDbEntity
  8
Object
100
AcDbLine
 10
11.284
 20
12.07671335838249
 30
0.0
 11
11.282
 21
12.08771335838249
 31
0.0
  0
LINE
  5
619
330
18
100
AcDbEntity
  8
Object
100
AcDbLine
 10
11.282
 20
12.08771335838249
 30
0.0
 11
11.276
 21
12.09771335838249
 31
0.0
  0
LINE
  5
61A
330
18
100
AcDbEntity
  8
Object
100
AcDbLine
 10
11.276
 20
12.09771335838249
 30
0.0
 11
11.265
 21
12.10371335838249
 31
0.0
  0
LINE
  5
61B
330
18
100
AcDbEntity
  8
Object
100
AcDbLine
 10
11.265
 20
12.10371335838249
 30
0.0
 11
11.254
 21
12.10671335838249
 31
0.0
  0
LINE
  5
61C
330
18
100
AcDbEntity
  8
Object
100
AcDbLine
 10
9.114
 20
15.98171335838249
 30
0.0
 11
8.989
 21
15.98171335838249
 31
0.0
  0
LINE
  5
61D
330
18
100
AcDbEntity
  8
Object
100
AcDbLine
 10
8.989
 20
15.98171335838249
 30
0.0
 11
8.75
 21
15.98171335838249
 31
0.0
  0
LINE
  5
61E
330
18
100
AcDbEntity
  8
Object
100
AcDbLine
 10
8.75
 20
15.98171335838249
 30
0.0
 11
8.74
 21
15.98171335838249
 31
0.0
  0
LINE
  5
61F
330
18
100
AcDbEntity
  8
Object
100
AcDbLine
 10
8.74
 20
15.98171335838249
 30
0.0
 11
8.717
 21
15.98171335838249
 31
0.0
  0
LINE
  5
620
330
18
100
AcDbEntity
  8
Object
100
AcDbLine
 10
8.717
 20
15.98171335838249
 30
0.0
 11
8.682999999999999
 21
15.98171335838249
 31
0.0
  0
LINE
  5
621
330
18
100
AcDbEntity
  8
Object
100
AcDbLine
 10
8.682999999999999
 20
15.98171335838249
 30
0.0
 11
8.638999999999999
 21
15.98171335838249
 31
0.0
  0
LINE
  5
622
330
18
100
AcDbEntity
  8
Object
100
AcDbLine
 10
8.638999999999999
 20
15.98171335838249
 30
0.0
 11
8.589
 21
15.98171335838249
 31
0.0
  0
LINE
  5
623
330
18
100
AcDbEntity
  8
Object
100
AcDbLine
 10
8.589
 20
15.98171335838249
 30
0.0
 11
8.535999999999999
 21
15.98171335838249
 31
0.0
  0
LINE
  5
624
330
18
100
AcDbEntity
  8
Object
100
AcDbLine
 10
8.535999999999999
 20
15.98171335838249
 30
0.0
 11
4.676999999999999
 21
15.98171335838249
 31
0.0
  0
LINE
  5
625
330
18
100
AcDbEntity
  8
Object
100
AcDbLine
 10
4.676999999999999
 20
15.98171335838249
 30
0.0
 11
4.623999999999998
 21
15.98171335838249
 31
0.0
  0
LINE
  5
626
330
18
100
AcDbEntity
  8
Object
100
AcDbLine
 10
4.623999999999998
 20
15.98171335838249
 30
0.0
 11
4.573999999999999
 21
15.98171335838249
 31
0.0
  0
LINE
  5
627
330
18
100
AcDbEntity
  8
Object
100
AcDbLine
 10
4.573999999999999
 20
15.98171335838249
 30
0.0
 11
4.530000000000001
 21
15.98171335838249
 31
0.0
  0
LINE
  5
628
330
18
100
AcDbEntity
  8
Object
100
AcDbLine
 10
4.530000000000001
 20
15.98171335838249
 30
0.0
 11
4.496
 21
15.98171335838249
 31
0.0
  0
LINE
  5
629
330
18
100
AcDbEntity
  8
Object
100
AcDbLine
 10
4.496
 20
15.98171335838249
 30
0.0
 11
4.472999999999998
 21
15.98171335838249
 31
0.0
  0
LINE
  5
62A
330
18
100
AcDbEntity
  8
Object
100
AcDbLine
 10
4.472999999999998
 20
15.98171335838249
 30
0.0
 11
4.461999999999999
 21
15.98171335838249
 31
0.0
  0
LINE
  5
62B
330
18
100
AcDbEntity
  8
Object
100
AcDbLine
 10
4.461999999999999
 20
15.98171335838249
 30
0.0
 11
4.224
 21
15.98171335838249
 31
0.0
  0
LINE
  5
62C
330
18
100
AcDbEntity
  8
Object
100
AcDbLine
 10
4.224
 20
15.98171335838249
 30
0.0
 11
4.099
 21
15.98171335838249
 31
0.0
  0
LINE
  5
62D
330
18
100
AcDbEntity
  8
Object
100
AcDbLine
 10
11.284
 20
12.07671335838249
 30
0.0
 11
11.285
 21
11.98171335838249
 31
0.0
  0
LINE
  5
62E
330
18
100
AcDbEntity
  8
Object
100
AcDbLine
 10
11.285
 20
11.98171335838249
 30
0.0
 11
11.033
 21
11.98171335838249
 31
0.0
  0
LINE
  5
62F
330
18
100
AcDbEntity
  8
Object
100
AcDbLine
 10
11.033
 20
11.98171335838249
 30
0.0
 11
10.78
 21
11.98171335838249
 31
0.0
  0
LINE
  5
630
330
18
100
AcDbEntity
  8
Object
100
AcDbLine
 10
10.78
 20
11.98171335838249
 30
0.0
 11
10.76
 21
11.98171335838249
 31
0.0
  0
LINE
  5
631
330
18
100
AcDbEntity
  8
Object
100
AcDbLine
 10
10.76
 20
11.98171335838249
 30
0.0
 11
10.723
 21
11.98171335838249
 31
0.0
  0
LINE
  5
632
330
18
100
AcDbEntity
  8
Object
100
AcDbLine
 10
10.723
 20
11.98171335838249
 30
0.0
 11
10.672
 21
11.98171335838249
 31
0.0
  0
LINE
  5
633
330
18
100
AcDbEntity
  8
Object
100
AcDbLine
 10
10.672
 20
11.98171335838249
 30
0.0
 11
10.605
 21
11.98171335838249
 31
0.0
  0
LINE
  5
634
330
18
100
AcDbEntity
  8
Object
100
AcDbLine
 10
10.605
 20
11.98171335838249
 30
0.0
 11
10.525
 21
11.98171335838249
 31
0.0
  0
LINE
  5
635
330
18
100
AcDbEntity
  8
Object
100
AcDbLine
 10
10.525
 20
11.98171335838249
 30
0.0
 11
10.43
 21
11.98171335838249
 31
0.0
  0
LINE
  5
636
330
18
100
AcDbEntity
  8
Object
100
AcDbLine
 10
10.43
 20
11.98171335838249
 30
0.0
 11
10.322
 21
11.98171335838249
 31
0.0
  0
LINE
  5
637
330
18
100
AcDbEntity
  8
Object
100
AcDbLine
 10
10.322
 20
11.98171335838249
 30
0.0
 11
10.202
 21
11.98171335838249
 31
0.0
  0
LINE
  5
638
330
18
100
AcDbEntity
  8
Object
100
AcDbLine
 10
10.202
 20
11.98171335838249
 30
0.0
 11
10.07
 21
11.98171335838249
 31
0.0
  0
LINE
  5
639
330
18
100
AcDbEntity
  8
Object
100
AcDbLine
 10
10.07
 20
11.98171335838249
 30
0.0
 11
9.928
 21
11.98171335838249
 31
0.0
  0
LINE
  5
63A
330
18
100
AcDbEntity
  8
Object
100
AcDbLine
 10
9.928
 20
11.98171335838249
 30
0.0
 11
9.775999999999999
 21
11.98171335838249
 31
0.0
  0
LINE
  5
63B
330
18
100
AcDbEntity
  8
Object
100
AcDbLine
 10
9.775999999999999
 20
11.98171335838249
 30
0.0
 11
9.615
 21
11.98171335838249
 31
0.0
  0
LINE
  5
63C
330
18
100
AcDbEntity
  8
Object
100
AcDbLine
 10
9.615
 20
11.98171335838249
 30
0.0
 11
9.447
 21
11.98171335838249
 31
0.0
  0
LINE
  5
63D
330
18
100
AcDbEntity
  8
Object
100
AcDbLine
 10
9.447
 20
11.98171335838249
 30
0.0
 11
9.272999999999999
 21
11.98171335838249
 31
0.0
  0
LINE
  5
63E
330
18
100
AcDbEntity
  8
Object
100
AcDbLine
 10
9.272999999999999
 20
11.98171335838249
 30
0.0
 11
9.092999999999999
 21
11.98171335838249
 31
0.0
  0
LINE
  5
63F
330
18
100
AcDbEntity
  8
Object
100
AcDbLine
 10
9.092999999999999
 20
11.98171335838249
 30
0.0
 11
8.909
 21
11.98171335838249
 31
0.0
  0
LINE
  5
640
330
18
100
AcDbEntity
  8
Object
100
AcDbLine
 10
8.909
 20
11.98171335838249
 30
0.0
 11
8.723
 21
11.98171335838249
 31
0.0
  0
LINE
  5
641
330
18
100
AcDbEntity
  8
Object
100
AcDbLine
 10
8.723
 20
11.98171335838249
 30
0.0
 11
8.535999999999999
 21
11.98171335838249
 31
0.0
  0
LINE
  5
642
330
18
100
AcDbEntity
  8
Object
100
AcDbLine
 10
4.676999999999999
 20
11.98171335838249
 30
0.0
 11
4.489
 21
11.98171335838249
 31
0.0
  0
LINE
  5
643
330
18
100
AcDbEntity
  8
Object
100
AcDbLine
 10
4.489
 20
11.98171335838249
 30
0.0
 11
4.303
 21
11.98171335838249
 31
0.0
  0
LINE
  5
644
330
18
100
AcDbEntity
  8
Object
100
AcDbLine
 10
4.303
 20
11.98171335838249
 30
0.0
 11
4.12
 21
11.98171335838249
 31
0.0
  0
LINE
  5
645
330
18
100
AcDbEntity
  8
Object
100
AcDbLine
 10
4.12
 20
11.98171335838249
 30
0.0
 11
3.939999999999999
 21
11.98171335838249
 31
0.0
  0
LINE
  5
646
330
18
100
AcDbEntity
  8
Object
100
AcDbLine
 10
3.939999999999999
 20
11.98171335838249
 30
0.0
 11
3.766
 21
11.98171335838249
 31
0.0
  0
LINE
  5
647
330
18
100
AcDbEntity
  8
Object
100
AcDbLine
 10
3.766
 20
11.98171335838249
 30
0.0
 11
3.596999999999999
 21
11.98171335838249
 31
0.0
  0
LINE
  5
648
330
18
100
AcDbEntity
  8
Object
100
AcDbLine
 10
3.596999999999999
 20
11.98171335838249
 30
0.0
 11
3.437000000000001
 21
11.98171335838249
 31
0.0
  0
LINE
  5
649
330
18
100
AcDbEntity
  8
Object
100
AcDbLine
 10
3.437000000000001
 20
11.98171335838249
 30
0.0
 11
3.285
 21
11.98171335838249
 31
0.0
  0
LINE
  5
64A
330
18
100
AcDbEntity
  8
Object
100
AcDbLine
 10
3.285
 20
11.98171335838249
 30
0.0
 11
3.141999999999999
 21
11.98171335838249
 31
0.0
  0
LINE
  5
64B
330
18
100
AcDbEntity
  8
Object
100
AcDbLine
 10
3.141999999999999
 20
11.98171335838249
 30
0.0
 11
3.010999999999999
 21
11.98171335838249
 31
0.0
  0
LINE
  5
64C
330
18
100
AcDbEntity
  8
Object
100
AcDbLine
 10
3.010999999999999
 20
11.98171335838249
 30
0.0
 11
2.89
 21
11.98171335838249
 31
0.0
  0
LINE
  5
64D
330
18
100
AcDbEntity
  8
Object
100
AcDbLine
 10
2.89
 20
11.98171335838249
 30
0.0
 11
2.782999999999999
 21
11.98171335838249
 31
0.0
  0
LINE
  5
64E
330
18
100
AcDbEntity
  8
Object
100
AcDbLine
 10
2.782999999999999
 20
11.98171335838249
 30
0.0
 11
2.688
 21
11.98171335838249
 31
0.0
  0
LINE
  5
64F
330
18
100
AcDbEntity
  8
Object
100
AcDbLine
 10
2.688
 20
11.98171335838249
 30
0.0
 11
2.606999999999999
 21
11.98171335838249
 31
0.0
  0
LINE
  5
650
330
18
100
AcDbEntity
  8
Object
100
AcDbLine
 10
2.606999999999999
 20
11.98171335838249
 30
0.0
 11
2.541
 21
11.98171335838249
 31
0.0
  0
LINE
  5
651
330
18
100
AcDbEntity
  8
Object
100
AcDbLine
 10
2.541
 20
11.98171335838249
 30
0.0
 11
2.489
 21
11.98171335838249
 31
0.0
  0
LINE
  5
652
330
18
100
AcDbEntity
  8
Object
100
AcDbLine
 10
2.489
 20
11.98171335838249
 30
0.0
 11
2.452999999999999
 21
11.98171335838249
 31
0.0
  0
LINE
  5
653
330
18
100
AcDbEntity
  8
Object
100
AcDbLine
 10
2.452999999999999
 20
11.98171335838249
 30
0.0
 11
2.432
 21
11.98171335838249
 31
0.0
  0
LINE
  5
654
330
18
100
AcDbEntity
  8
Object
100
AcDbLine
 10
2.432
 20
11.98171335838249
 30
0.0
 11
2.179
 21
11.98171335838249
 31
0.0
  0
LINE
  5
655
330
18
100
AcDbEntity
  8
Object
100
AcDbLine
 10
2.179
 20
11.98171335838249
 30
0.0
 11
1.928
 21
11.98171335838249
 31
0.0
  0
LINE
  5
656
330
18
100
AcDbEntity
  8
Object
100
AcDbLine
 10
9.150999999999999
 20
13.98171335838249
 30
0.0
 11
9.114
 21
15.98171335838249
 31
0.0
  0
LINE
  5
657
330
18
100
AcDbEntity
  8
Object
100
AcDbLine
 10
10.944
 20
11.98271335838249
 30
0.0
 11
11.033
 21
11.98171335838249
 31
0.0
  0
LINE
  5
658
330
18
100
AcDbEntity
  8
Object
100
AcDbLine
 10
11.033
 20
11.98171335838249
 30
0.0
 11
10.78
 21
11.98171335838249
 31
0.0
  0
LINE
  5
659
330
18
100
AcDbEntity
  8
Object
100
AcDbLine
 10
10.761
 20
11.99971335838249
 30
0.0
 11
10.853
 21
11.98971335838249
 31
0.0
  0
LINE
  5
65A
330
18
100
AcDbEntity
  8
Object
100
AcDbLine
 10
10.853
 20
11.98971335838249
 30
0.0
 11
10.944
 21
11.98271335838249
 31
0.0
  0
LINE
  5
65B
330
18
100
AcDbEntity
  8
Object
100
AcDbLine
 10
10.607
 20
11.98871335838249
 30
0.0
 11
10.78
 21
11.98171335838249
 31
0.0
  0
LINE
  5
65C
330
18
100
AcDbEntity
  8
Object
100
AcDbLine
 10
10.575
 20
12.03371335838249
 30
0.0
 11
10.669
 21
12.01471335838249
 31
0.0
  0
LINE
  5
65D
330
18
100
AcDbEntity
  8
Object
100
AcDbLine
 10
10.669
 20
12.01471335838249
 30
0.0
 11
10.761
 21
11.99971335838249
 31
0.0
  0
LINE
  5
65E
330
18
100
AcDbEntity
  8
Object
100
AcDbLine
 10
10.434
 20
12.01171335838249
 30
0.0
 11
10.607
 21
11.98871335838249
 31
0.0
  0
LINE
  5
65F
330
18
100
AcDbEntity
  8
Object
100
AcDbLine
 10
10.388
 20
12.08771335838249
 30
0.0
 11
10.482
 21
12.0587133583825
 31
0.0
  0
LINE
  5
660
330
18
100
AcDbEntity
  8
Object
100
AcDbLine
 10
10.482
 20
12.0587133583825
 30
0.0
 11
10.575
 21
12.03371335838249
 31
0.0
  0
LINE
  5
661
330
18
100
AcDbEntity
  8
Object
100
AcDbLine
 10
10.434
 20
12.01171335838249
 30
0.0
 11
10.264
 21
12.04971335838249
 31
0.0
  0
LINE
  5
662
330
18
100
AcDbEntity
  8
Object
100
AcDbLine
 10
10.264
 20
12.04971335838249
 30
0.0
 11
10.098
 21
12.10171335838249
 31
0.0
  0
LINE
  5
663
330
18
100
AcDbEntity
  8
Object
100
AcDbLine
 10
10.388
 20
12.08771335838249
 30
0.0
 11
10.295
 21
12.12171335838249
 31
0.0
  0
LINE
  5
664
330
18
100
AcDbEntity
  8
Object
100
AcDbLine
 10
10.112
 20
12.20471335838249
 30
0.0
 11
10.203
 21
12.1607133583825
 31
0.0
  0
LINE
  5
665
330
18
100
AcDbEntity
  8
Object
100
AcDbLine
 10
10.203
 20
12.1607133583825
 30
0.0
 11
10.295
 21
12.12171335838249
 31
0.0
  0
LINE
  5
666
330
18
100
AcDbEntity
  8
Object
100
AcDbLine
 10
10.098
 20
12.10171335838249
 30
0.0
 11
9.936999999999999
 21
12.16871335838249
 31
0.0
  0
LINE
  5
667
330
18
100
AcDbEntity
  8
Object
100
AcDbLine
 10
9.936999999999999
 20
12.16871335838249
 30
0.0
 11
9.782999999999999
 21
12.24871335838249
 31
0.0
  0
LINE
  5
668
330
18
100
AcDbEntity
  8
Object
100
AcDbLine
 10
9.935999999999999
 20
12.30771335838249
 30
0.0
 11
10.023
 21
12.25371335838249
 31
0.0
  0
LINE
  5
669
330
18
100
AcDbEntity
  8
Object
100
AcDbLine
 10
10.023
 20
12.25371335838249
 30
0.0
 11
10.112
 21
12.20471335838249
 31
0.0
  0
LINE
  5
66A
330
18
100
AcDbEntity
  8
Object
100
AcDbLine
 10
9.935999999999999
 20
12.30771335838249
 30
0.0
 11
9.851
 21
12.36571335838249
 31
0.0
  0
LINE
  5
66B
330
18
100
AcDbEntity
  8
Object
100
AcDbLine
 10
9.782999999999999
 20
12.24871335838249
 30
0.0
 11
9.636000000000001
 21
12.34271335838249
 31
0.0
  0
LINE
  5
66C
330
18
100
AcDbEntity
  8
Object
100
AcDbLine
 10
9.636000000000001
 20
12.34271335838249
 30
0.0
 11
9.497999999999999
 21
12.44871335838249
 31
0.0
  0
LINE
  5
66D
330
18
100
AcDbEntity
  8
Object
100
AcDbLine
 10
9.689999999999999
 20
12.49571335838249
 30
0.0
 11
9.769
 21
12.42871335838249
 31
0.0
  0
LINE
  5
66E
330
18
100
AcDbEntity
  8
Object
100
AcDbLine
 10
9.769
 20
12.42871335838249
 30
0.0
 11
9.851
 21
12.36571335838249
 31
0.0
  0
LINE
  5
66F
330
18
100
AcDbEntity
  8
Object
100
AcDbLine
 10
9.689999999999999
 20
12.49571335838249
 30
0.0
 11
9.615
 21
12.56671335838249
 31
0.0
  0
LINE
  5
670
330
18
100
AcDbEntity
  8
Object
100
AcDbLine
 10
9.497999999999999
 20
12.44871335838249
 30
0.0
 11
9.37
 21
12.56671335838249
 31
0.0
  0
LINE
  5
671
330
18
100
AcDbEntity
  8
Object
100
AcDbLine
 10
9.37
 20
12.56671335838249
 30
0.0
 11
9.252
 21
12.69571335838249
 31
0.0
  0
LINE
  5
672
330
18
100
AcDbEntity
  8
Object
100
AcDbLine
 10
9.413
 20
12.80271335838249
 30
0.0
 11
9.354
 21
12.88671335838249
 31
0.0
  0
LINE
  5
673
330
18
100
AcDbEntity
  8
Object
100
AcDbLine
 10
9.146
 20
12.83371335838249
 30
0.0
 11
9.252
 21
12.69571335838249
 31
0.0
  0
LINE
  5
674
330
18
100
AcDbEntity
  8
Object
100
AcDbLine
 10
9.3
 20
12.97371335838249
 30
0.0
 11
9.250999999999999
 21
13.06271335838249
 31
0.0
  0
LINE
  5
675
330
18
100
AcDbEntity
  8
Object
100
AcDbLine
 10
9.053
 20
12.98171335838249
 30
0.0
 11
9.146
 21
12.83371335838249
 31
0.0
  0
LINE
  5
676
330
18
100
AcDbEntity
  8
Object
100
AcDbLine
 10
9.354
 20
12.88671335838249
 30
0.0
 11
9.3
 21
12.97371335838249
 31
0.0
  0
LINE
  5
677
330
18
100
AcDbEntity
  8
Object
100
AcDbLine
 10
9.168000000000001
 20
13.24471335838249
 30
0.0
 11
9.207
 21
13.15271335838249
 31
0.0
  0
LINE
  5
678
330
18
100
AcDbEntity
  8
Object
100
AcDbLine
 10
9.207
 20
13.15271335838249
 30
0.0
 11
9.250999999999999
 21
13.06271335838249
 31
0.0
  0
LINE
  5
679
330
18
100
AcDbEntity
  8
Object
100
AcDbLine
 10
8.971999999999999
 20
13.13571335838249
 30
0.0
 11
9.053
 21
12.98171335838249
 31
0.0
  0
LINE
  5
67A
330
18
100
AcDbEntity
  8
Object
100
AcDbLine
 10
9.168000000000001
 20
13.24471335838249
 30
0.0
 11
9.133
 21
13.33771335838249
 31
0.0
  0
LINE
  5
67B
330
18
100
AcDbEntity
  8
Object
100
AcDbLine
 10
8.906
 20
13.29671335838249
 30
0.0
 11
8.971999999999999
 21
13.13571335838249
 31
0.0
  0
LINE
  5
67C
330
18
100
AcDbEntity
  8
Object
100
AcDbLine
 10
9.08
 20
13.52471335838249
 30
0.0
 11
9.104
 21
13.4307133583825
 31
0.0
  0
LINE
  5
67D
330
18
100
AcDbEntity
  8
Object
100
AcDbLine
 10
9.104
 20
13.4307133583825
 30
0.0
 11
9.133
 21
13.33771335838249
 31
0.0
  0
LINE
  5
67E
330
18
100
AcDbEntity
  8
Object
100
AcDbLine
 10
8.852999999999999
 20
13.46371335838249
 30
0.0
 11
8.906
 21
13.29671335838249
 31
0.0
  0
LINE
  5
67F
330
18
100
AcDbEntity
  8
Object
100
AcDbLine
 10
9.044999999999999
 20
13.70971335838249
 30
0.0
 11
9.06
 21
13.61771335838249
 31
0.0
  0
LINE
  5
680
330
18
100
AcDbEntity
  8
Object
100
AcDbLine
 10
9.06
 20
13.61771335838249
 30
0.0
 11
9.08
 21
13.52471335838249
 31
0.0
  0
LINE
  5
681
330
18
100
AcDbEntity
  8
Object
100
AcDbLine
 10
8.816
 20
13.63371335838249
 30
0.0
 11
8.852999999999999
 21
13.46371335838249
 31
0.0
  0
LINE
  5
682
330
18
100
AcDbEntity
  8
Object
100
AcDbLine
 10
9.028
 20
13.8917133583825
 30
0.0
 11
9.034
 21
13.80171335838249
 31
0.0
  0
LINE
  5
683
330
18
100
AcDbEntity
  8
Object
100
AcDbLine
 10
9.034
 20
13.80171335838249
 30
0.0
 11
9.044999999999999
 21
13.70971335838249
 31
0.0
  0
LINE
  5
684
330
18
100
AcDbEntity
  8
Object
100
AcDbLine
 10
8.793000000000001
 20
13.80671335838249
 30
0.0
 11
8.816
 21
13.63371335838249
 31
0.0
  0
LINE
  5
685
330
18
100
AcDbEntity
  8
Object
100
AcDbLine
 10
8.785
 20
13.98171335838249
 30
0.0
 11
9.025999999999999
 21
13.98171335838249
 31
0.0
  0
LINE
  5
686
330
18
100
AcDbEntity
  8
Object
100
AcDbLine
 10
9.025999999999999
 20
13.98171335838249
 30
0.0
 11
9.028
 21
13.8917133583825
 31
0.0
  0
LINE
  5
687
330
18
100
AcDbEntity
  8
Object
100
AcDbLine
 10
8.785
 20
13.98171335838249
 30
0.0
 11
8.793000000000001
 21
13.80671335838249
 31
0.0
  0
LINE
  5
688
330
18
100
AcDbEntity
  8
Object
100
AcDbLine
 10
9.025999999999999
 20
13.98171335838249
 30
0.0
 11
8.989
 21
15.98171335838249
 31
0.0
  0
LINE
  5
689
330
18
100
AcDbEntity
  8
Object
100
AcDbLine
 10
8.785
 20
13.98171335838249
 30
0.0
 11
8.75
 21
15.98171335838249
 31
0.0
  0
LINE
  5
68A
330
18
100
AcDbEntity
  8
Object
100
AcDbLine
 10
8.75
 20
15.98171335838249
 30
0.0
 11
8.989
 21
15.98171335838249
 31
0.0
  0
LINE
  5
68B
330
18
100
AcDbEntity
  8
Object
100
AcDbLine
 10
4.187000000000001
 20
13.98171335838249
 30
0.0
 11
4.426999999999999
 21
13.98171335838249
 31
0.0
  0
LINE
  5
68C
330
18
100
AcDbEntity
  8
Object
100
AcDbLine
 10
4.426999999999999
 20
13.98171335838249
 30
0.0
 11
4.419999999999999
 21
13.80671335838249
 31
0.0
  0
LINE
  5
68D
330
18
100
AcDbEntity
  8
Object
100
AcDbLine
 10
4.419999999999999
 20
13.80671335838249
 30
0.0
 11
4.397
 21
13.63371335838249
 31
0.0
  0
LINE
  5
68E
330
18
100
AcDbEntity
  8
Object
100
AcDbLine
 10
4.397
 20
13.63371335838249
 30
0.0
 11
4.358999999999999
 21
13.46371335838249
 31
0.0
  0
LINE
  5
68F
330
18
100
AcDbEntity
  8
Object
100
AcDbLine
 10
4.358999999999999
 20
13.46371335838249
 30
0.0
 11
4.307
 21
13.29671335838249
 31
0.0
  0
LINE
  5
690
330
18
100
AcDbEntity
  8
Object
100
AcDbLine
 10
4.307
 20
13.29671335838249
 30
0.0
 11
4.240999999999999
 21
13.13571335838249
 31
0.0
  0
LINE
  5
691
330
18
100
AcDbEntity
  8
Object
100
AcDbLine
 10
4.240999999999999
 20
13.13571335838249
 30
0.0
 11
4.16
 21
12.98171335838249
 31
0.0
  0
LINE
  5
692
330
18
100
AcDbEntity
  8
Object
100
AcDbLine
 10
4.16
 20
12.98171335838249
 30
0.0
 11
4.067
 21
12.83371335838249
 31
0.0
  0
LINE
  5
693
330
18
100
AcDbEntity
  8
Object
100
AcDbLine
 10
4.067
 20
12.83371335838249
 30
0.0
 11
3.961
 21
12.69571335838249
 31
0.0
  0
LINE
  5
694
330
18
100
AcDbEntity
  8
Object
100
AcDbLine
 10
3.961
 20
12.69571335838249
 30
0.0
 11
3.842999999999999
 21
12.56671335838249
 31
0.0
  0
LINE
  5
695
330
18
100
AcDbEntity
  8
Object
100
AcDbLine
 10
3.842999999999999
 20
12.56671335838249
 30
0.0
 11
3.714999999999999
 21
12.44871335838249
 31
0.0
  0
LINE
  5
696
330
18
100
AcDbEntity
  8
Object
100
AcDbLine
 10
3.714999999999999
 20
12.44871335838249
 30
0.0
 11
3.576999999999999
 21
12.34271335838249
 31
0.0
  0
LINE
  5
697
330
18
100
AcDbEntity
  8
Object
100
AcDbLine
 10
3.576999999999999
 20
12.34271335838249
 30
0.0
 11
3.429999999999999
 21
12.24871335838249
 31
0.0
  0
LINE
  5
698
330
18
100
AcDbEntity
  8
Object
100
AcDbLine
 10
3.429999999999999
 20
12.24871335838249
 30
0.0
 11
3.275
 21
12.16871335838249
 31
0.0
  0
LINE
  5
699
330
18
100
AcDbEntity
  8
Object
100
AcDbLine
 10
3.275
 20
12.16871335838249
 30
0.0
 11
3.115
 21
12.10171335838249
 31
0.0
  0
LINE
  5
69A
330
18
100
AcDbEntity
  8
Object
100
AcDbLine
 10
3.115
 20
12.10171335838249
 30
0.0
 11
2.948999999999999
 21
12.04971335838249
 31
0.0
  0
LINE
  5
69B
330
18
100
AcDbEntity
  8
Object
100
AcDbLine
 10
2.948999999999999
 20
12.04971335838249
 30
0.0
 11
2.778999999999999
 21
12.01171335838249
 31
0.0
  0
LINE
  5
69C
330
18
100
AcDbEntity
  8
Object
100
AcDbLine
 10
2.778999999999999
 20
12.01171335838249
 30
0.0
 11
2.605999999999999
 21
11.98871335838249
 31
0.0
  0
LINE
  5
69D
330
18
100
AcDbEntity
  8
Object
100
AcDbLine
 10
2.605999999999999
 20
11.98871335838249
 30
0.0
 11
2.432
 21
11.98171335838249
 31
0.0
  0
LINE
  5
69E
330
18
100
AcDbEntity
  8
Object
100
AcDbLine
 10
2.432
 20
11.98171335838249
 30
0.0
 11
2.179
 21
11.98171335838249
 31
0.0
  0
LINE
  5
69F
330
18
100
AcDbEntity
  8
Object
100
AcDbLine
 10
4.224
 20
15.98171335838249
 30
0.0
 11
4.461999999999999
 21
15.98171335838249
 31
0.0
  0
LINE
  5
6A0
330
18
100
AcDbEntity
  8
Object
100
AcDbLine
 10
4.461999999999999
 20
15.98171335838249
 30
0.0
 11
4.426999999999999
 21
13.98171335838249
 31
0.0
  0
LINE
  5
6A1
330
18
100
AcDbEntity
  8
Object
100
AcDbLine
 10
8.535999999999999
 20
13.98171335838249
 30
0.0
 11
8.535999999999999
 21
15.98171335838249
 31
0.0
  0
LINE
  5
6A2
330
18
100
AcDbEntity
  8
Object
100
AcDbLine
 10
8.535999999999999
 20
15.98171335838249
 30
0.0
 11
4.676999999999999
 21
15.98171335838249
 31
0.0
  0
LINE
  5
6A3
330
18
100
AcDbEntity
  8
Object
100
AcDbLine
 10
8.772999999999999
 20
13.98171335838249
 30
0.0
 11
8.785
 21
13.98171335838249
 31
0.0
  0
LINE
  5
6A4
330
18
100
AcDbEntity
  8
Object
100
AcDbLine
 10
8.75
 20
15.98171335838249
 30
0.0
 11
8.74
 21
15.98171335838249
 31
0.0
  0
LINE
  5
6A5
330
18
100
AcDbEntity
  8
Object
100
AcDbLine
 10
8.746
 20
13.98171335838249
 30
0.0
 11
8.772999999999999
 21
13.98171335838249
 31
0.0
  0
LINE
  5
6A6
330
18
100
AcDbEntity
  8
Object
100
AcDbLine
 10
8.74
 20
15.98171335838249
 30
0.0
 11
8.717
 21
15.98171335838249
 31
0.0
  0
LINE
  5
6A7
330
18
100
AcDbEntity
  8
Object
100
AcDbLine
 10
8.717
 20
15.98171335838249
 30
0.0
 11
8.682999999999999
 21
15.98171335838249
 31
0.0
  0
LINE
  5
6A8
330
18
100
AcDbEntity
  8
Object
100
AcDbLine
 10
8.705999999999999
 20
13.98171335838249
 30
0.0
 11
8.746
 21
13.98171335838249
 31
0.0
  0
LINE
  5
6A9
330
18
100
AcDbEntity
  8
Object
100
AcDbLine
 10
8.682999999999999
 20
15.98171335838249
 30
0.0
 11
8.638999999999999
 21
15.98171335838249
 31
0.0
  0
LINE
  5
6AA
330
18
100
AcDbEntity
  8
Object
100
AcDbLine
 10
8.598
 20
13.98171335838249
 30
0.0
 11
8.656
 21
13.98171335838249
 31
0.0
  0
LINE
  5
6AB
330
18
100
AcDbEntity
  8
Object
100
AcDbLine
 10
8.638999999999999
 20
15.98171335838249
 30
0.0
 11
8.589
 21
15.98171335838249
 31
0.0
  0
LINE
  5
6AC
330
18
100
AcDbEntity
  8
Object
100
AcDbLine
 10
8.589
 20
15.98171335838249
 30
0.0
 11
8.535999999999999
 21
15.98171335838249
 31
0.0
  0
LINE
  5
6AD
330
18
100
AcDbEntity
  8
Object
100
AcDbLine
 10
4.623999999999998
 20
15.98171335838249
 30
0.0
 11
4.676999999999999
 21
15.98171335838249
 31
0.0
  0
LINE
  5
6AE
330
18
100
AcDbEntity
  8
Object
100
AcDbLine
 10
4.676999999999999
 20
15.98171335838249
 30
0.0
 11
4.676999999999999
 21
13.98171335838249
 31
0.0
  0
LINE
  5
6AF
330
18
100
AcDbEntity
  8
Object
100
AcDbLine
 10
4.623999999999998
 20
15.98171335838249
 30
0.0
 11
4.573999999999999
 21
15.98171335838249
 31
0.0
  0
LINE
  5
6B0
330
18
100
AcDbEntity
  8
Object
100
AcDbLine
 10
4.573999999999999
 20
15.98171335838249
 30
0.0
 11
4.530000000000001
 21
15.98171335838249
 31
0.0
  0
LINE
  5
6B1
330
18
100
AcDbEntity
  8
Object
100
AcDbLine
 10
4.530000000000001
 20
15.98171335838249
 30
0.0
 11
4.496
 21
15.98171335838249
 31
0.0
  0
LINE
  5
6B2
330
18
100
AcDbEntity
  8
Object
100
AcDbLine
 10
4.461999999999999
 20
15.98171335838249
 30
0.0
 11
4.472999999999998
 21
15.98171335838249
 31
0.0
  0
LINE
  5
6B3
330
18
100
AcDbEntity
  8
Object
100
AcDbLine
 10
4.472999999999998
 20
15.98171335838249
 30
0.0
 11
4.496
 21
15.98171335838249
 31
0.0
  0
LINE
  5
6B4
330
18
100
AcDbEntity
  8
Object
100
AcDbLine
 10
8.535999999999999
 20
12.01171335838249
 30
0.0
 11
8.535999999999999
 21
12.04971335838249
 31
0.0
  0
LINE
  5
6B5
330
18
100
AcDbEntity
  8
Object
100
AcDbLine
 10
7.230999999999999
 20
12.01871335838249
 30
0.0
 11
7.230999999999999
 21
11.99771335838249
 31
0.0
  0
LINE
  5
6B6
330
18
100
AcDbEntity
  8
Object
100
AcDbLine
 10
8.535999999999999
 20
12.01171335838249
 30
0.0
 11
8.535999999999999
 21
11.98871335838249
 31
0.0
  0
LINE
  5
6B7
330
18
100
AcDbEntity
  8
Object
100
AcDbLine
 10
8.535999999999999
 20
11.98871335838249
 30
0.0
 11
8.535999999999999
 21
11.98171335838249
 31
0.0
  0
LINE
  5
6B8
330
18
100
AcDbEntity
  8
Object
100
AcDbLine
 10
7.230999999999999
 20
11.99771335838249
 30
0.0
 11
7.230999999999999
 21
11.98571335838249
 31
0.0
  0
LINE
  5
6B9
330
18
100
AcDbEntity
  8
Object
100
AcDbLine
 10
7.230999999999999
 20
11.98571335838249
 30
0.0
 11
7.230999999999999
 21
11.98171335838249
 31
0.0
  0
LINE
  5
6BA
330
18
100
AcDbEntity
  8
Object
100
AcDbLine
 10
5.980999999999999
 20
12.01871335838249
 30
0.0
 11
7.230999999999999
 21
12.01871335838249
 31
0.0
  0
LINE
  5
6BB
330
18
100
AcDbEntity
  8
Object
100
AcDbLine
 10
8.535999999999999
 20
13.63371335838249
 30
0.0
 11
8.535999999999999
 21
13.80671335838249
 31
0.0
  0
LINE
  5
6BC
330
18
100
AcDbEntity
  8
Object
100
AcDbLine
 10
4.676999999999999
 20
13.98171335838249
 30
0.0
 11
8.535999999999999
 21
13.98171335838249
 31
0.0
  0
LINE
  5
6BD
330
18
100
AcDbEntity
  8
Object
100
AcDbLine
 10
8.535999999999999
 20
13.98171335838249
 30
0.0
 11
8.535999999999999
 21
13.80671335838249
 31
0.0
  0
LINE
  5
6BE
330
18
100
AcDbEntity
  8
Object
100
AcDbLine
 10
8.535999999999999
 20
13.63371335838249
 30
0.0
 11
8.535999999999999
 21
13.46371335838249
 31
0.0
  0
LINE
  5
6BF
330
18
100
AcDbEntity
  8
Object
100
AcDbLine
 10
8.535999999999999
 20
13.46371335838249
 30
0.0
 11
8.535999999999999
 21
13.29671335838249
 31
0.0
  0
LINE
  5
6C0
330
18
100
AcDbEntity
  8
Object
100
AcDbLine
 10
8.535999999999999
 20
13.29671335838249
 30
0.0
 11
8.535999999999999
 21
13.13571335838249
 31
0.0
  0
LINE
  5
6C1
330
18
100
AcDbEntity
  8
Object
100
AcDbLine
 10
8.535999999999999
 20
13.13571335838249
 30
0.0
 11
8.535999999999999
 21
12.98171335838249
 31
0.0
  0
LINE
  5
6C2
330
18
100
AcDbEntity
  8
Object
100
AcDbLine
 10
8.535999999999999
 20
12.98171335838249
 30
0.0
 11
8.535999999999999
 21
12.83371335838249
 31
0.0
  0
LINE
  5
6C3
330
18
100
AcDbEntity
  8
Object
100
AcDbLine
 10
8.535999999999999
 20
12.83371335838249
 30
0.0
 11
8.535999999999999
 21
12.69571335838249
 31
0.0
  0
LINE
  5
6C4
330
18
100
AcDbEntity
  8
Object
100
AcDbLine
 10
8.535999999999999
 20
12.69571335838249
 30
0.0
 11
8.535999999999999
 21
12.56671335838249
 31
0.0
  0
LINE
  5
6C5
330
18
100
AcDbEntity
  8
Object
100
AcDbLine
 10
8.535999999999999
 20
12.34271335838249
 30
0.0
 11
8.535999999999999
 21
12.44871335838249
 31
0.0
  0
LINE
  5
6C6
330
18
100
AcDbEntity
  8
Object
100
AcDbLine
 10
8.535999999999999
 20
12.44871335838249
 30
0.0
 11
8.535999999999999
 21
12.56671335838249
 31
0.0
  0
LINE
  5
6C7
330
18
100
AcDbEntity
  8
Object
100
AcDbLine
 10
8.535999999999999
 20
12.04971335838249
 30
0.0
 11
8.535999999999999
 21
12.10171335838249
 31
0.0
  0
LINE
  5
6C8
330
18
100
AcDbEntity
  8
Object
100
AcDbLine
 10
8.535999999999999
 20
12.24871335838249
 30
0.0
 11
8.535999999999999
 21
12.16871335838249
 31
0.0
  0
LINE
  5
6C9
330
18
100
AcDbEntity
  8
Object
100
AcDbLine
 10
8.535999999999999
 20
12.16871335838249
 30
0.0
 11
8.535999999999999
 21
12.10171335838249
 31
0.0
  0
LINE
  5
6CA
330
18
100
AcDbEntity
  8
Object
100
AcDbLine
 10
8.535999999999999
 20
12.24871335838249
 30
0.0
 11
8.535999999999999
 21
12.34271335838249
 31
0.0
  0
LINE
  5
6CB
330
18
100
AcDbEntity
  8
Object
100
AcDbLine
 10
5.980999999999999
 20
11.98171335838249
 30
0.0
 11
5.980999999999999
 21
11.98571335838249
 31
0.0
  0
LINE
  5
6CC
330
18
100
AcDbEntity
  8
Object
100
AcDbLine
 10
5.980999999999999
 20
12.01871335838249
 30
0.0
 11
5.980999999999999
 21
11.99771335838249
 31
0.0
  0
LINE
  5
6CD
330
18
100
AcDbEntity
  8
Object
100
AcDbLine
 10
5.980999999999999
 20
11.99771335838249
 30
0.0
 11
5.980999999999999
 21
11.98571335838249
 31
0.0
  0
LINE
  5
6CE
330
18
100
AcDbEntity
  8
Object
100
AcDbLine
 10
7.230999999999999
 20
11.98171335838249
 30
0.0
 11
5.980999999999999
 21
11.98171335838249
 31
0.0
  0
LINE
  5
6CF
330
18
100
AcDbEntity
  8
Object
100
AcDbLine
 10
10.78
 20
11.98171335838249
 30
0.0
 11
10.76
 21
11.98171335838249
 31
0.0
  0
LINE
  5
6D0
330
18
100
AcDbEntity
  8
Object
100
AcDbLine
 10
10.76
 20
11.98171335838249
 30
0.0
 11
10.723
 21
11.98171335838249
 31
0.0
  0
LINE
  5
6D1
330
18
100
AcDbEntity
  8
Object
100
AcDbLine
 10
10.723
 20
11.98171335838249
 30
0.0
 11
10.672
 21
11.98171335838249
 31
0.0
  0
LINE
  5
6D2
330
18
100
AcDbEntity
  8
Object
100
AcDbLine
 10
10.672
 20
11.98171335838249
 30
0.0
 11
10.605
 21
11.98171335838249
 31
0.0
  0
LINE
  5
6D3
330
18
100
AcDbEntity
  8
Object
100
AcDbLine
 10
10.605
 20
11.98171335838249
 30
0.0
 11
10.525
 21
11.98171335838249
 31
0.0
  0
LINE
  5
6D4
330
18
100
AcDbEntity
  8
Object
100
AcDbLine
 10
10.525
 20
11.98171335838249
 30
0.0
 11
10.43
 21
11.98171335838249
 31
0.0
  0
LINE
  5
6D5
330
18
100
AcDbEntity
  8
Object
100
AcDbLine
 10
10.43
 20
11.98171335838249
 30
0.0
 11
10.322
 21
11.98171335838249
 31
0.0
  0
LINE
  5
6D6
330
18
100
AcDbEntity
  8
Object
100
AcDbLine
 10
10.322
 20
11.98171335838249
 30
0.0
 11
10.202
 21
11.98171335838249
 31
0.0
  0
LINE
  5
6D7
330
18
100
AcDbEntity
  8
Object
100
AcDbLine
 10
10.202
 20
11.98171335838249
 30
0.0
 11
10.07
 21
11.98171335838249
 31
0.0
  0
LINE
  5
6D8
330
18
100
AcDbEntity
  8
Object
100
AcDbLine
 10
10.07
 20
11.98171335838249
 30
0.0
 11
9.928
 21
11.98171335838249
 31
0.0
  0
LINE
  5
6D9
330
18
100
AcDbEntity
  8
Object
100
AcDbLine
 10
9.928
 20
11.98171335838249
 30
0.0
 11
9.775999999999999
 21
11.98171335838249
 31
0.0
  0
LINE
  5
6DA
330
18
100
AcDbEntity
  8
Object
100
AcDbLine
 10
9.775999999999999
 20
11.98171335838249
 30
0.0
 11
9.615
 21
11.98171335838249
 31
0.0
  0
LINE
  5
6DB
330
18
100
AcDbEntity
  8
Object
100
AcDbLine
 10
9.615
 20
11.98171335838249
 30
0.0
 11
9.447
 21
11.98171335838249
 31
0.0
  0
LINE
  5
6DC
330
18
100
AcDbEntity
  8
Object
100
AcDbLine
 10
9.447
 20
11.98171335838249
 30
0.0
 11
9.272999999999999
 21
11.98171335838249
 31
0.0
  0
LINE
  5
6DD
330
18
100
AcDbEntity
  8
Object
100
AcDbLine
 10
9.384999999999999
 20
12.55171335838249
 30
0.0
 11
9.37
 21
12.56671335838249
 31
0.0
  0
LINE
  5
6DE
330
18
100
AcDbEntity
  8
Object
100
AcDbLine
 10
9.37
 20
12.56671335838249
 30
0.0
 11
9.263999999999999
 21
12.68071335838249
 31
0.0
  0
LINE
  5
6DF
330
18
100
AcDbEntity
  8
Object
100
AcDbLine
 10
9.263999999999999
 20
12.68071335838249
 30
0.0
 11
9.252
 21
12.69571335838249
 31
0.0
  0
LINE
  5
6E0
330
18
100
AcDbEntity
  8
Object
100
AcDbLine
 10
9.252
 20
12.69571335838249
 30
0.0
 11
9.156
 21
12.81971335838249
 31
0.0
  0
LINE
  5
6E1
330
18
100
AcDbEntity
  8
Object
100
AcDbLine
 10
9.092999999999999
 20
11.98171335838249
 30
0.0
 11
9.272999999999999
 21
11.98171335838249
 31
0.0
  0
LINE
  5
6E2
330
18
100
AcDbEntity
  8
Object
100
AcDbLine
 10
9.146
 20
12.83371335838249
 30
0.0
 11
9.156
 21
12.81971335838249
 31
0.0
  0
LINE
  5
6E3
330
18
100
AcDbEntity
  8
Object
100
AcDbLine
 10
9.108
 20
12.89371335838249
 30
0.0
 11
9.06
 21
12.96871335838249
 31
0.0
  0
LINE
  5
6E4
330
18
100
AcDbEntity
  8
Object
100
AcDbLine
 10
9.06
 20
12.96871335838249
 30
0.0
 11
9.146
 21
12.83371335838249
 31
0.0
  0
LINE
  5
6E5
330
18
100
AcDbEntity
  8
Object
100
AcDbLine
 10
9.053
 20
12.98171335838249
 30
0.0
 11
9.06
 21
12.96871335838249
 31
0.0
  0
LINE
  5
6E6
330
18
100
AcDbEntity
  8
Object
100
AcDbLine
 10
9.043000000000001
 20
12.99871335838249
 30
0.0
 11
8.977
 21
13.12471335838249
 31
0.0
  0
LINE
  5
6E7
330
18
100
AcDbEntity
  8
Object
100
AcDbLine
 10
9.06
 20
12.96871335838249
 30
0.0
 11
9.053
 21
12.97971335838249
 31
0.0
  0
LINE
  5
6E8
330
18
100
AcDbEntity
  8
Object
100
AcDbLine
 10
9.053
 20
12.98171335838249
 30
0.0
 11
8.977
 21
13.12471335838249
 31
0.0
  0
LINE
  5
6E9
330
18
100
AcDbEntity
  8
Object
100
AcDbLine
 10
8.977
 20
13.12471335838249
 30
0.0
 11
8.971999999999999
 21
13.13571335838249
 31
0.0
  0
LINE
  5
6EA
330
18
100
AcDbEntity
  8
Object
100
AcDbLine
 10
8.948
 20
13.19271335838249
 30
0.0
 11
8.909
 21
13.28771335838249
 31
0.0
  0
LINE
  5
6EB
330
18
100
AcDbEntity
  8
Object
100
AcDbLine
 10
8.977
 20
13.12471335838249
 30
0.0
 11
8.974
 21
13.13171335838249
 31
0.0
  0
LINE
  5
6EC
330
18
100
AcDbEntity
  8
Object
100
AcDbLine
 10
8.909
 20
11.98171335838249
 30
0.0
 11
9.092999999999999
 21
11.98171335838249
 31
0.0
  0
LINE
  5
6ED
330
18
100
AcDbEntity
  8
Object
100
AcDbLine
 10
8.971999999999999
 20
13.13571335838249
 30
0.0
 11
8.909
 21
13.28771335838249
 31
0.0
  0
LINE
  5
6EE
330
18
100
AcDbEntity
  8
Object
100
AcDbLine
 10
8.909
 20
13.28771335838249
 30
0.0
 11
8.906
 21
13.29671335838249
 31
0.0
  0
LINE
  5
6EF
330
18
100
AcDbEntity
  8
Object
100
AcDbLine
 10
8.887999999999999
 20
13.35071335838249
 30
0.0
 11
8.855
 21
13.45671335838249
 31
0.0
  0
LINE
  5
6F0
330
18
100
AcDbEntity
  8
Object
100
AcDbLine
 10
8.909
 20
13.28771335838249
 30
0.0
 11
8.906
 21
13.29571335838249
 31
0.0
  0
LINE
  5
6F1
330
18
100
AcDbEntity
  8
Object
100
AcDbLine
 10
8.906
 20
13.29671335838249
 30
0.0
 11
8.855
 21
13.45671335838249
 31
0.0
  0
LINE
  5
6F2
330
18
100
AcDbEntity
  8
Object
100
AcDbLine
 10
8.855
 20
13.45671335838249
 30
0.0
 11
8.852999999999999
 21
13.46371335838249
 31
0.0
  0
LINE
  5
6F3
330
18
100
AcDbEntity
  8
Object
100
AcDbLine
 10
8.852999999999999
 20
13.46371335838249
 30
0.0
 11
8.816
 21
13.6287133583825
 31
0.0
  0
LINE
  5
6F4
330
18
100
AcDbEntity
  8
Object
100
AcDbLine
 10
8.816
 20
13.6287133583825
 30
0.0
 11
8.842999999999999
 21
13.50871335838249
 31
0.0
  0
LINE
  5
6F5
330
18
100
AcDbEntity
  8
Object
100
AcDbLine
 10
8.855
 20
13.45671335838249
 30
0.0
 11
8.854
 21
13.45871335838249
 31
0.0
  0
LINE
  5
6F6
330
18
100
AcDbEntity
  8
Object
100
AcDbLine
 10
8.723
 20
11.98171335838249
 30
0.0
 11
8.909
 21
11.98171335838249
 31
0.0
  0
LINE
  5
6F7
330
18
100
AcDbEntity
  8
Object
100
AcDbLine
 10
8.705999999999999
 20
13.98171335838249
 30
0.0
 11
8.656
 21
13.98171335838249
 31
0.0
  0
LINE
  5
6F8
330
18
100
AcDbEntity
  8
Object
100
AcDbLine
 10
8.598
 20
13.98171335838249
 30
0.0
 11
8.535999999999999
 21
13.98171335838249
 31
0.0
  0
LINE
  5
6F9
330
18
100
AcDbEntity
  8
Object
100
AcDbLine
 10
8.535999999999999
 20
11.98171335838249
 30
0.0
 11
8.723
 21
11.98171335838249
 31
0.0
  0
LINE
  5
6FA
330
18
100
AcDbEntity
  8
Object
100
AcDbLine
 10
4.676999999999999
 20
13.98171335838249
 30
0.0
 11
4.676999999999999
 21
13.80671335838249
 31
0.0
  0
LINE
  5
6FB
330
18
100
AcDbEntity
  8
Object
100
AcDbLine
 10
4.676999999999999
 20
13.80671335838249
 30
0.0
 11
4.676999999999999
 21
13.63371335838249
 31
0.0
  0
LINE
  5
6FC
330
18
100
AcDbEntity
  8
Object
100
AcDbLine
 10
4.676999999999999
 20
13.63371335838249
 30
0.0
 11
4.676999999999999
 21
13.46371335838249
 31
0.0
  0
LINE
  5
6FD
330
18
100
AcDbEntity
  8
Object
100
AcDbLine
 10
4.676999999999999
 20
13.46371335838249
 30
0.0
 11
4.676999999999999
 21
13.29671335838249
 31
0.0
  0
LINE
  5
6FE
330
18
100
AcDbEntity
  8
Object
100
AcDbLine
 10
4.676999999999999
 20
13.29671335838249
 30
0.0
 11
4.676999999999999
 21
13.13571335838249
 31
0.0
  0
LINE
  5
6FF
330
18
100
AcDbEntity
  8
Object
100
AcDbLine
 10
4.676999999999999
 20
13.13571335838249
 30
0.0
 11
4.676999999999999
 21
12.98171335838249
 31
0.0
  0
LINE
  5
700
330
18
100
AcDbEntity
  8
Object
100
AcDbLine
 10
4.676999999999999
 20
12.98171335838249
 30
0.0
 11
4.676999999999999
 21
12.83371335838249
 31
0.0
  0
LINE
  5
701
330
18
100
AcDbEntity
  8
Object
100
AcDbLine
 10
4.676999999999999
 20
12.83371335838249
 30
0.0
 11
4.676999999999999
 21
12.69571335838249
 31
0.0
  0
LINE
  5
702
330
18
100
AcDbEntity
  8
Object
100
AcDbLine
 10
4.676999999999999
 20
12.69571335838249
 30
0.0
 11
4.676999999999999
 21
12.56671335838249
 31
0.0
  0
LINE
  5
703
330
18
100
AcDbEntity
  8
Object
100
AcDbLine
 10
4.676999999999999
 20
12.56671335838249
 30
0.0
 11
4.676999999999999
 21
12.44871335838249
 31
0.0
  0
LINE
  5
704
330
18
100
AcDbEntity
  8
Object
100
AcDbLine
 10
4.676999999999999
 20
12.44871335838249
 30
0.0
 11
4.676999999999999
 21
12.34271335838249
 31
0.0
  0
LINE
  5
705
330
18
100
AcDbEntity
  8
Object
100
AcDbLine
 10
4.676999999999999
 20
12.34271335838249
 30
0.0
 11
4.676999999999999
 21
12.24871335838249
 31
0.0
  0
LINE
  5
706
330
18
100
AcDbEntity
  8
Object
100
AcDbLine
 10
4.676999999999999
 20
12.24871335838249
 30
0.0
 11
4.676999999999999
 21
12.16871335838249
 31
0.0
  0
LINE
  5
707
330
18
100
AcDbEntity
  8
Object
100
AcDbLine
 10
4.676999999999999
 20
12.16871335838249
 30
0.0
 11
4.676999999999999
 21
12.10171335838249
 31
0.0
  0
LINE
  5
708
330
18
100
AcDbEntity
  8
Object
100
AcDbLine
 10
4.676999999999999
 20
12.10171335838249
 30
0.0
 11
4.676999999999999
 21
12.04971335838249
 31
0.0
  0
LINE
  5
709
330
18
100
AcDbEntity
  8
Object
100
AcDbLine
 10
4.676999999999999
 20
12.04971335838249
 30
0.0
 11
4.676999999999999
 21
12.01171335838249
 31
0.0
  0
LINE
  5
70A
330
18
100
AcDbEntity
  8
Object
100
AcDbLine
 10
4.676999999999999
 20
12.01171335838249
 30
0.0
 11
4.676999999999999
 21
11.98871335838249
 31
0.0
  0
LINE
  5
70B
330
18
100
AcDbEntity
  8
Object
100
AcDbLine
 10
4.676999999999999
 20
13.98171335838249
 30
0.0
 11
4.615
 21
13.98171335838249
 31
0.0
  0
LINE
  5
70C
330
18
100
AcDbEntity
  8
Object
100
AcDbLine
 10
4.676999999999999
 20
11.98171335838249
 30
0.0
 11
4.676999999999999
 21
11.98871335838249
 31
0.0
  0
LINE
  5
70D
330
18
100
AcDbEntity
  8
Object
100
AcDbLine
 10
4.615
 20
13.98171335838249
 30
0.0
 11
4.557
 21
13.98171335838249
 31
0.0
  0
LINE
  5
70E
330
18
100
AcDbEntity
  8
Object
100
AcDbLine
 10
4.557
 20
13.98171335838249
 30
0.0
 11
4.506
 21
13.98171335838249
 31
0.0
  0
LINE
  5
70F
330
18
100
AcDbEntity
  8
Object
100
AcDbLine
 10
4.489
 20
11.98171335838249
 30
0.0
 11
4.676999999999999
 21
11.98171335838249
 31
0.0
  0
LINE
  5
710
330
18
100
AcDbEntity
  8
Object
100
AcDbLine
 10
4.506
 20
13.98171335838249
 30
0.0
 11
4.466000000000001
 21
13.98171335838249
 31
0.0
  0
LINE
  5
711
330
18
100
AcDbEntity
  8
Object
100
AcDbLine
 10
4.466000000000001
 20
13.98171335838249
 30
0.0
 11
4.440000000000001
 21
13.98171335838249
 31
0.0
  0
LINE
  5
712
330
18
100
AcDbEntity
  8
Object
100
AcDbLine
 10
4.440000000000001
 20
13.98171335838249
 30
0.0
 11
4.426999999999999
 21
13.98171335838249
 31
0.0
  0
LINE
  5
713
330
18
100
AcDbEntity
  8
Object
100
AcDbLine
 10
4.397
 20
13.63371335838249
 30
0.0
 11
4.419999999999999
 21
13.80471335838249
 31
0.0
  0
LINE
  5
714
330
18
100
AcDbEntity
  8
Object
100
AcDbLine
 10
4.396
 20
13.62971335838249
 30
0.0
 11
4.396
 21
13.6287133583825
 31
0.0
  0
LINE
  5
715
330
18
100
AcDbEntity
  8
Object
100
AcDbLine
 10
4.419999999999999
 20
13.80471335838249
 30
0.0
 11
4.408000000000001
 21
13.71671335838249
 31
0.0
  0
LINE
  5
716
330
18
100
AcDbEntity
  8
Object
100
AcDbLine
 10
4.396
 20
13.6287133583825
 30
0.0
 11
4.397
 21
13.63371335838249
 31
0.0
  0
LINE
  5
717
330
18
100
AcDbEntity
  8
Object
100
AcDbLine
 10
4.307
 20
13.29671335838249
 30
0.0
 11
4.358
 21
13.45671335838249
 31
0.0
  0
LINE
  5
718
330
18
100
AcDbEntity
  8
Object
100
AcDbLine
 10
4.306
 20
13.29571335838249
 30
0.0
 11
4.304
 21
13.28771335838249
 31
0.0
  0
LINE
  5
719
330
18
100
AcDbEntity
  8
Object
100
AcDbLine
 10
4.358
 20
13.45671335838249
 30
0.0
 11
4.310999999999999
 21
13.31071335838249
 31
0.0
  0
LINE
  5
71A
330
18
100
AcDbEntity
  8
Object
100
AcDbLine
 10
4.303
 20
11.98171335838249
 30
0.0
 11
4.489
 21
11.98171335838249
 31
0.0
  0
LINE
  5
71B
330
18
100
AcDbEntity
  8
Object
100
AcDbLine
 10
4.307
 20
13.29671335838249
 30
0.0
 11
4.304
 21
13.28771335838249
 31
0.0
  0
LINE
  5
71C
330
18
100
AcDbEntity
  8
Object
100
AcDbLine
 10
4.304
 20
13.28771335838249
 30
0.0
 11
4.240999999999999
 21
13.13571335838249
 31
0.0
  0
LINE
  5
71D
330
18
100
AcDbEntity
  8
Object
100
AcDbLine
 10
4.237999999999999
 20
13.13171335838249
 30
0.0
 11
4.236
 21
13.12471335838249
 31
0.0
  0
LINE
  5
71E
330
18
100
AcDbEntity
  8
Object
100
AcDbLine
 10
4.304
 20
13.28771335838249
 30
0.0
 11
4.263999999999999
 21
13.19271335838249
 31
0.0
  0
LINE
  5
71F
330
18
100
AcDbEntity
  8
Object
100
AcDbLine
 10
4.240999999999999
 20
13.13571335838249
 30
0.0
 11
4.236
 21
13.12471335838249
 31
0.0
  0
LINE
  5
720
330
18
100
AcDbEntity
  8
Object
100
AcDbLine
 10
4.236
 20
13.12471335838249
 30
0.0
 11
4.16
 21
12.98171335838249
 31
0.0
  0
LINE
  5
721
330
18
100
AcDbEntity
  8
Object
100
AcDbLine
 10
4.158999999999998
 20
12.97971335838249
 30
0.0
 11
4.153
 21
12.96871335838249
 31
0.0
  0
LINE
  5
722
330
18
100
AcDbEntity
  8
Object
100
AcDbLine
 10
4.236
 20
13.12471335838249
 30
0.0
 11
4.169
 21
12.99871335838249
 31
0.0
  0
LINE
  5
723
330
18
100
AcDbEntity
  8
Object
100
AcDbLine
 10
4.12
 20
11.98171335838249
 30
0.0
 11
4.303
 21
11.98171335838249
 31
0.0
  0
LINE
  5
724
330
18
100
AcDbEntity
  8
Object
100
AcDbLine
 10
4.16
 20
12.98171335838249
 30
0.0
 11
4.153
 21
12.96871335838249
 31
0.0
  0
LINE
  5
725
330
18
100
AcDbEntity
  8
Object
100
AcDbLine
 10
4.153
 20
12.96871335838249
 30
0.0
 11
4.067
 21
12.83371335838249
 31
0.0
  0
LINE
  5
726
330
18
100
AcDbEntity
  8
Object
100
AcDbLine
 10
4.153
 20
12.96871335838249
 30
0.0
 11
4.103999999999999
 21
12.89371335838249
 31
0.0
  0
LINE
  5
727
330
18
100
AcDbEntity
  8
Object
100
AcDbLine
 10
4.067
 20
12.83371335838249
 30
0.0
 11
4.057
 21
12.81971335838249
 31
0.0
  0
LINE
  5
728
330
18
100
AcDbEntity
  8
Object
100
AcDbLine
 10
4.057
 20
12.81971335838249
 30
0.0
 11
3.961
 21
12.69571335838249
 31
0.0
  0
LINE
  5
729
330
18
100
AcDbEntity
  8
Object
100
AcDbLine
 10
3.939999999999999
 20
11.98171335838249
 30
0.0
 11
4.12
 21
11.98171335838249
 31
0.0
  0
LINE
  5
72A
330
18
100
AcDbEntity
  8
Object
100
AcDbLine
 10
3.961
 20
12.69571335838249
 30
0.0
 11
3.948
 21
12.68071335838249
 31
0.0
  0
LINE
  5
72B
330
18
100
AcDbEntity
  8
Object
100
AcDbLine
 10
3.948
 20
12.68071335838249
 30
0.0
 11
3.842999999999999
 21
12.56671335838249
 31
0.0
  0
LINE
  5
72C
330
18
100
AcDbEntity
  8
Object
100
AcDbLine
 10
3.766
 20
11.98171335838249
 30
0.0
 11
3.939999999999999
 21
11.98171335838249
 31
0.0
  0
LINE
  5
72D
330
18
100
AcDbEntity
  8
Object
100
AcDbLine
 10
3.827999999999999
 20
12.55171335838249
 30
0.0
 11
3.842999999999999
 21
12.56671335838249
 31
0.0
  0
LINE
  5
72E
330
18
100
AcDbEntity
  8
Object
100
AcDbLine
 10
3.714999999999999
 20
12.44871335838249
 30
0.0
 11
3.833
 21
12.55171335838249
 31
0.0
  0
LINE
  5
72F
330
18
100
AcDbEntity
  8
Object
100
AcDbLine
 10
3.596999999999999
 20
11.98171335838249
 30
0.0
 11
3.766
 21
11.98171335838249
 31
0.0
  0
LINE
  5
730
330
18
100
AcDbEntity
  8
Object
100
AcDbLine
 10
3.695999999999999
 20
12.43371335838249
 30
0.0
 11
3.714999999999999
 21
12.44871335838249
 31
0.0
  0
LINE
  5
731
330
18
100
AcDbEntity
  8
Object
100
AcDbLine
 10
3.596999999999999
 20
11.98171335838249
 30
0.0
 11
3.437000000000001
 21
11.98171335838249
 31
0.0
  0
LINE
  5
732
330
18
100
AcDbEntity
  8
Object
100
AcDbLine
 10
3.437000000000001
 20
11.98171335838249
 30
0.0
 11
3.285
 21
11.98171335838249
 31
0.0
  0
LINE
  5
733
330
18
100
AcDbEntity
  8
Object
100
AcDbLine
 10
3.285
 20
11.98171335838249
 30
0.0
 11
3.141999999999999
 21
11.98171335838249
 31
0.0
  0
LINE
  5
734
330
18
100
AcDbEntity
  8
Object
100
AcDbLine
 10
3.141999999999999
 20
11.98171335838249
 30
0.0
 11
3.010999999999999
 21
11.98171335838249
 31
0.0
  0
LINE
  5
735
330
18
100
AcDbEntity
  8
Object
100
AcDbLine
 10
3.010999999999999
 20
11.98171335838249
 30
0.0
 11
2.89
 21
11.98171335838249
 31
0.0
  0
LINE
  5
736
330
18
100
AcDbEntity
  8
Object
100
AcDbLine
 10
2.89
 20
11.98171335838249
 30
0.0
 11
2.782999999999999
 21
11.98171335838249
 31
0.0
  0
LINE
  5
737
330
18
100
AcDbEntity
  8
Object
100
AcDbLine
 10
2.782999999999999
 20
11.98171335838249
 30
0.0
 11
2.688
 21
11.98171335838249
 31
0.0
  0
LINE
  5
738
330
18
100
AcDbEntity
  8
Object
100
AcDbLine
 10
2.688
 20
11.98171335838249
 30
0.0
 11
2.606999999999999
 21
11.98171335838249
 31
0.0
  0
LINE
  5
739
330
18
100
AcDbEntity
  8
Object
100
AcDbLine
 10
2.606999999999999
 20
11.98171335838249
 30
0.0
 11
2.541
 21
11.98171335838249
 31
0.0
  0
LINE
  5
73A
330
18
100
AcDbEntity
  8
Object
100
AcDbLine
 10
2.541
 20
11.98171335838249
 30
0.0
 11
2.489
 21
11.98171335838249
 31
0.0
  0
LINE
  5
73B
330
18
100
AcDbEntity
  8
Object
100
AcDbLine
 10
2.489
 20
11.98171335838249
 30
0.0
 11
2.452999999999999
 21
11.98171335838249
 31
0.0
  0
LINE
  5
73C
330
18
100
AcDbEntity
  8
Object
100
AcDbLine
 10
2.452999999999999
 20
11.98171335838249
 30
0.0
 11
2.432
 21
11.98171335838249
 31
0.0
  0
LINE
  5
73D
330
18
100
AcDbEntity
  8
Object
100
AcDbLine
 10
6.033
 20
11.98271335838249
 30
0.0
 11
5.980999999999999
 21
11.98271335838249
 31
0.0
  0
LINE
  5
73E
330
18
100
AcDbEntity
  8
Object
100
AcDbLine
 10
6.217
 20
11.98271335838249
 30
0.0
 11
6.150999999999999
 21
11.98271335838249
 31
0.0
  0
LINE
  5
73F
330
18
100
AcDbEntity
  8
Object
100
AcDbLine
 10
6.379
 20
11.98271335838249
 30
0.0
 11
6.275999999999999
 21
11.98271335838249
 31
0.0
  0
LINE
  5
740
330
18
100
AcDbEntity
  8
Object
100
AcDbLine
 10
6.506
 20
11.98271335838249
 30
0.0
 11
6.469
 21
11.98271335838249
 31
0.0
  0
LINE
  5
741
330
18
100
AcDbEntity
  8
Object
100
AcDbLine
 10
6.600999999999999
 20
11.98271335838249
 30
0.0
 11
6.565999999999999
 21
11.98271335838249
 31
0.0
  0
LINE
  5
742
330
18
100
AcDbEntity
  8
Object
100
AcDbLine
 10
6.820999999999999
 20
11.98271335838249
 30
0.0
 11
6.714
 21
11.98271335838249
 31
0.0
  0
LINE
  5
743
330
18
100
AcDbEntity
  8
Object
100
AcDbLine
 10
6.963
 20
11.98271335838249
 30
0.0
 11
6.892
 21
11.98271335838249
 31
0.0
  0
LINE
  5
744
330
18
100
AcDbEntity
  8
Object
100
AcDbLine
 10
7.092999999999999
 20
11.98271335838249
 30
0.0
 11
7.017
 21
11.98271335838249
 31
0.0
  0
LINE
  5
745
330
18
100
AcDbEntity
  8
Object
100
AcDbLine
 10
7.230999999999999
 20
11.98271335838249
 30
0.0
 11
7.155
 21
11.98271335838249
 31
0.0
  0
LINE
  5
746
330
18
100
AcDbEntity
  8
Object
100
AcDbLine
 10
7.230999999999999
 20
11.98571335838249
 30
0.0
 11
7.230999999999999
 21
11.99771335838249
 31
0.0
  0
LINE
  5
747
330
18
100
AcDbEntity
  8
Object
100
AcDbLine
 10
7.230999999999999
 20
11.99771335838249
 30
0.0
 11
7.230999999999999
 21
12.01871335838249
 31
0.0
  0
LINE
  5
748
330
18
100
AcDbEntity
  8
Object
100
AcDbLine
 10
7.230999999999999
 20
11.98571335838249
 30
0.0
 11
7.230999999999999
 21
11.98171335838249
 31
0.0
  0
LINE
  5
749
330
18
100
AcDbEntity
  8
Object
100
AcDbLine
 10
5.980999999999999
 20
11.98171335838249
 30
0.0
 11
5.980999999999999
 21
11.98571335838249
 31
0.0
  0
LINE
  5
74A
330
18
100
AcDbEntity
  8
Object
100
AcDbLine
 10
5.980999999999999
 20
11.98571335838249
 30
0.0
 11
5.980999999999999
 21
11.99771335838249
 31
0.0
  0
LINE
  5
74B
330
18
100
AcDbEntity
  8
Object
100
AcDbLine
 10
5.980999999999999
 20
11.99771335838249
 30
0.0
 11
5.980999999999999
 21
12.01871335838249
 31
0.0
  0
LINE
  5
74C
330
18
100
AcDbEntity
  8
Object
100
AcDbLine
 10
7.052
 20
12.00971335838249
 30
0.0
 11
7.201
 21
12.00971335838249
 31
0.0
  0
LINE
  5
74D
330
18
100
AcDbEntity
  8
Object
100
AcDbLine
 10
6.963
 20
12.00971335838249
 30
0.0
 11
7.017
 21
12.00971335838249
 31
0.0
  0
LINE
  5
74E
330
18
100
AcDbEntity
  8
Object
100
AcDbLine
 10
6.886
 20
12.00971335838249
 30
0.0
 11
6.927999999999999
 21
12.00971335838249
 31
0.0
  0
LINE
  5
74F
330
18
100
AcDbEntity
  8
Object
100
AcDbLine
 10
6.886
 20
11.99471335838249
 30
0.0
 11
6.884999999999999
 21
11.99371335838249
 31
0.0
  0
LINE
  5
750
330
18
100
AcDbEntity
  8
Object
100
AcDbLine
 10
6.884999999999999
 20
11.99371335838249
 30
0.0
 11
6.881
 21
11.99371335838249
 31
0.0
  0
LINE
  5
751
330
18
100
AcDbEntity
  8
Object
100
AcDbLine
 10
6.881
 20
11.99371335838249
 30
0.0
 11
6.876
 21
11.99371335838249
 31
0.0
  0
LINE
  5
752
330
18
100
AcDbEntity
  8
Object
100
AcDbLine
 10
6.862
 20
11.99371335838249
 30
0.0
 11
6.855999999999999
 21
11.99371335838249
 31
0.0
  0
LINE
  5
753
330
18
100
AcDbEntity
  8
Object
100
AcDbLine
 10
6.855999999999999
 20
11.99371335838249
 30
0.0
 11
6.852999999999999
 21
11.99371335838249
 31
0.0
  0
LINE
  5
754
330
18
100
AcDbEntity
  8
Object
100
AcDbLine
 10
6.862
 20
11.99371335838249
 30
0.0
 11
6.876
 21
11.99371335838249
 31
0.0
  0
LINE
  5
755
330
18
100
AcDbEntity
  8
Object
100
AcDbLine
 10
6.850999999999999
 20
11.99471335838249
 30
0.0
 11
6.852999999999999
 21
11.99371335838249
 31
0.0
  0
LINE
  5
756
330
18
100
AcDbEntity
  8
Object
100
AcDbLine
 10
6.785
 20
12.00971335838249
 30
0.0
 11
6.850999999999999
 21
12.00971335838249
 31
0.0
  0
LINE
  5
757
330
18
100
AcDbEntity
  8
Object
100
AcDbLine
 10
6.75
 20
12.00571335838249
 30
0.0
 11
6.745
 21
12.00771335838249
 31
0.0
  0
LINE
  5
758
330
18
100
AcDbEntity
  8
Object
100
AcDbLine
 10
6.745
 20
12.00771335838249
 30
0.0
 11
6.732
 21
12.00871335838249
 31
0.0
  0
LINE
  5
759
330
18
100
AcDbEntity
  8
Object
100
AcDbLine
 10
6.732
 20
12.00871335838249
 30
0.0
 11
6.714
 21
12.00971335838249
 31
0.0
  0
LINE
  5
75A
330
18
100
AcDbEntity
  8
Object
100
AcDbLine
 10
6.714
 20
12.00971335838249
 30
0.0
 11
6.600999999999999
 21
12.00971335838249
 31
0.0
  0
LINE
  5
75B
330
18
100
AcDbEntity
  8
Object
100
AcDbLine
 10
6.411999999999999
 20
11.99571335838249
 30
0.0
 11
6.354
 21
12.00971335838249
 31
0.0
  0
LINE
  5
75C
330
18
100
AcDbEntity
  8
Object
100
AcDbLine
 10
6.354
 20
12.00971335838249
 30
0.0
 11
6.301
 21
12.00971335838249
 31
0.0
  0
LINE
  5
75D
330
18
100
AcDbEntity
  8
Object
100
AcDbLine
 10
6.301
 20
12.00971335838249
 30
0.0
 11
6.282
 21
12.01271335838249
 31
0.0
  0
LINE
  5
75E
330
18
100
AcDbEntity
  8
Object
100
AcDbLine
 10
6.515
 20
12.00971335838249
 30
0.0
 11
6.565999999999999
 21
12.00971335838249
 31
0.0
  0
LINE
  5
75F
330
18
100
AcDbEntity
  8
Object
100
AcDbLine
 10
6.411999999999999
 20
12.00971335838249
 30
0.0
 11
6.48
 21
12.00971335838249
 31
0.0
  0
LINE
  5
760
330
18
100
AcDbEntity
  8
Object
100
AcDbLine
 10
6.251999999999999
 20
12.01471335838249
 30
0.0
 11
6.282
 21
12.01271335838249
 31
0.0
  0
LINE
  5
761
330
18
100
AcDbEntity
  8
Object
100
AcDbLine
 10
6.217
 20
11.98871335838249
 30
0.0
 11
6.229
 21
11.99171335838249
 31
0.0
  0
LINE
  5
762
330
18
100
AcDbEntity
  8
Object
100
AcDbLine
 10
6.251999999999999
 20
12.01471335838249
 30
0.0
 11
6.214999999999999
 21
12.01571335838249
 31
0.0
  0
LINE
  5
763
330
18
100
AcDbEntity
  8
Object
100
AcDbLine
 10
6.214999999999999
 20
12.01571335838249
 30
0.0
 11
6.033
 21
12.01571335838249
 31
0.0
  0
LINE
  5
764
330
18
100
AcDbEntity
  8
Object
100
AcDbLine
 10
6.365
 20
11.98571335838249
 30
0.0
 11
6.379
 21
11.98271335838249
 31
0.0
  0
LINE
  5
765
330
18
100
AcDbEntity
  8
Object
100
AcDbLine
 10
6.469
 20
11.99171335838249
 30
0.0
 11
6.506
 21
11.98271335838249
 31
0.0
  0
LINE
  5
766
330
18
100
AcDbEntity
  8
Object
100
AcDbLine
 10
6.565999999999999
 20
12.00971335838249
 30
0.0
 11
6.565999999999999
 21
12.00371335838249
 31
0.0
  0
LINE
  5
767
330
18
100
AcDbEntity
  8
Object
100
AcDbLine
 10
6.565999999999999
 20
12.00371335838249
 30
0.0
 11
6.565999999999999
 21
11.98271335838249
 31
0.0
  0
LINE
  5
768
330
18
100
AcDbEntity
  8
Object
100
AcDbLine
 10
6.785
 20
12.00971335838249
 30
0.0
 11
6.785
 21
12.00371335838249
 31
0.0
  0
LINE
  5
769
330
18
100
AcDbEntity
  8
Object
100
AcDbLine
 10
6.785
 20
12.00371335838249
 30
0.0
 11
6.785
 21
11.98671335838249
 31
0.0
  0
LINE
  5
76A
330
18
100
AcDbEntity
  8
Object
100
AcDbLine
 10
6.150999999999999
 20
11.99171335838249
 30
0.0
 11
6.214999999999999
 21
11.99171335838249
 31
0.0
  0
LINE
  5
76B
330
18
100
AcDbEntity
  8
Object
100
AcDbLine
 10
6.217
 20
11.98871335838249
 30
0.0
 11
6.217
 21
11.98271335838249
 31
0.0
  0
LINE
  5
76C
330
18
100
AcDbEntity
  8
Object
100
AcDbLine
 10
6.217
 20
11.98271335838249
 30
0.0
 11
6.275999999999999
 21
11.98271335838249
 31
0.0
  0
LINE
  5
76D
330
18
100
AcDbEntity
  8
Object
100
AcDbLine
 10
6.469
 20
11.98271335838249
 30
0.0
 11
6.469
 21
11.99171335838249
 31
0.0
  0
LINE
  5
76E
330
18
100
AcDbEntity
  8
Object
100
AcDbLine
 10
6.820999999999999
 20
11.98271335838249
 30
0.0
 11
6.892
 21
11.98271335838249
 31
0.0
  0
LINE
  5
76F
330
18
100
AcDbEntity
  8
Object
100
AcDbLine
 10
6.886
 20
12.00971335838249
 30
0.0
 11
6.886
 21
12.00371335838249
 31
0.0
  0
LINE
  5
770
330
18
100
AcDbEntity
  8
Object
100
AcDbLine
 10
6.927999999999999
 20
12.00371335838249
 30
0.0
 11
6.927999999999999
 21
12.00971335838249
 31
0.0
  0
LINE
  5
771
330
18
100
AcDbEntity
  8
Object
100
AcDbLine
 10
6.506
 20
11.98271335838249
 30
0.0
 11
6.565999999999999
 21
11.98271335838249
 31
0.0
  0
LINE
  5
772
330
18
100
AcDbEntity
  8
Object
100
AcDbLine
 10
6.600999999999999
 20
12.00971335838249
 30
0.0
 11
6.600999999999999
 21
12.00371335838249
 31
0.0
  0
LINE
  5
773
330
18
100
AcDbEntity
  8
Object
100
AcDbLine
 10
6.600999999999999
 20
12.00371335838249
 30
0.0
 11
6.600999999999999
 21
11.98271335838249
 31
0.0
  0
LINE
  5
774
330
18
100
AcDbEntity
  8
Object
100
AcDbLine
 10
6.876
 20
11.99371335838249
 30
0.0
 11
6.876
 21
11.98771335838249
 31
0.0
  0
LINE
  5
775
330
18
100
AcDbEntity
  8
Object
100
AcDbLine
 10
6.876
 20
11.98771335838249
 30
0.0
 11
6.862
 21
11.98771335838249
 31
0.0
  0
LINE
  5
776
330
18
100
AcDbEntity
  8
Object
100
AcDbLine
 10
6.785
 20
12.00971335838249
 30
0.0
 11
6.785
 21
12.00371335838249
 31
0.0
  0
LINE
  5
777
330
18
100
AcDbEntity
  8
Object
100
AcDbLine
 10
6.850999999999999
 20
12.00371335838249
 30
0.0
 11
6.850999999999999
 21
12.00971335838249
 31
0.0
  0
LINE
  5
778
330
18
100
AcDbEntity
  8
Object
100
AcDbLine
 10
6.288999999999999
 20
11.98571335838249
 30
0.0
 11
6.365
 21
11.98571335838249
 31
0.0
  0
LINE
  5
779
330
18
100
AcDbEntity
  8
Object
100
AcDbLine
 10
6.515
 20
12.00971335838249
 30
0.0
 11
6.515
 21
12.00371335838249
 31
0.0
  0
LINE
  5
77A
330
18
100
AcDbEntity
  8
Object
100
AcDbLine
 10
6.515
 20
12.00371335838249
 30
0.0
 11
6.515
 21
11.99471335838249
 31
0.0
  0
LINE
  5
77B
330
18
100
AcDbEntity
  8
Object
100
AcDbLine
 10
6.411999999999999
 20
12.00971335838249
 30
0.0
 11
6.411999999999999
 21
12.00371335838249
 31
0.0
  0
LINE
  5
77C
330
18
100
AcDbEntity
  8
Object
100
AcDbLine
 10
6.411999999999999
 20
12.00371335838249
 30
0.0
 11
6.411999999999999
 21
11.98971335838249
 31
0.0
  0
LINE
  5
77D
330
18
100
AcDbEntity
  8
Object
100
AcDbLine
 10
6.963
 20
11.98271335838249
 30
0.0
 11
7.017
 21
11.98271335838249
 31
0.0
  0
LINE
  5
77E
330
18
100
AcDbEntity
  8
Object
100
AcDbLine
 10
7.155
 20
11.98271335838249
 30
0.0
 11
7.155
 21
11.99971335838249
 31
0.0
  0
LINE
  5
77F
330
18
100
AcDbEntity
  8
Object
100
AcDbLine
 10
6.301
 20
12.00371335838249
 30
0.0
 11
6.301
 21
12.00971335838249
 31
0.0
  0
LINE
  5
780
330
18
100
AcDbEntity
  8
Object
100
AcDbLine
 10
6.75
 20
12.00571335838249
 30
0.0
 11
6.75
 21
11.99971335838249
 31
0.0
  0
LINE
  5
781
330
18
100
AcDbEntity
  8
Object
100
AcDbLine
 10
6.75
 20
11.99971335838249
 30
0.0
 11
6.75
 21
11.98671335838249
 31
0.0
  0
LINE
  5
782
330
18
100
AcDbEntity
  8
Object
100
AcDbLine
 10
6.963
 20
12.00971335838249
 30
0.0
 11
6.963
 21
12.00371335838249
 31
0.0
  0
LINE
  5
783
330
18
100
AcDbEntity
  8
Object
100
AcDbLine
 10
6.963
 20
12.00371335838249
 30
0.0
 11
6.963
 21
11.98271335838249
 31
0.0
  0
LINE
  5
784
330
18
100
AcDbEntity
  8
Object
100
AcDbLine
 10
7.052
 20
11.99971335838249
 30
0.0
 11
7.092999999999999
 21
11.99971335838249
 31
0.0
  0
LINE
  5
785
330
18
100
AcDbEntity
  8
Object
100
AcDbLine
 10
6.886
 20
11.98871335838249
 30
0.0
 11
6.884999999999999
 21
11.98771335838249
 31
0.0
  0
LINE
  5
786
330
18
100
AcDbEntity
  8
Object
100
AcDbLine
 10
6.884999999999999
 20
11.98771335838249
 30
0.0
 11
6.881
 21
11.98771335838249
 31
0.0
  0
LINE
  5
787
330
18
100
AcDbEntity
  8
Object
100
AcDbLine
 10
6.881
 20
11.98771335838249
 30
0.0
 11
6.876
 21
11.98771335838249
 31
0.0
  0
LINE
  5
788
330
18
100
AcDbEntity
  8
Object
100
AcDbLine
 10
6.850999999999999
 20
12.00971335838249
 30
0.0
 11
6.850999999999999
 21
12.00371335838249
 31
0.0
  0
LINE
  5
789
330
18
100
AcDbEntity
  8
Object
100
AcDbLine
 10
6.850999999999999
 20
12.00371335838249
 30
0.0
 11
6.850999999999999
 21
11.98871335838249
 31
0.0
  0
LINE
  5
78A
330
18
100
AcDbEntity
  8
Object
100
AcDbLine
 10
6.411999999999999
 20
12.00971335838249
 30
0.0
 11
6.411999999999999
 21
12.00371335838249
 31
0.0
  0
LINE
  5
78B
330
18
100
AcDbEntity
  8
Object
100
AcDbLine
 10
6.48
 20
12.00371335838249
 30
0.0
 11
6.48
 21
12.00971335838249
 31
0.0
  0
LINE
  5
78C
330
18
100
AcDbEntity
  8
Object
100
AcDbLine
 10
7.155
 20
11.99971335838249
 30
0.0
 11
7.201
 21
11.99971335838249
 31
0.0
  0
LINE
  5
78D
330
18
100
AcDbEntity
  8
Object
100
AcDbLine
 10
6.354
 20
12.00371335838249
 30
0.0
 11
6.354
 21
12.00971335838249
 31
0.0
  0
LINE
  5
78E
330
18
100
AcDbEntity
  8
Object
100
AcDbLine
 10
6.033
 20
12.01571335838249
 30
0.0
 11
6.033
 21
12.00971335838249
 31
0.0
  0
LINE
  5
78F
330
18
100
AcDbEntity
  8
Object
100
AcDbLine
 10
6.214999999999999
 20
12.01571335838249
 30
0.0
 11
6.214999999999999
 21
12.00971335838249
 31
0.0
  0
LINE
  5
790
330
18
100
AcDbEntity
  8
Object
100
AcDbLine
 10
6.214999999999999
 20
12.00971335838249
 30
0.0
 11
6.033
 21
12.00971335838249
 31
0.0
  0
LINE
  5
791
330
18
100
AcDbEntity
  8
Object
100
AcDbLine
 10
6.963
 20
12.00971335838249
 30
0.0
 11
6.963
 21
12.00371335838249
 31
0.0
  0
LINE
  5
792
330
18
100
AcDbEntity
  8
Object
100
AcDbLine
 10
7.017
 20
12.00371335838249
 30
0.0
 11
7.017
 21
12.00971335838249
 31
0.0
  0
LINE
  5
793
330
18
100
AcDbEntity
  8
Object
100
AcDbLine
 10
7.092999999999999
 20
11.99971335838249
 30
0.0
 11
7.092999999999999
 21
11.98271335838249
 31
0.0
  0
LINE
  5
794
330
18
100
AcDbEntity
  8
Object
100
AcDbLine
 10
7.052
 20
12.00971335838249
 30
0.0
 11
7.052
 21
12.00371335838249
 31
0.0
  0
LINE
  5
795
330
18
100
AcDbEntity
  8
Object
100
AcDbLine
 10
7.201
 20
12.00971335838249
 30
0.0
 11
7.201
 21
12.00371335838249
 31
0.0
  0
LINE
  5
796
330
18
100
AcDbEntity
  8
Object
100
AcDbLine
 10
7.201
 20
12.00371335838249
 30
0.0
 11
7.052
 21
12.00371335838249
 31
0.0
  0
LINE
  5
797
330
18
100
AcDbEntity
  8
Object
100
AcDbLine
 10
7.017
 20
12.00971335838249
 30
0.0
 11
7.017
 21
12.00371335838249
 31
0.0
  0
LINE
  5
798
330
18
100
AcDbEntity
  8
Object
100
AcDbLine
 10
7.017
 20
12.00371335838249
 30
0.0
 11
7.017
 21
11.98271335838249
 31
0.0
  0
LINE
  5
799
330
18
100
AcDbEntity
  8
Object
100
AcDbLine
 10
6.150999999999999
 20
11.98271335838249
 30
0.0
 11
6.150999999999999
 21
11.99171335838249
 31
0.0
  0
LINE
  5
79A
330
18
100
AcDbEntity
  8
Object
100
AcDbLine
 10
7.092999999999999
 20
11.98271335838249
 30
0.0
 11
7.155
 21
11.98271335838249
 31
0.0
  0
LINE
  5
79B
330
18
100
AcDbEntity
  8
Object
100
AcDbLine
 10
6.217
 20
11.98271335838249
 30
0.0
 11
6.254999999999999
 21
11.99171335838249
 31
0.0
  0
LINE
  5
79C
330
18
100
AcDbEntity
  8
Object
100
AcDbLine
 10
7.052
 20
11.99971335838249
 30
0.0
 11
7.052
 21
12.00371335838249
 31
0.0
  0
LINE
  5
79D
330
18
100
AcDbEntity
  8
Object
100
AcDbLine
 10
7.052
 20
12.00371335838249
 30
0.0
 11
7.052
 21
12.00971335838249
 31
0.0
  0
LINE
  5
79E
330
18
100
AcDbEntity
  8
Object
100
AcDbLine
 10
6.820999999999999
 20
11.98271335838249
 30
0.0
 11
6.802999999999999
 21
11.98271335838249
 31
0.0
  0
LINE
  5
79F
330
18
100
AcDbEntity
  8
Object
100
AcDbLine
 10
6.802999999999999
 20
11.98271335838249
 30
0.0
 11
6.79
 21
11.98471335838249
 31
0.0
  0
LINE
  5
7A0
330
18
100
AcDbEntity
  8
Object
100
AcDbLine
 10
6.79
 20
11.98471335838249
 30
0.0
 11
6.785
 21
11.98671335838249
 31
0.0
  0
LINE
  5
7A1
330
18
100
AcDbEntity
  8
Object
100
AcDbLine
 10
6.927999999999999
 20
12.00971335838249
 30
0.0
 11
6.927999999999999
 21
12.00371335838249
 31
0.0
  0
LINE
  5
7A2
330
18
100
AcDbEntity
  8
Object
100
AcDbLine
 10
6.927999999999999
 20
12.00371335838249
 30
0.0
 11
6.927999999999999
 21
11.98671335838249
 31
0.0
  0
LINE
  5
7A3
330
18
100
AcDbEntity
  8
Object
100
AcDbLine
 10
6.379
 20
11.98271335838249
 30
0.0
 11
6.469
 21
11.98271335838249
 31
0.0
  0
LINE
  5
7A4
330
18
100
AcDbEntity
  8
Object
100
AcDbLine
 10
6.75
 20
11.99971335838249
 30
0.0
 11
6.75
 21
12.00571335838249
 31
0.0
  0
LINE
  5
7A5
330
18
100
AcDbEntity
  8
Object
100
AcDbLine
 10
7.201
 20
12.00971335838249
 30
0.0
 11
7.201
 21
12.00371335838249
 31
0.0
  0
LINE
  5
7A6
330
18
100
AcDbEntity
  8
Object
100
AcDbLine
 10
7.201
 20
12.00371335838249
 30
0.0
 11
7.201
 21
11.99971335838249
 31
0.0
  0
LINE
  5
7A7
330
18
100
AcDbEntity
  8
Object
100
AcDbLine
 10
6.033
 20
11.98271335838249
 30
0.0
 11
6.150999999999999
 21
11.98271335838249
 31
0.0
  0
LINE
  5
7A8
330
18
100
AcDbEntity
  8
Object
100
AcDbLine
 10
6.515
 20
12.00971335838249
 30
0.0
 11
6.515
 21
12.00371335838249
 31
0.0
  0
LINE
  5
7A9
330
18
100
AcDbEntity
  8
Object
100
AcDbLine
 10
6.565999999999999
 20
12.00371335838249
 30
0.0
 11
6.565999999999999
 21
12.00971335838249
 31
0.0
  0
LINE
  5
7AA
330
18
100
AcDbEntity
  8
Object
100
AcDbLine
 10
6.600999999999999
 20
12.00971335838249
 30
0.0
 11
6.600999999999999
 21
12.00371335838249
 31
0.0
  0
LINE
  5
7AB
330
18
100
AcDbEntity
  8
Object
100
AcDbLine
 10
6.714
 20
12.00971335838249
 30
0.0
 11
6.714
 21
12.00371335838249
 31
0.0
  0
LINE
  5
7AC
330
18
100
AcDbEntity
  8
Object
100
AcDbLine
 10
6.714
 20
12.00371335838249
 30
0.0
 11
6.600999999999999
 21
12.00371335838249
 31
0.0
  0
LINE
  5
7AD
330
18
100
AcDbEntity
  8
Object
100
AcDbLine
 10
6.862
 20
11.98771335838249
 30
0.0
 11
6.862
 21
11.99371335838249
 31
0.0
  0
LINE
  5
7AE
330
18
100
AcDbEntity
  8
Object
100
AcDbLine
 10
6.515
 20
12.00071335838249
 30
0.0
 11
6.48
 21
12.00971335838249
 31
0.0
  0
LINE
  5
7AF
330
18
100
AcDbEntity
  8
Object
100
AcDbLine
 10
6.600999999999999
 20
11.98271335838249
 30
0.0
 11
6.714
 21
11.98271335838249
 31
0.0
  0
LINE
  5
7B0
330
18
100
AcDbEntity
  8
Object
100
AcDbLine
 10
6.033
 20
12.01571335838249
 30
0.0
 11
6.033
 21
12.00971335838249
 31
0.0
  0
LINE
  5
7B1
330
18
100
AcDbEntity
  8
Object
100
AcDbLine
 10
6.033
 20
12.00971335838249
 30
0.0
 11
6.033
 21
11.98271335838249
 31
0.0
  0
LINE
  5
7B2
330
18
100
AcDbEntity
  8
Object
100
AcDbLine
 10
6.886
 20
12.00971335838249
 30
0.0
 11
6.886
 21
12.00371335838249
 31
0.0
  0
LINE
  5
7B3
330
18
100
AcDbEntity
  8
Object
100
AcDbLine
 10
6.886
 20
12.00371335838249
 30
0.0
 11
6.886
 21
11.98871335838249
 31
0.0
  0
LINE
  5
7B4
330
18
100
AcDbEntity
  8
Object
100
AcDbLine
 10
6.515
 20
11.99471335838249
 30
0.0
 11
6.515
 21
12.00371335838249
 31
0.0
  0
LINE
  5
7B5
330
18
100
AcDbEntity
  8
Object
100
AcDbLine
 10
6.515
 20
12.00371335838249
 30
0.0
 11
6.565999999999999
 21
12.00371335838249
 31
0.0
  0
LINE
  5
7B6
330
18
100
AcDbEntity
  8
Object
100
AcDbLine
 10
6.565999999999999
 20
12.00371335838249
 30
0.0
 11
6.565999999999999
 21
11.98271335838249
 31
0.0
  0
LINE
  5
7B7
330
18
100
AcDbEntity
  8
Object
100
AcDbLine
 10
6.515
 20
11.99471335838249
 30
0.0
 11
6.48
 21
12.00371335838249
 31
0.0
  0
LINE
  5
7B8
330
18
100
AcDbEntity
  8
Object
100
AcDbLine
 10
6.469
 20
11.98271335838249
 30
0.0
 11
6.469
 21
11.99171335838249
 31
0.0
  0
LINE
  5
7B9
330
18
100
AcDbEntity
  8
Object
100
AcDbLine
 10
6.411999999999999
 20
11.98971335838249
 30
0.0
 11
6.411999999999999
 21
12.00371335838249
 31
0.0
  0
LINE
  5
7BA
330
18
100
AcDbEntity
  8
Object
100
AcDbLine
 10
6.411999999999999
 20
12.00371335838249
 30
0.0
 11
6.48
 21
12.00371335838249
 31
0.0
  0
LINE
  5
7BB
330
18
100
AcDbEntity
  8
Object
100
AcDbLine
 10
6.411999999999999
 20
11.98971335838249
 30
0.0
 11
6.354
 21
12.00371335838249
 31
0.0
  0
LINE
  5
7BC
330
18
100
AcDbEntity
  8
Object
100
AcDbLine
 10
6.326
 20
11.99571335838249
 30
0.0
 11
6.352
 21
11.99071335838249
 31
0.0
  0
LINE
  5
7BD
330
18
100
AcDbEntity
  8
Object
100
AcDbLine
 10
6.354
 20
12.00371335838249
 30
0.0
 11
6.301
 21
12.00371335838249
 31
0.0
  0
LINE
  5
7BE
330
18
100
AcDbEntity
  8
Object
100
AcDbLine
 10
6.352
 20
11.99071335838249
 30
0.0
 11
6.301
 21
11.99071335838249
 31
0.0
  0
LINE
  5
7BF
330
18
100
AcDbEntity
  8
Object
100
AcDbLine
 10
6.301
 20
11.99071335838249
 30
0.0
 11
6.326
 21
11.99571335838249
 31
0.0
  0
LINE
  5
7C0
330
18
100
AcDbEntity
  8
Object
100
AcDbLine
 10
6.275999999999999
 20
11.98271335838249
 30
0.0
 11
6.288999999999999
 21
11.98571335838249
 31
0.0
  0
LINE
  5
7C1
330
18
100
AcDbEntity
  8
Object
100
AcDbLine
 10
6.251999999999999
 20
12.00971335838249
 30
0.0
 11
6.282
 21
12.00671335838249
 31
0.0
  0
LINE
  5
7C2
330
18
100
AcDbEntity
  8
Object
100
AcDbLine
 10
6.282
 20
12.00671335838249
 30
0.0
 11
6.301
 21
12.00371335838249
 31
0.0
  0
LINE
  5
7C3
330
18
100
AcDbEntity
  8
Object
100
AcDbLine
 10
6.241999999999999
 20
11.99171335838249
 30
0.0
 11
6.254999999999999
 21
11.99171335838249
 31
0.0
  0
LINE
  5
7C4
330
18
100
AcDbEntity
  8
Object
100
AcDbLine
 10
6.189
 20
12.00371335838249
 30
0.0
 11
6.189
 21
11.99671335838249
 31
0.0
  0
LINE
  5
7C5
330
18
100
AcDbEntity
  8
Object
100
AcDbLine
 10
6.251999999999999
 20
12.00971335838249
 30
0.0
 11
6.214999999999999
 21
12.00971335838249
 31
0.0
  0
LINE
  5
7C6
330
18
100
AcDbEntity
  8
Object
100
AcDbLine
 10
6.187999999999999
 20
12.00471335838249
 30
0.0
 11
6.189
 21
12.00371335838249
 31
0.0
  0
LINE
  5
7C7
330
18
100
AcDbEntity
  8
Object
100
AcDbLine
 10
6.241999999999999
 20
11.99171335838249
 30
0.0
 11
6.229
 21
11.99171335838249
 31
0.0
  0
LINE
  5
7C8
330
18
100
AcDbEntity
  8
Object
100
AcDbLine
 10
6.229
 20
11.99171335838249
 30
0.0
 11
6.214999999999999
 21
11.99171335838249
 31
0.0
  0
LINE
  5
7C9
330
18
100
AcDbEntity
  8
Object
100
AcDbLine
 10
6.189
 20
11.99671335838249
 30
0.0
 11
6.187999999999999
 21
11.99671335838249
 31
0.0
  0
LINE
  5
7CA
330
18
100
AcDbEntity
  8
Object
100
AcDbLine
 10
6.182999999999999
 20
12.00471335838249
 30
0.0
 11
6.187999999999999
 21
12.00471335838249
 31
0.0
  0
LINE
  5
7CB
330
18
100
AcDbEntity
  8
Object
100
AcDbLine
 10
6.187999999999999
 20
11.99671335838249
 30
0.0
 11
6.182999999999999
 21
11.99571335838249
 31
0.0
  0
LINE
  5
7CC
330
18
100
AcDbEntity
  8
Object
100
AcDbLine
 10
6.177
 20
12.00571335838249
 30
0.0
 11
6.182999999999999
 21
12.00471335838249
 31
0.0
  0
LINE
  5
7CD
330
18
100
AcDbEntity
  8
Object
100
AcDbLine
 10
6.182999999999999
 20
11.99571335838249
 30
0.0
 11
6.177
 21
11.99571335838249
 31
0.0
  0
LINE
  5
7CE
330
18
100
AcDbEntity
  8
Object
100
AcDbLine
 10
6.150999999999999
 20
12.00571335838249
 30
0.0
 11
6.177
 21
12.00571335838249
 31
0.0
  0
LINE
  5
7CF
330
18
100
AcDbEntity
  8
Object
100
AcDbLine
 10
6.177
 20
11.99571335838249
 30
0.0
 11
6.150999999999999
 21
11.99571335838249
 31
0.0
  0
LINE
  5
7D0
330
18
100
AcDbEntity
  8
Object
100
AcDbLine
 10
6.150999999999999
 20
11.98271335838249
 30
0.0
 11
6.150999999999999
 21
11.99171335838249
 31
0.0
  0
LINE
  5
7D1
330
18
100
AcDbEntity
  8
Object
100
AcDbLine
 10
6.033
 20
12.00971335838249
 30
0.0
 11
6.033
 21
11.98271335838249
 31
0.0
  0
LINE
  5
7D2
330
18
100
AcDbEntity
  8
Object
100
AcDbLine
 10
6.150999999999999
 20
11.99571335838249
 30
0.0
 11
6.150999999999999
 21
12.00571335838249
 31
0.0
  0
LINE
  5
7D3
330
18
100
AcDbEntity
  8
Object
100
AcDbLine
 10
6.886
 20
11.98871335838249
 30
0.0
 11
6.886
 21
12.00371335838249
 31
0.0
  0
LINE
  5
7D4
330
18
100
AcDbEntity
  8
Object
100
AcDbLine
 10
6.886
 20
12.00371335838249
 30
0.0
 11
6.927999999999999
 21
12.00371335838249
 31
0.0
  0
LINE
  5
7D5
330
18
100
AcDbEntity
  8
Object
100
AcDbLine
 10
6.927999999999999
 20
12.00371335838249
 30
0.0
 11
6.927999999999999
 21
11.98671335838249
 31
0.0
  0
LINE
  5
7D6
330
18
100
AcDbEntity
  8
Object
100
AcDbLine
 10
6.927999999999999
 20
11.98671335838249
 30
0.0
 11
6.923
 21
11.98471335838249
 31
0.0
  0
LINE
  5
7D7
330
18
100
AcDbEntity
  8
Object
100
AcDbLine
 10
6.923
 20
11.98471335838249
 30
0.0
 11
6.91
 21
11.98271335838249
 31
0.0
  0
LINE
  5
7D8
330
18
100
AcDbEntity
  8
Object
100
AcDbLine
 10
6.91
 20
11.98271335838249
 30
0.0
 11
6.892
 21
11.98271335838249
 31
0.0
  0
LINE
  5
7D9
330
18
100
AcDbEntity
  8
Object
100
AcDbLine
 10
6.852999999999999
 20
11.98771335838249
 30
0.0
 11
6.855999999999999
 21
11.98771335838249
 31
0.0
  0
LINE
  5
7DA
330
18
100
AcDbEntity
  8
Object
100
AcDbLine
 10
6.855999999999999
 20
11.98771335838249
 30
0.0
 11
6.862
 21
11.98771335838249
 31
0.0
  0
LINE
  5
7DB
330
18
100
AcDbEntity
  8
Object
100
AcDbLine
 10
6.785
 20
12.00371335838249
 30
0.0
 11
6.785
 21
11.98671335838249
 31
0.0
  0
LINE
  5
7DC
330
18
100
AcDbEntity
  8
Object
100
AcDbLine
 10
6.852999999999999
 20
11.98771335838249
 30
0.0
 11
6.850999999999999
 21
11.98871335838249
 31
0.0
  0
LINE
  5
7DD
330
18
100
AcDbEntity
  8
Object
100
AcDbLine
 10
6.785
 20
12.00371335838249
 30
0.0
 11
6.850999999999999
 21
12.00371335838249
 31
0.0
  0
LINE
  5
7DE
330
18
100
AcDbEntity
  8
Object
100
AcDbLine
 10
6.850999999999999
 20
12.00371335838249
 30
0.0
 11
6.850999999999999
 21
11.98871335838249
 31
0.0
  0
LINE
  5
7DF
330
18
100
AcDbEntity
  8
Object
100
AcDbLine
 10
6.75
 20
11.98671335838249
 30
0.0
 11
6.75
 21
11.99971335838249
 31
0.0
  0
LINE
  5
7E0
330
18
100
AcDbEntity
  8
Object
100
AcDbLine
 10
6.690999999999999
 20
11.99771335838249
 30
0.0
 11
6.690999999999999
 21
11.98871335838249
 31
0.0
  0
LINE
  5
7E1
330
18
100
AcDbEntity
  8
Object
100
AcDbLine
 10
6.714
 20
12.00371335838249
 30
0.0
 11
6.732
 21
12.00271335838249
 31
0.0
  0
LINE
  5
7E2
330
18
100
AcDbEntity
  8
Object
100
AcDbLine
 10
6.732
 20
12.00271335838249
 30
0.0
 11
6.745
 21
12.00171335838249
 31
0.0
  0
LINE
  5
7E3
330
18
100
AcDbEntity
  8
Object
100
AcDbLine
 10
6.745
 20
12.00171335838249
 30
0.0
 11
6.75
 21
11.99971335838249
 31
0.0
  0
LINE
  5
7E4
330
18
100
AcDbEntity
  8
Object
100
AcDbLine
 10
6.75
 20
11.98671335838249
 30
0.0
 11
6.745
 21
11.98471335838249
 31
0.0
  0
LINE
  5
7E5
330
18
100
AcDbEntity
  8
Object
100
AcDbLine
 10
6.745
 20
11.98471335838249
 30
0.0
 11
6.732
 21
11.98271335838249
 31
0.0
  0
LINE
  5
7E6
330
18
100
AcDbEntity
  8
Object
100
AcDbLine
 10
6.732
 20
11.98271335838249
 30
0.0
 11
6.714
 21
11.98271335838249
 31
0.0
  0
LINE
  5
7E7
330
18
100
AcDbEntity
  8
Object
100
AcDbLine
 10
6.69
 20
11.99871335838249
 30
0.0
 11
6.690999999999999
 21
11.99771335838249
 31
0.0
  0
LINE
  5
7E8
330
18
100
AcDbEntity
  8
Object
100
AcDbLine
 10
6.690999999999999
 20
11.98871335838249
 30
0.0
 11
6.69
 21
11.98771335838249
 31
0.0
  0
LINE
  5
7E9
330
18
100
AcDbEntity
  8
Object
100
AcDbLine
 10
6.685999999999999
 20
11.99871335838249
 30
0.0
 11
6.69
 21
11.99871335838249
 31
0.0
  0
LINE
  5
7EA
330
18
100
AcDbEntity
  8
Object
100
AcDbLine
 10
6.69
 20
11.98771335838249
 30
0.0
 11
6.685999999999999
 21
11.98771335838249
 31
0.0
  0
LINE
  5
7EB
330
18
100
AcDbEntity
  8
Object
100
AcDbLine
 10
6.681
 20
11.99971335838249
 30
0.0
 11
6.685999999999999
 21
11.99871335838249
 31
0.0
  0
LINE
  5
7EC
330
18
100
AcDbEntity
  8
Object
100
AcDbLine
 10
6.685999999999999
 20
11.98771335838249
 30
0.0
 11
6.681
 21
11.98771335838249
 31
0.0
  0
LINE
  5
7ED
330
18
100
AcDbEntity
  8
Object
100
AcDbLine
 10
6.661
 20
11.99971335838249
 30
0.0
 11
6.681
 21
11.99971335838249
 31
0.0
  0
LINE
  5
7EE
330
18
100
AcDbEntity
  8
Object
100
AcDbLine
 10
6.681
 20
11.98771335838249
 30
0.0
 11
6.661
 21
11.98771335838249
 31
0.0
  0
LINE
  5
7EF
330
18
100
AcDbEntity
  8
Object
100
AcDbLine
 10
6.600999999999999
 20
12.00371335838249
 30
0.0
 11
6.600999999999999
 21
11.98271335838249
 31
0.0
  0
LINE
  5
7F0
330
18
100
AcDbEntity
  8
Object
100
AcDbLine
 10
6.661
 20
11.98771335838249
 30
0.0
 11
6.661
 21
11.99971335838249
 31
0.0
  0
LINE
  5
7F1
330
18
100
AcDbEntity
  8
Object
100
AcDbLine
 10
7.017
 20
11.98271335838249
 30
0.0
 11
7.017
 21
12.00371335838249
 31
0.0
  0
LINE
  5
7F2
330
18
100
AcDbEntity
  8
Object
100
AcDbLine
 10
6.963
 20
11.98271335838249
 30
0.0
 11
6.963
 21
12.00371335838249
 31
0.0
  0
LINE
  5
7F3
330
18
100
AcDbEntity
  8
Object
100
AcDbLine
 10
6.963
 20
12.00371335838249
 30
0.0
 11
7.017
 21
12.00371335838249
 31
0.0
  0
LINE
  5
7F4
330
18
100
AcDbEntity
  8
Object
100
AcDbLine
 10
7.201
 20
11.99971335838249
 30
0.0
 11
7.201
 21
12.00371335838249
 31
0.0
  0
LINE
  5
7F5
330
18
100
AcDbEntity
  8
Object
100
AcDbLine
 10
7.155
 20
11.98271335838249
 30
0.0
 11
7.155
 21
11.99971335838249
 31
0.0
  0
LINE
  5
7F6
330
18
100
AcDbEntity
  8
Object
100
AcDbLine
 10
7.092999999999999
 20
11.99971335838249
 30
0.0
 11
7.092999999999999
 21
11.98271335838249
 31
0.0
  0
LINE
  5
7F7
330
18
100
AcDbEntity
  8
Object
100
AcDbLine
 10
7.052
 20
12.00371335838249
 30
0.0
 11
7.052
 21
11.99971335838249
 31
0.0
  0
LINE
  5
7F8
330
18
100
AcDbEntity
  8
Object
100
AcDbLine
 10
6.182999999999999
 20
12.00171335838249
 30
0.0
 11
6.177
 21
12.00171335838249
 31
0.0
  0
LINE
  5
7F9
330
18
100
AcDbEntity
  8
Object
100
AcDbLine
 10
6.189
 20
12.00371335838249
 30
0.0
 11
6.189
 21
11.99671335838249
 31
0.0
  0
LINE
  5
7FA
330
18
100
AcDbEntity
  8
Object
100
AcDbLine
 10
6.150999999999999
 20
11.99571335838249
 30
0.0
 11
6.150999999999999
 21
12.00571335838249
 31
0.0
  0
LINE
  5
7FB
330
18
100
AcDbEntity
  8
Object
100
AcDbLine
 10
6.150999999999999
 20
12.00171335838249
 30
0.0
 11
6.177
 21
12.00171335838249
 31
0.0
  0
LINE
  5
7FC
330
18
100
AcDbEntity
  8
Object
100
AcDbLine
 10
6.177
 20
12.00171335838249
 30
0.0
 11
6.177
 21
11.99571335838249
 31
0.0
  0
LINE
  5
7FD
330
18
100
AcDbEntity
  8
Object
100
AcDbLine
 10
6.661
 20
11.98771335838249
 30
0.0
 11
6.661
 21
11.99971335838249
 31
0.0
  0
LINE
  5
7FE
330
18
100
AcDbEntity
  8
Object
100
AcDbLine
 10
6.661
 20
11.99371335838249
 30
0.0
 11
6.681
 21
11.99371335838249
 31
0.0
  0
LINE
  5
7FF
330
18
100
AcDbEntity
  8
Object
100
AcDbLine
 10
6.681
 20
11.99371335838249
 30
0.0
 11
6.681
 21
11.98771335838249
 31
0.0
  0
LINE
  5
800
330
18
100
AcDbEntity
  8
Object
100
AcDbLine
 10
6.690999999999999
 20
11.99771335838249
 30
0.0
 11
6.690999999999999
 21
11.98871335838249
 31
0.0
  0
LINE
  5
801
330
18
100
AcDbEntity
  8
Object
100
AcDbLine
 10
6.69
 20
11.99371335838249
 30
0.0
 11
6.685999999999999
 21
11.99371335838249
 31
0.0
  0
LINE
  5
802
330
18
100
AcDbEntity
  8
Object
100
AcDbLine
 10
6.685999999999999
 20
11.99371335838249
 30
0.0
 11
6.681
 21
11.99371335838249
 31
0.0
  0
LINE
  5
803
330
18
100
AcDbEntity
  8
Object
100
AcDbLine
 10
6.189
 20
12.00271335838249
 30
0.0
 11
6.187999999999999
 21
12.00271335838249
 31
0.0
  0
LINE
  5
804
330
18
100
AcDbEntity
  8
Object
100
AcDbLine
 10
6.187999999999999
 20
12.00271335838249
 30
0.0
 11
6.182999999999999
 21
12.00171335838249
 31
0.0
  0
LINE
  5
805
330
18
100
AcDbEntity
  8
Object
100
AcDbLine
 10
6.69
 20
11.99371335838249
 30
0.0
 11
6.690999999999999
 21
11.99471335838249
 31
0.0
  0
LINE
  5
806
330
18
100
AcDbEntity
  8
Object
100
AcDbLine
 10
8.535999999999999
 20
11.98171335838249
 30
0.0
 11
4.676999999999999
 21
11.98171335838249
 31
0.0
  0
DIMENSION
  5
807
330
18
100
AcDbEntity
  8
Dimension
100
AcDbDimension
  2
*D0
 10
12.46066809265821
 20
11.98171335838249
 30
0.0
 11
12.4606680926582
 21
13.9817133583825
 31
0.0
 70
    32
 71
     5
 42
4.0
  3
STANDARD
100
AcDbAlignedDimension
 13
9.114
 23
15.98171335838249
 33
0.0
 14
11.285
 24
11.98171335838249
 34
0.0
 50
90.0
100
AcDbRotatedDimension
  0
DIMENSION
  5
815
330
18
100
AcDbEntity
  8
Dimension
100
AcDbDimension
  2
*D1
 10
14.22870017086825
 20
3.471267710199766
 30
0.0
 11
14.22870017086825
 21
6.451767710199768
 31
0.0
 70
    32
 71
     5
 42
5.960999999999999
  3
STANDARD
100
AcDbAlignedDimension
 13
15.358
 23
9.432267710199765
 33
0.0
 14
15.356
 24
3.471267710199765
 34
0.0
 50
90.0
100
AcDbRotatedDimension
  0
DIMENSION
  5
823
330
18
100
AcDbEntity
  8
Dimension
100
AcDbDimension
  2
*D2
 10
11.285
 20
10.35431311712768
 30
0.0
 11
6.6065
 21
10.35431311712768
 31
0.0
 70
    32
  1
9.36 [237.6mm]
 71
     5
 42
9.356999999999999
  3
STANDARD
100
AcDbAlignedDimension
 13
1.928
 23
9.433267710199766
 33
0.0
 14
11.285
 24
9.433267710199766
 34
0.0
100
AcDbRotatedDimension
  0
ENDSEC
  0
SECTION
  2
OBJECTS
  0
DICTIONARY
  5
C
330
0
100
AcDbDictionary
281
     1
  3
ACAD_COLOR
350
10D
  3
ACAD_GROUP
350
D
  3
ACAD_LAYOUT
350
110
  3
ACAD_MATERIAL
350
10C
  3
ACAD_MLINESTYLE
350
1B
  3
ACAD_PLOTSETTINGS
350
111
  3
ACAD_PLOTSTYLENAME
350
10A
  3
ACAD_TABLESTYLE
350
10E
  3
ACDBHEADERROUNDTRIPXREC
350
876
  3
AcDbVariableDictionary
350
13E
  3
ASE_INDEX_DICTIONARY
350
148
  0
DICTIONARY
  5
154
330
2
100
AcDbDictionary
280
     1
281
     1
  3
ACAD_LAYERFILTERS
360
158
  3
ACLYDICTIONARY
360
157
  0
DICTIONARY
  5
10D
102
{ACAD_REACTORS
330
C
102
}
330
C
100
AcDbDictionary
281
     1
  0
DICTIONARY
  5
D
102
{ACAD_REACTORS
330
C
102
}
330
C
100
AcDbDictionary
281
     1
  0
DICTIONARY
  5
110
102
{ACAD_REACTORS
330
C
102
}
330
C
100
AcDbDictionary
281
     1
  3
Layout1
350
113
  3
Model
350
112
  0
DICTIONARY
  5
10C
102
{ACAD_REACTORS
330
C
102
}
330
C
100
AcDbDictionary
281
     1
  0
DICTIONARY
  5
1B
102
{ACAD_REACTORS
330
C
102
}
330
C
100
AcDbDictionary
281
     1
  3
STANDARD
350
1C
  0
DICTIONARY
  5
111
102
{ACAD_REACTORS
330
C
102
}
330
C
100
AcDbDictionary
281
     1
  0
ACDBDICTIONARYWDFLT
  5
10A
102
{ACAD_REACTORS
330
C
102
}
330
C
100
AcDbDictionary
281
     1
  3
Normal
350
10B
100
AcDbDictionaryWithDefault
340
10B
  0
DICTIONARY
  5
10E
102
{ACAD_REACTORS
330
C
102
}
330
C
100
AcDbDictionary
281
     1
  3
Standard
350
10F
  0
DICTIONARY
  5
876
102
{ACAD_REACTORS
330
C
102
}
330
C
100
AcDbDictionary
281
     1
  0
DICTIONARY
  5
13E
102
{ACAD_REACTORS
330
C
102
}
330
C
100
AcDbDictionary
281
     1
  3
CTABLESTYLE
350
13F
  3
DIMASSOC
350
873
  3
PROJECTNAME
350
874
  0
DICTIONARY
  5
148
102
{ACAD_REACTORS
330
C
102
}
330
C
100
AcDbDictionary
281
     1
  3
ASEBlockHierarchyIndexRecord
350
14A
1001
DCO15
1040
1529148047.148
  0
DICTIONARY
  5
158
102
{ACAD_REACTORS
330
154
102
}
330
154
100
AcDbDictionary
281
     1
  0
DICTIONARY
  5
157
102
{ACAD_REACTORS
330
154
102
}
330
154
100
AcDbDictionary
281
     1
1001
ACAD
1000
<All
  0
LAYOUT
  5
113
102
{ACAD_XDICTIONARY
360
879
102
}
102
{ACAD_REACTORS
330
110
102
}
330
110
100
AcDbPlotSettings
  1

  2
\\RSENG\RSplotter4NT
  4

  6

 40
0.0
 41
0.0
 42
0.0
 43
0.0
 44
0.0
 45
0.0
 46
0.0
 47
0.0
 48
0.0
 49
0.0
140
0.0
141
0.0
142
1.0
143
1.0
 70
   688
 72
     0
 73
     0
 74
     5
  7
Symantec Fax Starter Edition
 75
    16
147
1.0
148
0.0
149
0.0
100
AcDbLayout
  1
Layout1
 70
     1
 71
     1
 10
0.0
 20
0.0
 11
12.0
 21
9.0
 12
0.0
 22
0.0
 32
0.0
 14
1.000000000000000E+20
 24
1.000000000000000E+20
 34
1.000000000000000E+20
 15
-1.000000000000000E+20
 25
-1.000000000000000E+20
 35
-1.000000000000000E+20
146
0.0
 13
0.0
 23
0.0
 33
0.0
 16
1.0
 26
0.0
 36
0.0
 17
0.0
 27
1.0
 37
0.0
 76
     0
330
15
  0
LAYOUT
  5
112
102
{ACAD_XDICTIONARY
360
877
102
}
102
{ACAD_REACTORS
330
110
102
}
330
110
100
AcDbPlotSettings
  1

  2
\\RSENG\RSplotter4NT
  4

  6

 40
0.0
 41
0.0
 42
0.0
 43
0.0
 44
0.0
 45
0.0
 46
0.0
 47
0.0
 48
0.0
 49
0.0
140
0.0
141
0.0
142
1.0
143
1.0
 70
  1712
 72
     0
 73
     0
 74
     0
  7
Symantec Fax Starter Edition
 75
     0
147
1.0
148
0.0
149
0.0
100
AcDbLayout
  1
Model
 70
     1
 71
     0
 10
0.0
 20
0.0
 11
12.0
 21
9.0
 12
0.0
 22
0.0
 32
0.0
 14
0.0
 24
0.0
 34
0.0
 15
0.0
 25
0.0
 35
0.0
146
0.0
 13
0.0
 23
0.0
 33
0.0
 16
1.0
 26
0.0
 36
0.0
 17
0.0
 27
1.0
 37
0.0
 76
     0
330
18
  0
MLINESTYLE
  5
1C
102
{ACAD_REACTORS
330
1B
102
}
330
1B
100
AcDbMlineStyle
  2
STANDARD
 70
     0
  3

 62
   256
 51
90.0
 52
90.0
 71
     2
 49
0.5
 62
   256
  6
BYLAYER
 49
-0.5
 62
   256
  6
BYLAYER
  0
ACDBPLACEHOLDER
  5
10B
102
{ACAD_REACTORS
330
10A
102
}
330
10A
  0
TABLESTYLE
  5
10F
102
{ACAD_REACTORS
330
10E
102
}
330
10E
100
AcDbTableStyle
  3
Standard
 70
     0
 71
     0
 40
0.06
 41
0.06
280
     0
281
     0
  7
STANDARD
140
0.18
170
     2
 62
     0
 63
     7
283
     0
274
    -2
284
     1
 64
     0
275
    -2
285
     1
 65
     0
276
    -2
286
     1
 66
     0
277
    -2
287
     1
 67
     0
278
    -2
288
     1
 68
     0
279
    -2
289
     1
 69
     0
  7
STANDARD
140
0.25
170
     5
 62
     0
 63
     7
283
     0
274
    -2
284
     1
 64
     0
275
    -2
285
     1
 65
     0
276
    -2
286
     1
 66
     0
277
    -2
287
     1
 67
     0
278
    -2
288
     1
 68
     0
279
    -2
289
     1
 69
     0
  7
STANDARD
140
0.18
170
     5
 62
     0
 63
     7
283
     0
274
    -2
284
     1
 64
     0
275
    -2
285
     1
 65
     0
276
    -2
286
     1
 66
     0
277
    -2
287
     1
 67
     0
278
    -2
288
     1
 68
     0
279
    -2
289
     1
 69
     0
  0
DICTIONARYVAR
  5
13F
102
{ACAD_REACTORS
330
13E
102
}
330
13E
100
DictionaryVariables
280
     0
  1
STANDARD
  0
DICTIONARYVAR
  5
873
102
{ACAD_REACTORS
330
13E
102
}
330
13E
100
DictionaryVariables
280
     0
  1
1
  0
DICTIONARYVAR
  5
874
102
{ACAD_REACTORS
330
13E
102
}
330
13E
100
DictionaryVariables
280
     0
  1

  0
XRECORD
  5
14A
102
{ACAD_REACTORS
330
148
102
}
330
148
100
AcDbXrecord
280
     1
  0
DICTIONARY
  5
879
330
113
100
AcDbDictionary
280
     1
281
     1
  3
ACAD_XREC_ROUNDTRIP
360
87A
  0
DICTIONARY
  5
877
330
112
100
AcDbDictionary
280
     1
281
     1
  3
ACAD_XREC_ROUNDTRIP
360
878
  0
XRECORD
  5
87A
102
{ACAD_REACTORS
330
879
102
}
330
879
100
AcDbXrecord
280
     1
102
SHADEPLOT
 70
     0
102
SHADEPLOTRESLEVEL
 70
     2
102
SHADEPLOTCUSTOMDPI
 70
   300
  0
XRECORD
  5
878
102
{ACAD_REACTORS
330
877
102
}
330
877
100
AcDbXrecord
280
     1
102
SHADEPLOT
 70
     0
102
SHADEPLOTRESLEVEL
 70
     2
102
SHADEPLOTCUSTOMDPI
 70
   300
  0
ENDSEC
  0
EOF
