  0
SECTION
  2
HEADER
  9
$ACADVER
  1
AC1015
  9
$ACADMAINTVER
 70
    20
  9
$DWGCODEPAGE
  3
ANSI_1252
  9
$INSBASE
 10
0.0
 20
0.0
 30
0.0
  9
$EXTMIN
 10
-0.075
 20
-0.075
 30
0.0
  9
$EXTMAX
 10
22.075
 20
17.075
 30
0.0
  9
$LIMMIN
 10
0.0
 20
0.0
  9
$LIMMAX
 10
12.0
 20
9.0
  9
$ORTHOMODE
 70
     0
  9
$REGENMODE
 70
     1
  9
$FILLMODE
 70
     1
  9
$QTEXTMODE
 70
     0
  9
$MIRRTEXT
 70
     0
  9
$LTSCALE
 40
1.0
  9
$ATTMODE
 70
     1
  9
$TEXTSIZE
 40
0.09
  9
$TRACEWID
 40
0.05
  9
$TEXTSTYLE
  7
Standard
  9
$CLAYER
  8
0
  9
$CELTYPE
  6
ByLayer
  9
$CECOLOR
 62
   256
  9
$CELTSCALE
 40
1.0
  9
$DISPSILH
 70
     0
  9
$DIMSCALE
 40
1.0
  9
$DIMASZ
 40
0.1875
  9
$DIMEXO
 40
0.0625
  9
$DIMDLI
 40
0.38
  9
$DIMRND
 40
0.0
  9
$DIMDLE
 40
0.0
  9
$DIMEXE
 40
0.125
  9
$DIMTP
 40
0.0
  9
$DIMTM
 40
0.0
  9
$DIMTXT
 40
0.125
  9
$DIMCEN
 40
0.09
  9
$DIMTSZ
 40
0.0
  9
$DIMTOL
 70
     0
  9
$DIMLIM
 70
     0
  9
$DIMTIH
 70
     1
  9
$DIMTOH
 70
     1
  9
$DIMSE1
 70
     0
  9
$DIMSE2
 70
     0
  9
$DIMTAD
 70
     0
  9
$DIMZIN
 70
     0
  9
$DIMBLK
  1

  9
$DIMASO
 70
     1
  9
$DIMSHO
 70
     1
  9
$DIMPOST
  1

  9
$DIMAPOST
  1
mm
  9
$DIMALT
 70
     1
  9
$DIMALTD
 70
     1
  9
$DIMALTF
 40
25.4
  9
$DIMLFAC
 40
1.0
  9
$DIMTOFL
 70
     0
  9
$DIMTVP
 40
0.0
  9
$DIMTIX
 70
     0
  9
$DIMSOXD
 70
     0
  9
$DIMSAH
 70
     0
  9
$DIMBLK1
  1

  9
$DIMBLK2
  1

  9
$DIMSTYLE
  2
Standard
  9
$DIMCLRD
 70
     0
  9
$DIMCLRE
 70
     0
  9
$DIMCLRT
 70
     0
  9
$DIMTFAC
 40
1.0
  9
$DIMGAP
 40
0.09
  9
$DIMJUST
 70
     0
  9
$DIMSD1
 70
     0
  9
$DIMSD2
 70
     0
  9
$DIMTOLJ
 70
     1
  9
$DIMTZIN
 70
     0
  9
$DIMALTZ
 70
     0
  9
$DIMALTTZ
 70
     0
  9
$DIMUPT
 70
     0
  9
$DIMDEC
 70
     2
  9
$DIMTDEC
 70
     2
  9
$DIMALTU
 70
     2
  9
$DIMALTTD
 70
     1
  9
$DIMTXSTY
  7
Standard
  9
$DIMAUNIT
 70
     0
  9
$DIMADEC
 70
     0
  9
$DIMALTRND
 40
0.0
  9
$DIMAZIN
 70
     0
  9
$DIMDSEP
 70
    46
  9
$DIMATFIT
 70
     3
  9
$DIMFRAC
 70
     0
  9
$DIMLDRBLK
  1

  9
$DIMLUNIT
 70
     2
  9
$DIMLWD
 70
    -2
  9
$DIMLWE
 70
    -2
  9
$DIMTMOVE
 70
     0
  9
$LUNITS
 70
     2
  9
$LUPREC
 70
     4
  9
$SKETCHINC
 40
0.1
  9
$FILLETRAD
 40
0.0
  9
$AUNITS
 70
     0
  9
$AUPREC
 70
     0
  9
$MENU
  1
.
  9
$ELEVATION
 40
0.0
  9
$PELEVATION
 40
0.0
  9
$THICKNESS
 40
0.0
  9
$LIMCHECK
 70
     0
  9
$CHAMFERA
 40
0.0
  9
$CHAMFERB
 40
0.0
  9
$CHAMFERC
 40
0.0
  9
$CHAMFERD
 40
0.0
  9
$SKPOLY
 70
     0
  9
$TDCREATE
 40
2453601.468979849
  9
$TDUCREATE
 40
2453601.677313183
  9
$TDUPDATE
 40
2454294.606332407
  9
$TDUUPDATE
 40
2454294.814665741
  9
$TDINDWG
 40
0.0255628356
  9
$TDUSRTIMER
 40
0.0255628356
  9
$USRTIMER
 70
     1
  9
$ANGBASE
 50
0.0
  9
$ANGDIR
 70
     0
  9
$PDMODE
 70
     2
  9
$PDSIZE
 40
0.075
  9
$PLINEWID
 40
0.0
  9
$SPLFRAME
 70
     0
  9
$SPLINETYPE
 70
     6
  9
$SPLINESEGS
 70
     8
  9
$HANDSEED
  5
951
  9
$SURFTAB1
 70
     6
  9
$SURFTAB2
 70
     6
  9
$SURFTYPE
 70
     6
  9
$SURFU
 70
     6
  9
$SURFV
 70
     6
  9
$UCSBASE
  2

  9
$UCSNAME
  2

  9
$UCSORG
 10
0.0
 20
0.0
 30
0.0
  9
$UCSXDIR
 10
1.0
 20
0.0
 30
0.0
  9
$UCSYDIR
 10
0.0
 20
1.0
 30
0.0
  9
$UCSORTHOREF
  2

  9
$UCSORTHOVIEW
 70
     0
  9
$UCSORGTOP
 10
0.0
 20
0.0
 30
0.0
  9
$UCSORGBOTTOM
 10
0.0
 20
0.0
 30
0.0
  9
$UCSORGLEFT
 10
0.0
 20
0.0
 30
0.0
  9
$UCSORGRIGHT
 10
0.0
 20
0.0
 30
0.0
  9
$UCSORGFRONT
 10
0.0
 20
0.0
 30
0.0
  9
$UCSORGBACK
 10
0.0
 20
0.0
 30
0.0
  9
$PUCSBASE
  2

  9
$PUCSNAME
  2

  9
$PUCSORG
 10
0.0
 20
0.0
 30
0.0
  9
$PUCSXDIR
 10
1.0
 20
0.0
 30
0.0
  9
$PUCSYDIR
 10
0.0
 20
1.0
 30
0.0
  9
$PUCSORTHOREF
  2

  9
$PUCSORTHOVIEW
 70
     0
  9
$PUCSORGTOP
 10
0.0
 20
0.0
 30
0.0
  9
$PUCSORGBOTTOM
 10
0.0
 20
0.0
 30
0.0
  9
$PUCSORGLEFT
 10
0.0
 20
0.0
 30
0.0
  9
$PUCSORGRIGHT
 10
0.0
 20
0.0
 30
0.0
  9
$PUCSORGFRONT
 10
0.0
 20
0.0
 30
0.0
  9
$PUCSORGBACK
 10
0.0
 20
0.0
 30
0.0
  9
$USERI1
 70
     0
  9
$USERI2
 70
     0
  9
$USERI3
 70
     0
  9
$USERI4
 70
     0
  9
$USERI5
 70
     0
  9
$USERR1
 40
0.0
  9
$USERR2
 40
0.0
  9
$USERR3
 40
0.0
  9
$USERR4
 40
0.0
  9
$USERR5
 40
0.0
  9
$WORLDVIEW
 70
     1
  9
$SHADEDGE
 70
     3
  9
$SHADEDIF
 70
    70
  9
$TILEMODE
 70
     1
  9
$MAXACTVP
 70
    64
  9
$PINSBASE
 10
0.0
 20
0.0
 30
0.0
  9
$PLIMCHECK
 70
     0
  9
$PEXTMIN
 10
0.0
 20
0.0
 30
0.0
  9
$PEXTMAX
 10
0.0
 20
0.0
 30
0.0
  9
$PLIMMIN
 10
0.0
 20
0.0
  9
$PLIMMAX
 10
12.0
 20
9.0
  9
$UNITMODE
 70
     0
  9
$VISRETAIN
 70
     1
  9
$PLINEGEN
 70
     0
  9
$PSLTSCALE
 70
     1
  9
$TREEDEPTH
 70
  3020
  9
$CMLSTYLE
  2
Standard
  9
$CMLJUST
 70
     0
  9
$CMLSCALE
 40
1.0
  9
$PROXYGRAPHICS
 70
     1
  9
$MEASUREMENT
 70
     0
  9
$CELWEIGHT
370
    -1
  9
$ENDCAPS
280
     0
  9
$JOINSTYLE
280
     0
  9
$LWDISPLAY
290
     0
  9
$INSUNITS
 70
     1
  9
$HYPERLINKBASE
  1

  9
$STYLESHEET
  1

  9
$XEDIT
290
     1
  9
$CEPSNTYPE
380
     0
  9
$PSTYLEMODE
290
     1
  9
$FINGERPRINTGUID
  2
{ED1F7BD4-0B64-4264-83EB-56DCCD55A6BE}
  9
$VERSIONGUID
  2
{DFDE2626-E762-409B-A957-1CDE2A04A8AC}
  9
$EXTNAMES
290
     1
  9
$PSVPSCALE
 40
0.0
  9
$OLESTARTUP
290
     0
  0
ENDSEC
  0
SECTION
  2
CLASSES
  0
CLASS
  1
ACDBDICTIONARYWDFLT
  2
AcDbDictionaryWithDefault
  3
ObjectDBX Classes
 90
        0
280
     0
281
     0
  0
CLASS
  1
ACDBPLACEHOLDER
  2
AcDbPlaceHolder
  3
ObjectDBX Classes
 90
        0
280
     0
281
     0
  0
CLASS
  1
LAYOUT
  2
AcDbLayout
  3
ObjectDBX Classes
 90
        0
280
     0
281
     0
  0
CLASS
  1
DICTIONARYVAR
  2
AcDbDictionaryVar
  3
ObjectDBX Classes
 90
        0
280
     0
281
     0
  0
CLASS
  1
TABLESTYLE
  2
AcDbTableStyle
  3
ObjectDBX Classes
 90
     2047
280
     0
281
     0
  0
CLASS
  1
DIMASSOC
  2
AcDbDimAssoc
  3
"AcDbDimAssoc|Product Desc:     AcDim ARX App For Dimension|Company:          Autodesk, Inc.|WEB Address:      www.autodesk.com"
 90
        0
280
     0
281
     0
  0
CLASS
  1
SORTENTSTABLE
  2
AcDbSortentsTable
  3
ObjectDBX Classes
 90
        0
280
     0
281
     0
  0
ENDSEC
  0
SECTION
  2
TABLES
  0
TABLE
  2
VPORT
  5
8
330
0
100
AcDbSymbolTable
 70
     2
  0
VPORT
  5
949
330
8
100
AcDbSymbolTableRecord
100
AcDbViewportTableRecord
  2
*Active
 70
     0
 10
0.0
 20
0.0
 11
1.0
 21
1.0
 12
11.0000002595178
 22
9.103893616920824
 13
0.0
 23
0.0
 14
0.5
 24
0.5
 15
0.5
 25
0.5
 16
0.0
 26
0.0
 36
1.0
 17
0.0
 27
0.0
 37
0.0
 40
18.46881287904333
 41
1.499364675984752
 42
50.0
 43
0.0
 44
0.0
 50
0.0
 51
0.0
 71
     0
 72
  1000
 73
     1
 74
     3
 75
     0
 76
     0
 77
     0
 78
     0
281
     0
 65
     1
110
0.0
120
0.0
130
0.0
111
1.0
121
0.0
131
0.0
112
0.0
122
1.0
132
0.0
 79
     0
146
0.0
  0
ENDTAB
  0
TABLE
  2
LTYPE
  5
5
330
0
100
AcDbSymbolTable
 70
     1
  0
LTYPE
  5
14
330
5
100
AcDbSymbolTableRecord
100
AcDbLinetypeTableRecord
  2
ByBlock
 70
     0
  3

 72
    65
 73
     0
 40
0.0
  0
LTYPE
  5
15
330
5
100
AcDbSymbolTableRecord
100
AcDbLinetypeTableRecord
  2
ByLayer
 70
     0
  3

 72
    65
 73
     0
 40
0.0
  0
LTYPE
  5
16
330
5
100
AcDbSymbolTableRecord
100
AcDbLinetypeTableRecord
  2
Continuous
 70
     0
  3
Solid line
 72
    65
 73
     0
 40
0.0
  0
ENDTAB
  0
TABLE
  2
LAYER
  5
2
330
0
100
AcDbSymbolTable
 70
     6
  0
LAYER
  5
10
330
2
100
AcDbSymbolTableRecord
100
AcDbLayerTableRecord
  2
0
 70
     0
 62
     7
  6
Continuous
370
    -3
390
F
  0
LAYER
  5
8B
330
2
100
AcDbSymbolTableRecord
100
AcDbLayerTableRecord
  2
Title Block
 70
     0
 62
     3
  6
Continuous
370
    -3
390
F
  0
LAYER
  5
8C
330
2
100
AcDbSymbolTableRecord
100
AcDbLayerTableRecord
  2
Dimension
 70
     0
 62
     6
  6
Continuous
370
    -3
390
F
  0
LAYER
  5
8D
330
2
100
AcDbSymbolTableRecord
100
AcDbLayerTableRecord
  2
Text
 70
     0
 62
     1
  6
Continuous
370
    -3
390
F
  0
LAYER
  5
8E
330
2
100
AcDbSymbolTableRecord
100
AcDbLayerTableRecord
  2
Object
 70
     0
 62
     5
  6
Continuous
370
    -3
390
F
  0
LAYER
  5
82E
330
2
100
AcDbSymbolTableRecord
100
AcDbLayerTableRecord
  2
Defpoints
 70
     0
 62
     7
  6
Continuous
290
     0
370
    -3
390
F
  0
ENDTAB
  0
TABLE
  2
STYLE
  5
3
330
0
100
AcDbSymbolTable
 70
     1
  0
STYLE
  5
11
330
3
100
AcDbSymbolTableRecord
100
AcDbTextStyleTableRecord
  2
Standard
 70
     0
 40
0.0
 41
1.0
 50
0.0
 71
     0
 42
0.09
  3
technic_.ttf
  4

1001
ACAD
1000
Technic
1071
      514
  0
ENDTAB
  0
TABLE
  2
VIEW
  5
6
330
0
100
AcDbSymbolTable
 70
     0
  0
ENDTAB
  0
TABLE
  2
UCS
  5
7
330
0
100
AcDbSymbolTable
 70
     0
  0
ENDTAB
  0
TABLE
  2
APPID
  5
9
330
0
100
AcDbSymbolTable
 70
     4
  0
APPID
  5
12
330
9
100
AcDbSymbolTableRecord
100
AcDbRegAppTableRecord
  2
ACAD
 70
     0
  0
APPID
  5
90
330
9
100
AcDbSymbolTableRecord
100
AcDbRegAppTableRecord
  2
DCO15
 70
     0
  0
APPID
  5
91
330
9
100
AcDbSymbolTableRecord
100
AcDbRegAppTableRecord
  2
AcAecLayerStandard
 70
     0
  0
APPID
  5
E2
330
9
100
AcDbSymbolTableRecord
100
AcDbRegAppTableRecord
  2
ACAD_DSTYLE_DIMTEXT_FILL
 70
     0
  0
ENDTAB
  0
TABLE
  2
DIMSTYLE
  5
A
330
0
100
AcDbSymbolTable
 70
     1
100
AcDbDimStyleTable
 71
     1
340
27
  0
DIMSTYLE
105
27
102
{ACAD_REACTORS
330
82D
330
850
330
86D
102
}
330
A
100
AcDbSymbolTableRecord
100
AcDbDimStyleTableRecord
  2
Standard
 70
     0
  4
mm
 41
0.1875
 44
0.125
140
0.125
170
     1
171
     1
271
     2
272
     2
274
     1
340
11
  0
ENDTAB
  0
TABLE
  2
BLOCK_RECORD
  5
1
330
0
100
AcDbSymbolTable
 70
     4
  0
BLOCK_RECORD
  5
1F
102
{ACAD_XDICTIONARY
360
8D6
102
}
330
1
100
AcDbSymbolTableRecord
100
AcDbBlockTableRecord
  2
*Model_Space
340
22
  0
BLOCK_RECORD
  5
58
330
1
100
AcDbSymbolTableRecord
100
AcDbBlockTableRecord
  2
*Paper_Space
340
59
  0
BLOCK_RECORD
  5
5D
330
1
100
AcDbSymbolTableRecord
100
AcDbBlockTableRecord
  2
*Paper_Space0
340
5E
  0
BLOCK_RECORD
  5
82F
330
1
100
AcDbSymbolTableRecord
100
AcDbBlockTableRecord
  2
*D1
340
0
  0
BLOCK_RECORD
  5
851
330
1
100
AcDbSymbolTableRecord
100
AcDbBlockTableRecord
  2
*D2
340
0
  0
BLOCK_RECORD
  5
86E
330
1
100
AcDbSymbolTableRecord
100
AcDbBlockTableRecord
  2
*D3
340
0
  0
ENDTAB
  0
ENDSEC
  0
SECTION
  2
BLOCKS
  0
BLOCK
  5
20
330
1F
100
AcDbEntity
  8
0
100
AcDbBlockBegin
  2
*Model_Space
 70
     0
 10
0.0
 20
0.0
 30
0.0
  3
*Model_Space
  1

  0
ENDBLK
  5
21
330
1F
100
AcDbEntity
  8
0
100
AcDbBlockEnd
  0
BLOCK
  5
5A
330
58
100
AcDbEntity
 67
     1
  8
0
100
AcDbBlockBegin
  2
*Paper_Space
 70
     0
 10
0.0
 20
0.0
 30
0.0
  3
*Paper_Space
  1

  0
ENDBLK
  5
5B
330
58
100
AcDbEntity
 67
     1
  8
0
100
AcDbBlockEnd
  0
BLOCK
  5
5F
330
5D
100
AcDbEntity
  8
0
100
AcDbBlockBegin
  2
*Paper_Space0
 70
     0
 10
0.0
 20
0.0
 30
0.0
  3
*Paper_Space0
  1

  0
ENDBLK
  5
60
330
5D
100
AcDbEntity
  8
0
100
AcDbBlockEnd
  0
BLOCK
  5
83A
330
82F
100
AcDbEntity
  8
0
100
AcDbBlockBegin
  2
*D1
 70
     1
 10
0.0
 20
0.0
 30
0.0
  3
*D1
  1

  0
LINE
  5
8F2
330
82F
100
AcDbEntity
  8
Dimension
 62
     0
370
    -2
100
AcDbLine
 10
9.651838821928926
 20
15.68995079278665
 30
0.0
 11
12.18068138988793
 21
15.68995079278665
 31
0.0
  0
LINE
  5
8F3
330
82F
100
AcDbEntity
  8
Dimension
 62
     0
370
    -2
100
AcDbLine
 10
10.76683882192893
 20
10.56095079278665
 30
0.0
 11
12.18068138988793
 21
10.56095079278665
 31
0.0
  0
LINE
  5
8F4
330
82F
100
AcDbEntity
  8
Dimension
 62
     0
370
    -2
100
AcDbLine
 10
12.05568138988793
 20
15.50245079278665
 30
0.0
 11
12.05568138988793
 21
13.27847710857612
 31
0.0
  0
LINE
  5
8F5
330
82F
100
AcDbEntity
  8
Dimension
 62
     0
370
    -2
100
AcDbLine
 10
12.05568138988793
 20
10.74845079278665
 30
0.0
 11
12.05568138988793
 21
12.97242447699718
 31
0.0
  0
SOLID
  5
8F6
330
82F
100
AcDbEntity
  8
Dimension
 62
     0
100
AcDbTrace
 10
12.02443138988793
 20
15.50245079278665
 30
0.0
 11
12.08693138988793
 21
15.50245079278665
 31
0.0
 12
12.05568138988793
 22
15.68995079278665
 32
0.0
 13
12.05568138988793
 23
15.68995079278665
 33
0.0
  0
SOLID
  5
8F7
330
82F
100
AcDbEntity
  8
Dimension
 62
     0
100
AcDbTrace
 10
12.02443138988793
 20
10.74845079278665
 30
0.0
 11
12.08693138988793
 21
10.74845079278665
 31
0.0
 12
12.05568138988793
 22
10.56095079278665
 32
0.0
 13
12.05568138988793
 23
10.56095079278665
 33
0.0
  0
MTEXT
  5
8F8
330
82F
100
AcDbEntity
  8
Dimension
 62
     0
100
AcDbMText
 10
12.05568138988793
 20
13.12545079278665
 30
0.0
 40
0.09
 41
0.0
 71
     5
 72
     1
  1
\A1;5.13 [130.3mm]
 73
     1
 44
1.0
1001
ACAD
1000
MTEXTBEGIN
1070
    73
1070
     1
1070
    44
1040
1.0
1070
    74
1070
     0
1000
MTEXTEND
  0
POINT
  5
8F9
330
82F
100
AcDbEntity
  8
Defpoints
 62
     0
100
AcDbPoint
 10
9.589338821928926
 20
15.68995079278665
 30
0.0
  0
POINT
  5
8FA
330
82F
100
AcDbEntity
  8
Defpoints
 62
     0
100
AcDbPoint
 10
10.70433882192892
 20
10.56095079278665
 30
0.0
  0
POINT
  5
8FB
330
82F
100
AcDbEntity
  8
Defpoints
 62
     0
100
AcDbPoint
 10
12.05568138988793
 20
10.56095079278665
 30
0.0
  0
ENDBLK
  5
83B
330
82F
100
AcDbEntity
  8
0
100
AcDbBlockEnd
  0
BLOCK
  5
85C
330
851
100
AcDbEntity
  8
0
100
AcDbBlockBegin
  2
*D2
 70
     1
 10
0.0
 20
0.0
 30
0.0
  3
*D2
  1

  0
LINE
  5
920
330
851
100
AcDbEntity
  8
Dimension
 62
     0
370
    -2
100
AcDbLine
 10
2.087338821928923
 20
7.855450792786653
 30
0.0
 11
2.087338821928923
 21
8.870066547273239
 31
0.0
  0
LINE
  5
921
330
851
100
AcDbEntity
  8
Dimension
 62
     0
370
    -2
100
AcDbLine
 10
10.72233882192892
 20
7.855450792786653
 30
0.0
 11
10.72233882192892
 21
8.870066547273239
 31
0.0
  0
LINE
  5
922
330
851
100
AcDbEntity
  8
Dimension
 62
     0
370
    -2
100
AcDbLine
 10
2.274838821928923
 20
8.745066547273239
 30
0.0
 11
5.881417769297345
 21
8.745066547273239
 31
0.0
  0
LINE
  5
923
330
851
100
AcDbEntity
  8
Dimension
 62
     0
370
    -2
100
AcDbLine
 10
10.53483882192892
 20
8.745066547273239
 30
0.0
 11
6.928259874560503
 21
8.745066547273239
 31
0.0
  0
SOLID
  5
924
330
851
100
AcDbEntity
  8
Dimension
 62
     0
100
AcDbTrace
 10
2.274838821928923
 20
8.776316547273239
 30
0.0
 11
2.274838821928923
 21
8.713816547273239
 31
0.0
 12
2.087338821928923
 22
8.745066547273239
 32
0.0
 13
2.087338821928923
 23
8.745066547273239
 33
0.0
  0
SOLID
  5
925
330
851
100
AcDbEntity
  8
Dimension
 62
     0
100
AcDbTrace
 10
10.53483882192892
 20
8.776316547273239
 30
0.0
 11
10.53483882192892
 21
8.713816547273239
 31
0.0
 12
10.72233882192892
 22
8.745066547273239
 32
0.0
 13
10.72233882192892
 23
8.745066547273239
 33
0.0
  0
MTEXT
  5
926
330
851
100
AcDbEntity
  8
Dimension
 62
     0
100
AcDbMText
 10
6.404838821928924
 20
8.745066547273239
 30
0.0
 40
0.09
 41
0.0
 71
     5
 72
     1
  1
\A1;8.63 [219.3mm]
 73
     1
 44
1.0
1001
ACAD
1000
MTEXTBEGIN
1070
    73
1070
     1
1070
    44
1040
1.0
1070
    74
1070
     0
1000
MTEXTEND
  0
POINT
  5
927
330
851
100
AcDbEntity
  8
Defpoints
 62
     0
100
AcDbPoint
 10
2.087338821928923
 20
7.792950792786653
 30
0.0
  0
POINT
  5
928
330
851
100
AcDbEntity
  8
Defpoints
 62
     0
100
AcDbPoint
 10
10.72233882192892
 20
7.792950792786653
 30
0.0
  0
POINT
  5
929
330
851
100
AcDbEntity
  8
Defpoints
 62
     0
100
AcDbPoint
 10
10.72233882192892
 20
8.745066547273239
 30
0.0
  0
ENDBLK
  5
85D
330
851
100
AcDbEntity
  8
0
100
AcDbBlockEnd
  0
BLOCK
  5
879
330
86E
100
AcDbEntity
  8
0
100
AcDbBlockBegin
  2
*D3
 70
     1
 10
0.0
 20
0.0
 30
0.0
  3
*D3
  1

  0
LINE
  5
916
330
86E
100
AcDbEntity
  8
Dimension
 62
     0
370
    -2
100
AcDbLine
 10
18.33683882192892
 20
4.376950792786653
 30
0.0
 11
12.99846807275417
 21
4.376950792786654
 31
0.0
  0
LINE
  5
917
330
86E
100
AcDbEntity
  8
Dimension
 62
     0
370
    -2
100
AcDbLine
 10
17.67083882192892
 20
7.874950792786653
 30
0.0
 11
12.99846807275417
 21
7.874950792786654
 31
0.0
  0
LINE
  5
918
330
86E
100
AcDbEntity
  8
Dimension
 62
     0
370
    -2
100
AcDbLine
 10
13.12346807275417
 20
4.564450792786654
 30
0.0
 11
13.12346807275417
 21
5.972924476997181
 31
0.0
  0
LINE
  5
919
330
86E
100
AcDbEntity
  8
Dimension
 62
     0
370
    -2
100
AcDbLine
 10
13.12346807275417
 20
7.687450792786654
 30
0.0
 11
13.12346807275417
 21
6.278977108576127
 31
0.0
  0
SOLID
  5
91A
330
86E
100
AcDbEntity
  8
Dimension
 62
     0
100
AcDbTrace
 10
13.09221807275417
 20
4.564450792786654
 30
0.0
 11
13.15471807275417
 21
4.564450792786654
 31
0.0
 12
13.12346807275417
 22
4.376950792786654
 32
0.0
 13
13.12346807275417
 23
4.376950792786654
 33
0.0
  0
SOLID
  5
91B
330
86E
100
AcDbEntity
  8
Dimension
 62
     0
100
AcDbTrace
 10
13.09221807275417
 20
7.687450792786654
 30
0.0
 11
13.15471807275417
 21
7.687450792786654
 31
0.0
 12
13.12346807275417
 22
7.874950792786654
 32
0.0
 13
13.12346807275417
 23
7.874950792786654
 33
0.0
  0
MTEXT
  5
91C
330
86E
100
AcDbEntity
  8
Dimension
 62
     0
100
AcDbMText
 10
13.12346807275417
 20
6.125950792786656
 30
0.0
 40
0.09
 41
0.0
 71
     5
 72
     1
  1
\A1;3.50 [88.8mm]
 73
     1
 44
1.0
1001
ACAD
1000
MTEXTBEGIN
1070
    73
1070
     1
1070
    44
1040
1.0
1070
    74
1070
     0
1000
MTEXTEND
  0
POINT
  5
91D
330
86E
100
AcDbEntity
  8
Defpoints
 62
     0
100
AcDbPoint
 10
18.39933882192892
 20
4.376950792786653
 30
0.0
  0
POINT
  5
91E
330
86E
100
AcDbEntity
  8
Defpoints
 62
     0
100
AcDbPoint
 10
17.73333882192892
 20
7.874950792786653
 30
0.0
  0
POINT
  5
91F
330
86E
100
AcDbEntity
  8
Defpoints
 62
     0
100
AcDbPoint
 10
13.12346807275417
 20
7.874950792786654
 30
0.0
  0
ENDBLK
  5
87A
330
86E
100
AcDbEntity
  8
0
100
AcDbBlockEnd
  0
ENDSEC
  0
SECTION
  2
ENTITIES
  0
LINE
  5
1DB
330
1F
100
AcDbEntity
  8
Object
100
AcDbLine
 10
17.94633882192892
 20
4.546950792786653
 30
0.0
 11
17.93433882192892
 21
4.546950792786653
 31
0.0
  0
LINE
  5
1DC
330
1F
100
AcDbEntity
  8
Object
100
AcDbLine
 10
17.93433882192892
 20
4.546950792786653
 30
0.0
 11
16.74633882192892
 21
4.546950792786653
 31
0.0
  0
LINE
  5
1DD
330
1F
100
AcDbEntity
  8
Object
100
AcDbLine
 10
18.03633882192892
 20
4.491950792786653
 30
0.0
 11
19.46933882192892
 21
4.491950792786653
 31
0.0
  0
LINE
  5
1DE
330
1F
100
AcDbEntity
  8
Object
100
AcDbLine
 10
19.46933882192892
 20
4.491950792786653
 30
0.0
 11
19.46933882192892
 21
4.431950792786653
 31
0.0
  0
LINE
  5
1DF
330
1F
100
AcDbEntity
  8
Object
100
AcDbLine
 10
19.46933882192892
 20
4.431950792786653
 30
0.0
 11
18.03633882192892
 21
4.431950792786653
 31
0.0
  0
LINE
  5
1E0
330
1F
100
AcDbEntity
  8
Object
100
AcDbLine
 10
18.03633882192892
 20
4.431950792786653
 30
0.0
 11
18.00733882192892
 21
4.437950792786653
 31
0.0
  0
LINE
  5
1E1
330
1F
100
AcDbEntity
  8
Object
100
AcDbLine
 10
18.03633882192892
 20
4.491950792786653
 30
0.0
 11
18.02933882192893
 21
4.493950792786653
 31
0.0
  0
LINE
  5
1E2
330
1F
100
AcDbEntity
  8
Object
100
AcDbLine
 10
18.02933882192893
 20
4.493950792786653
 30
0.0
 11
18.02333882192893
 21
4.499950792786654
 31
0.0
  0
LINE
  5
1E3
330
1F
100
AcDbEntity
  8
Object
100
AcDbLine
 10
18.00733882192892
 20
4.437950792786653
 30
0.0
 11
17.98333882192892
 21
4.453950792786653
 31
0.0
  0
LINE
  5
1E4
330
1F
100
AcDbEntity
  8
Object
100
AcDbLine
 10
17.98333882192892
 20
4.453950792786653
 30
0.0
 11
17.96733882192892
 21
4.478950792786653
 31
0.0
  0
LINE
  5
1E5
330
1F
100
AcDbEntity
  8
Object
100
AcDbLine
 10
18.02333882192893
 20
4.499950792786654
 30
0.0
 11
18.02133882192892
 21
4.506950792786653
 31
0.0
  0
LINE
  5
1E6
330
1F
100
AcDbEntity
  8
Object
100
AcDbLine
 10
17.96733882192892
 20
4.478950792786653
 30
0.0
 11
17.96133882192892
 21
4.506950792786653
 31
0.0
  0
LINE
  5
1E7
330
1F
100
AcDbEntity
  8
Object
100
AcDbLine
 10
17.96133882192892
 20
4.506950792786653
 30
0.0
 11
17.96133882192892
 21
4.531950792786654
 31
0.0
  0
LINE
  5
1E8
330
1F
100
AcDbEntity
  8
Object
100
AcDbLine
 10
18.01533882192892
 20
4.560950792786654
 30
0.0
 11
18.02133882192892
 21
4.531950792786654
 31
0.0
  0
LINE
  5
1E9
330
1F
100
AcDbEntity
  8
Object
100
AcDbLine
 10
18.02133882192892
 20
4.531950792786654
 30
0.0
 11
18.02133882192892
 21
4.506950792786653
 31
0.0
  0
LINE
  5
1EA
330
1F
100
AcDbEntity
  8
Object
100
AcDbLine
 10
18.01533882192892
 20
4.560950792786654
 30
0.0
 11
17.99933882192893
 21
4.584950792786653
 31
0.0
  0
LINE
  5
1EB
330
1F
100
AcDbEntity
  8
Object
100
AcDbLine
 10
17.96133882192892
 20
4.531950792786654
 30
0.0
 11
17.95933882192892
 21
4.539950792786653
 31
0.0
  0
LINE
  5
1EC
330
1F
100
AcDbEntity
  8
Object
100
AcDbLine
 10
17.95933882192892
 20
4.539950792786653
 30
0.0
 11
17.95333882192893
 21
4.544950792786654
 31
0.0
  0
LINE
  5
1ED
330
1F
100
AcDbEntity
  8
Object
100
AcDbLine
 10
17.99933882192893
 20
4.584950792786653
 30
0.0
 11
17.97533882192892
 21
4.601950792786653
 31
0.0
  0
LINE
  5
1EE
330
1F
100
AcDbEntity
  8
Object
100
AcDbLine
 10
17.97533882192892
 20
4.601950792786653
 30
0.0
 11
17.94633882192892
 21
4.606950792786653
 31
0.0
  0
LINE
  5
1EF
330
1F
100
AcDbEntity
  8
Object
100
AcDbLine
 10
17.94633882192892
 20
4.546950792786653
 30
0.0
 11
17.95333882192893
 21
4.544950792786654
 31
0.0
  0
LINE
  5
1F0
330
1F
100
AcDbEntity
  8
Object
100
AcDbLine
 10
17.94633882192892
 20
4.606950792786653
 30
0.0
 11
17.93433882192892
 21
4.606950792786653
 31
0.0
  0
LINE
  5
1F1
330
1F
100
AcDbEntity
  8
Object
100
AcDbLine
 10
17.93433882192892
 20
4.546950792786653
 30
0.0
 11
17.94633882192892
 21
4.546950792786653
 31
0.0
  0
LINE
  5
1F2
330
1F
100
AcDbEntity
  8
Object
100
AcDbLine
 10
17.60633882192892
 20
4.606950792786653
 30
0.0
 11
17.93433882192892
 21
4.606950792786653
 31
0.0
  0
LINE
  5
1F3
330
1F
100
AcDbEntity
  8
Object
100
AcDbLine
 10
17.93433882192892
 20
4.606950792786653
 30
0.0
 11
17.93433882192892
 21
4.546950792786653
 31
0.0
  0
LINE
  5
1F4
330
1F
100
AcDbEntity
  8
Object
100
AcDbLine
 10
17.93433882192892
 20
4.546950792786653
 30
0.0
 11
16.74633882192892
 21
4.546950792786653
 31
0.0
  0
LINE
  5
1F5
330
1F
100
AcDbEntity
  8
Object
100
AcDbLine
 10
16.66733882192892
 20
4.541950792786654
 30
0.0
 11
16.66533882192893
 21
4.537950792786653
 31
0.0
  0
LINE
  5
1F6
330
1F
100
AcDbEntity
  8
Object
100
AcDbLine
 10
16.66533882192893
 20
4.537950792786653
 30
0.0
 11
16.66433882192892
 21
4.531950792786654
 31
0.0
  0
LINE
  5
1F7
330
1F
100
AcDbEntity
  8
Object
100
AcDbLine
 10
16.60533882192892
 20
4.538950792786653
 30
0.0
 11
16.60433882192893
 21
4.531950792786654
 31
0.0
  0
LINE
  5
1F8
330
1F
100
AcDbEntity
  8
Object
100
AcDbLine
 10
16.66433882192892
 20
4.531950792786654
 30
0.0
 11
16.66433882192892
 21
4.501950792786653
 31
0.0
  0
LINE
  5
1F9
330
1F
100
AcDbEntity
  8
Object
100
AcDbLine
 10
16.66433882192892
 20
4.501950792786653
 30
0.0
 11
16.65933882192893
 21
4.474950792786653
 31
0.0
  0
LINE
  5
1FA
330
1F
100
AcDbEntity
  8
Object
100
AcDbLine
 10
16.65933882192893
 20
4.474950792786653
 30
0.0
 11
16.65233882192892
 21
4.460950792786653
 31
0.0
  0
LINE
  5
1FB
330
1F
100
AcDbEntity
  8
Object
100
AcDbLine
 10
16.60433882192893
 20
4.531950792786654
 30
0.0
 11
16.60433882192893
 21
4.501950792786653
 31
0.0
  0
LINE
  5
1FC
330
1F
100
AcDbEntity
  8
Object
100
AcDbLine
 10
16.65233882192892
 20
4.460950792786653
 30
0.0
 11
16.64233882192893
 21
4.448950792786654
 31
0.0
  0
LINE
  5
1FD
330
1F
100
AcDbEntity
  8
Object
100
AcDbLine
 10
16.64233882192893
 20
4.448950792786654
 30
0.0
 11
16.61733882192892
 21
4.432950792786654
 31
0.0
  0
LINE
  5
1FE
330
1F
100
AcDbEntity
  8
Object
100
AcDbLine
 10
16.60433882192893
 20
4.501950792786653
 30
0.0
 11
16.60333882192892
 21
4.496950792786654
 31
0.0
  0
LINE
  5
1FF
330
1F
100
AcDbEntity
  8
Object
100
AcDbLine
 10
16.60333882192892
 20
4.496950792786654
 30
0.0
 11
16.60033882192892
 21
4.491950792786653
 31
0.0
  0
LINE
  5
200
330
1F
100
AcDbEntity
  8
Object
100
AcDbLine
 10
16.60033882192892
 20
4.491950792786653
 30
0.0
 11
16.59433882192892
 21
4.487950792786653
 31
0.0
  0
LINE
  5
201
330
1F
100
AcDbEntity
  8
Object
100
AcDbLine
 10
16.58933882192892
 20
4.426950792786653
 30
0.0
 11
16.61733882192892
 21
4.432950792786654
 31
0.0
  0
LINE
  5
202
330
1F
100
AcDbEntity
  8
Object
100
AcDbLine
 10
16.59433882192892
 20
4.487950792786653
 30
0.0
 11
16.58933882192892
 21
4.486950792786654
 31
0.0
  0
LINE
  5
203
330
1F
100
AcDbEntity
  8
Object
100
AcDbLine
 10
16.66733882192892
 20
4.541950792786654
 30
0.0
 11
16.66533882192893
 21
4.537950792786653
 31
0.0
  0
LINE
  5
204
330
1F
100
AcDbEntity
  8
Object
100
AcDbLine
 10
16.66533882192893
 20
4.537950792786653
 30
0.0
 11
16.66433882192892
 21
4.531950792786654
 31
0.0
  0
LINE
  5
205
330
1F
100
AcDbEntity
  8
Object
100
AcDbLine
 10
17.96133882192892
 20
4.531950792786654
 30
0.0
 11
17.95933882192892
 21
4.539950792786653
 31
0.0
  0
LINE
  5
206
330
1F
100
AcDbEntity
  8
Object
100
AcDbLine
 10
17.95933882192892
 20
4.539950792786653
 30
0.0
 11
17.95333882192893
 21
4.544950792786654
 31
0.0
  0
LINE
  5
207
330
1F
100
AcDbEntity
  8
Object
100
AcDbLine
 10
17.95333882192893
 20
4.544950792786654
 30
0.0
 11
17.94633882192892
 21
4.546950792786653
 31
0.0
  0
LINE
  5
208
330
1F
100
AcDbEntity
  8
Object
100
AcDbLine
 10
18.02133882192892
 20
4.506950792786653
 30
0.0
 11
18.02133882192892
 21
4.531950792786654
 31
0.0
  0
LINE
  5
209
330
1F
100
AcDbEntity
  8
Object
100
AcDbLine
 10
18.03633882192892
 20
4.431950792786653
 30
0.0
 11
18.00733882192892
 21
4.437950792786653
 31
0.0
  0
LINE
  5
20A
330
1F
100
AcDbEntity
  8
Object
100
AcDbLine
 10
18.00733882192892
 20
4.437950792786653
 30
0.0
 11
17.98333882192892
 21
4.453950792786653
 31
0.0
  0
LINE
  5
20B
330
1F
100
AcDbEntity
  8
Object
100
AcDbLine
 10
17.98333882192892
 20
4.453950792786653
 30
0.0
 11
17.96733882192892
 21
4.478950792786653
 31
0.0
  0
LINE
  5
20C
330
1F
100
AcDbEntity
  8
Object
100
AcDbLine
 10
17.96733882192892
 20
4.478950792786653
 30
0.0
 11
17.96133882192892
 21
4.506950792786653
 31
0.0
  0
LINE
  5
20D
330
1F
100
AcDbEntity
  8
Object
100
AcDbLine
 10
18.02133882192892
 20
4.531950792786654
 30
0.0
 11
18.01533882192892
 21
4.560950792786654
 31
0.0
  0
LINE
  5
20E
330
1F
100
AcDbEntity
  8
Object
100
AcDbLine
 10
18.01533882192892
 20
4.560950792786654
 30
0.0
 11
17.99933882192893
 21
4.584950792786653
 31
0.0
  0
LINE
  5
20F
330
1F
100
AcDbEntity
  8
Object
100
AcDbLine
 10
17.99933882192893
 20
4.584950792786653
 30
0.0
 11
17.97533882192892
 21
4.601950792786653
 31
0.0
  0
LINE
  5
210
330
1F
100
AcDbEntity
  8
Object
100
AcDbLine
 10
17.97533882192892
 20
4.601950792786653
 30
0.0
 11
17.94633882192892
 21
4.606950792786653
 31
0.0
  0
LINE
  5
211
330
1F
100
AcDbEntity
  8
Object
100
AcDbLine
 10
19.71933882192892
 20
4.491950792786653
 30
0.0
 11
19.71233882192892
 21
4.491950792786653
 31
0.0
  0
LINE
  5
212
330
1F
100
AcDbEntity
  8
Object
100
AcDbLine
 10
19.71233882192892
 20
4.491950792786653
 30
0.0
 11
19.69433882192893
 21
4.491950792786653
 31
0.0
  0
LINE
  5
213
330
1F
100
AcDbEntity
  8
Object
100
AcDbLine
 10
19.69433882192893
 20
4.491950792786653
 30
0.0
 11
19.66433882192892
 21
4.491950792786653
 31
0.0
  0
LINE
  5
214
330
1F
100
AcDbEntity
  8
Object
100
AcDbLine
 10
19.66433882192892
 20
4.491950792786653
 30
0.0
 11
19.62433882192893
 21
4.491950792786653
 31
0.0
  0
LINE
  5
215
330
1F
100
AcDbEntity
  8
Object
100
AcDbLine
 10
19.62433882192893
 20
4.491950792786653
 30
0.0
 11
19.57733882192892
 21
4.491950792786653
 31
0.0
  0
LINE
  5
216
330
1F
100
AcDbEntity
  8
Object
100
AcDbLine
 10
19.57733882192892
 20
4.491950792786653
 30
0.0
 11
19.52433882192892
 21
4.491950792786653
 31
0.0
  0
LINE
  5
217
330
1F
100
AcDbEntity
  8
Object
100
AcDbLine
 10
19.52433882192892
 20
4.491950792786653
 30
0.0
 11
19.46933882192892
 21
4.491950792786653
 31
0.0
  0
LINE
  5
218
330
1F
100
AcDbEntity
  8
Object
100
AcDbLine
 10
19.46933882192892
 20
4.491950792786653
 30
0.0
 11
18.03633882192892
 21
4.491950792786653
 31
0.0
  0
LINE
  5
219
330
1F
100
AcDbEntity
  8
Object
100
AcDbLine
 10
19.71933882192892
 20
4.431950792786653
 30
0.0
 11
19.71233882192892
 21
4.431950792786653
 31
0.0
  0
LINE
  5
21A
330
1F
100
AcDbEntity
  8
Object
100
AcDbLine
 10
19.71233882192892
 20
4.431950792786653
 30
0.0
 11
19.69433882192893
 21
4.431950792786653
 31
0.0
  0
LINE
  5
21B
330
1F
100
AcDbEntity
  8
Object
100
AcDbLine
 10
19.69433882192893
 20
4.431950792786653
 30
0.0
 11
19.66433882192892
 21
4.431950792786653
 31
0.0
  0
LINE
  5
21C
330
1F
100
AcDbEntity
  8
Object
100
AcDbLine
 10
19.66433882192892
 20
4.431950792786653
 30
0.0
 11
19.62433882192893
 21
4.431950792786653
 31
0.0
  0
LINE
  5
21D
330
1F
100
AcDbEntity
  8
Object
100
AcDbLine
 10
19.62433882192893
 20
4.431950792786653
 30
0.0
 11
19.57733882192892
 21
4.431950792786653
 31
0.0
  0
LINE
  5
21E
330
1F
100
AcDbEntity
  8
Object
100
AcDbLine
 10
19.57733882192892
 20
4.431950792786653
 30
0.0
 11
19.52433882192892
 21
4.431950792786653
 31
0.0
  0
LINE
  5
21F
330
1F
100
AcDbEntity
  8
Object
100
AcDbLine
 10
19.52433882192892
 20
4.431950792786653
 30
0.0
 11
19.46933882192892
 21
4.431950792786653
 31
0.0
  0
LINE
  5
220
330
1F
100
AcDbEntity
  8
Object
100
AcDbLine
 10
19.46933882192892
 20
4.431950792786653
 30
0.0
 11
18.03633882192892
 21
4.431950792786653
 31
0.0
  0
LINE
  5
221
330
1F
100
AcDbEntity
  8
Object
100
AcDbLine
 10
17.94633882192892
 20
4.606950792786653
 30
0.0
 11
17.93433882192892
 21
4.606950792786653
 31
0.0
  0
LINE
  5
222
330
1F
100
AcDbEntity
  8
Object
100
AcDbLine
 10
17.93433882192892
 20
4.606950792786653
 30
0.0
 11
17.60633882192892
 21
4.606950792786653
 31
0.0
  0
LINE
  5
223
330
1F
100
AcDbEntity
  8
Object
100
AcDbLine
 10
18.03633882192892
 20
4.491950792786653
 30
0.0
 11
18.02933882192893
 21
4.493950792786653
 31
0.0
  0
LINE
  5
224
330
1F
100
AcDbEntity
  8
Object
100
AcDbLine
 10
18.02933882192893
 20
4.493950792786653
 30
0.0
 11
18.02333882192893
 21
4.499950792786654
 31
0.0
  0
LINE
  5
225
330
1F
100
AcDbEntity
  8
Object
100
AcDbLine
 10
18.02333882192893
 20
4.499950792786654
 30
0.0
 11
18.02133882192892
 21
4.506950792786653
 31
0.0
  0
LINE
  5
226
330
1F
100
AcDbEntity
  8
Object
100
AcDbLine
 10
19.71233882192892
 20
4.431950792786653
 30
0.0
 11
19.71933882192892
 21
4.431950792786653
 31
0.0
  0
LINE
  5
227
330
1F
100
AcDbEntity
  8
Object
100
AcDbLine
 10
19.71233882192892
 20
4.491950792786653
 30
0.0
 11
19.71933882192892
 21
4.491950792786653
 31
0.0
  0
LINE
  5
228
330
1F
100
AcDbEntity
  8
Object
100
AcDbLine
 10
19.71933882192892
 20
4.491950792786653
 30
0.0
 11
19.71933882192892
 21
4.431950792786653
 31
0.0
  0
LINE
  5
229
330
1F
100
AcDbEntity
  8
Object
100
AcDbLine
 10
19.71233882192892
 20
4.491950792786653
 30
0.0
 11
19.69433882192893
 21
4.491950792786653
 31
0.0
  0
LINE
  5
22A
330
1F
100
AcDbEntity
  8
Object
100
AcDbLine
 10
19.71233882192892
 20
4.431950792786653
 30
0.0
 11
19.69433882192893
 21
4.431950792786653
 31
0.0
  0
LINE
  5
22B
330
1F
100
AcDbEntity
  8
Object
100
AcDbLine
 10
19.69433882192893
 20
4.431950792786653
 30
0.0
 11
19.66433882192892
 21
4.431950792786653
 31
0.0
  0
LINE
  5
22C
330
1F
100
AcDbEntity
  8
Object
100
AcDbLine
 10
19.69433882192893
 20
4.491950792786653
 30
0.0
 11
19.66433882192892
 21
4.491950792786653
 31
0.0
  0
LINE
  5
22D
330
1F
100
AcDbEntity
  8
Object
100
AcDbLine
 10
19.66433882192892
 20
4.491950792786653
 30
0.0
 11
19.62433882192893
 21
4.491950792786653
 31
0.0
  0
LINE
  5
22E
330
1F
100
AcDbEntity
  8
Object
100
AcDbLine
 10
19.66433882192892
 20
4.431950792786653
 30
0.0
 11
19.62433882192893
 21
4.431950792786653
 31
0.0
  0
LINE
  5
22F
330
1F
100
AcDbEntity
  8
Object
100
AcDbLine
 10
19.62433882192893
 20
4.431950792786653
 30
0.0
 11
19.57733882192892
 21
4.431950792786653
 31
0.0
  0
LINE
  5
230
330
1F
100
AcDbEntity
  8
Object
100
AcDbLine
 10
19.62433882192893
 20
4.491950792786653
 30
0.0
 11
19.57733882192892
 21
4.491950792786653
 31
0.0
  0
LINE
  5
231
330
1F
100
AcDbEntity
  8
Object
100
AcDbLine
 10
19.57733882192892
 20
4.491950792786653
 30
0.0
 11
19.52433882192892
 21
4.491950792786653
 31
0.0
  0
LINE
  5
232
330
1F
100
AcDbEntity
  8
Object
100
AcDbLine
 10
19.57733882192892
 20
4.431950792786653
 30
0.0
 11
19.52433882192892
 21
4.431950792786653
 31
0.0
  0
LINE
  5
233
330
1F
100
AcDbEntity
  8
Object
100
AcDbLine
 10
19.52433882192892
 20
4.431950792786653
 30
0.0
 11
19.46933882192892
 21
4.431950792786653
 31
0.0
  0
LINE
  5
234
330
1F
100
AcDbEntity
  8
Object
100
AcDbLine
 10
19.52433882192892
 20
4.491950792786653
 30
0.0
 11
19.46933882192892
 21
4.491950792786653
 31
0.0
  0
LINE
  5
235
330
1F
100
AcDbEntity
  8
Object
100
AcDbLine
 10
17.96133882192892
 20
4.531950792786654
 30
0.0
 11
17.96133882192892
 21
4.506950792786653
 31
0.0
  0
LINE
  5
236
330
1F
100
AcDbEntity
  8
Object
100
AcDbLine
 10
16.60433882192893
 20
4.501950792786653
 30
0.0
 11
16.60333882192892
 21
4.496950792786654
 31
0.0
  0
LINE
  5
237
330
1F
100
AcDbEntity
  8
Object
100
AcDbLine
 10
16.60333882192892
 20
4.496950792786654
 30
0.0
 11
16.60033882192892
 21
4.491950792786653
 31
0.0
  0
LINE
  5
238
330
1F
100
AcDbEntity
  8
Object
100
AcDbLine
 10
16.60033882192892
 20
4.491950792786653
 30
0.0
 11
16.59433882192892
 21
4.487950792786653
 31
0.0
  0
LINE
  5
239
330
1F
100
AcDbEntity
  8
Object
100
AcDbLine
 10
16.59433882192892
 20
4.487950792786653
 30
0.0
 11
16.58933882192892
 21
4.486950792786654
 31
0.0
  0
LINE
  5
23A
330
1F
100
AcDbEntity
  8
Object
100
AcDbLine
 10
16.60433882192893
 20
4.531950792786654
 30
0.0
 11
16.60433882192893
 21
4.501950792786653
 31
0.0
  0
LINE
  5
23B
330
1F
100
AcDbEntity
  8
Object
100
AcDbLine
 10
16.58933882192892
 20
4.447950792786653
 30
0.0
 11
16.58933882192892
 21
4.472950792786653
 31
0.0
  0
LINE
  5
23C
330
1F
100
AcDbEntity
  8
Object
100
AcDbLine
 10
16.58933882192892
 20
4.472950792786653
 30
0.0
 11
16.58933882192892
 21
4.503950792786653
 31
0.0
  0
LINE
  5
23D
330
1F
100
AcDbEntity
  8
Object
100
AcDbLine
 10
16.58933882192892
 20
4.503950792786653
 30
0.0
 11
16.58933882192892
 21
4.538950792786653
 31
0.0
  0
LINE
  5
23E
330
1F
100
AcDbEntity
  8
Object
100
AcDbLine
 10
16.58933882192892
 20
4.447950792786653
 30
0.0
 11
16.58933882192892
 21
4.432950792786654
 31
0.0
  0
LINE
  5
23F
330
1F
100
AcDbEntity
  8
Object
100
AcDbLine
 10
16.58933882192892
 20
4.432950792786654
 30
0.0
 11
16.58933882192892
 21
4.426950792786653
 31
0.0
  0
LINE
  5
240
330
1F
100
AcDbEntity
  8
Object
100
AcDbLine
 10
16.66433882192892
 20
4.501950792786653
 30
0.0
 11
16.66433882192892
 21
4.531950792786654
 31
0.0
  0
LINE
  5
241
330
1F
100
AcDbEntity
  8
Object
100
AcDbLine
 10
16.60533882192892
 20
4.538950792786653
 30
0.0
 11
16.60433882192893
 21
4.531950792786654
 31
0.0
  0
LINE
  5
242
330
1F
100
AcDbEntity
  8
Object
100
AcDbLine
 10
16.66433882192892
 20
4.501950792786653
 30
0.0
 11
16.65933882192893
 21
4.474950792786653
 31
0.0
  0
LINE
  5
243
330
1F
100
AcDbEntity
  8
Object
100
AcDbLine
 10
16.65933882192893
 20
4.474950792786653
 30
0.0
 11
16.65233882192892
 21
4.460950792786653
 31
0.0
  0
LINE
  5
244
330
1F
100
AcDbEntity
  8
Object
100
AcDbLine
 10
16.65233882192892
 20
4.460950792786653
 30
0.0
 11
16.64233882192893
 21
4.448950792786654
 31
0.0
  0
LINE
  5
245
330
1F
100
AcDbEntity
  8
Object
100
AcDbLine
 10
16.64233882192893
 20
4.448950792786654
 30
0.0
 11
16.61733882192892
 21
4.432950792786654
 31
0.0
  0
LINE
  5
246
330
1F
100
AcDbEntity
  8
Object
100
AcDbLine
 10
16.61733882192892
 20
4.432950792786654
 30
0.0
 11
16.58933882192892
 21
4.426950792786653
 31
0.0
  0
LINE
  5
247
330
1F
100
AcDbEntity
  8
Object
100
AcDbLine
 10
19.71933882192892
 20
4.431950792786653
 30
0.0
 11
19.71933882192892
 21
4.491950792786653
 31
0.0
  0
LINE
  5
248
330
1F
100
AcDbEntity
  8
Object
100
AcDbLine
 10
19.52933882192892
 20
4.431950792786653
 30
0.0
 11
19.51933882192892
 21
4.430950792786653
 31
0.0
  0
LINE
  5
249
330
1F
100
AcDbEntity
  8
Object
100
AcDbLine
 10
19.51933882192892
 20
4.430950792786653
 30
0.0
 11
19.51133882192893
 21
4.425950792786653
 31
0.0
  0
LINE
  5
24A
330
1F
100
AcDbEntity
  8
Object
100
AcDbLine
 10
19.51133882192893
 20
4.425950792786653
 30
0.0
 11
19.50433882192892
 21
4.419950792786654
 31
0.0
  0
LINE
  5
24B
330
1F
100
AcDbEntity
  8
Object
100
AcDbLine
 10
19.46133882192892
 20
4.419950792786654
 30
0.0
 11
19.43133882192892
 21
4.419950792786654
 31
0.0
  0
LINE
  5
24C
330
1F
100
AcDbEntity
  8
Object
100
AcDbLine
 10
19.43133882192892
 20
4.419950792786654
 30
0.0
 11
19.39933882192892
 21
4.419950792786654
 31
0.0
  0
LINE
  5
24D
330
1F
100
AcDbEntity
  8
Object
100
AcDbLine
 10
18.29333882192893
 20
4.419950792786654
 30
0.0
 11
18.28633882192892
 21
4.425950792786653
 31
0.0
  0
LINE
  5
24E
330
1F
100
AcDbEntity
  8
Object
100
AcDbLine
 10
18.28633882192892
 20
4.425950792786653
 30
0.0
 11
18.27833882192893
 21
4.430950792786653
 31
0.0
  0
LINE
  5
24F
330
1F
100
AcDbEntity
  8
Object
100
AcDbLine
 10
18.27833882192893
 20
4.430950792786653
 30
0.0
 11
18.26933882192892
 21
4.431950792786653
 31
0.0
  0
LINE
  5
250
330
1F
100
AcDbEntity
  8
Object
100
AcDbLine
 10
18.39933882192892
 20
4.425950792786653
 30
0.0
 11
18.39933882192892
 21
4.419950792786654
 31
0.0
  0
LINE
  5
251
330
1F
100
AcDbEntity
  8
Object
100
AcDbLine
 10
18.39933882192892
 20
4.419950792786654
 30
0.0
 11
18.36633882192893
 21
4.419950792786654
 31
0.0
  0
LINE
  5
252
330
1F
100
AcDbEntity
  8
Object
100
AcDbLine
 10
18.39933882192892
 20
4.425950792786653
 30
0.0
 11
18.39933882192892
 21
4.430950792786653
 31
0.0
  0
LINE
  5
253
330
1F
100
AcDbEntity
  8
Object
100
AcDbLine
 10
18.39933882192892
 20
4.430950792786653
 30
0.0
 11
18.39933882192892
 21
4.431950792786653
 31
0.0
  0
LINE
  5
254
330
1F
100
AcDbEntity
  8
Object
100
AcDbLine
 10
18.36633882192893
 20
4.419950792786654
 30
0.0
 11
18.33733882192893
 21
4.419950792786654
 31
0.0
  0
LINE
  5
255
330
1F
100
AcDbEntity
  8
Object
100
AcDbLine
 10
18.33733882192893
 20
4.419950792786654
 30
0.0
 11
18.31333882192893
 21
4.419950792786654
 31
0.0
  0
LINE
  5
256
330
1F
100
AcDbEntity
  8
Object
100
AcDbLine
 10
18.31333882192893
 20
4.419950792786654
 30
0.0
 11
18.29833882192892
 21
4.419950792786654
 31
0.0
  0
LINE
  5
257
330
1F
100
AcDbEntity
  8
Object
100
AcDbLine
 10
18.29833882192892
 20
4.419950792786654
 30
0.0
 11
18.29333882192893
 21
4.419950792786654
 31
0.0
  0
LINE
  5
258
330
1F
100
AcDbEntity
  8
Object
100
AcDbLine
 10
18.29333882192893
 20
4.419950792786654
 30
0.0
 11
18.28633882192892
 21
4.425950792786653
 31
0.0
  0
LINE
  5
259
330
1F
100
AcDbEntity
  8
Object
100
AcDbLine
 10
18.28633882192892
 20
4.425950792786653
 30
0.0
 11
18.27833882192893
 21
4.430950792786653
 31
0.0
  0
LINE
  5
25A
330
1F
100
AcDbEntity
  8
Object
100
AcDbLine
 10
18.27833882192893
 20
4.430950792786653
 30
0.0
 11
18.26933882192892
 21
4.431950792786653
 31
0.0
  0
LINE
  5
25B
330
1F
100
AcDbEntity
  8
Object
100
AcDbLine
 10
19.52933882192892
 20
4.431950792786653
 30
0.0
 11
19.51933882192892
 21
4.430950792786653
 31
0.0
  0
LINE
  5
25C
330
1F
100
AcDbEntity
  8
Object
100
AcDbLine
 10
19.51933882192892
 20
4.430950792786653
 30
0.0
 11
19.51133882192893
 21
4.425950792786653
 31
0.0
  0
LINE
  5
25D
330
1F
100
AcDbEntity
  8
Object
100
AcDbLine
 10
19.51133882192893
 20
4.425950792786653
 30
0.0
 11
19.50433882192892
 21
4.419950792786654
 31
0.0
  0
LINE
  5
25E
330
1F
100
AcDbEntity
  8
Object
100
AcDbLine
 10
19.39933882192892
 20
4.425950792786653
 30
0.0
 11
19.39933882192892
 21
4.430950792786653
 31
0.0
  0
LINE
  5
25F
330
1F
100
AcDbEntity
  8
Object
100
AcDbLine
 10
19.39933882192892
 20
4.430950792786653
 30
0.0
 11
19.39933882192892
 21
4.431950792786653
 31
0.0
  0
LINE
  5
260
330
1F
100
AcDbEntity
  8
Object
100
AcDbLine
 10
19.39933882192892
 20
4.425950792786653
 30
0.0
 11
19.39933882192892
 21
4.419950792786654
 31
0.0
  0
LINE
  5
261
330
1F
100
AcDbEntity
  8
Object
100
AcDbLine
 10
19.39933882192892
 20
4.419950792786654
 30
0.0
 11
18.39933882192892
 21
4.419950792786654
 31
0.0
  0
LINE
  5
262
330
1F
100
AcDbEntity
  8
Object
100
AcDbLine
 10
16.58933882192892
 20
4.432950792786654
 30
0.0
 11
16.58933882192892
 21
4.447950792786653
 31
0.0
  0
LINE
  5
263
330
1F
100
AcDbEntity
  8
Object
100
AcDbLine
 10
14.58933882192892
 20
4.447950792786653
 30
0.0
 11
14.58933882192892
 21
4.432950792786654
 31
0.0
  0
LINE
  5
264
330
1F
100
AcDbEntity
  8
Object
100
AcDbLine
 10
16.58933882192892
 20
4.472950792786653
 30
0.0
 11
16.58933882192892
 21
4.503950792786653
 31
0.0
  0
LINE
  5
265
330
1F
100
AcDbEntity
  8
Object
100
AcDbLine
 10
14.58933882192892
 20
4.472950792786653
 30
0.0
 11
14.58933882192892
 21
4.503950792786653
 31
0.0
  0
LINE
  5
266
330
1F
100
AcDbEntity
  8
Object
100
AcDbLine
 10
14.58933882192892
 20
4.503950792786653
 30
0.0
 11
14.58933882192892
 21
4.538950792786653
 31
0.0
  0
LINE
  5
267
330
1F
100
AcDbEntity
  8
Object
100
AcDbLine
 10
14.58933882192892
 20
4.538950792786653
 30
0.0
 11
16.58933882192892
 21
4.538950792786653
 31
0.0
  0
LINE
  5
268
330
1F
100
AcDbEntity
  8
Object
100
AcDbLine
 10
16.58933882192892
 20
4.538950792786653
 30
0.0
 11
16.58933882192892
 21
4.503950792786653
 31
0.0
  0
LINE
  5
269
330
1F
100
AcDbEntity
  8
Object
100
AcDbLine
 10
14.58933882192892
 20
4.472950792786653
 30
0.0
 11
14.58933882192892
 21
4.447950792786653
 31
0.0
  0
LINE
  5
26A
330
1F
100
AcDbEntity
  8
Object
100
AcDbLine
 10
16.58933882192892
 20
4.447950792786653
 30
0.0
 11
16.58933882192892
 21
4.472950792786653
 31
0.0
  0
LINE
  5
26B
330
1F
100
AcDbEntity
  8
Object
100
AcDbLine
 10
14.58933882192892
 20
4.432950792786654
 30
0.0
 11
14.58933882192892
 21
4.426950792786653
 31
0.0
  0
LINE
  5
26C
330
1F
100
AcDbEntity
  8
Object
100
AcDbLine
 10
16.58933882192892
 20
4.432950792786654
 30
0.0
 11
16.58933882192892
 21
4.426950792786653
 31
0.0
  0
LINE
  5
26D
330
1F
100
AcDbEntity
  8
Object
100
AcDbLine
 10
16.58933882192892
 20
4.426950792786653
 30
0.0
 11
14.58933882192892
 21
4.426950792786653
 31
0.0
  0
LINE
  5
26E
330
1F
100
AcDbEntity
  8
Object
100
AcDbLine
 10
16.65333882192892
 20
4.540950792786653
 30
0.0
 11
16.63433882192892
 21
4.539950792786653
 31
0.0
  0
LINE
  5
26F
330
1F
100
AcDbEntity
  8
Object
100
AcDbLine
 10
16.63433882192892
 20
4.539950792786653
 30
0.0
 11
16.61233882192892
 21
4.538950792786653
 31
0.0
  0
LINE
  5
270
330
1F
100
AcDbEntity
  8
Object
100
AcDbLine
 10
16.61233882192892
 20
4.538950792786653
 30
0.0
 11
16.58933882192892
 21
4.538950792786653
 31
0.0
  0
LINE
  5
271
330
1F
100
AcDbEntity
  8
Object
100
AcDbLine
 10
14.58933882192892
 20
4.426950792786653
 30
0.0
 11
16.58933882192892
 21
4.426950792786653
 31
0.0
  0
LINE
  5
272
330
1F
100
AcDbEntity
  8
Object
100
AcDbLine
 10
19.49933882192892
 20
4.419950792786654
 30
0.0
 11
19.50433882192892
 21
4.419950792786654
 31
0.0
  0
LINE
  5
273
330
1F
100
AcDbEntity
  8
Object
100
AcDbLine
 10
19.50433882192892
 20
4.419950792786654
 30
0.0
 11
19.48233882192893
 21
4.396950792786653
 31
0.0
  0
LINE
  5
274
330
1F
100
AcDbEntity
  8
Object
100
AcDbLine
 10
19.49933882192892
 20
4.419950792786654
 30
0.0
 11
19.48433882192892
 21
4.419950792786654
 31
0.0
  0
LINE
  5
275
330
1F
100
AcDbEntity
  8
Object
100
AcDbLine
 10
19.48433882192892
 20
4.419950792786654
 30
0.0
 11
19.46133882192892
 21
4.419950792786654
 31
0.0
  0
LINE
  5
276
330
1F
100
AcDbEntity
  8
Object
100
AcDbLine
 10
19.48233882192893
 20
4.396950792786653
 30
0.0
 11
19.45433882192892
 21
4.381950792786653
 31
0.0
  0
LINE
  5
277
330
1F
100
AcDbEntity
  8
Object
100
AcDbLine
 10
19.45433882192892
 20
4.381950792786653
 30
0.0
 11
19.43633882192893
 21
4.378950792786653
 31
0.0
  0
LINE
  5
278
330
1F
100
AcDbEntity
  8
Object
100
AcDbLine
 10
19.43633882192893
 20
4.378950792786653
 30
0.0
 11
19.42233882192892
 21
4.376950792786653
 31
0.0
  0
LINE
  5
279
330
1F
100
AcDbEntity
  8
Object
100
AcDbLine
 10
19.42233882192892
 20
4.376950792786653
 30
0.0
 11
19.41933882192892
 21
4.376950792786653
 31
0.0
  0
LINE
  5
27A
330
1F
100
AcDbEntity
  8
Object
100
AcDbLine
 10
19.41933882192892
 20
4.376950792786653
 30
0.0
 11
19.41033882192893
 21
4.376950792786653
 31
0.0
  0
LINE
  5
27B
330
1F
100
AcDbEntity
  8
Object
100
AcDbLine
 10
19.41033882192893
 20
4.376950792786653
 30
0.0
 11
19.39933882192892
 21
4.376950792786653
 31
0.0
  0
LINE
  5
27C
330
1F
100
AcDbEntity
  8
Object
100
AcDbLine
 10
18.34333882192893
 20
4.381950792786653
 30
0.0
 11
18.31533882192892
 21
4.396950792786653
 31
0.0
  0
LINE
  5
27D
330
1F
100
AcDbEntity
  8
Object
100
AcDbLine
 10
18.31533882192892
 20
4.396950792786653
 30
0.0
 11
18.29333882192893
 21
4.419950792786654
 31
0.0
  0
LINE
  5
27E
330
1F
100
AcDbEntity
  8
Object
100
AcDbLine
 10
18.39933882192892
 20
4.381950792786653
 30
0.0
 11
18.39933882192892
 21
4.376950792786653
 31
0.0
  0
LINE
  5
27F
330
1F
100
AcDbEntity
  8
Object
100
AcDbLine
 10
18.39933882192892
 20
4.376950792786653
 30
0.0
 11
18.38733882192892
 21
4.376950792786653
 31
0.0
  0
LINE
  5
280
330
1F
100
AcDbEntity
  8
Object
100
AcDbLine
 10
18.39933882192892
 20
4.381950792786653
 30
0.0
 11
18.39933882192892
 21
4.396950792786653
 31
0.0
  0
LINE
  5
281
330
1F
100
AcDbEntity
  8
Object
100
AcDbLine
 10
18.37833882192892
 20
4.376950792786653
 30
0.0
 11
18.38733882192892
 21
4.376950792786653
 31
0.0
  0
LINE
  5
282
330
1F
100
AcDbEntity
  8
Object
100
AcDbLine
 10
18.39933882192892
 20
4.396950792786653
 30
0.0
 11
18.39933882192892
 21
4.419950792786654
 31
0.0
  0
LINE
  5
283
330
1F
100
AcDbEntity
  8
Object
100
AcDbLine
 10
18.37833882192892
 20
4.376950792786653
 30
0.0
 11
18.37533882192893
 21
4.376950792786653
 31
0.0
  0
LINE
  5
284
330
1F
100
AcDbEntity
  8
Object
100
AcDbLine
 10
18.37533882192893
 20
4.376950792786653
 30
0.0
 11
18.36133882192892
 21
4.378950792786653
 31
0.0
  0
LINE
  5
285
330
1F
100
AcDbEntity
  8
Object
100
AcDbLine
 10
18.36133882192892
 20
4.378950792786653
 30
0.0
 11
18.34333882192893
 21
4.381950792786653
 31
0.0
  0
LINE
  5
286
330
1F
100
AcDbEntity
  8
Object
100
AcDbLine
 10
18.34333882192893
 20
4.381950792786653
 30
0.0
 11
18.31533882192892
 21
4.396950792786653
 31
0.0
  0
LINE
  5
287
330
1F
100
AcDbEntity
  8
Object
100
AcDbLine
 10
18.31533882192892
 20
4.396950792786653
 30
0.0
 11
18.29333882192893
 21
4.419950792786654
 31
0.0
  0
LINE
  5
288
330
1F
100
AcDbEntity
  8
Object
100
AcDbLine
 10
19.50433882192892
 20
4.419950792786654
 30
0.0
 11
19.48233882192893
 21
4.396950792786653
 31
0.0
  0
LINE
  5
289
330
1F
100
AcDbEntity
  8
Object
100
AcDbLine
 10
19.48233882192893
 20
4.396950792786653
 30
0.0
 11
19.45433882192892
 21
4.381950792786653
 31
0.0
  0
LINE
  5
28A
330
1F
100
AcDbEntity
  8
Object
100
AcDbLine
 10
19.39933882192892
 20
4.396950792786653
 30
0.0
 11
19.39933882192892
 21
4.381950792786653
 31
0.0
  0
LINE
  5
28B
330
1F
100
AcDbEntity
  8
Object
100
AcDbLine
 10
19.39933882192892
 20
4.381950792786653
 30
0.0
 11
19.39933882192892
 21
4.376950792786653
 31
0.0
  0
LINE
  5
28C
330
1F
100
AcDbEntity
  8
Object
100
AcDbLine
 10
19.39933882192892
 20
4.376950792786653
 30
0.0
 11
18.39933882192892
 21
4.376950792786653
 31
0.0
  0
LINE
  5
28D
330
1F
100
AcDbEntity
  8
Object
100
AcDbLine
 10
19.39933882192892
 20
4.396950792786653
 30
0.0
 11
19.39933882192892
 21
4.419950792786654
 31
0.0
  0
LINE
  5
28E
330
1F
100
AcDbEntity
  8
Object
100
AcDbLine
 10
15.72333882192892
 20
7.375950792786653
 30
0.0
 11
15.72933882192893
 21
7.418950792786653
 31
0.0
  0
LINE
  5
28F
330
1F
100
AcDbEntity
  8
Object
100
AcDbLine
 10
15.72933882192893
 20
7.418950792786653
 30
0.0
 11
15.72333882192892
 21
7.461950792786653
 31
0.0
  0
LINE
  5
290
330
1F
100
AcDbEntity
  8
Object
100
AcDbLine
 10
15.72333882192892
 20
7.375950792786653
 30
0.0
 11
15.70333882192892
 21
7.336950792786653
 31
0.0
  0
LINE
  5
291
330
1F
100
AcDbEntity
  8
Object
100
AcDbLine
 10
15.70333882192892
 20
7.500950792786653
 30
0.0
 11
15.72333882192892
 21
7.461950792786653
 31
0.0
  0
LINE
  5
292
330
1F
100
AcDbEntity
  8
Object
100
AcDbLine
 10
15.70333882192892
 20
7.336950792786653
 30
0.0
 11
15.67133882192892
 21
7.305950792786653
 31
0.0
  0
LINE
  5
293
330
1F
100
AcDbEntity
  8
Object
100
AcDbLine
 10
15.67133882192892
 20
7.531950792786653
 30
0.0
 11
15.70333882192892
 21
7.500950792786653
 31
0.0
  0
LINE
  5
294
330
1F
100
AcDbEntity
  8
Object
100
AcDbLine
 10
16.58933882192892
 20
4.538950792786653
 30
0.0
 11
16.58933882192892
 21
7.792950792786653
 31
0.0
  0
LINE
  5
295
330
1F
100
AcDbEntity
  8
Object
100
AcDbLine
 10
15.63233882192892
 20
7.551950792786653
 30
0.0
 11
15.67133882192892
 21
7.531950792786653
 31
0.0
  0
LINE
  5
296
330
1F
100
AcDbEntity
  8
Object
100
AcDbLine
 10
15.67133882192892
 20
7.305950792786653
 30
0.0
 11
15.63233882192892
 21
7.285950792786653
 31
0.0
  0
LINE
  5
297
330
1F
100
AcDbEntity
  8
Object
100
AcDbLine
 10
15.58933882192892
 20
7.558950792786653
 30
0.0
 11
15.63233882192892
 21
7.551950792786653
 31
0.0
  0
LINE
  5
298
330
1F
100
AcDbEntity
  8
Object
100
AcDbLine
 10
15.63233882192892
 20
7.285950792786653
 30
0.0
 11
15.58933882192892
 21
7.278950792786654
 31
0.0
  0
LINE
  5
299
330
1F
100
AcDbEntity
  8
Object
100
AcDbLine
 10
16.58933882192892
 20
7.792950792786653
 30
0.0
 11
14.83933882192892
 21
7.792950792786653
 31
0.0
  0
LINE
  5
29A
330
1F
100
AcDbEntity
  8
Object
100
AcDbLine
 10
15.58933882192892
 20
7.558950792786653
 30
0.0
 11
15.54533882192892
 21
7.551950792786653
 31
0.0
  0
LINE
  5
29B
330
1F
100
AcDbEntity
  8
Object
100
AcDbLine
 10
15.54533882192892
 20
7.551950792786653
 30
0.0
 11
15.50633882192892
 21
7.531950792786653
 31
0.0
  0
LINE
  5
29C
330
1F
100
AcDbEntity
  8
Object
100
AcDbLine
 10
15.50633882192892
 20
7.531950792786653
 30
0.0
 11
15.47533882192892
 21
7.500950792786653
 31
0.0
  0
LINE
  5
29D
330
1F
100
AcDbEntity
  8
Object
100
AcDbLine
 10
15.47533882192892
 20
7.500950792786653
 30
0.0
 11
15.45533882192892
 21
7.461950792786653
 31
0.0
  0
LINE
  5
29E
330
1F
100
AcDbEntity
  8
Object
100
AcDbLine
 10
15.45533882192892
 20
7.461950792786653
 30
0.0
 11
15.44833882192892
 21
7.418950792786653
 31
0.0
  0
LINE
  5
29F
330
1F
100
AcDbEntity
  8
Object
100
AcDbLine
 10
14.73033882192892
 20
7.767950792786654
 30
0.0
 11
14.78333882192892
 21
7.786950792786654
 31
0.0
  0
LINE
  5
2A0
330
1F
100
AcDbEntity
  8
Object
100
AcDbLine
 10
14.78333882192892
 20
7.786950792786654
 30
0.0
 11
14.83933882192892
 21
7.792950792786653
 31
0.0
  0
LINE
  5
2A1
330
1F
100
AcDbEntity
  8
Object
100
AcDbLine
 10
14.73033882192892
 20
7.767950792786654
 30
0.0
 11
14.68333882192892
 21
7.738950792786654
 31
0.0
  0
LINE
  5
2A2
330
1F
100
AcDbEntity
  8
Object
100
AcDbLine
 10
14.68333882192892
 20
7.738950792786654
 30
0.0
 11
14.64333882192893
 21
7.698950792786654
 31
0.0
  0
LINE
  5
2A3
330
1F
100
AcDbEntity
  8
Object
100
AcDbLine
 10
14.64333882192893
 20
7.698950792786654
 30
0.0
 11
14.61433882192892
 21
7.651950792786653
 31
0.0
  0
LINE
  5
2A4
330
1F
100
AcDbEntity
  8
Object
100
AcDbLine
 10
14.61433882192892
 20
7.651950792786653
 30
0.0
 11
14.59533882192892
 21
7.598950792786653
 31
0.0
  0
LINE
  5
2A5
330
1F
100
AcDbEntity
  8
Object
100
AcDbLine
 10
15.45533882192892
 20
7.375950792786653
 30
0.0
 11
15.44833882192892
 21
7.418950792786653
 31
0.0
  0
LINE
  5
2A6
330
1F
100
AcDbEntity
  8
Object
100
AcDbLine
 10
14.59533882192892
 20
7.598950792786653
 30
0.0
 11
14.58933882192892
 21
7.543950792786653
 31
0.0
  0
LINE
  5
2A7
330
1F
100
AcDbEntity
  8
Object
100
AcDbLine
 10
15.45533882192892
 20
7.375950792786653
 30
0.0
 11
15.47533882192892
 21
7.336950792786653
 31
0.0
  0
LINE
  5
2A8
330
1F
100
AcDbEntity
  8
Object
100
AcDbLine
 10
15.47533882192892
 20
7.336950792786653
 30
0.0
 11
15.50633882192892
 21
7.305950792786653
 31
0.0
  0
LINE
  5
2A9
330
1F
100
AcDbEntity
  8
Object
100
AcDbLine
 10
14.58933882192892
 20
7.543950792786653
 30
0.0
 11
14.58933882192892
 21
4.538950792786653
 31
0.0
  0
LINE
  5
2AA
330
1F
100
AcDbEntity
  8
Object
100
AcDbLine
 10
15.50633882192892
 20
7.305950792786653
 30
0.0
 11
15.54533882192892
 21
7.285950792786653
 31
0.0
  0
LINE
  5
2AB
330
1F
100
AcDbEntity
  8
Object
100
AcDbLine
 10
15.54533882192892
 20
7.285950792786653
 30
0.0
 11
15.58933882192892
 21
7.278950792786654
 31
0.0
  0
LINE
  5
2AC
330
1F
100
AcDbEntity
  8
Object
100
AcDbLine
 10
14.58933882192892
 20
4.447950792786653
 30
0.0
 11
14.58933882192892
 21
4.432950792786654
 31
0.0
  0
LINE
  5
2AD
330
1F
100
AcDbEntity
  8
Object
100
AcDbLine
 10
14.58933882192892
 20
4.538950792786653
 30
0.0
 11
14.58933882192892
 21
4.503950792786653
 31
0.0
  0
LINE
  5
2AE
330
1F
100
AcDbEntity
  8
Object
100
AcDbLine
 10
14.58933882192892
 20
4.503950792786653
 30
0.0
 11
14.58933882192892
 21
4.472950792786653
 31
0.0
  0
LINE
  5
2AF
330
1F
100
AcDbEntity
  8
Object
100
AcDbLine
 10
14.58933882192892
 20
4.472950792786653
 30
0.0
 11
14.58933882192892
 21
4.447950792786653
 31
0.0
  0
LINE
  5
2B0
330
1F
100
AcDbEntity
  8
Object
100
AcDbLine
 10
14.58933882192892
 20
4.432950792786654
 30
0.0
 11
14.58933882192892
 21
4.426950792786653
 31
0.0
  0
LINE
  5
2B1
330
1F
100
AcDbEntity
  8
Object
100
AcDbLine
 10
15.72833882192892
 20
7.420950792786653
 30
0.0
 11
15.72333882192892
 21
7.379950792786654
 31
0.0
  0
LINE
  5
2B2
330
1F
100
AcDbEntity
  8
Object
100
AcDbLine
 10
15.72333882192892
 20
7.379950792786654
 30
0.0
 11
15.70333882192892
 21
7.340950792786653
 31
0.0
  0
LINE
  5
2B3
330
1F
100
AcDbEntity
  8
Object
100
AcDbLine
 10
15.70333882192892
 20
7.340950792786653
 30
0.0
 11
15.67133882192892
 21
7.309950792786653
 31
0.0
  0
LINE
  5
2B4
330
1F
100
AcDbEntity
  8
Object
100
AcDbLine
 10
15.67133882192892
 20
7.309950792786653
 30
0.0
 11
15.63233882192892
 21
7.289950792786653
 31
0.0
  0
LINE
  5
2B5
330
1F
100
AcDbEntity
  8
Object
100
AcDbLine
 10
15.63233882192892
 20
7.289950792786653
 30
0.0
 11
15.58933882192892
 21
7.282950792786653
 31
0.0
  0
LINE
  5
2B6
330
1F
100
AcDbEntity
  8
Object
100
AcDbLine
 10
16.58933882192892
 20
7.796950792786653
 30
0.0
 11
14.83933882192892
 21
7.796950792786653
 31
0.0
  0
LINE
  5
2B7
330
1F
100
AcDbEntity
  8
Object
100
AcDbLine
 10
15.50633882192892
 20
7.309950792786653
 30
0.0
 11
15.47533882192892
 21
7.340950792786653
 31
0.0
  0
LINE
  5
2B8
330
1F
100
AcDbEntity
  8
Object
100
AcDbLine
 10
14.78333882192892
 20
7.790950792786653
 30
0.0
 11
14.73033882192892
 21
7.772950792786653
 31
0.0
  0
LINE
  5
2B9
330
1F
100
AcDbEntity
  8
Object
100
AcDbLine
 10
14.73033882192892
 20
7.772950792786653
 30
0.0
 11
14.68333882192892
 21
7.742950792786653
 31
0.0
  0
LINE
  5
2BA
330
1F
100
AcDbEntity
  8
Object
100
AcDbLine
 10
14.68333882192892
 20
7.742950792786653
 30
0.0
 11
14.64333882192893
 21
7.702950792786653
 31
0.0
  0
LINE
  5
2BB
330
1F
100
AcDbEntity
  8
Object
100
AcDbLine
 10
14.64333882192893
 20
7.702950792786653
 30
0.0
 11
14.61433882192892
 21
7.655950792786653
 31
0.0
  0
LINE
  5
2BC
330
1F
100
AcDbEntity
  8
Object
100
AcDbLine
 10
14.61433882192892
 20
7.655950792786653
 30
0.0
 11
14.59533882192892
 21
7.602950792786653
 31
0.0
  0
LINE
  5
2BD
330
1F
100
AcDbEntity
  8
Object
100
AcDbLine
 10
14.59533882192892
 20
7.602950792786653
 30
0.0
 11
14.58933882192892
 21
7.547950792786653
 31
0.0
  0
LINE
  5
2BE
330
1F
100
AcDbEntity
  8
Object
100
AcDbLine
 10
15.47533882192892
 20
7.340950792786653
 30
0.0
 11
15.45533882192892
 21
7.379950792786654
 31
0.0
  0
LINE
  5
2BF
330
1F
100
AcDbEntity
  8
Object
100
AcDbLine
 10
15.45533882192892
 20
7.379950792786654
 30
0.0
 11
15.44833882192892
 21
7.420950792786653
 31
0.0
  0
LINE
  5
2C0
330
1F
100
AcDbEntity
  8
Object
100
AcDbLine
 10
14.83933882192892
 20
7.796950792786653
 30
0.0
 11
14.78333882192892
 21
7.790950792786653
 31
0.0
  0
LINE
  5
2C1
330
1F
100
AcDbEntity
  8
Object
100
AcDbLine
 10
15.58933882192892
 20
7.282950792786653
 30
0.0
 11
15.54533882192892
 21
7.289950792786653
 31
0.0
  0
LINE
  5
2C2
330
1F
100
AcDbEntity
  8
Object
100
AcDbLine
 10
15.54533882192892
 20
7.289950792786653
 30
0.0
 11
15.50633882192892
 21
7.309950792786653
 31
0.0
  0
LINE
  5
2C3
330
1F
100
AcDbEntity
  8
Object
100
AcDbLine
 10
16.65333882192892
 20
4.540950792786653
 30
0.0
 11
16.65333882192892
 21
7.794950792786654
 31
0.0
  0
LINE
  5
2C4
330
1F
100
AcDbEntity
  8
Object
100
AcDbLine
 10
16.61233882192892
 20
7.792950792786653
 30
0.0
 11
16.58933882192892
 21
7.792950792786653
 31
0.0
  0
LINE
  5
2C5
330
1F
100
AcDbEntity
  8
Object
100
AcDbLine
 10
16.65333882192892
 20
4.540950792786653
 30
0.0
 11
17.73533882192892
 21
4.615950792786653
 31
0.0
  0
LINE
  5
2C6
330
1F
100
AcDbEntity
  8
Object
100
AcDbLine
 10
16.61033882192892
 20
7.797950792786653
 30
0.0
 11
16.60433882192893
 21
7.797950792786653
 31
0.0
  0
LINE
  5
2C7
330
1F
100
AcDbEntity
  8
Object
100
AcDbLine
 10
16.60433882192893
 20
7.797950792786653
 30
0.0
 11
16.59733882192892
 21
7.796950792786653
 31
0.0
  0
LINE
  5
2C8
330
1F
100
AcDbEntity
  8
Object
100
AcDbLine
 10
16.59733882192892
 20
7.796950792786653
 30
0.0
 11
16.58933882192892
 21
7.796950792786653
 31
0.0
  0
LINE
  5
2C9
330
1F
100
AcDbEntity
  8
Object
100
AcDbLine
 10
19.42233882192892
 20
4.376950792786653
 30
0.0
 11
19.41933882192892
 21
4.376950792786653
 31
0.0
  0
LINE
  5
2CA
330
1F
100
AcDbEntity
  8
Object
100
AcDbLine
 10
19.41933882192892
 20
4.376950792786653
 30
0.0
 11
19.41033882192893
 21
4.376950792786653
 31
0.0
  0
LINE
  5
2CB
330
1F
100
AcDbEntity
  8
Object
100
AcDbLine
 10
19.41033882192893
 20
4.376950792786653
 30
0.0
 11
19.39933882192892
 21
4.376950792786653
 31
0.0
  0
LINE
  5
2CC
330
1F
100
AcDbEntity
  8
Object
100
AcDbLine
 10
19.39933882192892
 20
4.376950792786653
 30
0.0
 11
18.39933882192892
 21
4.376950792786653
 31
0.0
  0
LINE
  5
2CD
102
{ACAD_REACTORS
330
886
102
}
330
1F
100
AcDbEntity
  8
Object
100
AcDbLine
 10
18.39933882192892
 20
4.376950792786653
 30
0.0
 11
18.38733882192892
 21
4.376950792786653
 31
0.0
  0
LINE
  5
2CE
330
1F
100
AcDbEntity
  8
Object
100
AcDbLine
 10
18.38733882192892
 20
4.376950792786653
 30
0.0
 11
18.37833882192892
 21
4.376950792786653
 31
0.0
  0
LINE
  5
2CF
330
1F
100
AcDbEntity
  8
Object
100
AcDbLine
 10
18.37833882192892
 20
4.376950792786653
 30
0.0
 11
18.37533882192893
 21
4.376950792786653
 31
0.0
  0
LINE
  5
2D0
330
1F
100
AcDbEntity
  8
Object
100
AcDbLine
 10
14.83933882192892
 20
7.792950792786653
 30
0.0
 11
14.83933882192892
 21
7.796950792786653
 31
0.0
  0
LINE
  5
2D1
330
1F
100
AcDbEntity
  8
Object
100
AcDbLine
 10
14.58933882192892
 20
7.547950792786653
 30
0.0
 11
14.58933882192892
 21
7.543950792786653
 31
0.0
  0
LINE
  5
2D2
330
1F
100
AcDbEntity
  8
Object
100
AcDbLine
 10
16.58933882192892
 20
7.792950792786653
 30
0.0
 11
16.58933882192892
 21
7.796950792786653
 31
0.0
  0
LINE
  5
2D3
330
1F
100
AcDbEntity
  8
Object
100
AcDbLine
 10
15.58933882192892
 20
7.278950792786654
 30
0.0
 11
15.58933882192892
 21
7.282950792786653
 31
0.0
  0
LINE
  5
2D4
330
1F
100
AcDbEntity
  8
Object
100
AcDbLine
 10
14.58933882192892
 20
4.538950792786653
 30
0.0
 11
14.58933882192892
 21
7.543950792786653
 31
0.0
  0
LINE
  5
2D5
330
1F
100
AcDbEntity
  8
Object
100
AcDbLine
 10
14.58933882192892
 20
7.543950792786653
 30
0.0
 11
14.58933882192892
 21
7.547950792786653
 31
0.0
  0
LINE
  5
2D6
330
1F
100
AcDbEntity
  8
Object
100
AcDbLine
 10
16.61033882192892
 20
7.797950792786653
 30
0.0
 11
16.65333882192892
 21
7.794950792786654
 31
0.0
  0
LINE
  5
2D7
330
1F
100
AcDbEntity
  8
Object
100
AcDbLine
 10
16.65333882192892
 20
7.794950792786654
 30
0.0
 11
16.63433882192892
 21
7.793950792786653
 31
0.0
  0
LINE
  5
2D8
330
1F
100
AcDbEntity
  8
Object
100
AcDbLine
 10
16.63433882192892
 20
7.793950792786653
 30
0.0
 11
16.61233882192892
 21
7.792950792786653
 31
0.0
  0
LINE
  5
2D9
330
1F
100
AcDbEntity
  8
Object
100
AcDbLine
 10
16.65333882192892
 20
7.794950792786654
 30
0.0
 11
17.73533882192892
 21
7.870950792786653
 31
0.0
  0
LINE
  5
2DA
330
1F
100
AcDbEntity
  8
Object
100
AcDbLine
 10
17.73533882192892
 20
7.870950792786653
 30
0.0
 11
17.73533882192892
 21
4.815950792786653
 31
0.0
  0
LINE
  5
2DB
330
1F
100
AcDbEntity
  8
Object
100
AcDbLine
 10
17.73533882192892
 20
4.815950792786653
 30
0.0
 11
17.73533882192892
 21
4.615950792786653
 31
0.0
  0
LINE
  5
2DC
330
1F
100
AcDbEntity
  8
Object
100
AcDbLine
 10
16.61033882192892
 20
7.797950792786653
 30
0.0
 11
17.69333882192892
 21
7.872950792786653
 31
0.0
  0
LINE
  5
2DD
330
1F
100
AcDbEntity
  8
Object
100
AcDbLine
 10
17.69333882192892
 20
7.872950792786653
 30
0.0
 11
17.73533882192892
 21
7.870950792786653
 31
0.0
  0
LINE
  5
2DE
330
1F
100
AcDbEntity
  8
Object
100
AcDbLine
 10
17.75633882192892
 20
7.870950792786653
 30
0.0
 11
17.75633882192892
 21
4.815950792786653
 31
0.0
  0
LINE
  5
2DF
330
1F
100
AcDbEntity
  8
Object
100
AcDbLine
 10
17.75633882192892
 20
4.815950792786653
 30
0.0
 11
19.46933882192892
 21
4.815950792786653
 31
0.0
  0
LINE
  5
2E0
330
1F
100
AcDbEntity
  8
Object
100
AcDbLine
 10
17.75633882192892
 20
4.815950792786653
 30
0.0
 11
17.74933882192893
 21
4.815950792786653
 31
0.0
  0
LINE
  5
2E1
330
1F
100
AcDbEntity
  8
Object
100
AcDbLine
 10
17.74933882192893
 20
4.815950792786653
 30
0.0
 11
17.74133882192893
 21
4.815950792786653
 31
0.0
  0
LINE
  5
2E2
330
1F
100
AcDbEntity
  8
Object
100
AcDbLine
 10
17.74133882192893
 20
4.815950792786653
 30
0.0
 11
17.73533882192892
 21
4.815950792786653
 31
0.0
  0
LINE
  5
2E3
330
1F
100
AcDbEntity
  8
Object
100
AcDbLine
 10
17.75633882192892
 20
7.874950792786653
 30
0.0
 11
17.73333882192892
 21
7.874950792786653
 31
0.0
  0
LINE
  5
2E4
330
1F
100
AcDbEntity
  8
Object
100
AcDbLine
 10
17.73333882192892
 20
7.874950792786653
 30
0.0
 11
17.71133882192892
 21
7.873950792786653
 31
0.0
  0
LINE
  5
2E5
330
1F
100
AcDbEntity
  8
Object
100
AcDbLine
 10
17.71133882192892
 20
7.873950792786653
 30
0.0
 11
17.69333882192892
 21
7.872950792786653
 31
0.0
  0
LINE
  5
2E6
330
1F
100
AcDbEntity
  8
Object
100
AcDbLine
 10
17.75633882192892
 20
7.874950792786653
 30
0.0
 11
17.75633882192892
 21
7.870950792786653
 31
0.0
  0
LINE
  5
2E7
330
1F
100
AcDbEntity
  8
Object
100
AcDbLine
 10
17.75633882192892
 20
7.870950792786653
 30
0.0
 11
17.74933882192893
 21
7.870950792786653
 31
0.0
  0
LINE
  5
2E8
330
1F
100
AcDbEntity
  8
Object
100
AcDbLine
 10
17.74933882192893
 20
7.870950792786653
 30
0.0
 11
17.74133882192893
 21
7.870950792786653
 31
0.0
  0
LINE
  5
2E9
330
1F
100
AcDbEntity
  8
Object
100
AcDbLine
 10
17.74133882192893
 20
7.870950792786653
 30
0.0
 11
17.73533882192892
 21
7.870950792786653
 31
0.0
  0
LINE
  5
2EA
330
1F
100
AcDbEntity
  8
Object
100
AcDbLine
 10
19.71933882192892
 20
5.065950792786653
 30
0.0
 11
19.71933882192892
 21
7.621950792786654
 31
0.0
  0
LINE
  5
2EB
330
1F
100
AcDbEntity
  8
Object
100
AcDbLine
 10
19.47533882192892
 20
7.077950792786653
 30
0.0
 11
19.50433882192892
 21
7.049950792786654
 31
0.0
  0
LINE
  5
2EC
330
1F
100
AcDbEntity
  8
Object
100
AcDbLine
 10
19.57733882192892
 20
7.845950792786653
 30
0.0
 11
19.52433882192892
 21
7.864950792786653
 31
0.0
  0
LINE
  5
2ED
330
1F
100
AcDbEntity
  8
Object
100
AcDbLine
 10
19.52433882192892
 20
7.864950792786653
 30
0.0
 11
19.46933882192892
 21
7.870950792786653
 31
0.0
  0
LINE
  5
2EE
330
1F
100
AcDbEntity
  8
Object
100
AcDbLine
 10
19.57733882192892
 20
7.845950792786653
 30
0.0
 11
19.62433882192893
 21
7.816950792786653
 31
0.0
  0
LINE
  5
2EF
330
1F
100
AcDbEntity
  8
Object
100
AcDbLine
 10
19.62433882192893
 20
7.816950792786653
 30
0.0
 11
19.66433882192892
 21
7.776950792786653
 31
0.0
  0
LINE
  5
2F0
330
1F
100
AcDbEntity
  8
Object
100
AcDbLine
 10
19.66433882192892
 20
7.776950792786653
 30
0.0
 11
19.69433882192893
 21
7.729950792786653
 31
0.0
  0
LINE
  5
2F1
330
1F
100
AcDbEntity
  8
Object
100
AcDbLine
 10
19.69433882192893
 20
7.729950792786653
 30
0.0
 11
19.71233882192892
 21
7.676950792786653
 31
0.0
  0
LINE
  5
2F2
330
1F
100
AcDbEntity
  8
Object
100
AcDbLine
 10
19.71233882192892
 20
7.676950792786653
 30
0.0
 11
19.71933882192892
 21
7.621950792786654
 31
0.0
  0
LINE
  5
2F3
330
1F
100
AcDbEntity
  8
Object
100
AcDbLine
 10
19.71233882192892
 20
5.009950792786654
 30
0.0
 11
19.69433882192893
 21
4.957950792786653
 31
0.0
  0
LINE
  5
2F4
330
1F
100
AcDbEntity
  8
Object
100
AcDbLine
 10
19.69433882192893
 20
4.957950792786653
 30
0.0
 11
19.66433882192892
 21
4.909950792786653
 31
0.0
  0
LINE
  5
2F5
330
1F
100
AcDbEntity
  8
Object
100
AcDbLine
 10
19.66433882192892
 20
4.909950792786653
 30
0.0
 11
19.62433882192893
 21
4.870950792786653
 31
0.0
  0
LINE
  5
2F6
330
1F
100
AcDbEntity
  8
Object
100
AcDbLine
 10
19.62433882192893
 20
4.870950792786653
 30
0.0
 11
19.57733882192892
 21
4.840950792786653
 31
0.0
  0
LINE
  5
2F7
330
1F
100
AcDbEntity
  8
Object
100
AcDbLine
 10
19.57733882192892
 20
4.840950792786653
 30
0.0
 11
19.52433882192892
 21
4.822950792786653
 31
0.0
  0
LINE
  5
2F8
330
1F
100
AcDbEntity
  8
Object
100
AcDbLine
 10
19.52433882192892
 20
4.822950792786653
 30
0.0
 11
19.46933882192892
 21
4.815950792786653
 31
0.0
  0
LINE
  5
2F9
330
1F
100
AcDbEntity
  8
Object
100
AcDbLine
 10
19.71233882192892
 20
5.009950792786654
 30
0.0
 11
19.71933882192892
 21
5.065950792786653
 31
0.0
  0
LINE
  5
2FA
330
1F
100
AcDbEntity
  8
Object
100
AcDbLine
 10
19.43933882192893
 20
7.096950792786653
 30
0.0
 11
19.47533882192892
 21
7.077950792786653
 31
0.0
  0
LINE
  5
2FB
330
1F
100
AcDbEntity
  8
Object
100
AcDbLine
 10
19.47533882192892
 20
5.570950792786653
 30
0.0
 11
19.43933882192893
 21
5.552950792786653
 31
0.0
  0
LINE
  5
2FC
330
1F
100
AcDbEntity
  8
Object
100
AcDbLine
 10
19.39933882192892
 20
7.102950792786653
 30
0.0
 11
19.43933882192893
 21
7.096950792786653
 31
0.0
  0
LINE
  5
2FD
330
1F
100
AcDbEntity
  8
Object
100
AcDbLine
 10
19.43933882192893
 20
5.552950792786653
 30
0.0
 11
19.39933882192892
 21
5.546950792786653
 31
0.0
  0
LINE
  5
2FE
330
1F
100
AcDbEntity
  8
Object
100
AcDbLine
 10
18.39933882192892
 20
7.102950792786653
 30
0.0
 11
19.39933882192892
 21
7.102950792786653
 31
0.0
  0
LINE
  5
2FF
330
1F
100
AcDbEntity
  8
Object
100
AcDbLine
 10
19.39933882192892
 20
5.546950792786653
 30
0.0
 11
18.39933882192892
 21
5.546950792786653
 31
0.0
  0
LINE
  5
300
330
1F
100
AcDbEntity
  8
Object
100
AcDbLine
 10
18.35833882192892
 20
7.096950792786653
 30
0.0
 11
18.39933882192892
 21
7.102950792786653
 31
0.0
  0
LINE
  5
301
330
1F
100
AcDbEntity
  8
Object
100
AcDbLine
 10
19.46933882192892
 20
7.870950792786653
 30
0.0
 11
17.75633882192892
 21
7.870950792786653
 31
0.0
  0
LINE
  5
302
330
1F
100
AcDbEntity
  8
Object
100
AcDbLine
 10
18.35833882192892
 20
7.096950792786653
 30
0.0
 11
18.32233882192893
 21
7.077950792786653
 31
0.0
  0
LINE
  5
303
330
1F
100
AcDbEntity
  8
Object
100
AcDbLine
 10
18.32233882192893
 20
7.077950792786653
 30
0.0
 11
18.29333882192893
 21
7.049950792786654
 31
0.0
  0
LINE
  5
304
330
1F
100
AcDbEntity
  8
Object
100
AcDbLine
 10
18.29333882192893
 20
7.049950792786654
 30
0.0
 11
18.27533882192892
 21
7.012950792786654
 31
0.0
  0
LINE
  5
305
330
1F
100
AcDbEntity
  8
Object
100
AcDbLine
 10
18.27533882192892
 20
7.012950792786654
 30
0.0
 11
18.26933882192892
 21
6.972950792786654
 31
0.0
  0
LINE
  5
306
330
1F
100
AcDbEntity
  8
Object
100
AcDbLine
 10
18.26933882192892
 20
6.972950792786654
 30
0.0
 11
18.26933882192892
 21
5.675950792786653
 31
0.0
  0
LINE
  5
307
330
1F
100
AcDbEntity
  8
Object
100
AcDbLine
 10
18.26933882192892
 20
5.675950792786653
 30
0.0
 11
18.27533882192892
 21
5.635950792786653
 31
0.0
  0
LINE
  5
308
330
1F
100
AcDbEntity
  8
Object
100
AcDbLine
 10
18.27533882192892
 20
5.635950792786653
 30
0.0
 11
18.29333882192893
 21
5.599950792786653
 31
0.0
  0
LINE
  5
309
330
1F
100
AcDbEntity
  8
Object
100
AcDbLine
 10
18.29333882192893
 20
5.599950792786653
 30
0.0
 11
18.32233882192893
 21
5.570950792786653
 31
0.0
  0
LINE
  5
30A
330
1F
100
AcDbEntity
  8
Object
100
AcDbLine
 10
18.32233882192893
 20
5.570950792786653
 30
0.0
 11
18.35833882192892
 21
5.552950792786653
 31
0.0
  0
LINE
  5
30B
330
1F
100
AcDbEntity
  8
Object
100
AcDbLine
 10
18.35833882192892
 20
5.552950792786653
 30
0.0
 11
18.39933882192892
 21
5.546950792786653
 31
0.0
  0
LINE
  5
30C
330
1F
100
AcDbEntity
  8
Object
100
AcDbLine
 10
19.69433882192893
 20
7.733950792786653
 30
0.0
 11
19.71233882192892
 21
7.680950792786653
 31
0.0
  0
LINE
  5
30D
330
1F
100
AcDbEntity
  8
Object
100
AcDbLine
 10
19.71233882192892
 20
7.680950792786653
 30
0.0
 11
19.71933882192892
 21
7.625950792786653
 31
0.0
  0
LINE
  5
30E
330
1F
100
AcDbEntity
  8
Object
100
AcDbLine
 10
19.69433882192893
 20
7.733950792786653
 30
0.0
 11
19.66433882192892
 21
7.780950792786653
 31
0.0
  0
LINE
  5
30F
330
1F
100
AcDbEntity
  8
Object
100
AcDbLine
 10
19.66433882192892
 20
7.780950792786653
 30
0.0
 11
19.62433882192893
 21
7.820950792786653
 31
0.0
  0
LINE
  5
310
330
1F
100
AcDbEntity
  8
Object
100
AcDbLine
 10
19.62433882192893
 20
7.820950792786653
 30
0.0
 11
19.57733882192892
 21
7.850950792786653
 31
0.0
  0
LINE
  5
311
330
1F
100
AcDbEntity
  8
Object
100
AcDbLine
 10
19.57733882192892
 20
7.850950792786653
 30
0.0
 11
19.52433882192892
 21
7.868950792786653
 31
0.0
  0
LINE
  5
312
330
1F
100
AcDbEntity
  8
Object
100
AcDbLine
 10
19.52433882192892
 20
7.868950792786653
 30
0.0
 11
19.46933882192892
 21
7.874950792786653
 31
0.0
  0
LINE
  5
313
330
1F
100
AcDbEntity
  8
Object
100
AcDbLine
 10
19.46933882192892
 20
7.874950792786653
 30
0.0
 11
17.75633882192892
 21
7.874950792786653
 31
0.0
  0
LINE
  5
314
330
1F
100
AcDbEntity
  8
Object
100
AcDbLine
 10
19.46933882192892
 20
7.870950792786653
 30
0.0
 11
19.46933882192892
 21
7.874950792786653
 31
0.0
  0
LINE
  5
315
330
1F
100
AcDbEntity
  8
Object
100
AcDbLine
 10
18.39933882192892
 20
7.083950792786653
 30
0.0
 11
18.39933882192892
 21
7.077950792786653
 31
0.0
  0
LINE
  5
316
330
1F
100
AcDbEntity
  8
Object
100
AcDbLine
 10
18.39933882192892
 20
7.077950792786653
 30
0.0
 11
18.36633882192893
 21
7.071950792786653
 31
0.0
  0
LINE
  5
317
330
1F
100
AcDbEntity
  8
Object
100
AcDbLine
 10
18.39933882192892
 20
7.083950792786653
 30
0.0
 11
18.39933882192892
 21
7.091950792786653
 31
0.0
  0
LINE
  5
318
330
1F
100
AcDbEntity
  8
Object
100
AcDbLine
 10
18.39933882192892
 20
7.101950792786653
 30
0.0
 11
18.39933882192892
 21
7.102950792786653
 31
0.0
  0
LINE
  5
319
330
1F
100
AcDbEntity
  8
Object
100
AcDbLine
 10
18.39933882192892
 20
7.101950792786653
 30
0.0
 11
18.39933882192892
 21
7.100950792786653
 31
0.0
  0
LINE
  5
31A
330
1F
100
AcDbEntity
  8
Object
100
AcDbLine
 10
18.39933882192892
 20
7.100950792786653
 30
0.0
 11
18.39933882192892
 21
7.091950792786653
 31
0.0
  0
LINE
  5
31B
330
1F
100
AcDbEntity
  8
Object
100
AcDbLine
 10
18.36633882192893
 20
7.071950792786653
 30
0.0
 11
18.33733882192893
 21
7.057950792786654
 31
0.0
  0
LINE
  5
31C
330
1F
100
AcDbEntity
  8
Object
100
AcDbLine
 10
18.33733882192893
 20
7.057950792786654
 30
0.0
 11
18.31333882192893
 21
7.033950792786654
 31
0.0
  0
LINE
  5
31D
330
1F
100
AcDbEntity
  8
Object
100
AcDbLine
 10
18.31333882192893
 20
7.033950792786654
 30
0.0
 11
18.29833882192892
 21
7.004950792786654
 31
0.0
  0
LINE
  5
31E
330
1F
100
AcDbEntity
  8
Object
100
AcDbLine
 10
18.29833882192892
 20
7.004950792786654
 30
0.0
 11
18.29333882192893
 21
6.971950792786653
 31
0.0
  0
LINE
  5
31F
330
1F
100
AcDbEntity
  8
Object
100
AcDbLine
 10
19.51933882192892
 20
5.675950792786653
 30
0.0
 11
19.52933882192892
 21
5.675950792786653
 31
0.0
  0
LINE
  5
320
330
1F
100
AcDbEntity
  8
Object
100
AcDbLine
 10
19.52933882192892
 20
5.675950792786653
 30
0.0
 11
19.52233882192892
 21
5.635950792786653
 31
0.0
  0
LINE
  5
321
330
1F
100
AcDbEntity
  8
Object
100
AcDbLine
 10
19.51933882192892
 20
5.675950792786653
 30
0.0
 11
19.51133882192893
 21
5.675950792786653
 31
0.0
  0
LINE
  5
322
330
1F
100
AcDbEntity
  8
Object
100
AcDbLine
 10
19.51133882192893
 20
5.675950792786653
 30
0.0
 11
19.50433882192892
 21
5.674950792786653
 31
0.0
  0
LINE
  5
323
330
1F
100
AcDbEntity
  8
Object
100
AcDbLine
 10
19.52233882192892
 20
5.635950792786653
 30
0.0
 11
19.50433882192892
 21
5.599950792786653
 31
0.0
  0
LINE
  5
324
330
1F
100
AcDbEntity
  8
Object
100
AcDbLine
 10
19.50433882192892
 20
5.599950792786653
 30
0.0
 11
19.47533882192892
 21
5.570950792786653
 31
0.0
  0
LINE
  5
325
330
1F
100
AcDbEntity
  8
Object
100
AcDbLine
 10
19.43133882192892
 20
5.574950792786653
 30
0.0
 11
19.39933882192892
 21
5.569950792786653
 31
0.0
  0
LINE
  5
326
330
1F
100
AcDbEntity
  8
Object
100
AcDbLine
 10
19.51933882192892
 20
6.972950792786654
 30
0.0
 11
19.52933882192892
 21
6.972950792786654
 31
0.0
  0
LINE
  5
327
330
1F
100
AcDbEntity
  8
Object
100
AcDbLine
 10
19.52933882192892
 20
6.972950792786654
 30
0.0
 11
19.52933882192892
 21
5.675950792786653
 31
0.0
  0
LINE
  5
328
330
1F
100
AcDbEntity
  8
Object
100
AcDbLine
 10
18.36633882192893
 20
5.574950792786653
 30
0.0
 11
18.39933882192892
 21
5.569950792786653
 31
0.0
  0
LINE
  5
329
330
1F
100
AcDbEntity
  8
Object
100
AcDbLine
 10
18.39933882192892
 20
5.569950792786653
 30
0.0
 11
18.39933882192892
 21
5.563950792786654
 31
0.0
  0
LINE
  5
32A
330
1F
100
AcDbEntity
  8
Object
100
AcDbLine
 10
18.39933882192892
 20
5.563950792786654
 30
0.0
 11
18.39933882192892
 21
5.555950792786653
 31
0.0
  0
LINE
  5
32B
330
1F
100
AcDbEntity
  8
Object
100
AcDbLine
 10
18.39933882192892
 20
5.555950792786653
 30
0.0
 11
18.39933882192892
 21
5.546950792786653
 31
0.0
  0
LINE
  5
32C
330
1F
100
AcDbEntity
  8
Object
100
AcDbLine
 10
18.36633882192893
 20
5.574950792786653
 30
0.0
 11
18.33733882192893
 21
5.589950792786654
 31
0.0
  0
LINE
  5
32D
330
1F
100
AcDbEntity
  8
Object
100
AcDbLine
 10
18.33733882192893
 20
5.589950792786654
 30
0.0
 11
18.31333882192893
 21
5.613950792786653
 31
0.0
  0
LINE
  5
32E
330
1F
100
AcDbEntity
  8
Object
100
AcDbLine
 10
18.31333882192893
 20
5.613950792786653
 30
0.0
 11
18.29833882192892
 21
5.642950792786653
 31
0.0
  0
LINE
  5
32F
330
1F
100
AcDbEntity
  8
Object
100
AcDbLine
 10
18.28633882192892
 20
5.675950792786653
 30
0.0
 11
18.29333882192893
 21
5.674950792786653
 31
0.0
  0
LINE
  5
330
330
1F
100
AcDbEntity
  8
Object
100
AcDbLine
 10
18.29333882192893
 20
5.674950792786653
 30
0.0
 11
18.29833882192892
 21
5.642950792786653
 31
0.0
  0
LINE
  5
331
330
1F
100
AcDbEntity
  8
Object
100
AcDbLine
 10
18.28633882192892
 20
5.675950792786653
 30
0.0
 11
18.27833882192893
 21
5.675950792786653
 31
0.0
  0
LINE
  5
332
330
1F
100
AcDbEntity
  8
Object
100
AcDbLine
 10
18.27833882192893
 20
5.675950792786653
 30
0.0
 11
18.26933882192892
 21
5.675950792786653
 31
0.0
  0
LINE
  5
333
330
1F
100
AcDbEntity
  8
Object
100
AcDbLine
 10
19.39933882192892
 20
5.563950792786654
 30
0.0
 11
19.39933882192892
 21
5.555950792786653
 31
0.0
  0
LINE
  5
334
330
1F
100
AcDbEntity
  8
Object
100
AcDbLine
 10
19.39933882192892
 20
5.555950792786653
 30
0.0
 11
19.39933882192892
 21
5.546950792786653
 31
0.0
  0
LINE
  5
335
330
1F
100
AcDbEntity
  8
Object
100
AcDbLine
 10
18.39933882192892
 20
5.569950792786653
 30
0.0
 11
19.39933882192892
 21
5.569950792786653
 31
0.0
  0
LINE
  5
336
330
1F
100
AcDbEntity
  8
Object
100
AcDbLine
 10
19.39933882192892
 20
5.569950792786653
 30
0.0
 11
19.39933882192892
 21
5.563950792786654
 31
0.0
  0
LINE
  5
337
330
1F
100
AcDbEntity
  8
Object
100
AcDbLine
 10
19.39933882192892
 20
7.101950792786653
 30
0.0
 11
19.39933882192892
 21
7.102950792786653
 31
0.0
  0
LINE
  5
338
330
1F
100
AcDbEntity
  8
Object
100
AcDbLine
 10
19.39933882192892
 20
7.101950792786653
 30
0.0
 11
19.39933882192892
 21
7.100950792786653
 31
0.0
  0
LINE
  5
339
330
1F
100
AcDbEntity
  8
Object
100
AcDbLine
 10
19.39933882192892
 20
7.100950792786653
 30
0.0
 11
18.39933882192892
 21
7.100950792786653
 31
0.0
  0
LINE
  5
33A
330
1F
100
AcDbEntity
  8
Object
100
AcDbLine
 10
19.52933882192892
 20
6.972950792786654
 30
0.0
 11
19.52233882192892
 21
7.012950792786654
 31
0.0
  0
LINE
  5
33B
330
1F
100
AcDbEntity
  8
Object
100
AcDbLine
 10
19.51933882192892
 20
6.972950792786654
 30
0.0
 11
19.51133882192893
 21
6.972950792786654
 31
0.0
  0
LINE
  5
33C
330
1F
100
AcDbEntity
  8
Object
100
AcDbLine
 10
19.51133882192893
 20
6.972950792786654
 30
0.0
 11
19.50433882192892
 21
6.971950792786653
 31
0.0
  0
LINE
  5
33D
330
1F
100
AcDbEntity
  8
Object
100
AcDbLine
 10
19.52233882192892
 20
7.012950792786654
 30
0.0
 11
19.50433882192892
 21
7.049950792786654
 31
0.0
  0
LINE
  5
33E
330
1F
100
AcDbEntity
  8
Object
100
AcDbLine
 10
19.39933882192892
 20
7.077950792786653
 30
0.0
 11
19.43133882192892
 21
7.071950792786653
 31
0.0
  0
LINE
  5
33F
330
1F
100
AcDbEntity
  8
Object
100
AcDbLine
 10
18.28633882192892
 20
6.972950792786654
 30
0.0
 11
18.29333882192893
 21
6.971950792786653
 31
0.0
  0
LINE
  5
340
330
1F
100
AcDbEntity
  8
Object
100
AcDbLine
 10
18.29333882192893
 20
6.971950792786653
 30
0.0
 11
18.29333882192893
 21
5.674950792786653
 31
0.0
  0
LINE
  5
341
330
1F
100
AcDbEntity
  8
Object
100
AcDbLine
 10
18.28633882192892
 20
6.972950792786654
 30
0.0
 11
18.27833882192893
 21
6.972950792786654
 31
0.0
  0
LINE
  5
342
330
1F
100
AcDbEntity
  8
Object
100
AcDbLine
 10
18.27833882192893
 20
6.972950792786654
 30
0.0
 11
18.26933882192892
 21
6.972950792786654
 31
0.0
  0
LINE
  5
343
330
1F
100
AcDbEntity
  8
Object
100
AcDbLine
 10
19.71933882192892
 20
7.625950792786653
 30
0.0
 11
19.71933882192892
 21
7.621950792786654
 31
0.0
  0
LINE
  5
344
330
1F
100
AcDbEntity
  8
Object
100
AcDbLine
 10
19.71933882192892
 20
7.621950792786654
 30
0.0
 11
19.71933882192892
 21
5.065950792786653
 31
0.0
  0
LINE
  5
345
330
1F
100
AcDbEntity
  8
Object
100
AcDbLine
 10
19.71933882192892
 20
7.621950792786654
 30
0.0
 11
19.71933882192892
 21
7.625950792786653
 31
0.0
  0
LINE
  5
346
330
1F
100
AcDbEntity
  8
Object
100
AcDbLine
 10
18.39933882192892
 20
6.992950792786653
 30
0.0
 11
18.39933882192892
 21
7.024950792786653
 31
0.0
  0
LINE
  5
347
330
1F
100
AcDbEntity
  8
Object
100
AcDbLine
 10
18.37833882192892
 20
6.980950792786654
 30
0.0
 11
18.38733882192892
 21
6.989950792786653
 31
0.0
  0
LINE
  5
348
330
1F
100
AcDbEntity
  8
Object
100
AcDbLine
 10
18.39933882192892
 20
7.024950792786653
 30
0.0
 11
18.39933882192892
 21
7.053950792786653
 31
0.0
  0
LINE
  5
349
330
1F
100
AcDbEntity
  8
Object
100
AcDbLine
 10
18.39933882192892
 20
7.053950792786653
 30
0.0
 11
18.39933882192892
 21
7.077950792786653
 31
0.0
  0
LINE
  5
34A
330
1F
100
AcDbEntity
  8
Object
100
AcDbLine
 10
18.37533882192893
 20
6.968950792786653
 30
0.0
 11
18.37833882192892
 21
6.980950792786654
 31
0.0
  0
LINE
  5
34B
330
1F
100
AcDbEntity
  8
Object
100
AcDbLine
 10
19.39933882192892
 20
7.077950792786653
 30
0.0
 11
19.39933882192892
 21
7.083950792786653
 31
0.0
  0
LINE
  5
34C
330
1F
100
AcDbEntity
  8
Object
100
AcDbLine
 10
19.39933882192892
 20
7.100950792786653
 30
0.0
 11
19.39933882192892
 21
7.091950792786653
 31
0.0
  0
LINE
  5
34D
330
1F
100
AcDbEntity
  8
Object
100
AcDbLine
 10
19.39933882192892
 20
7.091950792786653
 30
0.0
 11
19.39933882192892
 21
7.083950792786653
 31
0.0
  0
LINE
  5
34E
330
1F
100
AcDbEntity
  8
Object
100
AcDbLine
 10
18.39933882192892
 20
7.077950792786653
 30
0.0
 11
19.39933882192892
 21
7.077950792786653
 31
0.0
  0
LINE
  5
34F
330
1F
100
AcDbEntity
  8
Object
100
AcDbLine
 10
19.48233882192893
 20
5.673950792786653
 30
0.0
 11
19.50433882192892
 21
5.674950792786653
 31
0.0
  0
LINE
  5
350
330
1F
100
AcDbEntity
  8
Object
100
AcDbLine
 10
19.50433882192892
 20
5.674950792786653
 30
0.0
 11
19.49933882192892
 21
5.642950792786653
 31
0.0
  0
LINE
  5
351
330
1F
100
AcDbEntity
  8
Object
100
AcDbLine
 10
19.49933882192892
 20
5.642950792786653
 30
0.0
 11
19.48433882192892
 21
5.613950792786653
 31
0.0
  0
LINE
  5
352
330
1F
100
AcDbEntity
  8
Object
100
AcDbLine
 10
19.48233882192893
 20
5.673950792786653
 30
0.0
 11
19.45433882192892
 21
5.672950792786654
 31
0.0
  0
LINE
  5
353
330
1F
100
AcDbEntity
  8
Object
100
AcDbLine
 10
19.48433882192892
 20
5.613950792786653
 30
0.0
 11
19.46133882192892
 21
5.589950792786654
 31
0.0
  0
LINE
  5
354
330
1F
100
AcDbEntity
  8
Object
100
AcDbLine
 10
19.46133882192892
 20
5.589950792786654
 30
0.0
 11
19.43133882192892
 21
5.574950792786653
 31
0.0
  0
LINE
  5
355
330
1F
100
AcDbEntity
  8
Object
100
AcDbLine
 10
19.45433882192892
 20
5.672950792786654
 30
0.0
 11
19.42233882192892
 21
5.672950792786654
 31
0.0
  0
LINE
  5
356
330
1F
100
AcDbEntity
  8
Object
100
AcDbLine
 10
19.41033882192893
 20
5.651950792786653
 30
0.0
 11
19.39933882192892
 21
5.648950792786653
 31
0.0
  0
LINE
  5
357
330
1F
100
AcDbEntity
  8
Object
100
AcDbLine
 10
19.48233882192893
 20
6.970950792786653
 30
0.0
 11
19.50433882192892
 21
6.971950792786653
 31
0.0
  0
LINE
  5
358
330
1F
100
AcDbEntity
  8
Object
100
AcDbLine
 10
19.50433882192892
 20
6.971950792786653
 30
0.0
 11
19.50433882192892
 21
5.674950792786653
 31
0.0
  0
LINE
  5
359
330
1F
100
AcDbEntity
  8
Object
100
AcDbLine
 10
19.48233882192893
 20
6.970950792786653
 30
0.0
 11
19.45433882192892
 21
6.969950792786653
 31
0.0
  0
LINE
  5
35A
330
1F
100
AcDbEntity
  8
Object
100
AcDbLine
 10
19.45433882192892
 20
6.969950792786653
 30
0.0
 11
19.42233882192892
 21
6.968950792786653
 31
0.0
  0
LINE
  5
35B
330
1F
100
AcDbEntity
  8
Object
100
AcDbLine
 10
18.39933882192892
 20
5.617950792786653
 30
0.0
 11
18.39933882192892
 21
5.648950792786653
 31
0.0
  0
LINE
  5
35C
330
1F
100
AcDbEntity
  8
Object
100
AcDbLine
 10
18.38733882192892
 20
5.651950792786653
 30
0.0
 11
18.37833882192892
 21
5.660950792786653
 31
0.0
  0
LINE
  5
35D
330
1F
100
AcDbEntity
  8
Object
100
AcDbLine
 10
18.39933882192892
 20
5.617950792786653
 30
0.0
 11
18.39933882192892
 21
5.590950792786653
 31
0.0
  0
LINE
  5
35E
330
1F
100
AcDbEntity
  8
Object
100
AcDbLine
 10
18.39933882192892
 20
5.590950792786653
 30
0.0
 11
18.39933882192892
 21
5.569950792786653
 31
0.0
  0
LINE
  5
35F
330
1F
100
AcDbEntity
  8
Object
100
AcDbLine
 10
18.37833882192892
 20
5.660950792786653
 30
0.0
 11
18.37533882192893
 21
5.672950792786654
 31
0.0
  0
LINE
  5
360
330
1F
100
AcDbEntity
  8
Object
100
AcDbLine
 10
18.37533882192893
 20
5.672950792786654
 30
0.0
 11
18.34333882192893
 21
5.672950792786654
 31
0.0
  0
LINE
  5
361
330
1F
100
AcDbEntity
  8
Object
100
AcDbLine
 10
18.34333882192893
 20
5.672950792786654
 30
0.0
 11
18.31533882192892
 21
5.673950792786653
 31
0.0
  0
LINE
  5
362
330
1F
100
AcDbEntity
  8
Object
100
AcDbLine
 10
18.31533882192892
 20
5.673950792786653
 30
0.0
 11
18.29333882192893
 21
5.674950792786653
 31
0.0
  0
LINE
  5
363
330
1F
100
AcDbEntity
  8
Object
100
AcDbLine
 10
19.39933882192892
 20
5.648950792786653
 30
0.0
 11
19.39933882192892
 21
5.617950792786653
 31
0.0
  0
LINE
  5
364
330
1F
100
AcDbEntity
  8
Object
100
AcDbLine
 10
19.39933882192892
 20
5.617950792786653
 30
0.0
 11
19.39933882192892
 21
5.590950792786653
 31
0.0
  0
LINE
  5
365
330
1F
100
AcDbEntity
  8
Object
100
AcDbLine
 10
19.39933882192892
 20
5.590950792786653
 30
0.0
 11
19.39933882192892
 21
5.569950792786653
 31
0.0
  0
LINE
  5
366
330
1F
100
AcDbEntity
  8
Object
100
AcDbLine
 10
19.50433882192892
 20
6.971950792786653
 30
0.0
 11
19.49933882192892
 21
7.004950792786654
 31
0.0
  0
LINE
  5
367
330
1F
100
AcDbEntity
  8
Object
100
AcDbLine
 10
19.49933882192892
 20
7.004950792786654
 30
0.0
 11
19.48433882192892
 21
7.033950792786654
 31
0.0
  0
LINE
  5
368
330
1F
100
AcDbEntity
  8
Object
100
AcDbLine
 10
19.48433882192892
 20
7.033950792786654
 30
0.0
 11
19.46133882192892
 21
7.057950792786654
 31
0.0
  0
LINE
  5
369
330
1F
100
AcDbEntity
  8
Object
100
AcDbLine
 10
19.46133882192892
 20
7.057950792786654
 30
0.0
 11
19.43133882192892
 21
7.071950792786653
 31
0.0
  0
LINE
  5
36A
330
1F
100
AcDbEntity
  8
Object
100
AcDbLine
 10
19.39933882192892
 20
6.992950792786653
 30
0.0
 11
19.41033882192893
 21
6.989950792786653
 31
0.0
  0
LINE
  5
36B
330
1F
100
AcDbEntity
  8
Object
100
AcDbLine
 10
18.34333882192893
 20
6.969950792786653
 30
0.0
 11
18.37533882192893
 21
6.968950792786653
 31
0.0
  0
LINE
  5
36C
330
1F
100
AcDbEntity
  8
Object
100
AcDbLine
 10
18.37533882192893
 20
6.968950792786653
 30
0.0
 11
18.37533882192893
 21
5.672950792786654
 31
0.0
  0
LINE
  5
36D
330
1F
100
AcDbEntity
  8
Object
100
AcDbLine
 10
18.34333882192893
 20
6.969950792786653
 30
0.0
 11
18.31533882192892
 21
6.970950792786653
 31
0.0
  0
LINE
  5
36E
330
1F
100
AcDbEntity
  8
Object
100
AcDbLine
 10
18.31533882192892
 20
6.970950792786653
 30
0.0
 11
18.29333882192893
 21
6.971950792786653
 31
0.0
  0
LINE
  5
36F
330
1F
100
AcDbEntity
  8
Object
100
AcDbLine
 10
19.41033882192893
 20
6.989950792786653
 30
0.0
 11
19.41933882192892
 21
6.980950792786654
 31
0.0
  0
LINE
  5
370
330
1F
100
AcDbEntity
  8
Object
100
AcDbLine
 10
19.41933882192892
 20
6.980950792786654
 30
0.0
 11
19.42233882192892
 21
6.968950792786653
 31
0.0
  0
LINE
  5
371
330
1F
100
AcDbEntity
  8
Object
100
AcDbLine
 10
19.42233882192892
 20
5.672950792786654
 30
0.0
 11
19.41933882192892
 21
5.660950792786653
 31
0.0
  0
LINE
  5
372
330
1F
100
AcDbEntity
  8
Object
100
AcDbLine
 10
19.41933882192892
 20
5.660950792786653
 30
0.0
 11
19.41033882192893
 21
5.651950792786653
 31
0.0
  0
LINE
  5
373
330
1F
100
AcDbEntity
  8
Object
100
AcDbLine
 10
18.39933882192892
 20
6.992950792786653
 30
0.0
 11
18.38733882192892
 21
6.989950792786653
 31
0.0
  0
LINE
  5
374
330
1F
100
AcDbEntity
  8
Object
100
AcDbLine
 10
18.38733882192892
 20
5.651950792786653
 30
0.0
 11
18.39933882192892
 21
5.648950792786653
 31
0.0
  0
LINE
  5
375
330
1F
100
AcDbEntity
  8
Object
100
AcDbLine
 10
19.39933882192892
 20
6.992950792786653
 30
0.0
 11
18.39933882192892
 21
6.992950792786653
 31
0.0
  0
LINE
  5
376
330
1F
100
AcDbEntity
  8
Object
100
AcDbLine
 10
19.42233882192892
 20
5.672950792786654
 30
0.0
 11
19.42233882192892
 21
6.968950792786653
 31
0.0
  0
LINE
  5
377
330
1F
100
AcDbEntity
  8
Object
100
AcDbLine
 10
18.39933882192892
 20
5.648950792786653
 30
0.0
 11
19.39933882192892
 21
5.648950792786653
 31
0.0
  0
LINE
  5
378
330
1F
100
AcDbEntity
  8
Object
100
AcDbLine
 10
19.39933882192892
 20
7.077950792786653
 30
0.0
 11
19.39933882192892
 21
7.053950792786653
 31
0.0
  0
LINE
  5
379
330
1F
100
AcDbEntity
  8
Object
100
AcDbLine
 10
19.39933882192892
 20
7.053950792786653
 30
0.0
 11
19.39933882192892
 21
7.024950792786653
 31
0.0
  0
LINE
  5
37A
330
1F
100
AcDbEntity
  8
Object
100
AcDbLine
 10
19.39933882192892
 20
7.024950792786653
 30
0.0
 11
19.39933882192892
 21
6.992950792786653
 31
0.0
  0
LINE
  5
37B
330
1F
100
AcDbEntity
  8
Object
100
AcDbLine
 10
2.524338821928925
 20
4.606950792786653
 30
0.0
 11
2.497338821928927
 21
4.601950792786653
 31
0.0
  0
LINE
  5
37C
330
1F
100
AcDbEntity
  8
Object
100
AcDbLine
 10
2.497338821928927
 20
4.601950792786653
 30
0.0
 11
2.471338821928924
 21
4.584950792786653
 31
0.0
  0
LINE
  5
37D
330
1F
100
AcDbEntity
  8
Object
100
AcDbLine
 10
2.471338821928924
 20
4.584950792786653
 30
0.0
 11
2.461338821928926
 21
4.572950792786653
 31
0.0
  0
LINE
  5
37E
330
1F
100
AcDbEntity
  8
Object
100
AcDbLine
 10
2.461338821928926
 20
4.572950792786653
 30
0.0
 11
2.455338821928926
 21
4.559950792786653
 31
0.0
  0
LINE
  5
37F
330
1F
100
AcDbEntity
  8
Object
100
AcDbLine
 10
2.455338821928926
 20
4.559950792786653
 30
0.0
 11
2.449338821928925
 21
4.531950792786654
 31
0.0
  0
LINE
  5
380
330
1F
100
AcDbEntity
  8
Object
100
AcDbLine
 10
2.449338821928925
 20
4.531950792786654
 30
0.0
 11
2.449338821928925
 21
4.501950792786653
 31
0.0
  0
LINE
  5
381
330
1F
100
AcDbEntity
  8
Object
100
AcDbLine
 10
2.449338821928925
 20
4.501950792786653
 30
0.0
 11
2.448338821928924
 21
4.496950792786654
 31
0.0
  0
LINE
  5
382
330
1F
100
AcDbEntity
  8
Object
100
AcDbLine
 10
2.448338821928924
 20
4.496950792786654
 30
0.0
 11
2.445338821928924
 21
4.491950792786653
 31
0.0
  0
LINE
  5
383
330
1F
100
AcDbEntity
  8
Object
100
AcDbLine
 10
2.445338821928924
 20
4.491950792786653
 30
0.0
 11
2.440338821928925
 21
4.487950792786653
 31
0.0
  0
LINE
  5
384
330
1F
100
AcDbEntity
  8
Object
100
AcDbLine
 10
2.440338821928925
 20
4.487950792786653
 30
0.0
 11
2.434338821928925
 21
4.486950792786654
 31
0.0
  0
LINE
  5
385
330
1F
100
AcDbEntity
  8
Object
100
AcDbLine
 10
10.28433882192892
 20
4.606950792786653
 30
0.0
 11
2.524338821928925
 21
4.606950792786653
 31
0.0
  0
LINE
  5
386
330
1F
100
AcDbEntity
  8
Object
100
AcDbLine
 10
2.449338821928925
 20
4.501950792786653
 30
0.0
 11
10.35933882192892
 21
4.501950792786653
 31
0.0
  0
LINE
  5
387
330
1F
100
AcDbEntity
  8
Object
100
AcDbLine
 10
10.35933882192892
 20
4.501950792786653
 30
0.0
 11
10.36133882192892
 21
4.496950792786654
 31
0.0
  0
LINE
  5
388
330
1F
100
AcDbEntity
  8
Object
100
AcDbLine
 10
10.36133882192892
 20
4.496950792786654
 30
0.0
 11
10.36433882192892
 21
4.491950792786653
 31
0.0
  0
LINE
  5
389
330
1F
100
AcDbEntity
  8
Object
100
AcDbLine
 10
10.36433882192892
 20
4.491950792786653
 30
0.0
 11
10.36933882192892
 21
4.487950792786653
 31
0.0
  0
LINE
  5
38A
330
1F
100
AcDbEntity
  8
Object
100
AcDbLine
 10
10.36933882192892
 20
4.487950792786653
 30
0.0
 11
10.37433882192893
 21
4.486950792786654
 31
0.0
  0
LINE
  5
38B
330
1F
100
AcDbEntity
  8
Object
100
AcDbLine
 10
10.35933882192892
 20
4.501950792786653
 30
0.0
 11
10.35933882192892
 21
4.531950792786654
 31
0.0
  0
LINE
  5
38C
330
1F
100
AcDbEntity
  8
Object
100
AcDbLine
 10
10.35933882192892
 20
4.531950792786654
 30
0.0
 11
2.449338821928925
 21
4.531950792786654
 31
0.0
  0
LINE
  5
38D
330
1F
100
AcDbEntity
  8
Object
100
AcDbLine
 10
2.524338821928925
 20
4.606950792786653
 30
0.0
 11
10.28433882192892
 21
4.606950792786653
 31
0.0
  0
LINE
  5
38E
330
1F
100
AcDbEntity
  8
Object
100
AcDbLine
 10
10.28433882192892
 20
4.606950792786653
 30
0.0
 11
10.31233882192892
 21
4.601950792786653
 31
0.0
  0
LINE
  5
38F
330
1F
100
AcDbEntity
  8
Object
100
AcDbLine
 10
10.31233882192892
 20
4.601950792786653
 30
0.0
 11
10.33733882192892
 21
4.584950792786653
 31
0.0
  0
LINE
  5
390
330
1F
100
AcDbEntity
  8
Object
100
AcDbLine
 10
10.33733882192892
 20
4.584950792786653
 30
0.0
 11
10.34733882192892
 21
4.572950792786653
 31
0.0
  0
LINE
  5
391
330
1F
100
AcDbEntity
  8
Object
100
AcDbLine
 10
10.34733882192892
 20
4.572950792786653
 30
0.0
 11
10.35433882192892
 21
4.559950792786653
 31
0.0
  0
LINE
  5
392
330
1F
100
AcDbEntity
  8
Object
100
AcDbLine
 10
10.35433882192892
 20
4.559950792786653
 30
0.0
 11
10.35933882192892
 21
4.531950792786654
 31
0.0
  0
LINE
  5
393
330
1F
100
AcDbEntity
  8
Object
100
AcDbLine
 10
7.054338821928926
 20
4.426950792786653
 30
0.0
 11
7.054338821928926
 21
4.425950792786653
 31
0.0
  0
LINE
  5
394
330
1F
100
AcDbEntity
  8
Object
100
AcDbLine
 10
7.054338821928926
 20
4.425950792786653
 30
0.0
 11
7.054338821928926
 21
4.419950792786654
 31
0.0
  0
LINE
  5
395
330
1F
100
AcDbEntity
  8
Object
100
AcDbLine
 10
7.168338821928927
 20
4.426950792786653
 30
0.0
 11
7.167338821928925
 21
4.425950792786653
 31
0.0
  0
LINE
  5
396
330
1F
100
AcDbEntity
  8
Object
100
AcDbLine
 10
7.167338821928925
 20
4.425950792786653
 30
0.0
 11
7.160338821928926
 21
4.419950792786654
 31
0.0
  0
LINE
  5
397
330
1F
100
AcDbEntity
  8
Object
100
AcDbLine
 10
5.754338821928925
 20
4.419950792786654
 30
0.0
 11
5.754338821928925
 21
4.425950792786653
 31
0.0
  0
LINE
  5
398
330
1F
100
AcDbEntity
  8
Object
100
AcDbLine
 10
5.754338821928925
 20
4.425950792786653
 30
0.0
 11
5.754338821928925
 21
4.426950792786653
 31
0.0
  0
LINE
  5
399
330
1F
100
AcDbEntity
  8
Object
100
AcDbLine
 10
5.692338821928926
 20
4.419950792786654
 30
0.0
 11
5.722338821928925
 21
4.419950792786654
 31
0.0
  0
LINE
  5
39A
330
1F
100
AcDbEntity
  8
Object
100
AcDbLine
 10
5.654338821928925
 20
4.419950792786654
 30
0.0
 11
5.649338821928925
 21
4.419950792786654
 31
0.0
  0
LINE
  5
39B
330
1F
100
AcDbEntity
  8
Object
100
AcDbLine
 10
5.649338821928925
 20
4.419950792786654
 30
0.0
 11
5.642338821928925
 21
4.425950792786653
 31
0.0
  0
LINE
  5
39C
330
1F
100
AcDbEntity
  8
Object
100
AcDbLine
 10
5.642338821928925
 20
4.425950792786653
 30
0.0
 11
5.640338821928924
 21
4.426950792786653
 31
0.0
  0
LINE
  5
39D
330
1F
100
AcDbEntity
  8
Object
100
AcDbLine
 10
5.649338821928925
 20
4.419950792786654
 30
0.0
 11
5.642338821928925
 21
4.425950792786653
 31
0.0
  0
LINE
  5
39E
330
1F
100
AcDbEntity
  8
Object
100
AcDbLine
 10
5.642338821928925
 20
4.425950792786653
 30
0.0
 11
5.640338821928924
 21
4.426950792786653
 31
0.0
  0
LINE
  5
39F
330
1F
100
AcDbEntity
  8
Object
100
AcDbLine
 10
7.168338821928927
 20
4.426950792786653
 30
0.0
 11
7.167338821928925
 21
4.425950792786653
 31
0.0
  0
LINE
  5
3A0
330
1F
100
AcDbEntity
  8
Object
100
AcDbLine
 10
7.167338821928925
 20
4.425950792786653
 30
0.0
 11
7.160338821928926
 21
4.419950792786654
 31
0.0
  0
LINE
  5
3A1
330
1F
100
AcDbEntity
  8
Object
100
AcDbLine
 10
10.37433882192893
 20
4.486950792786654
 30
0.0
 11
2.434338821928925
 21
4.486950792786654
 31
0.0
  0
LINE
  5
3A2
330
1F
100
AcDbEntity
  8
Object
100
AcDbLine
 10
10.49433882192892
 20
4.538950792786653
 30
0.0
 11
10.48633882192892
 21
4.503950792786653
 31
0.0
  0
LINE
  5
3A3
330
1F
100
AcDbEntity
  8
Object
100
AcDbLine
 10
10.48633882192892
 20
4.503950792786653
 30
0.0
 11
10.46933882192892
 21
4.472950792786653
 31
0.0
  0
LINE
  5
3A4
330
1F
100
AcDbEntity
  8
Object
100
AcDbLine
 10
10.46933882192892
 20
4.472950792786653
 30
0.0
 11
10.44233882192892
 21
4.447950792786653
 31
0.0
  0
LINE
  5
3A5
330
1F
100
AcDbEntity
  8
Object
100
AcDbLine
 10
10.44233882192892
 20
4.447950792786653
 30
0.0
 11
10.41033882192892
 21
4.432950792786654
 31
0.0
  0
LINE
  5
3A6
330
1F
100
AcDbEntity
  8
Object
100
AcDbLine
 10
10.41033882192892
 20
4.432950792786654
 30
0.0
 11
10.37433882192893
 21
4.426950792786653
 31
0.0
  0
LINE
  5
3A7
330
1F
100
AcDbEntity
  8
Object
100
AcDbLine
 10
10.43433882192892
 20
4.542950792786653
 30
0.0
 11
10.42533882192892
 21
4.514950792786653
 31
0.0
  0
LINE
  5
3A8
330
1F
100
AcDbEntity
  8
Object
100
AcDbLine
 10
10.42533882192892
 20
4.514950792786653
 30
0.0
 11
10.40333882192892
 21
4.494950792786653
 31
0.0
  0
LINE
  5
3A9
330
1F
100
AcDbEntity
  8
Object
100
AcDbLine
 10
10.40333882192892
 20
4.494950792786653
 30
0.0
 11
10.37433882192893
 21
4.486950792786654
 31
0.0
  0
LINE
  5
3AA
330
1F
100
AcDbEntity
  8
Object
100
AcDbLine
 10
10.43433882192892
 20
4.542950792786653
 30
0.0
 11
10.43333882192892
 21
4.542950792786653
 31
0.0
  0
LINE
  5
3AB
330
1F
100
AcDbEntity
  8
Object
100
AcDbLine
 10
10.43333882192892
 20
4.542950792786653
 30
0.0
 11
10.43033882192892
 21
4.542950792786653
 31
0.0
  0
LINE
  5
3AC
330
1F
100
AcDbEntity
  8
Object
100
AcDbLine
 10
10.42933882192892
 20
4.542950792786653
 30
0.0
 11
10.43833882192892
 21
4.542950792786653
 31
0.0
  0
LINE
  5
3AD
330
1F
100
AcDbEntity
  8
Object
100
AcDbLine
 10
10.42633882192892
 20
4.543950792786653
 30
0.0
 11
10.43033882192892
 21
4.542950792786653
 31
0.0
  0
LINE
  5
3AE
330
1F
100
AcDbEntity
  8
Object
100
AcDbLine
 10
2.434338821928925
 20
4.426950792786653
 30
0.0
 11
10.37433882192893
 21
4.426950792786653
 31
0.0
  0
LINE
  5
3AF
330
1F
100
AcDbEntity
  8
Object
100
AcDbLine
 10
2.434338821928925
 20
4.486950792786654
 30
0.0
 11
2.405338821928925
 21
4.494950792786653
 31
0.0
  0
LINE
  5
3B0
330
1F
100
AcDbEntity
  8
Object
100
AcDbLine
 10
2.405338821928925
 20
4.494950792786653
 30
0.0
 11
2.384338821928924
 21
4.514950792786653
 31
0.0
  0
LINE
  5
3B1
330
1F
100
AcDbEntity
  8
Object
100
AcDbLine
 10
2.384338821928924
 20
4.514950792786653
 30
0.0
 11
2.374338821928926
 21
4.542950792786653
 31
0.0
  0
LINE
  5
3B2
330
1F
100
AcDbEntity
  8
Object
100
AcDbLine
 10
2.434338821928925
 20
4.426950792786653
 30
0.0
 11
2.399338821928925
 21
4.432950792786654
 31
0.0
  0
LINE
  5
3B3
330
1F
100
AcDbEntity
  8
Object
100
AcDbLine
 10
2.399338821928925
 20
4.432950792786654
 30
0.0
 11
2.366338821928927
 21
4.447950792786653
 31
0.0
  0
LINE
  5
3B4
330
1F
100
AcDbEntity
  8
Object
100
AcDbLine
 10
2.366338821928927
 20
4.447950792786653
 30
0.0
 11
2.340338821928924
 21
4.472950792786653
 31
0.0
  0
LINE
  5
3B5
330
1F
100
AcDbEntity
  8
Object
100
AcDbLine
 10
2.340338821928924
 20
4.472950792786653
 30
0.0
 11
2.322338821928926
 21
4.503950792786653
 31
0.0
  0
LINE
  5
3B6
330
1F
100
AcDbEntity
  8
Object
100
AcDbLine
 10
2.322338821928926
 20
4.503950792786653
 30
0.0
 11
2.315338821928925
 21
4.538950792786653
 31
0.0
  0
LINE
  5
3B7
330
1F
100
AcDbEntity
  8
Object
100
AcDbLine
 10
2.383338821928926
 20
4.543950792786653
 30
0.0
 11
2.378338821928924
 21
4.542950792786653
 31
0.0
  0
LINE
  5
3B8
330
1F
100
AcDbEntity
  8
Object
100
AcDbLine
 10
2.378338821928924
 20
4.542950792786653
 30
0.0
 11
2.375338821928927
 21
4.542950792786653
 31
0.0
  0
LINE
  5
3B9
330
1F
100
AcDbEntity
  8
Object
100
AcDbLine
 10
2.375338821928927
 20
4.542950792786653
 30
0.0
 11
2.374338821928926
 21
4.542950792786653
 31
0.0
  0
LINE
  5
3BA
330
1F
100
AcDbEntity
  8
Object
100
AcDbLine
 10
2.374338821928926
 20
4.542950792786653
 30
0.0
 11
2.376338821928925
 21
4.542950792786653
 31
0.0
  0
LINE
  5
3BB
330
1F
100
AcDbEntity
  8
Object
100
AcDbLine
 10
7.054338821928926
 20
4.396950792786653
 30
0.0
 11
7.054338821928926
 21
4.419950792786654
 31
0.0
  0
LINE
  5
3BC
330
1F
100
AcDbEntity
  8
Object
100
AcDbLine
 10
7.054338821928926
 20
4.419950792786654
 30
0.0
 11
5.754338821928925
 21
4.419950792786654
 31
0.0
  0
LINE
  5
3BD
330
1F
100
AcDbEntity
  8
Object
100
AcDbLine
 10
7.054338821928926
 20
4.396950792786653
 30
0.0
 11
7.054338821928926
 21
4.381950792786653
 31
0.0
  0
LINE
  5
3BE
330
1F
100
AcDbEntity
  8
Object
100
AcDbLine
 10
7.054338821928926
 20
4.381950792786653
 30
0.0
 11
7.054338821928926
 21
4.376950792786653
 31
0.0
  0
LINE
  5
3BF
330
1F
100
AcDbEntity
  8
Object
100
AcDbLine
 10
7.054338821928926
 20
4.376950792786653
 30
0.0
 11
5.754338821928925
 21
4.376950792786653
 31
0.0
  0
LINE
  5
3C0
330
1F
100
AcDbEntity
  8
Object
100
AcDbLine
 10
7.155338821928925
 20
4.419950792786654
 30
0.0
 11
7.160338821928926
 21
4.419950792786654
 31
0.0
  0
LINE
  5
3C1
330
1F
100
AcDbEntity
  8
Object
100
AcDbLine
 10
7.160338821928926
 20
4.419950792786654
 30
0.0
 11
7.138338821928925
 21
4.396950792786653
 31
0.0
  0
LINE
  5
3C2
330
1F
100
AcDbEntity
  8
Object
100
AcDbLine
 10
7.155338821928925
 20
4.419950792786654
 30
0.0
 11
7.140338821928924
 21
4.419950792786654
 31
0.0
  0
LINE
  5
3C3
330
1F
100
AcDbEntity
  8
Object
100
AcDbLine
 10
7.131338821928926
 20
4.392950792786653
 30
0.0
 11
7.138338821928925
 21
4.396950792786653
 31
0.0
  0
LINE
  5
3C4
330
1F
100
AcDbEntity
  8
Object
100
AcDbLine
 10
7.140338821928924
 20
4.419950792786654
 30
0.0
 11
7.116338821928925
 21
4.419950792786654
 31
0.0
  0
LINE
  5
3C5
330
1F
100
AcDbEntity
  8
Object
100
AcDbLine
 10
7.110338821928927
 20
4.381950792786653
 30
0.0
 11
7.131338821928926
 21
4.392950792786653
 31
0.0
  0
LINE
  5
3C6
330
1F
100
AcDbEntity
  8
Object
100
AcDbLine
 10
7.116338821928925
 20
4.419950792786654
 30
0.0
 11
7.087338821928925
 21
4.419950792786654
 31
0.0
  0
LINE
  5
3C7
330
1F
100
AcDbEntity
  8
Object
100
AcDbLine
 10
7.110338821928927
 20
4.381950792786653
 30
0.0
 11
7.094338821928925
 21
4.378950792786653
 31
0.0
  0
LINE
  5
3C8
330
1F
100
AcDbEntity
  8
Object
100
AcDbLine
 10
7.094338821928925
 20
4.378950792786653
 30
0.0
 11
7.078338821928927
 21
4.376950792786653
 31
0.0
  0
LINE
  5
3C9
330
1F
100
AcDbEntity
  8
Object
100
AcDbLine
 10
7.078338821928927
 20
4.376950792786653
 30
0.0
 11
7.075338821928927
 21
4.376950792786653
 31
0.0
  0
LINE
  5
3CA
330
1F
100
AcDbEntity
  8
Object
100
AcDbLine
 10
7.075338821928927
 20
4.376950792786653
 30
0.0
 11
7.066338821928926
 21
4.376950792786653
 31
0.0
  0
LINE
  5
3CB
330
1F
100
AcDbEntity
  8
Object
100
AcDbLine
 10
7.066338821928926
 20
4.376950792786653
 30
0.0
 11
7.054338821928926
 21
4.376950792786653
 31
0.0
  0
LINE
  5
3CC
330
1F
100
AcDbEntity
  8
Object
100
AcDbLine
 10
7.087338821928925
 20
4.419950792786654
 30
0.0
 11
7.054338821928926
 21
4.419950792786654
 31
0.0
  0
LINE
  5
3CD
330
1F
100
AcDbEntity
  8
Object
100
AcDbLine
 10
5.754338821928925
 20
4.381950792786653
 30
0.0
 11
5.754338821928925
 21
4.376950792786653
 31
0.0
  0
LINE
  5
3CE
330
1F
100
AcDbEntity
  8
Object
100
AcDbLine
 10
5.754338821928925
 20
4.376950792786653
 30
0.0
 11
5.742338821928925
 21
4.376950792786653
 31
0.0
  0
LINE
  5
3CF
330
1F
100
AcDbEntity
  8
Object
100
AcDbLine
 10
5.742338821928925
 20
4.376950792786653
 30
0.0
 11
5.734338821928925
 21
4.376950792786653
 31
0.0
  0
LINE
  5
3D0
330
1F
100
AcDbEntity
  8
Object
100
AcDbLine
 10
5.754338821928925
 20
4.381950792786653
 30
0.0
 11
5.754338821928925
 21
4.396950792786653
 31
0.0
  0
LINE
  5
3D1
330
1F
100
AcDbEntity
  8
Object
100
AcDbLine
 10
5.722338821928925
 20
4.419950792786654
 30
0.0
 11
5.754338821928925
 21
4.419950792786654
 31
0.0
  0
LINE
  5
3D2
330
1F
100
AcDbEntity
  8
Object
100
AcDbLine
 10
5.754338821928925
 20
4.419950792786654
 30
0.0
 11
5.754338821928925
 21
4.396950792786653
 31
0.0
  0
LINE
  5
3D3
330
1F
100
AcDbEntity
  8
Object
100
AcDbLine
 10
5.734338821928925
 20
4.376950792786653
 30
0.0
 11
5.731338821928925
 21
4.376950792786653
 31
0.0
  0
LINE
  5
3D4
330
1F
100
AcDbEntity
  8
Object
100
AcDbLine
 10
5.731338821928925
 20
4.376950792786653
 30
0.0
 11
5.715338821928925
 21
4.378950792786653
 31
0.0
  0
LINE
  5
3D5
330
1F
100
AcDbEntity
  8
Object
100
AcDbLine
 10
5.715338821928925
 20
4.378950792786653
 30
0.0
 11
5.699338821928925
 21
4.381950792786653
 31
0.0
  0
LINE
  5
3D6
330
1F
100
AcDbEntity
  8
Object
100
AcDbLine
 10
5.699338821928925
 20
4.381950792786653
 30
0.0
 11
5.678338821928925
 21
4.392950792786653
 31
0.0
  0
LINE
  5
3D7
330
1F
100
AcDbEntity
  8
Object
100
AcDbLine
 10
5.692338821928926
 20
4.419950792786654
 30
0.0
 11
5.669338821928924
 21
4.419950792786654
 31
0.0
  0
LINE
  5
3D8
330
1F
100
AcDbEntity
  8
Object
100
AcDbLine
 10
5.669338821928924
 20
4.419950792786654
 30
0.0
 11
5.654338821928925
 21
4.419950792786654
 31
0.0
  0
LINE
  5
3D9
330
1F
100
AcDbEntity
  8
Object
100
AcDbLine
 10
5.678338821928925
 20
4.392950792786653
 30
0.0
 11
5.671338821928927
 21
4.396950792786653
 31
0.0
  0
LINE
  5
3DA
330
1F
100
AcDbEntity
  8
Object
100
AcDbLine
 10
5.671338821928927
 20
4.396950792786653
 30
0.0
 11
5.649338821928925
 21
4.419950792786654
 31
0.0
  0
LINE
  5
3DB
330
1F
100
AcDbEntity
  8
Object
100
AcDbLine
 10
5.649338821928925
 20
4.419950792786654
 30
0.0
 11
5.671338821928927
 21
4.396950792786653
 31
0.0
  0
LINE
  5
3DC
330
1F
100
AcDbEntity
  8
Object
100
AcDbLine
 10
7.138338821928925
 20
4.396950792786653
 30
0.0
 11
7.160338821928926
 21
4.419950792786654
 31
0.0
  0
LINE
  5
3DD
330
1F
100
AcDbEntity
  8
Object
100
AcDbLine
 10
2.434338821928925
 20
4.486950792786654
 30
0.0
 11
10.37433882192893
 21
4.486950792786654
 31
0.0
  0
LINE
  5
3DE
330
1F
100
AcDbEntity
  8
Object
100
AcDbLine
 10
10.37433882192893
 20
4.486950792786654
 30
0.0
 11
10.37433882192893
 21
4.426950792786653
 31
0.0
  0
LINE
  5
3DF
330
1F
100
AcDbEntity
  8
Object
100
AcDbLine
 10
10.37433882192893
 20
4.426950792786653
 30
0.0
 11
2.434338821928925
 21
4.426950792786653
 31
0.0
  0
LINE
  5
3E0
330
1F
100
AcDbEntity
  8
Object
100
AcDbLine
 10
10.72233882192892
 20
7.792950792786653
 30
0.0
 11
10.72133882192892
 21
7.786950792786654
 31
0.0
  0
LINE
  5
3E1
330
1F
100
AcDbEntity
  8
Object
100
AcDbLine
 10
10.72133882192892
 20
7.786950792786654
 30
0.0
 11
10.72033882192892
 21
7.767950792786654
 31
0.0
  0
LINE
  5
3E2
330
1F
100
AcDbEntity
  8
Object
100
AcDbLine
 10
10.72033882192892
 20
7.767950792786654
 30
0.0
 11
10.71833882192892
 21
7.738950792786654
 31
0.0
  0
LINE
  5
3E3
330
1F
100
AcDbEntity
  8
Object
100
AcDbLine
 10
10.71833882192892
 20
7.738950792786654
 30
0.0
 11
10.71533882192892
 21
7.698950792786654
 31
0.0
  0
LINE
  5
3E4
330
1F
100
AcDbEntity
  8
Object
100
AcDbLine
 10
10.71533882192892
 20
7.698950792786654
 30
0.0
 11
10.71233882192892
 21
7.651950792786653
 31
0.0
  0
LINE
  5
3E5
330
1F
100
AcDbEntity
  8
Object
100
AcDbLine
 10
10.71233882192892
 20
7.651950792786653
 30
0.0
 11
10.70833882192892
 21
7.598950792786653
 31
0.0
  0
LINE
  5
3E6
330
1F
100
AcDbEntity
  8
Object
100
AcDbLine
 10
10.70533882192892
 20
7.556950792786653
 30
0.0
 11
10.70533882192892
 21
7.551950792786653
 31
0.0
  0
LINE
  5
3E7
330
1F
100
AcDbEntity
  8
Object
100
AcDbLine
 10
10.70433882192892
 20
7.543950792786653
 30
0.0
 11
10.70833882192892
 21
7.598950792786653
 31
0.0
  0
LINE
  5
3E8
330
1F
100
AcDbEntity
  8
Object
100
AcDbLine
 10
10.70533882192892
 20
7.551950792786653
 30
0.0
 11
10.70333882192892
 21
7.538950792786653
 31
0.0
  0
LINE
  5
3E9
330
1F
100
AcDbEntity
  8
Object
100
AcDbLine
 10
10.70033882192892
 20
7.498950792786653
 30
0.0
 11
10.69933882192892
 21
7.461950792786653
 31
0.0
  0
LINE
  5
3EA
330
1F
100
AcDbEntity
  8
Object
100
AcDbLine
 10
10.69933882192892
 20
7.461950792786653
 30
0.0
 11
10.69633882192892
 21
7.418950792786653
 31
0.0
  0
LINE
  5
3EB
330
1F
100
AcDbEntity
  8
Object
100
AcDbLine
 10
10.69633882192892
 20
7.418950792786653
 30
0.0
 11
10.69333882192892
 21
7.375950792786653
 31
0.0
  0
LINE
  5
3EC
330
1F
100
AcDbEntity
  8
Object
100
AcDbLine
 10
10.69333882192892
 20
7.375950792786653
 30
0.0
 11
10.69033882192892
 21
7.336950792786653
 31
0.0
  0
LINE
  5
3ED
330
1F
100
AcDbEntity
  8
Object
100
AcDbLine
 10
10.69033882192892
 20
7.336950792786653
 30
0.0
 11
10.68833882192892
 21
7.305950792786653
 31
0.0
  0
LINE
  5
3EE
330
1F
100
AcDbEntity
  8
Object
100
AcDbLine
 10
10.68833882192892
 20
7.305950792786653
 30
0.0
 11
10.68633882192892
 21
7.285950792786653
 31
0.0
  0
LINE
  5
3EF
330
1F
100
AcDbEntity
  8
Object
100
AcDbLine
 10
10.68633882192892
 20
7.285950792786653
 30
0.0
 11
10.68633882192892
 21
7.278950792786654
 31
0.0
  0
LINE
  5
3F0
330
1F
100
AcDbEntity
  8
Object
100
AcDbLine
 10
10.70433882192892
 20
7.543950792786653
 30
0.0
 11
10.49433882192892
 21
4.538950792786653
 31
0.0
  0
LINE
  5
3F1
330
1F
100
AcDbEntity
  8
Object
100
AcDbLine
 10
10.49433882192892
 20
4.538950792786653
 30
0.0
 11
10.68533882192892
 21
7.278950792786654
 31
0.0
  0
LINE
  5
3F2
330
1F
100
AcDbEntity
  8
Object
100
AcDbLine
 10
10.68733882192892
 20
7.299950792786654
 30
0.0
 11
10.68633882192892
 21
7.278950792786654
 31
0.0
  0
LINE
  5
3F3
330
1F
100
AcDbEntity
  8
Object
100
AcDbLine
 10
10.69033882192892
 20
7.338950792786653
 30
0.0
 11
10.68933882192892
 21
7.332950792786653
 31
0.0
  0
LINE
  5
3F4
330
1F
100
AcDbEntity
  8
Object
100
AcDbLine
 10
10.72233882192892
 20
7.792950792786653
 30
0.0
 11
10.69933882192892
 21
7.471950792786653
 31
0.0
  0
LINE
  5
3F5
330
1F
100
AcDbEntity
  8
Object
100
AcDbLine
 10
10.43433882192892
 20
4.542950792786653
 30
0.0
 11
10.49433882192892
 21
4.538950792786653
 31
0.0
  0
LINE
  5
3F6
330
1F
100
AcDbEntity
  8
Object
100
AcDbLine
 10
10.49433882192892
 20
4.538950792786653
 30
0.0
 11
10.48633882192892
 21
4.503950792786653
 31
0.0
  0
LINE
  5
3F7
330
1F
100
AcDbEntity
  8
Object
100
AcDbLine
 10
10.43433882192892
 20
4.542950792786653
 30
0.0
 11
10.42533882192892
 21
4.514950792786653
 31
0.0
  0
LINE
  5
3F8
330
1F
100
AcDbEntity
  8
Object
100
AcDbLine
 10
10.48633882192892
 20
4.503950792786653
 30
0.0
 11
10.46933882192892
 21
4.472950792786653
 31
0.0
  0
LINE
  5
3F9
330
1F
100
AcDbEntity
  8
Object
100
AcDbLine
 10
10.46933882192892
 20
4.472950792786653
 30
0.0
 11
10.44233882192892
 21
4.447950792786653
 31
0.0
  0
LINE
  5
3FA
330
1F
100
AcDbEntity
  8
Object
100
AcDbLine
 10
10.44233882192892
 20
4.447950792786653
 30
0.0
 11
10.41033882192892
 21
4.432950792786654
 31
0.0
  0
LINE
  5
3FB
330
1F
100
AcDbEntity
  8
Object
100
AcDbLine
 10
10.42533882192892
 20
4.514950792786653
 30
0.0
 11
10.40333882192892
 21
4.494950792786653
 31
0.0
  0
LINE
  5
3FC
330
1F
100
AcDbEntity
  8
Object
100
AcDbLine
 10
10.40333882192892
 20
4.494950792786653
 30
0.0
 11
10.37433882192893
 21
4.486950792786654
 31
0.0
  0
LINE
  5
3FD
330
1F
100
AcDbEntity
  8
Object
100
AcDbLine
 10
10.37433882192893
 20
4.426950792786653
 30
0.0
 11
10.41033882192892
 21
4.432950792786654
 31
0.0
  0
LINE
  5
3FE
330
1F
100
AcDbEntity
  8
Object
100
AcDbLine
 10
10.66233882192892
 20
7.796950792786653
 30
0.0
 11
10.66133882192892
 21
7.790950792786653
 31
0.0
  0
LINE
  5
3FF
330
1F
100
AcDbEntity
  8
Object
100
AcDbLine
 10
10.66133882192892
 20
7.790950792786653
 30
0.0
 11
10.66033882192892
 21
7.772950792786653
 31
0.0
  0
LINE
  5
400
330
1F
100
AcDbEntity
  8
Object
100
AcDbLine
 10
10.66033882192892
 20
7.772950792786653
 30
0.0
 11
10.65833882192892
 21
7.742950792786653
 31
0.0
  0
LINE
  5
401
330
1F
100
AcDbEntity
  8
Object
100
AcDbLine
 10
10.65833882192892
 20
7.742950792786653
 30
0.0
 11
10.65533882192892
 21
7.702950792786653
 31
0.0
  0
LINE
  5
402
330
1F
100
AcDbEntity
  8
Object
100
AcDbLine
 10
10.65533882192892
 20
7.702950792786653
 30
0.0
 11
10.65233882192892
 21
7.655950792786653
 31
0.0
  0
LINE
  5
403
330
1F
100
AcDbEntity
  8
Object
100
AcDbLine
 10
10.65233882192892
 20
7.655950792786653
 30
0.0
 11
10.64833882192892
 21
7.602950792786653
 31
0.0
  0
LINE
  5
404
330
1F
100
AcDbEntity
  8
Object
100
AcDbLine
 10
10.64833882192892
 20
7.602950792786653
 30
0.0
 11
10.64433882192892
 21
7.547950792786653
 31
0.0
  0
LINE
  5
405
330
1F
100
AcDbEntity
  8
Object
100
AcDbLine
 10
10.64133882192892
 20
7.507950792786653
 30
0.0
 11
10.64133882192892
 21
7.505950792786653
 31
0.0
  0
LINE
  5
406
330
1F
100
AcDbEntity
  8
Object
100
AcDbLine
 10
10.64133882192892
 20
7.505950792786653
 30
0.0
 11
10.64033882192892
 21
7.501950792786653
 31
0.0
  0
LINE
  5
407
330
1F
100
AcDbEntity
  8
Object
100
AcDbLine
 10
10.64433882192892
 20
7.547950792786653
 30
0.0
 11
10.43433882192892
 21
4.542950792786653
 31
0.0
  0
LINE
  5
408
330
1F
100
AcDbEntity
  8
Object
100
AcDbLine
 10
10.69933882192892
 20
7.471950792786653
 30
0.0
 11
10.72233882192892
 21
7.792950792786653
 31
0.0
  0
LINE
  5
409
330
1F
100
AcDbEntity
  8
Object
100
AcDbLine
 10
10.68933882192892
 20
7.332950792786653
 30
0.0
 11
10.69033882192892
 21
7.338950792786653
 31
0.0
  0
LINE
  5
40A
330
1F
100
AcDbEntity
  8
Object
100
AcDbLine
 10
10.68633882192892
 20
7.278950792786654
 30
0.0
 11
10.68733882192892
 21
7.299950792786654
 31
0.0
  0
LINE
  5
40B
330
1F
100
AcDbEntity
  8
Object
100
AcDbLine
 10
10.49433882192892
 20
4.538950792786653
 30
0.0
 11
10.68533882192892
 21
7.278950792786654
 31
0.0
  0
LINE
  5
40C
330
1F
100
AcDbEntity
  8
Object
100
AcDbLine
 10
10.42933882192892
 20
4.542950792786653
 30
0.0
 11
10.43833882192892
 21
4.542950792786653
 31
0.0
  0
LINE
  5
40D
330
1F
100
AcDbEntity
  8
Object
100
AcDbLine
 10
9.516338821928925
 20
4.606950792786653
 30
0.0
 11
9.388338821928925
 21
4.615950792786653
 31
0.0
  0
LINE
  5
40E
330
1F
100
AcDbEntity
  8
Object
100
AcDbLine
 10
10.42733882192892
 20
4.542950792786653
 30
0.0
 11
10.35633882192892
 21
4.547950792786654
 31
0.0
  0
LINE
  5
40F
330
1F
100
AcDbEntity
  8
Object
100
AcDbLine
 10
10.43333882192892
 20
4.542950792786653
 30
0.0
 11
10.43233882192892
 21
4.542950792786653
 31
0.0
  0
LINE
  5
410
330
1F
100
AcDbEntity
  8
Object
100
AcDbLine
 10
10.35633882192892
 20
4.547950792786654
 30
0.0
 11
10.42633882192892
 21
4.543950792786653
 31
0.0
  0
LINE
  5
411
330
1F
100
AcDbEntity
  8
Object
100
AcDbLine
 10
9.517338821928925
 20
4.606950792786653
 30
0.0
 11
9.346338821928926
 21
4.618950792786653
 31
0.0
  0
LINE
  5
412
330
1F
100
AcDbEntity
  8
Object
100
AcDbLine
 10
9.346338821928926
 20
4.618950792786653
 30
0.0
 11
9.388338821928925
 21
4.615950792786653
 31
0.0
  0
LINE
  5
413
330
1F
100
AcDbEntity
  8
Object
100
AcDbLine
 10
10.66233882192892
 20
7.796950792786653
 30
0.0
 11
10.66133882192892
 21
7.796950792786653
 31
0.0
  0
LINE
  5
414
330
1F
100
AcDbEntity
  8
Object
100
AcDbLine
 10
10.43333882192892
 20
4.542950792786653
 30
0.0
 11
10.43433882192892
 21
4.542950792786653
 31
0.0
  0
LINE
  5
415
330
1F
100
AcDbEntity
  8
Object
100
AcDbLine
 10
10.66133882192892
 20
7.796950792786653
 30
0.0
 11
10.65833882192892
 21
7.797950792786653
 31
0.0
  0
LINE
  5
416
330
1F
100
AcDbEntity
  8
Object
100
AcDbLine
 10
10.43333882192892
 20
4.542950792786653
 30
0.0
 11
10.43033882192892
 21
4.542950792786653
 31
0.0
  0
LINE
  5
417
330
1F
100
AcDbEntity
  8
Object
100
AcDbLine
 10
10.43033882192892
 20
4.542950792786653
 30
0.0
 11
10.42633882192892
 21
4.543950792786653
 31
0.0
  0
LINE
  5
418
330
1F
100
AcDbEntity
  8
Object
100
AcDbLine
 10
10.65833882192892
 20
7.797950792786653
 30
0.0
 11
10.65333882192892
 21
7.797950792786653
 31
0.0
  0
LINE
  5
419
330
1F
100
AcDbEntity
  8
Object
100
AcDbLine
 10
2.405338821928925
 20
4.494950792786653
 30
0.0
 11
2.434338821928925
 21
4.486950792786654
 31
0.0
  0
LINE
  5
41A
330
1F
100
AcDbEntity
  8
Object
100
AcDbLine
 10
2.434338821928925
 20
4.486950792786654
 30
0.0
 11
2.434338821928925
 21
4.426950792786653
 31
0.0
  0
LINE
  5
41B
330
1F
100
AcDbEntity
  8
Object
100
AcDbLine
 10
2.434338821928925
 20
4.426950792786653
 30
0.0
 11
2.399338821928925
 21
4.432950792786654
 31
0.0
  0
LINE
  5
41C
330
1F
100
AcDbEntity
  8
Object
100
AcDbLine
 10
2.405338821928925
 20
4.494950792786653
 30
0.0
 11
2.384338821928924
 21
4.514950792786653
 31
0.0
  0
LINE
  5
41D
330
1F
100
AcDbEntity
  8
Object
100
AcDbLine
 10
2.399338821928925
 20
4.432950792786654
 30
0.0
 11
2.366338821928927
 21
4.447950792786653
 31
0.0
  0
LINE
  5
41E
330
1F
100
AcDbEntity
  8
Object
100
AcDbLine
 10
2.366338821928927
 20
4.447950792786653
 30
0.0
 11
2.340338821928924
 21
4.472950792786653
 31
0.0
  0
LINE
  5
41F
330
1F
100
AcDbEntity
  8
Object
100
AcDbLine
 10
2.340338821928924
 20
4.472950792786653
 30
0.0
 11
2.322338821928926
 21
4.503950792786653
 31
0.0
  0
LINE
  5
420
330
1F
100
AcDbEntity
  8
Object
100
AcDbLine
 10
2.384338821928924
 20
4.514950792786653
 30
0.0
 11
2.374338821928926
 21
4.542950792786653
 31
0.0
  0
LINE
  5
421
330
1F
100
AcDbEntity
  8
Object
100
AcDbLine
 10
2.315338821928925
 20
4.538950792786653
 30
0.0
 11
2.322338821928926
 21
4.503950792786653
 31
0.0
  0
LINE
  5
422
330
1F
100
AcDbEntity
  8
Object
100
AcDbLine
 10
2.182338821928926
 20
7.288950792786653
 30
0.0
 11
2.183338821928927
 21
7.282950792786653
 31
0.0
  0
LINE
  5
423
330
1F
100
AcDbEntity
  8
Object
100
AcDbLine
 10
2.181338821928925
 20
7.290950792786653
 30
0.0
 11
2.181338821928925
 21
7.309950792786653
 31
0.0
  0
LINE
  5
424
330
1F
100
AcDbEntity
  8
Object
100
AcDbLine
 10
2.181338821928925
 20
7.309950792786653
 30
0.0
 11
2.179338821928926
 21
7.340950792786653
 31
0.0
  0
LINE
  5
425
330
1F
100
AcDbEntity
  8
Object
100
AcDbLine
 10
2.179338821928926
 20
7.340950792786653
 30
0.0
 11
2.176338821928926
 21
7.379950792786654
 31
0.0
  0
LINE
  5
426
330
1F
100
AcDbEntity
  8
Object
100
AcDbLine
 10
2.176338821928926
 20
7.379950792786654
 30
0.0
 11
2.173338821928926
 21
7.422950792786653
 31
0.0
  0
LINE
  5
427
330
1F
100
AcDbEntity
  8
Object
100
AcDbLine
 10
2.173338821928926
 20
7.422950792786653
 30
0.0
 11
2.170338821928925
 21
7.466950792786653
 31
0.0
  0
LINE
  5
428
330
1F
100
AcDbEntity
  8
Object
100
AcDbLine
 10
2.170338821928925
 20
7.466950792786653
 30
0.0
 11
2.167338821928925
 21
7.505950792786653
 31
0.0
  0
LINE
  5
429
330
1F
100
AcDbEntity
  8
Object
100
AcDbLine
 10
2.167338821928925
 20
7.505950792786653
 30
0.0
 11
2.165338821928926
 21
7.536950792786654
 31
0.0
  0
LINE
  5
42A
330
1F
100
AcDbEntity
  8
Object
100
AcDbLine
 10
2.165338821928926
 20
7.536950792786654
 30
0.0
 11
2.164338821928925
 21
7.556950792786653
 31
0.0
  0
LINE
  5
42B
330
1F
100
AcDbEntity
  8
Object
100
AcDbLine
 10
2.374338821928926
 20
4.542950792786653
 30
0.0
 11
2.164338821928925
 21
7.547950792786653
 31
0.0
  0
LINE
  5
42C
330
1F
100
AcDbEntity
  8
Object
100
AcDbLine
 10
2.163338821928924
 20
7.562950792786653
 30
0.0
 11
2.164338821928925
 21
7.556950792786653
 31
0.0
  0
LINE
  5
42D
330
1F
100
AcDbEntity
  8
Object
100
AcDbLine
 10
2.164338821928925
 20
7.547950792786653
 30
0.0
 11
2.160338821928924
 21
7.602950792786653
 31
0.0
  0
LINE
  5
42E
330
1F
100
AcDbEntity
  8
Object
100
AcDbLine
 10
2.160338821928924
 20
7.602950792786653
 30
0.0
 11
2.157338821928924
 21
7.655950792786653
 31
0.0
  0
LINE
  5
42F
330
1F
100
AcDbEntity
  8
Object
100
AcDbLine
 10
2.157338821928924
 20
7.655950792786653
 30
0.0
 11
2.153338821928926
 21
7.702950792786653
 31
0.0
  0
LINE
  5
430
330
1F
100
AcDbEntity
  8
Object
100
AcDbLine
 10
2.153338821928926
 20
7.702950792786653
 30
0.0
 11
2.151338821928924
 21
7.742950792786653
 31
0.0
  0
LINE
  5
431
330
1F
100
AcDbEntity
  8
Object
100
AcDbLine
 10
2.151338821928924
 20
7.742950792786653
 30
0.0
 11
2.149338821928925
 21
7.772950792786653
 31
0.0
  0
LINE
  5
432
330
1F
100
AcDbEntity
  8
Object
100
AcDbLine
 10
2.149338821928925
 20
7.772950792786653
 30
0.0
 11
2.147338821928926
 21
7.790950792786653
 31
0.0
  0
LINE
  5
433
330
1F
100
AcDbEntity
  8
Object
100
AcDbLine
 10
2.147338821928926
 20
7.790950792786653
 30
0.0
 11
2.147338821928926
 21
7.796950792786653
 31
0.0
  0
LINE
  5
434
330
1F
100
AcDbEntity
  8
Object
100
AcDbLine
 10
2.182338821928926
 20
7.282950792786653
 30
0.0
 11
2.374338821928926
 21
4.542950792786653
 31
0.0
  0
LINE
  5
435
330
1F
100
AcDbEntity
  8
Object
100
AcDbLine
 10
2.180338821928927
 20
7.310950792786653
 30
0.0
 11
2.182338821928926
 21
7.284950792786653
 31
0.0
  0
LINE
  5
436
330
1F
100
AcDbEntity
  8
Object
100
AcDbLine
 10
2.164338821928925
 20
7.544950792786654
 30
0.0
 11
2.177338821928927
 21
7.361950792786653
 31
0.0
  0
LINE
  5
437
330
1F
100
AcDbEntity
  8
Object
100
AcDbLine
 10
2.157338821928924
 20
7.643950792786653
 30
0.0
 11
2.163338821928924
 21
7.558950792786653
 31
0.0
  0
LINE
  5
438
330
1F
100
AcDbEntity
  8
Object
100
AcDbLine
 10
2.151338821928924
 20
7.731950792786653
 30
0.0
 11
2.156338821928926
 21
7.666950792786654
 31
0.0
  0
LINE
  5
439
330
1F
100
AcDbEntity
  8
Object
100
AcDbLine
 10
2.147338821928926
 20
7.796950792786653
 30
0.0
 11
2.148338821928923
 21
7.779950792786653
 31
0.0
  0
LINE
  5
43A
330
1F
100
AcDbEntity
  8
Object
100
AcDbLine
 10
2.122338821928927
 20
7.283950792786654
 30
0.0
 11
2.122338821928927
 21
7.285950792786653
 31
0.0
  0
LINE
  5
43B
330
1F
100
AcDbEntity
  8
Object
100
AcDbLine
 10
2.122338821928927
 20
7.285950792786653
 30
0.0
 11
2.121338821928926
 21
7.290950792786653
 31
0.0
  0
LINE
  5
43C
330
1F
100
AcDbEntity
  8
Object
100
AcDbLine
 10
2.104338821928926
 20
7.543950792786653
 30
0.0
 11
2.315338821928925
 21
4.538950792786653
 31
0.0
  0
LINE
  5
43D
330
1F
100
AcDbEntity
  8
Object
100
AcDbLine
 10
2.103338821928925
 20
7.556950792786653
 30
0.0
 11
2.103338821928925
 21
7.558950792786653
 31
0.0
  0
LINE
  5
43E
330
1F
100
AcDbEntity
  8
Object
100
AcDbLine
 10
2.104338821928926
 20
7.543950792786653
 30
0.0
 11
2.101338821928926
 21
7.598950792786653
 31
0.0
  0
LINE
  5
43F
330
1F
100
AcDbEntity
  8
Object
100
AcDbLine
 10
2.101338821928926
 20
7.598950792786653
 30
0.0
 11
2.097338821928925
 21
7.651950792786653
 31
0.0
  0
LINE
  5
440
330
1F
100
AcDbEntity
  8
Object
100
AcDbLine
 10
2.097338821928925
 20
7.651950792786653
 30
0.0
 11
2.094338821928925
 21
7.698950792786654
 31
0.0
  0
LINE
  5
441
330
1F
100
AcDbEntity
  8
Object
100
AcDbLine
 10
2.094338821928925
 20
7.698950792786654
 30
0.0
 11
2.091338821928925
 21
7.738950792786654
 31
0.0
  0
LINE
  5
442
330
1F
100
AcDbEntity
  8
Object
100
AcDbLine
 10
2.091338821928925
 20
7.738950792786654
 30
0.0
 11
2.089338821928926
 21
7.767950792786654
 31
0.0
  0
LINE
  5
443
330
1F
100
AcDbEntity
  8
Object
100
AcDbLine
 10
2.089338821928926
 20
7.767950792786654
 30
0.0
 11
2.087338821928923
 21
7.786950792786654
 31
0.0
  0
LINE
  5
444
330
1F
100
AcDbEntity
  8
Object
100
AcDbLine
 10
2.087338821928923
 20
7.786950792786654
 30
0.0
 11
2.087338821928923
 21
7.792950792786653
 31
0.0
  0
LINE
  5
445
330
1F
100
AcDbEntity
  8
Object
100
AcDbLine
 10
2.102338821928924
 20
7.572950792786653
 30
0.0
 11
2.088338821928925
 21
7.774950792786653
 31
0.0
  0
LINE
  5
446
330
1F
100
AcDbEntity
  8
Object
100
AcDbLine
 10
2.151338821928924
 20
7.797950792786653
 30
0.0
 11
2.156338821928926
 21
7.797950792786653
 31
0.0
  0
LINE
  5
447
330
1F
100
AcDbEntity
  8
Object
100
AcDbLine
 10
2.156338821928926
 20
7.797950792786653
 30
0.0
 11
2.383338821928926
 21
4.543950792786653
 31
0.0
  0
LINE
  5
448
330
1F
100
AcDbEntity
  8
Object
100
AcDbLine
 10
2.383338821928926
 20
4.543950792786653
 30
0.0
 11
2.378338821928924
 21
4.542950792786653
 31
0.0
  0
LINE
  5
449
330
1F
100
AcDbEntity
  8
Object
100
AcDbLine
 10
2.378338821928924
 20
4.542950792786653
 30
0.0
 11
2.375338821928927
 21
4.542950792786653
 31
0.0
  0
LINE
  5
44A
330
1F
100
AcDbEntity
  8
Object
100
AcDbLine
 10
2.151338821928924
 20
7.797950792786653
 30
0.0
 11
2.148338821928923
 21
7.796950792786653
 31
0.0
  0
LINE
  5
44B
330
1F
100
AcDbEntity
  8
Object
100
AcDbLine
 10
2.148338821928923
 20
7.796950792786653
 30
0.0
 11
2.147338821928926
 21
7.796950792786653
 31
0.0
  0
LINE
  5
44C
330
1F
100
AcDbEntity
  8
Object
100
AcDbLine
 10
2.375338821928927
 20
4.542950792786653
 30
0.0
 11
2.374338821928926
 21
4.542950792786653
 31
0.0
  0
LINE
  5
44D
330
1F
100
AcDbEntity
  8
Object
100
AcDbLine
 10
2.374338821928926
 20
4.542950792786653
 30
0.0
 11
2.182338821928926
 21
7.282950792786653
 31
0.0
  0
LINE
  5
44E
330
1F
100
AcDbEntity
  8
Object
100
AcDbLine
 10
2.180338821928927
 20
7.310950792786653
 30
0.0
 11
2.182338821928926
 21
7.284950792786653
 31
0.0
  0
LINE
  5
44F
330
1F
100
AcDbEntity
  8
Object
100
AcDbLine
 10
2.164338821928925
 20
7.544950792786654
 30
0.0
 11
2.177338821928927
 21
7.361950792786653
 31
0.0
  0
LINE
  5
450
330
1F
100
AcDbEntity
  8
Object
100
AcDbLine
 10
2.157338821928924
 20
7.643950792786653
 30
0.0
 11
2.163338821928924
 21
7.558950792786653
 31
0.0
  0
LINE
  5
451
330
1F
100
AcDbEntity
  8
Object
100
AcDbLine
 10
2.151338821928924
 20
7.731950792786653
 30
0.0
 11
2.156338821928926
 21
7.666950792786654
 31
0.0
  0
LINE
  5
452
330
1F
100
AcDbEntity
  8
Object
100
AcDbLine
 10
2.147338821928926
 20
7.796950792786653
 30
0.0
 11
2.148338821928923
 21
7.779950792786653
 31
0.0
  0
LINE
  5
453
330
1F
100
AcDbEntity
  8
Object
100
AcDbLine
 10
2.088338821928925
 20
7.774950792786653
 30
0.0
 11
2.102338821928924
 21
7.572950792786653
 31
0.0
  0
LINE
  5
454
330
1F
100
AcDbEntity
  8
Object
100
AcDbLine
 10
3.421338821928927
 20
4.615950792786653
 30
0.0
 11
3.463338821928925
 21
4.618950792786653
 31
0.0
  0
LINE
  5
455
330
1F
100
AcDbEntity
  8
Object
100
AcDbLine
 10
3.463338821928925
 20
4.618950792786653
 30
0.0
 11
3.291338821928924
 21
4.606950792786653
 31
0.0
  0
LINE
  5
456
330
1F
100
AcDbEntity
  8
Object
100
AcDbLine
 10
2.383338821928926
 20
4.543950792786653
 30
0.0
 11
2.452338821928925
 21
4.547950792786654
 31
0.0
  0
LINE
  5
457
330
1F
100
AcDbEntity
  8
Object
100
AcDbLine
 10
2.376338821928925
 20
4.542950792786653
 30
0.0
 11
2.374338821928926
 21
4.542950792786653
 31
0.0
  0
LINE
  5
458
330
1F
100
AcDbEntity
  8
Object
100
AcDbLine
 10
2.452338821928925
 20
4.547950792786654
 30
0.0
 11
2.380338821928926
 21
4.542950792786653
 31
0.0
  0
LINE
  5
459
330
1F
100
AcDbEntity
  8
Object
100
AcDbLine
 10
3.421338821928927
 20
4.615950792786653
 30
0.0
 11
3.292338821928925
 21
4.606950792786653
 31
0.0
  0
LINE
  5
45A
330
1F
100
AcDbEntity
  8
Object
100
AcDbLine
 10
2.374338821928926
 20
4.542950792786653
 30
0.0
 11
2.376338821928925
 21
4.542950792786653
 31
0.0
  0
LINE
  5
45B
330
1F
100
AcDbEntity
  8
Object
100
AcDbLine
 10
7.078338821928927
 20
4.376950792786653
 30
0.0
 11
7.075338821928927
 21
4.376950792786653
 31
0.0
  0
LINE
  5
45C
330
1F
100
AcDbEntity
  8
Object
100
AcDbLine
 10
7.075338821928927
 20
4.376950792786653
 30
0.0
 11
7.066338821928926
 21
4.376950792786653
 31
0.0
  0
LINE
  5
45D
330
1F
100
AcDbEntity
  8
Object
100
AcDbLine
 10
7.066338821928926
 20
4.376950792786653
 30
0.0
 11
7.054338821928926
 21
4.376950792786653
 31
0.0
  0
LINE
  5
45E
330
1F
100
AcDbEntity
  8
Object
100
AcDbLine
 10
7.054338821928926
 20
4.376950792786653
 30
0.0
 11
5.754338821928925
 21
4.376950792786653
 31
0.0
  0
LINE
  5
45F
330
1F
100
AcDbEntity
  8
Object
100
AcDbLine
 10
5.754338821928925
 20
4.376950792786653
 30
0.0
 11
5.742338821928925
 21
4.376950792786653
 31
0.0
  0
LINE
  5
460
330
1F
100
AcDbEntity
  8
Object
100
AcDbLine
 10
5.742338821928925
 20
4.376950792786653
 30
0.0
 11
5.734338821928925
 21
4.376950792786653
 31
0.0
  0
LINE
  5
461
330
1F
100
AcDbEntity
  8
Object
100
AcDbLine
 10
5.734338821928925
 20
4.376950792786653
 30
0.0
 11
5.731338821928925
 21
4.376950792786653
 31
0.0
  0
LINE
  5
462
330
1F
100
AcDbEntity
  8
Object
100
AcDbLine
 10
10.68533882192892
 20
7.278950792786654
 30
0.0
 11
10.68633882192892
 21
7.278950792786654
 31
0.0
  0
LINE
  5
463
330
1F
100
AcDbEntity
  8
Object
100
AcDbLine
 10
10.72133882192892
 20
7.786950792786654
 30
0.0
 11
10.72233882192892
 21
7.792950792786653
 31
0.0
  0
LINE
  5
464
330
1F
100
AcDbEntity
  8
Object
100
AcDbLine
 10
10.66133882192892
 20
7.790950792786653
 30
0.0
 11
10.66233882192892
 21
7.796950792786653
 31
0.0
  0
LINE
  5
465
330
1F
100
AcDbEntity
  8
Object
100
AcDbLine
 10
10.66233882192892
 20
7.796950792786653
 30
0.0
 11
10.72233882192892
 21
7.792950792786653
 31
0.0
  0
LINE
  5
466
330
1F
100
AcDbEntity
  8
Object
100
AcDbLine
 10
10.66133882192892
 20
7.790950792786653
 30
0.0
 11
10.66033882192892
 21
7.772950792786653
 31
0.0
  0
LINE
  5
467
330
1F
100
AcDbEntity
  8
Object
100
AcDbLine
 10
10.72133882192892
 20
7.786950792786654
 30
0.0
 11
10.72033882192892
 21
7.767950792786654
 31
0.0
  0
LINE
  5
468
330
1F
100
AcDbEntity
  8
Object
100
AcDbLine
 10
10.72033882192892
 20
7.767950792786654
 30
0.0
 11
10.71833882192892
 21
7.738950792786654
 31
0.0
  0
LINE
  5
469
330
1F
100
AcDbEntity
  8
Object
100
AcDbLine
 10
10.71833882192892
 20
7.738950792786654
 30
0.0
 11
10.71533882192892
 21
7.698950792786654
 31
0.0
  0
LINE
  5
46A
330
1F
100
AcDbEntity
  8
Object
100
AcDbLine
 10
10.66033882192892
 20
7.772950792786653
 30
0.0
 11
10.65833882192892
 21
7.742950792786653
 31
0.0
  0
LINE
  5
46B
330
1F
100
AcDbEntity
  8
Object
100
AcDbLine
 10
10.71233882192892
 20
7.651950792786653
 30
0.0
 11
10.71533882192892
 21
7.698950792786654
 31
0.0
  0
LINE
  5
46C
330
1F
100
AcDbEntity
  8
Object
100
AcDbLine
 10
10.65833882192892
 20
7.742950792786653
 30
0.0
 11
10.65533882192892
 21
7.702950792786653
 31
0.0
  0
LINE
  5
46D
330
1F
100
AcDbEntity
  8
Object
100
AcDbLine
 10
10.65533882192892
 20
7.702950792786653
 30
0.0
 11
10.65233882192892
 21
7.655950792786653
 31
0.0
  0
LINE
  5
46E
330
1F
100
AcDbEntity
  8
Object
100
AcDbLine
 10
10.71233882192892
 20
7.651950792786653
 30
0.0
 11
10.70833882192892
 21
7.598950792786653
 31
0.0
  0
LINE
  5
46F
330
1F
100
AcDbEntity
  8
Object
100
AcDbLine
 10
10.70833882192892
 20
7.598950792786653
 30
0.0
 11
10.70433882192892
 21
7.543950792786653
 31
0.0
  0
LINE
  5
470
330
1F
100
AcDbEntity
  8
Object
100
AcDbLine
 10
10.65233882192892
 20
7.655950792786653
 30
0.0
 11
10.64833882192892
 21
7.602950792786653
 31
0.0
  0
LINE
  5
471
330
1F
100
AcDbEntity
  8
Object
100
AcDbLine
 10
10.64833882192892
 20
7.602950792786653
 30
0.0
 11
10.64433882192892
 21
7.547950792786653
 31
0.0
  0
LINE
  5
472
102
{ACAD_REACTORS
330
869
102
}
330
1F
100
AcDbEntity
  8
Object
100
AcDbLine
 10
10.72233882192892
 20
7.792950792786653
 30
0.0
 11
10.66233882192892
 21
7.796950792786653
 31
0.0
  0
LINE
  5
473
330
1F
100
AcDbEntity
  8
Object
100
AcDbLine
 10
10.70533882192892
 20
7.556950792786653
 30
0.0
 11
10.70533882192892
 21
7.551950792786653
 31
0.0
  0
LINE
  5
474
330
1F
100
AcDbEntity
  8
Object
100
AcDbLine
 10
10.70533882192892
 20
7.551950792786653
 30
0.0
 11
10.70333882192892
 21
7.538950792786653
 31
0.0
  0
LINE
  5
475
330
1F
100
AcDbEntity
  8
Object
100
AcDbLine
 10
10.64133882192892
 20
7.507950792786653
 30
0.0
 11
10.64133882192892
 21
7.505950792786653
 31
0.0
  0
LINE
  5
476
330
1F
100
AcDbEntity
  8
Object
100
AcDbLine
 10
10.70033882192892
 20
7.498950792786653
 30
0.0
 11
10.69933882192892
 21
7.461950792786653
 31
0.0
  0
LINE
  5
477
330
1F
100
AcDbEntity
  8
Object
100
AcDbLine
 10
10.69933882192892
 20
7.461950792786653
 30
0.0
 11
10.69633882192892
 21
7.418950792786653
 31
0.0
  0
LINE
  5
478
330
1F
100
AcDbEntity
  8
Object
100
AcDbLine
 10
10.64133882192892
 20
7.505950792786653
 30
0.0
 11
10.64033882192892
 21
7.501950792786653
 31
0.0
  0
LINE
  5
479
330
1F
100
AcDbEntity
  8
Object
100
AcDbLine
 10
10.69633882192892
 20
7.418950792786653
 30
0.0
 11
10.69333882192892
 21
7.375950792786653
 31
0.0
  0
LINE
  5
47A
330
1F
100
AcDbEntity
  8
Object
100
AcDbLine
 10
10.69333882192892
 20
7.375950792786653
 30
0.0
 11
10.69033882192892
 21
7.336950792786653
 31
0.0
  0
LINE
  5
47B
330
1F
100
AcDbEntity
  8
Object
100
AcDbLine
 10
10.69033882192892
 20
7.336950792786653
 30
0.0
 11
10.68833882192892
 21
7.305950792786653
 31
0.0
  0
LINE
  5
47C
330
1F
100
AcDbEntity
  8
Object
100
AcDbLine
 10
10.68833882192892
 20
7.305950792786653
 30
0.0
 11
10.68633882192892
 21
7.285950792786653
 31
0.0
  0
LINE
  5
47D
330
1F
100
AcDbEntity
  8
Object
100
AcDbLine
 10
10.68633882192892
 20
7.285950792786653
 30
0.0
 11
10.68633882192892
 21
7.278950792786654
 31
0.0
  0
LINE
  5
47E
330
1F
100
AcDbEntity
  8
Object
100
AcDbLine
 10
10.64433882192892
 20
7.547950792786653
 30
0.0
 11
10.70433882192892
 21
7.543950792786653
 31
0.0
  0
LINE
  5
47F
330
1F
100
AcDbEntity
  8
Object
100
AcDbLine
 10
10.70433882192892
 20
7.543950792786653
 30
0.0
 11
10.49433882192892
 21
4.538950792786653
 31
0.0
  0
LINE
  5
480
330
1F
100
AcDbEntity
  8
Object
100
AcDbLine
 10
10.64433882192892
 20
7.547950792786653
 30
0.0
 11
10.43433882192892
 21
4.542950792786653
 31
0.0
  0
LINE
  5
481
330
1F
100
AcDbEntity
  8
Object
100
AcDbLine
 10
10.66233882192892
 20
7.796950792786653
 30
0.0
 11
10.66133882192892
 21
7.796950792786653
 31
0.0
  0
LINE
  5
482
330
1F
100
AcDbEntity
  8
Object
100
AcDbLine
 10
10.66133882192892
 20
7.796950792786653
 30
0.0
 11
10.65833882192892
 21
7.797950792786653
 31
0.0
  0
LINE
  5
483
330
1F
100
AcDbEntity
  8
Object
100
AcDbLine
 10
10.65833882192892
 20
7.797950792786653
 30
0.0
 11
10.65333882192892
 21
7.797950792786653
 31
0.0
  0
LINE
  5
484
330
1F
100
AcDbEntity
  8
Object
100
AcDbLine
 10
10.55733882192892
 20
7.803950792786653
 30
0.0
 11
9.615338821928926
 21
7.870950792786653
 31
0.0
  0
LINE
  5
485
330
1F
100
AcDbEntity
  8
Object
100
AcDbLine
 10
9.615338821928926
 20
7.870950792786653
 30
0.0
 11
9.614338821928926
 21
7.869950792786653
 31
0.0
  0
LINE
  5
486
330
1F
100
AcDbEntity
  8
Object
100
AcDbLine
 10
10.43233882192892
 20
4.542950792786653
 30
0.0
 11
10.43333882192892
 21
4.542950792786653
 31
0.0
  0
LINE
  5
487
330
1F
100
AcDbEntity
  8
Object
100
AcDbLine
 10
10.35633882192892
 20
4.547950792786654
 30
0.0
 11
10.42733882192892
 21
4.542950792786653
 31
0.0
  0
LINE
  5
488
330
1F
100
AcDbEntity
  8
Object
100
AcDbLine
 10
9.388338821928925
 20
4.615950792786653
 30
0.0
 11
9.516338821928925
 21
4.606950792786653
 31
0.0
  0
LINE
  5
489
330
1F
100
AcDbEntity
  8
Object
100
AcDbLine
 10
9.360338821928925
 20
4.818950792786653
 30
0.0
 11
9.346338821928926
 21
4.618950792786653
 31
0.0
  0
LINE
  5
48A
330
1F
100
AcDbEntity
  8
Object
100
AcDbLine
 10
9.346338821928926
 20
4.618950792786653
 30
0.0
 11
9.388338821928925
 21
4.615950792786653
 31
0.0
  0
LINE
  5
48B
330
1F
100
AcDbEntity
  8
Object
100
AcDbLine
 10
10.42633882192892
 20
4.543950792786653
 30
0.0
 11
10.65333882192892
 21
7.797950792786653
 31
0.0
  0
LINE
  5
48C
330
1F
100
AcDbEntity
  8
Object
100
AcDbLine
 10
9.360338821928925
 20
4.818950792786653
 30
0.0
 11
9.573338821928926
 21
7.872950792786653
 31
0.0
  0
LINE
  5
48D
330
1F
100
AcDbEntity
  8
Object
100
AcDbLine
 10
9.573338821928926
 20
7.872950792786653
 30
0.0
 11
10.65333882192892
 21
7.797950792786653
 31
0.0
  0
LINE
  5
48E
330
1F
100
AcDbEntity
  8
Object
100
AcDbLine
 10
10.35633882192892
 20
4.547950792786654
 30
0.0
 11
10.42633882192892
 21
4.543950792786653
 31
0.0
  0
LINE
  5
48F
330
1F
100
AcDbEntity
  8
Object
100
AcDbLine
 10
9.346338821928926
 20
4.618950792786653
 30
0.0
 11
9.517338821928925
 21
4.606950792786653
 31
0.0
  0
LINE
  5
490
330
1F
100
AcDbEntity
  8
Object
100
AcDbLine
 10
2.164338821928925
 20
7.547950792786653
 30
0.0
 11
2.374338821928926
 21
4.542950792786653
 31
0.0
  0
LINE
  5
491
330
1F
100
AcDbEntity
  8
Object
100
AcDbLine
 10
2.374338821928926
 20
4.542950792786653
 30
0.0
 11
2.315338821928925
 21
4.538950792786653
 31
0.0
  0
LINE
  5
492
330
1F
100
AcDbEntity
  8
Object
100
AcDbLine
 10
2.315338821928925
 20
4.538950792786653
 30
0.0
 11
2.104338821928926
 21
7.543950792786653
 31
0.0
  0
LINE
  5
493
330
1F
100
AcDbEntity
  8
Object
100
AcDbLine
 10
2.104338821928926
 20
7.543950792786653
 30
0.0
 11
2.164338821928925
 21
7.547950792786653
 31
0.0
  0
LINE
  5
494
330
1F
100
AcDbEntity
  8
Object
100
AcDbLine
 10
2.164338821928925
 20
7.547950792786653
 30
0.0
 11
2.160338821928924
 21
7.602950792786653
 31
0.0
  0
LINE
  5
495
330
1F
100
AcDbEntity
  8
Object
100
AcDbLine
 10
2.160338821928924
 20
7.602950792786653
 30
0.0
 11
2.157338821928924
 21
7.655950792786653
 31
0.0
  0
LINE
  5
496
330
1F
100
AcDbEntity
  8
Object
100
AcDbLine
 10
2.101338821928926
 20
7.598950792786653
 30
0.0
 11
2.104338821928926
 21
7.543950792786653
 31
0.0
  0
LINE
  5
497
330
1F
100
AcDbEntity
  8
Object
100
AcDbLine
 10
2.157338821928924
 20
7.655950792786653
 30
0.0
 11
2.153338821928926
 21
7.702950792786653
 31
0.0
  0
LINE
  5
498
330
1F
100
AcDbEntity
  8
Object
100
AcDbLine
 10
2.097338821928925
 20
7.651950792786653
 30
0.0
 11
2.101338821928926
 21
7.598950792786653
 31
0.0
  0
LINE
  5
499
330
1F
100
AcDbEntity
  8
Object
100
AcDbLine
 10
2.153338821928926
 20
7.702950792786653
 30
0.0
 11
2.151338821928924
 21
7.742950792786653
 31
0.0
  0
LINE
  5
49A
330
1F
100
AcDbEntity
  8
Object
100
AcDbLine
 10
2.097338821928925
 20
7.651950792786653
 30
0.0
 11
2.094338821928925
 21
7.698950792786654
 31
0.0
  0
LINE
  5
49B
330
1F
100
AcDbEntity
  8
Object
100
AcDbLine
 10
2.094338821928925
 20
7.698950792786654
 30
0.0
 11
2.091338821928925
 21
7.738950792786654
 31
0.0
  0
LINE
  5
49C
330
1F
100
AcDbEntity
  8
Object
100
AcDbLine
 10
2.091338821928925
 20
7.738950792786654
 30
0.0
 11
2.089338821928926
 21
7.767950792786654
 31
0.0
  0
LINE
  5
49D
330
1F
100
AcDbEntity
  8
Object
100
AcDbLine
 10
2.151338821928924
 20
7.742950792786653
 30
0.0
 11
2.149338821928925
 21
7.772950792786653
 31
0.0
  0
LINE
  5
49E
330
1F
100
AcDbEntity
  8
Object
100
AcDbLine
 10
2.149338821928925
 20
7.772950792786653
 30
0.0
 11
2.147338821928926
 21
7.790950792786653
 31
0.0
  0
LINE
  5
49F
330
1F
100
AcDbEntity
  8
Object
100
AcDbLine
 10
2.087338821928923
 20
7.786950792786654
 30
0.0
 11
2.087338821928923
 21
7.792950792786653
 31
0.0
  0
LINE
  5
4A0
330
1F
100
AcDbEntity
  8
Object
100
AcDbLine
 10
2.087338821928923
 20
7.792950792786653
 30
0.0
 11
2.147338821928926
 21
7.796950792786653
 31
0.0
  0
LINE
  5
4A1
330
1F
100
AcDbEntity
  8
Object
100
AcDbLine
 10
2.147338821928926
 20
7.796950792786653
 30
0.0
 11
2.147338821928926
 21
7.790950792786653
 31
0.0
  0
LINE
  5
4A2
330
1F
100
AcDbEntity
  8
Object
100
AcDbLine
 10
2.087338821928923
 20
7.786950792786654
 30
0.0
 11
2.089338821928926
 21
7.767950792786654
 31
0.0
  0
LINE
  5
4A3
330
1F
100
AcDbEntity
  8
Object
100
AcDbLine
 10
2.182338821928926
 20
7.282950792786653
 30
0.0
 11
2.183338821928927
 21
7.282950792786653
 31
0.0
  0
LINE
  5
4A4
330
1F
100
AcDbEntity
  8
Object
100
AcDbLine
 10
2.183338821928927
 20
7.282950792786653
 30
0.0
 11
2.182338821928926
 21
7.288950792786653
 31
0.0
  0
LINE
  5
4A5
330
1F
100
AcDbEntity
  8
Object
100
AcDbLine
 10
2.181338821928925
 20
7.290950792786653
 30
0.0
 11
2.181338821928925
 21
7.309950792786653
 31
0.0
  0
LINE
  5
4A6
330
1F
100
AcDbEntity
  8
Object
100
AcDbLine
 10
2.122338821928927
 20
7.283950792786654
 30
0.0
 11
2.122338821928927
 21
7.285950792786653
 31
0.0
  0
LINE
  5
4A7
330
1F
100
AcDbEntity
  8
Object
100
AcDbLine
 10
2.122338821928927
 20
7.285950792786653
 30
0.0
 11
2.121338821928926
 21
7.290950792786653
 31
0.0
  0
LINE
  5
4A8
330
1F
100
AcDbEntity
  8
Object
100
AcDbLine
 10
2.181338821928925
 20
7.309950792786653
 30
0.0
 11
2.179338821928926
 21
7.340950792786653
 31
0.0
  0
LINE
  5
4A9
330
1F
100
AcDbEntity
  8
Object
100
AcDbLine
 10
2.179338821928926
 20
7.340950792786653
 30
0.0
 11
2.176338821928926
 21
7.379950792786654
 31
0.0
  0
LINE
  5
4AA
330
1F
100
AcDbEntity
  8
Object
100
AcDbLine
 10
2.176338821928926
 20
7.379950792786654
 30
0.0
 11
2.173338821928926
 21
7.422950792786653
 31
0.0
  0
LINE
  5
4AB
330
1F
100
AcDbEntity
  8
Object
100
AcDbLine
 10
2.173338821928926
 20
7.422950792786653
 30
0.0
 11
2.170338821928925
 21
7.466950792786653
 31
0.0
  0
LINE
  5
4AC
330
1F
100
AcDbEntity
  8
Object
100
AcDbLine
 10
2.170338821928925
 20
7.466950792786653
 30
0.0
 11
2.167338821928925
 21
7.505950792786653
 31
0.0
  0
LINE
  5
4AD
330
1F
100
AcDbEntity
  8
Object
100
AcDbLine
 10
2.167338821928925
 20
7.505950792786653
 30
0.0
 11
2.165338821928926
 21
7.536950792786654
 31
0.0
  0
LINE
  5
4AE
330
1F
100
AcDbEntity
  8
Object
100
AcDbLine
 10
2.165338821928926
 20
7.536950792786654
 30
0.0
 11
2.164338821928925
 21
7.556950792786653
 31
0.0
  0
LINE
  5
4AF
330
1F
100
AcDbEntity
  8
Object
100
AcDbLine
 10
2.164338821928925
 20
7.556950792786653
 30
0.0
 11
2.163338821928924
 21
7.562950792786653
 31
0.0
  0
LINE
  5
4B0
330
1F
100
AcDbEntity
  8
Object
100
AcDbLine
 10
2.103338821928925
 20
7.558950792786653
 30
0.0
 11
2.103338821928925
 21
7.556950792786653
 31
0.0
  0
LINE
  5
4B1
102
{ACAD_REACTORS
330
869
102
}
330
1F
100
AcDbEntity
  8
Object
100
AcDbLine
 10
2.147338821928926
 20
7.796950792786653
 30
0.0
 11
2.087338821928923
 21
7.792950792786653
 31
0.0
  0
LINE
  5
4B2
330
1F
100
AcDbEntity
  8
Object
100
AcDbLine
 10
3.449338821928925
 20
4.818950792786653
 30
0.0
 11
3.463338821928925
 21
4.618950792786653
 31
0.0
  0
LINE
  5
4B3
330
1F
100
AcDbEntity
  8
Object
100
AcDbLine
 10
3.463338821928925
 20
4.618950792786653
 30
0.0
 11
3.291338821928924
 21
4.606950792786653
 31
0.0
  0
LINE
  5
4B4
330
1F
100
AcDbEntity
  8
Object
100
AcDbLine
 10
2.383338821928926
 20
4.543950792786653
 30
0.0
 11
2.452338821928925
 21
4.547950792786654
 31
0.0
  0
LINE
  5
4B5
330
1F
100
AcDbEntity
  8
Object
100
AcDbLine
 10
2.156338821928926
 20
7.797950792786653
 30
0.0
 11
3.236338821928924
 21
7.872950792786653
 31
0.0
  0
LINE
  5
4B6
330
1F
100
AcDbEntity
  8
Object
100
AcDbLine
 10
3.236338821928924
 20
7.872950792786653
 30
0.0
 11
3.449338821928925
 21
4.818950792786653
 31
0.0
  0
LINE
  5
4B7
330
1F
100
AcDbEntity
  8
Object
100
AcDbLine
 10
2.156338821928926
 20
7.797950792786653
 30
0.0
 11
2.151338821928924
 21
7.797950792786653
 31
0.0
  0
LINE
  5
4B8
330
1F
100
AcDbEntity
  8
Object
100
AcDbLine
 10
2.151338821928924
 20
7.797950792786653
 30
0.0
 11
2.148338821928923
 21
7.796950792786653
 31
0.0
  0
LINE
  5
4B9
330
1F
100
AcDbEntity
  8
Object
100
AcDbLine
 10
2.148338821928923
 20
7.796950792786653
 30
0.0
 11
2.147338821928926
 21
7.796950792786653
 31
0.0
  0
LINE
  5
4BA
330
1F
100
AcDbEntity
  8
Object
100
AcDbLine
 10
3.292338821928925
 20
4.606950792786653
 30
0.0
 11
3.421338821928927
 21
4.615950792786653
 31
0.0
  0
LINE
  5
4BB
330
1F
100
AcDbEntity
  8
Object
100
AcDbLine
 10
2.380338821928926
 20
4.542950792786653
 30
0.0
 11
2.452338821928925
 21
4.547950792786654
 31
0.0
  0
LINE
  5
4BC
330
1F
100
AcDbEntity
  8
Object
100
AcDbLine
 10
2.374338821928926
 20
4.542950792786653
 30
0.0
 11
2.376338821928925
 21
4.542950792786653
 31
0.0
  0
LINE
  5
4BD
330
1F
100
AcDbEntity
  8
Object
100
AcDbLine
 10
3.193338821928925
 20
7.869950792786653
 30
0.0
 11
3.193338821928925
 21
7.870950792786653
 31
0.0
  0
LINE
  5
4BE
330
1F
100
AcDbEntity
  8
Object
100
AcDbLine
 10
3.193338821928925
 20
7.870950792786653
 30
0.0
 11
2.155338821928925
 21
7.797950792786653
 31
0.0
  0
LINE
  5
4BF
330
1F
100
AcDbEntity
  8
Object
100
AcDbLine
 10
3.421338821928927
 20
4.615950792786653
 30
0.0
 11
3.463338821928925
 21
4.618950792786653
 31
0.0
  0
LINE
  5
4C0
330
1F
100
AcDbEntity
  8
Object
100
AcDbLine
 10
10.55733882192892
 20
7.803950792786653
 30
0.0
 11
9.615338821928926
 21
7.870950792786653
 31
0.0
  0
LINE
  5
4C1
330
1F
100
AcDbEntity
  8
Object
100
AcDbLine
 10
9.615338821928926
 20
7.870950792786653
 30
0.0
 11
9.573338821928926
 21
7.872950792786653
 31
0.0
  0
LINE
  5
4C2
330
1F
100
AcDbEntity
  8
Object
100
AcDbLine
 10
9.573338821928926
 20
7.872950792786653
 30
0.0
 11
10.65333882192892
 21
7.797950792786653
 31
0.0
  0
LINE
  5
4C3
330
1F
100
AcDbEntity
  8
Object
100
AcDbLine
 10
9.615338821928926
 20
7.870950792786653
 30
0.0
 11
9.611338821928926
 21
7.870950792786653
 31
0.0
  0
LINE
  5
4C4
330
1F
100
AcDbEntity
  8
Object
100
AcDbLine
 10
9.611338821928926
 20
7.870950792786653
 30
0.0
 11
9.608338821928926
 21
7.870950792786653
 31
0.0
  0
LINE
  5
4C5
330
1F
100
AcDbEntity
  8
Object
100
AcDbLine
 10
9.608338821928926
 20
7.870950792786653
 30
0.0
 11
9.607338821928925
 21
7.870950792786653
 31
0.0
  0
LINE
  5
4C6
330
1F
100
AcDbEntity
  8
Object
100
AcDbLine
 10
9.607338821928925
 20
7.870950792786653
 30
0.0
 11
9.606338821928925
 21
7.870950792786653
 31
0.0
  0
LINE
  5
4C7
330
1F
100
AcDbEntity
  8
Object
100
AcDbLine
 10
9.360338821928925
 20
4.818950792786653
 30
0.0
 11
9.345338821928926
 21
4.819950792786653
 31
0.0
  0
LINE
  5
4C8
330
1F
100
AcDbEntity
  8
Object
100
AcDbLine
 10
9.345338821928926
 20
4.819950792786653
 30
0.0
 11
9.336338821928926
 21
4.819950792786653
 31
0.0
  0
LINE
  5
4C9
330
1F
100
AcDbEntity
  8
Object
100
AcDbLine
 10
9.336338821928926
 20
4.819950792786653
 30
0.0
 11
9.333338821928926
 21
4.820950792786653
 31
0.0
  0
LINE
  5
4CA
330
1F
100
AcDbEntity
  8
Object
100
AcDbLine
 10
9.359338821928925
 20
4.817950792786653
 30
0.0
 11
9.358338821928926
 21
4.818950792786653
 31
0.0
  0
LINE
  5
4CB
330
1F
100
AcDbEntity
  8
Object
100
AcDbLine
 10
9.573338821928926
 20
7.872950792786653
 30
0.0
 11
9.559338821928925
 21
7.873950792786653
 31
0.0
  0
LINE
  5
4CC
330
1F
100
AcDbEntity
  8
Object
100
AcDbLine
 10
9.559338821928925
 20
7.873950792786653
 30
0.0
 11
9.550338821928926
 21
7.874950792786653
 31
0.0
  0
LINE
  5
4CD
330
1F
100
AcDbEntity
  8
Object
100
AcDbLine
 10
9.360338821928925
 20
4.818950792786653
 30
0.0
 11
9.345338821928926
 21
4.819950792786653
 31
0.0
  0
LINE
  5
4CE
330
1F
100
AcDbEntity
  8
Object
100
AcDbLine
 10
9.345338821928926
 20
4.819950792786653
 30
0.0
 11
9.336338821928926
 21
4.819950792786653
 31
0.0
  0
LINE
  5
4CF
330
1F
100
AcDbEntity
  8
Object
100
AcDbLine
 10
9.550338821928926
 20
7.874950792786653
 30
0.0
 11
9.547338821928926
 21
7.874950792786653
 31
0.0
  0
LINE
  5
4D0
330
1F
100
AcDbEntity
  8
Object
100
AcDbLine
 10
9.336338821928926
 20
4.819950792786653
 30
0.0
 11
9.333338821928926
 21
4.820950792786653
 31
0.0
  0
LINE
  5
4D1
330
1F
100
AcDbEntity
  8
Object
100
AcDbLine
 10
9.333338821928926
 20
4.820950792786653
 30
0.0
 11
9.547338821928926
 21
7.874950792786653
 31
0.0
  0
LINE
  5
4D2
330
1F
100
AcDbEntity
  8
Object
100
AcDbLine
 10
3.193338821928925
 20
7.870950792786653
 30
0.0
 11
3.236338821928924
 21
7.872950792786653
 31
0.0
  0
LINE
  5
4D3
330
1F
100
AcDbEntity
  8
Object
100
AcDbLine
 10
3.236338821928924
 20
7.872950792786653
 30
0.0
 11
2.156338821928926
 21
7.797950792786653
 31
0.0
  0
LINE
  5
4D4
330
1F
100
AcDbEntity
  8
Object
100
AcDbLine
 10
2.155338821928925
 20
7.797950792786653
 30
0.0
 11
3.193338821928925
 21
7.870950792786653
 31
0.0
  0
LINE
  5
4D5
330
1F
100
AcDbEntity
  8
Object
100
AcDbLine
 10
3.262338821928924
 20
7.874950792786653
 30
0.0
 11
3.475338821928925
 21
4.820950792786653
 31
0.0
  0
LINE
  5
4D6
330
1F
100
AcDbEntity
  8
Object
100
AcDbLine
 10
3.475338821928925
 20
4.820950792786653
 30
0.0
 11
3.472338821928925
 21
4.819950792786653
 31
0.0
  0
LINE
  5
4D7
330
1F
100
AcDbEntity
  8
Object
100
AcDbLine
 10
3.472338821928925
 20
4.819950792786653
 30
0.0
 11
3.463338821928925
 21
4.819950792786653
 31
0.0
  0
LINE
  5
4D8
330
1F
100
AcDbEntity
  8
Object
100
AcDbLine
 10
3.262338821928924
 20
7.874950792786653
 30
0.0
 11
3.259338821928924
 21
7.874950792786653
 31
0.0
  0
LINE
  5
4D9
330
1F
100
AcDbEntity
  8
Object
100
AcDbLine
 10
3.259338821928924
 20
7.874950792786653
 30
0.0
 11
3.250338821928927
 21
7.873950792786653
 31
0.0
  0
LINE
  5
4DA
330
1F
100
AcDbEntity
  8
Object
100
AcDbLine
 10
3.449338821928925
 20
4.818950792786653
 30
0.0
 11
3.463338821928925
 21
4.819950792786653
 31
0.0
  0
LINE
  5
4DB
330
1F
100
AcDbEntity
  8
Object
100
AcDbLine
 10
3.250338821928927
 20
7.873950792786653
 30
0.0
 11
3.236338821928924
 21
7.872950792786653
 31
0.0
  0
LINE
  5
4DC
330
1F
100
AcDbEntity
  8
Object
100
AcDbLine
 10
3.202338821928925
 20
7.870950792786653
 30
0.0
 11
3.201338821928924
 21
7.870950792786653
 31
0.0
  0
LINE
  5
4DD
330
1F
100
AcDbEntity
  8
Object
100
AcDbLine
 10
3.201338821928924
 20
7.870950792786653
 30
0.0
 11
3.198338821928924
 21
7.870950792786653
 31
0.0
  0
LINE
  5
4DE
330
1F
100
AcDbEntity
  8
Object
100
AcDbLine
 10
3.198338821928924
 20
7.870950792786653
 30
0.0
 11
3.193338821928925
 21
7.870950792786653
 31
0.0
  0
LINE
  5
4DF
330
1F
100
AcDbEntity
  8
Object
100
AcDbLine
 10
3.475338821928925
 20
4.820950792786653
 30
0.0
 11
3.472338821928925
 21
4.819950792786653
 31
0.0
  0
LINE
  5
4E0
330
1F
100
AcDbEntity
  8
Object
100
AcDbLine
 10
3.472338821928925
 20
4.819950792786653
 30
0.0
 11
3.463338821928925
 21
4.819950792786653
 31
0.0
  0
LINE
  5
4E1
330
1F
100
AcDbEntity
  8
Object
100
AcDbLine
 10
3.463338821928925
 20
4.819950792786653
 30
0.0
 11
3.449338821928925
 21
4.818950792786653
 31
0.0
  0
LINE
  5
4E2
330
1F
100
AcDbEntity
  8
Object
100
AcDbLine
 10
9.615338821928926
 20
7.870950792786653
 30
0.0
 11
9.611338821928926
 21
7.870950792786653
 31
0.0
  0
LINE
  5
4E3
330
1F
100
AcDbEntity
  8
Object
100
AcDbLine
 10
9.611338821928926
 20
7.870950792786653
 30
0.0
 11
9.608338821928926
 21
7.870950792786653
 31
0.0
  0
LINE
  5
4E4
330
1F
100
AcDbEntity
  8
Object
100
AcDbLine
 10
9.608338821928926
 20
7.870950792786653
 30
0.0
 11
9.607338821928925
 21
7.870950792786653
 31
0.0
  0
LINE
  5
4E5
330
1F
100
AcDbEntity
  8
Object
100
AcDbLine
 10
9.615338821928926
 20
7.870950792786653
 30
0.0
 11
9.573338821928926
 21
7.872950792786653
 31
0.0
  0
LINE
  5
4E6
330
1F
100
AcDbEntity
  8
Object
100
AcDbLine
 10
9.573338821928926
 20
7.872950792786653
 30
0.0
 11
9.559338821928925
 21
7.873950792786653
 31
0.0
  0
LINE
  5
4E7
330
1F
100
AcDbEntity
  8
Object
100
AcDbLine
 10
9.559338821928925
 20
7.873950792786653
 30
0.0
 11
9.550338821928926
 21
7.874950792786653
 31
0.0
  0
LINE
  5
4E8
330
1F
100
AcDbEntity
  8
Object
100
AcDbLine
 10
9.554338821928926
 20
7.874950792786653
 30
0.0
 11
9.607338821928925
 21
7.870950792786653
 31
0.0
  0
LINE
  5
4E9
330
1F
100
AcDbEntity
  8
Object
100
AcDbLine
 10
9.550338821928926
 20
7.874950792786653
 30
0.0
 11
9.547338821928926
 21
7.874950792786653
 31
0.0
  0
LINE
  5
4EA
330
1F
100
AcDbEntity
  8
Object
100
AcDbLine
 10
9.607338821928925
 20
7.870950792786653
 30
0.0
 11
9.606338821928925
 21
7.870950792786653
 31
0.0
  0
LINE
  5
4EB
330
1F
100
AcDbEntity
  8
Object
100
AcDbLine
 10
9.606338821928925
 20
7.870950792786653
 30
0.0
 11
9.607338821928925
 21
7.870950792786653
 31
0.0
  0
LINE
  5
4EC
330
1F
100
AcDbEntity
  8
Object
100
AcDbLine
 10
9.547338821928926
 20
7.874950792786653
 30
0.0
 11
9.546338821928925
 21
7.868950792786653
 31
0.0
  0
LINE
  5
4ED
330
1F
100
AcDbEntity
  8
Object
100
AcDbLine
 10
9.546338821928925
 20
7.868950792786653
 30
0.0
 11
9.545338821928925
 21
7.850950792786653
 31
0.0
  0
LINE
  5
4EE
330
1F
100
AcDbEntity
  8
Object
100
AcDbLine
 10
9.545338821928925
 20
7.850950792786653
 30
0.0
 11
9.543338821928925
 21
7.820950792786653
 31
0.0
  0
LINE
  5
4EF
330
1F
100
AcDbEntity
  8
Object
100
AcDbLine
 10
9.543338821928925
 20
7.820950792786653
 30
0.0
 11
9.540338821928925
 21
7.780950792786653
 31
0.0
  0
LINE
  5
4F0
330
1F
100
AcDbEntity
  8
Object
100
AcDbLine
 10
9.540338821928925
 20
7.780950792786653
 30
0.0
 11
9.537338821928926
 21
7.733950792786653
 31
0.0
  0
LINE
  5
4F1
330
1F
100
AcDbEntity
  8
Object
100
AcDbLine
 10
9.537338821928926
 20
7.733950792786653
 30
0.0
 11
9.533338821928925
 21
7.680950792786653
 31
0.0
  0
LINE
  5
4F2
330
1F
100
AcDbEntity
  8
Object
100
AcDbLine
 10
9.533338821928925
 20
7.680950792786653
 30
0.0
 11
9.529338821928925
 21
7.625950792786653
 31
0.0
  0
LINE
  5
4F3
330
1F
100
AcDbEntity
  8
Object
100
AcDbLine
 10
9.492338821928925
 20
7.089950792786654
 30
0.0
 11
9.492338821928925
 21
7.092950792786653
 31
0.0
  0
LINE
  5
4F4
330
1F
100
AcDbEntity
  8
Object
100
AcDbLine
 10
9.492338821928925
 20
7.092950792786653
 30
0.0
 11
9.492338821928925
 21
7.089950792786654
 31
0.0
  0
LINE
  5
4F5
330
1F
100
AcDbEntity
  8
Object
100
AcDbLine
 10
9.489338821928926
 20
7.059950792786653
 30
0.0
 11
9.489338821928926
 21
7.049950792786654
 31
0.0
  0
LINE
  5
4F6
330
1F
100
AcDbEntity
  8
Object
100
AcDbLine
 10
9.489338821928926
 20
7.049950792786654
 30
0.0
 11
9.487338821928926
 21
7.019950792786653
 31
0.0
  0
LINE
  5
4F7
330
1F
100
AcDbEntity
  8
Object
100
AcDbLine
 10
9.487338821928926
 20
7.019950792786653
 30
0.0
 11
9.486338821928926
 21
7.009950792786654
 31
0.0
  0
LINE
  5
4F8
330
1F
100
AcDbEntity
  8
Object
100
AcDbLine
 10
9.391338821928925
 20
5.648950792786653
 30
0.0
 11
9.390338821928926
 21
5.637950792786654
 31
0.0
  0
LINE
  5
4F9
330
1F
100
AcDbEntity
  8
Object
100
AcDbLine
 10
9.390338821928926
 20
5.637950792786654
 30
0.0
 11
9.388338821928925
 21
5.607950792786653
 31
0.0
  0
LINE
  5
4FA
330
1F
100
AcDbEntity
  8
Object
100
AcDbLine
 10
9.388338821928925
 20
5.607950792786653
 30
0.0
 11
9.387338821928926
 21
5.601950792786653
 31
0.0
  0
LINE
  5
4FB
330
1F
100
AcDbEntity
  8
Object
100
AcDbLine
 10
9.381338821928926
 20
5.564950792786653
 30
0.0
 11
9.390338821928926
 21
5.564950792786653
 31
0.0
  0
LINE
  5
4FC
330
1F
100
AcDbEntity
  8
Object
100
AcDbLine
 10
9.440338821928925
 20
6.347950792786654
 30
0.0
 11
9.529338821928925
 21
7.625950792786653
 31
0.0
  0
LINE
  5
4FD
330
1F
100
AcDbEntity
  8
Object
100
AcDbLine
 10
9.547338821928926
 20
7.874950792786653
 30
0.0
 11
9.333338821928926
 21
4.820950792786653
 31
0.0
  0
LINE
  5
4FE
330
1F
100
AcDbEntity
  8
Object
100
AcDbLine
 10
9.358338821928926
 20
4.818950792786653
 30
0.0
 11
9.359338821928925
 21
4.817950792786653
 31
0.0
  0
LINE
  5
4FF
330
1F
100
AcDbEntity
  8
Object
100
AcDbLine
 10
3.262338821928924
 20
7.874950792786653
 30
0.0
 11
3.259338821928924
 21
7.874950792786653
 31
0.0
  0
LINE
  5
500
330
1F
100
AcDbEntity
  8
Object
100
AcDbLine
 10
3.259338821928924
 20
7.874950792786653
 30
0.0
 11
3.250338821928927
 21
7.873950792786653
 31
0.0
  0
LINE
  5
501
330
1F
100
AcDbEntity
  8
Object
100
AcDbLine
 10
3.250338821928927
 20
7.873950792786653
 30
0.0
 11
3.236338821928924
 21
7.872950792786653
 31
0.0
  0
LINE
  5
502
330
1F
100
AcDbEntity
  8
Object
100
AcDbLine
 10
3.254338821928925
 20
7.874950792786653
 30
0.0
 11
3.202338821928925
 21
7.870950792786653
 31
0.0
  0
LINE
  5
503
330
1F
100
AcDbEntity
  8
Object
100
AcDbLine
 10
3.202338821928925
 20
7.870950792786653
 30
0.0
 11
3.201338821928924
 21
7.870950792786653
 31
0.0
  0
LINE
  5
504
330
1F
100
AcDbEntity
  8
Object
100
AcDbLine
 10
3.201338821928924
 20
7.870950792786653
 30
0.0
 11
3.198338821928924
 21
7.870950792786653
 31
0.0
  0
LINE
  5
505
330
1F
100
AcDbEntity
  8
Object
100
AcDbLine
 10
3.198338821928924
 20
7.870950792786653
 30
0.0
 11
3.193338821928925
 21
7.870950792786653
 31
0.0
  0
LINE
  5
506
330
1F
100
AcDbEntity
  8
Object
100
AcDbLine
 10
3.193338821928925
 20
7.870950792786653
 30
0.0
 11
3.236338821928924
 21
7.872950792786653
 31
0.0
  0
LINE
  5
507
330
1F
100
AcDbEntity
  8
Object
100
AcDbLine
 10
3.475338821928925
 20
4.820950792786653
 30
0.0
 11
3.475338821928925
 21
4.826950792786654
 31
0.0
  0
LINE
  5
508
330
1F
100
AcDbEntity
  8
Object
100
AcDbLine
 10
3.475338821928925
 20
4.826950792786654
 30
0.0
 11
3.474338821928924
 21
4.844950792786653
 31
0.0
  0
LINE
  5
509
330
1F
100
AcDbEntity
  8
Object
100
AcDbLine
 10
3.474338821928924
 20
4.844950792786653
 30
0.0
 11
3.472338821928925
 21
4.874950792786654
 31
0.0
  0
LINE
  5
50A
330
1F
100
AcDbEntity
  8
Object
100
AcDbLine
 10
3.472338821928925
 20
4.874950792786654
 30
0.0
 11
3.469338821928925
 21
4.914950792786653
 31
0.0
  0
LINE
  5
50B
330
1F
100
AcDbEntity
  8
Object
100
AcDbLine
 10
3.469338821928925
 20
4.914950792786653
 30
0.0
 11
3.466338821928925
 21
4.961950792786653
 31
0.0
  0
LINE
  5
50C
330
1F
100
AcDbEntity
  8
Object
100
AcDbLine
 10
3.466338821928925
 20
4.961950792786653
 30
0.0
 11
3.462338821928923
 21
5.014950792786653
 31
0.0
  0
LINE
  5
50D
330
1F
100
AcDbEntity
  8
Object
100
AcDbLine
 10
3.462338821928923
 20
5.014950792786653
 30
0.0
 11
3.458338821928926
 21
5.069950792786653
 31
0.0
  0
LINE
  5
50E
330
1F
100
AcDbEntity
  8
Object
100
AcDbLine
 10
3.423338821928926
 20
5.565950792786653
 30
0.0
 11
3.423338821928926
 21
5.569950792786653
 31
0.0
  0
LINE
  5
50F
330
1F
100
AcDbEntity
  8
Object
100
AcDbLine
 10
3.423338821928926
 20
5.569950792786653
 30
0.0
 11
3.422338821928924
 21
5.584950792786653
 31
0.0
  0
LINE
  5
510
330
1F
100
AcDbEntity
  8
Object
100
AcDbLine
 10
3.422338821928924
 20
5.584950792786653
 30
0.0
 11
3.420338821928925
 21
5.601950792786653
 31
0.0
  0
LINE
  5
511
330
1F
100
AcDbEntity
  8
Object
100
AcDbLine
 10
3.417338821928925
 20
5.640950792786654
 30
0.0
 11
3.416338821928924
 21
5.670950792786653
 31
0.0
  0
LINE
  5
512
330
1F
100
AcDbEntity
  8
Object
100
AcDbLine
 10
3.416338821928924
 20
5.670950792786653
 30
0.0
 11
3.324338821928925
 21
6.986950792786653
 31
0.0
  0
LINE
  5
513
330
1F
100
AcDbEntity
  8
Object
100
AcDbLine
 10
3.324338821928925
 20
6.986950792786653
 30
0.0
 11
3.322338821928926
 21
7.019950792786653
 31
0.0
  0
LINE
  5
514
330
1F
100
AcDbEntity
  8
Object
100
AcDbLine
 10
3.322338821928926
 20
7.019950792786653
 30
0.0
 11
3.320338821928924
 21
7.049950792786654
 31
0.0
  0
LINE
  5
515
330
1F
100
AcDbEntity
  8
Object
100
AcDbLine
 10
3.320338821928924
 20
7.049950792786654
 30
0.0
 11
3.318338821928925
 21
7.072950792786653
 31
0.0
  0
LINE
  5
516
330
1F
100
AcDbEntity
  8
Object
100
AcDbLine
 10
3.317338821928924
 20
7.087950792786653
 30
0.0
 11
3.317338821928924
 21
7.092950792786653
 31
0.0
  0
LINE
  5
517
330
1F
100
AcDbEntity
  8
Object
100
AcDbLine
 10
3.317338821928924
 20
7.092950792786653
 30
0.0
 11
3.317338821928924
 21
7.087950792786653
 31
0.0
  0
LINE
  5
518
330
1F
100
AcDbEntity
  8
Object
100
AcDbLine
 10
3.317338821928924
 20
7.087950792786653
 30
0.0
 11
3.318338821928925
 21
7.072950792786653
 31
0.0
  0
LINE
  5
519
330
1F
100
AcDbEntity
  8
Object
100
AcDbLine
 10
3.422338821928924
 20
5.572950792786653
 30
0.0
 11
3.458338821928926
 21
5.069950792786653
 31
0.0
  0
LINE
  5
51A
330
1F
100
AcDbEntity
  8
Object
100
AcDbLine
 10
3.416338821928924
 20
5.663950792786653
 30
0.0
 11
3.421338821928927
 21
5.586950792786653
 31
0.0
  0
LINE
  5
51B
330
1F
100
AcDbEntity
  8
Object
100
AcDbLine
 10
3.272338821928926
 20
7.720950792786653
 30
0.0
 11
3.272338821928926
 21
7.733950792786653
 31
0.0
  0
LINE
  5
51C
330
1F
100
AcDbEntity
  8
Object
100
AcDbLine
 10
3.272338821928926
 20
7.733950792786653
 30
0.0
 11
3.271338821928925
 21
7.744950792786653
 31
0.0
  0
LINE
  5
51D
330
1F
100
AcDbEntity
  8
Object
100
AcDbLine
 10
3.266338821928925
 20
7.809950792786653
 30
0.0
 11
3.266338821928925
 21
7.820950792786653
 31
0.0
  0
LINE
  5
51E
330
1F
100
AcDbEntity
  8
Object
100
AcDbLine
 10
3.266338821928925
 20
7.820950792786653
 30
0.0
 11
3.264338821928927
 21
7.850950792786653
 31
0.0
  0
LINE
  5
51F
330
1F
100
AcDbEntity
  8
Object
100
AcDbLine
 10
3.475338821928925
 20
4.820950792786653
 30
0.0
 11
3.262338821928924
 21
7.874950792786653
 31
0.0
  0
LINE
  5
520
330
1F
100
AcDbEntity
  8
Object
100
AcDbLine
 10
3.263338821928925
 20
7.857950792786653
 30
0.0
 11
3.264338821928927
 21
7.850950792786653
 31
0.0
  0
LINE
  5
521
330
1F
100
AcDbEntity
  8
Object
100
AcDbLine
 10
3.198338821928924
 20
7.870950792786653
 30
0.0
 11
3.207338821928924
 21
7.870950792786653
 31
0.0
  0
LINE
  5
522
330
1F
100
AcDbEntity
  8
Object
100
AcDbLine
 10
3.475338821928925
 20
4.820950792786653
 30
0.0
 11
3.475338821928925
 21
4.826950792786654
 31
0.0
  0
LINE
  5
523
330
1F
100
AcDbEntity
  8
Object
100
AcDbLine
 10
3.475338821928925
 20
4.826950792786654
 30
0.0
 11
3.474338821928924
 21
4.844950792786653
 31
0.0
  0
LINE
  5
524
330
1F
100
AcDbEntity
  8
Object
100
AcDbLine
 10
3.474338821928924
 20
4.844950792786653
 30
0.0
 11
3.472338821928925
 21
4.874950792786654
 31
0.0
  0
LINE
  5
525
330
1F
100
AcDbEntity
  8
Object
100
AcDbLine
 10
3.472338821928925
 20
4.874950792786654
 30
0.0
 11
3.469338821928925
 21
4.914950792786653
 31
0.0
  0
LINE
  5
526
330
1F
100
AcDbEntity
  8
Object
100
AcDbLine
 10
3.469338821928925
 20
4.914950792786653
 30
0.0
 11
3.466338821928925
 21
4.961950792786653
 31
0.0
  0
LINE
  5
527
330
1F
100
AcDbEntity
  8
Object
100
AcDbLine
 10
3.466338821928925
 20
4.961950792786653
 30
0.0
 11
3.462338821928923
 21
5.014950792786653
 31
0.0
  0
LINE
  5
528
330
1F
100
AcDbEntity
  8
Object
100
AcDbLine
 10
3.462338821928923
 20
5.014950792786653
 30
0.0
 11
3.458338821928926
 21
5.069950792786653
 31
0.0
  0
LINE
  5
529
330
1F
100
AcDbEntity
  8
Object
100
AcDbLine
 10
9.554338821928926
 20
7.874950792786653
 30
0.0
 11
9.607338821928925
 21
7.870950792786653
 31
0.0
  0
LINE
  5
52A
330
1F
100
AcDbEntity
  8
Object
100
AcDbLine
 10
9.607338821928925
 20
7.870950792786653
 30
0.0
 11
9.554338821928926
 21
7.874950792786653
 31
0.0
  0
LINE
  5
52B
330
1F
100
AcDbEntity
  8
Object
100
AcDbLine
 10
9.606338821928925
 20
7.870950792786653
 30
0.0
 11
9.607338821928925
 21
7.870950792786653
 31
0.0
  0
LINE
  5
52C
330
1F
100
AcDbEntity
  8
Object
100
AcDbLine
 10
9.607338821928925
 20
7.870950792786653
 30
0.0
 11
9.554338821928926
 21
7.874950792786653
 31
0.0
  0
LINE
  5
52D
330
1F
100
AcDbEntity
  8
Object
100
AcDbLine
 10
9.547338821928926
 20
7.874950792786653
 30
0.0
 11
9.546338821928925
 21
7.868950792786653
 31
0.0
  0
LINE
  5
52E
330
1F
100
AcDbEntity
  8
Object
100
AcDbLine
 10
9.546338821928925
 20
7.868950792786653
 30
0.0
 11
9.545338821928925
 21
7.850950792786653
 31
0.0
  0
LINE
  5
52F
330
1F
100
AcDbEntity
  8
Object
100
AcDbLine
 10
9.545338821928925
 20
7.850950792786653
 30
0.0
 11
9.543338821928925
 21
7.820950792786653
 31
0.0
  0
LINE
  5
530
330
1F
100
AcDbEntity
  8
Object
100
AcDbLine
 10
9.543338821928925
 20
7.820950792786653
 30
0.0
 11
9.540338821928925
 21
7.780950792786653
 31
0.0
  0
LINE
  5
531
330
1F
100
AcDbEntity
  8
Object
100
AcDbLine
 10
9.540338821928925
 20
7.780950792786653
 30
0.0
 11
9.537338821928926
 21
7.733950792786653
 31
0.0
  0
LINE
  5
532
330
1F
100
AcDbEntity
  8
Object
100
AcDbLine
 10
9.537338821928926
 20
7.733950792786653
 30
0.0
 11
9.533338821928925
 21
7.680950792786653
 31
0.0
  0
LINE
  5
533
330
1F
100
AcDbEntity
  8
Object
100
AcDbLine
 10
9.533338821928925
 20
7.680950792786653
 30
0.0
 11
9.529338821928925
 21
7.625950792786653
 31
0.0
  0
LINE
  5
534
330
1F
100
AcDbEntity
  8
Object
100
AcDbLine
 10
9.529338821928925
 20
7.625950792786653
 30
0.0
 11
9.529338821928925
 21
7.624950792786653
 31
0.0
  0
LINE
  5
535
330
1F
100
AcDbEntity
  8
Object
100
AcDbLine
 10
9.529338821928925
 20
7.625950792786653
 30
0.0
 11
9.440338821928925
 21
6.347950792786654
 31
0.0
  0
LINE
  5
536
330
1F
100
AcDbEntity
  8
Object
100
AcDbLine
 10
9.391338821928925
 20
5.648950792786653
 30
0.0
 11
9.390338821928926
 21
5.637950792786654
 31
0.0
  0
LINE
  5
537
330
1F
100
AcDbEntity
  8
Object
100
AcDbLine
 10
9.390338821928926
 20
5.637950792786654
 30
0.0
 11
9.388338821928925
 21
5.607950792786653
 31
0.0
  0
LINE
  5
538
330
1F
100
AcDbEntity
  8
Object
100
AcDbLine
 10
9.388338821928925
 20
5.607950792786653
 30
0.0
 11
9.387338821928926
 21
5.601950792786653
 31
0.0
  0
LINE
  5
539
330
1F
100
AcDbEntity
  8
Object
100
AcDbLine
 10
9.381338821928926
 20
5.564950792786653
 30
0.0
 11
9.390338821928926
 21
5.564950792786653
 31
0.0
  0
LINE
  5
53A
330
1F
100
AcDbEntity
  8
Object
100
AcDbLine
 10
9.492338821928925
 20
7.089950792786654
 30
0.0
 11
9.492338821928925
 21
7.090950792786653
 31
0.0
  0
LINE
  5
53B
330
1F
100
AcDbEntity
  8
Object
100
AcDbLine
 10
9.492338821928925
 20
7.090950792786653
 30
0.0
 11
9.492338821928925
 21
7.092950792786653
 31
0.0
  0
LINE
  5
53C
330
1F
100
AcDbEntity
  8
Object
100
AcDbLine
 10
9.492338821928925
 20
7.092950792786653
 30
0.0
 11
9.492338821928925
 21
7.089950792786654
 31
0.0
  0
LINE
  5
53D
330
1F
100
AcDbEntity
  8
Object
100
AcDbLine
 10
9.489338821928926
 20
7.059950792786653
 30
0.0
 11
9.489338821928926
 21
7.049950792786654
 31
0.0
  0
LINE
  5
53E
330
1F
100
AcDbEntity
  8
Object
100
AcDbLine
 10
9.489338821928926
 20
7.049950792786654
 30
0.0
 11
9.487338821928926
 21
7.019950792786653
 31
0.0
  0
LINE
  5
53F
330
1F
100
AcDbEntity
  8
Object
100
AcDbLine
 10
9.487338821928926
 20
7.019950792786653
 30
0.0
 11
9.486338821928926
 21
7.009950792786654
 31
0.0
  0
LINE
  5
540
330
1F
100
AcDbEntity
  8
Object
100
AcDbLine
 10
9.492338821928925
 20
7.090950792786653
 30
0.0
 11
9.492338821928925
 21
7.089950792786654
 31
0.0
  0
LINE
  5
541
330
1F
100
AcDbEntity
  8
Object
100
AcDbLine
 10
9.492338821928925
 20
7.089950792786654
 30
0.0
 11
9.492338821928925
 21
7.092950792786653
 31
0.0
  0
LINE
  5
542
330
1F
100
AcDbEntity
  8
Object
100
AcDbLine
 10
9.492338821928925
 20
7.092950792786653
 30
0.0
 11
9.492338821928925
 21
7.090950792786653
 31
0.0
  0
LINE
  5
543
330
1F
100
AcDbEntity
  8
Object
100
AcDbLine
 10
9.492338821928925
 20
7.090950792786653
 30
0.0
 11
9.492338821928925
 21
7.092950792786653
 31
0.0
  0
LINE
  5
544
330
1F
100
AcDbEntity
  8
Object
100
AcDbLine
 10
9.492338821928925
 20
7.092950792786653
 30
0.0
 11
9.492338821928925
 21
7.090950792786653
 31
0.0
  0
LINE
  5
545
330
1F
100
AcDbEntity
  8
Object
100
AcDbLine
 10
9.492338821928925
 20
7.090950792786653
 30
0.0
 11
9.492338821928925
 21
7.089950792786654
 31
0.0
  0
LINE
  5
546
330
1F
100
AcDbEntity
  8
Object
100
AcDbLine
 10
9.492338821928925
 20
7.089950792786654
 30
0.0
 11
9.492338821928925
 21
7.090950792786653
 31
0.0
  0
LINE
  5
547
330
1F
100
AcDbEntity
  8
Object
100
AcDbLine
 10
9.492338821928925
 20
7.090950792786653
 30
0.0
 11
9.492338821928925
 21
7.089950792786654
 31
0.0
  0
LINE
  5
548
330
1F
100
AcDbEntity
  8
Object
100
AcDbLine
 10
9.492338821928925
 20
7.089950792786654
 30
0.0
 11
9.492338821928925
 21
7.090950792786653
 31
0.0
  0
LINE
  5
549
330
1F
100
AcDbEntity
  8
Object
100
AcDbLine
 10
9.492338821928925
 20
7.090950792786653
 30
0.0
 11
9.492338821928925
 21
7.092950792786653
 31
0.0
  0
LINE
  5
54A
330
1F
100
AcDbEntity
  8
Object
100
AcDbLine
 10
9.492338821928925
 20
7.092950792786653
 30
0.0
 11
9.492338821928925
 21
7.090950792786653
 31
0.0
  0
LINE
  5
54B
330
1F
100
AcDbEntity
  8
Object
100
AcDbLine
 10
3.254338821928925
 20
7.874950792786653
 30
0.0
 11
3.202338821928925
 21
7.870950792786653
 31
0.0
  0
LINE
  5
54C
330
1F
100
AcDbEntity
  8
Object
100
AcDbLine
 10
3.202338821928925
 20
7.870950792786653
 30
0.0
 11
3.254338821928925
 21
7.874950792786653
 31
0.0
  0
LINE
  5
54D
330
1F
100
AcDbEntity
  8
Object
100
AcDbLine
 10
3.272338821928926
 20
7.720950792786653
 30
0.0
 11
3.272338821928926
 21
7.733950792786653
 31
0.0
  0
LINE
  5
54E
330
1F
100
AcDbEntity
  8
Object
100
AcDbLine
 10
3.272338821928926
 20
7.733950792786653
 30
0.0
 11
3.271338821928925
 21
7.744950792786653
 31
0.0
  0
LINE
  5
54F
330
1F
100
AcDbEntity
  8
Object
100
AcDbLine
 10
3.266338821928925
 20
7.809950792786653
 30
0.0
 11
3.266338821928925
 21
7.820950792786653
 31
0.0
  0
LINE
  5
550
330
1F
100
AcDbEntity
  8
Object
100
AcDbLine
 10
3.266338821928925
 20
7.820950792786653
 30
0.0
 11
3.264338821928927
 21
7.850950792786653
 31
0.0
  0
LINE
  5
551
330
1F
100
AcDbEntity
  8
Object
100
AcDbLine
 10
3.264338821928927
 20
7.850950792786653
 30
0.0
 11
3.263338821928925
 21
7.857950792786653
 31
0.0
  0
LINE
  5
552
330
1F
100
AcDbEntity
  8
Object
100
AcDbLine
 10
3.254338821928925
 20
7.874950792786653
 30
0.0
 11
3.202338821928925
 21
7.870950792786653
 31
0.0
  0
LINE
  5
553
330
1F
100
AcDbEntity
  8
Object
100
AcDbLine
 10
3.421338821928927
 20
5.586950792786653
 30
0.0
 11
3.416338821928924
 21
5.663950792786653
 31
0.0
  0
LINE
  5
554
330
1F
100
AcDbEntity
  8
Object
100
AcDbLine
 10
3.422338821928924
 20
5.572950792786653
 30
0.0
 11
3.458338821928926
 21
5.069950792786653
 31
0.0
  0
LINE
  5
555
330
1F
100
AcDbEntity
  8
Object
100
AcDbLine
 10
3.458338821928926
 20
5.069950792786653
 30
0.0
 11
3.457338821928924
 21
5.069950792786653
 31
0.0
  0
LINE
  5
556
330
1F
100
AcDbEntity
  8
Object
100
AcDbLine
 10
3.415338821928926
 20
5.669950792786654
 30
0.0
 11
3.416338821928924
 21
5.670950792786653
 31
0.0
  0
LINE
  5
557
330
1F
100
AcDbEntity
  8
Object
100
AcDbLine
 10
3.416338821928924
 20
5.670950792786653
 30
0.0
 11
3.324338821928925
 21
6.986950792786653
 31
0.0
  0
LINE
  5
558
330
1F
100
AcDbEntity
  8
Object
100
AcDbLine
 10
3.317338821928924
 20
7.087950792786653
 30
0.0
 11
3.317338821928924
 21
7.088950792786653
 31
0.0
  0
LINE
  5
559
330
1F
100
AcDbEntity
  8
Object
100
AcDbLine
 10
3.317338821928924
 20
7.088950792786653
 30
0.0
 11
3.317338821928924
 21
7.090950792786653
 31
0.0
  0
LINE
  5
55A
330
1F
100
AcDbEntity
  8
Object
100
AcDbLine
 10
3.317338821928924
 20
7.090950792786653
 30
0.0
 11
3.317338821928924
 21
7.092950792786653
 31
0.0
  0
LINE
  5
55B
330
1F
100
AcDbEntity
  8
Object
100
AcDbLine
 10
3.317338821928924
 20
7.092950792786653
 30
0.0
 11
3.317338821928924
 21
7.087950792786653
 31
0.0
  0
LINE
  5
55C
330
1F
100
AcDbEntity
  8
Object
100
AcDbLine
 10
3.324338821928925
 20
6.986950792786653
 30
0.0
 11
3.322338821928926
 21
7.019950792786653
 31
0.0
  0
LINE
  5
55D
330
1F
100
AcDbEntity
  8
Object
100
AcDbLine
 10
3.317338821928924
 20
7.090950792786653
 30
0.0
 11
3.317338821928924
 21
7.088950792786653
 31
0.0
  0
LINE
  5
55E
330
1F
100
AcDbEntity
  8
Object
100
AcDbLine
 10
3.317338821928924
 20
7.087950792786653
 30
0.0
 11
3.317338821928924
 21
7.092950792786653
 31
0.0
  0
LINE
  5
55F
330
1F
100
AcDbEntity
  8
Object
100
AcDbLine
 10
3.317338821928924
 20
7.092950792786653
 30
0.0
 11
3.317338821928924
 21
7.090950792786653
 31
0.0
  0
LINE
  5
560
330
1F
100
AcDbEntity
  8
Object
100
AcDbLine
 10
3.317338821928924
 20
7.088950792786653
 30
0.0
 11
3.317338821928924
 21
7.087950792786653
 31
0.0
  0
LINE
  5
561
330
1F
100
AcDbEntity
  8
Object
100
AcDbLine
 10
3.322338821928926
 20
7.019950792786653
 30
0.0
 11
3.320338821928924
 21
7.049950792786654
 31
0.0
  0
LINE
  5
562
330
1F
100
AcDbEntity
  8
Object
100
AcDbLine
 10
3.320338821928924
 20
7.049950792786654
 30
0.0
 11
3.318338821928925
 21
7.072950792786653
 31
0.0
  0
LINE
  5
563
330
1F
100
AcDbEntity
  8
Object
100
AcDbLine
 10
3.318338821928925
 20
7.072950792786653
 30
0.0
 11
3.317338821928924
 21
7.087950792786653
 31
0.0
  0
LINE
  5
564
330
1F
100
AcDbEntity
  8
Object
100
AcDbLine
 10
3.317338821928924
 20
7.087950792786653
 30
0.0
 11
3.316338821928926
 21
7.086950792786653
 31
0.0
  0
LINE
  5
565
330
1F
100
AcDbEntity
  8
Object
100
AcDbLine
 10
3.422338821928924
 20
5.584950792786653
 30
0.0
 11
3.423338821928926
 21
5.569950792786653
 31
0.0
  0
LINE
  5
566
330
1F
100
AcDbEntity
  8
Object
100
AcDbLine
 10
3.423338821928926
 20
5.569950792786653
 30
0.0
 11
3.423338821928926
 21
5.565950792786653
 31
0.0
  0
LINE
  5
567
330
1F
100
AcDbEntity
  8
Object
100
AcDbLine
 10
3.422338821928924
 20
5.584950792786653
 30
0.0
 11
3.420338821928925
 21
5.601950792786653
 31
0.0
  0
LINE
  5
568
330
1F
100
AcDbEntity
  8
Object
100
AcDbLine
 10
3.417338821928925
 20
5.640950792786654
 30
0.0
 11
3.416338821928924
 21
5.670950792786653
 31
0.0
  0
LINE
  5
569
330
1F
100
AcDbEntity
  8
Object
100
AcDbLine
 10
3.317338821928924
 20
7.090950792786653
 30
0.0
 11
3.317338821928924
 21
7.092950792786653
 31
0.0
  0
LINE
  5
56A
330
1F
100
AcDbEntity
  8
Object
100
AcDbLine
 10
3.317338821928924
 20
7.092950792786653
 30
0.0
 11
3.317338821928924
 21
7.090950792786653
 31
0.0
  0
LINE
  5
56B
330
1F
100
AcDbEntity
  8
Object
100
AcDbLine
 10
3.317338821928924
 20
7.090950792786653
 30
0.0
 11
3.317338821928924
 21
7.092950792786653
 31
0.0
  0
LINE
  5
56C
330
1F
100
AcDbEntity
  8
Object
100
AcDbLine
 10
3.317338821928924
 20
7.092950792786653
 30
0.0
 11
3.317338821928924
 21
7.090950792786653
 31
0.0
  0
LINE
  5
56D
330
1F
100
AcDbEntity
  8
Object
100
AcDbLine
 10
3.317338821928924
 20
7.090950792786653
 30
0.0
 11
3.317338821928924
 21
7.088950792786653
 31
0.0
  0
LINE
  5
56E
330
1F
100
AcDbEntity
  8
Object
100
AcDbLine
 10
3.317338821928924
 20
7.088950792786653
 30
0.0
 11
3.317338821928924
 21
7.090950792786653
 31
0.0
  0
LINE
  5
56F
330
1F
100
AcDbEntity
  8
Object
100
AcDbLine
 10
3.317338821928924
 20
7.090950792786653
 30
0.0
 11
3.317338821928924
 21
7.088950792786653
 31
0.0
  0
LINE
  5
570
330
1F
100
AcDbEntity
  8
Object
100
AcDbLine
 10
3.317338821928924
 20
7.088950792786653
 30
0.0
 11
3.317338821928924
 21
7.090950792786653
 31
0.0
  0
LINE
  5
571
330
1F
100
AcDbEntity
  8
Object
100
AcDbLine
 10
3.317338821928924
 20
7.088950792786653
 30
0.0
 11
3.317338821928924
 21
7.087950792786653
 31
0.0
  0
LINE
  5
572
330
1F
100
AcDbEntity
  8
Object
100
AcDbLine
 10
3.317338821928924
 20
7.087950792786653
 30
0.0
 11
3.317338821928924
 21
7.088950792786653
 31
0.0
  0
LINE
  5
573
330
1F
100
AcDbEntity
  8
Object
100
AcDbLine
 10
3.317338821928924
 20
7.088950792786653
 30
0.0
 11
3.317338821928924
 21
7.087950792786653
 31
0.0
  0
LINE
  5
574
330
1F
100
AcDbEntity
  8
Object
100
AcDbLine
 10
3.317338821928924
 20
7.087950792786653
 30
0.0
 11
3.317338821928924
 21
7.088950792786653
 31
0.0
  0
LINE
  5
575
330
1F
100
AcDbEntity
  8
Object
100
AcDbLine
 10
9.029338821928925
 20
13.90595079278665
 30
0.0
 11
9.029338821928925
 21
13.91795079278665
 31
0.0
  0
LINE
  5
576
330
1F
100
AcDbEntity
  8
Object
100
AcDbLine
 10
9.029338821928925
 20
14.00795079278665
 30
0.0
 11
9.029338821928925
 21
15.43995079278665
 31
0.0
  0
LINE
  5
577
330
1F
100
AcDbEntity
  8
Object
100
AcDbLine
 10
9.029338821928925
 20
13.99495079278665
 30
0.0
 11
9.029338821928925
 21
13.99995079278665
 31
0.0
  0
LINE
  5
578
330
1F
100
AcDbEntity
  8
Object
100
AcDbLine
 10
9.029338821928925
 20
13.97095079278665
 30
0.0
 11
9.029338821928925
 21
13.98695079278665
 31
0.0
  0
LINE
  5
579
330
1F
100
AcDbEntity
  8
Object
100
AcDbLine
 10
9.029338821928925
 20
13.91795079278665
 30
0.0
 11
9.029338821928925
 21
13.94595079278665
 31
0.0
  0
LINE
  5
57A
330
1F
100
AcDbEntity
  8
Object
100
AcDbLine
 10
9.029338821928925
 20
13.94595079278665
 30
0.0
 11
9.029338821928925
 21
13.97095079278665
 31
0.0
  0
LINE
  5
57B
330
1F
100
AcDbEntity
  8
Object
100
AcDbLine
 10
9.029338821928925
 20
13.98695079278665
 30
0.0
 11
9.029338821928925
 21
13.99295079278665
 31
0.0
  0
LINE
  5
57C
330
1F
100
AcDbEntity
  8
Object
100
AcDbLine
 10
9.029338821928925
 20
13.99295079278665
 30
0.0
 11
9.029338821928925
 21
13.99495079278665
 31
0.0
  0
LINE
  5
57D
330
1F
100
AcDbEntity
  8
Object
100
AcDbLine
 10
9.029338821928925
 20
13.99995079278665
 30
0.0
 11
9.029338821928925
 21
14.00795079278665
 31
0.0
  0
LINE
  5
57E
330
1F
100
AcDbEntity
  8
Object
100
AcDbLine
 10
10.37433882192893
 20
12.56095079278665
 30
0.0
 11
10.36933882192892
 21
12.56595079278665
 31
0.0
  0
LINE
  5
57F
330
1F
100
AcDbEntity
  8
Object
100
AcDbLine
 10
10.36933882192892
 20
12.56595079278665
 30
0.0
 11
10.36433882192892
 21
12.57095079278665
 31
0.0
  0
LINE
  5
580
330
1F
100
AcDbEntity
  8
Object
100
AcDbLine
 10
10.36433882192892
 20
12.57095079278665
 30
0.0
 11
10.36133882192892
 21
12.57495079278665
 31
0.0
  0
LINE
  5
581
330
1F
100
AcDbEntity
  8
Object
100
AcDbLine
 10
10.36133882192892
 20
12.57495079278665
 30
0.0
 11
10.35933882192892
 21
12.57595079278665
 31
0.0
  0
LINE
  5
582
330
1F
100
AcDbEntity
  8
Object
100
AcDbLine
 10
10.35933882192892
 20
12.57595079278665
 30
0.0
 11
10.35433882192892
 21
12.58095079278665
 31
0.0
  0
LINE
  5
583
330
1F
100
AcDbEntity
  8
Object
100
AcDbLine
 10
10.35433882192892
 20
12.58095079278665
 30
0.0
 11
10.34733882192892
 21
12.58795079278665
 31
0.0
  0
LINE
  5
584
330
1F
100
AcDbEntity
  8
Object
100
AcDbLine
 10
10.34733882192892
 20
12.58795079278665
 30
0.0
 11
10.35933882192892
 21
12.57495079278665
 31
0.0
  0
LINE
  5
585
330
1F
100
AcDbEntity
  8
Object
100
AcDbLine
 10
10.33733882192892
 20
12.59795079278665
 30
0.0
 11
10.34733882192892
 21
12.58795079278665
 31
0.0
  0
LINE
  5
586
330
1F
100
AcDbEntity
  8
Object
100
AcDbLine
 10
10.34733882192892
 20
12.58795079278665
 30
0.0
 11
10.32933882192892
 21
12.60595079278665
 31
0.0
  0
LINE
  5
587
330
1F
100
AcDbEntity
  8
Object
100
AcDbLine
 10
10.33733882192892
 20
12.59795079278665
 30
0.0
 11
10.31233882192892
 21
12.62295079278665
 31
0.0
  0
LINE
  5
588
330
1F
100
AcDbEntity
  8
Object
100
AcDbLine
 10
10.31233882192892
 20
12.62295079278665
 30
0.0
 11
10.30533882192892
 21
12.62995079278665
 31
0.0
  0
LINE
  5
589
330
1F
100
AcDbEntity
  8
Object
100
AcDbLine
 10
10.30533882192892
 20
12.62995079278665
 30
0.0
 11
10.30333882192892
 21
12.63195079278665
 31
0.0
  0
LINE
  5
58A
330
1F
100
AcDbEntity
  8
Object
100
AcDbLine
 10
10.29633882192892
 20
12.63795079278665
 30
0.0
 11
10.29533882192892
 21
12.63995079278665
 31
0.0
  0
LINE
  5
58B
330
1F
100
AcDbEntity
  8
Object
100
AcDbLine
 10
10.29533882192892
 20
12.63995079278665
 30
0.0
 11
10.29033882192892
 21
12.64495079278665
 31
0.0
  0
LINE
  5
58C
330
1F
100
AcDbEntity
  8
Object
100
AcDbLine
 10
10.29033882192892
 20
12.64495079278665
 30
0.0
 11
10.28433882192892
 21
12.65095079278665
 31
0.0
  0
LINE
  5
58D
330
1F
100
AcDbEntity
  8
Object
100
AcDbLine
 10
10.28433882192892
 20
12.65095079278665
 30
0.0
 11
10.31233882192892
 21
12.62295079278665
 31
0.0
  0
LINE
  5
58E
330
1F
100
AcDbEntity
  8
Object
100
AcDbLine
 10
10.28433882192892
 20
12.65095079278665
 30
0.0
 11
9.029338821928925
 21
13.90595079278665
 31
0.0
  0
LINE
  5
58F
330
1F
100
AcDbEntity
  8
Object
100
AcDbLine
 10
3.779338821928924
 20
13.90595079278665
 30
0.0
 11
2.524338821928925
 21
12.65095079278665
 31
0.0
  0
LINE
  5
590
330
1F
100
AcDbEntity
  8
Object
100
AcDbLine
 10
2.511338821928926
 20
12.63795079278665
 30
0.0
 11
2.510338821928925
 21
12.63695079278665
 31
0.0
  0
LINE
  5
591
330
1F
100
AcDbEntity
  8
Object
100
AcDbLine
 10
2.510338821928925
 20
12.63695079278665
 30
0.0
 11
2.509338821928924
 21
12.63595079278665
 31
0.0
  0
LINE
  5
592
330
1F
100
AcDbEntity
  8
Object
100
AcDbLine
 10
2.509338821928924
 20
12.63595079278665
 30
0.0
 11
2.505338821928926
 21
12.63195079278665
 31
0.0
  0
LINE
  5
593
330
1F
100
AcDbEntity
  8
Object
100
AcDbLine
 10
2.524338821928925
 20
12.65095079278665
 30
0.0
 11
2.497338821928927
 21
12.62295079278665
 31
0.0
  0
LINE
  5
594
330
1F
100
AcDbEntity
  8
Object
100
AcDbLine
 10
2.497338821928927
 20
12.62295079278665
 30
0.0
 11
2.487338821928926
 21
12.61395079278665
 31
0.0
  0
LINE
  5
595
330
1F
100
AcDbEntity
  8
Object
100
AcDbLine
 10
2.497338821928927
 20
12.62295079278665
 30
0.0
 11
2.471338821928924
 21
12.59795079278665
 31
0.0
  0
LINE
  5
596
330
1F
100
AcDbEntity
  8
Object
100
AcDbLine
 10
2.479338821928926
 20
12.60595079278665
 30
0.0
 11
2.487338821928926
 21
12.61395079278665
 31
0.0
  0
LINE
  5
597
330
1F
100
AcDbEntity
  8
Object
100
AcDbLine
 10
2.471338821928924
 20
12.59795079278665
 30
0.0
 11
2.461338821928926
 21
12.58795079278665
 31
0.0
  0
LINE
  5
598
330
1F
100
AcDbEntity
  8
Object
100
AcDbLine
 10
2.461338821928926
 20
12.58795079278665
 30
0.0
 11
2.455338821928926
 21
12.58095079278665
 31
0.0
  0
LINE
  5
599
330
1F
100
AcDbEntity
  8
Object
100
AcDbLine
 10
2.455338821928926
 20
12.58095079278665
 30
0.0
 11
2.449338821928925
 21
12.57595079278665
 31
0.0
  0
LINE
  5
59A
330
1F
100
AcDbEntity
  8
Object
100
AcDbLine
 10
2.449338821928925
 20
12.57595079278665
 30
0.0
 11
2.448338821928924
 21
12.57495079278665
 31
0.0
  0
LINE
  5
59B
330
1F
100
AcDbEntity
  8
Object
100
AcDbLine
 10
2.448338821928924
 20
12.57495079278665
 30
0.0
 11
2.445338821928924
 21
12.57095079278665
 31
0.0
  0
LINE
  5
59C
330
1F
100
AcDbEntity
  8
Object
100
AcDbLine
 10
2.445338821928924
 20
12.57095079278665
 30
0.0
 11
2.440338821928925
 21
12.56595079278665
 31
0.0
  0
LINE
  5
59D
330
1F
100
AcDbEntity
  8
Object
100
AcDbLine
 10
2.450338821928927
 20
12.57695079278665
 30
0.0
 11
2.458338821928926
 21
12.58395079278665
 31
0.0
  0
LINE
  5
59E
330
1F
100
AcDbEntity
  8
Object
100
AcDbLine
 10
2.446338821928925
 20
12.57295079278665
 30
0.0
 11
2.434338821928925
 21
12.56095079278665
 31
0.0
  0
LINE
  5
59F
330
1F
100
AcDbEntity
  8
Object
100
AcDbLine
 10
2.434338821928925
 20
12.56095079278665
 30
0.0
 11
2.440338821928925
 21
12.56595079278665
 31
0.0
  0
LINE
  5
5A0
330
1F
100
AcDbEntity
  8
Object
100
AcDbLine
 10
10.28433882192892
 20
12.65095079278665
 30
0.0
 11
10.29033882192892
 21
12.64495079278665
 31
0.0
  0
LINE
  5
5A1
330
1F
100
AcDbEntity
  8
Object
100
AcDbLine
 10
10.29033882192892
 20
12.64495079278665
 30
0.0
 11
10.29533882192892
 21
12.63995079278665
 31
0.0
  0
LINE
  5
5A2
330
1F
100
AcDbEntity
  8
Object
100
AcDbLine
 10
2.511338821928926
 20
12.63795079278665
 30
0.0
 11
2.510338821928925
 21
12.63695079278665
 31
0.0
  0
LINE
  5
5A3
330
1F
100
AcDbEntity
  8
Object
100
AcDbLine
 10
10.29633882192892
 20
12.63795079278665
 30
0.0
 11
10.29533882192892
 21
12.63995079278665
 31
0.0
  0
LINE
  5
5A4
330
1F
100
AcDbEntity
  8
Object
100
AcDbLine
 10
2.510338821928925
 20
12.63695079278665
 30
0.0
 11
2.509338821928924
 21
12.63595079278665
 31
0.0
  0
LINE
  5
5A5
330
1F
100
AcDbEntity
  8
Object
100
AcDbLine
 10
3.779338821928924
 20
13.99995079278665
 30
0.0
 11
3.779338821928924
 21
13.99495079278665
 31
0.0
  0
LINE
  5
5A6
330
1F
100
AcDbEntity
  8
Object
100
AcDbLine
 10
3.779338821928924
 20
13.99295079278665
 30
0.0
 11
3.779338821928924
 21
13.98695079278665
 31
0.0
  0
LINE
  5
5A7
330
1F
100
AcDbEntity
  8
Object
100
AcDbLine
 10
3.779338821928924
 20
13.97095079278665
 30
0.0
 11
3.779338821928924
 21
13.94595079278665
 31
0.0
  0
LINE
  5
5A8
330
1F
100
AcDbEntity
  8
Object
100
AcDbLine
 10
3.779338821928924
 20
13.90595079278665
 30
0.0
 11
3.779338821928924
 21
13.91795079278665
 31
0.0
  0
LINE
  5
5A9
330
1F
100
AcDbEntity
  8
Object
100
AcDbLine
 10
3.779338821928924
 20
13.91795079278665
 30
0.0
 11
3.779338821928924
 21
13.94595079278665
 31
0.0
  0
LINE
  5
5AA
330
1F
100
AcDbEntity
  8
Object
100
AcDbLine
 10
3.779338821928924
 20
13.98695079278665
 30
0.0
 11
3.779338821928924
 21
13.97095079278665
 31
0.0
  0
LINE
  5
5AB
330
1F
100
AcDbEntity
  8
Object
100
AcDbLine
 10
3.779338821928924
 20
13.99495079278665
 30
0.0
 11
3.779338821928924
 21
13.99295079278665
 31
0.0
  0
LINE
  5
5AC
330
1F
100
AcDbEntity
  8
Object
100
AcDbLine
 10
3.779338821928924
 20
13.99995079278665
 30
0.0
 11
3.779338821928924
 21
14.00795079278665
 31
0.0
  0
LINE
  5
5AD
330
1F
100
AcDbEntity
  8
Object
100
AcDbLine
 10
3.779338821928924
 20
14.00795079278665
 30
0.0
 11
3.779338821928924
 21
15.43995079278665
 31
0.0
  0
LINE
  5
5AE
330
1F
100
AcDbEntity
  8
Object
100
AcDbLine
 10
9.029338821928925
 20
13.99295079278665
 30
0.0
 11
3.779338821928924
 21
13.99295079278665
 31
0.0
  0
LINE
  5
5AF
330
1F
100
AcDbEntity
  8
Object
100
AcDbLine
 10
3.779338821928924
 20
13.98695079278665
 30
0.0
 11
3.779338821928924
 21
13.97095079278665
 31
0.0
  0
LINE
  5
5B0
330
1F
100
AcDbEntity
  8
Object
100
AcDbLine
 10
9.029338821928925
 20
13.97095079278665
 30
0.0
 11
9.029338821928925
 21
13.98695079278665
 31
0.0
  0
LINE
  5
5B1
330
1F
100
AcDbEntity
  8
Object
100
AcDbLine
 10
3.779338821928924
 20
13.94595079278665
 30
0.0
 11
3.779338821928924
 21
13.91795079278665
 31
0.0
  0
LINE
  5
5B2
330
1F
100
AcDbEntity
  8
Object
100
AcDbLine
 10
9.029338821928925
 20
13.94595079278665
 30
0.0
 11
9.029338821928925
 21
13.91795079278665
 31
0.0
  0
LINE
  5
5B3
330
1F
100
AcDbEntity
  8
Object
100
AcDbLine
 10
9.029338821928925
 20
13.91795079278665
 30
0.0
 11
3.779338821928924
 21
13.91795079278665
 31
0.0
  0
LINE
  5
5B4
330
1F
100
AcDbEntity
  8
Object
100
AcDbLine
 10
9.029338821928925
 20
13.94595079278665
 30
0.0
 11
9.029338821928925
 21
13.97095079278665
 31
0.0
  0
LINE
  5
5B5
330
1F
100
AcDbEntity
  8
Object
100
AcDbLine
 10
3.779338821928924
 20
13.97095079278665
 30
0.0
 11
3.779338821928924
 21
13.94595079278665
 31
0.0
  0
LINE
  5
5B6
330
1F
100
AcDbEntity
  8
Object
100
AcDbLine
 10
3.779338821928924
 20
13.98695079278665
 30
0.0
 11
3.779338821928924
 21
13.99295079278665
 31
0.0
  0
LINE
  5
5B7
330
1F
100
AcDbEntity
  8
Object
100
AcDbLine
 10
3.779338821928924
 20
13.99295079278665
 30
0.0
 11
9.029338821928925
 21
13.99295079278665
 31
0.0
  0
LINE
  5
5B8
330
1F
100
AcDbEntity
  8
Object
100
AcDbLine
 10
9.029338821928925
 20
13.99295079278665
 30
0.0
 11
9.029338821928925
 21
13.98695079278665
 31
0.0
  0
LINE
  5
5B9
330
1F
100
AcDbEntity
  8
Object
100
AcDbLine
 10
8.779338821928925
 20
15.68995079278665
 30
0.0
 11
8.835338821928926
 21
15.68395079278665
 31
0.0
  0
LINE
  5
5BA
330
1F
100
AcDbEntity
  8
Object
100
AcDbLine
 10
8.835338821928926
 20
15.68395079278665
 30
0.0
 11
8.888338821928925
 21
15.66495079278665
 31
0.0
  0
LINE
  5
5BB
330
1F
100
AcDbEntity
  8
Object
100
AcDbLine
 10
8.888338821928925
 20
15.66495079278665
 30
0.0
 11
8.935338821928926
 21
15.63595079278665
 31
0.0
  0
LINE
  5
5BC
330
1F
100
AcDbEntity
  8
Object
100
AcDbLine
 10
8.935338821928926
 20
15.63595079278665
 30
0.0
 11
8.975338821928925
 21
15.59595079278665
 31
0.0
  0
LINE
  5
5BD
330
1F
100
AcDbEntity
  8
Object
100
AcDbLine
 10
8.975338821928925
 20
15.59595079278665
 30
0.0
 11
9.005338821928926
 21
15.54895079278665
 31
0.0
  0
LINE
  5
5BE
330
1F
100
AcDbEntity
  8
Object
100
AcDbLine
 10
9.005338821928926
 20
15.54895079278665
 30
0.0
 11
9.023338821928925
 21
15.49595079278665
 31
0.0
  0
LINE
  5
5BF
330
1F
100
AcDbEntity
  8
Object
100
AcDbLine
 10
9.023338821928925
 20
15.49595079278665
 30
0.0
 11
9.029338821928925
 21
15.43995079278665
 31
0.0
  0
LINE
  5
5C0
330
1F
100
AcDbEntity
  8
Object
100
AcDbLine
 10
9.029338821928925
 20
15.43995079278665
 30
0.0
 11
9.029338821928925
 21
14.00795079278665
 31
0.0
  0
LINE
  5
5C1
330
1F
100
AcDbEntity
  8
Object
100
AcDbLine
 10
7.127338821928926
 20
15.46595079278665
 30
0.0
 11
7.097338821928925
 21
15.48095079278665
 31
0.0
  0
LINE
  5
5C2
330
1F
100
AcDbEntity
  8
Object
100
AcDbLine
 10
7.097338821928925
 20
15.48095079278665
 30
0.0
 11
7.064338821928926
 21
15.48595079278665
 31
0.0
  0
LINE
  5
5C3
330
1F
100
AcDbEntity
  8
Object
100
AcDbLine
 10
7.097338821928925
 20
14.25895079278665
 30
0.0
 11
7.064338821928926
 21
14.25395079278665
 31
0.0
  0
LINE
  5
5C4
330
1F
100
AcDbEntity
  8
Object
100
AcDbLine
 10
7.064338821928926
 20
15.48595079278665
 30
0.0
 11
5.744338821928925
 21
15.48595079278665
 31
0.0
  0
LINE
  5
5C5
330
1F
100
AcDbEntity
  8
Object
100
AcDbLine
 10
5.744338821928925
 20
15.48595079278665
 30
0.0
 11
5.712338821928925
 21
15.48095079278665
 31
0.0
  0
LINE
  5
5C6
330
1F
100
AcDbEntity
  8
Object
100
AcDbLine
 10
5.712338821928925
 20
15.48095079278665
 30
0.0
 11
5.682338821928926
 21
15.46595079278665
 31
0.0
  0
LINE
  5
5C7
330
1F
100
AcDbEntity
  8
Object
100
AcDbLine
 10
5.682338821928926
 20
15.46595079278665
 30
0.0
 11
5.658338821928925
 21
15.44195079278665
 31
0.0
  0
LINE
  5
5C8
330
1F
100
AcDbEntity
  8
Object
100
AcDbLine
 10
5.658338821928925
 20
15.44195079278665
 30
0.0
 11
5.643338821928924
 21
15.41295079278665
 31
0.0
  0
LINE
  5
5C9
330
1F
100
AcDbEntity
  8
Object
100
AcDbLine
 10
5.643338821928924
 20
15.41295079278665
 30
0.0
 11
5.638338821928925
 21
15.37995079278665
 31
0.0
  0
LINE
  5
5CA
330
1F
100
AcDbEntity
  8
Object
100
AcDbLine
 10
8.779338821928925
 20
15.68995079278665
 30
0.0
 11
4.029338821928924
 21
15.68995079278665
 31
0.0
  0
LINE
  5
5CB
330
1F
100
AcDbEntity
  8
Object
100
AcDbLine
 10
5.638338821928925
 20
14.35995079278665
 30
0.0
 11
5.638338821928925
 21
15.37995079278665
 31
0.0
  0
LINE
  5
5CC
330
1F
100
AcDbEntity
  8
Object
100
AcDbLine
 10
3.921338821928927
 20
15.66495079278665
 30
0.0
 11
3.974338821928924
 21
15.68395079278665
 31
0.0
  0
LINE
  5
5CD
330
1F
100
AcDbEntity
  8
Object
100
AcDbLine
 10
3.974338821928924
 20
15.68395079278665
 30
0.0
 11
4.029338821928924
 21
15.68995079278665
 31
0.0
  0
LINE
  5
5CE
330
1F
100
AcDbEntity
  8
Object
100
AcDbLine
 10
3.921338821928927
 20
15.66495079278665
 30
0.0
 11
3.873338821928925
 21
15.63595079278665
 31
0.0
  0
LINE
  5
5CF
330
1F
100
AcDbEntity
  8
Object
100
AcDbLine
 10
3.873338821928925
 20
15.63595079278665
 30
0.0
 11
3.834338821928927
 21
15.59595079278665
 31
0.0
  0
LINE
  5
5D0
330
1F
100
AcDbEntity
  8
Object
100
AcDbLine
 10
3.834338821928927
 20
15.59595079278665
 30
0.0
 11
3.804338821928926
 21
15.54895079278665
 31
0.0
  0
LINE
  5
5D1
330
1F
100
AcDbEntity
  8
Object
100
AcDbLine
 10
3.804338821928926
 20
15.54895079278665
 30
0.0
 11
3.786338821928925
 21
15.49595079278665
 31
0.0
  0
LINE
  5
5D2
330
1F
100
AcDbEntity
  8
Object
100
AcDbLine
 10
3.786338821928925
 20
15.49595079278665
 30
0.0
 11
3.779338821928924
 21
15.43995079278665
 31
0.0
  0
LINE
  5
5D3
330
1F
100
AcDbEntity
  8
Object
100
AcDbLine
 10
3.779338821928924
 20
15.43995079278665
 30
0.0
 11
3.779338821928924
 21
14.00795079278665
 31
0.0
  0
LINE
  5
5D4
330
1F
100
AcDbEntity
  8
Object
100
AcDbLine
 10
5.638338821928925
 20
14.35995079278665
 30
0.0
 11
5.643338821928924
 21
14.32695079278665
 31
0.0
  0
LINE
  5
5D5
330
1F
100
AcDbEntity
  8
Object
100
AcDbLine
 10
5.643338821928924
 20
14.32695079278665
 30
0.0
 11
5.658338821928925
 21
14.29795079278665
 31
0.0
  0
LINE
  5
5D6
330
1F
100
AcDbEntity
  8
Object
100
AcDbLine
 10
5.658338821928925
 20
14.29795079278665
 30
0.0
 11
5.682338821928926
 21
14.27395079278665
 31
0.0
  0
LINE
  5
5D7
330
1F
100
AcDbEntity
  8
Object
100
AcDbLine
 10
5.682338821928926
 20
14.27395079278665
 30
0.0
 11
5.712338821928925
 21
14.25895079278665
 31
0.0
  0
LINE
  5
5D8
330
1F
100
AcDbEntity
  8
Object
100
AcDbLine
 10
5.712338821928925
 20
14.25895079278665
 30
0.0
 11
5.744338821928925
 21
14.25395079278665
 31
0.0
  0
LINE
  5
5D9
330
1F
100
AcDbEntity
  8
Object
100
AcDbLine
 10
5.744338821928925
 20
14.25395079278665
 30
0.0
 11
7.064338821928926
 21
14.25395079278665
 31
0.0
  0
LINE
  5
5DA
330
1F
100
AcDbEntity
  8
Object
100
AcDbLine
 10
3.779338821928924
 20
14.00795079278665
 30
0.0
 11
9.029338821928925
 21
14.00795079278665
 31
0.0
  0
LINE
  5
5DB
330
1F
100
AcDbEntity
  8
Object
100
AcDbLine
 10
9.029338821928925
 20
13.90595079278665
 30
0.0
 11
9.029338821928925
 21
13.91795079278665
 31
0.0
  0
LINE
  5
5DC
330
1F
100
AcDbEntity
  8
Object
100
AcDbLine
 10
3.779338821928924
 20
13.91795079278665
 30
0.0
 11
3.779338821928924
 21
13.90595079278665
 31
0.0
  0
LINE
  5
5DD
330
1F
100
AcDbEntity
  8
Object
100
AcDbLine
 10
3.779338821928924
 20
13.90595079278665
 30
0.0
 11
2.524338821928925
 21
12.65095079278665
 31
0.0
  0
LINE
  5
5DE
330
1F
100
AcDbEntity
  8
Object
100
AcDbLine
 10
9.029338821928925
 20
13.90595079278665
 30
0.0
 11
10.28433882192892
 21
12.65095079278665
 31
0.0
  0
LINE
  5
5DF
330
1F
100
AcDbEntity
  8
Object
100
AcDbLine
 10
10.28433882192892
 20
12.65095079278665
 30
0.0
 11
2.524338821928925
 21
12.65095079278665
 31
0.0
  0
LINE
  5
5E0
330
1F
100
AcDbEntity
  8
Object
100
AcDbLine
 10
3.779338821928924
 20
13.99995079278665
 30
0.0
 11
3.779338821928924
 21
13.99495079278665
 31
0.0
  0
LINE
  5
5E1
330
1F
100
AcDbEntity
  8
Object
100
AcDbLine
 10
9.029338821928925
 20
13.99295079278665
 30
0.0
 11
9.029338821928925
 21
13.99495079278665
 31
0.0
  0
LINE
  5
5E2
330
1F
100
AcDbEntity
  8
Object
100
AcDbLine
 10
3.779338821928924
 20
13.99495079278665
 30
0.0
 11
3.779338821928924
 21
13.99295079278665
 31
0.0
  0
LINE
  5
5E3
330
1F
100
AcDbEntity
  8
Object
100
AcDbLine
 10
9.029338821928925
 20
13.99495079278665
 30
0.0
 11
9.029338821928925
 21
13.99995079278665
 31
0.0
  0
LINE
  5
5E4
330
1F
100
AcDbEntity
  8
Object
100
AcDbLine
 10
3.779338821928924
 20
14.00795079278665
 30
0.0
 11
3.779338821928924
 21
13.99995079278665
 31
0.0
  0
LINE
  5
5E5
330
1F
100
AcDbEntity
  8
Object
100
AcDbLine
 10
9.029338821928925
 20
13.99995079278665
 30
0.0
 11
9.029338821928925
 21
14.00795079278665
 31
0.0
  0
LINE
  5
5E6
330
1F
100
AcDbEntity
  8
Object
100
AcDbLine
 10
9.029338821928925
 20
15.43995079278665
 30
0.0
 11
9.023338821928925
 21
15.49595079278665
 31
0.0
  0
LINE
  5
5E7
330
1F
100
AcDbEntity
  8
Object
100
AcDbLine
 10
9.023338821928925
 20
15.49595079278665
 30
0.0
 11
9.005338821928926
 21
15.54895079278665
 31
0.0
  0
LINE
  5
5E8
330
1F
100
AcDbEntity
  8
Object
100
AcDbLine
 10
9.005338821928926
 20
15.54895079278665
 30
0.0
 11
8.975338821928925
 21
15.59595079278665
 31
0.0
  0
LINE
  5
5E9
330
1F
100
AcDbEntity
  8
Object
100
AcDbLine
 10
8.975338821928925
 20
15.59595079278665
 30
0.0
 11
8.935338821928926
 21
15.63595079278665
 31
0.0
  0
LINE
  5
5EA
330
1F
100
AcDbEntity
  8
Object
100
AcDbLine
 10
8.935338821928926
 20
15.63595079278665
 30
0.0
 11
8.888338821928925
 21
15.66495079278665
 31
0.0
  0
LINE
  5
5EB
330
1F
100
AcDbEntity
  8
Object
100
AcDbLine
 10
8.888338821928925
 20
15.66495079278665
 30
0.0
 11
8.835338821928926
 21
15.68395079278665
 31
0.0
  0
LINE
  5
5EC
330
1F
100
AcDbEntity
  8
Object
100
AcDbLine
 10
8.835338821928926
 20
15.68395079278665
 30
0.0
 11
8.779338821928925
 21
15.68995079278665
 31
0.0
  0
LINE
  5
5ED
330
1F
100
AcDbEntity
  8
Object
100
AcDbLine
 10
10.36133882192892
 20
12.57495079278665
 30
0.0
 11
10.35933882192892
 21
12.57595079278665
 31
0.0
  0
LINE
  5
5EE
330
1F
100
AcDbEntity
  8
Object
100
AcDbLine
 10
2.449338821928925
 20
12.57595079278665
 30
0.0
 11
2.448338821928924
 21
12.57495079278665
 31
0.0
  0
LINE
  5
5EF
330
1F
100
AcDbEntity
  8
Object
100
AcDbLine
 10
10.36433882192892
 20
12.57095079278665
 30
0.0
 11
10.36133882192892
 21
12.57495079278665
 31
0.0
  0
LINE
  5
5F0
330
1F
100
AcDbEntity
  8
Object
100
AcDbLine
 10
2.448338821928924
 20
12.57495079278665
 30
0.0
 11
2.445338821928924
 21
12.57095079278665
 31
0.0
  0
LINE
  5
5F1
330
1F
100
AcDbEntity
  8
Object
100
AcDbLine
 10
2.445338821928924
 20
12.57095079278665
 30
0.0
 11
2.440338821928925
 21
12.56595079278665
 31
0.0
  0
LINE
  5
5F2
330
1F
100
AcDbEntity
  8
Object
100
AcDbLine
 10
10.36433882192892
 20
12.57095079278665
 30
0.0
 11
10.36933882192892
 21
12.56595079278665
 31
0.0
  0
LINE
  5
5F3
330
1F
100
AcDbEntity
  8
Object
100
AcDbLine
 10
10.36933882192892
 20
12.56595079278665
 30
0.0
 11
10.37433882192893
 21
12.56095079278665
 31
0.0
  0
LINE
  5
5F4
330
1F
100
AcDbEntity
  8
Object
100
AcDbLine
 10
2.440338821928925
 20
12.56595079278665
 30
0.0
 11
2.434338821928925
 21
12.56095079278665
 31
0.0
  0
LINE
  5
5F5
330
1F
100
AcDbEntity
  8
Object
100
AcDbLine
 10
2.449338821928925
 20
12.57595079278665
 30
0.0
 11
10.35933882192892
 21
12.57595079278665
 31
0.0
  0
LINE
  5
5F6
330
1F
100
AcDbEntity
  8
Object
100
AcDbLine
 10
10.43433882192892
 20
12.56095079278665
 30
0.0
 11
10.42533882192892
 21
12.56095079278665
 31
0.0
  0
LINE
  5
5F7
330
1F
100
AcDbEntity
  8
Object
100
AcDbLine
 10
10.42533882192892
 20
12.56095079278665
 30
0.0
 11
10.40333882192892
 21
12.56095079278665
 31
0.0
  0
LINE
  5
5F8
330
1F
100
AcDbEntity
  8
Object
100
AcDbLine
 10
10.40333882192892
 20
12.56095079278665
 30
0.0
 11
10.37433882192893
 21
12.56095079278665
 31
0.0
  0
LINE
  5
5F9
330
1F
100
AcDbEntity
  8
Object
100
AcDbLine
 10
2.505338821928926
 20
12.63595079278665
 30
0.0
 11
2.514338821928927
 21
12.63595079278665
 31
0.0
  0
LINE
  5
5FA
330
1F
100
AcDbEntity
  8
Object
100
AcDbLine
 10
10.31233882192892
 20
12.62295079278665
 30
0.0
 11
10.28433882192892
 21
12.65095079278665
 31
0.0
  0
LINE
  5
5FB
330
1F
100
AcDbEntity
  8
Object
100
AcDbLine
 10
2.524338821928925
 20
12.65095079278665
 30
0.0
 11
2.497338821928927
 21
12.62295079278665
 31
0.0
  0
LINE
  5
5FC
330
1F
100
AcDbEntity
  8
Object
100
AcDbLine
 10
2.497338821928927
 20
12.62295079278665
 30
0.0
 11
2.471338821928924
 21
12.59795079278665
 31
0.0
  0
LINE
  5
5FD
330
1F
100
AcDbEntity
  8
Object
100
AcDbLine
 10
10.31233882192892
 20
12.62295079278665
 30
0.0
 11
10.33733882192892
 21
12.59795079278665
 31
0.0
  0
LINE
  5
5FE
330
1F
100
AcDbEntity
  8
Object
100
AcDbLine
 10
10.33733882192892
 20
12.59795079278665
 30
0.0
 11
10.34733882192892
 21
12.58795079278665
 31
0.0
  0
LINE
  5
5FF
330
1F
100
AcDbEntity
  8
Object
100
AcDbLine
 10
2.471338821928924
 20
12.59795079278665
 30
0.0
 11
2.461338821928926
 21
12.58795079278665
 31
0.0
  0
LINE
  5
600
330
1F
100
AcDbEntity
  8
Object
100
AcDbLine
 10
2.461338821928926
 20
12.58795079278665
 30
0.0
 11
2.455338821928926
 21
12.58095079278665
 31
0.0
  0
LINE
  5
601
330
1F
100
AcDbEntity
  8
Object
100
AcDbLine
 10
10.34733882192892
 20
12.58795079278665
 30
0.0
 11
10.35433882192892
 21
12.58095079278665
 31
0.0
  0
LINE
  5
602
330
1F
100
AcDbEntity
  8
Object
100
AcDbLine
 10
10.35433882192892
 20
12.58095079278665
 30
0.0
 11
10.35933882192892
 21
12.57595079278665
 31
0.0
  0
LINE
  5
603
330
1F
100
AcDbEntity
  8
Object
100
AcDbLine
 10
10.35933882192892
 20
12.57595079278665
 30
0.0
 11
2.449338821928925
 21
12.57595079278665
 31
0.0
  0
LINE
  5
604
330
1F
100
AcDbEntity
  8
Object
100
AcDbLine
 10
2.449338821928925
 20
12.57595079278665
 30
0.0
 11
2.455338821928926
 21
12.58095079278665
 31
0.0
  0
LINE
  5
605
330
1F
100
AcDbEntity
  8
Object
100
AcDbLine
 10
10.30533882192892
 20
12.62995079278665
 30
0.0
 11
10.30333882192892
 21
12.63195079278665
 31
0.0
  0
LINE
  5
606
330
1F
100
AcDbEntity
  8
Object
100
AcDbLine
 10
2.509338821928924
 20
12.63595079278665
 30
0.0
 11
2.505338821928926
 21
12.63195079278665
 31
0.0
  0
LINE
  5
607
330
1F
100
AcDbEntity
  8
Object
100
AcDbLine
 10
10.31233882192892
 20
12.62295079278665
 30
0.0
 11
10.30533882192892
 21
12.62995079278665
 31
0.0
  0
LINE
  5
608
330
1F
100
AcDbEntity
  8
Object
100
AcDbLine
 10
2.497338821928927
 20
12.62295079278665
 30
0.0
 11
2.487338821928926
 21
12.61395079278665
 31
0.0
  0
LINE
  5
609
330
1F
100
AcDbEntity
  8
Object
100
AcDbLine
 10
10.34733882192892
 20
12.58795079278665
 30
0.0
 11
10.32933882192892
 21
12.60595079278665
 31
0.0
  0
LINE
  5
60A
330
1F
100
AcDbEntity
  8
Object
100
AcDbLine
 10
2.487338821928926
 20
12.61395079278665
 30
0.0
 11
2.479338821928926
 21
12.60595079278665
 31
0.0
  0
LINE
  5
60B
330
1F
100
AcDbEntity
  8
Object
100
AcDbLine
 10
2.446338821928925
 20
12.57295079278665
 30
0.0
 11
2.434338821928925
 21
12.56095079278665
 31
0.0
  0
LINE
  5
60C
330
1F
100
AcDbEntity
  8
Object
100
AcDbLine
 10
2.458338821928926
 20
12.58395079278665
 30
0.0
 11
2.450338821928927
 21
12.57695079278665
 31
0.0
  0
LINE
  5
60D
330
1F
100
AcDbEntity
  8
Object
100
AcDbLine
 10
10.35933882192892
 20
12.57495079278665
 30
0.0
 11
10.34733882192892
 21
12.58795079278665
 31
0.0
  0
LINE
  5
60E
330
1F
100
AcDbEntity
  8
Object
100
AcDbLine
 10
2.434338821928925
 20
12.56095079278665
 30
0.0
 11
2.405338821928925
 21
12.56095079278665
 31
0.0
  0
LINE
  5
60F
330
1F
100
AcDbEntity
  8
Object
100
AcDbLine
 10
2.405338821928925
 20
12.56095079278665
 30
0.0
 11
2.384338821928924
 21
12.56095079278665
 31
0.0
  0
LINE
  5
610
330
1F
100
AcDbEntity
  8
Object
100
AcDbLine
 10
2.384338821928924
 20
12.56095079278665
 30
0.0
 11
2.374338821928926
 21
12.56095079278665
 31
0.0
  0
LINE
  5
611
330
1F
100
AcDbEntity
  8
Object
100
AcDbLine
 10
4.029338821928924
 20
15.68995079278665
 30
0.0
 11
3.974338821928924
 21
15.68395079278665
 31
0.0
  0
LINE
  5
612
330
1F
100
AcDbEntity
  8
Object
100
AcDbLine
 10
3.974338821928924
 20
15.68395079278665
 30
0.0
 11
3.921338821928927
 21
15.66495079278665
 31
0.0
  0
LINE
  5
613
330
1F
100
AcDbEntity
  8
Object
100
AcDbLine
 10
3.921338821928927
 20
15.66495079278665
 30
0.0
 11
3.873338821928925
 21
15.63595079278665
 31
0.0
  0
LINE
  5
614
330
1F
100
AcDbEntity
  8
Object
100
AcDbLine
 10
3.873338821928925
 20
15.63595079278665
 30
0.0
 11
3.834338821928927
 21
15.59595079278665
 31
0.0
  0
LINE
  5
615
330
1F
100
AcDbEntity
  8
Object
100
AcDbLine
 10
3.834338821928927
 20
15.59595079278665
 30
0.0
 11
3.804338821928926
 21
15.54895079278665
 31
0.0
  0
LINE
  5
616
330
1F
100
AcDbEntity
  8
Object
100
AcDbLine
 10
3.804338821928926
 20
15.54895079278665
 30
0.0
 11
3.786338821928925
 21
15.49595079278665
 31
0.0
  0
LINE
  5
617
330
1F
100
AcDbEntity
  8
Object
100
AcDbLine
 10
3.786338821928925
 20
15.49595079278665
 30
0.0
 11
3.779338821928924
 21
15.43995079278665
 31
0.0
  0
LINE
  5
618
330
1F
100
AcDbEntity
  8
Object
100
AcDbLine
 10
7.171338821928927
 20
15.37995079278665
 30
0.0
 11
7.165338821928926
 21
15.41295079278665
 31
0.0
  0
LINE
  5
619
330
1F
100
AcDbEntity
  8
Object
100
AcDbLine
 10
7.165338821928926
 20
15.41295079278665
 30
0.0
 11
7.150338821928926
 21
15.44195079278665
 31
0.0
  0
LINE
  5
61A
330
1F
100
AcDbEntity
  8
Object
100
AcDbLine
 10
7.150338821928926
 20
15.44195079278665
 30
0.0
 11
7.127338821928926
 21
15.46595079278665
 31
0.0
  0
LINE
  5
61B
330
1F
100
AcDbEntity
  8
Object
100
AcDbLine
 10
7.086338821928926
 20
15.39195079278665
 30
0.0
 11
7.077338821928925
 21
15.40095079278665
 31
0.0
  0
LINE
  5
61C
330
1F
100
AcDbEntity
  8
Object
100
AcDbLine
 10
7.077338821928925
 20
15.40095079278665
 30
0.0
 11
7.064338821928926
 21
15.40495079278665
 31
0.0
  0
LINE
  5
61D
330
1F
100
AcDbEntity
  8
Object
100
AcDbLine
 10
7.064338821928926
 20
14.31295079278665
 30
0.0
 11
7.064338821928926
 21
14.33595079278665
 31
0.0
  0
LINE
  5
61E
330
1F
100
AcDbEntity
  8
Object
100
AcDbLine
 10
7.064338821928926
 20
14.33595079278665
 30
0.0
 11
5.744338821928925
 21
14.33595079278665
 31
0.0
  0
LINE
  5
61F
330
1F
100
AcDbEntity
  8
Object
100
AcDbLine
 10
7.064338821928926
 20
14.31295079278665
 30
0.0
 11
7.064338821928926
 21
14.28495079278665
 31
0.0
  0
LINE
  5
620
330
1F
100
AcDbEntity
  8
Object
100
AcDbLine
 10
7.064338821928926
 20
14.28495079278665
 30
0.0
 11
7.064338821928926
 21
14.25395079278665
 31
0.0
  0
LINE
  5
621
330
1F
100
AcDbEntity
  8
Object
100
AcDbLine
 10
7.064338821928926
 20
15.45495079278665
 30
0.0
 11
7.064338821928926
 21
15.42695079278665
 31
0.0
  0
LINE
  5
622
330
1F
100
AcDbEntity
  8
Object
100
AcDbLine
 10
7.064338821928926
 20
15.42695079278665
 30
0.0
 11
7.064338821928926
 21
15.40495079278665
 31
0.0
  0
LINE
  5
623
330
1F
100
AcDbEntity
  8
Object
100
AcDbLine
 10
7.064338821928926
 20
15.40495079278665
 30
0.0
 11
5.744338821928925
 21
15.40495079278665
 31
0.0
  0
LINE
  5
624
330
1F
100
AcDbEntity
  8
Object
100
AcDbLine
 10
7.064338821928926
 20
15.45495079278665
 30
0.0
 11
7.064338821928926
 21
15.48595079278665
 31
0.0
  0
LINE
  5
625
330
1F
100
AcDbEntity
  8
Object
100
AcDbLine
 10
7.139338821928927
 20
15.37995079278665
 30
0.0
 11
7.171338821928927
 21
15.37995079278665
 31
0.0
  0
LINE
  5
626
330
1F
100
AcDbEntity
  8
Object
100
AcDbLine
 10
7.171338821928927
 20
15.37995079278665
 30
0.0
 11
7.171338821928927
 21
14.35995079278665
 31
0.0
  0
LINE
  5
627
330
1F
100
AcDbEntity
  8
Object
100
AcDbLine
 10
7.139338821928927
 20
15.37995079278665
 30
0.0
 11
7.111338821928924
 21
15.37995079278665
 31
0.0
  0
LINE
  5
628
330
1F
100
AcDbEntity
  8
Object
100
AcDbLine
 10
7.139338821928927
 20
14.35995079278665
 30
0.0
 11
7.111338821928924
 21
14.35995079278665
 31
0.0
  0
LINE
  5
629
330
1F
100
AcDbEntity
  8
Object
100
AcDbLine
 10
7.111338821928924
 20
14.35995079278665
 30
0.0
 11
7.089338821928926
 21
14.35995079278665
 31
0.0
  0
LINE
  5
62A
330
1F
100
AcDbEntity
  8
Object
100
AcDbLine
 10
7.111338821928924
 20
15.37995079278665
 30
0.0
 11
7.089338821928926
 21
15.37995079278665
 31
0.0
  0
LINE
  5
62B
330
1F
100
AcDbEntity
  8
Object
100
AcDbLine
 10
5.698338821928924
 20
15.37995079278665
 30
0.0
 11
5.720338821928926
 21
15.37995079278665
 31
0.0
  0
LINE
  5
62C
330
1F
100
AcDbEntity
  8
Object
100
AcDbLine
 10
5.720338821928926
 20
15.37995079278665
 30
0.0
 11
5.720338821928926
 21
14.35995079278665
 31
0.0
  0
LINE
  5
62D
330
1F
100
AcDbEntity
  8
Object
100
AcDbLine
 10
5.720338821928926
 20
14.35995079278665
 30
0.0
 11
5.698338821928924
 21
14.35995079278665
 31
0.0
  0
LINE
  5
62E
330
1F
100
AcDbEntity
  8
Object
100
AcDbLine
 10
5.698338821928924
 20
14.35995079278665
 30
0.0
 11
5.669338821928924
 21
14.35995079278665
 31
0.0
  0
LINE
  5
62F
330
1F
100
AcDbEntity
  8
Object
100
AcDbLine
 10
5.698338821928924
 20
15.37995079278665
 30
0.0
 11
5.669338821928924
 21
15.37995079278665
 31
0.0
  0
LINE
  5
630
330
1F
100
AcDbEntity
  8
Object
100
AcDbLine
 10
5.669338821928924
 20
15.37995079278665
 30
0.0
 11
5.638338821928925
 21
15.37995079278665
 31
0.0
  0
LINE
  5
631
330
1F
100
AcDbEntity
  8
Object
100
AcDbLine
 10
5.638338821928925
 20
14.35995079278665
 30
0.0
 11
5.669338821928924
 21
14.35995079278665
 31
0.0
  0
LINE
  5
632
330
1F
100
AcDbEntity
  8
Object
100
AcDbLine
 10
5.744338821928925
 20
15.42695079278665
 30
0.0
 11
5.744338821928925
 21
15.40495079278665
 31
0.0
  0
LINE
  5
633
330
1F
100
AcDbEntity
  8
Object
100
AcDbLine
 10
5.744338821928925
 20
15.40495079278665
 30
0.0
 11
5.732338821928927
 21
15.40095079278665
 31
0.0
  0
LINE
  5
634
330
1F
100
AcDbEntity
  8
Object
100
AcDbLine
 10
5.744338821928925
 20
15.42695079278665
 30
0.0
 11
5.744338821928925
 21
15.45495079278665
 31
0.0
  0
LINE
  5
635
330
1F
100
AcDbEntity
  8
Object
100
AcDbLine
 10
5.723338821928926
 20
15.39195079278665
 30
0.0
 11
5.732338821928927
 21
15.40095079278665
 31
0.0
  0
LINE
  5
636
330
1F
100
AcDbEntity
  8
Object
100
AcDbLine
 10
5.744338821928925
 20
15.45495079278665
 30
0.0
 11
5.744338821928925
 21
15.48595079278665
 31
0.0
  0
LINE
  5
637
330
1F
100
AcDbEntity
  8
Object
100
AcDbLine
 10
5.720338821928926
 20
15.37995079278665
 30
0.0
 11
5.723338821928926
 21
15.39195079278665
 31
0.0
  0
LINE
  5
638
330
1F
100
AcDbEntity
  8
Object
100
AcDbLine
 10
7.139338821928927
 20
14.35995079278665
 30
0.0
 11
7.171338821928927
 21
14.35995079278665
 31
0.0
  0
LINE
  5
639
330
1F
100
AcDbEntity
  8
Object
100
AcDbLine
 10
7.171338821928927
 20
14.35995079278665
 30
0.0
 11
7.165338821928926
 21
14.32695079278665
 31
0.0
  0
LINE
  5
63A
330
1F
100
AcDbEntity
  8
Object
100
AcDbLine
 10
7.165338821928926
 20
14.32695079278665
 30
0.0
 11
7.150338821928926
 21
14.29795079278665
 31
0.0
  0
LINE
  5
63B
330
1F
100
AcDbEntity
  8
Object
100
AcDbLine
 10
7.150338821928926
 20
14.29795079278665
 30
0.0
 11
7.127338821928926
 21
14.27395079278665
 31
0.0
  0
LINE
  5
63C
330
1F
100
AcDbEntity
  8
Object
100
AcDbLine
 10
7.127338821928926
 20
14.27395079278665
 30
0.0
 11
7.097338821928925
 21
14.25895079278665
 31
0.0
  0
LINE
  5
63D
330
1F
100
AcDbEntity
  8
Object
100
AcDbLine
 10
7.077338821928925
 20
14.33895079278665
 30
0.0
 11
7.064338821928926
 21
14.33595079278665
 31
0.0
  0
LINE
  5
63E
330
1F
100
AcDbEntity
  8
Object
100
AcDbLine
 10
5.744338821928925
 20
14.33595079278665
 30
0.0
 11
5.744338821928925
 21
14.31295079278665
 31
0.0
  0
LINE
  5
63F
330
1F
100
AcDbEntity
  8
Object
100
AcDbLine
 10
5.744338821928925
 20
14.31295079278665
 30
0.0
 11
5.744338821928925
 21
14.28495079278665
 31
0.0
  0
LINE
  5
640
330
1F
100
AcDbEntity
  8
Object
100
AcDbLine
 10
5.744338821928925
 20
14.28495079278665
 30
0.0
 11
5.744338821928925
 21
14.25395079278665
 31
0.0
  0
LINE
  5
641
330
1F
100
AcDbEntity
  8
Object
100
AcDbLine
 10
5.744338821928925
 20
14.33595079278665
 30
0.0
 11
5.732338821928927
 21
14.33895079278665
 31
0.0
  0
LINE
  5
642
330
1F
100
AcDbEntity
  8
Object
100
AcDbLine
 10
5.732338821928927
 20
14.33895079278665
 30
0.0
 11
5.723338821928926
 21
14.34795079278665
 31
0.0
  0
LINE
  5
643
330
1F
100
AcDbEntity
  8
Object
100
AcDbLine
 10
5.723338821928926
 20
14.34795079278665
 30
0.0
 11
5.720338821928926
 21
14.35995079278665
 31
0.0
  0
LINE
  5
644
330
1F
100
AcDbEntity
  8
Object
100
AcDbLine
 10
8.779338821928925
 20
15.68995079278665
 30
0.0
 11
4.029338821928924
 21
15.68995079278665
 31
0.0
  0
LINE
  5
645
330
1F
100
AcDbEntity
  8
Object
100
AcDbLine
 10
10.37433882192893
 20
10.56095079278665
 30
0.0
 11
10.37433882192893
 21
12.56095079278665
 31
0.0
  0
LINE
  5
646
330
1F
100
AcDbEntity
  8
Object
100
AcDbLine
 10
8.538338821928926
 20
11.60395079278665
 30
0.0
 11
8.545338821928925
 21
11.56095079278665
 31
0.0
  0
LINE
  5
647
330
1F
100
AcDbEntity
  8
Object
100
AcDbLine
 10
8.545338821928925
 20
11.56095079278665
 30
0.0
 11
8.538338821928926
 21
11.51695079278665
 31
0.0
  0
LINE
  5
648
330
1F
100
AcDbEntity
  8
Object
100
AcDbLine
 10
8.518338821928926
 20
11.64295079278665
 30
0.0
 11
8.538338821928926
 21
11.60395079278665
 31
0.0
  0
LINE
  5
649
330
1F
100
AcDbEntity
  8
Object
100
AcDbLine
 10
8.538338821928926
 20
11.51695079278665
 30
0.0
 11
8.518338821928926
 21
11.47795079278665
 31
0.0
  0
LINE
  5
64A
330
1F
100
AcDbEntity
  8
Object
100
AcDbLine
 10
8.487338821928926
 20
11.67395079278665
 30
0.0
 11
8.518338821928926
 21
11.64295079278665
 31
0.0
  0
LINE
  5
64B
330
1F
100
AcDbEntity
  8
Object
100
AcDbLine
 10
8.518338821928926
 20
11.47795079278665
 30
0.0
 11
8.487338821928926
 21
11.44695079278665
 31
0.0
  0
LINE
  5
64C
330
1F
100
AcDbEntity
  8
Object
100
AcDbLine
 10
8.448338821928926
 20
11.69395079278665
 30
0.0
 11
8.487338821928926
 21
11.67395079278665
 31
0.0
  0
LINE
  5
64D
330
1F
100
AcDbEntity
  8
Object
100
AcDbLine
 10
8.487338821928926
 20
11.44695079278665
 30
0.0
 11
8.448338821928926
 21
11.42695079278665
 31
0.0
  0
LINE
  5
64E
330
1F
100
AcDbEntity
  8
Object
100
AcDbLine
 10
8.404338821928925
 20
11.70095079278665
 30
0.0
 11
8.448338821928926
 21
11.69395079278665
 31
0.0
  0
LINE
  5
64F
330
1F
100
AcDbEntity
  8
Object
100
AcDbLine
 10
8.448338821928926
 20
11.42695079278665
 30
0.0
 11
8.404338821928925
 21
11.41995079278665
 31
0.0
  0
LINE
  5
650
330
1F
100
AcDbEntity
  8
Object
100
AcDbLine
 10
8.361338821928926
 20
11.69395079278665
 30
0.0
 11
8.404338821928925
 21
11.70095079278665
 31
0.0
  0
LINE
  5
651
330
1F
100
AcDbEntity
  8
Object
100
AcDbLine
 10
8.404338821928925
 20
11.41995079278665
 30
0.0
 11
8.361338821928926
 21
11.42695079278665
 31
0.0
  0
LINE
  5
652
330
1F
100
AcDbEntity
  8
Object
100
AcDbLine
 10
8.271338821928926
 20
11.51695079278665
 30
0.0
 11
8.264338821928925
 21
11.56095079278665
 31
0.0
  0
LINE
  5
653
330
1F
100
AcDbEntity
  8
Object
100
AcDbLine
 10
8.291338821928926
 20
11.64295079278665
 30
0.0
 11
8.271338821928926
 21
11.60395079278665
 31
0.0
  0
LINE
  5
654
330
1F
100
AcDbEntity
  8
Object
100
AcDbLine
 10
8.271338821928926
 20
11.60395079278665
 30
0.0
 11
8.264338821928925
 21
11.56095079278665
 31
0.0
  0
LINE
  5
655
330
1F
100
AcDbEntity
  8
Object
100
AcDbLine
 10
4.545338821928925
 20
11.56095079278665
 30
0.0
 11
4.538338821928924
 21
11.51695079278665
 31
0.0
  0
LINE
  5
656
330
1F
100
AcDbEntity
  8
Object
100
AcDbLine
 10
8.291338821928926
 20
11.47795079278665
 30
0.0
 11
8.271338821928926
 21
11.51695079278665
 31
0.0
  0
LINE
  5
657
330
1F
100
AcDbEntity
  8
Object
100
AcDbLine
 10
4.545338821928925
 20
11.56095079278665
 30
0.0
 11
4.538338821928924
 21
11.60395079278665
 31
0.0
  0
LINE
  5
658
330
1F
100
AcDbEntity
  8
Object
100
AcDbLine
 10
4.538338821928924
 20
11.60395079278665
 30
0.0
 11
4.518338821928924
 21
11.64295079278665
 31
0.0
  0
LINE
  5
659
330
1F
100
AcDbEntity
  8
Object
100
AcDbLine
 10
4.538338821928924
 20
11.51695079278665
 30
0.0
 11
4.518338821928924
 21
11.47795079278665
 31
0.0
  0
LINE
  5
65A
330
1F
100
AcDbEntity
  8
Object
100
AcDbLine
 10
8.291338821928926
 20
11.47795079278665
 30
0.0
 11
8.322338821928925
 21
11.44695079278665
 31
0.0
  0
LINE
  5
65B
330
1F
100
AcDbEntity
  8
Object
100
AcDbLine
 10
8.322338821928925
 20
11.44695079278665
 30
0.0
 11
8.361338821928926
 21
11.42695079278665
 31
0.0
  0
LINE
  5
65C
330
1F
100
AcDbEntity
  8
Object
100
AcDbLine
 10
4.518338821928924
 20
11.47795079278665
 30
0.0
 11
4.487338821928926
 21
11.44695079278665
 31
0.0
  0
LINE
  5
65D
330
1F
100
AcDbEntity
  8
Object
100
AcDbLine
 10
4.487338821928926
 20
11.67395079278665
 30
0.0
 11
4.518338821928924
 21
11.64295079278665
 31
0.0
  0
LINE
  5
65E
330
1F
100
AcDbEntity
  8
Object
100
AcDbLine
 10
8.291338821928926
 20
11.64295079278665
 30
0.0
 11
8.322338821928925
 21
11.67395079278665
 31
0.0
  0
LINE
  5
65F
330
1F
100
AcDbEntity
  8
Object
100
AcDbLine
 10
8.322338821928925
 20
11.67395079278665
 30
0.0
 11
8.361338821928926
 21
11.69395079278665
 31
0.0
  0
LINE
  5
660
330
1F
100
AcDbEntity
  8
Object
100
AcDbLine
 10
4.487338821928926
 20
11.44695079278665
 30
0.0
 11
4.448338821928924
 21
11.42695079278665
 31
0.0
  0
LINE
  5
661
330
1F
100
AcDbEntity
  8
Object
100
AcDbLine
 10
4.487338821928926
 20
11.67395079278665
 30
0.0
 11
4.448338821928924
 21
11.69395079278665
 31
0.0
  0
LINE
  5
662
330
1F
100
AcDbEntity
  8
Object
100
AcDbLine
 10
4.448338821928924
 20
11.69395079278665
 30
0.0
 11
4.404338821928924
 21
11.70095079278665
 31
0.0
  0
LINE
  5
663
330
1F
100
AcDbEntity
  8
Object
100
AcDbLine
 10
10.37433882192893
 20
12.56095079278665
 30
0.0
 11
2.434338821928925
 21
12.56095079278665
 31
0.0
  0
LINE
  5
664
330
1F
100
AcDbEntity
  8
Object
100
AcDbLine
 10
4.361338821928924
 20
11.69395079278665
 30
0.0
 11
4.404338821928924
 21
11.70095079278665
 31
0.0
  0
LINE
  5
665
330
1F
100
AcDbEntity
  8
Object
100
AcDbLine
 10
4.322338821928926
 20
11.67395079278665
 30
0.0
 11
4.291338821928924
 21
11.64295079278665
 31
0.0
  0
LINE
  5
666
330
1F
100
AcDbEntity
  8
Object
100
AcDbLine
 10
4.291338821928924
 20
11.64295079278665
 30
0.0
 11
4.271338821928925
 21
11.60395079278665
 31
0.0
  0
LINE
  5
667
330
1F
100
AcDbEntity
  8
Object
100
AcDbLine
 10
4.271338821928925
 20
11.60395079278665
 30
0.0
 11
4.264338821928927
 21
11.56095079278665
 31
0.0
  0
LINE
  5
668
330
1F
100
AcDbEntity
  8
Object
100
AcDbLine
 10
4.322338821928926
 20
11.67395079278665
 30
0.0
 11
4.361338821928924
 21
11.69395079278665
 31
0.0
  0
LINE
  5
669
330
1F
100
AcDbEntity
  8
Object
100
AcDbLine
 10
4.264338821928927
 20
11.56095079278665
 30
0.0
 11
4.271338821928925
 21
11.51695079278665
 31
0.0
  0
LINE
  5
66A
330
1F
100
AcDbEntity
  8
Object
100
AcDbLine
 10
4.271338821928925
 20
11.51695079278665
 30
0.0
 11
4.291338821928924
 21
11.47795079278665
 31
0.0
  0
LINE
  5
66B
330
1F
100
AcDbEntity
  8
Object
100
AcDbLine
 10
4.291338821928924
 20
11.47795079278665
 30
0.0
 11
4.322338821928926
 21
11.44695079278665
 31
0.0
  0
LINE
  5
66C
330
1F
100
AcDbEntity
  8
Object
100
AcDbLine
 10
4.322338821928926
 20
11.44695079278665
 30
0.0
 11
4.361338821928924
 21
11.42695079278665
 31
0.0
  0
LINE
  5
66D
330
1F
100
AcDbEntity
  8
Object
100
AcDbLine
 10
4.361338821928924
 20
11.42695079278665
 30
0.0
 11
4.404338821928924
 21
11.41995079278665
 31
0.0
  0
LINE
  5
66E
330
1F
100
AcDbEntity
  8
Object
100
AcDbLine
 10
4.404338821928924
 20
11.41995079278665
 30
0.0
 11
4.448338821928924
 21
11.42695079278665
 31
0.0
  0
LINE
  5
66F
330
1F
100
AcDbEntity
  8
Object
100
AcDbLine
 10
2.434338821928925
 20
10.56095079278665
 30
0.0
 11
10.37433882192893
 21
10.56095079278665
 31
0.0
  0
LINE
  5
670
330
1F
100
AcDbEntity
  8
Object
100
AcDbLine
 10
10.42533882192892
 20
12.56095079278665
 30
0.0
 11
10.43433882192892
 21
12.56095079278665
 31
0.0
  0
LINE
  5
671
330
1F
100
AcDbEntity
  8
Object
100
AcDbLine
 10
10.43433882192892
 20
12.56095079278665
 30
0.0
 11
10.43433882192892
 21
10.56095079278665
 31
0.0
  0
LINE
  5
672
330
1F
100
AcDbEntity
  8
Object
100
AcDbLine
 10
10.43433882192892
 20
10.56095079278665
 30
0.0
 11
10.42533882192892
 21
10.56095079278665
 31
0.0
  0
LINE
  5
673
330
1F
100
AcDbEntity
  8
Object
100
AcDbLine
 10
10.42533882192892
 20
10.56095079278665
 30
0.0
 11
10.40333882192892
 21
10.56095079278665
 31
0.0
  0
LINE
  5
674
330
1F
100
AcDbEntity
  8
Object
100
AcDbLine
 10
10.42533882192892
 20
12.56095079278665
 30
0.0
 11
10.40333882192892
 21
12.56095079278665
 31
0.0
  0
LINE
  5
675
330
1F
100
AcDbEntity
  8
Object
100
AcDbLine
 10
10.37433882192893
 20
10.56095079278665
 30
0.0
 11
10.40333882192892
 21
10.56095079278665
 31
0.0
  0
LINE
  5
676
330
1F
100
AcDbEntity
  8
Object
100
AcDbLine
 10
10.40333882192892
 20
12.56095079278665
 30
0.0
 11
10.37433882192893
 21
12.56095079278665
 31
0.0
  0
LINE
  5
677
330
1F
100
AcDbEntity
  8
Object
100
AcDbLine
 10
10.43433882192892
 20
12.56095079278665
 30
0.0
 11
10.43333882192892
 21
12.56795079278665
 31
0.0
  0
LINE
  5
678
330
1F
100
AcDbEntity
  8
Object
100
AcDbLine
 10
10.43333882192892
 20
12.56795079278665
 30
0.0
 11
10.43033882192892
 21
12.57595079278665
 31
0.0
  0
LINE
  5
679
330
1F
100
AcDbEntity
  8
Object
100
AcDbLine
 10
10.43033882192892
 20
12.57595079278665
 30
0.0
 11
10.42633882192892
 21
12.58195079278665
 31
0.0
  0
LINE
  5
67A
330
1F
100
AcDbEntity
  8
Object
100
AcDbLine
 10
2.405338821928925
 20
10.56095079278665
 30
0.0
 11
2.434338821928925
 21
10.56095079278665
 31
0.0
  0
LINE
  5
67B
330
1F
100
AcDbEntity
  8
Object
100
AcDbLine
 10
2.405338821928925
 20
12.56095079278665
 30
0.0
 11
2.434338821928925
 21
12.56095079278665
 31
0.0
  0
LINE
  5
67C
330
1F
100
AcDbEntity
  8
Object
100
AcDbLine
 10
2.434338821928925
 20
12.56095079278665
 30
0.0
 11
2.434338821928925
 21
10.56095079278665
 31
0.0
  0
LINE
  5
67D
330
1F
100
AcDbEntity
  8
Object
100
AcDbLine
 10
2.405338821928925
 20
12.56095079278665
 30
0.0
 11
2.384338821928924
 21
12.56095079278665
 31
0.0
  0
LINE
  5
67E
330
1F
100
AcDbEntity
  8
Object
100
AcDbLine
 10
2.405338821928925
 20
10.56095079278665
 30
0.0
 11
2.384338821928924
 21
10.56095079278665
 31
0.0
  0
LINE
  5
67F
330
1F
100
AcDbEntity
  8
Object
100
AcDbLine
 10
2.384338821928924
 20
10.56095079278665
 30
0.0
 11
2.374338821928926
 21
10.56095079278665
 31
0.0
  0
LINE
  5
680
330
1F
100
AcDbEntity
  8
Object
100
AcDbLine
 10
2.384338821928924
 20
12.56095079278665
 30
0.0
 11
2.374338821928926
 21
12.56095079278665
 31
0.0
  0
LINE
  5
681
330
1F
100
AcDbEntity
  8
Object
100
AcDbLine
 10
7.089338821928926
 20
15.37995079278665
 30
0.0
 11
7.086338821928926
 21
15.39195079278665
 31
0.0
  0
LINE
  5
682
330
1F
100
AcDbEntity
  8
Object
100
AcDbLine
 10
7.072338821928926
 20
15.39295079278665
 30
0.0
 11
7.064338821928926
 21
15.37995079278665
 31
0.0
  0
LINE
  5
683
330
1F
100
AcDbEntity
  8
Object
100
AcDbLine
 10
7.064338821928926
 20
14.35095079278665
 30
0.0
 11
7.064338821928926
 21
14.34195079278665
 31
0.0
  0
LINE
  5
684
330
1F
100
AcDbEntity
  8
Object
100
AcDbLine
 10
7.064338821928926
 20
14.34195079278665
 30
0.0
 11
7.064338821928926
 21
14.33595079278665
 31
0.0
  0
LINE
  5
685
330
1F
100
AcDbEntity
  8
Object
100
AcDbLine
 10
5.744338821928925
 20
14.35995079278665
 30
0.0
 11
7.064338821928926
 21
14.35995079278665
 31
0.0
  0
LINE
  5
686
330
1F
100
AcDbEntity
  8
Object
100
AcDbLine
 10
7.064338821928926
 20
14.35995079278665
 30
0.0
 11
7.064338821928926
 21
14.35095079278665
 31
0.0
  0
LINE
  5
687
330
1F
100
AcDbEntity
  8
Object
100
AcDbLine
 10
7.064338821928926
 20
15.40495079278665
 30
0.0
 11
7.064338821928926
 21
15.39795079278665
 31
0.0
  0
LINE
  5
688
330
1F
100
AcDbEntity
  8
Object
100
AcDbLine
 10
7.064338821928926
 20
15.39795079278665
 30
0.0
 11
7.064338821928926
 21
15.38895079278665
 31
0.0
  0
LINE
  5
689
330
1F
100
AcDbEntity
  8
Object
100
AcDbLine
 10
7.064338821928926
 20
15.38895079278665
 30
0.0
 11
7.064338821928926
 21
15.37995079278665
 31
0.0
  0
LINE
  5
68A
330
1F
100
AcDbEntity
  8
Object
100
AcDbLine
 10
7.082338821928924
 20
15.37995079278665
 30
0.0
 11
7.089338821928926
 21
15.37995079278665
 31
0.0
  0
LINE
  5
68B
330
1F
100
AcDbEntity
  8
Object
100
AcDbLine
 10
7.089338821928926
 20
15.37995079278665
 30
0.0
 11
7.089338821928926
 21
14.35995079278665
 31
0.0
  0
LINE
  5
68C
330
1F
100
AcDbEntity
  8
Object
100
AcDbLine
 10
7.089338821928926
 20
14.35995079278665
 30
0.0
 11
7.082338821928924
 21
14.35995079278665
 31
0.0
  0
LINE
  5
68D
330
1F
100
AcDbEntity
  8
Object
100
AcDbLine
 10
7.082338821928924
 20
14.35995079278665
 30
0.0
 11
7.074338821928925
 21
14.35995079278665
 31
0.0
  0
LINE
  5
68E
330
1F
100
AcDbEntity
  8
Object
100
AcDbLine
 10
7.082338821928924
 20
15.37995079278665
 30
0.0
 11
7.074338821928925
 21
15.37995079278665
 31
0.0
  0
LINE
  5
68F
330
1F
100
AcDbEntity
  8
Object
100
AcDbLine
 10
7.064338821928926
 20
14.35995079278665
 30
0.0
 11
7.074338821928925
 21
14.35995079278665
 31
0.0
  0
LINE
  5
690
330
1F
100
AcDbEntity
  8
Object
100
AcDbLine
 10
7.074338821928925
 20
15.37995079278665
 30
0.0
 11
7.064338821928926
 21
15.37995079278665
 31
0.0
  0
LINE
  5
691
330
1F
100
AcDbEntity
  8
Object
100
AcDbLine
 10
5.744338821928925
 20
14.35995079278665
 30
0.0
 11
5.744338821928925
 21
15.37995079278665
 31
0.0
  0
LINE
  5
692
330
1F
100
AcDbEntity
  8
Object
100
AcDbLine
 10
5.735338821928927
 20
15.37995079278665
 30
0.0
 11
5.727338821928926
 21
15.37995079278665
 31
0.0
  0
LINE
  5
693
330
1F
100
AcDbEntity
  8
Object
100
AcDbLine
 10
5.735338821928927
 20
14.35995079278665
 30
0.0
 11
5.727338821928926
 21
14.35995079278665
 31
0.0
  0
LINE
  5
694
330
1F
100
AcDbEntity
  8
Object
100
AcDbLine
 10
5.727338821928926
 20
14.35995079278665
 30
0.0
 11
5.720338821928926
 21
14.35995079278665
 31
0.0
  0
LINE
  5
695
330
1F
100
AcDbEntity
  8
Object
100
AcDbLine
 10
5.727338821928926
 20
15.37995079278665
 30
0.0
 11
5.720338821928926
 21
15.37995079278665
 31
0.0
  0
LINE
  5
696
330
1F
100
AcDbEntity
  8
Object
100
AcDbLine
 10
5.744338821928925
 20
15.39795079278665
 30
0.0
 11
5.744338821928925
 21
15.38895079278665
 31
0.0
  0
LINE
  5
697
330
1F
100
AcDbEntity
  8
Object
100
AcDbLine
 10
5.744338821928925
 20
15.38895079278665
 30
0.0
 11
5.744338821928925
 21
15.37995079278665
 31
0.0
  0
LINE
  5
698
330
1F
100
AcDbEntity
  8
Object
100
AcDbLine
 10
5.744338821928925
 20
15.39795079278665
 30
0.0
 11
5.744338821928925
 21
15.40495079278665
 31
0.0
  0
LINE
  5
699
330
1F
100
AcDbEntity
  8
Object
100
AcDbLine
 10
5.735338821928927
 20
15.37995079278665
 30
0.0
 11
5.744338821928925
 21
15.37995079278665
 31
0.0
  0
LINE
  5
69A
330
1F
100
AcDbEntity
  8
Object
100
AcDbLine
 10
5.744338821928925
 20
15.37995079278665
 30
0.0
 11
5.737338821928926
 21
15.39295079278665
 31
0.0
  0
LINE
  5
69B
330
1F
100
AcDbEntity
  8
Object
100
AcDbLine
 10
7.089338821928926
 20
14.35995079278665
 30
0.0
 11
7.086338821928926
 21
14.34795079278665
 31
0.0
  0
LINE
  5
69C
330
1F
100
AcDbEntity
  8
Object
100
AcDbLine
 10
7.086338821928926
 20
14.34795079278665
 30
0.0
 11
7.077338821928925
 21
14.33895079278665
 31
0.0
  0
LINE
  5
69D
330
1F
100
AcDbEntity
  8
Object
100
AcDbLine
 10
7.072338821928926
 20
14.34695079278665
 30
0.0
 11
7.064338821928926
 21
14.35995079278665
 31
0.0
  0
LINE
  5
69E
330
1F
100
AcDbEntity
  8
Object
100
AcDbLine
 10
5.744338821928925
 20
14.35995079278665
 30
0.0
 11
5.744338821928925
 21
14.35095079278665
 31
0.0
  0
LINE
  5
69F
330
1F
100
AcDbEntity
  8
Object
100
AcDbLine
 10
5.744338821928925
 20
14.35095079278665
 30
0.0
 11
5.744338821928925
 21
14.34195079278665
 31
0.0
  0
LINE
  5
6A0
330
1F
100
AcDbEntity
  8
Object
100
AcDbLine
 10
5.744338821928925
 20
14.34195079278665
 30
0.0
 11
5.744338821928925
 21
14.33595079278665
 31
0.0
  0
LINE
  5
6A1
330
1F
100
AcDbEntity
  8
Object
100
AcDbLine
 10
5.735338821928927
 20
14.35995079278665
 30
0.0
 11
5.744338821928925
 21
14.35995079278665
 31
0.0
  0
LINE
  5
6A2
330
1F
100
AcDbEntity
  8
Object
100
AcDbLine
 10
5.744338821928925
 20
14.35995079278665
 30
0.0
 11
5.731338821928925
 21
14.35295079278665
 31
0.0
  0
LINE
  5
6A3
330
1F
100
AcDbEntity
  8
Object
100
AcDbLine
 10
2.434338821928925
 20
10.56095079278665
 30
0.0
 11
10.37433882192893
 21
10.56095079278665
 31
0.0
  0
LINE
  5
6A4
330
1F
100
AcDbEntity
  8
Object
100
AcDbLine
 10
8.404338821928925
 20
11.41995079278665
 30
0.0
 11
8.361338821928926
 21
11.42695079278665
 31
0.0
  0
LINE
  5
6A5
330
1F
100
AcDbEntity
  8
Object
100
AcDbLine
 10
8.404338821928925
 20
11.70095079278665
 30
0.0
 11
8.361338821928926
 21
11.69395079278665
 31
0.0
  0
LINE
  5
6A6
330
1F
100
AcDbEntity
  8
Object
100
AcDbLine
 10
8.361338821928926
 20
11.69395079278665
 30
0.0
 11
8.322338821928925
 21
11.67395079278665
 31
0.0
  0
LINE
  5
6A7
330
1F
100
AcDbEntity
  8
Object
100
AcDbLine
 10
8.361338821928926
 20
11.42695079278665
 30
0.0
 11
8.322338821928925
 21
11.44695079278665
 31
0.0
  0
LINE
  5
6A8
330
1F
100
AcDbEntity
  8
Object
100
AcDbLine
 10
8.322338821928925
 20
11.44695079278665
 30
0.0
 11
8.291338821928926
 21
11.47795079278665
 31
0.0
  0
LINE
  5
6A9
330
1F
100
AcDbEntity
  8
Object
100
AcDbLine
 10
8.322338821928925
 20
11.67395079278665
 30
0.0
 11
8.291338821928926
 21
11.64295079278665
 31
0.0
  0
LINE
  5
6AA
330
1F
100
AcDbEntity
  8
Object
100
AcDbLine
 10
8.291338821928926
 20
11.64295079278665
 30
0.0
 11
8.271338821928926
 21
11.60395079278665
 31
0.0
  0
LINE
  5
6AB
330
1F
100
AcDbEntity
  8
Object
100
AcDbLine
 10
8.291338821928926
 20
11.47795079278665
 30
0.0
 11
8.271338821928926
 21
11.51695079278665
 31
0.0
  0
LINE
  5
6AC
330
1F
100
AcDbEntity
  8
Object
100
AcDbLine
 10
8.271338821928926
 20
11.51695079278665
 30
0.0
 11
8.264338821928925
 21
11.56095079278665
 31
0.0
  0
LINE
  5
6AD
330
1F
100
AcDbEntity
  8
Object
100
AcDbLine
 10
8.264338821928925
 20
11.56095079278665
 30
0.0
 11
8.271338821928926
 21
11.60395079278665
 31
0.0
  0
LINE
  5
6AE
330
1F
100
AcDbEntity
  8
Object
100
AcDbLine
 10
4.404338821928924
 20
11.41995079278665
 30
0.0
 11
4.361338821928924
 21
11.42695079278665
 31
0.0
  0
LINE
  5
6AF
330
1F
100
AcDbEntity
  8
Object
100
AcDbLine
 10
4.404338821928924
 20
11.70095079278665
 30
0.0
 11
4.361338821928924
 21
11.69395079278665
 31
0.0
  0
LINE
  5
6B0
330
1F
100
AcDbEntity
  8
Object
100
AcDbLine
 10
4.361338821928924
 20
11.69395079278665
 30
0.0
 11
4.322338821928926
 21
11.67395079278665
 31
0.0
  0
LINE
  5
6B1
330
1F
100
AcDbEntity
  8
Object
100
AcDbLine
 10
4.361338821928924
 20
11.42695079278665
 30
0.0
 11
4.322338821928926
 21
11.44695079278665
 31
0.0
  0
LINE
  5
6B2
330
1F
100
AcDbEntity
  8
Object
100
AcDbLine
 10
4.322338821928926
 20
11.44695079278665
 30
0.0
 11
4.291338821928924
 21
11.47795079278665
 31
0.0
  0
LINE
  5
6B3
330
1F
100
AcDbEntity
  8
Object
100
AcDbLine
 10
4.322338821928926
 20
11.67395079278665
 30
0.0
 11
4.291338821928924
 21
11.64295079278665
 31
0.0
  0
LINE
  5
6B4
330
1F
100
AcDbEntity
  8
Object
100
AcDbLine
 10
4.291338821928924
 20
11.64295079278665
 30
0.0
 11
4.271338821928925
 21
11.60395079278665
 31
0.0
  0
LINE
  5
6B5
330
1F
100
AcDbEntity
  8
Object
100
AcDbLine
 10
4.291338821928924
 20
11.47795079278665
 30
0.0
 11
4.271338821928925
 21
11.51695079278665
 31
0.0
  0
LINE
  5
6B6
330
1F
100
AcDbEntity
  8
Object
100
AcDbLine
 10
4.271338821928925
 20
11.51695079278665
 30
0.0
 11
4.264338821928927
 21
11.56095079278665
 31
0.0
  0
LINE
  5
6B7
330
1F
100
AcDbEntity
  8
Object
100
AcDbLine
 10
4.264338821928927
 20
11.56095079278665
 30
0.0
 11
4.271338821928925
 21
11.60395079278665
 31
0.0
  0
LINE
  5
6B8
330
1F
100
AcDbEntity
  8
Object
100
AcDbLine
 10
4.538338821928924
 20
11.51695079278665
 30
0.0
 11
4.545338821928925
 21
11.56095079278665
 31
0.0
  0
LINE
  5
6B9
330
1F
100
AcDbEntity
  8
Object
100
AcDbLine
 10
4.545338821928925
 20
11.56095079278665
 30
0.0
 11
4.538338821928924
 21
11.60395079278665
 31
0.0
  0
LINE
  5
6BA
330
1F
100
AcDbEntity
  8
Object
100
AcDbLine
 10
4.538338821928924
 20
11.60395079278665
 30
0.0
 11
4.518338821928924
 21
11.64295079278665
 31
0.0
  0
LINE
  5
6BB
330
1F
100
AcDbEntity
  8
Object
100
AcDbLine
 10
4.538338821928924
 20
11.51695079278665
 30
0.0
 11
4.518338821928924
 21
11.47795079278665
 31
0.0
  0
LINE
  5
6BC
330
1F
100
AcDbEntity
  8
Object
100
AcDbLine
 10
4.487338821928926
 20
11.67395079278665
 30
0.0
 11
4.518338821928924
 21
11.64295079278665
 31
0.0
  0
LINE
  5
6BD
330
1F
100
AcDbEntity
  8
Object
100
AcDbLine
 10
4.518338821928924
 20
11.47795079278665
 30
0.0
 11
4.487338821928926
 21
11.44695079278665
 31
0.0
  0
LINE
  5
6BE
330
1F
100
AcDbEntity
  8
Object
100
AcDbLine
 10
4.448338821928924
 20
11.69395079278665
 30
0.0
 11
4.487338821928926
 21
11.67395079278665
 31
0.0
  0
LINE
  5
6BF
330
1F
100
AcDbEntity
  8
Object
100
AcDbLine
 10
4.487338821928926
 20
11.44695079278665
 30
0.0
 11
4.448338821928924
 21
11.42695079278665
 31
0.0
  0
LINE
  5
6C0
330
1F
100
AcDbEntity
  8
Object
100
AcDbLine
 10
4.404338821928924
 20
11.70095079278665
 30
0.0
 11
4.448338821928924
 21
11.69395079278665
 31
0.0
  0
LINE
  5
6C1
330
1F
100
AcDbEntity
  8
Object
100
AcDbLine
 10
4.448338821928924
 20
11.42695079278665
 30
0.0
 11
4.404338821928924
 21
11.41995079278665
 31
0.0
  0
LINE
  5
6C2
330
1F
100
AcDbEntity
  8
Object
100
AcDbLine
 10
8.538338821928926
 20
11.51695079278665
 30
0.0
 11
8.545338821928925
 21
11.56095079278665
 31
0.0
  0
LINE
  5
6C3
330
1F
100
AcDbEntity
  8
Object
100
AcDbLine
 10
8.545338821928925
 20
11.56095079278665
 30
0.0
 11
8.538338821928926
 21
11.60395079278665
 31
0.0
  0
LINE
  5
6C4
330
1F
100
AcDbEntity
  8
Object
100
AcDbLine
 10
8.538338821928926
 20
11.60395079278665
 30
0.0
 11
8.518338821928926
 21
11.64295079278665
 31
0.0
  0
LINE
  5
6C5
330
1F
100
AcDbEntity
  8
Object
100
AcDbLine
 10
8.538338821928926
 20
11.51695079278665
 30
0.0
 11
8.518338821928926
 21
11.47795079278665
 31
0.0
  0
LINE
  5
6C6
330
1F
100
AcDbEntity
  8
Object
100
AcDbLine
 10
8.487338821928926
 20
11.67395079278665
 30
0.0
 11
8.518338821928926
 21
11.64295079278665
 31
0.0
  0
LINE
  5
6C7
330
1F
100
AcDbEntity
  8
Object
100
AcDbLine
 10
8.518338821928926
 20
11.47795079278665
 30
0.0
 11
8.487338821928926
 21
11.44695079278665
 31
0.0
  0
LINE
  5
6C8
330
1F
100
AcDbEntity
  8
Object
100
AcDbLine
 10
8.448338821928926
 20
11.69395079278665
 30
0.0
 11
8.487338821928926
 21
11.67395079278665
 31
0.0
  0
LINE
  5
6C9
330
1F
100
AcDbEntity
  8
Object
100
AcDbLine
 10
8.487338821928926
 20
11.44695079278665
 30
0.0
 11
8.448338821928926
 21
11.42695079278665
 31
0.0
  0
LINE
  5
6CA
330
1F
100
AcDbEntity
  8
Object
100
AcDbLine
 10
8.404338821928925
 20
11.70095079278665
 30
0.0
 11
8.448338821928926
 21
11.69395079278665
 31
0.0
  0
LINE
  5
6CB
330
1F
100
AcDbEntity
  8
Object
100
AcDbLine
 10
8.448338821928926
 20
11.42695079278665
 30
0.0
 11
8.404338821928925
 21
11.41995079278665
 31
0.0
  0
LINE
  5
6CC
330
1F
100
AcDbEntity
  8
Object
100
AcDbLine
 10
10.43433882192892
 20
10.56095079278665
 30
0.0
 11
10.42533882192892
 21
10.56095079278665
 31
0.0
  0
LINE
  5
6CD
330
1F
100
AcDbEntity
  8
Object
100
AcDbLine
 10
10.42533882192892
 20
10.56095079278665
 30
0.0
 11
10.40333882192892
 21
10.56095079278665
 31
0.0
  0
LINE
  5
6CE
330
1F
100
AcDbEntity
  8
Object
100
AcDbLine
 10
10.40333882192892
 20
10.56095079278665
 30
0.0
 11
10.37433882192893
 21
10.56095079278665
 31
0.0
  0
LINE
  5
6CF
330
1F
100
AcDbEntity
  8
Object
100
AcDbLine
 10
10.66233882192892
 20
10.81095079278665
 30
0.0
 11
10.66233882192892
 21
12.56095079278665
 31
0.0
  0
LINE
  5
6D0
330
1F
100
AcDbEntity
  8
Object
100
AcDbLine
 10
10.64533882192892
 20
11.60395079278665
 30
0.0
 11
10.64633882192892
 21
11.56095079278665
 31
0.0
  0
LINE
  5
6D1
330
1F
100
AcDbEntity
  8
Object
100
AcDbLine
 10
10.64633882192892
 20
11.56095079278665
 30
0.0
 11
10.64533882192892
 21
11.51695079278665
 31
0.0
  0
LINE
  5
6D2
330
1F
100
AcDbEntity
  8
Object
100
AcDbLine
 10
10.64433882192892
 20
11.64295079278665
 30
0.0
 11
10.64533882192892
 21
11.60395079278665
 31
0.0
  0
LINE
  5
6D3
330
1F
100
AcDbEntity
  8
Object
100
AcDbLine
 10
10.66133882192892
 20
10.75495079278665
 30
0.0
 11
10.66033882192892
 21
10.70195079278665
 31
0.0
  0
LINE
  5
6D4
330
1F
100
AcDbEntity
  8
Object
100
AcDbLine
 10
10.66033882192892
 20
10.70195079278665
 30
0.0
 11
10.65833882192892
 21
10.65495079278665
 31
0.0
  0
LINE
  5
6D5
330
1F
100
AcDbEntity
  8
Object
100
AcDbLine
 10
10.65833882192892
 20
10.65495079278665
 30
0.0
 11
10.65533882192892
 21
10.61495079278665
 31
0.0
  0
LINE
  5
6D6
330
1F
100
AcDbEntity
  8
Object
100
AcDbLine
 10
10.65533882192892
 20
10.61495079278665
 30
0.0
 11
10.65233882192892
 21
10.58495079278665
 31
0.0
  0
LINE
  5
6D7
330
1F
100
AcDbEntity
  8
Object
100
AcDbLine
 10
10.65233882192892
 20
10.58495079278665
 30
0.0
 11
10.64833882192892
 21
10.56695079278665
 31
0.0
  0
LINE
  5
6D8
330
1F
100
AcDbEntity
  8
Object
100
AcDbLine
 10
10.64833882192892
 20
10.56695079278665
 30
0.0
 11
10.64433882192892
 21
10.56095079278665
 31
0.0
  0
LINE
  5
6D9
330
1F
100
AcDbEntity
  8
Object
100
AcDbLine
 10
10.66133882192892
 20
10.75495079278665
 30
0.0
 11
10.66233882192892
 21
10.81095079278665
 31
0.0
  0
LINE
  5
6DA
330
1F
100
AcDbEntity
  8
Object
100
AcDbLine
 10
10.64533882192892
 20
11.51695079278665
 30
0.0
 11
10.64433882192892
 21
11.47795079278665
 31
0.0
  0
LINE
  5
6DB
330
1F
100
AcDbEntity
  8
Object
100
AcDbLine
 10
10.64133882192892
 20
11.67395079278665
 30
0.0
 11
10.64433882192892
 21
11.64295079278665
 31
0.0
  0
LINE
  5
6DC
330
1F
100
AcDbEntity
  8
Object
100
AcDbLine
 10
10.64433882192892
 20
11.47795079278665
 30
0.0
 11
10.64133882192892
 21
11.44695079278665
 31
0.0
  0
LINE
  5
6DD
330
1F
100
AcDbEntity
  8
Object
100
AcDbLine
 10
10.63933882192892
 20
11.69395079278665
 30
0.0
 11
10.64133882192892
 21
11.67395079278665
 31
0.0
  0
LINE
  5
6DE
330
1F
100
AcDbEntity
  8
Object
100
AcDbLine
 10
10.64133882192892
 20
11.44695079278665
 30
0.0
 11
10.63933882192892
 21
11.42695079278665
 31
0.0
  0
LINE
  5
6DF
330
1F
100
AcDbEntity
  8
Object
100
AcDbLine
 10
10.63633882192892
 20
11.70095079278665
 30
0.0
 11
10.63933882192892
 21
11.69395079278665
 31
0.0
  0
LINE
  5
6E0
330
1F
100
AcDbEntity
  8
Object
100
AcDbLine
 10
10.63933882192892
 20
11.42695079278665
 30
0.0
 11
10.63633882192892
 21
11.41995079278665
 31
0.0
  0
LINE
  5
6E1
330
1F
100
AcDbEntity
  8
Object
100
AcDbLine
 10
10.63333882192892
 20
11.69395079278665
 30
0.0
 11
10.63633882192892
 21
11.70095079278665
 31
0.0
  0
LINE
  5
6E2
330
1F
100
AcDbEntity
  8
Object
100
AcDbLine
 10
10.63633882192892
 20
11.41995079278665
 30
0.0
 11
10.63333882192892
 21
11.42695079278665
 31
0.0
  0
LINE
  5
6E3
330
1F
100
AcDbEntity
  8
Object
100
AcDbLine
 10
10.63033882192892
 20
11.67395079278665
 30
0.0
 11
10.63333882192892
 21
11.69395079278665
 31
0.0
  0
LINE
  5
6E4
330
1F
100
AcDbEntity
  8
Object
100
AcDbLine
 10
10.63333882192892
 20
11.42695079278665
 30
0.0
 11
10.63033882192892
 21
11.44695079278665
 31
0.0
  0
LINE
  5
6E5
330
1F
100
AcDbEntity
  8
Object
100
AcDbLine
 10
10.63033882192892
 20
11.44695079278665
 30
0.0
 11
10.62833882192892
 21
11.47795079278665
 31
0.0
  0
LINE
  5
6E6
330
1F
100
AcDbEntity
  8
Object
100
AcDbLine
 10
10.63033882192892
 20
11.67395079278665
 30
0.0
 11
10.62833882192892
 21
11.64295079278665
 31
0.0
  0
LINE
  5
6E7
330
1F
100
AcDbEntity
  8
Object
100
AcDbLine
 10
10.62833882192892
 20
11.64295079278665
 30
0.0
 11
10.62633882192892
 21
11.60395079278665
 31
0.0
  0
LINE
  5
6E8
330
1F
100
AcDbEntity
  8
Object
100
AcDbLine
 10
10.62633882192892
 20
11.60395079278665
 30
0.0
 11
10.62633882192892
 21
11.56095079278665
 31
0.0
  0
LINE
  5
6E9
330
1F
100
AcDbEntity
  8
Object
100
AcDbLine
 10
10.43433882192892
 20
10.56095079278665
 30
0.0
 11
10.64433882192892
 21
10.56095079278665
 31
0.0
  0
LINE
  5
6EA
330
1F
100
AcDbEntity
  8
Object
100
AcDbLine
 10
10.62633882192892
 20
11.56095079278665
 30
0.0
 11
10.62633882192892
 21
11.51695079278665
 31
0.0
  0
LINE
  5
6EB
330
1F
100
AcDbEntity
  8
Object
100
AcDbLine
 10
10.62633882192892
 20
11.51695079278665
 30
0.0
 11
10.62833882192892
 21
11.47795079278665
 31
0.0
  0
LINE
  5
6EC
330
1F
100
AcDbEntity
  8
Object
100
AcDbLine
 10
10.72233882192892
 20
12.56095079278665
 30
0.0
 11
10.71933882192892
 21
12.58395079278665
 31
0.0
  0
LINE
  5
6ED
330
1F
100
AcDbEntity
  8
Object
100
AcDbLine
 10
10.71933882192892
 20
12.58395079278665
 30
0.0
 11
10.71033882192892
 21
12.60595079278665
 31
0.0
  0
LINE
  5
6EE
330
1F
100
AcDbEntity
  8
Object
100
AcDbLine
 10
10.71033882192892
 20
12.60595079278665
 30
0.0
 11
10.69533882192892
 21
12.62395079278665
 31
0.0
  0
LINE
  5
6EF
330
1F
100
AcDbEntity
  8
Object
100
AcDbLine
 10
10.42633882192892
 20
12.58195079278665
 30
0.0
 11
9.346338821928926
 21
13.66395079278665
 31
0.0
  0
LINE
  5
6F0
330
1F
100
AcDbEntity
  8
Object
100
AcDbLine
 10
9.346338821928926
 20
13.66395079278665
 30
0.0
 11
9.353338821928925
 21
13.67195079278665
 31
0.0
  0
LINE
  5
6F1
330
1F
100
AcDbEntity
  8
Object
100
AcDbLine
 10
10.66133882192892
 20
12.56795079278665
 30
0.0
 11
10.66233882192892
 21
12.56095079278665
 31
0.0
  0
LINE
  5
6F2
330
1F
100
AcDbEntity
  8
Object
100
AcDbLine
 10
10.66233882192892
 20
12.56095079278665
 30
0.0
 11
10.43433882192892
 21
12.56095079278665
 31
0.0
  0
LINE
  5
6F3
330
1F
100
AcDbEntity
  8
Object
100
AcDbLine
 10
10.66133882192892
 20
12.56795079278665
 30
0.0
 11
10.65833882192892
 21
12.57595079278665
 31
0.0
  0
LINE
  5
6F4
330
1F
100
AcDbEntity
  8
Object
100
AcDbLine
 10
10.65833882192892
 20
12.57595079278665
 30
0.0
 11
10.65333882192892
 21
12.58195079278665
 31
0.0
  0
LINE
  5
6F5
330
1F
100
AcDbEntity
  8
Object
100
AcDbLine
 10
2.434338821928925
 20
10.56095079278665
 30
0.0
 11
2.405338821928925
 21
10.56095079278665
 31
0.0
  0
LINE
  5
6F6
330
1F
100
AcDbEntity
  8
Object
100
AcDbLine
 10
2.405338821928925
 20
10.56095079278665
 30
0.0
 11
2.384338821928924
 21
10.56095079278665
 31
0.0
  0
LINE
  5
6F7
330
1F
100
AcDbEntity
  8
Object
100
AcDbLine
 10
2.384338821928924
 20
10.56095079278665
 30
0.0
 11
2.374338821928926
 21
10.56095079278665
 31
0.0
  0
LINE
  5
6F8
330
1F
100
AcDbEntity
  8
Object
100
AcDbLine
 10
2.374338821928926
 20
10.56095079278665
 30
0.0
 11
2.374338821928926
 21
12.56095079278665
 31
0.0
  0
LINE
  5
6F9
330
1F
100
AcDbEntity
  8
Object
100
AcDbLine
 10
2.164338821928925
 20
10.56095079278665
 30
0.0
 11
2.374338821928926
 21
10.56095079278665
 31
0.0
  0
LINE
  5
6FA
330
1F
100
AcDbEntity
  8
Object
100
AcDbLine
 10
2.374338821928926
 20
12.56095079278665
 30
0.0
 11
2.147338821928926
 21
12.56095079278665
 31
0.0
  0
LINE
  5
6FB
330
1F
100
AcDbEntity
  8
Object
100
AcDbLine
 10
2.087338821928923
 20
12.56095079278665
 30
0.0
 11
2.087338821928923
 21
10.81095079278665
 31
0.0
  0
LINE
  5
6FC
330
1F
100
AcDbEntity
  8
Object
100
AcDbLine
 10
2.089338821928926
 20
10.70195079278665
 30
0.0
 11
2.087338821928923
 21
10.75495079278665
 31
0.0
  0
LINE
  5
6FD
330
1F
100
AcDbEntity
  8
Object
100
AcDbLine
 10
2.087338821928923
 20
10.75495079278665
 30
0.0
 11
2.087338821928923
 21
10.81095079278665
 31
0.0
  0
LINE
  5
6FE
330
1F
100
AcDbEntity
  8
Object
100
AcDbLine
 10
2.089338821928926
 20
10.70195079278665
 30
0.0
 11
2.091338821928925
 21
10.65495079278665
 31
0.0
  0
LINE
  5
6FF
330
1F
100
AcDbEntity
  8
Object
100
AcDbLine
 10
2.091338821928925
 20
10.65495079278665
 30
0.0
 11
2.094338821928925
 21
10.61495079278665
 31
0.0
  0
LINE
  5
700
330
1F
100
AcDbEntity
  8
Object
100
AcDbLine
 10
2.094338821928925
 20
10.61495079278665
 30
0.0
 11
2.097338821928925
 21
10.58495079278665
 31
0.0
  0
LINE
  5
701
330
1F
100
AcDbEntity
  8
Object
100
AcDbLine
 10
2.097338821928925
 20
10.58495079278665
 30
0.0
 11
2.101338821928926
 21
10.56695079278665
 31
0.0
  0
LINE
  5
702
330
1F
100
AcDbEntity
  8
Object
100
AcDbLine
 10
2.101338821928926
 20
10.56695079278665
 30
0.0
 11
2.104338821928926
 21
10.56095079278665
 31
0.0
  0
LINE
  5
703
330
1F
100
AcDbEntity
  8
Object
100
AcDbLine
 10
2.156338821928926
 20
12.58195079278665
 30
0.0
 11
2.383338821928926
 21
12.58195079278665
 31
0.0
  0
LINE
  5
704
330
1F
100
AcDbEntity
  8
Object
100
AcDbLine
 10
2.383338821928926
 20
12.58195079278665
 30
0.0
 11
2.378338821928924
 21
12.57595079278665
 31
0.0
  0
LINE
  5
705
330
1F
100
AcDbEntity
  8
Object
100
AcDbLine
 10
2.378338821928924
 20
12.57595079278665
 30
0.0
 11
2.375338821928927
 21
12.56795079278665
 31
0.0
  0
LINE
  5
706
330
1F
100
AcDbEntity
  8
Object
100
AcDbLine
 10
2.375338821928927
 20
12.56795079278665
 30
0.0
 11
2.374338821928926
 21
12.56095079278665
 31
0.0
  0
LINE
  5
707
330
1F
100
AcDbEntity
  8
Object
100
AcDbLine
 10
2.113338821928927
 20
12.62395079278665
 30
0.0
 11
2.099338821928924
 21
12.60595079278665
 31
0.0
  0
LINE
  5
708
330
1F
100
AcDbEntity
  8
Object
100
AcDbLine
 10
2.099338821928924
 20
12.60595079278665
 30
0.0
 11
2.090338821928924
 21
12.58395079278665
 31
0.0
  0
LINE
  5
709
330
1F
100
AcDbEntity
  8
Object
100
AcDbLine
 10
2.090338821928924
 20
12.58395079278665
 30
0.0
 11
2.087338821928923
 21
12.56095079278665
 31
0.0
  0
LINE
  5
70A
330
1F
100
AcDbEntity
  8
Object
100
AcDbLine
 10
3.454338821928924
 20
13.67195079278665
 30
0.0
 11
3.463338821928925
 21
13.66395079278665
 31
0.0
  0
LINE
  5
70B
330
1F
100
AcDbEntity
  8
Object
100
AcDbLine
 10
3.463338821928925
 20
13.66395079278665
 30
0.0
 11
2.383338821928926
 21
12.58195079278665
 31
0.0
  0
LINE
  5
70C
330
1F
100
AcDbEntity
  8
Object
100
AcDbLine
 10
5.744338821928925
 20
15.37995079278665
 30
0.0
 11
7.064338821928926
 21
15.37995079278665
 31
0.0
  0
LINE
  5
70D
330
1F
100
AcDbEntity
  8
Object
100
AcDbLine
 10
7.064338821928926
 20
15.37995079278665
 30
0.0
 11
7.064338821928926
 21
14.35995079278665
 31
0.0
  0
LINE
  5
70E
330
1F
100
AcDbEntity
  8
Object
100
AcDbLine
 10
10.62633882192892
 20
11.56095079278665
 30
0.0
 11
10.64633882192892
 21
11.56095079278665
 31
0.0
  0
LINE
  5
70F
330
1F
100
AcDbEntity
  8
Object
100
AcDbLine
 10
10.72133882192892
 20
10.75495079278665
 30
0.0
 11
10.72233882192892
 21
10.81095079278665
 31
0.0
  0
LINE
  5
710
330
1F
100
AcDbEntity
  8
Object
100
AcDbLine
 10
10.72233882192892
 20
10.81095079278665
 30
0.0
 11
10.66233882192892
 21
10.81095079278665
 31
0.0
  0
LINE
  5
711
330
1F
100
AcDbEntity
  8
Object
100
AcDbLine
 10
10.72133882192892
 20
10.75495079278665
 30
0.0
 11
10.72033882192892
 21
10.70195079278665
 31
0.0
  0
LINE
  5
712
330
1F
100
AcDbEntity
  8
Object
100
AcDbLine
 10
10.72033882192892
 20
10.70195079278665
 30
0.0
 11
10.71833882192892
 21
10.65495079278665
 31
0.0
  0
LINE
  5
713
330
1F
100
AcDbEntity
  8
Object
100
AcDbLine
 10
10.71833882192892
 20
10.65495079278665
 30
0.0
 11
10.71533882192892
 21
10.61495079278665
 31
0.0
  0
LINE
  5
714
330
1F
100
AcDbEntity
  8
Object
100
AcDbLine
 10
10.71533882192892
 20
10.61495079278665
 30
0.0
 11
10.71233882192892
 21
10.58495079278665
 31
0.0
  0
LINE
  5
715
330
1F
100
AcDbEntity
  8
Object
100
AcDbLine
 10
10.71233882192892
 20
10.58495079278665
 30
0.0
 11
10.70833882192892
 21
10.56695079278665
 31
0.0
  0
LINE
  5
716
330
1F
100
AcDbEntity
  8
Object
100
AcDbLine
 10
10.70833882192892
 20
10.56695079278665
 30
0.0
 11
10.70433882192892
 21
10.56095079278665
 31
0.0
  0
LINE
  5
717
330
1F
100
AcDbEntity
  8
Object
100
AcDbLine
 10
10.70433882192892
 20
10.56095079278665
 30
0.0
 11
10.64433882192892
 21
10.56095079278665
 31
0.0
  0
LINE
  5
718
330
1F
100
AcDbEntity
  8
Object
100
AcDbLine
 10
10.72233882192892
 20
10.81095079278665
 30
0.0
 11
10.72233882192892
 21
12.56095079278665
 31
0.0
  0
LINE
  5
719
102
{ACAD_REACTORS
330
847
102
}
330
1F
100
AcDbEntity
  8
Object
100
AcDbLine
 10
10.70433882192892
 20
10.56095079278665
 30
0.0
 11
10.64433882192892
 21
10.56095079278665
 31
0.0
  0
LINE
  5
71A
330
1F
100
AcDbEntity
  8
Object
100
AcDbLine
 10
10.64433882192892
 20
10.56095079278665
 30
0.0
 11
10.43433882192892
 21
10.56095079278665
 31
0.0
  0
LINE
  5
71B
330
1F
100
AcDbEntity
  8
Object
100
AcDbLine
 10
10.66233882192892
 20
12.56095079278665
 30
0.0
 11
10.72233882192892
 21
12.56095079278665
 31
0.0
  0
LINE
  5
71C
330
1F
100
AcDbEntity
  8
Object
100
AcDbLine
 10
10.69533882192892
 20
12.62395079278665
 30
0.0
 11
9.615338821928926
 21
13.70695079278665
 31
0.0
  0
LINE
  5
71D
330
1F
100
AcDbEntity
  8
Object
100
AcDbLine
 10
10.42633882192892
 20
12.58195079278665
 30
0.0
 11
10.65333882192892
 21
12.58195079278665
 31
0.0
  0
LINE
  5
71E
330
1F
100
AcDbEntity
  8
Object
100
AcDbLine
 10
9.360338821928925
 20
13.66395079278665
 30
0.0
 11
9.573338821928926
 21
13.66395079278665
 31
0.0
  0
LINE
  5
71F
330
1F
100
AcDbEntity
  8
Object
100
AcDbLine
 10
9.573338821928926
 20
13.66395079278665
 30
0.0
 11
10.65333882192892
 21
12.58195079278665
 31
0.0
  0
LINE
  5
720
330
1F
100
AcDbEntity
  8
Object
100
AcDbLine
 10
9.360338821928925
 20
13.66395079278665
 30
0.0
 11
9.346338821928926
 21
13.66395079278665
 31
0.0
  0
LINE
  5
721
330
1F
100
AcDbEntity
  8
Object
100
AcDbLine
 10
2.374338821928926
 20
10.56095079278665
 30
0.0
 11
2.164338821928925
 21
10.56095079278665
 31
0.0
  0
LINE
  5
722
330
1F
100
AcDbEntity
  8
Object
100
AcDbLine
 10
2.164338821928925
 20
10.56095079278665
 30
0.0
 11
2.104338821928926
 21
10.56095079278665
 31
0.0
  0
LINE
  5
723
330
1F
100
AcDbEntity
  8
Object
100
AcDbLine
 10
2.160338821928924
 20
10.56695079278665
 30
0.0
 11
2.164338821928925
 21
10.56095079278665
 31
0.0
  0
LINE
  5
724
330
1F
100
AcDbEntity
  8
Object
100
AcDbLine
 10
2.164338821928925
 20
10.56095079278665
 30
0.0
 11
2.104338821928926
 21
10.56095079278665
 31
0.0
  0
LINE
  5
725
330
1F
100
AcDbEntity
  8
Object
100
AcDbLine
 10
2.160338821928924
 20
10.56695079278665
 30
0.0
 11
2.157338821928924
 21
10.58495079278665
 31
0.0
  0
LINE
  5
726
330
1F
100
AcDbEntity
  8
Object
100
AcDbLine
 10
2.157338821928924
 20
10.58495079278665
 30
0.0
 11
2.153338821928926
 21
10.61495079278665
 31
0.0
  0
LINE
  5
727
330
1F
100
AcDbEntity
  8
Object
100
AcDbLine
 10
2.153338821928926
 20
10.61495079278665
 30
0.0
 11
2.151338821928924
 21
10.65495079278665
 31
0.0
  0
LINE
  5
728
330
1F
100
AcDbEntity
  8
Object
100
AcDbLine
 10
2.151338821928924
 20
10.65495079278665
 30
0.0
 11
2.149338821928925
 21
10.70195079278665
 31
0.0
  0
LINE
  5
729
330
1F
100
AcDbEntity
  8
Object
100
AcDbLine
 10
2.149338821928925
 20
10.70195079278665
 30
0.0
 11
2.147338821928926
 21
10.75495079278665
 31
0.0
  0
LINE
  5
72A
330
1F
100
AcDbEntity
  8
Object
100
AcDbLine
 10
2.087338821928923
 20
10.81095079278665
 30
0.0
 11
2.147338821928926
 21
10.81095079278665
 31
0.0
  0
LINE
  5
72B
330
1F
100
AcDbEntity
  8
Object
100
AcDbLine
 10
2.147338821928926
 20
10.81095079278665
 30
0.0
 11
2.147338821928926
 21
10.75495079278665
 31
0.0
  0
LINE
  5
72C
330
1F
100
AcDbEntity
  8
Object
100
AcDbLine
 10
2.163338821928924
 20
11.56095079278665
 30
0.0
 11
2.183338821928927
 21
11.56095079278665
 31
0.0
  0
LINE
  5
72D
330
1F
100
AcDbEntity
  8
Object
100
AcDbLine
 10
2.183338821928927
 20
11.56095079278665
 30
0.0
 11
2.182338821928926
 21
11.51695079278665
 31
0.0
  0
LINE
  5
72E
330
1F
100
AcDbEntity
  8
Object
100
AcDbLine
 10
2.182338821928926
 20
11.51695079278665
 30
0.0
 11
2.181338821928925
 21
11.47795079278665
 31
0.0
  0
LINE
  5
72F
330
1F
100
AcDbEntity
  8
Object
100
AcDbLine
 10
2.181338821928925
 20
11.47795079278665
 30
0.0
 11
2.179338821928926
 21
11.44695079278665
 31
0.0
  0
LINE
  5
730
330
1F
100
AcDbEntity
  8
Object
100
AcDbLine
 10
2.179338821928926
 20
11.44695079278665
 30
0.0
 11
2.176338821928926
 21
11.42695079278665
 31
0.0
  0
LINE
  5
731
330
1F
100
AcDbEntity
  8
Object
100
AcDbLine
 10
2.176338821928926
 20
11.42695079278665
 30
0.0
 11
2.173338821928926
 21
11.41995079278665
 31
0.0
  0
LINE
  5
732
330
1F
100
AcDbEntity
  8
Object
100
AcDbLine
 10
2.173338821928926
 20
11.41995079278665
 30
0.0
 11
2.170338821928925
 21
11.42695079278665
 31
0.0
  0
LINE
  5
733
330
1F
100
AcDbEntity
  8
Object
100
AcDbLine
 10
2.170338821928925
 20
11.42695079278665
 30
0.0
 11
2.167338821928925
 21
11.44695079278665
 31
0.0
  0
LINE
  5
734
330
1F
100
AcDbEntity
  8
Object
100
AcDbLine
 10
2.167338821928925
 20
11.44695079278665
 30
0.0
 11
2.165338821928926
 21
11.47795079278665
 31
0.0
  0
LINE
  5
735
330
1F
100
AcDbEntity
  8
Object
100
AcDbLine
 10
2.165338821928926
 20
11.47795079278665
 30
0.0
 11
2.164338821928925
 21
11.51695079278665
 31
0.0
  0
LINE
  5
736
330
1F
100
AcDbEntity
  8
Object
100
AcDbLine
 10
2.164338821928925
 20
11.51695079278665
 30
0.0
 11
2.163338821928924
 21
11.56095079278665
 31
0.0
  0
LINE
  5
737
330
1F
100
AcDbEntity
  8
Object
100
AcDbLine
 10
2.087338821928923
 20
12.56095079278665
 30
0.0
 11
2.147338821928926
 21
12.56095079278665
 31
0.0
  0
LINE
  5
738
330
1F
100
AcDbEntity
  8
Object
100
AcDbLine
 10
2.147338821928926
 20
12.56095079278665
 30
0.0
 11
2.147338821928926
 21
10.81095079278665
 31
0.0
  0
LINE
  5
739
330
1F
100
AcDbEntity
  8
Object
100
AcDbLine
 10
2.183338821928927
 20
11.56095079278665
 30
0.0
 11
2.182338821928926
 21
11.60395079278665
 31
0.0
  0
LINE
  5
73A
330
1F
100
AcDbEntity
  8
Object
100
AcDbLine
 10
2.182338821928926
 20
11.60395079278665
 30
0.0
 11
2.181338821928925
 21
11.64295079278665
 31
0.0
  0
LINE
  5
73B
330
1F
100
AcDbEntity
  8
Object
100
AcDbLine
 10
2.181338821928925
 20
11.64295079278665
 30
0.0
 11
2.179338821928926
 21
11.67395079278665
 31
0.0
  0
LINE
  5
73C
330
1F
100
AcDbEntity
  8
Object
100
AcDbLine
 10
2.179338821928926
 20
11.67395079278665
 30
0.0
 11
2.176338821928926
 21
11.69395079278665
 31
0.0
  0
LINE
  5
73D
330
1F
100
AcDbEntity
  8
Object
100
AcDbLine
 10
2.176338821928926
 20
11.69395079278665
 30
0.0
 11
2.173338821928926
 21
11.70095079278665
 31
0.0
  0
LINE
  5
73E
330
1F
100
AcDbEntity
  8
Object
100
AcDbLine
 10
2.173338821928926
 20
11.70095079278665
 30
0.0
 11
2.170338821928925
 21
11.69395079278665
 31
0.0
  0
LINE
  5
73F
330
1F
100
AcDbEntity
  8
Object
100
AcDbLine
 10
2.170338821928925
 20
11.69395079278665
 30
0.0
 11
2.167338821928925
 21
11.67395079278665
 31
0.0
  0
LINE
  5
740
330
1F
100
AcDbEntity
  8
Object
100
AcDbLine
 10
2.167338821928925
 20
11.67395079278665
 30
0.0
 11
2.165338821928926
 21
11.64295079278665
 31
0.0
  0
LINE
  5
741
330
1F
100
AcDbEntity
  8
Object
100
AcDbLine
 10
2.165338821928926
 20
11.64295079278665
 30
0.0
 11
2.164338821928925
 21
11.60395079278665
 31
0.0
  0
LINE
  5
742
330
1F
100
AcDbEntity
  8
Object
100
AcDbLine
 10
2.164338821928925
 20
11.60395079278665
 30
0.0
 11
2.163338821928924
 21
11.56095079278665
 31
0.0
  0
LINE
  5
743
330
1F
100
AcDbEntity
  8
Object
100
AcDbLine
 10
3.463338821928925
 20
13.66395079278665
 30
0.0
 11
3.449338821928925
 21
13.66395079278665
 31
0.0
  0
LINE
  5
744
330
1F
100
AcDbEntity
  8
Object
100
AcDbLine
 10
3.449338821928925
 20
13.66395079278665
 30
0.0
 11
3.236338821928924
 21
13.66395079278665
 31
0.0
  0
LINE
  5
745
330
1F
100
AcDbEntity
  8
Object
100
AcDbLine
 10
2.151338821928924
 20
12.57595079278665
 30
0.0
 11
2.156338821928926
 21
12.58195079278665
 31
0.0
  0
LINE
  5
746
330
1F
100
AcDbEntity
  8
Object
100
AcDbLine
 10
2.156338821928926
 20
12.58195079278665
 30
0.0
 11
2.113338821928927
 21
12.62395079278665
 31
0.0
  0
LINE
  5
747
330
1F
100
AcDbEntity
  8
Object
100
AcDbLine
 10
2.151338821928924
 20
12.57595079278665
 30
0.0
 11
2.148338821928923
 21
12.56795079278665
 31
0.0
  0
LINE
  5
748
330
1F
100
AcDbEntity
  8
Object
100
AcDbLine
 10
2.148338821928923
 20
12.56795079278665
 30
0.0
 11
2.147338821928926
 21
12.56095079278665
 31
0.0
  0
LINE
  5
749
330
1F
100
AcDbEntity
  8
Object
100
AcDbLine
 10
3.193338821928925
 20
13.70695079278665
 30
0.0
 11
2.113338821928927
 21
12.62395079278665
 31
0.0
  0
LINE
  5
74A
330
1F
100
AcDbEntity
  8
Object
100
AcDbLine
 10
9.615338821928926
 20
13.70695079278665
 30
0.0
 11
9.573338821928926
 21
13.66395079278665
 31
0.0
  0
LINE
  5
74B
330
1F
100
AcDbEntity
  8
Object
100
AcDbLine
 10
10.65333882192892
 20
12.58195079278665
 30
0.0
 11
10.69533882192892
 21
12.62395079278665
 31
0.0
  0
LINE
  5
74C
330
1F
100
AcDbEntity
  8
Object
100
AcDbLine
 10
9.615338821928926
 20
13.70695079278665
 30
0.0
 11
9.611338821928926
 21
13.71295079278665
 31
0.0
  0
LINE
  5
74D
330
1F
100
AcDbEntity
  8
Object
100
AcDbLine
 10
9.611338821928926
 20
13.71295079278665
 30
0.0
 11
9.608338821928926
 21
13.71995079278665
 31
0.0
  0
LINE
  5
74E
330
1F
100
AcDbEntity
  8
Object
100
AcDbLine
 10
9.608338821928926
 20
13.71995079278665
 30
0.0
 11
9.607338821928925
 21
13.72795079278665
 31
0.0
  0
LINE
  5
74F
330
1F
100
AcDbEntity
  8
Object
100
AcDbLine
 10
9.360338821928925
 20
13.66395079278665
 30
0.0
 11
9.345338821928926
 21
13.68295079278665
 31
0.0
  0
LINE
  5
750
330
1F
100
AcDbEntity
  8
Object
100
AcDbLine
 10
9.345338821928926
 20
13.68295079278665
 30
0.0
 11
9.336338821928926
 21
13.70495079278665
 31
0.0
  0
LINE
  5
751
330
1F
100
AcDbEntity
  8
Object
100
AcDbLine
 10
9.333338821928926
 20
15.43995079278665
 30
0.0
 11
9.333338821928926
 21
13.72795079278665
 31
0.0
  0
LINE
  5
752
330
1F
100
AcDbEntity
  8
Object
100
AcDbLine
 10
9.333338821928926
 20
13.72795079278665
 30
0.0
 11
9.336338821928926
 21
13.70495079278665
 31
0.0
  0
LINE
  5
753
330
1F
100
AcDbEntity
  8
Object
100
AcDbLine
 10
9.573338821928926
 20
13.66395079278665
 30
0.0
 11
9.559338821928925
 21
13.68295079278665
 31
0.0
  0
LINE
  5
754
330
1F
100
AcDbEntity
  8
Object
100
AcDbLine
 10
9.559338821928925
 20
13.68295079278665
 30
0.0
 11
9.550338821928926
 21
13.70495079278665
 31
0.0
  0
LINE
  5
755
330
1F
100
AcDbEntity
  8
Object
100
AcDbLine
 10
9.550338821928926
 20
13.70495079278665
 30
0.0
 11
9.547338821928926
 21
13.72795079278665
 31
0.0
  0
LINE
  5
756
330
1F
100
AcDbEntity
  8
Object
100
AcDbLine
 10
9.547338821928926
 20
13.72795079278665
 30
0.0
 11
9.333338821928926
 21
13.72795079278665
 31
0.0
  0
LINE
  5
757
330
1F
100
AcDbEntity
  8
Object
100
AcDbLine
 10
3.193338821928925
 20
13.70695079278665
 30
0.0
 11
3.236338821928924
 21
13.66395079278665
 31
0.0
  0
LINE
  5
758
330
1F
100
AcDbEntity
  8
Object
100
AcDbLine
 10
3.236338821928924
 20
13.66395079278665
 30
0.0
 11
2.156338821928926
 21
12.58195079278665
 31
0.0
  0
LINE
  5
759
330
1F
100
AcDbEntity
  8
Object
100
AcDbLine
 10
3.262338821928924
 20
13.72795079278665
 30
0.0
 11
3.475338821928925
 21
13.72795079278665
 31
0.0
  0
LINE
  5
75A
330
1F
100
AcDbEntity
  8
Object
100
AcDbLine
 10
3.475338821928925
 20
13.72795079278665
 30
0.0
 11
3.472338821928925
 21
13.70495079278665
 31
0.0
  0
LINE
  5
75B
330
1F
100
AcDbEntity
  8
Object
100
AcDbLine
 10
3.472338821928925
 20
13.70495079278665
 30
0.0
 11
3.463338821928925
 21
13.68295079278665
 31
0.0
  0
LINE
  5
75C
330
1F
100
AcDbEntity
  8
Object
100
AcDbLine
 10
3.463338821928925
 20
13.68295079278665
 30
0.0
 11
3.449338821928925
 21
13.66395079278665
 31
0.0
  0
LINE
  5
75D
330
1F
100
AcDbEntity
  8
Object
100
AcDbLine
 10
3.202338821928925
 20
13.72795079278665
 30
0.0
 11
3.201338821928924
 21
13.71995079278665
 31
0.0
  0
LINE
  5
75E
330
1F
100
AcDbEntity
  8
Object
100
AcDbLine
 10
3.201338821928924
 20
13.71995079278665
 30
0.0
 11
3.198338821928924
 21
13.71295079278665
 31
0.0
  0
LINE
  5
75F
330
1F
100
AcDbEntity
  8
Object
100
AcDbLine
 10
3.198338821928924
 20
13.71295079278665
 30
0.0
 11
3.193338821928925
 21
13.70695079278665
 31
0.0
  0
LINE
  5
760
330
1F
100
AcDbEntity
  8
Object
100
AcDbLine
 10
3.475338821928925
 20
13.72795079278665
 30
0.0
 11
3.475338821928925
 21
15.43995079278665
 31
0.0
  0
LINE
  5
761
330
1F
100
AcDbEntity
  8
Object
100
AcDbLine
 10
9.607338821928925
 20
13.72795079278665
 30
0.0
 11
9.547338821928926
 21
13.72795079278665
 31
0.0
  0
LINE
  5
762
330
1F
100
AcDbEntity
  8
Object
100
AcDbLine
 10
9.537338821928926
 20
15.66495079278665
 30
0.0
 11
9.533338821928925
 21
15.68395079278665
 31
0.0
  0
LINE
  5
763
330
1F
100
AcDbEntity
  8
Object
100
AcDbLine
 10
9.533338821928925
 20
15.68395079278665
 30
0.0
 11
9.529338821928925
 21
15.68995079278665
 31
0.0
  0
LINE
  5
764
330
1F
100
AcDbEntity
  8
Object
100
AcDbLine
 10
9.537338821928926
 20
15.66495079278665
 30
0.0
 11
9.540338821928925
 21
15.63595079278665
 31
0.0
  0
LINE
  5
765
330
1F
100
AcDbEntity
  8
Object
100
AcDbLine
 10
9.540338821928925
 20
15.63595079278665
 30
0.0
 11
9.543338821928925
 21
15.59595079278665
 31
0.0
  0
LINE
  5
766
330
1F
100
AcDbEntity
  8
Object
100
AcDbLine
 10
9.543338821928925
 20
15.59595079278665
 30
0.0
 11
9.545338821928925
 21
15.54895079278665
 31
0.0
  0
LINE
  5
767
330
1F
100
AcDbEntity
  8
Object
100
AcDbLine
 10
9.545338821928925
 20
15.54895079278665
 30
0.0
 11
9.546338821928925
 21
15.49595079278665
 31
0.0
  0
LINE
  5
768
330
1F
100
AcDbEntity
  8
Object
100
AcDbLine
 10
9.546338821928925
 20
15.49595079278665
 30
0.0
 11
9.547338821928926
 21
15.43995079278665
 31
0.0
  0
LINE
  5
769
330
1F
100
AcDbEntity
  8
Object
100
AcDbLine
 10
9.492338821928925
 20
15.41295079278665
 30
0.0
 11
9.492338821928925
 21
15.37995079278665
 31
0.0
  0
LINE
  5
76A
330
1F
100
AcDbEntity
  8
Object
100
AcDbLine
 10
9.492338821928925
 20
15.37995079278665
 30
0.0
 11
9.492338821928925
 21
14.35995079278665
 31
0.0
  0
LINE
  5
76B
330
1F
100
AcDbEntity
  8
Object
100
AcDbLine
 10
9.547338821928926
 20
13.72795079278665
 30
0.0
 11
9.547338821928926
 21
15.43995079278665
 31
0.0
  0
LINE
  5
76C
330
1F
100
AcDbEntity
  8
Object
100
AcDbLine
 10
9.492338821928925
 20
14.35995079278665
 30
0.0
 11
9.492338821928925
 21
14.32695079278665
 31
0.0
  0
LINE
  5
76D
330
1F
100
AcDbEntity
  8
Object
100
AcDbLine
 10
9.491338821928925
 20
15.44195079278665
 30
0.0
 11
9.492338821928925
 21
15.41295079278665
 31
0.0
  0
LINE
  5
76E
330
1F
100
AcDbEntity
  8
Object
100
AcDbLine
 10
9.492338821928925
 20
14.32695079278665
 30
0.0
 11
9.491338821928925
 21
14.29795079278665
 31
0.0
  0
LINE
  5
76F
330
1F
100
AcDbEntity
  8
Object
100
AcDbLine
 10
9.489338821928926
 20
15.46595079278665
 30
0.0
 11
9.491338821928925
 21
15.44195079278665
 31
0.0
  0
LINE
  5
770
330
1F
100
AcDbEntity
  8
Object
100
AcDbLine
 10
9.491338821928925
 20
14.29795079278665
 30
0.0
 11
9.489338821928926
 21
14.27395079278665
 31
0.0
  0
LINE
  5
771
330
1F
100
AcDbEntity
  8
Object
100
AcDbLine
 10
9.487338821928926
 20
15.48095079278665
 30
0.0
 11
9.489338821928926
 21
15.46595079278665
 31
0.0
  0
LINE
  5
772
330
1F
100
AcDbEntity
  8
Object
100
AcDbLine
 10
9.489338821928926
 20
14.27395079278665
 30
0.0
 11
9.487338821928926
 21
14.25895079278665
 31
0.0
  0
LINE
  5
773
330
1F
100
AcDbEntity
  8
Object
100
AcDbLine
 10
9.485338821928925
 20
15.48595079278665
 30
0.0
 11
9.487338821928926
 21
15.48095079278665
 31
0.0
  0
LINE
  5
774
330
1F
100
AcDbEntity
  8
Object
100
AcDbLine
 10
9.487338821928926
 20
14.25895079278665
 30
0.0
 11
9.485338821928925
 21
14.25395079278665
 31
0.0
  0
LINE
  5
775
330
1F
100
AcDbEntity
  8
Object
100
AcDbLine
 10
9.393338821928926
 20
15.48595079278665
 30
0.0
 11
9.485338821928925
 21
15.48595079278665
 31
0.0
  0
LINE
  5
776
330
1F
100
AcDbEntity
  8
Object
100
AcDbLine
 10
9.529338821928925
 20
15.68995079278665
 30
0.0
 11
9.351338821928926
 21
15.68995079278665
 31
0.0
  0
LINE
  5
777
330
1F
100
AcDbEntity
  8
Object
100
AcDbLine
 10
9.393338821928926
 20
15.48595079278665
 30
0.0
 11
9.390338821928926
 21
15.48095079278665
 31
0.0
  0
LINE
  5
778
330
1F
100
AcDbEntity
  8
Object
100
AcDbLine
 10
9.390338821928926
 20
15.48095079278665
 30
0.0
 11
9.388338821928925
 21
15.46595079278665
 31
0.0
  0
LINE
  5
779
330
1F
100
AcDbEntity
  8
Object
100
AcDbLine
 10
9.388338821928925
 20
15.46595079278665
 30
0.0
 11
9.387338821928926
 21
15.44195079278665
 31
0.0
  0
LINE
  5
77A
330
1F
100
AcDbEntity
  8
Object
100
AcDbLine
 10
9.387338821928926
 20
15.44195079278665
 30
0.0
 11
9.386338821928925
 21
15.41295079278665
 31
0.0
  0
LINE
  5
77B
330
1F
100
AcDbEntity
  8
Object
100
AcDbLine
 10
9.386338821928925
 20
15.41295079278665
 30
0.0
 11
9.385338821928925
 21
15.37995079278665
 31
0.0
  0
LINE
  5
77C
330
1F
100
AcDbEntity
  8
Object
100
AcDbLine
 10
9.343338821928925
 20
15.66495079278665
 30
0.0
 11
9.347338821928925
 21
15.68395079278665
 31
0.0
  0
LINE
  5
77D
330
1F
100
AcDbEntity
  8
Object
100
AcDbLine
 10
9.347338821928925
 20
15.68395079278665
 30
0.0
 11
9.351338821928926
 21
15.68995079278665
 31
0.0
  0
LINE
  5
77E
330
1F
100
AcDbEntity
  8
Object
100
AcDbLine
 10
9.343338821928925
 20
15.66495079278665
 30
0.0
 11
9.340338821928925
 21
15.63595079278665
 31
0.0
  0
LINE
  5
77F
330
1F
100
AcDbEntity
  8
Object
100
AcDbLine
 10
9.340338821928925
 20
15.63595079278665
 30
0.0
 11
9.337338821928925
 21
15.59595079278665
 31
0.0
  0
LINE
  5
780
330
1F
100
AcDbEntity
  8
Object
100
AcDbLine
 10
9.337338821928925
 20
15.59595079278665
 30
0.0
 11
9.335338821928926
 21
15.54895079278665
 31
0.0
  0
LINE
  5
781
330
1F
100
AcDbEntity
  8
Object
100
AcDbLine
 10
9.335338821928926
 20
15.54895079278665
 30
0.0
 11
9.334338821928925
 21
15.49595079278665
 31
0.0
  0
LINE
  5
782
330
1F
100
AcDbEntity
  8
Object
100
AcDbLine
 10
9.334338821928925
 20
15.49595079278665
 30
0.0
 11
9.333338821928926
 21
15.43995079278665
 31
0.0
  0
LINE
  5
783
330
1F
100
AcDbEntity
  8
Object
100
AcDbLine
 10
9.385338821928925
 20
15.37995079278665
 30
0.0
 11
9.385338821928925
 21
14.35995079278665
 31
0.0
  0
LINE
  5
784
330
1F
100
AcDbEntity
  8
Object
100
AcDbLine
 10
9.385338821928925
 20
14.35995079278665
 30
0.0
 11
9.386338821928925
 21
14.32695079278665
 31
0.0
  0
LINE
  5
785
330
1F
100
AcDbEntity
  8
Object
100
AcDbLine
 10
9.386338821928925
 20
14.32695079278665
 30
0.0
 11
9.387338821928926
 21
14.29795079278665
 31
0.0
  0
LINE
  5
786
330
1F
100
AcDbEntity
  8
Object
100
AcDbLine
 10
9.387338821928926
 20
14.29795079278665
 30
0.0
 11
9.388338821928925
 21
14.27395079278665
 31
0.0
  0
LINE
  5
787
330
1F
100
AcDbEntity
  8
Object
100
AcDbLine
 10
9.388338821928925
 20
14.27395079278665
 30
0.0
 11
9.390338821928926
 21
14.25895079278665
 31
0.0
  0
LINE
  5
788
330
1F
100
AcDbEntity
  8
Object
100
AcDbLine
 10
9.390338821928926
 20
14.25895079278665
 30
0.0
 11
9.393338821928926
 21
14.25395079278665
 31
0.0
  0
LINE
  5
789
330
1F
100
AcDbEntity
  8
Object
100
AcDbLine
 10
9.393338821928926
 20
14.25395079278665
 30
0.0
 11
9.485338821928925
 21
14.25395079278665
 31
0.0
  0
LINE
  5
78A
330
1F
100
AcDbEntity
  8
Object
100
AcDbLine
 10
3.202338821928925
 20
13.72795079278665
 30
0.0
 11
3.262338821928924
 21
13.72795079278665
 31
0.0
  0
LINE
  5
78B
330
1F
100
AcDbEntity
  8
Object
100
AcDbLine
 10
3.262338821928924
 20
13.72795079278665
 30
0.0
 11
3.259338821928924
 21
13.70495079278665
 31
0.0
  0
LINE
  5
78C
330
1F
100
AcDbEntity
  8
Object
100
AcDbLine
 10
3.259338821928924
 20
13.70495079278665
 30
0.0
 11
3.250338821928927
 21
13.68295079278665
 31
0.0
  0
LINE
  5
78D
330
1F
100
AcDbEntity
  8
Object
100
AcDbLine
 10
3.250338821928927
 20
13.68295079278665
 30
0.0
 11
3.236338821928924
 21
13.66395079278665
 31
0.0
  0
LINE
  5
78E
330
1F
100
AcDbEntity
  8
Object
100
AcDbLine
 10
3.324338821928925
 20
15.48595079278665
 30
0.0
 11
3.416338821928924
 21
15.48595079278665
 31
0.0
  0
LINE
  5
78F
330
1F
100
AcDbEntity
  8
Object
100
AcDbLine
 10
3.458338821928926
 20
15.68995079278665
 30
0.0
 11
3.279338821928924
 21
15.68995079278665
 31
0.0
  0
LINE
  5
790
330
1F
100
AcDbEntity
  8
Object
100
AcDbLine
 10
3.324338821928925
 20
15.48595079278665
 30
0.0
 11
3.322338821928926
 21
15.48095079278665
 31
0.0
  0
LINE
  5
791
330
1F
100
AcDbEntity
  8
Object
100
AcDbLine
 10
3.322338821928926
 20
15.48095079278665
 30
0.0
 11
3.320338821928924
 21
15.46595079278665
 31
0.0
  0
LINE
  5
792
330
1F
100
AcDbEntity
  8
Object
100
AcDbLine
 10
3.320338821928924
 20
15.46595079278665
 30
0.0
 11
3.318338821928925
 21
15.44195079278665
 31
0.0
  0
LINE
  5
793
330
1F
100
AcDbEntity
  8
Object
100
AcDbLine
 10
3.318338821928925
 20
15.44195079278665
 30
0.0
 11
3.317338821928924
 21
15.41295079278665
 31
0.0
  0
LINE
  5
794
330
1F
100
AcDbEntity
  8
Object
100
AcDbLine
 10
3.317338821928924
 20
15.41295079278665
 30
0.0
 11
3.317338821928924
 21
15.37995079278665
 31
0.0
  0
LINE
  5
795
330
1F
100
AcDbEntity
  8
Object
100
AcDbLine
 10
3.317338821928924
 20
15.37995079278665
 30
0.0
 11
3.317338821928924
 21
14.35995079278665
 31
0.0
  0
LINE
  5
796
330
1F
100
AcDbEntity
  8
Object
100
AcDbLine
 10
3.317338821928924
 20
14.35995079278665
 30
0.0
 11
3.317338821928924
 21
14.32695079278665
 31
0.0
  0
LINE
  5
797
330
1F
100
AcDbEntity
  8
Object
100
AcDbLine
 10
3.317338821928924
 20
14.32695079278665
 30
0.0
 11
3.318338821928925
 21
14.29795079278665
 31
0.0
  0
LINE
  5
798
330
1F
100
AcDbEntity
  8
Object
100
AcDbLine
 10
3.318338821928925
 20
14.29795079278665
 30
0.0
 11
3.320338821928924
 21
14.27395079278665
 31
0.0
  0
LINE
  5
799
330
1F
100
AcDbEntity
  8
Object
100
AcDbLine
 10
3.320338821928924
 20
14.27395079278665
 30
0.0
 11
3.322338821928926
 21
14.25895079278665
 31
0.0
  0
LINE
  5
79A
330
1F
100
AcDbEntity
  8
Object
100
AcDbLine
 10
3.322338821928926
 20
14.25895079278665
 30
0.0
 11
3.324338821928925
 21
14.25395079278665
 31
0.0
  0
LINE
  5
79B
330
1F
100
AcDbEntity
  8
Object
100
AcDbLine
 10
3.219338821928925
 20
15.68995079278665
 30
0.0
 11
3.216338821928925
 21
15.68395079278665
 31
0.0
  0
LINE
  5
79C
330
1F
100
AcDbEntity
  8
Object
100
AcDbLine
 10
3.216338821928925
 20
15.68395079278665
 30
0.0
 11
3.212338821928923
 21
15.66495079278665
 31
0.0
  0
LINE
  5
79D
330
1F
100
AcDbEntity
  8
Object
100
AcDbLine
 10
3.212338821928923
 20
15.66495079278665
 30
0.0
 11
3.209338821928923
 21
15.63595079278665
 31
0.0
  0
LINE
  5
79E
330
1F
100
AcDbEntity
  8
Object
100
AcDbLine
 10
3.209338821928923
 20
15.63595079278665
 30
0.0
 11
3.206338821928927
 21
15.59595079278665
 31
0.0
  0
LINE
  5
79F
330
1F
100
AcDbEntity
  8
Object
100
AcDbLine
 10
3.206338821928927
 20
15.59595079278665
 30
0.0
 11
3.204338821928924
 21
15.54895079278665
 31
0.0
  0
LINE
  5
7A0
330
1F
100
AcDbEntity
  8
Object
100
AcDbLine
 10
3.204338821928924
 20
15.54895079278665
 30
0.0
 11
3.202338821928925
 21
15.49595079278665
 31
0.0
  0
LINE
  5
7A1
330
1F
100
AcDbEntity
  8
Object
100
AcDbLine
 10
3.202338821928925
 20
15.49595079278665
 30
0.0
 11
3.202338821928925
 21
15.43995079278665
 31
0.0
  0
LINE
  5
7A2
330
1F
100
AcDbEntity
  8
Object
100
AcDbLine
 10
3.202338821928925
 20
15.43995079278665
 30
0.0
 11
3.202338821928925
 21
13.72795079278665
 31
0.0
  0
LINE
  5
7A3
330
1F
100
AcDbEntity
  8
Object
100
AcDbLine
 10
3.475338821928925
 20
15.43995079278665
 30
0.0
 11
3.475338821928925
 21
15.49595079278665
 31
0.0
  0
LINE
  5
7A4
330
1F
100
AcDbEntity
  8
Object
100
AcDbLine
 10
3.475338821928925
 20
15.49595079278665
 30
0.0
 11
3.474338821928924
 21
15.54895079278665
 31
0.0
  0
LINE
  5
7A5
330
1F
100
AcDbEntity
  8
Object
100
AcDbLine
 10
3.474338821928924
 20
15.54895079278665
 30
0.0
 11
3.472338821928925
 21
15.59595079278665
 31
0.0
  0
LINE
  5
7A6
330
1F
100
AcDbEntity
  8
Object
100
AcDbLine
 10
3.472338821928925
 20
15.59595079278665
 30
0.0
 11
3.469338821928925
 21
15.63595079278665
 31
0.0
  0
LINE
  5
7A7
330
1F
100
AcDbEntity
  8
Object
100
AcDbLine
 10
3.469338821928925
 20
15.63595079278665
 30
0.0
 11
3.466338821928925
 21
15.66495079278665
 31
0.0
  0
LINE
  5
7A8
330
1F
100
AcDbEntity
  8
Object
100
AcDbLine
 10
3.466338821928925
 20
15.66495079278665
 30
0.0
 11
3.462338821928923
 21
15.68395079278665
 31
0.0
  0
LINE
  5
7A9
330
1F
100
AcDbEntity
  8
Object
100
AcDbLine
 10
3.462338821928923
 20
15.68395079278665
 30
0.0
 11
3.458338821928926
 21
15.68995079278665
 31
0.0
  0
LINE
  5
7AA
330
1F
100
AcDbEntity
  8
Object
100
AcDbLine
 10
9.607338821928925
 20
13.72795079278665
 30
0.0
 11
9.607338821928925
 21
15.43995079278665
 31
0.0
  0
LINE
  5
7AB
330
1F
100
AcDbEntity
  8
Object
100
AcDbLine
 10
9.605338821928926
 20
15.54895079278665
 30
0.0
 11
9.606338821928925
 21
15.49595079278665
 31
0.0
  0
LINE
  5
7AC
330
1F
100
AcDbEntity
  8
Object
100
AcDbLine
 10
9.606338821928925
 20
15.49595079278665
 30
0.0
 11
9.607338821928925
 21
15.43995079278665
 31
0.0
  0
LINE
  5
7AD
330
1F
100
AcDbEntity
  8
Object
100
AcDbLine
 10
9.607338821928925
 20
15.43995079278665
 30
0.0
 11
9.547338821928926
 21
15.43995079278665
 31
0.0
  0
LINE
  5
7AE
330
1F
100
AcDbEntity
  8
Object
100
AcDbLine
 10
9.605338821928926
 20
15.54895079278665
 30
0.0
 11
9.603338821928925
 21
15.59595079278665
 31
0.0
  0
LINE
  5
7AF
330
1F
100
AcDbEntity
  8
Object
100
AcDbLine
 10
9.603338821928925
 20
15.59595079278665
 30
0.0
 11
9.600338821928925
 21
15.63595079278665
 31
0.0
  0
LINE
  5
7B0
330
1F
100
AcDbEntity
  8
Object
100
AcDbLine
 10
9.600338821928925
 20
15.63595079278665
 30
0.0
 11
9.597338821928925
 21
15.66495079278665
 31
0.0
  0
LINE
  5
7B1
330
1F
100
AcDbEntity
  8
Object
100
AcDbLine
 10
9.597338821928925
 20
15.66495079278665
 30
0.0
 11
9.593338821928925
 21
15.68395079278665
 31
0.0
  0
LINE
  5
7B2
330
1F
100
AcDbEntity
  8
Object
100
AcDbLine
 10
9.593338821928925
 20
15.68395079278665
 30
0.0
 11
9.589338821928926
 21
15.68995079278665
 31
0.0
  0
LINE
  5
7B3
330
1F
100
AcDbEntity
  8
Object
100
AcDbLine
 10
9.589338821928926
 20
15.68995079278665
 30
0.0
 11
9.529338821928925
 21
15.68995079278665
 31
0.0
  0
LINE
  5
7B4
102
{ACAD_REACTORS
330
847
102
}
330
1F
100
AcDbEntity
  8
Object
100
AcDbLine
 10
9.529338821928925
 20
15.68995079278665
 30
0.0
 11
9.589338821928926
 21
15.68995079278665
 31
0.0
  0
LINE
  5
7B5
330
1F
100
AcDbEntity
  8
Object
100
AcDbLine
 10
9.529338821928925
 20
15.68995079278665
 30
0.0
 11
9.351338821928926
 21
15.68995079278665
 31
0.0
  0
LINE
  5
7B6
330
1F
100
AcDbEntity
  8
Object
100
AcDbLine
 10
9.492338821928925
 20
15.40495079278665
 30
0.0
 11
9.435338821928926
 21
15.40495079278665
 31
0.0
  0
LINE
  5
7B7
330
1F
100
AcDbEntity
  8
Object
100
AcDbLine
 10
9.435338821928926
 20
15.40495079278665
 30
0.0
 11
9.412338821928926
 21
15.42695079278665
 31
0.0
  0
LINE
  5
7B8
330
1F
100
AcDbEntity
  8
Object
100
AcDbLine
 10
9.412338821928926
 20
15.42695079278665
 30
0.0
 11
9.398338821928925
 21
15.45495079278665
 31
0.0
  0
LINE
  5
7B9
330
1F
100
AcDbEntity
  8
Object
100
AcDbLine
 10
9.489338821928926
 20
15.45495079278665
 30
0.0
 11
9.485338821928925
 21
15.48595079278665
 31
0.0
  0
LINE
  5
7BA
330
1F
100
AcDbEntity
  8
Object
100
AcDbLine
 10
9.393338821928926
 20
15.48595079278665
 30
0.0
 11
9.398338821928925
 21
15.45495079278665
 31
0.0
  0
LINE
  5
7BB
330
1F
100
AcDbEntity
  8
Object
100
AcDbLine
 10
9.435338821928926
 20
14.33595079278665
 30
0.0
 11
9.434338821928925
 21
14.33895079278665
 31
0.0
  0
LINE
  5
7BC
330
1F
100
AcDbEntity
  8
Object
100
AcDbLine
 10
9.434338821928925
 20
14.33895079278665
 30
0.0
 11
9.433338821928925
 21
14.34795079278665
 31
0.0
  0
LINE
  5
7BD
330
1F
100
AcDbEntity
  8
Object
100
AcDbLine
 10
9.433338821928925
 20
14.34795079278665
 30
0.0
 11
9.433338821928925
 21
14.35995079278665
 31
0.0
  0
LINE
  5
7BE
330
1F
100
AcDbEntity
  8
Object
100
AcDbLine
 10
9.412338821928926
 20
14.31295079278665
 30
0.0
 11
9.435338821928926
 21
14.33595079278665
 31
0.0
  0
LINE
  5
7BF
330
1F
100
AcDbEntity
  8
Object
100
AcDbLine
 10
9.433338821928925
 20
14.35995079278665
 30
0.0
 11
9.409338821928926
 21
14.35995079278665
 31
0.0
  0
LINE
  5
7C0
330
1F
100
AcDbEntity
  8
Object
100
AcDbLine
 10
9.422338821928926
 20
14.32495079278665
 30
0.0
 11
9.412338821928926
 21
14.31295079278665
 31
0.0
  0
LINE
  5
7C1
330
1F
100
AcDbEntity
  8
Object
100
AcDbLine
 10
9.412338821928926
 20
14.31295079278665
 30
0.0
 11
9.400338821928926
 21
14.29195079278665
 31
0.0
  0
LINE
  5
7C2
330
1F
100
AcDbEntity
  8
Object
100
AcDbLine
 10
9.412338821928926
 20
14.31295079278665
 30
0.0
 11
9.398338821928925
 21
14.28495079278665
 31
0.0
  0
LINE
  5
7C3
330
1F
100
AcDbEntity
  8
Object
100
AcDbLine
 10
9.398338821928925
 20
14.28495079278665
 30
0.0
 11
9.393338821928926
 21
14.25395079278665
 31
0.0
  0
LINE
  5
7C4
330
1F
100
AcDbEntity
  8
Object
100
AcDbLine
 10
9.400338821928926
 20
14.29195079278665
 30
0.0
 11
9.398338821928925
 21
14.28495079278665
 31
0.0
  0
LINE
  5
7C5
330
1F
100
AcDbEntity
  8
Object
100
AcDbLine
 10
9.409338821928926
 20
14.35995079278665
 30
0.0
 11
9.392338821928925
 21
14.35995079278665
 31
0.0
  0
LINE
  5
7C6
330
1F
100
AcDbEntity
  8
Object
100
AcDbLine
 10
9.392338821928925
 20
14.35995079278665
 30
0.0
 11
9.385338821928925
 21
14.35995079278665
 31
0.0
  0
LINE
  5
7C7
330
1F
100
AcDbEntity
  8
Object
100
AcDbLine
 10
9.492338821928925
 20
14.35995079278665
 30
0.0
 11
9.492338821928925
 21
14.32695079278665
 31
0.0
  0
LINE
  5
7C8
330
1F
100
AcDbEntity
  8
Object
100
AcDbLine
 10
9.492338821928925
 20
15.37995079278665
 30
0.0
 11
9.492338821928925
 21
15.41295079278665
 31
0.0
  0
LINE
  5
7C9
330
1F
100
AcDbEntity
  8
Object
100
AcDbLine
 10
9.435338821928926
 20
15.40495079278665
 30
0.0
 11
9.434338821928925
 21
15.40095079278665
 31
0.0
  0
LINE
  5
7CA
330
1F
100
AcDbEntity
  8
Object
100
AcDbLine
 10
9.434338821928925
 20
15.40095079278665
 30
0.0
 11
9.433338821928925
 21
15.39195079278665
 31
0.0
  0
LINE
  5
7CB
330
1F
100
AcDbEntity
  8
Object
100
AcDbLine
 10
9.433338821928925
 20
15.39195079278665
 30
0.0
 11
9.433338821928925
 21
15.37995079278665
 31
0.0
  0
LINE
  5
7CC
330
1F
100
AcDbEntity
  8
Object
100
AcDbLine
 10
9.422338821928926
 20
15.41495079278665
 30
0.0
 11
9.412338821928926
 21
15.42695079278665
 31
0.0
  0
LINE
  5
7CD
330
1F
100
AcDbEntity
  8
Object
100
AcDbLine
 10
9.412338821928926
 20
15.42695079278665
 30
0.0
 11
9.400338821928926
 21
15.44795079278665
 31
0.0
  0
LINE
  5
7CE
330
1F
100
AcDbEntity
  8
Object
100
AcDbLine
 10
9.400338821928926
 20
15.44795079278665
 30
0.0
 11
9.398338821928925
 21
15.45495079278665
 31
0.0
  0
LINE
  5
7CF
330
1F
100
AcDbEntity
  8
Object
100
AcDbLine
 10
9.492338821928925
 20
14.33595079278665
 30
0.0
 11
9.435338821928926
 21
14.33595079278665
 31
0.0
  0
LINE
  5
7D0
330
1F
100
AcDbEntity
  8
Object
100
AcDbLine
 10
9.485338821928925
 20
14.25395079278665
 30
0.0
 11
9.489338821928926
 21
14.28395079278665
 31
0.0
  0
LINE
  5
7D1
330
1F
100
AcDbEntity
  8
Object
100
AcDbLine
 10
9.409338821928926
 20
15.37995079278665
 30
0.0
 11
9.433338821928925
 21
15.37995079278665
 31
0.0
  0
LINE
  5
7D2
330
1F
100
AcDbEntity
  8
Object
100
AcDbLine
 10
9.433338821928925
 20
15.37995079278665
 30
0.0
 11
9.433338821928925
 21
14.35995079278665
 31
0.0
  0
LINE
  5
7D3
330
1F
100
AcDbEntity
  8
Object
100
AcDbLine
 10
9.409338821928926
 20
15.37995079278665
 30
0.0
 11
9.392338821928925
 21
15.37995079278665
 31
0.0
  0
LINE
  5
7D4
330
1F
100
AcDbEntity
  8
Object
100
AcDbLine
 10
9.392338821928925
 20
15.37995079278665
 30
0.0
 11
9.385338821928925
 21
15.37995079278665
 31
0.0
  0
LINE
  5
7D5
330
1F
100
AcDbEntity
  8
Object
100
AcDbLine
 10
9.492338821928925
 20
14.35995079278665
 30
0.0
 11
9.492338821928925
 21
15.37995079278665
 31
0.0
  0
LINE
  5
7D6
330
1F
100
AcDbEntity
  8
Object
100
AcDbLine
 10
3.202338821928925
 20
15.43995079278665
 30
0.0
 11
3.262338821928924
 21
15.43995079278665
 31
0.0
  0
LINE
  5
7D7
330
1F
100
AcDbEntity
  8
Object
100
AcDbLine
 10
3.262338821928924
 20
15.43995079278665
 30
0.0
 11
3.262338821928924
 21
13.72795079278665
 31
0.0
  0
LINE
  5
7D8
330
1F
100
AcDbEntity
  8
Object
100
AcDbLine
 10
3.219338821928925
 20
15.68995079278665
 30
0.0
 11
3.279338821928924
 21
15.68995079278665
 31
0.0
  0
LINE
  5
7D9
330
1F
100
AcDbEntity
  8
Object
100
AcDbLine
 10
3.279338821928924
 20
15.68995079278665
 30
0.0
 11
3.275338821928926
 21
15.68395079278665
 31
0.0
  0
LINE
  5
7DA
330
1F
100
AcDbEntity
  8
Object
100
AcDbLine
 10
3.275338821928926
 20
15.68395079278665
 30
0.0
 11
3.272338821928926
 21
15.66495079278665
 31
0.0
  0
LINE
  5
7DB
330
1F
100
AcDbEntity
  8
Object
100
AcDbLine
 10
3.272338821928926
 20
15.66495079278665
 30
0.0
 11
3.268338821928924
 21
15.63595079278665
 31
0.0
  0
LINE
  5
7DC
330
1F
100
AcDbEntity
  8
Object
100
AcDbLine
 10
3.268338821928924
 20
15.63595079278665
 30
0.0
 11
3.266338821928925
 21
15.59595079278665
 31
0.0
  0
LINE
  5
7DD
330
1F
100
AcDbEntity
  8
Object
100
AcDbLine
 10
3.266338821928925
 20
15.59595079278665
 30
0.0
 11
3.264338821928927
 21
15.54895079278665
 31
0.0
  0
LINE
  5
7DE
330
1F
100
AcDbEntity
  8
Object
100
AcDbLine
 10
3.264338821928927
 20
15.54895079278665
 30
0.0
 11
3.262338821928924
 21
15.49595079278665
 31
0.0
  0
LINE
  5
7DF
330
1F
100
AcDbEntity
  8
Object
100
AcDbLine
 10
3.262338821928924
 20
15.49595079278665
 30
0.0
 11
3.262338821928924
 21
15.43995079278665
 31
0.0
  0
LINE
  5
7E0
330
1F
100
AcDbEntity
  8
Object
100
AcDbLine
 10
3.458338821928926
 20
15.68995079278665
 30
0.0
 11
3.279338821928924
 21
15.68995079278665
 31
0.0
  0
LINE
  5
7E1
330
1F
100
AcDbEntity
  8
Object
100
AcDbLine
 10
3.279338821928924
 20
15.68995079278665
 30
0.0
 11
3.219338821928925
 21
15.68995079278665
 31
0.0
  0
LINE
  5
7E2
330
1F
100
AcDbEntity
  8
Object
100
AcDbLine
 10
3.411338821928925
 20
14.28495079278665
 30
0.0
 11
3.416338821928924
 21
14.25395079278665
 31
0.0
  0
LINE
  5
7E3
330
1F
100
AcDbEntity
  8
Object
100
AcDbLine
 10
3.416338821928924
 20
14.25395079278665
 30
0.0
 11
3.324338821928925
 21
14.25395079278665
 31
0.0
  0
LINE
  5
7E4
330
1F
100
AcDbEntity
  8
Object
100
AcDbLine
 10
3.324338821928925
 20
14.25395079278665
 30
0.0
 11
3.319338821928926
 21
14.28395079278665
 31
0.0
  0
LINE
  5
7E5
330
1F
100
AcDbEntity
  8
Object
100
AcDbLine
 10
3.411338821928925
 20
14.28495079278665
 30
0.0
 11
3.396338821928925
 21
14.31295079278665
 31
0.0
  0
LINE
  5
7E6
330
1F
100
AcDbEntity
  8
Object
100
AcDbLine
 10
3.396338821928925
 20
14.31295079278665
 30
0.0
 11
3.374338821928926
 21
14.33595079278665
 31
0.0
  0
LINE
  5
7E7
330
1F
100
AcDbEntity
  8
Object
100
AcDbLine
 10
3.423338821928926
 20
15.37995079278665
 30
0.0
 11
3.423338821928926
 21
15.41295079278665
 31
0.0
  0
LINE
  5
7E8
330
1F
100
AcDbEntity
  8
Object
100
AcDbLine
 10
3.423338821928926
 20
15.41295079278665
 30
0.0
 11
3.422338821928924
 21
15.44195079278665
 31
0.0
  0
LINE
  5
7E9
330
1F
100
AcDbEntity
  8
Object
100
AcDbLine
 10
3.416338821928924
 20
15.37995079278665
 30
0.0
 11
3.423338821928926
 21
15.37995079278665
 31
0.0
  0
LINE
  5
7EA
330
1F
100
AcDbEntity
  8
Object
100
AcDbLine
 10
3.422338821928924
 20
15.44195079278665
 30
0.0
 11
3.420338821928925
 21
15.46595079278665
 31
0.0
  0
LINE
  5
7EB
330
1F
100
AcDbEntity
  8
Object
100
AcDbLine
 10
3.420338821928925
 20
15.46595079278665
 30
0.0
 11
3.418338821928927
 21
15.48095079278665
 31
0.0
  0
LINE
  5
7EC
330
1F
100
AcDbEntity
  8
Object
100
AcDbLine
 10
3.418338821928927
 20
15.48095079278665
 30
0.0
 11
3.416338821928924
 21
15.48595079278665
 31
0.0
  0
LINE
  5
7ED
330
1F
100
AcDbEntity
  8
Object
100
AcDbLine
 10
3.411338821928925
 20
15.45495079278665
 30
0.0
 11
3.409338821928926
 21
15.44795079278665
 31
0.0
  0
LINE
  5
7EE
330
1F
100
AcDbEntity
  8
Object
100
AcDbLine
 10
3.409338821928926
 20
15.44795079278665
 30
0.0
 11
3.396338821928925
 21
15.42695079278665
 31
0.0
  0
LINE
  5
7EF
330
1F
100
AcDbEntity
  8
Object
100
AcDbLine
 10
3.396338821928925
 20
15.42695079278665
 30
0.0
 11
3.387338821928924
 21
15.41495079278665
 31
0.0
  0
LINE
  5
7F0
330
1F
100
AcDbEntity
  8
Object
100
AcDbLine
 10
3.319338821928926
 20
15.45495079278665
 30
0.0
 11
3.324338821928925
 21
15.48595079278665
 31
0.0
  0
LINE
  5
7F1
330
1F
100
AcDbEntity
  8
Object
100
AcDbLine
 10
3.317338821928924
 20
15.37995079278665
 30
0.0
 11
3.317338821928924
 21
15.41295079278665
 31
0.0
  0
LINE
  5
7F2
330
1F
100
AcDbEntity
  8
Object
100
AcDbLine
 10
3.317338821928924
 20
14.35995079278665
 30
0.0
 11
3.317338821928924
 21
14.32695079278665
 31
0.0
  0
LINE
  5
7F3
330
1F
100
AcDbEntity
  8
Object
100
AcDbLine
 10
3.423338821928926
 20
14.35995079278665
 30
0.0
 11
3.416338821928924
 21
14.35995079278665
 31
0.0
  0
LINE
  5
7F4
330
1F
100
AcDbEntity
  8
Object
100
AcDbLine
 10
3.422338821928924
 20
14.29795079278665
 30
0.0
 11
3.423338821928926
 21
14.32695079278665
 31
0.0
  0
LINE
  5
7F5
330
1F
100
AcDbEntity
  8
Object
100
AcDbLine
 10
3.423338821928926
 20
14.32695079278665
 30
0.0
 11
3.423338821928926
 21
14.35995079278665
 31
0.0
  0
LINE
  5
7F6
330
1F
100
AcDbEntity
  8
Object
100
AcDbLine
 10
3.422338821928924
 20
14.29795079278665
 30
0.0
 11
3.420338821928925
 21
14.27395079278665
 31
0.0
  0
LINE
  5
7F7
330
1F
100
AcDbEntity
  8
Object
100
AcDbLine
 10
3.420338821928925
 20
14.27395079278665
 30
0.0
 11
3.418338821928927
 21
14.25895079278665
 31
0.0
  0
LINE
  5
7F8
330
1F
100
AcDbEntity
  8
Object
100
AcDbLine
 10
3.418338821928927
 20
14.25895079278665
 30
0.0
 11
3.416338821928924
 21
14.25395079278665
 31
0.0
  0
LINE
  5
7F9
330
1F
100
AcDbEntity
  8
Object
100
AcDbLine
 10
3.416338821928924
 20
14.35995079278665
 30
0.0
 11
3.400338821928926
 21
14.35995079278665
 31
0.0
  0
LINE
  5
7FA
330
1F
100
AcDbEntity
  8
Object
100
AcDbLine
 10
3.411338821928925
 20
14.28495079278665
 30
0.0
 11
3.409338821928926
 21
14.29195079278665
 31
0.0
  0
LINE
  5
7FB
330
1F
100
AcDbEntity
  8
Object
100
AcDbLine
 10
3.409338821928926
 20
14.29195079278665
 30
0.0
 11
3.396338821928925
 21
14.31295079278665
 31
0.0
  0
LINE
  5
7FC
330
1F
100
AcDbEntity
  8
Object
100
AcDbLine
 10
3.400338821928926
 20
14.35995079278665
 30
0.0
 11
3.376338821928925
 21
14.35995079278665
 31
0.0
  0
LINE
  5
7FD
330
1F
100
AcDbEntity
  8
Object
100
AcDbLine
 10
3.396338821928925
 20
14.31295079278665
 30
0.0
 11
3.387338821928924
 21
14.32495079278665
 31
0.0
  0
LINE
  5
7FE
330
1F
100
AcDbEntity
  8
Object
100
AcDbLine
 10
3.416338821928924
 20
15.48595079278665
 30
0.0
 11
3.411338821928925
 21
15.45495079278665
 31
0.0
  0
LINE
  5
7FF
330
1F
100
AcDbEntity
  8
Object
100
AcDbLine
 10
3.411338821928925
 20
15.45495079278665
 30
0.0
 11
3.396338821928925
 21
15.42695079278665
 31
0.0
  0
LINE
  5
800
330
1F
100
AcDbEntity
  8
Object
100
AcDbLine
 10
3.396338821928925
 20
15.42695079278665
 30
0.0
 11
3.374338821928926
 21
15.40495079278665
 31
0.0
  0
LINE
  5
801
330
1F
100
AcDbEntity
  8
Object
100
AcDbLine
 10
3.374338821928926
 20
15.40495079278665
 30
0.0
 11
3.317338821928924
 21
15.40495079278665
 31
0.0
  0
LINE
  5
802
330
1F
100
AcDbEntity
  8
Object
100
AcDbLine
 10
3.423338821928926
 20
14.35995079278665
 30
0.0
 11
3.423338821928926
 21
15.37995079278665
 31
0.0
  0
LINE
  5
803
330
1F
100
AcDbEntity
  8
Object
100
AcDbLine
 10
3.416338821928924
 20
15.37995079278665
 30
0.0
 11
3.400338821928926
 21
15.37995079278665
 31
0.0
  0
LINE
  5
804
330
1F
100
AcDbEntity
  8
Object
100
AcDbLine
 10
3.400338821928926
 20
15.37995079278665
 30
0.0
 11
3.376338821928925
 21
15.37995079278665
 31
0.0
  0
LINE
  5
805
330
1F
100
AcDbEntity
  8
Object
100
AcDbLine
 10
3.317338821928924
 20
14.35995079278665
 30
0.0
 11
3.317338821928924
 21
15.37995079278665
 31
0.0
  0
LINE
  5
806
330
1F
100
AcDbEntity
  8
Object
100
AcDbLine
 10
9.445338821928926
 20
14.35995079278665
 30
0.0
 11
9.448338821928926
 21
14.35995079278665
 31
0.0
  0
LINE
  5
807
330
1F
100
AcDbEntity
  8
Object
100
AcDbLine
 10
9.448338821928926
 20
14.35995079278665
 30
0.0
 11
9.446338821928925
 21
14.35095079278665
 31
0.0
  0
LINE
  5
808
330
1F
100
AcDbEntity
  8
Object
100
AcDbLine
 10
9.445338821928926
 20
14.35995079278665
 30
0.0
 11
9.440338821928925
 21
14.35995079278665
 31
0.0
  0
LINE
  5
809
330
1F
100
AcDbEntity
  8
Object
100
AcDbLine
 10
9.446338821928925
 20
14.35095079278665
 30
0.0
 11
9.442338821928926
 21
14.34195079278665
 31
0.0
  0
LINE
  5
80A
330
1F
100
AcDbEntity
  8
Object
100
AcDbLine
 10
9.442338821928926
 20
14.34195079278665
 30
0.0
 11
9.435338821928926
 21
14.33595079278665
 31
0.0
  0
LINE
  5
80B
330
1F
100
AcDbEntity
  8
Object
100
AcDbLine
 10
9.440338821928925
 20
14.35995079278665
 30
0.0
 11
9.433338821928925
 21
14.35995079278665
 31
0.0
  0
LINE
  5
80C
330
1F
100
AcDbEntity
  8
Object
100
AcDbLine
 10
9.448338821928926
 20
15.37995079278665
 30
0.0
 11
9.446338821928925
 21
15.38895079278665
 31
0.0
  0
LINE
  5
80D
330
1F
100
AcDbEntity
  8
Object
100
AcDbLine
 10
9.446338821928925
 20
15.38895079278665
 30
0.0
 11
9.442338821928926
 21
15.39795079278665
 31
0.0
  0
LINE
  5
80E
330
1F
100
AcDbEntity
  8
Object
100
AcDbLine
 10
9.442338821928926
 20
15.39795079278665
 30
0.0
 11
9.435338821928926
 21
15.40495079278665
 31
0.0
  0
LINE
  5
80F
330
1F
100
AcDbEntity
  8
Object
100
AcDbLine
 10
9.492338821928925
 20
14.35995079278665
 30
0.0
 11
9.448338821928926
 21
14.35995079278665
 31
0.0
  0
LINE
  5
810
330
1F
100
AcDbEntity
  8
Object
100
AcDbLine
 10
9.445338821928926
 20
15.37995079278665
 30
0.0
 11
9.448338821928926
 21
15.37995079278665
 31
0.0
  0
LINE
  5
811
330
1F
100
AcDbEntity
  8
Object
100
AcDbLine
 10
9.448338821928926
 20
15.37995079278665
 30
0.0
 11
9.448338821928926
 21
14.35995079278665
 31
0.0
  0
LINE
  5
812
330
1F
100
AcDbEntity
  8
Object
100
AcDbLine
 10
9.445338821928926
 20
15.37995079278665
 30
0.0
 11
9.440338821928925
 21
15.37995079278665
 31
0.0
  0
LINE
  5
813
330
1F
100
AcDbEntity
  8
Object
100
AcDbLine
 10
9.440338821928925
 20
15.37995079278665
 30
0.0
 11
9.433338821928925
 21
15.37995079278665
 31
0.0
  0
LINE
  5
814
330
1F
100
AcDbEntity
  8
Object
100
AcDbLine
 10
3.367338821928925
 20
14.34195079278665
 30
0.0
 11
3.374338821928926
 21
14.33595079278665
 31
0.0
  0
LINE
  5
815
330
1F
100
AcDbEntity
  8
Object
100
AcDbLine
 10
3.374338821928926
 20
14.33595079278665
 30
0.0
 11
3.317338821928924
 21
14.33595079278665
 31
0.0
  0
LINE
  5
816
330
1F
100
AcDbEntity
  8
Object
100
AcDbLine
 10
3.367338821928925
 20
14.34195079278665
 30
0.0
 11
3.363338821928927
 21
14.35095079278665
 31
0.0
  0
LINE
  5
817
330
1F
100
AcDbEntity
  8
Object
100
AcDbLine
 10
3.317338821928924
 20
14.35995079278665
 30
0.0
 11
3.361338821928924
 21
14.35995079278665
 31
0.0
  0
LINE
  5
818
330
1F
100
AcDbEntity
  8
Object
100
AcDbLine
 10
3.361338821928924
 20
14.35995079278665
 30
0.0
 11
3.363338821928927
 21
14.35095079278665
 31
0.0
  0
LINE
  5
819
330
1F
100
AcDbEntity
  8
Object
100
AcDbLine
 10
3.375338821928927
 20
15.40095079278665
 30
0.0
 11
3.375338821928927
 21
15.39195079278665
 31
0.0
  0
LINE
  5
81A
330
1F
100
AcDbEntity
  8
Object
100
AcDbLine
 10
3.375338821928927
 20
15.39195079278665
 30
0.0
 11
3.376338821928925
 21
15.37995079278665
 31
0.0
  0
LINE
  5
81B
330
1F
100
AcDbEntity
  8
Object
100
AcDbLine
 10
3.375338821928927
 20
15.40095079278665
 30
0.0
 11
3.374338821928926
 21
15.40495079278665
 31
0.0
  0
LINE
  5
81C
330
1F
100
AcDbEntity
  8
Object
100
AcDbLine
 10
3.375338821928927
 20
14.33895079278665
 30
0.0
 11
3.375338821928927
 21
14.34795079278665
 31
0.0
  0
LINE
  5
81D
330
1F
100
AcDbEntity
  8
Object
100
AcDbLine
 10
3.368338821928926
 20
14.35995079278665
 30
0.0
 11
3.376338821928925
 21
14.35995079278665
 31
0.0
  0
LINE
  5
81E
330
1F
100
AcDbEntity
  8
Object
100
AcDbLine
 10
3.376338821928925
 20
14.35995079278665
 30
0.0
 11
3.375338821928927
 21
14.34795079278665
 31
0.0
  0
LINE
  5
81F
330
1F
100
AcDbEntity
  8
Object
100
AcDbLine
 10
3.374338821928926
 20
14.33595079278665
 30
0.0
 11
3.375338821928927
 21
14.33895079278665
 31
0.0
  0
LINE
  5
820
330
1F
100
AcDbEntity
  8
Object
100
AcDbLine
 10
3.368338821928926
 20
14.35995079278665
 30
0.0
 11
3.363338821928927
 21
14.35995079278665
 31
0.0
  0
LINE
  5
821
330
1F
100
AcDbEntity
  8
Object
100
AcDbLine
 10
3.363338821928927
 20
14.35995079278665
 30
0.0
 11
3.361338821928924
 21
14.35995079278665
 31
0.0
  0
LINE
  5
822
330
1F
100
AcDbEntity
  8
Object
100
AcDbLine
 10
3.374338821928926
 20
15.40495079278665
 30
0.0
 11
3.367338821928925
 21
15.39795079278665
 31
0.0
  0
LINE
  5
823
330
1F
100
AcDbEntity
  8
Object
100
AcDbLine
 10
3.367338821928925
 20
15.39795079278665
 30
0.0
 11
3.363338821928927
 21
15.38895079278665
 31
0.0
  0
LINE
  5
824
330
1F
100
AcDbEntity
  8
Object
100
AcDbLine
 10
3.363338821928927
 20
15.38895079278665
 30
0.0
 11
3.361338821928924
 21
15.37995079278665
 31
0.0
  0
LINE
  5
825
330
1F
100
AcDbEntity
  8
Object
100
AcDbLine
 10
3.368338821928926
 20
15.37995079278665
 30
0.0
 11
3.376338821928925
 21
15.37995079278665
 31
0.0
  0
LINE
  5
826
330
1F
100
AcDbEntity
  8
Object
100
AcDbLine
 10
3.376338821928925
 20
15.37995079278665
 30
0.0
 11
3.376338821928925
 21
14.35995079278665
 31
0.0
  0
LINE
  5
827
330
1F
100
AcDbEntity
  8
Object
100
AcDbLine
 10
3.368338821928926
 20
15.37995079278665
 30
0.0
 11
3.363338821928927
 21
15.37995079278665
 31
0.0
  0
LINE
  5
828
330
1F
100
AcDbEntity
  8
Object
100
AcDbLine
 10
3.363338821928927
 20
15.37995079278665
 30
0.0
 11
3.361338821928924
 21
15.37995079278665
 31
0.0
  0
LINE
  5
829
330
1F
100
AcDbEntity
  8
Object
100
AcDbLine
 10
9.492338821928925
 20
15.37995079278665
 30
0.0
 11
9.448338821928926
 21
15.37995079278665
 31
0.0
  0
LINE
  5
82A
330
1F
100
AcDbEntity
  8
Object
100
AcDbLine
 10
3.317338821928924
 20
15.37995079278665
 30
0.0
 11
3.361338821928924
 21
15.37995079278665
 31
0.0
  0
LINE
  5
82B
330
1F
100
AcDbEntity
  8
Object
100
AcDbLine
 10
3.361338821928924
 20
15.37995079278665
 30
0.0
 11
3.361338821928924
 21
14.35995079278665
 31
0.0
  0
DIMENSION
  5
82D
102
{ACAD_XDICTIONARY
360
83C
102
}
102
{ACAD_REACTORS
330
847
102
}
330
1F
100
AcDbEntity
  8
Dimension
100
AcDbDimension
  2
*D1
 10
12.05568138988793
 20
10.56095079278665
 30
0.0
 11
12.05568138988793
 21
13.12545079278665
 31
0.0
 70
    32
 71
     5
 42
5.128999999999999
  3
Standard
100
AcDbAlignedDimension
 13
9.589338821928926
 23
15.68995079278665
 33
0.0
 14
10.70433882192892
 24
10.56095079278665
 34
0.0
 50
90.0
100
AcDbRotatedDimension
1001
ACAD
1000
DSTYLE
1002
{
1070
   140
1040
0.09
1002
}
  0
DIMENSION
  5
850
102
{ACAD_XDICTIONARY
360
85E
102
}
102
{ACAD_REACTORS
330
869
102
}
330
1F
100
AcDbEntity
  8
Dimension
100
AcDbDimension
  2
*D2
 10
10.72233882192892
 20
8.745066547273239
 30
0.0
 11
6.404838821928924
 21
8.745066547273239
 31
0.0
 70
    32
  1
8.63 [219.3mm]
 71
     5
 42
8.635000000000001
  3
Standard
100
AcDbAlignedDimension
 13
2.087338821928923
 23
7.792950792786653
 33
0.0
 14
10.72233882192892
 24
7.792950792786653
 34
0.0
100
AcDbRotatedDimension
1001
ACAD
1000
DSTYLE
1002
{
1070
   140
1040
0.09
1002
}
  0
DIMENSION
  5
86D
102
{ACAD_XDICTIONARY
360
87B
102
}
102
{ACAD_REACTORS
330
886
102
}
330
1F
100
AcDbEntity
  8
Dimension
100
AcDbDimension
  2
*D3
 10
13.12346807275417
 20
7.874950792786654
 30
0.0
 11
13.12346807275417
 21
6.125950792786656
 31
0.0
 70
    32
 71
     5
 42
3.497999999999999
  3
Standard
100
AcDbAlignedDimension
 13
18.39933882192892
 23
4.376950792786653
 33
0.0
 14
17.73333882192892
 24
7.874950792786653
 34
0.0
 50
90.0
100
AcDbRotatedDimension
1001
ACAD
1000
DSTYLE
1002
{
1070
   140
1040
0.09
1002
}
  0
TEXT
  5
888
330
1F
100
AcDbEntity
  8
Text
100
AcDbText
 10
5.947846293809647
 20
10.01265999017513
 30
0.0
 40
0.125
  1
TOP VIEW
100
AcDbText
  0
TEXT
  5
889
330
1F
100
AcDbEntity
  8
Text
100
AcDbText
 10
5.902331417420619
 20
3.82941998160401
 30
0.0
 40
0.125
  1
FRONT VIEW
100
AcDbText
  0
TEXT
  5
88A
330
1F
100
AcDbEntity
  8
Text
100
AcDbText
 10
16.36299096234889
 20
3.827329401511856
 30
0.0
 40
0.125
  1
RIGHT SIDE VIEW
100
AcDbText
  0
TEXT
  5
88E
330
1F
100
AcDbEntity
  8
Title Block
100
AcDbText
 10
17.77669501265554
 20
2.672489851525508
 30
0.0
 40
0.05
  1
FILENAME:
100
AcDbText
  0
TEXT
  5
88F
330
1F
100
AcDbEntity
  8
Title Block
100
AcDbText
 10
17.76928502872825
 20
2.076224967549325
 30
0.0
 40
0.35
  1
PANDUIT
100
AcDbText
  0
TEXT
  5
890
330
1F
100
AcDbEntity
  8
Title Block
100
AcDbText
 10
19.72182039882138
 20
2.061410940562986
 30
0.0
 40
0.125
  1
CORP. TINLEY PARK, IL
100
AcDbText
  0
TEXT
  5
891
330
1F
100
AcDbEntity
  8
Title Block
100
AcDbText
 10
17.78039997670861
 20
1.91697409709392
 30
0.0
 40
0.05
  1
TITLE:
100
AcDbText
  0
MTEXT
  5
892
330
1F
100
AcDbEntity
  8
Title Block
100
AcDbMText
 10
19.0
 20
1.372215793536348
 30
0.0
 40
0.075
 41
2.5
 71
     5
 72
     5
  1
UNLESS OTHERWISE SPECIFIED,\PDIMENSIONAL TOLERANCES ARE:       
 73
     1
 44
1.0
1001
ACAD
1000
MTEXTBEGIN
1070
    73
1070
     1
1070
    44
1040
1.0
1070
    74
1070
     0
1000
MTEXTEND
  0
MTEXT
  5
893
330
1F
100
AcDbEntity
  8
Title Block
100
AcDbMText
 10
18.39237986661001
 20
1.131487708483632
 30
0.0
 40
0.075
 41
2.5
 71
     5
 72
     5
  1
(.X)\P(.XX)
 73
     1
 44
1.0
1001
ACAD
1000
MTEXTBEGIN
1070
    73
1070
     1
1070
    44
1040
1.0
1070
    74
1070
     0
1000
MTEXTEND
  0
MTEXT
  5
894
330
1F
100
AcDbEntity
  8
Title Block
100
AcDbMText
 10
19.40014005312411
 20
1.131487708483632
 30
0.0
 40
0.075
 41
2.5
 71
     5
 72
     5
  1
(.XXX)\PANGLES:
 73
     1
 44
1.0
1001
ACAD
1000
MTEXTBEGIN
1070
    73
1070
     1
1070
    44
1040
1.0
1070
    74
1070
     0
1000
MTEXTEND
  0
MTEXT
  5
895
330
1F
100
AcDbEntity
  8
Title Block
100
AcDbMText
 10
21.0
 20
1.25
 30
0.0
 40
0.06
 41
1.5
 71
     5
 72
     5
  1
UNLESS OTHERWISE SPECIFIED,\PALL DIMENSIONS ARE GIVEN IN INCHES, THIRD ANGLE PROJECTION
 73
     1
 44
1.0
1001
ACAD
1000
MTEXTBEGIN
1070
    73
1070
     1
1070
    44
1040
1.0
1070
    74
1070
     0
1000
MTEXTEND
  0
TEXT
  5
896
330
1F
100
AcDbEntity
  8
Title Block
100
AcDbText
 10
17.76076445430618
 20
0.9281373372752312
 30
0.0
 40
0.05
  1
DRAWN BY:
100
AcDbText
  0
TEXT
  5
897
330
1F
100
AcDbEntity
  8
Title Block
100
AcDbText
 10
17.76446947418043
 20
0.6811431865635028
 30
0.0
 40
0.05
  1
DATE:
100
AcDbText
  0
TEXT
  5
898
330
1F
100
AcDbEntity
  8
Title Block
100
AcDbText
 10
17.76817443823349
 20
0.4304455338317968
 30
0.0
 40
0.05
  1
CHECKED BY:
100
AcDbText
  0
TEXT
  5
899
330
1F
100
AcDbEntity
  8
Title Block
100
AcDbText
 10
18.52028959313306
 20
0.9281373372752312
 30
0.0
 40
0.05
  1
MATERIAL:
100
AcDbText
  0
TEXT
  5
89A
330
1F
100
AcDbEntity
  8
Title Block
100
AcDbText
 10
20.26534493878154
 20
0.9281373372752312
 30
0.0
 40
0.05
  1
SCALE:
100
AcDbText
  0
TEXT
  5
89B
330
1F
100
AcDbEntity
  8
Title Block
100
AcDbText
 10
20.26534493878154
 20
0.6725952630490007
 30
0.0
 40
0.05
  1
DRAWING NUMBER:
100
AcDbText
  0
TEXT
  5
89C
330
1F
100
AcDbEntity
  8
Title Block
100
AcDbText
 10
21.34942622928997
 20
0.6762987650689816
 30
0.0
 40
0.05
  1
DRAWING
100
AcDbText
  0
TEXT
  5
89D
330
1F
100
AcDbEntity
  8
Title Block
100
AcDbText
 10
21.42723125590085
 20
0.2811642688682026
 30
0.0
 40
0.05
  1
SIZE
100
AcDbText
  0
TEXT
  5
89E
330
1F
100
AcDbEntity
  8
Title Block
100
AcDbText
 10
21.39373130657865
 20
0.3826699445861052
 30
0.0
 40
0.25
  1
C
100
AcDbText
  0
MTEXT
  5
89F
330
1F
100
AcDbEntity
  8
Title Block
100
AcDbMText
 10
11.37499999999999
 20
0.375
 30
0.0
 40
0.05
 41
0.25
 71
     5
 72
     5
  1
REV
 73
     1
 44
1.0
1001
ACAD
1000
MTEXTBEGIN
1070
    73
1070
     1
1070
    44
1040
1.0
1070
    74
1070
     0
1000
MTEXTEND
  0
MTEXT
  5
8A0
330
1F
100
AcDbEntity
  8
Title Block
100
AcDbMText
 10
11.74999999999999
 20
0.375
 30
0.0
 40
0.05
 41
0.5
 71
     5
 72
     5
  1
DATE
 73
     1
 44
1.0
1001
ACAD
1000
MTEXTBEGIN
1070
    73
1070
     1
1070
    44
1040
1.0
1070
    74
1070
     0
1000
MTEXTEND
  0
MTEXT
  5
8A1
330
1F
100
AcDbEntity
  8
Title Block
100
AcDbMText
 10
12.18999999999999
 20
0.375
 30
0.0
 40
0.05
 41
0.38
 71
     5
 72
     5
  1
BY
 73
     1
 44
1.0
1001
ACAD
1000
MTEXTBEGIN
1070
    73
1070
     1
1070
    44
1040
1.0
1070
    74
1070
     0
1000
MTEXTEND
  0
MTEXT
  5
8A2
330
1F
100
AcDbEntity
  8
Title Block
100
AcDbMText
 10
12.56499999999999
 20
0.375
 30
0.0
 40
0.05
 41
0.38
 71
     5
 72
     5
  1
CHK
 73
     1
 44
1.0
1001
ACAD
1000
MTEXTBEGIN
1070
    73
1070
     1
1070
    44
1040
1.0
1070
    74
1070
     0
1000
MTEXTEND
  0
MTEXT
  5
8A3
330
1F
100
AcDbEntity
  8
Title Block
100
AcDbMText
 10
14.12499999999999
 20
0.375
 30
0.0
 40
0.05
 41
2.75
 71
     5
 72
     5
  1
DESCRIPTION
 73
     1
 44
1.0
1001
ACAD
1000
MTEXTBEGIN
1070
    73
1070
     1
1070
    44
1040
1.0
1070
    74
1070
     0
1000
MTEXTEND
  0
MTEXT
  5
8A4
330
1F
100
AcDbEntity
  8
Title Block
100
AcDbMText
 10
16.065
 20
0.375
 30
0.0
 40
0.05
 41
1.129999999999999
 71
     5
 72
     5
  1
ECN   -   R
 73
     1
 44
1.0
1001
ACAD
1000
MTEXTBEGIN
1070
    73
1070
     1
1070
    44
1040
1.0
1070
    74
1070
     0
1000
MTEXTEND
  0
MTEXT
  5
8A5
330
1F
100
AcDbEntity
  8
Title Block
100
AcDbMText
 10
16.81499999999999
 20
0.375
 30
0.0
 40
0.05
 41
0.38
 71
     5
 72
     5
  1
CUST
 73
     1
 44
1.0
1001
ACAD
1000
MTEXTBEGIN
1070
    73
1070
     1
1070
    44
1040
1.0
1070
    74
1070
     0
1000
MTEXTEND
  0
MTEXT
  5
8A6
330
1F
100
AcDbEntity
  8
Title Block
100
AcDbMText
 10
17.19
 20
0.375
 30
0.0
 40
0.05
 41
0.38
 71
     5
 72
     5
  1
SUP
 73
     1
 44
1.0
1001
ACAD
1000
MTEXTBEGIN
1070
    73
1070
     1
1070
    44
1040
1.0
1070
    74
1070
     0
1000
MTEXTEND
  0
LINE
  5
8A7
330
1F
100
AcDbEntity
  8
Title Block
100
AcDbLine
 10
21.75
 20
2.749999999999999
 30
0.0
 11
11.25
 21
2.75
 31
0.0
  0
LINE
  5
8A8
330
1F
100
AcDbEntity
  8
Title Block
100
AcDbLine
 10
17.74999999999999
 20
2.75
 30
0.0
 11
17.74999999999999
 21
0.25
 31
0.0
  0
LINE
  5
8A9
330
1F
100
AcDbEntity
  8
Title Block
100
AcDbLine
 10
21.75
 20
2.499999999999999
 30
0.0
 11
11.25
 21
2.5
 31
0.0
  0
LINE
  5
8AA
330
1F
100
AcDbEntity
  8
Title Block
100
AcDbLine
 10
17.74999999999999
 20
2.25
 30
0.0
 11
11.25
 21
2.25
 31
0.0
  0
LINE
  5
8AB
330
1F
100
AcDbEntity
  8
Title Block
100
AcDbLine
 10
21.75
 20
1.999999999999999
 30
0.0
 11
11.25
 21
2.0
 31
0.0
  0
LINE
  5
8AC
330
1F
100
AcDbEntity
  8
Title Block
100
AcDbLine
 10
17.74999999999999
 20
1.75
 30
0.0
 11
11.25
 21
1.75
 31
0.0
  0
LINE
  5
8AD
330
1F
100
AcDbEntity
  8
Title Block
100
AcDbLine
 10
21.75
 20
1.499999999999999
 30
0.0
 11
11.25
 21
1.5
 31
0.0
  0
LINE
  5
8AE
330
1F
100
AcDbEntity
  8
Title Block
100
AcDbLine
 10
17.74999999999999
 20
1.25
 30
0.0
 11
11.25
 21
1.25
 31
0.0
  0
LINE
  5
8AF
330
1F
100
AcDbEntity
  8
Title Block
100
AcDbLine
 10
21.75
 20
0.9999999999999996
 30
0.0
 11
11.25
 21
1.0
 31
0.0
  0
LINE
  5
8B0
330
1F
100
AcDbEntity
  8
Title Block
100
AcDbLine
 10
18.49999999999999
 20
0.75
 30
0.0
 11
11.25
 21
0.7500000000000009
 31
0.0
  0
LINE
  5
8B1
330
1F
100
AcDbEntity
  8
Title Block
100
AcDbLine
 10
18.49999999999999
 20
0.5
 30
0.0
 11
11.25
 21
0.5000000000000009
 31
0.0
  0
LINE
  5
8B2
330
1F
100
AcDbEntity
  8
Title Block
100
AcDbLine
 10
11.25
 20
0.25
 30
0.0
 11
11.25
 21
2.75
 31
0.0
  0
LINE
  5
8B3
330
1F
100
AcDbEntity
  8
Title Block
100
AcDbLine
 10
11.49999999999999
 20
0.25
 30
0.0
 11
11.49999999999999
 21
2.750000000000001
 31
0.0
  0
LINE
  5
8B4
330
1F
100
AcDbEntity
  8
Title Block
100
AcDbLine
 10
11.99999999999999
 20
0.25
 30
0.0
 11
11.99999999999999
 21
2.750000000000001
 31
0.0
  0
LINE
  5
8B5
330
1F
100
AcDbEntity
  8
Title Block
100
AcDbLine
 10
12.375
 20
0.25
 30
0.0
 11
12.375
 21
2.750000000000001
 31
0.0
  0
LINE
  5
8B6
330
1F
100
AcDbEntity
  8
Title Block
100
AcDbLine
 10
12.74999999999999
 20
0.25
 30
0.0
 11
12.74999999999999
 21
2.750000000000001
 31
0.0
  0
LINE
  5
8B7
330
1F
100
AcDbEntity
  8
Title Block
100
AcDbLine
 10
17.375
 20
2.75
 30
0.0
 11
17.375
 21
0.25
 31
0.0
  0
LINE
  5
8B8
330
1F
100
AcDbEntity
  8
Title Block
100
AcDbLine
 10
17.0
 20
2.75
 30
0.0
 11
17.0
 21
0.25
 31
0.0
  0
LINE
  5
8B9
330
1F
100
AcDbEntity
  8
Title Block
100
AcDbLine
 10
16.62499999999999
 20
2.75
 30
0.0
 11
16.62499999999999
 21
0.25
 31
0.0
  0
LINE
  5
8BA
330
1F
100
AcDbEntity
  8
Title Block
100
AcDbLine
 10
16.25
 20
2.75
 30
0.0
 11
16.25
 21
0.5000000000000002
 31
0.0
  0
LINE
  5
8BB
330
1F
100
AcDbEntity
  8
Title Block
100
AcDbLine
 10
15.5
 20
2.75
 30
0.0
 11
15.5
 21
0.25
 31
0.0
  0
LINE
  5
8BC
330
1F
100
AcDbEntity
  8
Title Block
100
AcDbLine
 10
20.25
 20
0.75
 30
0.0
 11
20.25
 21
1.499999999999999
 31
0.0
  0
LINE
  5
8BD
330
1F
100
AcDbEntity
  8
Title Block
100
AcDbLine
 10
20.25
 20
0.75
 30
0.0
 11
20.25
 21
0.25
 31
0.0
  0
LINE
  5
8BE
330
1F
100
AcDbEntity
  8
Title Block
100
AcDbLine
 10
20.25
 20
0.75
 30
0.0
 11
21.75
 21
0.75
 31
0.0
  0
LINE
  5
8BF
330
1F
100
AcDbEntity
  8
Title Block
100
AcDbLine
 10
18.49999999999999
 20
0.5
 30
0.0
 11
18.49999999999999
 21
0.25
 31
0.0
  0
LINE
  5
8C0
330
1F
100
AcDbEntity
  8
Title Block
100
AcDbLine
 10
18.49999999999999
 20
0.5
 30
0.0
 11
18.49999999999999
 21
1.0
 31
0.0
  0
LINE
  5
8C1
330
1F
100
AcDbEntity
  8
Title Block
100
AcDbLine
 10
21.25
 20
0.75
 30
0.0
 11
21.25
 21
0.25
 31
0.0
  0
LWPOLYLINE
  5
8C2
330
1F
100
AcDbEntity
  8
Title Block
100
AcDbPolyline
 90
        4
 70
     1
 43
0.01
 10
21.75
 20
16.75
 10
21.75
 20
0.25
 10
0.25
 20
0.25
 10
0.250000000000001
 20
16.75
  0
POINT
  5
8C3
330
1F
100
AcDbEntity
  8
Title Block
100
AcDbPoint
 10
22.0
 20
0.0
 30
0.0
  0
POINT
  5
8C4
330
1F
100
AcDbEntity
  8
Title Block
100
AcDbPoint
 10
22.0
 20
17.0
 30
0.0
  0
POINT
  5
8C5
330
1F
100
AcDbEntity
  8
Title Block
100
AcDbPoint
 10
0.000000000000001
 20
17.0
 30
0.0
  0
POINT
  5
8C6
330
1F
100
AcDbEntity
  8
Title Block
100
AcDbPoint
 10
0.0
 20
0.0
 30
0.0
  0
MTEXT
  5
8C7
330
1F
100
AcDbEntity
  8
Text
100
AcDbMText
 10
11.37324893148254
 20
0.6275685908585027
 30
0.0
 40
0.09
 41
0.25
 71
     5
 72
     5
  1
R
 73
     1
 44
1.0
1001
ACAD
1000
MTEXTBEGIN
1070
    73
1070
     1
1070
    44
1040
1.0
1070
    74
1070
     0
1000
MTEXTEND
  0
MTEXT
  5
8C8
330
1F
100
AcDbEntity
  8
Text
100
AcDbMText
 10
11.74824893148254
 20
0.6275685908585027
 30
0.0
 40
0.07
 41
0.5
 71
     5
 72
     5
  1
8-18-05
 73
     1
 44
1.0
1001
ACAD
1000
MTEXTBEGIN
1070
    73
1070
     1
1070
    44
1040
1.0
1070
    74
1070
     0
1000
MTEXTEND
  0
MTEXT
  5
8C9
330
1F
100
AcDbEntity
  8
Text
100
AcDbMText
 10
12.18574893148254
 20
0.6275685908585027
 30
0.0
 40
0.09
 41
0.375
 71
     5
 72
     5
  1
MSO
 73
     1
 44
1.0
1001
ACAD
1000
MTEXTBEGIN
1070
    73
1070
     1
1070
    44
1040
1.0
1070
    74
1070
     0
1000
MTEXTEND
  0
MTEXT
  5
8CA
330
1F
100
AcDbEntity
  8
Text
100
AcDbMText
 10
12.56074893148254
 20
0.6275685908585027
 30
0.0
 40
0.07
 41
0.375
 71
     5
 72
     5
  1
DJWA
 73
     1
 44
1.0
1001
ACAD
1000
MTEXTBEGIN
1070
    73
1070
     1
1070
    44
1040
1.0
1070
    74
1070
     0
1000
MTEXTEND
  0
MTEXT
  5
8CB
330
1F
100
AcDbEntity
  8
Text
100
AcDbMText
 10
14.12324893148254
 20
0.6275685908585023
 30
0.0
 40
0.09
 41
2.75
 71
     5
 72
     5
  1
DRAWING RELEASED
 73
     1
 44
1.0
1001
ACAD
1000
MTEXTBEGIN
1070
    73
1070
     1
1070
    44
1040
1.0
1070
    74
1070
     0
1000
MTEXTEND
  0
MTEXT
  5
8CE
330
1F
100
AcDbEntity
  8
Text
100
AcDbMText
 10
18.47324893148254
 20
0.8525685908585018
 30
0.0
 40
0.09
 41
0.75
 71
     6
 72
     5
  1
MSO
 73
     1
 44
1.0
1001
ACAD
1000
MTEXTBEGIN
1070
    73
1070
     1
1070
    44
1040
1.0
1070
    74
1070
     0
1000
MTEXTEND
  0
MTEXT
  5
8CF
330
1F
100
AcDbEntity
  8
Text
100
AcDbMText
 10
18.47324893148254
 20
0.6025685908585017
 30
0.0
 40
0.09
 41
0.75
 71
     6
 72
     5
  1
8-18-05
 73
     1
 44
1.0
1001
ACAD
1000
MTEXTBEGIN
1070
    73
1070
     1
1070
    44
1040
1.0
1070
    74
1070
     0
1000
MTEXTEND
  0
MTEXT
  5
8D0
330
1F
100
AcDbEntity
  8
Text
100
AcDbMText
 10
18.47324893148254
 20
0.3525685908585019
 30
0.0
 40
0.09
 41
0.75
 71
     6
 72
     5
  1
DJWA
 73
     1
 44
1.0
1001
ACAD
1000
MTEXTBEGIN
1070
    73
1070
     1
1070
    44
1040
1.0
1070
    74
1070
     0
1000
MTEXTEND
  0
MTEXT
  5
8D1
330
1F
100
AcDbEntity
  8
Text
100
AcDbMText
 10
19.74824893148254
 20
2.627568590858501
 30
0.0
 40
0.09
 41
4.0
 71
     5
 72
     5
  1
FRTYT68.dwg
 73
     1
 44
1.0
1001
ACAD
1000
MTEXTBEGIN
1070
    73
1070
     1
1070
    44
1040
1.0
1070
    74
1070
     0
1000
MTEXTEND
  0
MTEXT
  5
8D2
330
1F
100
AcDbEntity
  8
Text
100
AcDbMText
 10
19.86893581014448
 20
1.752568590858501
 30
0.0
 40
0.09
 41
4.0
 71
     5
 72
     5
  1
FIBERRUNNER 6x4 TO TYTON 8X4 LIGHTGUIDE FIBER OPTIC\PPROTECTION SYSTEM ADAPTER (FRTYT68)\PMARKETING DRAWING
 73
     1
 44
1.0
1001
ACAD
1000
MTEXTBEGIN
1070
    73
1070
     1
1070
    44
1040
1.0
1070
    74
1070
     0
1000
MTEXTEND
  0
MTEXT
  5
8D3
330
1F
100
AcDbEntity
  8
Text
100
AcDbMText
 10
20.99824893148254
 20
0.8775685908585016
 30
0.0
 40
0.12
 41
1.5
 71
     5
 72
     5
  1
FULL
 73
     1
 44
1.0
1001
ACAD
1000
MTEXTBEGIN
1070
    73
1070
     1
1070
    44
1040
1.0
1070
    74
1070
     0
1000
MTEXTEND
  0
MTEXT
  5
8D4
330
1F
100
AcDbEntity
  8
Text
100
AcDbMText
 10
20.74824893148254
 20
0.5025685908585018
 30
0.0
 40
0.12
 41
1.0
 71
     5
 72
     5
  1
36897-1077
 73
     1
 44
1.0
1001
ACAD
1000
MTEXTBEGIN
1070
    73
1070
     1
1070
    44
1040
1.0
1070
    74
1070
     0
1000
MTEXTEND
  0
MTEXT
  5
92F
330
1F
100
AcDbEntity
  8
Text
100
AcDbMText
 10
16.95621506457154
 20
16.45381696624985
 30
0.0
 40
0.12
 41
4.466736842105262
 71
     1
 72
     1
  3
{\LNOTES:}\P\P1. THE FIBERRUNNER 6x4 TO TYTON 8x4 LIGHTGUIDE   \P   ADAPTER INCLUDES:\P   ONE (1) ADAPTER,\P   FOUR (4) {\H0.6978x;\S1#4;}-20x{\H0.6978x;\S5#8;} NYLON COMBINATION BINDING \P               HEAD MACHINE SCREWS,\P   FOUR (4) {\H0.6978x;\
  1
S1#4;}-20 NYLON DECO WING \P              NUTS.
 73
     1
 44
1.0
1001
ACAD
1000
MTEXTBEGIN
1070
    73
1070
     1
1070
    44
1040
1.0
1070
    74
1070
     1
1000
MTEXTEND
  0
MTEXT
  5
930
330
1F
100
AcDbEntity
  8
Text
100
AcDbMText
 10
11.37324893148254
 20
0.8775685908585026
 30
0.0
 40
0.09
 41
0.25
 71
     5
 72
     5
  1
1
 73
     1
 44
1.0
1001
ACAD
1000
MTEXTBEGIN
1070
    73
1070
     1
1070
    44
1040
1.0
1070
    74
1070
     0
1000
MTEXTEND
  0
MTEXT
  5
931
330
1F
100
AcDbEntity
  8
Text
100
AcDbMText
 10
11.74824893148254
 20
0.8775685908585026
 30
0.0
 40
0.07
 41
0.5
 71
     5
 72
     5
  1
6-13-07
 73
     1
 44
1.0
1001
ACAD
1000
MTEXTBEGIN
1070
    73
1070
     1
1070
    44
1040
1.0
1070
    74
1070
     0
1000
MTEXTEND
  0
MTEXT
  5
932
330
1F
100
AcDbEntity
  8
Text
100
AcDbMText
 10
12.18574893148254
 20
0.8775685908585026
 30
0.0
 40
0.09
 41
0.375
 71
     5
 72
     5
  1
DTP
 73
     1
 44
1.0
1001
ACAD
1000
MTEXTBEGIN
1070
    73
1070
     1
1070
    44
1040
1.0
1070
    74
1070
     0
1000
MTEXTEND
  0
MTEXT
  5
933
330
1F
100
AcDbEntity
  8
Text
100
AcDbMText
 10
12.56074893148254
 20
0.8775685908585026
 30
0.0
 40
0.07
 41
0.375
 71
     5
 72
     5
  1
DJWA
 73
     1
 44
1.0
1001
ACAD
1000
MTEXTBEGIN
1070
    73
1070
     1
1070
    44
1040
1.0
1070
    74
1070
     0
1000
MTEXTEND
  0
MTEXT
  5
934
330
1F
100
AcDbEntity
  8
Text
100
AcDbMText
 10
12.77324893148254
 20
0.8775685908585021
 30
0.0
 40
0.07
 41
2.75
 71
     4
 72
     5
  1
A. ADDED GENERAL NOTES
 73
     1
 44
1.0
1001
ACAD
1000
MTEXTBEGIN
1070
    73
1070
     1
1070
    44
1040
1.0
1070
    74
1070
     0
1000
MTEXTEND
  0
LINE
  5
935
330
1F
100
AcDbEntity
  8
Text
100
AcDbLine
 10
16.86097868608963
 20
16.27760141999413
 30
0.0
 11
16.71097868608963
 21
16.53740904112946
 31
0.0
  0
LINE
  5
936
330
1F
100
AcDbEntity
  8
Text
100
AcDbLine
 10
16.71097868608963
 20
16.53740904112946
 30
0.0
 11
16.56097868608963
 21
16.27760141999413
 31
0.0
  0
LINE
  5
937
330
1F
100
AcDbEntity
  8
Text
100
AcDbLine
 10
16.56097868608963
 20
16.27760141999413
 30
0.0
 11
16.86097868608963
 21
16.27760141999413
 31
0.0
  0
TEXT
  5
938
330
1F
100
AcDbEntity
  8
Text
100
AcDbText
 10
16.67175479207112
 20
16.33283616595661
 30
0.0
 40
0.09
  1
A
100
AcDbText
  0
ENDSEC
  0
SECTION
  2
OBJECTS
  0
DICTIONARY
  5
C
330
0
100
AcDbDictionary
281
     1
  3
ACAD_COLOR
350
73
  3
ACAD_GROUP
350
D
  3
ACAD_LAYOUT
350
1A
  3
ACAD_MATERIAL
350
72
  3
ACAD_MLINESTYLE
350
17
  3
ACAD_PLOTSETTINGS
350
19
  3
ACAD_PLOTSTYLENAME
350
E
  3
ACAD_TABLESTYLE
350
86
  3
ACDBHEADERROUNDTRIPXREC
350
94A
  3
AcDbVariableDictionary
350
66
  0
DICTIONARY
  5
8D6
330
1F
100
AcDbDictionary
280
     1
281
     1
  3
ACAD_SORTENTS
360
8D7
  0
DICTIONARY
  5
83C
330
82D
100
AcDbDictionary
280
     1
281
     1
  3
ACAD_DIMASSOC
360
847
  0
DICTIONARY
  5
85E
330
850
100
AcDbDictionary
280
     1
281
     1
  3
ACAD_DIMASSOC
360
869
  0
DICTIONARY
  5
87B
330
86D
100
AcDbDictionary
280
     1
281
     1
  3
ACAD_DIMASSOC
360
886
  0
DICTIONARY
  5
73
102
{ACAD_REACTORS
330
C
102
}
330
C
100
AcDbDictionary
281
     1
  0
DICTIONARY
  5
D
102
{ACAD_REACTORS
330
C
102
}
330
C
100
AcDbDictionary
281
     1
  0
DICTIONARY
  5
1A
102
{ACAD_REACTORS
330
C
102
}
330
C
100
AcDbDictionary
281
     1
  3
Layout1
350
59
  3
Layout2
350
5E
  3
Model
350
22
  0
DICTIONARY
  5
72
102
{ACAD_REACTORS
330
C
102
}
330
C
100
AcDbDictionary
281
     1
  0
DICTIONARY
  5
17
102
{ACAD_REACTORS
330
C
102
}
330
C
100
AcDbDictionary
281
     1
  3
Standard
350
18
  0
DICTIONARY
  5
19
102
{ACAD_REACTORS
330
C
102
}
330
C
100
AcDbDictionary
281
     1
  0
ACDBDICTIONARYWDFLT
  5
E
102
{ACAD_REACTORS
330
C
102
}
330
C
100
AcDbDictionary
281
     1
  3
Normal
350
F
100
AcDbDictionaryWithDefault
340
F
  0
DICTIONARY
  5
86
102
{ACAD_REACTORS
330
C
102
}
330
C
100
AcDbDictionary
281
     1
  3
Standard
350
87
  0
DICTIONARY
  5
94A
102
{ACAD_REACTORS
330
C
102
}
330
C
100
AcDbDictionary
281
     1
  0
DICTIONARY
  5
66
102
{ACAD_REACTORS
330
C
102
}
330
C
100
AcDbDictionary
281
     1
  3
CTABLESTYLE
350
E0
  3
DIMASSOC
350
67
  3
HIDETEXT
350
6B
  3
PROJECTNAME
350
948
  0
SORTENTSTABLE
  5
8D7
102
{ACAD_REACTORS
330
8D6
102
}
330
8D6
100
AcDbSortentsTable
330
1F
331
3A5
  5
3A5
331
367
  5
367
331
312
  5
312
331
2BD
  5
2BD
331
27F
  5
27F
331
29E
  5
29E
331
2F3
  5
2F3
331
331
  5
331
331
386
  5
386
331
3C4
  5
3C4
331
59D
  5
59D
331
57E
  5
57E
331
55F
  5
55F
331
540
  5
540
331
529
  5
529
331
50A
  5
50A
331
4EB
  5
4EB
331
4CC
  5
4CC
331
496
  5
496
331
477
  5
477
331
458
  5
458
331
422
  5
422
331
403
  5
403
331
3E4
  5
3E4
331
4B5
  5
4B5
331
7A4
  5
7A4
331
7C3
  5
7C3
331
7E2
  5
7E2
331
818
  5
818
331
895
  5
895
331
8AC
  5
8AC
331
8CB
  5
8CB
331
3C5
  5
3C5
331
3A6
  5
3A6
331
332
  5
332
331
2F4
  5
2F4
331
29F
  5
29F
331
2BE
  5
2BE
331
313
  5
313
331
368
  5
368
331
387
  5
387
331
59E
  5
59E
331
57F
  5
57F
331
560
  5
560
331
541
  5
541
331
52A
  5
52A
331
50B
  5
50B
331
4EC
  5
4EC
331
4CD
  5
4CD
331
4B6
  5
4B6
331
478
  5
478
331
459
  5
459
331
423
  5
423
331
404
  5
404
331
3E5
  5
3E5
331
497
  5
497
331
7A5
  5
7A5
331
7C4
  5
7C4
331
7E3
  5
7E3
331
819
  5
819
331
896
  5
896
331
8AD
  5
8AD
331
3A7
  5
3A7
331
369
  5
369
331
314
  5
314
331
2BF
  5
2BF
331
2F5
  5
2F5
331
333
  5
333
331
388
  5
388
331
3C6
  5
3C6
331
59F
  5
59F
331
580
  5
580
331
561
  5
561
331
542
  5
542
331
52B
  5
52B
331
50C
  5
50C
331
4ED
  5
4ED
331
4CE
  5
4CE
331
498
  5
498
331
479
  5
479
331
45A
  5
45A
331
424
  5
424
331
405
  5
405
331
3E6
  5
3E6
331
4B7
  5
4B7
331
7A6
  5
7A6
331
7C5
  5
7C5
331
7E4
  5
7E4
331
81A
  5
81A
331
897
  5
897
331
8AE
  5
8AE
331
3C7
  5
3C7
331
3A8
  5
3A8
331
334
  5
334
331
2F6
  5
2F6
331
315
  5
315
331
36A
  5
36A
331
389
  5
389
331
5A0
  5
5A0
331
581
  5
581
331
562
  5
562
331
543
  5
543
331
52C
  5
52C
331
50D
  5
50D
331
4EE
  5
4EE
331
4CF
  5
4CF
331
47A
  5
47A
331
45B
  5
45B
331
425
  5
425
331
406
  5
406
331
3E7
  5
3E7
331
499
  5
499
331
8CE
  5
8CE
331
7A7
  5
7A7
331
7C6
  5
7C6
331
7E5
  5
7E5
331
81B
  5
81B
331
8AF
  5
8AF
331
36B
  5
36B
331
316
  5
316
331
2F7
  5
2F7
331
335
  5
335
331
38A
  5
38A
331
3A9
  5
3A9
331
5A1
  5
5A1
331
582
  5
582
331
563
  5
563
331
544
  5
544
331
52D
  5
52D
331
50E
  5
50E
331
4EF
  5
4EF
331
4D0
  5
4D0
331
49A
  5
49A
331
47B
  5
47B
331
45C
  5
45C
331
426
  5
426
331
407
  5
407
331
7C7
  5
7C7
331
7E6
  5
7E6
331
81C
  5
81C
331
8B0
  5
8B0
331
8CF
  5
8CF
331
3AA
  5
3AA
331
336
  5
336
331
317
  5
317
331
36C
  5
36C
331
38B
  5
38B
331
5A2
  5
5A2
331
583
  5
583
331
564
  5
564
331
545
  5
545
331
52E
  5
52E
331
50F
  5
50F
331
4F0
  5
4F0
331
4D1
  5
4D1
331
49B
  5
49B
331
47C
  5
47C
331
45D
  5
45D
331
427
  5
427
331
8D0
  5
8D0
331
7E7
  5
7E7
331
81D
  5
81D
331
8B1
  5
8B1
331
38C
  5
38C
331
337
  5
337
331
36D
  5
36D
331
3AB
  5
3AB
331
5A3
  5
5A3
331
584
  5
584
331
565
  5
565
331
546
  5
546
331
52F
  5
52F
331
510
  5
510
331
4F1
  5
4F1
331
4D2
  5
4D2
331
49C
  5
49C
331
47D
  5
47D
331
45E
  5
45E
331
8D1
  5
8D1
331
81E
  5
81E
331
8B2
  5
8B2
331
3AC
  5
3AC
331
36E
  5
36E
331
38D
  5
38D
331
5A4
  5
5A4
331
585
  5
585
331
566
  5
566
331
547
  5
547
331
511
  5
511
331
4F2
  5
4F2
331
4D3
  5
4D3
331
49D
  5
49D
331
47E
  5
47E
331
45F
  5
45F
331
81F
  5
81F
331
8B3
  5
8B3
331
8D2
  5
8D2
331
38E
  5
38E
331
36F
  5
36F
331
3AD
  5
3AD
331
5A5
  5
5A5
331
586
  5
586
331
567
  5
567
331
548
  5
548
331
512
  5
512
331
4F3
  5
4F3
331
4D4
  5
4D4
331
47F
  5
47F
331
49E
  5
49E
331
8D3
  5
8D3
331
8B4
  5
8B4
331
3AE
  5
3AE
331
38F
  5
38F
331
5A6
  5
5A6
331
587
  5
587
331
568
  5
568
331
549
  5
549
331
513
  5
513
331
4F4
  5
4F4
331
4D5
  5
4D5
331
49F
  5
49F
331
8B5
  5
8B5
331
8D4
  5
8D4
331
3AF
  5
3AF
331
5A7
  5
5A7
331
588
  5
588
331
569
  5
569
331
54A
  5
54A
331
514
  5
514
331
4F5
  5
4F5
331
4D6
  5
4D6
331
8B6
  5
8B6
331
589
  5
589
331
56A
  5
56A
331
54B
  5
54B
331
515
  5
515
331
4F6
  5
4F6
331
4D7
  5
4D7
331
8B7
  5
8B7
331
58A
  5
58A
331
56B
  5
56B
331
54C
  5
54C
331
516
  5
516
331
4F7
  5
4F7
331
5A8
  5
5A8
331
58B
  5
58B
331
56C
  5
56C
331
54D
  5
54D
331
517
  5
517
331
5A9
  5
5A9
331
5C8
  5
5C8
331
58C
  5
58C
331
56D
  5
56D
331
54E
  5
54E
331
5C9
  5
5C9
331
5AA
  5
5AA
331
5E8
  5
5E8
331
58D
  5
58D
331
56E
  5
56E
331
54F
  5
54F
331
5E9
  5
5E9
331
5AB
  5
5AB
331
5CA
  5
5CA
331
608
  5
608
331
58E
  5
58E
331
56F
  5
56F
331
609
  5
609
331
5CB
  5
5CB
331
5AC
  5
5AC
331
5EA
  5
5EA
331
620
  5
620
331
58F
  5
58F
331
621
  5
621
331
60A
  5
60A
331
5AD
  5
5AD
331
5CC
  5
5CC
331
5EB
  5
5EB
331
640
  5
640
331
660
  5
660
331
641
  5
641
331
60B
  5
60B
331
5CD
  5
5CD
331
5AE
  5
5AE
331
5EC
  5
5EC
331
622
  5
622
331
680
  5
680
331
661
  5
661
331
623
  5
623
331
60C
  5
60C
331
5CE
  5
5CE
331
5AF
  5
5AF
331
5ED
  5
5ED
331
642
  5
642
331
662
  5
662
331
643
  5
643
331
624
  5
624
331
5CF
  5
5CF
331
5B0
  5
5B0
331
5EE
  5
5EE
331
60D
  5
60D
331
681
  5
681
331
698
  5
698
331
682
  5
682
331
663
  5
663
331
625
  5
625
331
60E
  5
60E
331
5D0
  5
5D0
331
5B1
  5
5B1
331
5EF
  5
5EF
331
644
  5
644
331
699
  5
699
331
6B8
  5
6B8
331
664
  5
664
331
645
  5
645
331
626
  5
626
331
5F0
  5
5F0
331
5B2
  5
5B2
331
5D1
  5
5D1
331
60F
  5
60F
331
683
  5
683
331
69A
  5
69A
331
6B9
  5
6B9
331
6D8
  5
6D8
331
684
  5
684
331
665
  5
665
331
627
  5
627
331
610
  5
610
331
5D2
  5
5D2
331
5B3
  5
5B3
331
5F1
  5
5F1
331
646
  5
646
331
69B
  5
69B
331
6BA
  5
6BA
331
6D9
  5
6D9
331
6F8
  5
6F8
331
666
  5
666
331
647
  5
647
331
628
  5
628
331
5F2
  5
5F2
331
5B4
  5
5B4
331
5D3
  5
5D3
331
611
  5
611
331
685
  5
685
331
69C
  5
69C
331
6BB
  5
6BB
331
6DA
  5
6DA
331
6F9
  5
6F9
331
710
  5
710
331
686
  5
686
331
667
  5
667
331
629
  5
629
331
612
  5
612
331
5D4
  5
5D4
331
5B5
  5
5B5
331
5F3
  5
5F3
331
648
  5
648
331
69D
  5
69D
331
6BC
  5
6BC
331
6DB
  5
6DB
331
6FA
  5
6FA
331
711
  5
711
331
730
  5
730
331
668
  5
668
331
649
  5
649
331
62A
  5
62A
331
5F4
  5
5F4
331
5B6
  5
5B6
331
5D5
  5
5D5
331
613
  5
613
331
687
  5
687
331
69E
  5
69E
331
6BD
  5
6BD
331
6DC
  5
6DC
331
6FB
  5
6FB
331
712
  5
712
331
731
  5
731
331
750
  5
750
331
751
  5
751
331
688
  5
688
331
669
  5
669
331
62B
  5
62B
331
614
  5
614
331
5D6
  5
5D6
331
5B7
  5
5B7
331
5F5
  5
5F5
331
64A
  5
64A
331
69F
  5
69F
331
6BE
  5
6BE
331
6DD
  5
6DD
331
6FC
  5
6FC
331
713
  5
713
331
732
  5
732
331
770
  5
770
331
1E8
  5
1E8
331
771
  5
771
331
689
  5
689
331
64B
  5
64B
331
62C
  5
62C
331
5F6
  5
5F6
331
5B8
  5
5B8
331
5D7
  5
5D7
331
615
  5
615
331
66A
  5
66A
331
6A0
  5
6A0
331
6BF
  5
6BF
331
6DE
  5
6DE
331
6FD
  5
6FD
331
714
  5
714
331
733
  5
733
331
752
  5
752
331
208
  5
208
331
1E9
  5
1E9
331
753
  5
753
331
68A
  5
68A
331
66B
  5
66B
331
62D
  5
62D
331
616
  5
616
331
5D8
  5
5D8
331
5B9
  5
5B9
331
5F7
  5
5F7
331
64C
  5
64C
331
6A1
  5
6A1
331
6C0
  5
6C0
331
6DF
  5
6DF
331
6FE
  5
6FE
331
715
  5
715
331
734
  5
734
331
772
  5
772
331
228
  5
228
331
209
  5
209
331
1EA
  5
1EA
331
773
  5
773
331
68B
  5
68B
331
64D
  5
64D
331
62E
  5
62E
331
5F8
  5
5F8
331
5BA
  5
5BA
331
5D9
  5
5D9
331
617
  5
617
331
66C
  5
66C
331
6A2
  5
6A2
331
6C1
  5
6C1
331
6E0
  5
6E0
331
6FF
  5
6FF
331
716
  5
716
331
735
  5
735
331
754
  5
754
331
248
  5
248
331
229
  5
229
331
20A
  5
20A
331
1EB
  5
1EB
331
755
  5
755
331
66D
  5
66D
331
64E
  5
64E
331
618
  5
618
331
5F9
  5
5F9
331
5BB
  5
5BB
331
5DA
  5
5DA
331
62F
  5
62F
331
68C
  5
68C
331
6A3
  5
6A3
331
6C2
  5
6C2
331
6E1
  5
6E1
331
700
  5
700
331
717
  5
717
331
736
  5
736
331
774
  5
774
331
260
  5
260
331
22A
  5
22A
331
20B
  5
20B
331
1EC
  5
1EC
331
249
  5
249
331
775
  5
775
331
68D
  5
68D
331
64F
  5
64F
331
630
  5
630
331
5FA
  5
5FA
331
5BC
  5
5BC
331
5DB
  5
5DB
331
619
  5
619
331
66E
  5
66E
331
6A4
  5
6A4
331
6C3
  5
6C3
331
6E2
  5
6E2
331
701
  5
701
331
718
  5
718
331
737
  5
737
331
756
  5
756
331
261
  5
261
331
24A
  5
24A
331
22B
  5
22B
331
20C
  5
20C
331
1ED
  5
1ED
331
280
  5
280
331
757
  5
757
331
66F
  5
66F
331
650
  5
650
331
61A
  5
61A
331
5FB
  5
5FB
331
5BD
  5
5BD
331
5DC
  5
5DC
331
631
  5
631
331
68E
  5
68E
331
6A5
  5
6A5
331
6C4
  5
6C4
331
6E3
  5
6E3
331
702
  5
702
331
719
  5
719
331
738
  5
738
331
776
  5
776
331
281
  5
281
331
262
  5
262
331
22C
  5
22C
331
20D
  5
20D
331
1EE
  5
1EE
331
24B
  5
24B
331
2A0
  5
2A0
331
777
  5
777
331
68F
  5
68F
331
651
  5
651
331
632
  5
632
331
61B
  5
61B
331
5BE
  5
5BE
331
5DD
  5
5DD
331
5FC
  5
5FC
331
670
  5
670
331
6A6
  5
6A6
331
6C5
  5
6C5
331
6E4
  5
6E4
331
703
  5
703
331
71A
  5
71A
331
739
  5
739
331
758
  5
758
331
2A1
  5
2A1
331
263
  5
263
331
24C
  5
24C
331
22D
  5
22D
331
20E
  5
20E
331
1EF
  5
1EF
331
282
  5
282
331
2C0
  5
2C0
331
671
  5
671
331
652
  5
652
331
61C
  5
61C
331
5FD
  5
5FD
331
5BF
  5
5BF
331
5DE
  5
5DE
331
633
  5
633
331
690
  5
690
331
6A7
  5
6A7
331
6C6
  5
6C6
331
6E5
  5
6E5
331
704
  5
704
331
71B
  5
71B
331
73A
  5
73A
331
759
  5
759
331
778
  5
778
331
3C8
  5
3C8
331
788
  5
788
331
2D8
  5
2D8
331
2C1
  5
2C1
331
283
  5
283
331
264
  5
264
331
22E
  5
22E
331
20F
  5
20F
331
1F0
  5
1F0
331
24D
  5
24D
331
2A2
  5
2A2
331
691
  5
691
331
653
  5
653
331
634
  5
634
331
61D
  5
61D
331
5DF
  5
5DF
331
5C0
  5
5C0
331
5FE
  5
5FE
331
672
  5
672
331
6A8
  5
6A8
331
6C7
  5
6C7
331
6E6
  5
6E6
331
705
  5
705
331
71C
  5
71C
331
73B
  5
73B
331
75A
  5
75A
331
779
  5
779
331
3C9
  5
3C9
331
3E8
  5
3E8
331
7A8
  5
7A8
331
789
  5
789
331
2F8
  5
2F8
331
2D9
  5
2D9
331
2A3
  5
2A3
331
284
  5
284
331
24E
  5
24E
331
22F
  5
22F
331
210
  5
210
331
1F1
  5
1F1
331
265
  5
265
331
2C2
  5
2C2
331
73C
  5
73C
331
673
  5
673
331
654
  5
654
331
635
  5
635
331
5FF
  5
5FF
331
5C1
  5
5C1
331
5E0
  5
5E0
331
61E
  5
61E
331
692
  5
692
331
6A9
  5
6A9
331
6C8
  5
6C8
331
6E7
  5
6E7
331
706
  5
706
331
71D
  5
71D
331
75B
  5
75B
331
77A
  5
77A
331
3E9
  5
3E9
331
3CA
  5
3CA
331
408
  5
408
331
7C8
  5
7C8
331
7A9
  5
7A9
331
78A
  5
78A
331
2DA
  5
2DA
331
2C3
  5
2C3
331
285
  5
285
331
266
  5
266
331
230
  5
230
331
211
  5
211
331
1F2
  5
1F2
331
24F
  5
24F
331
2A4
  5
2A4
331
2F9
  5
2F9
331
318
  5
318
331
1DB
  5
1DB
331
693
  5
693
331
655
  5
655
331
636
  5
636
331
61F
  5
61F
331
5E1
  5
5E1
331
5C2
  5
5C2
331
600
  5
600
331
674
  5
674
331
6AA
  5
6AA
331
6C9
  5
6C9
331
6E8
  5
6E8
331
707
  5
707
331
71E
  5
71E
331
73D
  5
73D
331
75C
  5
75C
331
77B
  5
77B
331
428
  5
428
331
3EA
  5
3EA
331
3CB
  5
3CB
331
409
  5
409
331
7E8
  5
7E8
331
7C9
  5
7C9
331
7AA
  5
7AA
331
78B
  5
78B
331
338
  5
338
331
2FA
  5
2FA
331
2DB
  5
2DB
331
2A5
  5
2A5
331
286
  5
286
331
250
  5
250
331
231
  5
231
331
212
  5
212
331
1F3
  5
1F3
331
267
  5
267
331
2C4
  5
2C4
331
319
  5
319
331
1DC
  5
1DC
331
73E
  5
73E
331
675
  5
675
331
656
  5
656
331
601
  5
601
331
5C3
  5
5C3
331
5E2
  5
5E2
331
637
  5
637
331
694
  5
694
331
6AB
  5
6AB
331
6CA
  5
6CA
331
6E9
  5
6E9
331
708
  5
708
331
71F
  5
71F
331
75D
  5
75D
331
77C
  5
77C
331
440
  5
440
331
3EB
  5
3EB
331
3CC
  5
3CC
331
40A
  5
40A
331
429
  5
429
331
800
  5
800
331
7E9
  5
7E9
331
7CA
  5
7CA
331
7AB
  5
7AB
331
78C
  5
78C
331
350
  5
350
331
339
  5
339
331
2FB
  5
2FB
331
2C5
  5
2C5
331
2A6
  5
2A6
331
268
  5
268
331
251
  5
251
331
232
  5
232
331
213
  5
213
331
1F4
  5
1F4
331
287
  5
287
331
2DC
  5
2DC
331
31A
  5
31A
331
1DD
  5
1DD
331
75E
  5
75E
331
720
  5
720
331
709
  5
709
331
6AC
  5
6AC
331
695
  5
695
331
657
  5
657
331
638
  5
638
331
5E3
  5
5E3
331
5C4
  5
5C4
331
602
  5
602
331
676
  5
676
331
6CB
  5
6CB
331
6EA
  5
6EA
331
73F
  5
73F
331
77D
  5
77D
331
441
  5
441
331
42A
  5
42A
331
3EC
  5
3EC
331
3CD
  5
3CD
331
40B
  5
40B
331
460
  5
460
331
820
  5
820
331
801
  5
801
331
7EA
  5
7EA
331
7CB
  5
7CB
331
7AC
  5
7AC
331
78D
  5
78D
331
370
  5
370
331
351
  5
351
331
2FC
  5
2FC
331
2DD
  5
2DD
331
2A7
  5
2A7
331
288
  5
288
331
252
  5
252
331
233
  5
233
331
214
  5
214
331
1F5
  5
1F5
331
269
  5
269
331
2C6
  5
2C6
331
31B
  5
31B
331
33A
  5
33A
331
1DE
  5
1DE
331
77E
  5
77E
331
740
  5
740
331
70A
  5
70A
331
6EB
  5
6EB
331
6AD
  5
6AD
331
677
  5
677
331
658
  5
658
331
603
  5
603
331
5C5
  5
5C5
331
5E4
  5
5E4
331
639
  5
639
331
696
  5
696
331
6CC
  5
6CC
331
721
  5
721
331
75F
  5
75F
331
461
  5
461
331
442
  5
442
331
40C
  5
40C
331
3CE
  5
3CE
331
3ED
  5
3ED
331
42B
  5
42B
331
480
  5
480
331
850
  5
850
331
821
  5
821
331
802
  5
802
331
7EB
  5
7EB
331
7CC
  5
7CC
331
7AD
  5
7AD
331
78E
  5
78E
331
390
  5
390
331
352
  5
352
331
33B
  5
33B
331
2FD
  5
2FD
331
2C7
  5
2C7
331
2A8
  5
2A8
331
26A
  5
26A
331
253
  5
253
331
234
  5
234
331
215
  5
215
331
1F6
  5
1F6
331
289
  5
289
331
2DE
  5
2DE
331
31C
  5
31C
331
371
  5
371
331
1DF
  5
1DF
331
760
  5
760
331
722
  5
722
331
70B
  5
70B
331
6CD
  5
6CD
331
697
  5
697
331
678
  5
678
331
63A
  5
63A
331
5E5
  5
5E5
331
5C6
  5
5C6
331
604
  5
604
331
659
  5
659
331
6AE
  5
6AE
331
6EC
  5
6EC
331
741
  5
741
331
77F
  5
77F
331
481
  5
481
331
443
  5
443
331
42C
  5
42C
331
3EE
  5
3EE
331
3CF
  5
3CF
331
40D
  5
40D
331
462
  5
462
331
4A0
  5
4A0
331
822
  5
822
331
803
  5
803
331
7EC
  5
7EC
331
7CD
  5
7CD
331
7AE
  5
7AE
331
78F
  5
78F
331
3B0
  5
3B0
331
372
  5
372
331
353
  5
353
331
31D
  5
31D
331
2DF
  5
2DF
331
2C8
  5
2C8
331
28A
  5
28A
331
26B
  5
26B
331
235
  5
235
331
216
  5
216
331
1F7
  5
1F7
331
254
  5
254
331
2A9
  5
2A9
331
2FE
  5
2FE
331
33C
  5
33C
331
391
  5
391
331
1E0
  5
1E0
331
780
  5
780
331
742
  5
742
331
723
  5
723
331
6ED
  5
6ED
331
679
  5
679
331
65A
  5
65A
331
605
  5
605
331
5C7
  5
5C7
331
5E6
  5
5E6
331
63B
  5
63B
331
6AF
  5
6AF
331
6CE
  5
6CE
331
70C
  5
70C
331
761
  5
761
331
4B8
  5
4B8
331
4A1
  5
4A1
331
463
  5
463
331
444
  5
444
331
40E
  5
40E
331
3D0
  5
3D0
331
3EF
  5
3EF
331
42D
  5
42D
331
482
  5
482
331
823
  5
823
331
804
  5
804
331
7ED
  5
7ED
331
7CE
  5
7CE
331
7AF
  5
7AF
331
790
  5
790
331
898
  5
898
331
392
  5
392
331
354
  5
354
331
33D
  5
33D
331
2FF
  5
2FF
331
2C9
  5
2C9
331
2AA
  5
2AA
331
26C
  5
26C
331
255
  5
255
331
236
  5
236
331
217
  5
217
331
1F8
  5
1F8
331
28B
  5
28B
331
2E0
  5
2E0
331
31E
  5
31E
331
373
  5
373
331
3B1
  5
3B1
331
1E1
  5
1E1
331
762
  5
762
331
724
  5
724
331
70D
  5
70D
331
6CF
  5
6CF
331
67A
  5
67A
331
63C
  5
63C
331
5E7
  5
5E7
331
606
  5
606
331
65B
  5
65B
331
6B0
  5
6B0
331
6EE
  5
6EE
331
743
  5
743
331
781
  5
781
331
4D8
  5
4D8
331
4B9
  5
4B9
331
483
  5
483
331
445
  5
445
331
42E
  5
42E
331
3F0
  5
3F0
331
3D1
  5
3D1
331
40F
  5
40F
331
464
  5
464
331
4A2
  5
4A2
331
824
  5
824
331
805
  5
805
331
7EE
  5
7EE
331
7CF
  5
7CF
331
7B0
  5
7B0
331
791
  5
791
331
899
  5
899
331
8B8
  5
8B8
331
3B2
  5
3B2
331
374
  5
374
331
355
  5
355
331
31F
  5
31F
331
2E1
  5
2E1
331
2CA
  5
2CA
331
28C
  5
28C
331
26D
  5
26D
331
237
  5
237
331
218
  5
218
331
1F9
  5
1F9
331
256
  5
256
331
2AB
  5
2AB
331
300
  5
300
331
33E
  5
33E
331
393
  5
393
331
1E2
  5
1E2
331
782
  5
782
331
744
  5
744
331
725
  5
725
331
6EF
  5
6EF
331
6B1
  5
6B1
331
65C
  5
65C
331
607
  5
607
331
63D
  5
63D
331
67B
  5
67B
331
6D0
  5
6D0
331
70E
  5
70E
331
763
  5
763
331
4F8
  5
4F8
331
4D9
  5
4D9
331
4BA
  5
4BA
331
4A3
  5
4A3
331
465
  5
465
331
446
  5
446
331
410
  5
410
331
3D2
  5
3D2
331
3F1
  5
3F1
331
42F
  5
42F
331
484
  5
484
331
8B9
  5
8B9
331
825
  5
825
331
806
  5
806
331
7EF
  5
7EF
331
7D0
  5
7D0
331
7B1
  5
7B1
331
792
  5
792
331
89A
  5
89A
331
394
  5
394
331
356
  5
356
331
33F
  5
33F
331
301
  5
301
331
2E2
  5
2E2
331
2AC
  5
2AC
331
26E
  5
26E
331
257
  5
257
331
238
  5
238
331
219
  5
219
331
1FA
  5
1FA
331
28D
  5
28D
331
2CB
  5
2CB
331
320
  5
320
331
375
  5
375
331
3B3
  5
3B3
331
1E3
  5
1E3
331
764
  5
764
331
726
  5
726
331
70F
  5
70F
331
6D1
  5
6D1
331
67C
  5
67C
331
63E
  5
63E
331
65D
  5
65D
331
6B2
  5
6B2
331
6F0
  5
6F0
331
745
  5
745
331
783
  5
783
331
518
  5
518
331
4F9
  5
4F9
331
4DA
  5
4DA
331
4BB
  5
4BB
331
485
  5
485
331
447
  5
447
331
430
  5
430
331
3F2
  5
3F2
331
3D3
  5
3D3
331
411
  5
411
331
466
  5
466
331
4A4
  5
4A4
331
826
  5
826
331
807
  5
807
331
7F0
  5
7F0
331
7D1
  5
7D1
331
7B2
  5
7B2
331
793
  5
793
331
89B
  5
89B
331
8BA
  5
8BA
331
3B4
  5
3B4
331
376
  5
376
331
357
  5
357
331
321
  5
321
331
2E3
  5
2E3
331
2CC
  5
2CC
331
28E
  5
28E
331
26F
  5
26F
331
239
  5
239
331
21A
  5
21A
331
1FB
  5
1FB
331
258
  5
258
331
2AD
  5
2AD
331
302
  5
302
331
340
  5
340
331
395
  5
395
331
1E4
  5
1E4
331
784
  5
784
331
746
  5
746
331
6F1
  5
6F1
331
6B3
  5
6B3
331
65E
  5
65E
331
63F
  5
63F
331
67D
  5
67D
331
6D2
  5
6D2
331
727
  5
727
331
765
  5
765
331
530
  5
530
331
519
  5
519
331
4FA
  5
4FA
331
4DB
  5
4DB
331
4BC
  5
4BC
331
4A5
  5
4A5
331
486
  5
486
331
467
  5
467
331
448
  5
448
331
431
  5
431
331
412
  5
412
331
3F3
  5
3F3
331
3D4
  5
3D4
331
8BB
  5
8BB
331
89C
  5
89C
331
808
  5
808
331
7F1
  5
7F1
331
7B3
  5
7B3
331
794
  5
794
331
7D2
  5
7D2
331
827
  5
827
331
396
  5
396
331
358
  5
358
331
341
  5
341
331
303
  5
303
331
2E4
  5
2E4
331
2AE
  5
2AE
331
270
  5
270
331
259
  5
259
331
23A
  5
23A
331
21B
  5
21B
331
1FC
  5
1FC
331
28F
  5
28F
331
2CD
  5
2CD
331
322
  5
322
331
377
  5
377
331
3B5
  5
3B5
331
1E5
  5
1E5
331
766
  5
766
331
728
  5
728
331
6D3
  5
6D3
331
67E
  5
67E
331
65F
  5
65F
331
6B4
  5
6B4
331
6F2
  5
6F2
331
747
  5
747
331
785
  5
785
331
550
  5
550
331
531
  5
531
331
51A
  5
51A
331
4FB
  5
4FB
331
4DC
  5
4DC
331
4BD
  5
4BD
331
487
  5
487
331
468
  5
468
331
449
  5
449
331
432
  5
432
331
413
  5
413
331
3F4
  5
3F4
331
3D5
  5
3D5
331
4A6
  5
4A6
331
89D
  5
89D
331
828
  5
828
331
809
  5
809
331
7D3
  5
7D3
331
795
  5
795
331
7B4
  5
7B4
331
7F2
  5
7F2
331
8BC
  5
8BC
331
3B6
  5
3B6
331
378
  5
378
331
359
  5
359
331
323
  5
323
331
2E5
  5
2E5
331
2CE
  5
2CE
331
290
  5
290
331
271
  5
271
331
23B
  5
23B
331
21C
  5
21C
331
1FD
  5
1FD
331
25A
  5
25A
331
2AF
  5
2AF
331
304
  5
304
331
342
  5
342
331
397
  5
397
331
1E6
  5
1E6
331
786
  5
786
331
767
  5
767
331
6F3
  5
6F3
331
6B5
  5
6B5
331
67F
  5
67F
331
6D4
  5
6D4
331
729
  5
729
331
748
  5
748
331
570
  5
570
331
551
  5
551
331
532
  5
532
331
51B
  5
51B
331
4FC
  5
4FC
331
4DD
  5
4DD
331
4BE
  5
4BE
331
4A7
  5
4A7
331
488
  5
488
331
469
  5
469
331
44A
  5
44A
331
433
  5
433
331
414
  5
414
331
3F5
  5
3F5
331
3D6
  5
3D6
331
8BD
  5
8BD
331
89E
  5
89E
331
80A
  5
80A
331
7F3
  5
7F3
331
7B5
  5
7B5
331
796
  5
796
331
7D4
  5
7D4
331
829
  5
829
331
3B7
  5
3B7
331
35A
  5
35A
331
343
  5
343
331
305
  5
305
331
2E6
  5
2E6
331
2B0
  5
2B0
331
272
  5
272
331
25B
  5
25B
331
21D
  5
21D
331
1FE
  5
1FE
331
23C
  5
23C
331
291
  5
291
331
2CF
  5
2CF
331
324
  5
324
331
379
  5
379
331
398
  5
398
331
1E7
  5
1E7
331
768
  5
768
331
72A
  5
72A
331
6D5
  5
6D5
331
6B6
  5
6B6
331
6F4
  5
6F4
331
749
  5
749
331
787
  5
787
331
590
  5
590
331
571
  5
571
331
552
  5
552
331
533
  5
533
331
51C
  5
51C
331
4FD
  5
4FD
331
4DE
  5
4DE
331
4BF
  5
4BF
331
489
  5
489
331
46A
  5
46A
331
44B
  5
44B
331
434
  5
434
331
415
  5
415
331
3F6
  5
3F6
331
3D7
  5
3D7
331
4A8
  5
4A8
331
89F
  5
89F
331
888
  5
888
331
82A
  5
82A
331
80B
  5
80B
331
7D5
  5
7D5
331
797
  5
797
331
7B6
  5
7B6
331
7F4
  5
7F4
331
8BE
  5
8BE
331
3B8
  5
3B8
331
37A
  5
37A
331
35B
  5
35B
331
325
  5
325
331
2E7
  5
2E7
331
2D0
  5
2D0
331
292
  5
292
331
273
  5
273
331
23D
  5
23D
331
21E
  5
21E
331
1FF
  5
1FF
331
25C
  5
25C
331
2B1
  5
2B1
331
306
  5
306
331
344
  5
344
331
399
  5
399
331
769
  5
769
331
6F5
  5
6F5
331
6B7
  5
6B7
331
6D6
  5
6D6
331
72B
  5
72B
331
74A
  5
74A
331
591
  5
591
331
572
  5
572
331
553
  5
553
331
534
  5
534
331
51D
  5
51D
331
4FE
  5
4FE
331
4DF
  5
4DF
331
4C0
  5
4C0
331
4A9
  5
4A9
331
48A
  5
48A
331
46B
  5
46B
331
44C
  5
44C
331
435
  5
435
331
416
  5
416
331
3F7
  5
3F7
331
3D8
  5
3D8
331
8A0
  5
8A0
331
889
  5
889
331
82B
  5
82B
331
7F5
  5
7F5
331
7B7
  5
7B7
331
798
  5
798
331
7D6
  5
7D6
331
80C
  5
80C
331
8BF
  5
8BF
331
3B9
  5
3B9
331
37B
  5
37B
331
345
  5
345
331
307
  5
307
331
2E8
  5
2E8
331
2B2
  5
2B2
331
274
  5
274
331
25D
  5
25D
331
23E
  5
23E
331
21F
  5
21F
331
200
  5
200
331
293
  5
293
331
2D1
  5
2D1
331
326
  5
326
331
35C
  5
35C
331
39A
  5
39A
331
72C
  5
72C
331
6D7
  5
6D7
331
6F6
  5
6F6
331
74B
  5
74B
331
76A
  5
76A
331
592
  5
592
331
573
  5
573
331
554
  5
554
331
535
  5
535
331
51E
  5
51E
331
4FF
  5
4FF
331
4E0
  5
4E0
331
4C1
  5
4C1
331
48B
  5
48B
331
46C
  5
46C
331
44D
  5
44D
331
436
  5
436
331
417
  5
417
331
3F8
  5
3F8
331
3D9
  5
3D9
331
4AA
  5
4AA
331
8A1
  5
8A1
331
88A
  5
88A
331
80D
  5
80D
331
7D7
  5
7D7
331
799
  5
799
331
7B8
  5
7B8
331
7F6
  5
7F6
331
8C0
  5
8C0
331
37C
  5
37C
331
35D
  5
35D
331
327
  5
327
331
2E9
  5
2E9
331
2D2
  5
2D2
331
294
  5
294
331
275
  5
275
331
23F
  5
23F
331
201
  5
201
331
220
  5
220
331
25E
  5
25E
331
2B3
  5
2B3
331
308
  5
308
331
346
  5
346
331
39B
  5
39B
331
3BA
  5
3BA
331
76B
  5
76B
331
6F7
  5
6F7
331
72D
  5
72D
331
74C
  5
74C
331
593
  5
593
331
574
  5
574
331
555
  5
555
331
536
  5
536
331
51F
  5
51F
331
500
  5
500
331
4E1
  5
4E1
331
4C2
  5
4C2
331
4AB
  5
4AB
331
48C
  5
48C
331
46D
  5
46D
331
44E
  5
44E
331
437
  5
437
331
418
  5
418
331
3F9
  5
3F9
331
3DA
  5
3DA
331
82D
  5
82D
331
7F7
  5
7F7
331
7D8
  5
7D8
331
79A
  5
79A
331
7B9
  5
7B9
331
80E
  5
80E
331
8A2
  5
8A2
331
8C1
  5
8C1
331
3BB
  5
3BB
331
37D
  5
37D
331
347
  5
347
331
328
  5
328
331
2EA
  5
2EA
331
2B4
  5
2B4
331
295
  5
295
331
25F
  5
25F
331
240
  5
240
331
202
  5
202
331
221
  5
221
331
276
  5
276
331
2D3
  5
2D3
331
309
  5
309
331
35E
  5
35E
331
39C
  5
39C
331
74D
  5
74D
331
72E
  5
72E
331
76C
  5
76C
331
594
  5
594
331
575
  5
575
331
556
  5
556
331
537
  5
537
331
520
  5
520
331
501
  5
501
331
4E2
  5
4E2
331
4C3
  5
4C3
331
4AC
  5
4AC
331
46E
  5
46E
331
44F
  5
44F
331
438
  5
438
331
419
  5
419
331
3FA
  5
3FA
331
3DB
  5
3DB
331
48D
  5
48D
331
80F
  5
80F
331
7F8
  5
7F8
331
79B
  5
79B
331
7BA
  5
7BA
331
7D9
  5
7D9
331
8A3
  5
8A3
331
8C2
  5
8C2
331
39D
  5
39D
331
35F
  5
35F
331
348
  5
348
331
2EB
  5
2EB
331
2D4
  5
2D4
331
296
  5
296
331
241
  5
241
331
222
  5
222
331
203
  5
203
331
277
  5
277
331
2B5
  5
2B5
331
30A
  5
30A
331
329
  5
329
331
37E
  5
37E
331
3BC
  5
3BC
331
76D
  5
76D
331
72F
  5
72F
331
74E
  5
74E
331
595
  5
595
331
576
  5
576
331
557
  5
557
331
538
  5
538
331
521
  5
521
331
502
  5
502
331
4E3
  5
4E3
331
4C4
  5
4C4
331
4AD
  5
4AD
331
48E
  5
48E
331
46F
  5
46F
331
450
  5
450
331
439
  5
439
331
41A
  5
41A
331
3FB
  5
3FB
331
3DC
  5
3DC
331
79C
  5
79C
331
7BB
  5
7BB
331
7DA
  5
7DA
331
7F9
  5
7F9
331
810
  5
810
331
8A4
  5
8A4
331
8C3
  5
8C3
331
3BD
  5
3BD
331
37F
  5
37F
331
349
  5
349
331
32A
  5
32A
331
2EC
  5
2EC
331
2B6
  5
2B6
331
297
  5
297
331
242
  5
242
331
223
  5
223
331
204
  5
204
331
278
  5
278
331
2D5
  5
2D5
331
30B
  5
30B
331
360
  5
360
331
39E
  5
39E
331
74F
  5
74F
331
76E
  5
76E
331
596
  5
596
331
577
  5
577
331
558
  5
558
331
539
  5
539
331
522
  5
522
331
503
  5
503
331
4E4
  5
4E4
331
4C5
  5
4C5
331
4AE
  5
4AE
331
470
  5
470
331
451
  5
451
331
43A
  5
43A
331
41B
  5
41B
331
3FC
  5
3FC
331
3DD
  5
3DD
331
48F
  5
48F
331
8C4
  5
8C4
331
79D
  5
79D
331
7BC
  5
7BC
331
7DB
  5
7DB
331
7FA
  5
7FA
331
811
  5
811
331
88E
  5
88E
331
8A5
  5
8A5
331
39F
  5
39F
331
361
  5
361
331
34A
  5
34A
331
30C
  5
30C
331
2D6
  5
2D6
331
2B7
  5
2B7
331
279
  5
279
331
243
  5
243
331
224
  5
224
331
205
  5
205
331
298
  5
298
331
2ED
  5
2ED
331
32B
  5
32B
331
380
  5
380
331
3BE
  5
3BE
331
76F
  5
76F
331
597
  5
597
331
578
  5
578
331
559
  5
559
331
53A
  5
53A
331
523
  5
523
331
504
  5
504
331
4E5
  5
4E5
331
4C6
  5
4C6
331
490
  5
490
331
471
  5
471
331
452
  5
452
331
43B
  5
43B
331
41C
  5
41C
331
3FD
  5
3FD
331
3DE
  5
3DE
331
4AF
  5
4AF
331
79E
  5
79E
331
7BD
  5
7BD
331
7DC
  5
7DC
331
7FB
  5
7FB
331
812
  5
812
331
88F
  5
88F
331
8A6
  5
8A6
331
8C5
  5
8C5
331
3BF
  5
3BF
331
381
  5
381
331
362
  5
362
331
32C
  5
32C
331
2EE
  5
2EE
331
2B8
  5
2B8
331
299
  5
299
331
244
  5
244
331
225
  5
225
331
206
  5
206
331
27A
  5
27A
331
2D7
  5
2D7
331
30D
  5
30D
331
34B
  5
34B
331
3A0
  5
3A0
331
598
  5
598
331
579
  5
579
331
55A
  5
55A
331
53B
  5
53B
331
524
  5
524
331
505
  5
505
331
4E6
  5
4E6
331
4C7
  5
4C7
331
4B0
  5
4B0
331
472
  5
472
331
453
  5
453
331
43C
  5
43C
331
41D
  5
41D
331
3FE
  5
3FE
331
3DF
  5
3DF
331
491
  5
491
331
8C6
  5
8C6
331
79F
  5
79F
331
7BE
  5
7BE
331
7DD
  5
7DD
331
7FC
  5
7FC
331
813
  5
813
331
890
  5
890
331
8A7
  5
8A7
331
3A1
  5
3A1
331
363
  5
363
331
34C
  5
34C
331
30E
  5
30E
331
2B9
  5
2B9
331
27B
  5
27B
331
226
  5
226
331
207
  5
207
331
245
  5
245
331
29A
  5
29A
331
2EF
  5
2EF
331
32D
  5
32D
331
382
  5
382
331
3C0
  5
3C0
331
599
  5
599
331
57A
  5
57A
331
55B
  5
55B
331
53C
  5
53C
331
525
  5
525
331
506
  5
506
331
4E7
  5
4E7
331
4C8
  5
4C8
331
492
  5
492
331
473
  5
473
331
454
  5
454
331
43D
  5
43D
331
41E
  5
41E
331
3FF
  5
3FF
331
3E0
  5
3E0
331
4B1
  5
4B1
331
7A0
  5
7A0
331
7BF
  5
7BF
331
7DE
  5
7DE
331
7FD
  5
7FD
331
814
  5
814
331
891
  5
891
331
8A8
  5
8A8
331
8C7
  5
8C7
331
3C1
  5
3C1
331
383
  5
383
331
364
  5
364
331
32E
  5
32E
331
2F0
  5
2F0
331
29B
  5
29B
331
246
  5
246
331
227
  5
227
331
27C
  5
27C
331
2BA
  5
2BA
331
30F
  5
30F
331
34D
  5
34D
331
3A2
  5
3A2
331
59A
  5
59A
331
57B
  5
57B
331
55C
  5
55C
331
53D
  5
53D
331
526
  5
526
331
507
  5
507
331
4E8
  5
4E8
331
4C9
  5
4C9
331
4B2
  5
4B2
331
474
  5
474
331
455
  5
455
331
43E
  5
43E
331
41F
  5
41F
331
400
  5
400
331
3E1
  5
3E1
331
493
  5
493
331
8C8
  5
8C8
331
7A1
  5
7A1
331
7C0
  5
7C0
331
7DF
  5
7DF
331
7FE
  5
7FE
331
815
  5
815
331
892
  5
892
331
8A9
  5
8A9
331
3A3
  5
3A3
331
365
  5
365
331
34E
  5
34E
331
310
  5
310
331
2BB
  5
2BB
331
27D
  5
27D
331
247
  5
247
331
29C
  5
29C
331
2F1
  5
2F1
331
32F
  5
32F
331
384
  5
384
331
3C2
  5
3C2
331
59B
  5
59B
331
57C
  5
57C
331
55D
  5
55D
331
53E
  5
53E
331
527
  5
527
331
508
  5
508
331
4E9
  5
4E9
331
4CA
  5
4CA
331
494
  5
494
331
475
  5
475
331
456
  5
456
331
43F
  5
43F
331
420
  5
420
331
401
  5
401
331
3E2
  5
3E2
331
4B3
  5
4B3
331
7A2
  5
7A2
331
7C1
  5
7C1
331
7E0
  5
7E0
331
7FF
  5
7FF
331
816
  5
816
331
893
  5
893
331
8AA
  5
8AA
331
8C9
  5
8C9
331
3C3
  5
3C3
331
385
  5
385
331
366
  5
366
331
330
  5
330
331
2F2
  5
2F2
331
29D
  5
29D
331
27E
  5
27E
331
2BC
  5
2BC
331
311
  5
311
331
34F
  5
34F
331
3A4
  5
3A4
331
59C
  5
59C
331
57D
  5
57D
331
55E
  5
55E
331
53F
  5
53F
331
528
  5
528
331
509
  5
509
331
4EA
  5
4EA
331
4CB
  5
4CB
331
4B4
  5
4B4
331
476
  5
476
331
457
  5
457
331
421
  5
421
331
402
  5
402
331
3E3
  5
3E3
331
495
  5
495
331
8CA
  5
8CA
331
7A3
  5
7A3
331
7C2
  5
7C2
331
7E1
  5
7E1
331
817
  5
817
331
86D
  5
86D
331
894
  5
894
331
8AB
  5
8AB
  0
DIMASSOC
  5
847
102
{ACAD_REACTORS
330
83C
102
}
330
83C
100
AcDbDimAssoc
330
82D
 90
        3
 70
     0
 71
     0
  1
AcDbOsnapPointRef
 72
     1
331
7B4
 73
     2
 91
        0
 40
1.0
 10
0.0
 20
0.0
 30
2.000000000000000E+50
 75
     0
  1
AcDbOsnapPointRef
 72
    13
331
719
 73
     2
 91
        0
 40
0.0
 10
0.0
 20
0.0
 30
2.000000000000000E+50
 75
     0
  0
DIMASSOC
  5
869
102
{ACAD_REACTORS
330
85E
102
}
330
85E
100
AcDbDimAssoc
330
850
 90
        3
 70
     0
 71
     0
  1
AcDbOsnapPointRef
 72
     1
331
4B1
 73
     2
 91
        0
 40
1.0
 10
0.0
 20
0.0
 30
2.000000000000000E+50
 75
     0
  1
AcDbOsnapPointRef
 72
    13
331
472
 73
     2
 91
        0
 40
0.0
 10
0.0
 20
0.0
 30
2.000000000000000E+50
 75
     0
  0
DIMASSOC
  5
886
102
{ACAD_REACTORS
330
87B
102
}
330
87B
100
AcDbDimAssoc
330
86D
 90
        1
 70
     0
 71
     0
  1
AcDbOsnapPointRef
 72
    13
331
2CD
 73
     2
 91
        0
 40
0.0
 10
0.0
 20
0.0
 30
2.000000000000000E+50
 75
     0
  0
LAYOUT
  5
59
102
{ACAD_XDICTIONARY
360
94D
102
}
102
{ACAD_REACTORS
330
1A
102
}
330
1A
100
AcDbPlotSettings
  1

  2
None
  4

  6

 40
0.0
 41
0.0
 42
0.0
 43
0.0
 44
0.0
 45
0.0
 46
0.0
 47
0.0
 48
0.0
 49
0.0
140
0.0
141
0.0
142
1.0
143
1.0
 70
   688
 72
     0
 73
     0
 74
     5
  7

 75
    16
147
1.0
148
0.0
149
0.0
100
AcDbLayout
  1
Layout1
 70
     1
 71
     1
 10
0.0
 20
0.0
 11
12.0
 21
9.0
 12
0.0
 22
0.0
 32
0.0
 14
0.0
 24
0.0
 34
0.0
 15
0.0
 25
0.0
 35
0.0
146
0.0
 13
0.0
 23
0.0
 33
0.0
 16
1.0
 26
0.0
 36
0.0
 17
0.0
 27
1.0
 37
0.0
 76
     0
330
58
  0
LAYOUT
  5
5E
102
{ACAD_XDICTIONARY
360
94F
102
}
102
{ACAD_REACTORS
330
1A
102
}
330
1A
100
AcDbPlotSettings
  1

  2
None
  4

  6

 40
0.0
 41
0.0
 42
0.0
 43
0.0
 44
0.0
 45
0.0
 46
0.0
 47
0.0
 48
0.0
 49
0.0
140
0.0
141
0.0
142
1.0
143
1.0
 70
   688
 72
     0
 73
     0
 74
     5
  7

 75
    16
147
1.0
148
0.0
149
0.0
100
AcDbLayout
  1
Layout2
 70
     1
 71
     2
 10
0.0
 20
0.0
 11
12.0
 21
9.0
 12
0.0
 22
0.0
 32
0.0
 14
0.0
 24
0.0
 34
0.0
 15
0.0
 25
0.0
 35
0.0
146
0.0
 13
0.0
 23
0.0
 33
0.0
 16
1.0
 26
0.0
 36
0.0
 17
0.0
 27
1.0
 37
0.0
 76
     0
330
5D
  0
LAYOUT
  5
22
102
{ACAD_XDICTIONARY
360
94B
102
}
102
{ACAD_REACTORS
330
1A
102
}
330
1A
100
AcDbPlotSettings
  1

  2
none_device
  4
ANSI_A_(8.50_x_11.00_Inches)
  6

 40
6.349999904632568
 41
19.04999923706055
 42
6.350006103515625
 43
19.04998779296875
 44
215.8999938964844
 45
279.3999938964844
 46
0.0
 47
0.0
 48
0.0
 49
0.0
140
0.0
141
0.0
142
1.0
143
2.584895464708373
 70
 11952
 72
     0
 73
     1
 74
     0
  7

 75
     0
147
0.3868628397755418
148
0.0
149
0.0
100
AcDbLayout
  1
Model
 70
     1
 71
     0
 10
0.0
 20
0.0
 11
12.0
 21
9.0
 12
0.0
 22
0.0
 32
0.0
 14
0.0
 24
0.0
 34
0.0
 15
0.0
 25
0.0
 35
0.0
146
0.0
 13
0.0
 23
0.0
 33
0.0
 16
1.0
 26
0.0
 36
0.0
 17
0.0
 27
1.0
 37
0.0
 76
     0
330
1F
  0
MLINESTYLE
  5
18
102
{ACAD_REACTORS
330
17
102
}
330
17
100
AcDbMlineStyle
  2
STANDARD
 70
     0
  3

 62
   256
 51
90.0
 52
90.0
 71
     2
 49
0.5
 62
   256
  6
BYLAYER
 49
-0.5
 62
   256
  6
BYLAYER
  0
ACDBPLACEHOLDER
  5
F
102
{ACAD_REACTORS
330
E
102
}
330
E
  0
TABLESTYLE
  5
87
102
{ACAD_REACTORS
330
86
102
}
330
86
100
AcDbTableStyle
  3
Standard
 70
     0
 71
     0
 40
0.06
 41
0.06
280
     0
281
     0
  7
Standard
140
0.18
170
     2
 62
     0
 63
     7
283
     0
274
    -2
284
     1
 64
     0
275
    -2
285
     1
 65
     0
276
    -2
286
     1
 66
     0
277
    -2
287
     1
 67
     0
278
    -2
288
     1
 68
     0
279
    -2
289
     1
 69
     0
  7
Standard
140
0.25
170
     5
 62
     0
 63
     7
283
     0
274
    -2
284
     1
 64
     0
275
    -2
285
     1
 65
     0
276
    -2
286
     1
 66
     0
277
    -2
287
     1
 67
     0
278
    -2
288
     1
 68
     0
279
    -2
289
     1
 69
     0
  7
Standard
140
0.18
170
     5
 62
     0
 63
     7
283
     0
274
    -2
284
     1
 64
     0
275
    -2
285
     1
 65
     0
276
    -2
286
     1
 66
     0
277
    -2
287
     1
 67
     0
278
    -2
288
     1
 68
     0
279
    -2
289
     1
 69
     0
  0
DICTIONARYVAR
  5
E0
102
{ACAD_REACTORS
330
66
102
}
330
66
100
DictionaryVariables
280
     0
  1
STANDARD
  0
DICTIONARYVAR
  5
67
102
{ACAD_REACTORS
330
66
102
}
330
66
100
DictionaryVariables
280
     0
  1
2
  0
DICTIONARYVAR
  5
6B
102
{ACAD_REACTORS
330
66
102
}
330
66
100
DictionaryVariables
280
     0
  1
1
  0
DICTIONARYVAR
  5
948
102
{ACAD_REACTORS
330
66
102
}
330
66
100
DictionaryVariables
280
     0
  1

  0
DICTIONARY
  5
94D
330
59
100
AcDbDictionary
280
     1
281
     1
  3
ACAD_XREC_ROUNDTRIP
360
94E
  0
DICTIONARY
  5
94F
330
5E
100
AcDbDictionary
280
     1
281
     1
  3
ACAD_XREC_ROUNDTRIP
360
950
  0
DICTIONARY
  5
94B
330
22
100
AcDbDictionary
280
     1
281
     1
  3
ACAD_XREC_ROUNDTRIP
360
94C
  0
XRECORD
  5
94E
102
{ACAD_REACTORS
330
94D
102
}
330
94D
100
AcDbXrecord
280
     1
102
SHADEPLOT
 70
     0
102
SHADEPLOTRESLEVEL
 70
     2
102
SHADEPLOTCUSTOMDPI
 70
   300
  0
XRECORD
  5
950
102
{ACAD_REACTORS
330
94F
102
}
330
94F
100
AcDbXrecord
280
     1
102
SHADEPLOT
 70
     0
102
SHADEPLOTRESLEVEL
 70
     2
102
SHADEPLOTCUSTOMDPI
 70
   300
  0
XRECORD
  5
94C
102
{ACAD_REACTORS
330
94B
102
}
330
94B
100
AcDbXrecord
280
     1
102
SHADEPLOT
 70
     0
102
SHADEPLOTRESLEVEL
 70
     2
102
SHADEPLOTCUSTOMDPI
 70
   300
  0
ENDSEC
  0
EOF
