  0
SECTION
  2
HEADER
  9
$ACADVER
  1
AC1015
  9
$ACADMAINTVER
 70
    20
  9
$DWGCODEPAGE
  3
ANSI_1252
  9
$INSBASE
 10
0.0
 20
0.0
 30
0.0
  9
$EXTMIN
 10
-0.075
 20
-0.0750000000000018
 30
0.0
  9
$EXTMAX
 10
17.075
 20
11.075
 30
0.0
  9
$LIMMIN
 10
0.0
 20
0.0
  9
$LIMMAX
 10
12.0
 20
9.0
  9
$ORTHOMODE
 70
     0
  9
$REGENMODE
 70
     1
  9
$FILLMODE
 70
     1
  9
$QTEXTMODE
 70
     0
  9
$MIRRTEXT
 70
     0
  9
$LTSCALE
 40
1.0
  9
$ATTMODE
 70
     1
  9
$TEXTSIZE
 40
0.09
  9
$TRACEWID
 40
0.05
  9
$TEXTSTYLE
  7
Standard
  9
$CLAYER
  8
0
  9
$CELTYPE
  6
ByLayer
  9
$CECOLOR
 62
   256
  9
$CELTSCALE
 40
1.0
  9
$DISPSILH
 70
     0
  9
$DIMSCALE
 40
1.0
  9
$DIMASZ
 40
0.125
  9
$DIMEXO
 40
0.0625
  9
$DIMDLI
 40
0.38
  9
$DIMRND
 40
0.0
  9
$DIMDLE
 40
0.0
  9
$DIMEXE
 40
0.125
  9
$DIMTP
 40
0.0
  9
$DIMTM
 40
0.0
  9
$DIMTXT
 40
0.09
  9
$DIMCEN
 40
0.09
  9
$DIMTSZ
 40
0.0
  9
$DIMTOL
 70
     0
  9
$DIMLIM
 70
     0
  9
$DIMTIH
 70
     1
  9
$DIMTOH
 70
     1
  9
$DIMSE1
 70
     0
  9
$DIMSE2
 70
     0
  9
$DIMTAD
 70
     0
  9
$DIMZIN
 70
     0
  9
$DIMBLK
  1

  9
$DIMASO
 70
     1
  9
$DIMSHO
 70
     1
  9
$DIMPOST
  1

  9
$DIMAPOST
  1
mm
  9
$DIMALT
 70
     1
  9
$DIMALTD
 70
     1
  9
$DIMALTF
 40
25.4
  9
$DIMLFAC
 40
1.0
  9
$DIMTOFL
 70
     0
  9
$DIMTVP
 40
0.0
  9
$DIMTIX
 70
     0
  9
$DIMSOXD
 70
     0
  9
$DIMSAH
 70
     0
  9
$DIMBLK1
  1

  9
$DIMBLK2
  1

  9
$DIMSTYLE
  2
Standard
  9
$DIMCLRD
 70
     0
  9
$DIMCLRE
 70
     0
  9
$DIMCLRT
 70
     0
  9
$DIMTFAC
 40
1.0
  9
$DIMGAP
 40
0.09
  9
$DIMJUST
 70
     0
  9
$DIMSD1
 70
     0
  9
$DIMSD2
 70
     0
  9
$DIMTOLJ
 70
     1
  9
$DIMTZIN
 70
     0
  9
$DIMALTZ
 70
     0
  9
$DIMALTTZ
 70
     0
  9
$DIMUPT
 70
     0
  9
$DIMDEC
 70
     2
  9
$DIMTDEC
 70
     2
  9
$DIMALTU
 70
     2
  9
$DIMALTTD
 70
     1
  9
$DIMTXSTY
  7
Standard
  9
$DIMAUNIT
 70
     0
  9
$DIMADEC
 70
     0
  9
$DIMALTRND
 40
0.0
  9
$DIMAZIN
 70
     0
  9
$DIMDSEP
 70
    46
  9
$DIMATFIT
 70
     3
  9
$DIMFRAC
 70
     0
  9
$DIMLDRBLK
  1

  9
$DIMLUNIT
 70
     2
  9
$DIMLWD
 70
    -2
  9
$DIMLWE
 70
    -2
  9
$DIMTMOVE
 70
     0
  9
$LUNITS
 70
     2
  9
$LUPREC
 70
     4
  9
$SKETCHINC
 40
0.1
  9
$FILLETRAD
 40
0.0
  9
$AUNITS
 70
     0
  9
$AUPREC
 70
     0
  9
$MENU
  1
.
  9
$ELEVATION
 40
0.0
  9
$PELEVATION
 40
0.0
  9
$THICKNESS
 40
0.0
  9
$LIMCHECK
 70
     0
  9
$CHAMFERA
 40
0.0
  9
$CHAMFERB
 40
0.0
  9
$CHAMFERC
 40
0.0
  9
$CHAMFERD
 40
0.0
  9
$SKPOLY
 70
     0
  9
$TDCREATE
 40
2454118.395966134
  9
$TDUCREATE
 40
2454118.604299468
  9
$TDUPDATE
 40
2454294.669780046
  9
$TDUUPDATE
 40
2454294.878113380
  9
$TDINDWG
 40
0.0319445718
  9
$TDUSRTIMER
 40
0.0319429398
  9
$USRTIMER
 70
     1
  9
$ANGBASE
 50
0.0
  9
$ANGDIR
 70
     0
  9
$PDMODE
 70
     2
  9
$PDSIZE
 40
0.075
  9
$PLINEWID
 40
0.0
  9
$SPLFRAME
 70
     0
  9
$SPLINETYPE
 70
     6
  9
$SPLINESEGS
 70
     8
  9
$HANDSEED
  5
AF4
  9
$SURFTAB1
 70
     6
  9
$SURFTAB2
 70
     6
  9
$SURFTYPE
 70
     6
  9
$SURFU
 70
     6
  9
$SURFV
 70
     6
  9
$UCSBASE
  2

  9
$UCSNAME
  2

  9
$UCSORG
 10
0.0
 20
0.0
 30
0.0
  9
$UCSXDIR
 10
1.0
 20
0.0
 30
0.0
  9
$UCSYDIR
 10
0.0
 20
1.0
 30
0.0
  9
$UCSORTHOREF
  2

  9
$UCSORTHOVIEW
 70
     0
  9
$UCSORGTOP
 10
0.0
 20
0.0
 30
0.0
  9
$UCSORGBOTTOM
 10
0.0
 20
0.0
 30
0.0
  9
$UCSORGLEFT
 10
0.0
 20
0.0
 30
0.0
  9
$UCSORGRIGHT
 10
0.0
 20
0.0
 30
0.0
  9
$UCSORGFRONT
 10
0.0
 20
0.0
 30
0.0
  9
$UCSORGBACK
 10
0.0
 20
0.0
 30
0.0
  9
$PUCSBASE
  2

  9
$PUCSNAME
  2

  9
$PUCSORG
 10
0.0
 20
0.0
 30
0.0
  9
$PUCSXDIR
 10
1.0
 20
0.0
 30
0.0
  9
$PUCSYDIR
 10
0.0
 20
1.0
 30
0.0
  9
$PUCSORTHOREF
  2

  9
$PUCSORTHOVIEW
 70
     0
  9
$PUCSORGTOP
 10
0.0
 20
0.0
 30
0.0
  9
$PUCSORGBOTTOM
 10
0.0
 20
0.0
 30
0.0
  9
$PUCSORGLEFT
 10
0.0
 20
0.0
 30
0.0
  9
$PUCSORGRIGHT
 10
0.0
 20
0.0
 30
0.0
  9
$PUCSORGFRONT
 10
0.0
 20
0.0
 30
0.0
  9
$PUCSORGBACK
 10
0.0
 20
0.0
 30
0.0
  9
$USERI1
 70
     0
  9
$USERI2
 70
     0
  9
$USERI3
 70
     0
  9
$USERI4
 70
     0
  9
$USERI5
 70
     0
  9
$USERR1
 40
0.0
  9
$USERR2
 40
0.0
  9
$USERR3
 40
0.0
  9
$USERR4
 40
0.0
  9
$USERR5
 40
0.0
  9
$WORLDVIEW
 70
     1
  9
$SHADEDGE
 70
     3
  9
$SHADEDIF
 70
    70
  9
$TILEMODE
 70
     1
  9
$MAXACTVP
 70
    64
  9
$PINSBASE
 10
0.0
 20
0.0
 30
0.0
  9
$PLIMCHECK
 70
     0
  9
$PEXTMIN
 10
0.0
 20
0.0
 30
0.0
  9
$PEXTMAX
 10
0.0
 20
0.0
 30
0.0
  9
$PLIMMIN
 10
0.0
 20
0.0
  9
$PLIMMAX
 10
12.0
 20
9.0
  9
$UNITMODE
 70
     0
  9
$VISRETAIN
 70
     1
  9
$PLINEGEN
 70
     0
  9
$PSLTSCALE
 70
     1
  9
$TREEDEPTH
 70
  3020
  9
$CMLSTYLE
  2
Standard
  9
$CMLJUST
 70
     0
  9
$CMLSCALE
 40
1.0
  9
$PROXYGRAPHICS
 70
     1
  9
$MEASUREMENT
 70
     0
  9
$CELWEIGHT
370
    -1
  9
$ENDCAPS
280
     0
  9
$JOINSTYLE
280
     0
  9
$LWDISPLAY
290
     0
  9
$INSUNITS
 70
     1
  9
$HYPERLINKBASE
  1

  9
$STYLESHEET
  1

  9
$XEDIT
290
     1
  9
$CEPSNTYPE
380
     0
  9
$PSTYLEMODE
290
     1
  9
$FINGERPRINTGUID
  2
{E2E98CCD-CAC5-49CE-9332-4BBE5499E8E2}
  9
$VERSIONGUID
  2
{93977FD1-13D3-4911-9559-7FBD223820B8}
  9
$EXTNAMES
290
     1
  9
$PSVPSCALE
 40
0.0
  9
$OLESTARTUP
290
     0
  0
ENDSEC
  0
SECTION
  2
CLASSES
  0
CLASS
  1
ACDBDICTIONARYWDFLT
  2
AcDbDictionaryWithDefault
  3
ObjectDBX Classes
 90
        0
280
     0
281
     0
  0
CLASS
  1
ACDBPLACEHOLDER
  2
AcDbPlaceHolder
  3
ObjectDBX Classes
 90
        0
280
     0
281
     0
  0
CLASS
  1
LAYOUT
  2
AcDbLayout
  3
ObjectDBX Classes
 90
        0
280
     0
281
     0
  0
CLASS
  1
DICTIONARYVAR
  2
AcDbDictionaryVar
  3
ObjectDBX Classes
 90
        0
280
     0
281
     0
  0
CLASS
  1
TABLESTYLE
  2
AcDbTableStyle
  3
ObjectDBX Classes
 90
     2047
280
     0
281
     0
  0
CLASS
  1
SORTENTSTABLE
  2
AcDbSortentsTable
  3
ObjectDBX Classes
 90
        0
280
     0
281
     0
  0
CLASS
  1
DIMASSOC
  2
AcDbDimAssoc
  3
"AcDbDimAssoc|Product Desc:     AcDim ARX App For Dimension|Company:          Autodesk, Inc.|WEB Address:      www.autodesk.com"
 90
    32768
280
     0
281
     0
  0
ENDSEC
  0
SECTION
  2
TABLES
  0
TABLE
  2
VPORT
  5
8
330
0
100
AcDbSymbolTable
 70
     2
  0
VPORT
  5
AEC
330
8
100
AcDbSymbolTableRecord
100
AcDbViewportTableRecord
  2
*Active
 70
     0
 10
0.0
 20
0.0
 11
1.0
 21
1.0
 12
8.500000120734295
 22
5.892601647291356
 13
0.0
 23
0.0
 14
0.5
 24
0.5
 15
0.5
 25
0.5
 16
0.0
 26
0.0
 36
1.0
 17
0.0
 27
0.0
 37
0.0
 40
12.00689511849154
 41
1.499364675984752
 42
50.0
 43
0.0
 44
0.0
 50
0.0
 51
0.0
 71
     0
 72
  1000
 73
     1
 74
     3
 75
     0
 76
     0
 77
     0
 78
     0
281
     0
 65
     1
110
0.0
120
0.0
130
0.0
111
1.0
121
0.0
131
0.0
112
0.0
122
1.0
132
0.0
 79
     0
146
0.0
  0
ENDTAB
  0
TABLE
  2
LTYPE
  5
5
330
0
100
AcDbSymbolTable
 70
     1
  0
LTYPE
  5
14
330
5
100
AcDbSymbolTableRecord
100
AcDbLinetypeTableRecord
  2
ByBlock
 70
     0
  3

 72
    65
 73
     0
 40
0.0
  0
LTYPE
  5
15
330
5
100
AcDbSymbolTableRecord
100
AcDbLinetypeTableRecord
  2
ByLayer
 70
     0
  3

 72
    65
 73
     0
 40
0.0
  0
LTYPE
  5
16
330
5
100
AcDbSymbolTableRecord
100
AcDbLinetypeTableRecord
  2
Continuous
 70
     0
  3
Solid line
 72
    65
 73
     0
 40
0.0
  0
ENDTAB
  0
TABLE
  2
LAYER
  5
2
330
0
100
AcDbSymbolTable
 70
     6
  0
LAYER
  5
10
330
2
100
AcDbSymbolTableRecord
100
AcDbLayerTableRecord
  2
0
 70
     0
 62
     7
  6
Continuous
370
    -3
390
F
  0
LAYER
  5
98
330
2
100
AcDbSymbolTableRecord
100
AcDbLayerTableRecord
  2
Title Block
 70
     0
 62
     3
  6
Continuous
370
    -3
390
F
  0
LAYER
  5
99
330
2
100
AcDbSymbolTableRecord
100
AcDbLayerTableRecord
  2
Dimension
 70
     0
 62
     6
  6
Continuous
370
    -3
390
F
  0
LAYER
  5
9A
330
2
100
AcDbSymbolTableRecord
100
AcDbLayerTableRecord
  2
Text
 70
     0
 62
     1
  6
Continuous
370
    -3
390
F
  0
LAYER
  5
9B
330
2
100
AcDbSymbolTableRecord
100
AcDbLayerTableRecord
  2
Object
 70
     0
 62
     5
  6
Continuous
370
    -3
390
F
  0
LAYER
  5
9D
330
2
100
AcDbSymbolTableRecord
100
AcDbLayerTableRecord
  2
Defpoints
 70
     0
 62
     7
  6
Continuous
290
     0
370
    -3
390
F
  0
ENDTAB
  0
TABLE
  2
STYLE
  5
3
330
0
100
AcDbSymbolTable
 70
     1
  0
STYLE
  5
11
330
3
100
AcDbSymbolTableRecord
100
AcDbTextStyleTableRecord
  2
Standard
 70
     0
 40
0.0
 41
1.0
 50
0.0
 71
     0
 42
0.09
  3
technic_.ttf
  4

1001
ACAD
1000
Technic
1071
      514
  0
ENDTAB
  0
TABLE
  2
VIEW
  5
6
330
0
100
AcDbSymbolTable
 70
     0
  0
ENDTAB
  0
TABLE
  2
UCS
  5
7
330
0
100
AcDbSymbolTable
 70
     0
  0
ENDTAB
  0
TABLE
  2
APPID
  5
9
330
0
100
AcDbSymbolTable
 70
     4
  0
APPID
  5
12
330
9
100
AcDbSymbolTableRecord
100
AcDbRegAppTableRecord
  2
ACAD
 70
     0
  0
APPID
  5
9E
330
9
100
AcDbSymbolTableRecord
100
AcDbRegAppTableRecord
  2
DCO15
 70
     0
  0
APPID
  5
9F
330
9
100
AcDbSymbolTableRecord
100
AcDbRegAppTableRecord
  2
AcAecLayerStandard
 70
     0
  0
APPID
  5
A0
330
9
100
AcDbSymbolTableRecord
100
AcDbRegAppTableRecord
  2
ACAD_DSTYLE_DIMTEXT_FILL
 70
     0
  0
ENDTAB
  0
TABLE
  2
DIMSTYLE
  5
A
330
0
100
AcDbSymbolTable
 70
     1
100
AcDbDimStyleTable
 71
     1
340
27
  0
DIMSTYLE
105
27
102
{ACAD_REACTORS
330
135
330
513
330
52E
102
}
330
A
100
AcDbSymbolTableRecord
100
AcDbDimStyleTableRecord
  2
Standard
 70
     0
  4
mm
 41
0.125
 44
0.125
140
0.09
170
     1
171
     1
271
     2
272
     2
274
     1
340
11
  0
ENDTAB
  0
TABLE
  2
BLOCK_RECORD
  5
1
330
0
100
AcDbSymbolTable
 70
     4
  0
BLOCK_RECORD
  5
1F
102
{ACAD_XDICTIONARY
360
148
102
}
330
1
100
AcDbSymbolTableRecord
100
AcDbBlockTableRecord
  2
*Model_Space
340
22
  0
BLOCK_RECORD
  5
58
330
1
100
AcDbSymbolTableRecord
100
AcDbBlockTableRecord
  2
*Paper_Space
340
59
  0
BLOCK_RECORD
  5
5D
330
1
100
AcDbSymbolTableRecord
100
AcDbBlockTableRecord
  2
*Paper_Space0
340
5E
  0
BLOCK_RECORD
  5
13B
330
1
100
AcDbSymbolTableRecord
100
AcDbBlockTableRecord
  2
*D1
340
0
  0
BLOCK_RECORD
  5
514
330
1
100
AcDbSymbolTableRecord
100
AcDbBlockTableRecord
  2
*D2
340
0
  0
BLOCK_RECORD
  5
52F
330
1
100
AcDbSymbolTableRecord
100
AcDbBlockTableRecord
  2
*D3
340
0
  0
ENDTAB
  0
ENDSEC
  0
SECTION
  2
BLOCKS
  0
BLOCK
  5
20
330
1F
100
AcDbEntity
  8
0
100
AcDbBlockBegin
  2
*Model_Space
 70
     0
 10
0.0
 20
0.0
 30
0.0
  3
*Model_Space
  1

  0
ENDBLK
  5
21
330
1F
100
AcDbEntity
  8
0
100
AcDbBlockEnd
  0
BLOCK
  5
5A
330
58
100
AcDbEntity
 67
     1
  8
0
100
AcDbBlockBegin
  2
*Paper_Space
 70
     0
 10
0.0
 20
0.0
 30
0.0
  3
*Paper_Space
  1

  0
ENDBLK
  5
5B
330
58
100
AcDbEntity
 67
     1
  8
0
100
AcDbBlockEnd
  0
BLOCK
  5
5F
330
5D
100
AcDbEntity
  8
0
100
AcDbBlockBegin
  2
*Paper_Space0
 70
     0
 10
0.0
 20
0.0
 30
0.0
  3
*Paper_Space0
  1

  0
ENDBLK
  5
60
330
5D
100
AcDbEntity
  8
0
100
AcDbBlockEnd
  0
BLOCK
  5
146
330
13B
100
AcDbEntity
  8
0
100
AcDbBlockBegin
  2
*D1
 70
     1
 10
0.0
 20
0.0
 30
0.0
  3
*D1
  1

  0
LINE
  5
567
330
13B
100
AcDbEntity
  8
Dimension
 62
     0
370
    -2
100
AcDbLine
 10
8.123957890809009
 20
8.025402550944544
 30
0.0
 11
9.380633383436739
 21
8.025402550944544
 31
0.0
  0
LINE
  5
568
330
13B
100
AcDbEntity
  8
Dimension
 62
     0
370
    -2
100
AcDbLine
 10
8.123957890809009
 20
9.275402550944544
 30
0.0
 11
9.380633383436739
 21
9.275402550944544
 31
0.0
  0
LINE
  5
569
330
13B
100
AcDbEntity
  8
Dimension
 62
     0
370
    -2
100
AcDbLine
 10
9.255633383436739
 20
8.150402550944544
 30
0.0
 11
9.255633383436739
 21
8.497376235155071
 31
0.0
  0
LINE
  5
56A
330
13B
100
AcDbEntity
  8
Dimension
 62
     0
370
    -2
100
AcDbLine
 10
9.255633383436739
 20
9.150402550944544
 30
0.0
 11
9.255633383436739
 21
8.803428866734018
 31
0.0
  0
SOLID
  5
56B
330
13B
100
AcDbEntity
  8
Dimension
 62
     0
100
AcDbTrace
 10
9.234800050103405
 20
8.150402550944544
 30
0.0
 11
9.276466716770073
 21
8.150402550944544
 31
0.0
 12
9.255633383436739
 22
8.025402550944544
 32
0.0
 13
9.255633383436739
 23
8.025402550944544
 33
0.0
  0
SOLID
  5
56C
330
13B
100
AcDbEntity
  8
Dimension
 62
     0
100
AcDbTrace
 10
9.234800050103405
 20
9.150402550944544
 30
0.0
 11
9.276466716770073
 21
9.150402550944544
 31
0.0
 12
9.255633383436739
 22
9.275402550944544
 32
0.0
 13
9.255633383436739
 23
9.275402550944544
 33
0.0
  0
MTEXT
  5
56D
330
13B
100
AcDbEntity
  8
Dimension
 62
     0
100
AcDbMText
 10
9.255633383436737
 20
8.650402550944546
 30
0.0
 40
0.09
 41
0.0
 71
     5
 72
     1
  1
\A1;1.25 [31.8mm]
 73
     1
 44
1.0
1001
ACAD
1000
MTEXTBEGIN
1070
    73
1070
     1
1070
    44
1040
1.0
1070
    74
1070
     0
1000
MTEXTEND
  0
POINT
  5
56E
330
13B
100
AcDbEntity
  8
Defpoints
 62
     0
100
AcDbPoint
 10
8.061457890809009
 20
8.025402550944544
 30
0.0
  0
POINT
  5
56F
330
13B
100
AcDbEntity
  8
Defpoints
 62
     0
100
AcDbPoint
 10
8.061457890809009
 20
9.275402550944544
 30
0.0
  0
POINT
  5
570
330
13B
100
AcDbEntity
  8
Defpoints
 62
     0
100
AcDbPoint
 10
9.255633383436739
 20
9.275402550944544
 30
0.0
  0
ENDBLK
  5
147
330
13B
100
AcDbEntity
  8
0
100
AcDbBlockEnd
  0
BLOCK
  5
51F
330
514
100
AcDbEntity
  8
0
100
AcDbBlockBegin
  2
*D2
 70
     1
 10
0.0
 20
0.0
 30
0.0
  3
*D2
  1

  0
LINE
  5
5EF
330
514
100
AcDbEntity
  8
Dimension
 62
     0
370
    -2
100
AcDbLine
 10
2.248457890809008
 20
4.773902550944544
 30
0.0
 11
2.248457890809008
 21
5.427175706722188
 31
0.0
  0
LINE
  5
5F0
330
514
100
AcDbEntity
  8
Dimension
 62
     0
370
    -2
100
AcDbLine
 10
8.248457890809008
 20
4.773902550944544
 30
0.0
 11
8.248457890809008
 21
5.427175706722188
 31
0.0
  0
LINE
  5
5F1
330
514
100
AcDbEntity
  8
Dimension
 62
     0
370
    -2
100
AcDbLine
 10
2.373457890809008
 20
5.302175706722188
 30
0.0
 11
4.726747364493219
 21
5.302175706722188
 31
0.0
  0
LINE
  5
5F2
330
514
100
AcDbEntity
  8
Dimension
 62
     0
370
    -2
100
AcDbLine
 10
8.123457890809008
 20
5.302175706722188
 30
0.0
 11
5.770168417124798
 21
5.302175706722188
 31
0.0
  0
SOLID
  5
5F3
330
514
100
AcDbEntity
  8
Dimension
 62
     0
100
AcDbTrace
 10
2.373457890809008
 20
5.323009040055521
 30
0.0
 11
2.373457890809008
 21
5.281342373388855
 31
0.0
 12
2.248457890809008
 22
5.302175706722188
 32
0.0
 13
2.248457890809008
 23
5.302175706722188
 33
0.0
  0
SOLID
  5
5F4
330
514
100
AcDbEntity
  8
Dimension
 62
     0
100
AcDbTrace
 10
8.123457890809008
 20
5.323009040055521
 30
0.0
 11
8.123457890809008
 21
5.281342373388855
 31
0.0
 12
8.248457890809008
 22
5.302175706722188
 32
0.0
 13
8.248457890809008
 23
5.302175706722188
 33
0.0
  0
MTEXT
  5
5F5
330
514
100
AcDbEntity
  8
Dimension
 62
     0
100
AcDbMText
 10
5.248457890809008
 20
5.302175706722188
 30
0.0
 40
0.09
 41
0.0
 71
     5
 72
     1
  1
\A1;6.00 [152.4mm]
 73
     1
 44
1.0
1001
ACAD
1000
MTEXTBEGIN
1070
    73
1070
     1
1070
    44
1040
1.0
1070
    74
1070
     0
1000
MTEXTEND
  0
POINT
  5
5F6
330
514
100
AcDbEntity
  8
Defpoints
 62
     0
100
AcDbPoint
 10
2.248457890809008
 20
4.711402550944544
 30
0.0
  0
POINT
  5
5F7
330
514
100
AcDbEntity
  8
Defpoints
 62
     0
100
AcDbPoint
 10
8.248457890809008
 20
4.711402550944544
 30
0.0
  0
POINT
  5
5F8
330
514
100
AcDbEntity
  8
Defpoints
 62
     0
100
AcDbPoint
 10
8.248457890809008
 20
5.302175706722188
 30
0.0
  0
ENDBLK
  5
520
330
514
100
AcDbEntity
  8
0
100
AcDbBlockEnd
  0
BLOCK
  5
53B
330
52F
100
AcDbEntity
  8
0
100
AcDbBlockBegin
  2
*D3
 70
     1
 10
0.0
 20
0.0
 30
0.0
  3
*D3
  1

  0
LINE
  5
5F9
330
52F
100
AcDbEntity
  8
Dimension
 62
     0
370
    -2
100
AcDbLine
 10
12.81095789080901
 20
4.711402550944544
 30
0.0
 11
12.10075908568888
 21
4.711402550944544
 31
0.0
  0
LINE
  5
5FA
330
52F
100
AcDbEntity
  8
Dimension
 62
     0
370
    -2
100
AcDbLine
 10
12.81095789080901
 20
4.591402550944544
 30
0.0
 11
12.10075908568888
 21
4.591402550944544
 31
0.0
  0
LINE
  5
5FB
330
52F
100
AcDbEntity
  8
Dimension
 62
     0
370
    -2
100
AcDbLine
 10
12.22575908568888
 20
4.836402550944544
 30
0.0
 11
12.22575908568888
 21
4.961402550944544
 31
0.0
  0
LINE
  5
5FC
330
52F
100
AcDbEntity
  8
Dimension
 62
     0
370
    -2
100
AcDbLine
 10
12.22575908568888
 20
4.466402550944544
 30
0.0
 11
12.22575908568888
 21
4.341402550944544
 31
0.0
  0
LINE
  5
5FD
330
52F
100
AcDbEntity
  8
Dimension
 62
     0
370
    -2
100
AcDbLine
 10
12.22575908568888
 20
4.341402550944544
 30
0.0
 11
12.10075908568888
 21
4.341402550944544
 31
0.0
  0
SOLID
  5
5FE
330
52F
100
AcDbEntity
  8
Dimension
 62
     0
100
AcDbTrace
 10
12.20492575235555
 20
4.836402550944544
 30
0.0
 11
12.24659241902222
 21
4.836402550944544
 31
0.0
 12
12.22575908568888
 22
4.711402550944544
 32
0.0
 13
12.22575908568888
 23
4.711402550944544
 33
0.0
  0
SOLID
  5
5FF
330
52F
100
AcDbEntity
  8
Dimension
 62
     0
100
AcDbTrace
 10
12.20492575235555
 20
4.466402550944544
 30
0.0
 11
12.24659241902222
 21
4.466402550944544
 31
0.0
 12
12.22575908568888
 22
4.591402550944544
 32
0.0
 13
12.22575908568888
 23
4.591402550944544
 33
0.0
  0
MTEXT
  5
600
330
52F
100
AcDbEntity
  8
Dimension
 62
     0
100
AcDbMText
 10
11.65740382253099
 20
4.341402550944546
 30
0.0
 40
0.09
 41
0.0
 71
     5
 72
     1
  1
\A1;0.12 [3.0mm]
 73
     1
 44
1.0
1001
ACAD
1000
MTEXTBEGIN
1070
    73
1070
     1
1070
    44
1040
1.0
1070
    74
1070
     0
1000
MTEXTEND
  0
POINT
  5
601
330
52F
100
AcDbEntity
  8
Defpoints
 62
     0
100
AcDbPoint
 10
12.87345789080901
 20
4.711402550944544
 30
0.0
  0
POINT
  5
602
330
52F
100
AcDbEntity
  8
Defpoints
 62
     0
100
AcDbPoint
 10
12.87345789080901
 20
4.591402550944544
 30
0.0
  0
POINT
  5
603
330
52F
100
AcDbEntity
  8
Defpoints
 62
     0
100
AcDbPoint
 10
12.22575908568888
 20
4.591402550944544
 30
0.0
  0
ENDBLK
  5
53C
330
52F
100
AcDbEntity
  8
0
100
AcDbBlockEnd
  0
ENDSEC
  0
SECTION
  2
ENTITIES
  0
TEXT
  5
F1
330
1F
100
AcDbEntity
  8
Title Block
100
AcDbText
 10
12.77669501265555
 20
2.672489851525506
 30
0.0
 40
0.05
  1
FILENAME:
100
AcDbText
  0
TEXT
  5
F2
330
1F
100
AcDbEntity
  8
Title Block
100
AcDbText
 10
12.76928502872825
 20
2.076224967549324
 30
0.0
 40
0.35
  1
PANDUIT
100
AcDbText
  0
TEXT
  5
F3
330
1F
100
AcDbEntity
  8
Title Block
100
AcDbText
 10
14.72182039882138
 20
2.061410940562984
 30
0.0
 40
0.125
  1
CORP. TINLEY PARK, IL
100
AcDbText
  0
TEXT
  5
F4
330
1F
100
AcDbEntity
  8
Title Block
100
AcDbText
 10
12.78039997670862
 20
1.916974097093918
 30
0.0
 40
0.05
  1
TITLE:
100
AcDbText
  0
MTEXT
  5
F5
330
1F
100
AcDbEntity
  8
Title Block
100
AcDbMText
 10
14.0
 20
1.372215793536346
 30
0.0
 40
0.075
 41
2.5
 71
     5
 72
     5
  1
UNLESS OTHERWISE SPECIFIED,\PDIMENSIONAL TOLERANCES ARE:       
 73
     1
 44
1.0
1001
ACAD
1000
MTEXTBEGIN
1070
    73
1070
     1
1070
    44
1040
1.0
1070
    74
1070
     0
1000
MTEXTEND
  0
MTEXT
  5
F6
330
1F
100
AcDbEntity
  8
Title Block
100
AcDbMText
 10
13.39237986661002
 20
1.13148770848363
 30
0.0
 40
0.075
 41
2.5
 71
     5
 72
     5
  1
(.X)\P(.XX)
 73
     1
 44
1.0
1001
ACAD
1000
MTEXTBEGIN
1070
    73
1070
     1
1070
    44
1040
1.0
1070
    74
1070
     0
1000
MTEXTEND
  0
MTEXT
  5
F7
330
1F
100
AcDbEntity
  8
Title Block
100
AcDbMText
 10
14.40014005312412
 20
1.13148770848363
 30
0.0
 40
0.075
 41
2.5
 71
     5
 72
     5
  1
(.XXX)\PANGLES:
 73
     1
 44
1.0
1001
ACAD
1000
MTEXTBEGIN
1070
    73
1070
     1
1070
    44
1040
1.0
1070
    74
1070
     0
1000
MTEXTEND
  0
MTEXT
  5
F8
330
1F
100
AcDbEntity
  8
Title Block
100
AcDbMText
 10
16.0
 20
1.249999999999998
 30
0.0
 40
0.06
 41
1.5
 71
     5
 72
     5
  1
UNLESS OTHERWISE SPECIFIED,\PALL DIMENSIONS ARE GIVEN IN INCHES, THIRD ANGLE PROJECTION
 73
     1
 44
1.0
1001
ACAD
1000
MTEXTBEGIN
1070
    73
1070
     1
1070
    44
1040
1.0
1070
    74
1070
     0
1000
MTEXTEND
  0
TEXT
  5
F9
330
1F
100
AcDbEntity
  8
Title Block
100
AcDbText
 10
12.76076445430619
 20
0.9281373372752295
 30
0.0
 40
0.05
  1
DRAWN BY:
100
AcDbText
  0
TEXT
  5
FA
330
1F
100
AcDbEntity
  8
Title Block
100
AcDbText
 10
12.76446947418044
 20
0.681143186563501
 30
0.0
 40
0.05
  1
DATE:
100
AcDbText
  0
TEXT
  5
FB
330
1F
100
AcDbEntity
  8
Title Block
100
AcDbText
 10
12.7681744382335
 20
0.430445533831795
 30
0.0
 40
0.05
  1
CHECKED BY:
100
AcDbText
  0
TEXT
  5
FC
330
1F
100
AcDbEntity
  8
Title Block
100
AcDbText
 10
13.52028959313307
 20
0.9281373372752295
 30
0.0
 40
0.05
  1
MATERIAL:
100
AcDbText
  0
TEXT
  5
FD
330
1F
100
AcDbEntity
  8
Title Block
100
AcDbText
 10
15.26534493878154
 20
0.9281373372752295
 30
0.0
 40
0.05
  1
SCALE:
100
AcDbText
  0
TEXT
  5
FE
330
1F
100
AcDbEntity
  8
Title Block
100
AcDbText
 10
15.26534493878154
 20
0.6725952630489989
 30
0.0
 40
0.05
  1
DRAWING NUMBER:
100
AcDbText
  0
TEXT
  5
FF
330
1F
100
AcDbEntity
  8
Title Block
100
AcDbText
 10
16.34942622928998
 20
0.6762987650689798
 30
0.0
 40
0.05
  1
DRAWING
100
AcDbText
  0
TEXT
  5
100
330
1F
100
AcDbEntity
  8
Title Block
100
AcDbText
 10
16.42723125590086
 20
0.2811642688682008
 30
0.0
 40
0.05
  1
SIZE
100
AcDbText
  0
TEXT
  5
101
330
1F
100
AcDbEntity
  8
Title Block
100
AcDbText
 10
16.40622108086223
 20
0.3826699445861035
 30
0.0
 40
0.25
  1
B
100
AcDbText
  0
MTEXT
  5
102
330
1F
100
AcDbEntity
  8
Title Block
100
AcDbMText
 10
6.375000000000003
 20
0.3749999999999982
 30
0.0
 40
0.05
 41
0.25
 71
     5
 72
     5
  1
REV
 73
     1
 44
1.0
1001
ACAD
1000
MTEXTBEGIN
1070
    73
1070
     1
1070
    44
1040
1.0
1070
    74
1070
     0
1000
MTEXTEND
  0
MTEXT
  5
103
330
1F
100
AcDbEntity
  8
Title Block
100
AcDbMText
 10
6.750000000000003
 20
0.3749999999999982
 30
0.0
 40
0.05
 41
0.5
 71
     5
 72
     5
  1
DATE
 73
     1
 44
1.0
1001
ACAD
1000
MTEXTBEGIN
1070
    73
1070
     1
1070
    44
1040
1.0
1070
    74
1070
     0
1000
MTEXTEND
  0
MTEXT
  5
104
330
1F
100
AcDbEntity
  8
Title Block
100
AcDbMText
 10
7.190000000000003
 20
0.3749999999999982
 30
0.0
 40
0.05
 41
0.38
 71
     5
 72
     5
  1
BY
 73
     1
 44
1.0
1001
ACAD
1000
MTEXTBEGIN
1070
    73
1070
     1
1070
    44
1040
1.0
1070
    74
1070
     0
1000
MTEXTEND
  0
MTEXT
  5
105
330
1F
100
AcDbEntity
  8
Title Block
100
AcDbMText
 10
7.565000000000003
 20
0.3749999999999982
 30
0.0
 40
0.05
 41
0.38
 71
     5
 72
     5
  1
CHK
 73
     1
 44
1.0
1001
ACAD
1000
MTEXTBEGIN
1070
    73
1070
     1
1070
    44
1040
1.0
1070
    74
1070
     0
1000
MTEXTEND
  0
MTEXT
  5
106
330
1F
100
AcDbEntity
  8
Title Block
100
AcDbMText
 10
9.125000000000003
 20
0.3749999999999982
 30
0.0
 40
0.05
 41
2.75
 71
     5
 72
     5
  1
DESCRIPTION
 73
     1
 44
1.0
1001
ACAD
1000
MTEXTBEGIN
1070
    73
1070
     1
1070
    44
1040
1.0
1070
    74
1070
     0
1000
MTEXTEND
  0
MTEXT
  5
107
330
1F
100
AcDbEntity
  8
Title Block
100
AcDbMText
 10
11.065
 20
0.3749999999999982
 30
0.0
 40
0.05
 41
1.129999999999999
 71
     5
 72
     5
  1
ECN   -   R
 73
     1
 44
1.0
1001
ACAD
1000
MTEXTBEGIN
1070
    73
1070
     1
1070
    44
1040
1.0
1070
    74
1070
     0
1000
MTEXTEND
  0
MTEXT
  5
108
330
1F
100
AcDbEntity
  8
Title Block
100
AcDbMText
 10
11.815
 20
0.3749999999999982
 30
0.0
 40
0.05
 41
0.38
 71
     5
 72
     5
  1
CUST
 73
     1
 44
1.0
1001
ACAD
1000
MTEXTBEGIN
1070
    73
1070
     1
1070
    44
1040
1.0
1070
    74
1070
     0
1000
MTEXTEND
  0
MTEXT
  5
109
330
1F
100
AcDbEntity
  8
Title Block
100
AcDbMText
 10
12.19
 20
0.3749999999999982
 30
0.0
 40
0.05
 41
0.38
 71
     5
 72
     5
  1
SUP
 73
     1
 44
1.0
1001
ACAD
1000
MTEXTBEGIN
1070
    73
1070
     1
1070
    44
1040
1.0
1070
    74
1070
     0
1000
MTEXTEND
  0
LINE
  5
10A
330
1F
100
AcDbEntity
  8
Title Block
100
AcDbLine
 10
16.75
 20
2.749999999999997
 30
0.0
 11
6.250000000000003
 21
2.749999999999999
 31
0.0
  0
LINE
  5
10B
330
1F
100
AcDbEntity
  8
Title Block
100
AcDbLine
 10
12.75
 20
2.749999999999998
 30
0.0
 11
12.75
 21
0.2499999999999982
 31
0.0
  0
LINE
  5
10C
330
1F
100
AcDbEntity
  8
Title Block
100
AcDbLine
 10
16.75
 20
2.499999999999997
 30
0.0
 11
6.250000000000003
 21
2.499999999999999
 31
0.0
  0
LINE
  5
10D
330
1F
100
AcDbEntity
  8
Title Block
100
AcDbLine
 10
12.75
 20
2.249999999999998
 30
0.0
 11
6.250000000000003
 21
2.249999999999999
 31
0.0
  0
LINE
  5
10E
330
1F
100
AcDbEntity
  8
Title Block
100
AcDbLine
 10
16.75
 20
1.999999999999997
 30
0.0
 11
6.250000000000003
 21
1.999999999999999
 31
0.0
  0
LINE
  5
10F
330
1F
100
AcDbEntity
  8
Title Block
100
AcDbLine
 10
12.75
 20
1.749999999999998
 30
0.0
 11
6.250000000000003
 21
1.749999999999999
 31
0.0
  0
LINE
  5
110
330
1F
100
AcDbEntity
  8
Title Block
100
AcDbLine
 10
16.75
 20
1.499999999999997
 30
0.0
 11
6.250000000000003
 21
1.499999999999999
 31
0.0
  0
LINE
  5
111
330
1F
100
AcDbEntity
  8
Title Block
100
AcDbLine
 10
12.75
 20
1.249999999999998
 30
0.0
 11
6.250000000000003
 21
1.249999999999999
 31
0.0
  0
LINE
  5
112
330
1F
100
AcDbEntity
  8
Title Block
100
AcDbLine
 10
16.75
 20
0.9999999999999978
 30
0.0
 11
6.250000000000003
 21
0.9999999999999991
 31
0.0
  0
LINE
  5
113
330
1F
100
AcDbEntity
  8
Title Block
100
AcDbLine
 10
13.5
 20
0.7499999999999983
 30
0.0
 11
6.250000000000003
 21
0.7499999999999992
 31
0.0
  0
LINE
  5
114
330
1F
100
AcDbEntity
  8
Title Block
100
AcDbLine
 10
13.5
 20
0.4999999999999983
 30
0.0
 11
6.250000000000003
 21
0.4999999999999992
 31
0.0
  0
LINE
  5
115
330
1F
100
AcDbEntity
  8
Title Block
100
AcDbLine
 10
6.250000000000003
 20
0.2499999999999982
 30
0.0
 11
6.250000000000003
 21
2.749999999999999
 31
0.0
  0
LINE
  5
116
330
1F
100
AcDbEntity
  8
Title Block
100
AcDbLine
 10
6.500000000000003
 20
0.2499999999999982
 30
0.0
 11
6.500000000000003
 21
2.75
 31
0.0
  0
LINE
  5
117
330
1F
100
AcDbEntity
  8
Title Block
100
AcDbLine
 10
7.000000000000003
 20
0.2499999999999982
 30
0.0
 11
7.000000000000003
 21
2.75
 31
0.0
  0
LINE
  5
118
330
1F
100
AcDbEntity
  8
Title Block
100
AcDbLine
 10
7.375000000000003
 20
0.2499999999999982
 30
0.0
 11
7.375000000000003
 21
2.75
 31
0.0
  0
LINE
  5
119
330
1F
100
AcDbEntity
  8
Title Block
100
AcDbLine
 10
7.750000000000003
 20
0.2499999999999982
 30
0.0
 11
7.750000000000003
 21
2.75
 31
0.0
  0
LINE
  5
11A
330
1F
100
AcDbEntity
  8
Title Block
100
AcDbLine
 10
12.375
 20
2.749999999999998
 30
0.0
 11
12.375
 21
0.2499999999999982
 31
0.0
  0
LINE
  5
11B
330
1F
100
AcDbEntity
  8
Title Block
100
AcDbLine
 10
12.0
 20
2.749999999999998
 30
0.0
 11
12.0
 21
0.2499999999999982
 31
0.0
  0
LINE
  5
11C
330
1F
100
AcDbEntity
  8
Title Block
100
AcDbLine
 10
11.625
 20
2.749999999999998
 30
0.0
 11
11.625
 21
0.2499999999999982
 31
0.0
  0
LINE
  5
11D
330
1F
100
AcDbEntity
  8
Title Block
100
AcDbLine
 10
11.25
 20
2.749999999999998
 30
0.0
 11
11.25
 21
0.4999999999999984
 31
0.0
  0
LINE
  5
11E
330
1F
100
AcDbEntity
  8
Title Block
100
AcDbLine
 10
10.5
 20
2.749999999999998
 30
0.0
 11
10.5
 21
0.2499999999999982
 31
0.0
  0
LINE
  5
11F
330
1F
100
AcDbEntity
  8
Title Block
100
AcDbLine
 10
15.25
 20
0.7499999999999983
 30
0.0
 11
15.25
 21
1.499999999999997
 31
0.0
  0
LINE
  5
120
330
1F
100
AcDbEntity
  8
Title Block
100
AcDbLine
 10
15.25
 20
0.7499999999999983
 30
0.0
 11
15.25
 21
0.2499999999999982
 31
0.0
  0
LINE
  5
121
330
1F
100
AcDbEntity
  8
Title Block
100
AcDbLine
 10
15.25
 20
0.7499999999999983
 30
0.0
 11
16.75
 21
0.7499999999999983
 31
0.0
  0
LINE
  5
122
330
1F
100
AcDbEntity
  8
Title Block
100
AcDbLine
 10
13.5
 20
0.4999999999999983
 30
0.0
 11
13.5
 21
0.2499999999999982
 31
0.0
  0
LINE
  5
123
330
1F
100
AcDbEntity
  8
Title Block
100
AcDbLine
 10
13.5
 20
0.4999999999999983
 30
0.0
 11
13.5
 21
0.9999999999999982
 31
0.0
  0
LINE
  5
124
330
1F
100
AcDbEntity
  8
Title Block
100
AcDbLine
 10
16.25
 20
0.7499999999999983
 30
0.0
 11
16.25
 21
0.2499999999999982
 31
0.0
  0
LWPOLYLINE
  5
125
330
1F
100
AcDbEntity
  8
Title Block
100
AcDbPolyline
 90
        5
 70
     0
 43
0.01
 10
16.75
 20
0.2499999999999982
 10
16.75
 20
10.75
 10
0.2500000000000035
 20
10.75
 10
0.25
 20
0.25
 10
16.75
 20
0.2499999999999982
  0
POINT
  5
126
330
1F
100
AcDbEntity
  8
Title Block
100
AcDbPoint
 10
17.0
 20
-0.0000000000000018
 30
0.0
  0
POINT
  5
127
330
1F
100
AcDbEntity
  8
Title Block
100
AcDbPoint
 10
0.0
 20
0.0
 30
0.0
  0
POINT
  5
128
330
1F
100
AcDbEntity
  8
Title Block
100
AcDbPoint
 10
0.0000000000000036
 20
11.0
 30
0.0
  0
POINT
  5
129
330
1F
100
AcDbEntity
  8
Title Block
100
AcDbPoint
 10
17.0
 20
11.0
 30
0.0
  0
MTEXT
  5
12A
330
1F
100
AcDbEntity
  8
Text
100
AcDbMText
 10
6.376628153647693
 20
0.6232951697642469
 30
0.0
 40
0.09
 41
0.25
 71
     5
 72
     5
  1
R
 73
     1
 44
1.0
1001
ACAD
1000
MTEXTBEGIN
1070
    73
1070
     1
1070
    44
1040
1.0
1070
    74
1070
     0
1000
MTEXTEND
  0
MTEXT
  5
12B
330
1F
100
AcDbEntity
  8
Text
100
AcDbMText
 10
6.751628153647693
 20
0.6232951697642469
 30
0.0
 40
0.07
 41
0.5
 71
     5
 72
     5
  1
1-10-01
 73
     1
 44
1.0
1001
ACAD
1000
MTEXTBEGIN
1070
    73
1070
     1
1070
    44
1040
1.0
1070
    74
1070
     0
1000
MTEXTEND
  0
MTEXT
  5
12C
330
1F
100
AcDbEntity
  8
Text
100
AcDbMText
 10
7.189128153647693
 20
0.6232951697642469
 30
0.0
 40
0.09
 41
0.375
 71
     5
 72
     5
  1
MSO
 73
     1
 44
1.0
1001
ACAD
1000
MTEXTBEGIN
1070
    73
1070
     1
1070
    44
1040
1.0
1070
    74
1070
     0
1000
MTEXTEND
  0
MTEXT
  5
12D
330
1F
100
AcDbEntity
  8
Text
100
AcDbMText
 10
9.126628153647693
 20
0.6232951697642464
 30
0.0
 40
0.09
 41
2.75
 71
     5
 72
     5
  1
DRAWING RELEASED
 73
     1
 44
1.0
1001
ACAD
1000
MTEXTBEGIN
1070
    73
1070
     1
1070
    44
1040
1.0
1070
    74
1070
     0
1000
MTEXTEND
  0
MTEXT
  5
12E
330
1F
100
AcDbEntity
  8
Text
100
AcDbMText
 10
13.47662815364769
 20
0.8482951697642459
 30
0.0
 40
0.09
 41
0.75
 71
     6
 72
     5
  1
MSO
 73
     1
 44
1.0
1001
ACAD
1000
MTEXTBEGIN
1070
    73
1070
     1
1070
    44
1040
1.0
1070
    74
1070
     0
1000
MTEXTEND
  0
MTEXT
  5
12F
330
1F
100
AcDbEntity
  8
Text
100
AcDbMText
 10
13.47662815364769
 20
0.5982951697642458
 30
0.0
 40
0.09
 41
0.75
 71
     6
 72
     5
  1
1-10-01
 73
     1
 44
1.0
1001
ACAD
1000
MTEXTBEGIN
1070
    73
1070
     1
1070
    44
1040
1.0
1070
    74
1070
     0
1000
MTEXTEND
  0
MTEXT
  5
130
330
1F
100
AcDbEntity
  8
Text
100
AcDbMText
 10
13.47662815364769
 20
0.348295169764246
 30
0.0
 40
0.09
 41
0.75
 71
     6
 72
     5
  1
HIW
 73
     1
 44
1.0
1001
ACAD
1000
MTEXTBEGIN
1070
    73
1070
     1
1070
    44
1040
1.0
1070
    74
1070
     0
1000
MTEXTEND
  0
MTEXT
  5
131
330
1F
100
AcDbEntity
  8
Text
100
AcDbMText
 10
14.75162815364769
 20
2.623295169764245
 30
0.0
 40
0.09
 41
4.0
 71
     5
 72
     5
  1
FTRBN58.dwg
 73
     1
 44
1.0
1001
ACAD
1000
MTEXTBEGIN
1070
    73
1070
     1
1070
    44
1040
1.0
1070
    74
1070
     0
1000
MTEXTEND
  0
MTEXT
  5
132
330
1F
100
AcDbEntity
  8
Text
100
AcDbMText
 10
14.75162815364769
 20
1.748295169764245
 30
0.0
 40
0.09
 41
4.0
 71
     5
 72
     5
  1
FIBER-DUCT 2x2, 4x4 AND FIBERRUNNER 2x2 NEW\PTHREADED ROD BRACKET - {\H0.7x;\S5#8;}" THREADED ROD (FTRBN58)\PMARKETING DRAWING
 73
     1
 44
1.0
1001
ACAD
1000
MTEXTBEGIN
1070
    73
1070
     1
1070
    44
1040
1.0
1070
    74
1070
     1
1000
MTEXTEND
  0
MTEXT
  5
133
330
1F
100
AcDbEntity
  8
Text
100
AcDbMText
 10
16.00162815364769
 20
0.8732951697642457
 30
0.0
 40
0.12
 41
1.5
 71
     5
 72
     5
  1
FULL
 73
     1
 44
1.0
1001
ACAD
1000
MTEXTBEGIN
1070
    73
1070
     1
1070
    44
1040
1.0
1070
    74
1070
     0
1000
MTEXTEND
  0
MTEXT
  5
134
330
1F
100
AcDbEntity
  8
Text
100
AcDbMText
 10
15.75162815364769
 20
0.498295169764246
 30
0.0
 40
0.12
 41
1.0
 71
     5
 72
     5
  1
36897-648
 73
     1
 44
1.0
1001
ACAD
1000
MTEXTBEGIN
1070
    73
1070
     1
1070
    44
1040
1.0
1070
    74
1070
     0
1000
MTEXTEND
  0
DIMENSION
  5
135
330
1F
100
AcDbEntity
  8
Dimension
100
AcDbDimension
  2
*D1
 10
9.255633383436739
 20
9.275402550944544
 30
0.0
 11
9.255633383436737
 21
8.650402550944546
 31
0.0
 70
   160
 71
     5
 42
1.25
  3
Standard
100
AcDbAlignedDimension
 13
8.061457890809009
 23
8.025402550944544
 33
0.0
 14
8.061457890809009
 24
9.275402550944544
 34
0.0
 50
90.0
100
AcDbRotatedDimension
  0
MTEXT
  5
136
330
1F
100
AcDbEntity
  8
Text
100
AcDbMText
 10
11.77512911207421
 20
10.41196922660284
 30
0.0
 40
0.09
 41
4.638480538969798
 71
     1
 72
     5
  3
{\LNOTES:}\P\P1. THE FIBER-DUCT 2x2, 4x4 AND FIBERRUNNER 2x2 NEW THREADED\P   ROD BRACKET - {\H0.7x;\S5#8;}"THREADED ROD INCLUDES:\P\P   ONE (1) BRACKET,\P   TWO (2) {\H0.7x;\S5#8;}-11 HEAVY HEX NUTS,\P   TWO (2) {\H0.7x;\S5#8;}" HELICAL SPRING LOCKW
  1
ASHERS,\P   TWO (2) #10-32x{\H0.6878x;\S1#2;} PAN HEAD SLOTTED MACHINE SCREWS,\P   TWO (2) #10-32 HEX MACHINE SCREW NUTS,\P   TWO (2) #10 HELICAL SPRING LOCKWASHERS.
 73
     1
 44
1.0
1001
ACAD
1000
MTEXTBEGIN
1070
    73
1070
     1
1070
    44
1040
1.0
1070
    74
1070
     1
1000
MTEXTEND
  0
TEXT
  5
137
330
1F
100
AcDbEntity
  8
Text
100
AcDbText
 10
4.807474747644974
 20
7.554801452870695
 30
0.0
 40
0.125
  1
TOP VIEW
100
AcDbText
  0
TEXT
  5
138
330
1F
100
AcDbEntity
  8
Text
100
AcDbText
 10
4.689144336381559
 20
4.089356915928439
 30
0.0
 40
0.125
  1
FRONT VIEW
100
AcDbText
  0
TEXT
  5
139
330
1F
100
AcDbEntity
  8
Text
100
AcDbText
 10
12.7829968661567
 20
4.090140694983719
 30
0.0
 40
0.125
  1
RIGHT SIDE VIEW
100
AcDbText
  0
MTEXT
  5
13A
330
1F
100
AcDbEntity
  8
Text
100
AcDbMText
 10
7.560400281422712
 20
0.6262490740326632
 30
0.0
 40
0.09
 41
0.375
 71
     5
 72
     5
  1
HIW
 73
     1
 44
1.0
1001
ACAD
1000
MTEXTBEGIN
1070
    73
1070
     1
1070
    44
1040
1.0
1070
    74
1070
     0
1000
MTEXTEND
  0
DIMENSION
  5
513
330
1F
100
AcDbEntity
  8
Dimension
100
AcDbDimension
  2
*D2
 10
8.248457890809008
 20
5.302175706722188
 30
0.0
 11
5.248457890809008
 21
5.302175706722188
 31
0.0
 70
    32
 71
     5
 42
6.0
  3
Standard
100
AcDbAlignedDimension
 13
2.248457890809008
 23
4.711402550944544
 33
0.0
 14
8.248457890809008
 24
4.711402550944544
 34
0.0
100
AcDbRotatedDimension
  0
DIMENSION
  5
52E
330
1F
100
AcDbEntity
  8
Dimension
100
AcDbDimension
  2
*D3
 10
12.22575908568888
 20
4.591402550944544
 30
0.0
 11
11.65740382253099
 21
4.341402550944546
 31
0.0
 70
    32
 71
     5
 42
0.1200000000000001
  3
Standard
100
AcDbAlignedDimension
 13
12.87345789080901
 23
4.711402550944544
 33
0.0
 14
12.87345789080901
 24
4.591402550944544
 34
0.0
 50
90.0
100
AcDbRotatedDimension
  0
MTEXT
  5
591
330
1F
100
AcDbEntity
  8
Text
100
AcDbMText
 10
6.376628153647693
 20
0.8732951697642468
 30
0.0
 40
0.09
 41
0.25
 71
     5
 72
     5
  1
1
 73
     1
 44
1.0
1001
ACAD
1000
MTEXTBEGIN
1070
    73
1070
     1
1070
    44
1040
1.0
1070
    74
1070
     0
1000
MTEXTEND
  0
MTEXT
  5
592
330
1F
100
AcDbEntity
  8
Text
100
AcDbMText
 10
6.751628153647693
 20
0.8732951697642468
 30
0.0
 40
0.07
 41
0.5
 71
     5
 72
     5
  1
1-17-07
 73
     1
 44
1.0
1001
ACAD
1000
MTEXTBEGIN
1070
    73
1070
     1
1070
    44
1040
1.0
1070
    74
1070
     0
1000
MTEXTEND
  0
MTEXT
  5
593
330
1F
100
AcDbEntity
  8
Text
100
AcDbMText
 10
7.189128153647693
 20
0.8732951697642468
 30
0.0
 40
0.09
 41
0.375
 71
     5
 72
     5
  1
MSO
 73
     1
 44
1.0
1001
ACAD
1000
MTEXTBEGIN
1070
    73
1070
     1
1070
    44
1040
1.0
1070
    74
1070
     0
1000
MTEXTEND
  0
MTEXT
  5
594
330
1F
100
AcDbEntity
  8
Text
100
AcDbMText
 10
7.776628153647694
 20
0.8732951697642462
 30
0.0
 40
0.07
 41
2.75
 71
     4
 72
     5
  1
B. REVISED DRAWING SIZE; WAS A-SIZE.\PA. REVISED DRAWING TITLE.
 73
     1
 44
1.0
1001
ACAD
1000
MTEXTBEGIN
1070
    73
1070
     1
1070
    44
1040
1.0
1070
    74
1070
     0
1000
MTEXTEND
  0
MTEXT
  5
595
330
1F
100
AcDbEntity
  8
Text
100
AcDbMText
 10
7.560400281422712
 20
0.8762490740326631
 30
0.0
 40
0.07
 41
0.375
 71
     5
 72
     5
  1
DJWA
 73
     1
 44
1.0
1001
ACAD
1000
MTEXTBEGIN
1070
    73
1070
     1
1070
    44
1040
1.0
1070
    74
1070
     0
1000
MTEXTEND
  0
MTEXT
  5
596
330
1F
100
AcDbEntity
  8
Text
100
AcDbMText
 10
6.376628153647693
 20
1.123295169764246
 30
0.0
 40
0.09
 41
0.25
 71
     5
 72
     5
  1
-
 73
     1
 44
1.0
1001
ACAD
1000
MTEXTBEGIN
1070
    73
1070
     1
1070
    44
1040
1.0
1070
    74
1070
     0
1000
MTEXTEND
  0
MTEXT
  5
597
330
1F
100
AcDbEntity
  8
Text
100
AcDbMText
 10
6.751628153647693
 20
1.123295169764246
 30
0.0
 40
0.07
 41
0.5
 71
     5
 72
     5
  1
--------
 73
     1
 44
1.0
1001
ACAD
1000
MTEXTBEGIN
1070
    73
1070
     1
1070
    44
1040
1.0
1070
    74
1070
     0
1000
MTEXTEND
  0
MTEXT
  5
598
330
1F
100
AcDbEntity
  8
Text
100
AcDbMText
 10
7.189128153647693
 20
1.123295169764246
 30
0.0
 40
0.09
 41
0.375
 71
     5
 72
     5
  1
---
 73
     1
 44
1.0
1001
ACAD
1000
MTEXTBEGIN
1070
    73
1070
     1
1070
    44
1040
1.0
1070
    74
1070
     0
1000
MTEXTEND
  0
MTEXT
  5
599
330
1F
100
AcDbEntity
  8
Text
100
AcDbMText
 10
7.776628153647694
 20
1.123295169764246
 30
0.0
 40
0.07
 41
2.75
 71
     4
 72
     5
  1
D. ADDED GENERAL NOTES.\PC. REVISED PART GEOMETRY.
 73
     1
 44
1.0
1001
ACAD
1000
MTEXTBEGIN
1070
    73
1070
     1
1070
    44
1040
1.0
1070
    74
1070
     0
1000
MTEXTEND
  0
MTEXT
  5
59A
330
1F
100
AcDbEntity
  8
Text
100
AcDbMText
 10
7.560400281422712
 20
1.126249074032663
 30
0.0
 40
0.07
 41
0.375
 71
     5
 72
     5
  1
----
 73
     1
 44
1.0
1001
ACAD
1000
MTEXTBEGIN
1070
    73
1070
     1
1070
    44
1040
1.0
1070
    74
1070
     0
1000
MTEXTEND
  0
LINE
  5
59F
330
1F
100
AcDbEntity
  8
Text
100
AcDbLine
 10
12.76412685299815
 20
1.514121171150497
 30
0.0
 11
13.06412685299816
 21
1.514121171150497
 31
0.0
  0
LINE
  5
5A0
330
1F
100
AcDbEntity
  8
Text
100
AcDbLine
 10
13.06412685299816
 20
1.514121171150497
 30
0.0
 11
12.91412685299816
 21
1.773928792285826
 31
0.0
  0
LINE
  5
5A1
330
1F
100
AcDbEntity
  8
Text
100
AcDbLine
 10
12.76412685299816
 20
1.514121171150497
 30
0.0
 11
12.91412685299816
 21
1.773928792285826
 31
0.0
  0
TEXT
  5
5A2
330
1F
100
AcDbEntity
  8
Text
100
AcDbText
 10
12.87369334007948
 20
1.564971197873321
 30
0.0
 40
0.09
  1
A
100
AcDbText
  0
LINE
  5
5AD
330
1F
100
AcDbEntity
  8
Text
100
AcDbLine
 10
16.35238419666863
 20
0.7575752289807181
 30
0.0
 11
16.65238419666863
 21
0.7575752289807181
 31
0.0
  0
LINE
  5
5AE
330
1F
100
AcDbEntity
  8
Text
100
AcDbLine
 10
16.65238419666863
 20
0.7575752289807181
 30
0.0
 11
16.50238419666863
 21
1.017382850116046
 31
0.0
  0
LINE
  5
5AF
330
1F
100
AcDbEntity
  8
Text
100
AcDbLine
 10
16.35238419666863
 20
0.7575752289807181
 30
0.0
 11
16.50238419666863
 21
1.017382850116046
 31
0.0
  0
TEXT
  5
5B0
330
1F
100
AcDbEntity
  8
Text
100
AcDbText
 10
16.46195068374995
 20
0.8084252557035416
 30
0.0
 40
0.09
  1
B
100
AcDbText
  0
LINE
  5
5B5
330
1F
100
AcDbEntity
  8
Text
100
AcDbLine
 10
12.47340333204193
 20
4.02918526214623
 30
0.0
 11
12.77340333204193
 21
4.02918526214623
 31
0.0
  0
LINE
  5
5B6
330
1F
100
AcDbEntity
  8
Text
100
AcDbLine
 10
12.77340333204193
 20
4.02918526214623
 30
0.0
 11
12.62340333204193
 21
4.288992883281558
 31
0.0
  0
LINE
  5
5B7
330
1F
100
AcDbEntity
  8
Text
100
AcDbLine
 10
12.47340333204193
 20
4.02918526214623
 30
0.0
 11
12.62340333204193
 21
4.288992883281558
 31
0.0
  0
TEXT
  5
5B8
330
1F
100
AcDbEntity
  8
Text
100
AcDbText
 10
12.58296981912325
 20
4.080035288869053
 30
0.0
 40
0.09
  1
C
100
AcDbText
  0
LINE
  5
5BC
330
1F
100
AcDbEntity
  8
Text
100
AcDbLine
 10
4.511292592183441
 20
7.484731629032802
 30
0.0
 11
4.811292592183441
 21
7.484731629032802
 31
0.0
  0
LINE
  5
5BD
330
1F
100
AcDbEntity
  8
Text
100
AcDbLine
 10
4.811292592183441
 20
7.484731629032802
 30
0.0
 11
4.661292592183443
 21
7.744539250168131
 31
0.0
  0
LINE
  5
5BE
330
1F
100
AcDbEntity
  8
Text
100
AcDbLine
 10
4.511292592183444
 20
7.484731629032802
 30
0.0
 11
4.661292592183443
 21
7.744539250168131
 31
0.0
  0
TEXT
  5
5BF
330
1F
100
AcDbEntity
  8
Text
100
AcDbText
 10
4.620859079264764
 20
7.535581655755626
 30
0.0
 40
0.09
  1
C
100
AcDbText
  0
LINE
  5
5C2
330
1F
100
AcDbEntity
  8
Text
100
AcDbLine
 10
4.379224331223941
 20
4.0348262415808
 30
0.0
 11
4.679224331223942
 21
4.0348262415808
 31
0.0
  0
LINE
  5
5C3
330
1F
100
AcDbEntity
  8
Text
100
AcDbLine
 10
4.679224331223942
 20
4.0348262415808
 30
0.0
 11
4.529224331223943
 21
4.294633862716128
 31
0.0
  0
LINE
  5
5C4
330
1F
100
AcDbEntity
  8
Text
100
AcDbLine
 10
4.379224331223944
 20
4.0348262415808
 30
0.0
 11
4.529224331223943
 21
4.294633862716128
 31
0.0
  0
TEXT
  5
5C5
330
1F
100
AcDbEntity
  8
Text
100
AcDbText
 10
4.488790818305265
 20
4.085676268303624
 30
0.0
 40
0.09
  1
C
100
AcDbText
  0
LINE
  5
5C6
330
1F
100
AcDbEntity
  8
Text
100
AcDbLine
 10
11.44418185649823
 20
10.21964540177524
 30
0.0
 11
11.74418185649823
 21
10.21964540177524
 31
0.0
  0
LINE
  5
5C7
330
1F
100
AcDbEntity
  8
Text
100
AcDbLine
 10
11.74418185649823
 20
10.21964540177524
 30
0.0
 11
11.59418185649823
 21
10.47945302291057
 31
0.0
  0
LINE
  5
5C8
330
1F
100
AcDbEntity
  8
Text
100
AcDbLine
 10
11.44418185649823
 20
10.21964540177524
 30
0.0
 11
11.59418185649823
 21
10.47945302291057
 31
0.0
  0
TEXT
  5
5C9
330
1F
100
AcDbEntity
  8
Text
100
AcDbText
 10
11.56136567038726
 20
10.26723218780074
 30
0.0
 40
0.09
  1
D
100
AcDbText
  0
LEADER
  5
848
330
1F
100
AcDbEntity
  8
Dimension
100
AcDbLeader
  3
Standard
 73
     0
 40
0.1260526315789474
 41
1.053684210526315
 76
     3
 10
3.411457890809009
 20
8.933402550944546
 30
0.0
 10
3.882240790514551
 20
9.678289589777115
 30
0.0
 10
4.098136024709489
 20
9.678289589777115
 30
0.0
340
849
213
0.0
223
-0.045
233
0.0
1001
ACAD
1000
DSTYLE
1002
{
1070
   147
1040
0.09
1070
    77
1070
     0
1002
}
  0
MTEXT
  5
849
102
{ACAD_REACTORS
330
848
102
}
330
1F
100
AcDbEntity
  8
Dimension
100
AcDbMText
 10
4.188136024709489
 20
9.723289589777115
 30
0.0
 40
0.09
 41
0.0
 71
     1
 72
     1
  1
0.65 [16.5mm] DIA
 73
     1
 44
1.0
1001
ACAD
1000
MTEXTBEGIN
1070
    73
1070
     1
1070
    44
1040
1.0
1070
    74
1070
     0
1000
MTEXTEND
  0
LINE
  5
857
330
1F
100
AcDbEntity
  8
Object
100
AcDbLine
 10
14.12345789080901
 20
4.711402550944544
 30
0.0
 11
13.93645789080901
 21
4.711402550944544
 31
0.0
  0
LINE
  5
858
330
1F
100
AcDbEntity
  8
Object
100
AcDbLine
 10
13.93645789080901
 20
4.711402550944544
 30
0.0
 11
13.06045789080901
 21
4.711402550944544
 31
0.0
  0
LINE
  5
859
330
1F
100
AcDbEntity
  8
Object
100
AcDbLine
 10
13.06045789080901
 20
4.711402550944544
 30
0.0
 11
12.87345789080901
 21
4.711402550944544
 31
0.0
  0
LINE
  5
85A
330
1F
100
AcDbEntity
  8
Object
100
AcDbLine
 10
14.12345789080901
 20
4.591402550944544
 30
0.0
 11
14.12345789080901
 21
4.711402550944544
 31
0.0
  0
LINE
  5
85B
330
1F
100
AcDbEntity
  8
Object
100
AcDbLine
 10
12.87345789080901
 20
4.711402550944544
 30
0.0
 11
13.06045789080901
 21
4.711402550944544
 31
0.0
  0
LINE
  5
85C
330
1F
100
AcDbEntity
  8
Object
100
AcDbLine
 10
13.06045789080901
 20
4.711402550944544
 30
0.0
 11
13.06045789080901
 21
4.591402550944544
 31
0.0
  0
LINE
  5
85D
330
1F
100
AcDbEntity
  8
Object
100
AcDbLine
 10
13.06045789080901
 20
4.591402550944544
 30
0.0
 11
12.87345789080901
 21
4.591402550944544
 31
0.0
  0
LINE
  5
85E
330
1F
100
AcDbEntity
  8
Object
100
AcDbLine
 10
12.87345789080901
 20
4.591402550944544
 30
0.0
 11
12.87345789080901
 21
4.711402550944544
 31
0.0
  0
LINE
  5
85F
330
1F
100
AcDbEntity
  8
Object
100
AcDbLine
 10
13.93645789080901
 20
4.711402550944544
 30
0.0
 11
13.93645789080901
 21
4.591402550944544
 31
0.0
  0
LINE
  5
860
330
1F
100
AcDbEntity
  8
Object
100
AcDbLine
 10
13.93645789080901
 20
4.591402550944544
 30
0.0
 11
13.06045789080901
 21
4.591402550944544
 31
0.0
  0
LINE
  5
861
330
1F
100
AcDbEntity
  8
Object
100
AcDbLine
 10
13.93645789080901
 20
4.711402550944544
 30
0.0
 11
13.06045789080901
 21
4.711402550944544
 31
0.0
  0
LINE
  5
862
330
1F
100
AcDbEntity
  8
Object
100
AcDbLine
 10
12.87345789080901
 20
4.711402550944544
 30
0.0
 11
12.87345789080901
 21
4.591402550944544
 31
0.0
  0
LINE
  5
863
330
1F
100
AcDbEntity
  8
Object
100
AcDbLine
 10
13.93645789080901
 20
4.711402550944544
 30
0.0
 11
14.12345789080901
 21
4.711402550944544
 31
0.0
  0
LINE
  5
864
330
1F
100
AcDbEntity
  8
Object
100
AcDbLine
 10
14.12345789080901
 20
4.711402550944544
 30
0.0
 11
14.12345789080901
 21
4.591402550944544
 31
0.0
  0
LINE
  5
865
330
1F
100
AcDbEntity
  8
Object
100
AcDbLine
 10
14.12345789080901
 20
4.591402550944544
 30
0.0
 11
13.93645789080901
 21
4.591402550944544
 31
0.0
  0
LINE
  5
866
330
1F
100
AcDbEntity
  8
Object
100
AcDbLine
 10
13.93645789080901
 20
4.591402550944544
 30
0.0
 11
14.12345789080901
 21
4.591402550944544
 31
0.0
  0
LINE
  5
867
330
1F
100
AcDbEntity
  8
Object
100
AcDbLine
 10
13.93645789080901
 20
4.591402550944544
 30
0.0
 11
13.06045789080901
 21
4.591402550944544
 31
0.0
  0
LINE
  5
868
330
1F
100
AcDbEntity
  8
Object
100
AcDbLine
 10
13.06045789080901
 20
4.591402550944544
 30
0.0
 11
12.87345789080901
 21
4.591402550944544
 31
0.0
  0
LINE
  5
869
330
1F
100
AcDbEntity
  8
Object
100
AcDbLine
 10
8.249457890809008
 20
4.711402550944544
 30
0.0
 11
8.062457890809008
 21
4.711402550944544
 31
0.0
  0
LINE
  5
86A
330
1F
100
AcDbEntity
  8
Object
100
AcDbLine
 10
8.062457890809008
 20
4.711402550944544
 30
0.0
 11
2.436457890809007
 21
4.711402550944544
 31
0.0
  0
LINE
  5
86B
330
1F
100
AcDbEntity
  8
Object
100
AcDbLine
 10
2.436457890809007
 20
4.711402550944544
 30
0.0
 11
2.249457890809008
 21
4.711402550944544
 31
0.0
  0
LINE
  5
86C
330
1F
100
AcDbEntity
  8
Object
100
AcDbLine
 10
8.062457890809008
 20
4.711402550944544
 30
0.0
 11
8.249457890809008
 21
4.711402550944544
 31
0.0
  0
LINE
  5
86D
330
1F
100
AcDbEntity
  8
Object
100
AcDbLine
 10
8.249457890809008
 20
4.711402550944544
 30
0.0
 11
8.249457890809008
 21
4.591402550944544
 31
0.0
  0
LINE
  5
86E
330
1F
100
AcDbEntity
  8
Object
100
AcDbLine
 10
8.249457890809008
 20
4.591402550944544
 30
0.0
 11
8.062457890809008
 21
4.591402550944544
 31
0.0
  0
LINE
  5
86F
330
1F
100
AcDbEntity
  8
Object
100
AcDbLine
 10
2.249457890809008
 20
4.711402550944544
 30
0.0
 11
2.436457890809007
 21
4.711402550944544
 31
0.0
  0
LINE
  5
870
330
1F
100
AcDbEntity
  8
Object
100
AcDbLine
 10
2.436457890809007
 20
4.711402550944544
 30
0.0
 11
2.436457890809007
 21
4.591402550944544
 31
0.0
  0
LINE
  5
871
330
1F
100
AcDbEntity
  8
Object
100
AcDbLine
 10
2.436457890809007
 20
4.591402550944544
 30
0.0
 11
2.249457890809008
 21
4.591402550944544
 31
0.0
  0
LINE
  5
872
330
1F
100
AcDbEntity
  8
Object
100
AcDbLine
 10
2.249457890809008
 20
4.591402550944544
 30
0.0
 11
2.249457890809008
 21
4.711402550944544
 31
0.0
  0
LINE
  5
873
330
1F
100
AcDbEntity
  8
Object
100
AcDbLine
 10
8.249457890809008
 20
4.591402550944544
 30
0.0
 11
8.249457890809008
 21
4.711402550944544
 31
0.0
  0
LINE
  5
874
330
1F
100
AcDbEntity
  8
Object
100
AcDbLine
 10
2.436457890809007
 20
4.711402550944544
 30
0.0
 11
8.062457890809008
 21
4.711402550944544
 31
0.0
  0
LINE
  5
875
330
1F
100
AcDbEntity
  8
Object
100
AcDbLine
 10
8.062457890809008
 20
4.711402550944544
 30
0.0
 11
8.062457890809008
 21
4.591402550944544
 31
0.0
  0
LINE
  5
876
330
1F
100
AcDbEntity
  8
Object
100
AcDbLine
 10
8.062457890809008
 20
4.591402550944544
 30
0.0
 11
2.436457890809007
 21
4.591402550944544
 31
0.0
  0
LINE
  5
877
330
1F
100
AcDbEntity
  8
Object
100
AcDbLine
 10
2.249457890809008
 20
4.711402550944544
 30
0.0
 11
2.249457890809008
 21
4.591402550944544
 31
0.0
  0
LINE
  5
878
330
1F
100
AcDbEntity
  8
Object
100
AcDbLine
 10
8.249457890809008
 20
4.591402550944544
 30
0.0
 11
8.062457890809008
 21
4.591402550944544
 31
0.0
  0
LINE
  5
879
330
1F
100
AcDbEntity
  8
Object
100
AcDbLine
 10
8.062457890809008
 20
4.591402550944544
 30
0.0
 11
2.436457890809007
 21
4.591402550944544
 31
0.0
  0
LINE
  5
87A
330
1F
100
AcDbEntity
  8
Object
100
AcDbLine
 10
2.436457890809007
 20
4.591402550944544
 30
0.0
 11
2.249457890809008
 21
4.591402550944544
 31
0.0
  0
LINE
  5
87B
330
1F
100
AcDbEntity
  8
Object
100
AcDbLine
 10
6.995457890809008
 20
9.054402550944544
 30
0.0
 11
6.995457890809008
 21
9.034402550944545
 31
0.0
  0
LINE
  5
87C
330
1F
100
AcDbEntity
  8
Object
100
AcDbLine
 10
6.995457890809008
 20
9.034402550944545
 30
0.0
 11
7.021457890809008
 21
9.021402550944545
 31
0.0
  0
LINE
  5
87D
330
1F
100
AcDbEntity
  8
Object
100
AcDbLine
 10
7.044457890809009
 20
9.067402550944544
 30
0.0
 11
7.069457890809008
 21
9.054402550944544
 31
0.0
  0
LINE
  5
87E
330
1F
100
AcDbEntity
  8
Object
100
AcDbLine
 10
7.069457890809008
 20
9.054402550944544
 30
0.0
 11
7.069457890809008
 21
9.034402550944545
 31
0.0
  0
LINE
  5
87F
330
1F
100
AcDbEntity
  8
Object
100
AcDbLine
 10
7.069457890809008
 20
9.034402550944545
 30
0.0
 11
7.044457890809009
 21
9.021402550944545
 31
0.0
  0
LINE
  5
880
330
1F
100
AcDbEntity
  8
Object
100
AcDbLine
 10
7.044457890809009
 20
9.021402550944545
 30
0.0
 11
7.021457890809008
 21
9.021402550944545
 31
0.0
  0
LINE
  5
881
330
1F
100
AcDbEntity
  8
Object
100
AcDbLine
 10
7.044457890809009
 20
9.067402550944544
 30
0.0
 11
7.021457890809008
 21
9.067402550944544
 31
0.0
  0
LINE
  5
882
330
1F
100
AcDbEntity
  8
Object
100
AcDbLine
 10
7.021457890809008
 20
9.067402550944544
 30
0.0
 11
6.995457890809008
 21
9.054402550944544
 31
0.0
  0
LINE
  5
883
330
1F
100
AcDbEntity
  8
Object
100
AcDbLine
 10
6.995457890809008
 20
9.054402550944544
 30
0.0
 11
6.995457890809008
 21
9.034402550944545
 31
0.0
  0
LINE
  5
884
330
1F
100
AcDbEntity
  8
Object
100
AcDbLine
 10
6.995457890809008
 20
9.034402550944545
 30
0.0
 11
7.021457890809008
 21
9.021402550944545
 31
0.0
  0
LINE
  5
885
330
1F
100
AcDbEntity
  8
Object
100
AcDbLine
 10
7.021457890809008
 20
9.067402550944544
 30
0.0
 11
6.995457890809008
 21
9.054402550944544
 31
0.0
  0
LINE
  5
886
330
1F
100
AcDbEntity
  8
Object
100
AcDbLine
 10
7.021457890809008
 20
9.021402550944545
 30
0.0
 11
7.044457890809009
 21
9.021402550944545
 31
0.0
  0
LINE
  5
887
330
1F
100
AcDbEntity
  8
Object
100
AcDbLine
 10
7.044457890809009
 20
9.021402550944545
 30
0.0
 11
7.069457890809008
 21
9.034402550944545
 31
0.0
  0
LINE
  5
888
330
1F
100
AcDbEntity
  8
Object
100
AcDbLine
 10
7.044457890809009
 20
9.067402550944544
 30
0.0
 11
7.021457890809008
 21
9.067402550944544
 31
0.0
  0
LINE
  5
889
330
1F
100
AcDbEntity
  8
Object
100
AcDbLine
 10
7.069457890809008
 20
9.034402550944545
 30
0.0
 11
7.069457890809008
 21
9.054402550944544
 31
0.0
  0
LINE
  5
88A
330
1F
100
AcDbEntity
  8
Object
100
AcDbLine
 10
7.069457890809008
 20
9.054402550944544
 30
0.0
 11
7.044457890809009
 21
9.067402550944544
 31
0.0
  0
LINE
  5
88B
330
1F
100
AcDbEntity
  8
Object
100
AcDbLine
 10
6.995457890809008
 20
9.016402550944544
 30
0.0
 11
6.980457890809009
 21
9.024402550944543
 31
0.0
  0
LINE
  5
88C
330
1F
100
AcDbEntity
  8
Object
100
AcDbLine
 10
7.044457890809009
 20
9.011402550944545
 30
0.0
 11
7.021457890809008
 21
9.011402550944545
 31
0.0
  0
LINE
  5
88D
330
1F
100
AcDbEntity
  8
Object
100
AcDbLine
 10
6.995457890809008
 20
8.978402550944544
 30
0.0
 11
7.021457890809008
 21
8.965402550944546
 31
0.0
  0
LINE
  5
88E
330
1F
100
AcDbEntity
  8
Object
100
AcDbLine
 10
7.044457890809009
 20
8.965402550944546
 30
0.0
 11
7.069457890809008
 21
8.978402550944544
 31
0.0
  0
LINE
  5
88F
330
1F
100
AcDbEntity
  8
Object
100
AcDbLine
 10
7.006457890809008
 20
8.954402550944545
 30
0.0
 11
6.980457890809009
 21
8.967402550944544
 31
0.0
  0
LINE
  5
890
330
1F
100
AcDbEntity
  8
Object
100
AcDbLine
 10
6.980457890809009
 20
9.024402550944543
 30
0.0
 11
6.980457890809009
 21
9.066402550944545
 31
0.0
  0
LINE
  5
891
330
1F
100
AcDbEntity
  8
Object
100
AcDbLine
 10
7.085457890809008
 20
9.024402550944543
 30
0.0
 11
7.069457890809008
 21
9.016402550944544
 31
0.0
  0
LINE
  5
892
330
1F
100
AcDbEntity
  8
Object
100
AcDbLine
 10
6.980457890809009
 20
9.008402550944545
 30
0.0
 11
6.995457890809008
 21
9.016402550944544
 31
0.0
  0
LINE
  5
893
330
1F
100
AcDbEntity
  8
Object
100
AcDbLine
 10
7.085457890809008
 20
9.008402550944545
 30
0.0
 11
7.085457890809008
 21
8.967402550944544
 31
0.0
  0
LINE
  5
894
330
1F
100
AcDbEntity
  8
Object
100
AcDbLine
 10
7.006457890809008
 20
9.079402550944545
 30
0.0
 11
7.058457890809008
 21
9.079402550944545
 31
0.0
  0
LINE
  5
895
330
1F
100
AcDbEntity
  8
Object
100
AcDbLine
 10
7.069457890809008
 20
8.978402550944544
 30
0.0
 11
7.069457890809008
 21
8.998402550944543
 31
0.0
  0
LINE
  5
896
330
1F
100
AcDbEntity
  8
Object
100
AcDbLine
 10
7.085457890809008
 20
9.066402550944545
 30
0.0
 11
7.085457890809008
 21
9.024402550944543
 31
0.0
  0
LINE
  5
897
330
1F
100
AcDbEntity
  8
Object
100
AcDbLine
 10
7.021457890809008
 20
8.965402550944546
 30
0.0
 11
7.044457890809009
 21
8.965402550944546
 31
0.0
  0
LINE
  5
898
330
1F
100
AcDbEntity
  8
Object
100
AcDbLine
 10
7.085457890809008
 20
8.967402550944544
 30
0.0
 11
7.058457890809008
 21
8.954402550944545
 31
0.0
  0
LINE
  5
899
330
1F
100
AcDbEntity
  8
Object
100
AcDbLine
 10
6.980457890809009
 20
9.066402550944545
 30
0.0
 11
7.006457890809008
 21
9.079402550944545
 31
0.0
  0
LINE
  5
89A
330
1F
100
AcDbEntity
  8
Object
100
AcDbLine
 10
7.069457890809008
 20
9.016402550944544
 30
0.0
 11
7.085457890809008
 21
9.008402550944545
 31
0.0
  0
LINE
  5
89B
330
1F
100
AcDbEntity
  8
Object
100
AcDbLine
 10
7.058457890809008
 20
9.079402550944545
 30
0.0
 11
7.085457890809008
 21
9.066402550944545
 31
0.0
  0
LINE
  5
89C
330
1F
100
AcDbEntity
  8
Object
100
AcDbLine
 10
7.021457890809008
 20
9.011402550944545
 30
0.0
 11
6.995457890809008
 21
8.998402550944543
 31
0.0
  0
LINE
  5
89D
330
1F
100
AcDbEntity
  8
Object
100
AcDbLine
 10
6.995457890809008
 20
8.998402550944543
 30
0.0
 11
6.995457890809008
 21
8.978402550944544
 31
0.0
  0
LINE
  5
89E
330
1F
100
AcDbEntity
  8
Object
100
AcDbLine
 10
6.980457890809009
 20
8.967402550944544
 30
0.0
 11
6.980457890809009
 21
9.008402550944545
 31
0.0
  0
LINE
  5
89F
330
1F
100
AcDbEntity
  8
Object
100
AcDbLine
 10
7.058457890809008
 20
8.954402550944545
 30
0.0
 11
7.006457890809008
 21
8.954402550944545
 31
0.0
  0
LINE
  5
8A0
330
1F
100
AcDbEntity
  8
Object
100
AcDbLine
 10
7.069457890809008
 20
8.998402550944543
 30
0.0
 11
7.044457890809009
 21
9.011402550944545
 31
0.0
  0
LINE
  5
8A1
330
1F
100
AcDbEntity
  8
Object
100
AcDbLine
 10
8.249457890809008
 20
8.213402550944543
 30
0.0
 11
8.249457890809008
 21
9.089402550944544
 31
0.0
  0
LINE
  5
8A2
330
1F
100
AcDbEntity
  8
Object
100
AcDbLine
 10
7.933457890809008
 20
8.678402550944545
 30
0.0
 11
7.937457890809008
 21
8.651402550944546
 31
0.0
  0
LINE
  5
8A3
330
1F
100
AcDbEntity
  8
Object
100
AcDbLine
 10
7.937457890809008
 20
8.651402550944546
 30
0.0
 11
7.933457890809008
 21
8.624402550944544
 31
0.0
  0
LINE
  5
8A4
330
1F
100
AcDbEntity
  8
Object
100
AcDbLine
 10
7.922457890809008
 20
8.704402550944545
 30
0.0
 11
7.933457890809008
 21
8.678402550944545
 31
0.0
  0
LINE
  5
8A5
330
1F
100
AcDbEntity
  8
Object
100
AcDbLine
 10
7.933457890809008
 20
8.624402550944544
 30
0.0
 11
7.922457890809008
 21
8.598402550944545
 31
0.0
  0
LINE
  5
8A6
330
1F
100
AcDbEntity
  8
Object
100
AcDbLine
 10
7.906457890809008
 20
8.725402550944544
 30
0.0
 11
7.922457890809008
 21
8.704402550944545
 31
0.0
  0
LINE
  5
8A7
330
1F
100
AcDbEntity
  8
Object
100
AcDbLine
 10
7.922457890809008
 20
8.598402550944545
 30
0.0
 11
7.906457890809008
 21
8.577402550944544
 31
0.0
  0
LINE
  5
8A8
330
1F
100
AcDbEntity
  8
Object
100
AcDbLine
 10
7.884457890809009
 20
8.742402550944543
 30
0.0
 11
7.906457890809008
 21
8.725402550944544
 31
0.0
  0
LINE
  5
8A9
330
1F
100
AcDbEntity
  8
Object
100
AcDbLine
 10
7.906457890809008
 20
8.577402550944544
 30
0.0
 11
7.884457890809009
 21
8.560402550944544
 31
0.0
  0
LINE
  5
8AA
330
1F
100
AcDbEntity
  8
Object
100
AcDbLine
 10
7.859457890809008
 20
8.752402550944545
 30
0.0
 11
7.884457890809009
 21
8.742402550944543
 31
0.0
  0
LINE
  5
8AB
330
1F
100
AcDbEntity
  8
Object
100
AcDbLine
 10
8.249457890809008
 20
9.089402550944544
 30
0.0
 11
8.062457890809008
 21
9.276402550944546
 31
0.0
  0
LINE
  5
8AC
330
1F
100
AcDbEntity
  8
Object
100
AcDbLine
 10
7.884457890809009
 20
8.560402550944544
 30
0.0
 11
7.859457890809008
 21
8.550402550944545
 31
0.0
  0
LINE
  5
8AD
330
1F
100
AcDbEntity
  8
Object
100
AcDbLine
 10
8.062457890809008
 20
8.026402550944546
 30
0.0
 11
8.249457890809008
 21
8.213402550944543
 31
0.0
  0
LINE
  5
8AE
330
1F
100
AcDbEntity
  8
Object
100
AcDbLine
 10
7.832457890809008
 20
8.756402550944544
 30
0.0
 11
7.859457890809008
 21
8.752402550944545
 31
0.0
  0
LINE
  5
8AF
330
1F
100
AcDbEntity
  8
Object
100
AcDbLine
 10
7.859457890809008
 20
8.550402550944545
 30
0.0
 11
7.832457890809008
 21
8.546402550944545
 31
0.0
  0
LINE
  5
8B0
330
1F
100
AcDbEntity
  8
Object
100
AcDbLine
 10
7.085457890809008
 20
9.066402550944545
 30
0.0
 11
7.085457890809008
 21
9.024402550944543
 31
0.0
  0
LINE
  5
8B1
330
1F
100
AcDbEntity
  8
Object
100
AcDbLine
 10
7.085457890809008
 20
9.008402550944545
 30
0.0
 11
7.085457890809008
 21
8.967402550944544
 31
0.0
  0
LINE
  5
8B2
330
1F
100
AcDbEntity
  8
Object
100
AcDbLine
 10
7.085457890809008
 20
9.024402550944543
 30
0.0
 11
7.069457890809008
 21
9.016402550944544
 31
0.0
  0
LINE
  5
8B3
330
1F
100
AcDbEntity
  8
Object
100
AcDbLine
 10
7.069457890809008
 20
9.016402550944544
 30
0.0
 11
7.085457890809008
 21
9.008402550944545
 31
0.0
  0
LINE
  5
8B4
330
1F
100
AcDbEntity
  8
Object
100
AcDbLine
 10
7.058457890809008
 20
9.079402550944545
 30
0.0
 11
7.085457890809008
 21
9.066402550944545
 31
0.0
  0
LINE
  5
8B5
330
1F
100
AcDbEntity
  8
Object
100
AcDbLine
 10
7.085457890809008
 20
8.967402550944544
 30
0.0
 11
7.058457890809008
 21
8.954402550944545
 31
0.0
  0
LINE
  5
8B6
330
1F
100
AcDbEntity
  8
Object
100
AcDbLine
 10
7.006457890809008
 20
9.079402550944545
 30
0.0
 11
7.058457890809008
 21
9.079402550944545
 31
0.0
  0
LINE
  5
8B7
330
1F
100
AcDbEntity
  8
Object
100
AcDbLine
 10
6.980457890809009
 20
9.024402550944543
 30
0.0
 11
6.995457890809008
 21
9.016402550944544
 31
0.0
  0
LINE
  5
8B8
330
1F
100
AcDbEntity
  8
Object
100
AcDbLine
 10
6.995457890809008
 20
9.016402550944544
 30
0.0
 11
6.980457890809009
 21
9.008402550944545
 31
0.0
  0
LINE
  5
8B9
330
1F
100
AcDbEntity
  8
Object
100
AcDbLine
 10
6.980457890809009
 20
9.066402550944545
 30
0.0
 11
7.006457890809008
 21
9.079402550944545
 31
0.0
  0
LINE
  5
8BA
330
1F
100
AcDbEntity
  8
Object
100
AcDbLine
 10
6.940457890809009
 20
9.020402550944545
 30
0.0
 11
6.940457890809009
 21
8.967402550944544
 31
0.0
  0
LINE
  5
8BB
330
1F
100
AcDbEntity
  8
Object
100
AcDbLine
 10
6.940457890809009
 20
9.079402550944545
 30
0.0
 11
6.940457890809009
 21
9.067402550944544
 31
0.0
  0
LINE
  5
8BC
330
1F
100
AcDbEntity
  8
Object
100
AcDbLine
 10
6.980457890809009
 20
9.024402550944543
 30
0.0
 11
6.980457890809009
 21
9.066402550944545
 31
0.0
  0
LINE
  5
8BD
330
1F
100
AcDbEntity
  8
Object
100
AcDbLine
 10
6.980457890809009
 20
9.008402550944545
 30
0.0
 11
6.980457890809009
 21
8.967402550944544
 31
0.0
  0
LINE
  5
8BE
330
1F
100
AcDbEntity
  8
Object
100
AcDbLine
 10
6.980457890809009
 20
8.967402550944544
 30
0.0
 11
7.006457890809008
 21
8.954402550944545
 31
0.0
  0
LINE
  5
8BF
330
1F
100
AcDbEntity
  8
Object
100
AcDbLine
 10
6.914457890809008
 20
9.033402550944543
 30
0.0
 11
6.940457890809009
 21
9.020402550944545
 31
0.0
  0
LINE
  5
8C0
330
1F
100
AcDbEntity
  8
Object
100
AcDbLine
 10
6.940457890809009
 20
8.967402550944544
 30
0.0
 11
6.914457890809008
 21
8.954402550944545
 31
0.0
  0
LINE
  5
8C1
330
1F
100
AcDbEntity
  8
Object
100
AcDbLine
 10
6.899457890809008
 20
9.021402550944545
 30
0.0
 11
6.924457890809009
 21
9.008402550944545
 31
0.0
  0
LINE
  5
8C2
330
1F
100
AcDbEntity
  8
Object
100
AcDbLine
 10
6.924457890809009
 20
9.008402550944545
 30
0.0
 11
6.924457890809009
 21
8.978402550944544
 31
0.0
  0
LINE
  5
8C3
330
1F
100
AcDbEntity
  8
Object
100
AcDbLine
 10
6.924457890809009
 20
8.978402550944544
 30
0.0
 11
6.899457890809008
 21
8.965402550944546
 31
0.0
  0
LINE
  5
8C4
330
1F
100
AcDbEntity
  8
Object
100
AcDbLine
 10
6.899457890809008
 20
8.965402550944546
 30
0.0
 11
6.877457890809008
 21
8.965402550944546
 31
0.0
  0
LINE
  5
8C5
330
1F
100
AcDbEntity
  8
Object
100
AcDbLine
 10
6.899457890809008
 20
9.021402550944545
 30
0.0
 11
6.877457890809008
 21
9.021402550944545
 31
0.0
  0
LINE
  5
8C6
330
1F
100
AcDbEntity
  8
Object
100
AcDbLine
 10
6.914457890809008
 20
9.033402550944543
 30
0.0
 11
6.861457890809008
 21
9.033402550944543
 31
0.0
  0
LINE
  5
8C7
330
1F
100
AcDbEntity
  8
Object
100
AcDbLine
 10
6.861457890809008
 20
9.033402550944543
 30
0.0
 11
6.850457890809009
 21
9.028402550944544
 31
0.0
  0
LINE
  5
8C8
330
1F
100
AcDbEntity
  8
Object
100
AcDbLine
 10
6.850457890809009
 20
9.028402550944544
 30
0.0
 11
6.850457890809009
 21
9.067402550944544
 31
0.0
  0
LINE
  5
8C9
330
1F
100
AcDbEntity
  8
Object
100
AcDbLine
 10
6.850457890809009
 20
9.067402550944544
 30
0.0
 11
6.940457890809009
 21
9.067402550944544
 31
0.0
  0
LINE
  5
8CA
330
1F
100
AcDbEntity
  8
Object
100
AcDbLine
 10
6.877457890809008
 20
9.021402550944545
 30
0.0
 11
6.850457890809009
 21
9.008402550944545
 31
0.0
  0
LINE
  5
8CB
330
1F
100
AcDbEntity
  8
Object
100
AcDbLine
 10
6.877457890809008
 20
8.965402550944546
 30
0.0
 11
6.850457890809009
 21
8.978402550944544
 31
0.0
  0
LINE
  5
8CC
330
1F
100
AcDbEntity
  8
Object
100
AcDbLine
 10
6.850457890809009
 20
8.978402550944544
 30
0.0
 11
6.850457890809009
 21
8.989402550944545
 31
0.0
  0
LINE
  5
8CD
330
1F
100
AcDbEntity
  8
Object
100
AcDbLine
 10
6.835457890809008
 20
9.079402550944545
 30
0.0
 11
6.940457890809009
 21
9.079402550944545
 31
0.0
  0
LINE
  5
8CE
330
1F
100
AcDbEntity
  8
Object
100
AcDbLine
 10
6.835457890809008
 20
8.989402550944545
 30
0.0
 11
6.850457890809009
 21
8.989402550944545
 31
0.0
  0
LINE
  5
8CF
330
1F
100
AcDbEntity
  8
Object
100
AcDbLine
 10
6.850457890809009
 20
9.008402550944545
 30
0.0
 11
6.835457890809008
 21
9.008402550944545
 31
0.0
  0
LINE
  5
8D0
330
1F
100
AcDbEntity
  8
Object
100
AcDbLine
 10
6.835457890809008
 20
9.008402550944545
 30
0.0
 11
6.835457890809008
 21
9.079402550944545
 31
0.0
  0
LINE
  5
8D1
330
1F
100
AcDbEntity
  8
Object
100
AcDbLine
 10
6.795457890809008
 20
9.079402550944545
 30
0.0
 11
6.795457890809008
 21
8.954402550944545
 31
0.0
  0
LINE
  5
8D2
330
1F
100
AcDbEntity
  8
Object
100
AcDbLine
 10
6.835457890809008
 20
8.989402550944545
 30
0.0
 11
6.835457890809008
 21
8.967402550944544
 31
0.0
  0
LINE
  5
8D3
330
1F
100
AcDbEntity
  8
Object
100
AcDbLine
 10
6.835457890809008
 20
8.967402550944544
 30
0.0
 11
6.861457890809008
 21
8.954402550944545
 31
0.0
  0
LINE
  5
8D4
330
1F
100
AcDbEntity
  8
Object
100
AcDbLine
 10
6.795457890809008
 20
9.079402550944545
 30
0.0
 11
6.780457890809008
 21
9.079402550944545
 31
0.0
  0
LINE
  5
8D5
330
1F
100
AcDbEntity
  8
Object
100
AcDbLine
 10
6.780457890809008
 20
9.079402550944545
 30
0.0
 11
6.780457890809008
 21
8.982402550944545
 31
0.0
  0
LINE
  5
8D6
330
1F
100
AcDbEntity
  8
Object
100
AcDbLine
 10
6.780457890809008
 20
8.982402550944545
 30
0.0
 11
6.706457890809009
 21
9.079402550944545
 31
0.0
  0
LINE
  5
8D7
330
1F
100
AcDbEntity
  8
Object
100
AcDbLine
 10
6.706457890809009
 20
8.954402550944545
 30
0.0
 11
6.706457890809009
 21
9.050402550944545
 31
0.0
  0
LINE
  5
8D8
330
1F
100
AcDbEntity
  8
Object
100
AcDbLine
 10
6.706457890809009
 20
9.050402550944545
 30
0.0
 11
6.780457890809008
 21
8.954402550944545
 31
0.0
  0
LINE
  5
8D9
330
1F
100
AcDbEntity
  8
Object
100
AcDbLine
 10
6.690457890809009
 20
9.079402550944545
 30
0.0
 11
6.706457890809009
 21
9.079402550944545
 31
0.0
  0
LINE
  5
8DA
330
1F
100
AcDbEntity
  8
Object
100
AcDbLine
 10
6.650457890809009
 20
9.015402550944545
 30
0.0
 11
6.650457890809009
 21
8.967402550944544
 31
0.0
  0
LINE
  5
8DB
330
1F
100
AcDbEntity
  8
Object
100
AcDbLine
 10
6.690457890809009
 20
8.954402550944545
 30
0.0
 11
6.690457890809009
 21
9.079402550944545
 31
0.0
  0
LINE
  5
8DC
330
1F
100
AcDbEntity
  8
Object
100
AcDbLine
 10
6.640457890809008
 20
9.067402550944544
 30
0.0
 11
6.640457890809008
 21
9.027402550944543
 31
0.0
  0
LINE
  5
8DD
330
1F
100
AcDbEntity
  8
Object
100
AcDbLine
 10
6.650457890809009
 20
9.015402550944545
 30
0.0
 11
6.637457890809009
 21
9.023402550944545
 31
0.0
  0
LINE
  5
8DE
330
1F
100
AcDbEntity
  8
Object
100
AcDbLine
 10
6.637457890809009
 20
9.023402550944545
 30
0.0
 11
6.640457890809008
 21
9.027402550944543
 31
0.0
  0
LINE
  5
8DF
330
1F
100
AcDbEntity
  8
Object
100
AcDbLine
 10
6.650457890809009
 20
8.967402550944544
 30
0.0
 11
6.630457890809008
 21
8.954402550944545
 31
0.0
  0
LINE
  5
8E0
330
1F
100
AcDbEntity
  8
Object
100
AcDbLine
 10
6.630457890809008
 20
9.079402550944545
 30
0.0
 11
6.640457890809008
 21
9.067402550944544
 31
0.0
  0
LINE
  5
8E1
330
1F
100
AcDbEntity
  8
Object
100
AcDbLine
 10
6.706457890809009
 20
8.954402550944545
 30
0.0
 11
6.690457890809009
 21
8.954402550944545
 31
0.0
  0
LINE
  5
8E2
330
1F
100
AcDbEntity
  8
Object
100
AcDbLine
 10
6.573457890809009
 20
8.756402550944544
 30
0.0
 11
7.832457890809008
 21
8.756402550944544
 31
0.0
  0
LINE
  5
8E3
330
1F
100
AcDbEntity
  8
Object
100
AcDbLine
 10
6.914457890809008
 20
8.954402550944545
 30
0.0
 11
6.861457890809008
 21
8.954402550944545
 31
0.0
  0
LINE
  5
8E4
330
1F
100
AcDbEntity
  8
Object
100
AcDbLine
 10
6.795457890809008
 20
8.954402550944545
 30
0.0
 11
6.780457890809008
 21
8.954402550944545
 31
0.0
  0
LINE
  5
8E5
330
1F
100
AcDbEntity
  8
Object
100
AcDbLine
 10
7.058457890809008
 20
8.954402550944545
 30
0.0
 11
7.006457890809008
 21
8.954402550944545
 31
0.0
  0
LINE
  5
8E6
330
1F
100
AcDbEntity
  8
Object
100
AcDbLine
 10
7.832457890809008
 20
8.546402550944545
 30
0.0
 11
6.573457890809009
 21
8.546402550944545
 31
0.0
  0
LINE
  5
8E7
330
1F
100
AcDbEntity
  8
Object
100
AcDbLine
 10
6.545457890809008
 20
9.079402550944545
 30
0.0
 11
6.630457890809008
 21
9.079402550944545
 31
0.0
  0
LINE
  5
8E8
330
1F
100
AcDbEntity
  8
Object
100
AcDbLine
 10
6.546457890809008
 20
8.752402550944545
 30
0.0
 11
6.573457890809009
 21
8.756402550944544
 31
0.0
  0
LINE
  5
8E9
330
1F
100
AcDbEntity
  8
Object
100
AcDbLine
 10
6.630457890809008
 20
8.954402550944545
 30
0.0
 11
6.545457890809008
 21
8.954402550944545
 31
0.0
  0
LINE
  5
8EA
330
1F
100
AcDbEntity
  8
Object
100
AcDbLine
 10
6.506457890809008
 20
9.064402550944544
 30
0.0
 11
6.506457890809008
 21
9.024402550944543
 31
0.0
  0
LINE
  5
8EB
330
1F
100
AcDbEntity
  8
Object
100
AcDbLine
 10
6.545457890809008
 20
8.954402550944545
 30
0.0
 11
6.545457890809008
 21
9.079402550944545
 31
0.0
  0
LINE
  5
8EC
330
1F
100
AcDbEntity
  8
Object
100
AcDbLine
 10
6.521457890809008
 20
8.742402550944543
 30
0.0
 11
6.546457890809008
 21
8.752402550944545
 31
0.0
  0
LINE
  5
8ED
330
1F
100
AcDbEntity
  8
Object
100
AcDbLine
 10
6.489457890809008
 20
8.954402550944545
 30
0.0
 11
6.506457890809008
 21
8.954402550944545
 31
0.0
  0
LINE
  5
8EE
330
1F
100
AcDbEntity
  8
Object
100
AcDbLine
 10
6.506457890809008
 20
8.954402550944545
 30
0.0
 11
6.484457890809008
 21
9.013402550944544
 31
0.0
  0
LINE
  5
8EF
330
1F
100
AcDbEntity
  8
Object
100
AcDbLine
 10
6.484457890809008
 20
9.013402550944544
 30
0.0
 11
6.506457890809008
 21
9.024402550944543
 31
0.0
  0
LINE
  5
8F0
330
1F
100
AcDbEntity
  8
Object
100
AcDbLine
 10
6.478457890809008
 20
9.079402550944545
 30
0.0
 11
6.506457890809008
 21
9.064402550944544
 31
0.0
  0
LINE
  5
8F1
330
1F
100
AcDbEntity
  8
Object
100
AcDbLine
 10
6.489457890809008
 20
8.954402550944545
 30
0.0
 11
6.469457890809009
 21
9.011402550944545
 31
0.0
  0
LINE
  5
8F2
330
1F
100
AcDbEntity
  8
Object
100
AcDbLine
 10
6.416457890809009
 20
8.954402550944545
 30
0.0
 11
6.416457890809009
 21
9.011402550944545
 31
0.0
  0
LINE
  5
8F3
330
1F
100
AcDbEntity
  8
Object
100
AcDbLine
 10
6.416457890809009
 20
9.011402550944545
 30
0.0
 11
6.469457890809009
 21
9.011402550944545
 31
0.0
  0
LINE
  5
8F4
330
1F
100
AcDbEntity
  8
Object
100
AcDbLine
 10
6.499457890809008
 20
8.725402550944544
 30
0.0
 11
6.521457890809008
 21
8.742402550944543
 31
0.0
  0
LINE
  5
8F5
330
1F
100
AcDbEntity
  8
Object
100
AcDbLine
 10
6.401457890809008
 20
9.079402550944545
 30
0.0
 11
6.478457890809008
 21
9.079402550944545
 31
0.0
  0
LINE
  5
8F6
330
1F
100
AcDbEntity
  8
Object
100
AcDbLine
 10
6.416457890809009
 20
8.954402550944545
 30
0.0
 11
6.401457890809008
 21
8.954402550944545
 31
0.0
  0
LINE
  5
8F7
330
1F
100
AcDbEntity
  8
Object
100
AcDbLine
 10
6.361457890809008
 20
9.079402550944545
 30
0.0
 11
6.361457890809008
 21
9.067402550944544
 31
0.0
  0
LINE
  5
8F8
330
1F
100
AcDbEntity
  8
Object
100
AcDbLine
 10
6.401457890809008
 20
8.954402550944545
 30
0.0
 11
6.401457890809008
 21
9.079402550944545
 31
0.0
  0
LINE
  5
8F9
330
1F
100
AcDbEntity
  8
Object
100
AcDbLine
 10
6.329457890809008
 20
8.954402550944545
 30
0.0
 11
6.329457890809008
 21
9.067402550944544
 31
0.0
  0
LINE
  5
8FA
330
1F
100
AcDbEntity
  8
Object
100
AcDbLine
 10
6.329457890809008
 20
9.067402550944544
 30
0.0
 11
6.361457890809008
 21
9.067402550944544
 31
0.0
  0
LINE
  5
8FB
330
1F
100
AcDbEntity
  8
Object
100
AcDbLine
 10
6.499457890809008
 20
8.725402550944544
 30
0.0
 11
6.482457890809008
 21
8.704402550944545
 31
0.0
  0
LINE
  5
8FC
330
1F
100
AcDbEntity
  8
Object
100
AcDbLine
 10
6.482457890809008
 20
8.704402550944545
 30
0.0
 11
6.472457890809009
 21
8.678402550944545
 31
0.0
  0
LINE
  5
8FD
330
1F
100
AcDbEntity
  8
Object
100
AcDbLine
 10
6.329457890809008
 20
8.954402550944545
 30
0.0
 11
6.316457890809008
 21
8.954402550944545
 31
0.0
  0
LINE
  5
8FE
330
1F
100
AcDbEntity
  8
Object
100
AcDbLine
 10
6.285457890809008
 20
9.079402550944545
 30
0.0
 11
6.361457890809008
 21
9.079402550944545
 31
0.0
  0
LINE
  5
8FF
330
1F
100
AcDbEntity
  8
Object
100
AcDbLine
 10
6.285457890809008
 20
9.067402550944544
 30
0.0
 11
6.316457890809008
 21
9.067402550944544
 31
0.0
  0
LINE
  5
900
330
1F
100
AcDbEntity
  8
Object
100
AcDbLine
 10
6.316457890809008
 20
9.067402550944544
 30
0.0
 11
6.316457890809008
 21
8.954402550944545
 31
0.0
  0
LINE
  5
901
330
1F
100
AcDbEntity
  8
Object
100
AcDbLine
 10
6.245457890809008
 20
9.079402550944545
 30
0.0
 11
6.245457890809008
 21
9.067402550944544
 31
0.0
  0
LINE
  5
902
330
1F
100
AcDbEntity
  8
Object
100
AcDbLine
 10
6.285457890809008
 20
9.067402550944544
 30
0.0
 11
6.285457890809008
 21
9.079402550944545
 31
0.0
  0
LINE
  5
903
330
1F
100
AcDbEntity
  8
Object
100
AcDbLine
 10
6.224457890809008
 20
9.021402550944545
 30
0.0
 11
6.224457890809008
 21
9.011402550944545
 31
0.0
  0
LINE
  5
904
330
1F
100
AcDbEntity
  8
Object
100
AcDbLine
 10
6.245457890809008
 20
9.067402550944544
 30
0.0
 11
6.168457890809008
 21
9.067402550944544
 31
0.0
  0
LINE
  5
905
330
1F
100
AcDbEntity
  8
Object
100
AcDbLine
 10
6.224457890809008
 20
9.021402550944545
 30
0.0
 11
6.168457890809008
 21
9.021402550944545
 31
0.0
  0
LINE
  5
906
330
1F
100
AcDbEntity
  8
Object
100
AcDbLine
 10
6.168457890809008
 20
9.021402550944545
 30
0.0
 11
6.168457890809008
 21
9.067402550944544
 31
0.0
  0
LINE
  5
907
330
1F
100
AcDbEntity
  8
Object
100
AcDbLine
 10
6.168457890809008
 20
8.954402550944545
 30
0.0
 11
6.168457890809008
 21
9.011402550944545
 31
0.0
  0
LINE
  5
908
330
1F
100
AcDbEntity
  8
Object
100
AcDbLine
 10
6.168457890809008
 20
9.011402550944545
 30
0.0
 11
6.224457890809008
 21
9.011402550944545
 31
0.0
  0
LINE
  5
909
330
1F
100
AcDbEntity
  8
Object
100
AcDbLine
 10
6.468457890809008
 20
8.651402550944546
 30
0.0
 11
6.472457890809009
 21
8.678402550944545
 31
0.0
  0
LINE
  5
90A
330
1F
100
AcDbEntity
  8
Object
100
AcDbLine
 10
6.154457890809008
 20
9.079402550944545
 30
0.0
 11
6.245457890809008
 21
9.079402550944545
 31
0.0
  0
LINE
  5
90B
330
1F
100
AcDbEntity
  8
Object
100
AcDbLine
 10
6.168457890809008
 20
8.954402550944545
 30
0.0
 11
6.154457890809008
 21
8.954402550944545
 31
0.0
  0
LINE
  5
90C
330
1F
100
AcDbEntity
  8
Object
100
AcDbLine
 10
5.955457890809008
 20
9.079402550944545
 30
0.0
 11
5.955457890809008
 21
9.067402550944544
 31
0.0
  0
LINE
  5
90D
330
1F
100
AcDbEntity
  8
Object
100
AcDbLine
 10
6.154457890809008
 20
8.954402550944545
 30
0.0
 11
6.154457890809008
 21
9.079402550944545
 31
0.0
  0
LINE
  5
90E
330
1F
100
AcDbEntity
  8
Object
100
AcDbLine
 10
5.924457890809009
 20
8.954402550944545
 30
0.0
 11
5.924457890809009
 21
9.067402550944544
 31
0.0
  0
LINE
  5
90F
330
1F
100
AcDbEntity
  8
Object
100
AcDbLine
 10
5.924457890809009
 20
9.067402550944544
 30
0.0
 11
5.955457890809008
 21
9.067402550944544
 31
0.0
  0
LINE
  5
910
330
1F
100
AcDbEntity
  8
Object
100
AcDbLine
 10
5.879457890809009
 20
9.079402550944545
 30
0.0
 11
5.955457890809008
 21
9.079402550944545
 31
0.0
  0
LINE
  5
911
330
1F
100
AcDbEntity
  8
Object
100
AcDbLine
 10
5.879457890809009
 20
9.067402550944544
 30
0.0
 11
5.910457890809008
 21
9.067402550944544
 31
0.0
  0
LINE
  5
912
330
1F
100
AcDbEntity
  8
Object
100
AcDbLine
 10
5.910457890809008
 20
9.067402550944544
 30
0.0
 11
5.910457890809008
 21
8.954402550944545
 31
0.0
  0
LINE
  5
913
330
1F
100
AcDbEntity
  8
Object
100
AcDbLine
 10
5.839457890809009
 20
9.079402550944545
 30
0.0
 11
5.839457890809009
 21
9.067402550944544
 31
0.0
  0
LINE
  5
914
330
1F
100
AcDbEntity
  8
Object
100
AcDbLine
 10
5.839457890809009
 20
8.965402550944546
 30
0.0
 11
5.839457890809009
 21
8.954402550944545
 31
0.0
  0
LINE
  5
915
330
1F
100
AcDbEntity
  8
Object
100
AcDbLine
 10
5.879457890809009
 20
9.067402550944544
 30
0.0
 11
5.879457890809009
 21
9.079402550944545
 31
0.0
  0
LINE
  5
916
330
1F
100
AcDbEntity
  8
Object
100
AcDbLine
 10
5.839457890809009
 20
9.067402550944544
 30
0.0
 11
5.837457890809008
 21
9.067402550944544
 31
0.0
  0
LINE
  5
917
330
1F
100
AcDbEntity
  8
Object
100
AcDbLine
 10
5.839457890809009
 20
8.965402550944546
 30
0.0
 11
5.837457890809008
 21
8.965402550944546
 31
0.0
  0
LINE
  5
918
330
1F
100
AcDbEntity
  8
Object
100
AcDbLine
 10
5.837457890809008
 20
8.965402550944546
 30
0.0
 11
5.837457890809008
 21
9.067402550944544
 31
0.0
  0
LINE
  5
919
330
1F
100
AcDbEntity
  8
Object
100
AcDbLine
 10
5.828457890809009
 20
8.965402550944546
 30
0.0
 11
5.830457890809008
 21
8.965402550944546
 31
0.0
  0
LINE
  5
91A
330
1F
100
AcDbEntity
  8
Object
100
AcDbLine
 10
5.828457890809009
 20
9.067402550944544
 30
0.0
 11
5.830457890809008
 21
9.067402550944544
 31
0.0
  0
LINE
  5
91B
330
1F
100
AcDbEntity
  8
Object
100
AcDbLine
 10
5.830457890809008
 20
9.067402550944544
 30
0.0
 11
5.830457890809008
 21
8.965402550944546
 31
0.0
  0
LINE
  5
91C
330
1F
100
AcDbEntity
  8
Object
100
AcDbLine
 10
5.839457890809009
 20
9.079402550944545
 30
0.0
 11
5.828457890809009
 21
9.079402550944545
 31
0.0
  0
LINE
  5
91D
330
1F
100
AcDbEntity
  8
Object
100
AcDbLine
 10
5.828457890809009
 20
9.079402550944545
 30
0.0
 11
5.828457890809009
 21
9.067402550944544
 31
0.0
  0
LINE
  5
91E
330
1F
100
AcDbEntity
  8
Object
100
AcDbLine
 10
5.788457890809008
 20
9.079402550944545
 30
0.0
 11
5.788457890809008
 21
8.980402550944544
 31
0.0
  0
LINE
  5
91F
330
1F
100
AcDbEntity
  8
Object
100
AcDbLine
 10
5.828457890809009
 20
8.954402550944545
 30
0.0
 11
5.828457890809009
 21
8.965402550944546
 31
0.0
  0
LINE
  5
920
330
1F
100
AcDbEntity
  8
Object
100
AcDbLine
 10
5.772457890809008
 20
9.079402550944545
 30
0.0
 11
5.788457890809008
 21
9.079402550944545
 31
0.0
  0
LINE
  5
921
330
1F
100
AcDbEntity
  8
Object
100
AcDbLine
 10
5.788457890809008
 20
8.980402550944544
 30
0.0
 11
5.764457890809008
 21
8.954402550944545
 31
0.0
  0
LINE
  5
922
330
1F
100
AcDbEntity
  8
Object
100
AcDbLine
 10
6.472457890809009
 20
8.624402550944544
 30
0.0
 11
6.468457890809008
 21
8.651402550944546
 31
0.0
  0
LINE
  5
923
330
1F
100
AcDbEntity
  8
Object
100
AcDbLine
 10
5.714457890809009
 20
8.624402550944544
 30
0.0
 11
5.718457890809008
 21
8.651402550944546
 31
0.0
  0
LINE
  5
924
330
1F
100
AcDbEntity
  8
Object
100
AcDbLine
 10
5.718457890809008
 20
8.651402550944546
 30
0.0
 11
5.714457890809009
 21
8.678402550944545
 31
0.0
  0
LINE
  5
925
330
1F
100
AcDbEntity
  8
Object
100
AcDbLine
 10
6.472457890809009
 20
8.624402550944544
 30
0.0
 11
6.482457890809008
 21
8.598402550944545
 31
0.0
  0
LINE
  5
926
330
1F
100
AcDbEntity
  8
Object
100
AcDbLine
 10
6.482457890809008
 20
8.598402550944545
 30
0.0
 11
6.499457890809008
 21
8.577402550944544
 31
0.0
  0
LINE
  5
927
330
1F
100
AcDbEntity
  8
Object
100
AcDbLine
 10
5.714457890809009
 20
8.624402550944544
 30
0.0
 11
5.704457890809008
 21
8.598402550944545
 31
0.0
  0
LINE
  5
928
330
1F
100
AcDbEntity
  8
Object
100
AcDbLine
 10
5.704457890809008
 20
8.704402550944545
 30
0.0
 11
5.714457890809009
 21
8.678402550944545
 31
0.0
  0
LINE
  5
929
330
1F
100
AcDbEntity
  8
Object
100
AcDbLine
 10
5.924457890809009
 20
8.954402550944545
 30
0.0
 11
5.910457890809008
 21
8.954402550944545
 31
0.0
  0
LINE
  5
92A
330
1F
100
AcDbEntity
  8
Object
100
AcDbLine
 10
5.772457890809008
 20
9.079402550944545
 30
0.0
 11
5.772457890809008
 21
8.987402550944544
 31
0.0
  0
LINE
  5
92B
330
1F
100
AcDbEntity
  8
Object
100
AcDbLine
 10
5.772457890809008
 20
8.987402550944544
 30
0.0
 11
5.752457890809008
 21
8.965402550944546
 31
0.0
  0
LINE
  5
92C
330
1F
100
AcDbEntity
  8
Object
100
AcDbLine
 10
5.752457890809008
 20
8.965402550944546
 30
0.0
 11
5.719457890809009
 21
8.965402550944546
 31
0.0
  0
LINE
  5
92D
330
1F
100
AcDbEntity
  8
Object
100
AcDbLine
 10
5.719457890809009
 20
8.965402550944546
 30
0.0
 11
5.698457890809009
 21
8.987402550944544
 31
0.0
  0
LINE
  5
92E
330
1F
100
AcDbEntity
  8
Object
100
AcDbLine
 10
5.698457890809009
 20
8.987402550944544
 30
0.0
 11
5.698457890809009
 21
9.079402550944545
 31
0.0
  0
LINE
  5
92F
330
1F
100
AcDbEntity
  8
Object
100
AcDbLine
 10
5.704457890809008
 20
8.598402550944545
 30
0.0
 11
5.687457890809008
 21
8.577402550944544
 31
0.0
  0
LINE
  5
930
330
1F
100
AcDbEntity
  8
Object
100
AcDbLine
 10
5.687457890809008
 20
8.725402550944544
 30
0.0
 11
5.704457890809008
 21
8.704402550944545
 31
0.0
  0
LINE
  5
931
330
1F
100
AcDbEntity
  8
Object
100
AcDbLine
 10
5.839457890809009
 20
8.954402550944545
 30
0.0
 11
5.828457890809009
 21
8.954402550944545
 31
0.0
  0
LINE
  5
932
330
1F
100
AcDbEntity
  8
Object
100
AcDbLine
 10
5.683457890809008
 20
9.079402550944545
 30
0.0
 11
5.698457890809009
 21
9.079402550944545
 31
0.0
  0
LINE
  5
933
330
1F
100
AcDbEntity
  8
Object
100
AcDbLine
 10
6.499457890809008
 20
8.577402550944544
 30
0.0
 11
6.521457890809008
 21
8.560402550944544
 31
0.0
  0
LINE
  5
934
330
1F
100
AcDbEntity
  8
Object
100
AcDbLine
 10
6.521457890809008
 20
8.560402550944544
 30
0.0
 11
6.546457890809008
 21
8.550402550944545
 31
0.0
  0
LINE
  5
935
330
1F
100
AcDbEntity
  8
Object
100
AcDbLine
 10
5.687457890809008
 20
8.577402550944544
 30
0.0
 11
5.666457890809009
 21
8.560402550944544
 31
0.0
  0
LINE
  5
936
330
1F
100
AcDbEntity
  8
Object
100
AcDbLine
 10
5.666457890809009
 20
8.742402550944543
 30
0.0
 11
5.687457890809008
 21
8.725402550944544
 31
0.0
  0
LINE
  5
937
330
1F
100
AcDbEntity
  8
Object
100
AcDbLine
 10
5.764457890809008
 20
8.954402550944545
 30
0.0
 11
5.707457890809008
 21
8.954402550944545
 31
0.0
  0
LINE
  5
938
330
1F
100
AcDbEntity
  8
Object
100
AcDbLine
 10
5.643457890809008
 20
9.047402550944545
 30
0.0
 11
5.643457890809008
 21
8.985402550944545
 31
0.0
  0
LINE
  5
939
330
1F
100
AcDbEntity
  8
Object
100
AcDbLine
 10
5.683457890809008
 20
8.980402550944544
 30
0.0
 11
5.683457890809008
 21
9.079402550944545
 31
0.0
  0
LINE
  5
93A
330
1F
100
AcDbEntity
  8
Object
100
AcDbLine
 10
5.640457890809008
 20
8.752402550944545
 30
0.0
 11
5.666457890809009
 21
8.742402550944543
 31
0.0
  0
LINE
  5
93B
330
1F
100
AcDbEntity
  8
Object
100
AcDbLine
 10
5.666457890809009
 20
8.560402550944544
 30
0.0
 11
5.640457890809008
 21
8.550402550944545
 31
0.0
  0
LINE
  5
93C
330
1F
100
AcDbEntity
  8
Object
100
AcDbLine
 10
5.643457890809008
 20
8.985402550944545
 30
0.0
 11
5.615457890809008
 21
8.954402550944545
 31
0.0
  0
LINE
  5
93D
330
1F
100
AcDbEntity
  8
Object
100
AcDbLine
 10
5.615457890809008
 20
9.079402550944545
 30
0.0
 11
5.643457890809008
 21
9.047402550944545
 31
0.0
  0
LINE
  5
93E
330
1F
100
AcDbEntity
  8
Object
100
AcDbLine
 10
5.707457890809008
 20
8.954402550944545
 30
0.0
 11
5.683457890809008
 21
8.980402550944544
 31
0.0
  0
LINE
  5
93F
330
1F
100
AcDbEntity
  8
Object
100
AcDbLine
 10
6.573457890809009
 20
8.546402550944545
 30
0.0
 11
6.546457890809008
 21
8.550402550944545
 31
0.0
  0
LINE
  5
940
330
1F
100
AcDbEntity
  8
Object
100
AcDbLine
 10
5.640457890809008
 20
8.550402550944545
 30
0.0
 11
5.613457890809009
 21
8.546402550944545
 31
0.0
  0
LINE
  5
941
330
1F
100
AcDbEntity
  8
Object
100
AcDbLine
 10
5.613457890809009
 20
8.756402550944544
 30
0.0
 11
5.640457890809008
 21
8.752402550944545
 31
0.0
  0
LINE
  5
942
330
1F
100
AcDbEntity
  8
Object
100
AcDbLine
 10
5.538457890809008
 20
9.079402550944545
 30
0.0
 11
5.615457890809008
 21
9.079402550944545
 31
0.0
  0
LINE
  5
943
330
1F
100
AcDbEntity
  8
Object
100
AcDbLine
 10
5.615457890809008
 20
8.954402550944545
 30
0.0
 11
5.538457890809008
 21
8.954402550944545
 31
0.0
  0
LINE
  5
944
330
1F
100
AcDbEntity
  8
Object
100
AcDbLine
 10
5.498457890809008
 20
9.079402550944545
 30
0.0
 11
5.498457890809008
 21
8.954402550944545
 31
0.0
  0
LINE
  5
945
330
1F
100
AcDbEntity
  8
Object
100
AcDbLine
 10
5.538457890809008
 20
8.954402550944545
 30
0.0
 11
5.538457890809008
 21
9.079402550944545
 31
0.0
  0
LINE
  5
946
330
1F
100
AcDbEntity
  8
Object
100
AcDbLine
 10
5.483457890809008
 20
9.079402550944545
 30
0.0
 11
5.498457890809008
 21
9.079402550944545
 31
0.0
  0
LINE
  5
947
330
1F
100
AcDbEntity
  8
Object
100
AcDbLine
 10
5.498457890809008
 20
8.954402550944545
 30
0.0
 11
5.483457890809008
 21
8.954402550944545
 31
0.0
  0
LINE
  5
948
330
1F
100
AcDbEntity
  8
Object
100
AcDbLine
 10
5.483457890809008
 20
9.079402550944545
 30
0.0
 11
5.483457890809008
 21
8.982402550944545
 31
0.0
  0
LINE
  5
949
330
1F
100
AcDbEntity
  8
Object
100
AcDbLine
 10
5.483457890809008
 20
8.982402550944545
 30
0.0
 11
5.409457890809008
 21
9.079402550944545
 31
0.0
  0
LINE
  5
94A
330
1F
100
AcDbEntity
  8
Object
100
AcDbLine
 10
5.409457890809008
 20
8.954402550944545
 30
0.0
 11
5.409457890809008
 21
9.050402550944545
 31
0.0
  0
LINE
  5
94B
330
1F
100
AcDbEntity
  8
Object
100
AcDbLine
 10
5.409457890809008
 20
9.050402550944545
 30
0.0
 11
5.483457890809008
 21
8.954402550944545
 31
0.0
  0
LINE
  5
94C
330
1F
100
AcDbEntity
  8
Object
100
AcDbLine
 10
5.393457890809008
 20
9.079402550944545
 30
0.0
 11
5.409457890809008
 21
9.079402550944545
 31
0.0
  0
LINE
  5
94D
330
1F
100
AcDbEntity
  8
Object
100
AcDbLine
 10
5.409457890809008
 20
8.954402550944545
 30
0.0
 11
5.393457890809008
 21
8.954402550944545
 31
0.0
  0
LINE
  5
94E
330
1F
100
AcDbEntity
  8
Object
100
AcDbLine
 10
5.393457890809008
 20
8.954402550944545
 30
0.0
 11
5.393457890809008
 21
9.079402550944545
 31
0.0
  0
LINE
  5
94F
330
1F
100
AcDbEntity
  8
Object
100
AcDbLine
 10
5.337457890809008
 20
8.954402550944545
 30
0.0
 11
5.354457890809008
 21
8.954402550944545
 31
0.0
  0
LINE
  5
950
330
1F
100
AcDbEntity
  8
Object
100
AcDbLine
 10
5.354457890809008
 20
8.954402550944545
 30
0.0
 11
5.309457890809008
 21
9.079402550944545
 31
0.0
  0
LINE
  5
951
330
1F
100
AcDbEntity
  8
Object
100
AcDbLine
 10
5.309457890809008
 20
9.079402550944545
 30
0.0
 11
5.292457890809008
 21
9.079402550944545
 31
0.0
  0
LINE
  5
952
330
1F
100
AcDbEntity
  8
Object
100
AcDbLine
 10
5.272457890809008
 20
8.976402550944545
 30
0.0
 11
5.328457890809009
 21
8.976402550944545
 31
0.0
  0
LINE
  5
953
330
1F
100
AcDbEntity
  8
Object
100
AcDbLine
 10
5.328457890809009
 20
8.976402550944545
 30
0.0
 11
5.337457890809008
 21
8.954402550944545
 31
0.0
  0
LINE
  5
954
330
1F
100
AcDbEntity
  8
Object
100
AcDbLine
 10
5.272457890809008
 20
8.976402550944545
 30
0.0
 11
5.263457890809008
 21
8.954402550944545
 31
0.0
  0
LINE
  5
955
330
1F
100
AcDbEntity
  8
Object
100
AcDbLine
 10
5.263457890809008
 20
8.954402550944545
 30
0.0
 11
5.246457890809009
 21
8.954402550944545
 31
0.0
  0
LINE
  5
956
330
1F
100
AcDbEntity
  8
Object
100
AcDbLine
 10
5.207457890809008
 20
9.064402550944544
 30
0.0
 11
5.207457890809008
 21
9.024402550944543
 31
0.0
  0
LINE
  5
957
330
1F
100
AcDbEntity
  8
Object
100
AcDbLine
 10
5.246457890809009
 20
8.954402550944545
 30
0.0
 11
5.292457890809008
 21
9.079402550944545
 31
0.0
  0
LINE
  5
958
330
1F
100
AcDbEntity
  8
Object
100
AcDbLine
 10
5.207457890809008
 20
9.024402550944543
 30
0.0
 11
5.179457890809008
 21
9.011402550944545
 31
0.0
  0
LINE
  5
959
330
1F
100
AcDbEntity
  8
Object
100
AcDbLine
 10
5.179457890809008
 20
9.079402550944545
 30
0.0
 11
5.207457890809008
 21
9.064402550944544
 31
0.0
  0
LINE
  5
95A
330
1F
100
AcDbEntity
  8
Object
100
AcDbLine
 10
5.117457890809008
 20
8.954402550944545
 30
0.0
 11
5.117457890809008
 21
9.011402550944545
 31
0.0
  0
LINE
  5
95B
330
1F
100
AcDbEntity
  8
Object
100
AcDbLine
 10
5.117457890809008
 20
9.011402550944545
 30
0.0
 11
5.179457890809008
 21
9.011402550944545
 31
0.0
  0
LINE
  5
95C
330
1F
100
AcDbEntity
  8
Object
100
AcDbLine
 10
5.117457890809008
 20
8.954402550944545
 30
0.0
 11
5.102457890809009
 21
8.954402550944545
 31
0.0
  0
LINE
  5
95D
330
1F
100
AcDbEntity
  8
Object
100
AcDbLine
 10
5.102457890809009
 20
8.954402550944545
 30
0.0
 11
5.102457890809009
 21
9.079402550944545
 31
0.0
  0
LINE
  5
95E
330
1F
100
AcDbEntity
  8
Object
100
AcDbLine
 10
4.355457890809008
 20
8.756402550944544
 30
0.0
 11
5.613457890809009
 21
8.756402550944544
 31
0.0
  0
LINE
  5
95F
330
1F
100
AcDbEntity
  8
Object
100
AcDbLine
 10
3.570457890809008
 20
8.603402550944544
 30
0.0
 11
3.574457890809009
 21
8.651402550944546
 31
0.0
  0
LINE
  5
960
330
1F
100
AcDbEntity
  8
Object
100
AcDbLine
 10
3.574457890809009
 20
8.651402550944546
 30
0.0
 11
3.570457890809008
 21
8.699402550944544
 31
0.0
  0
LINE
  5
961
330
1F
100
AcDbEntity
  8
Object
100
AcDbLine
 10
4.253457890809007
 20
8.678402550944545
 30
0.0
 11
4.250457890809007
 21
8.651402550944546
 31
0.0
  0
LINE
  5
962
330
1F
100
AcDbEntity
  8
Object
100
AcDbLine
 10
4.250457890809007
 20
8.651402550944546
 30
0.0
 11
4.253457890809007
 21
8.624402550944544
 31
0.0
  0
LINE
  5
963
330
1F
100
AcDbEntity
  8
Object
100
AcDbLine
 10
4.253457890809007
 20
8.624402550944544
 30
0.0
 11
4.264457890809008
 21
8.598402550944545
 31
0.0
  0
LINE
  5
964
330
1F
100
AcDbEntity
  8
Object
100
AcDbLine
 10
3.570457890809008
 20
8.603402550944544
 30
0.0
 11
3.559457890809008
 21
8.555402550944545
 31
0.0
  0
LINE
  5
965
330
1F
100
AcDbEntity
  8
Object
100
AcDbLine
 10
4.253457890809007
 20
8.678402550944545
 30
0.0
 11
4.264457890809008
 21
8.704402550944545
 31
0.0
  0
LINE
  5
966
330
1F
100
AcDbEntity
  8
Object
100
AcDbLine
 10
3.570457890809008
 20
8.699402550944544
 30
0.0
 11
3.559457890809008
 21
8.747402550944546
 31
0.0
  0
LINE
  5
967
330
1F
100
AcDbEntity
  8
Object
100
AcDbLine
 10
3.559457890809008
 20
8.747402550944546
 30
0.0
 11
3.541457890809008
 21
8.792402550944544
 31
0.0
  0
LINE
  5
968
330
1F
100
AcDbEntity
  8
Object
100
AcDbLine
 10
4.264457890809008
 20
8.704402550944545
 30
0.0
 11
4.280457890809008
 21
8.725402550944544
 31
0.0
  0
LINE
  5
969
330
1F
100
AcDbEntity
  8
Object
100
AcDbLine
 10
3.559457890809008
 20
8.555402550944545
 30
0.0
 11
3.541457890809008
 21
8.510402550944544
 31
0.0
  0
LINE
  5
96A
330
1F
100
AcDbEntity
  8
Object
100
AcDbLine
 10
4.280457890809008
 20
8.577402550944544
 30
0.0
 11
4.264457890809008
 21
8.598402550944545
 31
0.0
  0
LINE
  5
96B
330
1F
100
AcDbEntity
  8
Object
100
AcDbLine
 10
4.280457890809008
 20
8.725402550944544
 30
0.0
 11
4.302457890809009
 21
8.742402550944543
 31
0.0
  0
LINE
  5
96C
330
1F
100
AcDbEntity
  8
Object
100
AcDbLine
 10
3.517457890809009
 20
8.834402550944545
 30
0.0
 11
3.541457890809008
 21
8.792402550944544
 31
0.0
  0
LINE
  5
96D
330
1F
100
AcDbEntity
  8
Object
100
AcDbLine
 10
4.302457890809009
 20
8.560402550944544
 30
0.0
 11
4.280457890809008
 21
8.577402550944544
 31
0.0
  0
LINE
  5
96E
330
1F
100
AcDbEntity
  8
Object
100
AcDbLine
 10
3.541457890809008
 20
8.510402550944544
 30
0.0
 11
3.517457890809009
 21
8.468402550944546
 31
0.0
  0
LINE
  5
96F
330
1F
100
AcDbEntity
  8
Object
100
AcDbLine
 10
3.487457890809009
 20
8.872402550944546
 30
0.0
 11
3.517457890809009
 21
8.834402550944545
 31
0.0
  0
LINE
  5
970
330
1F
100
AcDbEntity
  8
Object
100
AcDbLine
 10
4.302457890809009
 20
8.742402550944543
 30
0.0
 11
4.327457890809009
 21
8.752402550944545
 31
0.0
  0
LINE
  5
971
330
1F
100
AcDbEntity
  8
Object
100
AcDbLine
 10
3.517457890809009
 20
8.468402550944546
 30
0.0
 11
3.487457890809009
 21
8.430402550944545
 31
0.0
  0
LINE
  5
972
330
1F
100
AcDbEntity
  8
Object
100
AcDbLine
 10
4.327457890809009
 20
8.550402550944545
 30
0.0
 11
4.302457890809009
 21
8.560402550944544
 31
0.0
  0
LINE
  5
973
330
1F
100
AcDbEntity
  8
Object
100
AcDbLine
 10
3.451457890809008
 20
8.905402550944543
 30
0.0
 11
3.487457890809009
 21
8.872402550944546
 31
0.0
  0
LINE
  5
974
330
1F
100
AcDbEntity
  8
Object
100
AcDbLine
 10
3.487457890809009
 20
8.430402550944545
 30
0.0
 11
3.451457890809008
 21
8.397402550944544
 31
0.0
  0
LINE
  5
975
330
1F
100
AcDbEntity
  8
Object
100
AcDbLine
 10
3.411457890809009
 20
8.933402550944546
 30
0.0
 11
3.451457890809008
 21
8.905402550944543
 31
0.0
  0
LINE
  5
976
330
1F
100
AcDbEntity
  8
Object
100
AcDbLine
 10
4.327457890809009
 20
8.752402550944545
 30
0.0
 11
4.355457890809008
 21
8.756402550944544
 31
0.0
  0
LINE
  5
977
330
1F
100
AcDbEntity
  8
Object
100
AcDbLine
 10
3.451457890809008
 20
8.397402550944544
 30
0.0
 11
3.411457890809009
 21
8.369402550944545
 31
0.0
  0
LINE
  5
978
330
1F
100
AcDbEntity
  8
Object
100
AcDbLine
 10
4.355457890809008
 20
8.546402550944545
 30
0.0
 11
4.327457890809009
 21
8.550402550944545
 31
0.0
  0
LINE
  5
979
330
1F
100
AcDbEntity
  8
Object
100
AcDbLine
 10
3.367457890809008
 20
8.954402550944545
 30
0.0
 11
3.411457890809009
 21
8.933402550944546
 31
0.0
  0
LINE
  5
97A
330
1F
100
AcDbEntity
  8
Object
100
AcDbLine
 10
3.411457890809009
 20
8.369402550944545
 30
0.0
 11
3.367457890809008
 21
8.348402550944545
 31
0.0
  0
LINE
  5
97B
330
1F
100
AcDbEntity
  8
Object
100
AcDbLine
 10
3.321457890809009
 20
8.968402550944546
 30
0.0
 11
3.367457890809008
 21
8.954402550944545
 31
0.0
  0
LINE
  5
97C
330
1F
100
AcDbEntity
  8
Object
100
AcDbLine
 10
3.367457890809008
 20
8.348402550944545
 30
0.0
 11
3.321457890809009
 21
8.334402550944545
 31
0.0
  0
LINE
  5
97D
330
1F
100
AcDbEntity
  8
Object
100
AcDbLine
 10
5.613457890809009
 20
8.546402550944545
 30
0.0
 11
4.355457890809008
 21
8.546402550944545
 31
0.0
  0
LINE
  5
97E
330
1F
100
AcDbEntity
  8
Object
100
AcDbLine
 10
3.321457890809009
 20
8.968402550944546
 30
0.0
 11
3.273457890809009
 21
8.975402550944544
 31
0.0
  0
LINE
  5
97F
330
1F
100
AcDbEntity
  8
Object
100
AcDbLine
 10
3.273457890809009
 20
8.975402550944544
 30
0.0
 11
3.224457890809008
 21
8.975402550944544
 31
0.0
  0
LINE
  5
980
330
1F
100
AcDbEntity
  8
Object
100
AcDbLine
 10
3.224457890809008
 20
8.975402550944544
 30
0.0
 11
3.176457890809009
 21
8.968402550944546
 31
0.0
  0
LINE
  5
981
330
1F
100
AcDbEntity
  8
Object
100
AcDbLine
 10
3.176457890809009
 20
8.968402550944546
 30
0.0
 11
3.130457890809008
 21
8.954402550944545
 31
0.0
  0
LINE
  5
982
330
1F
100
AcDbEntity
  8
Object
100
AcDbLine
 10
3.130457890809008
 20
8.954402550944545
 30
0.0
 11
3.086457890809008
 21
8.933402550944546
 31
0.0
  0
LINE
  5
983
330
1F
100
AcDbEntity
  8
Object
100
AcDbLine
 10
3.086457890809008
 20
8.933402550944546
 30
0.0
 11
3.046457890809008
 21
8.905402550944543
 31
0.0
  0
LINE
  5
984
330
1F
100
AcDbEntity
  8
Object
100
AcDbLine
 10
3.046457890809008
 20
8.905402550944543
 30
0.0
 11
3.010457890809009
 21
8.872402550944546
 31
0.0
  0
LINE
  5
985
330
1F
100
AcDbEntity
  8
Object
100
AcDbLine
 10
8.062457890809008
 20
9.276402550944546
 30
0.0
 11
2.436457890809007
 21
9.276402550944546
 31
0.0
  0
LINE
  5
986
330
1F
100
AcDbEntity
  8
Object
100
AcDbLine
 10
5.102457890809009
 20
9.079402550944545
 30
0.0
 11
5.179457890809008
 21
9.079402550944545
 31
0.0
  0
LINE
  5
987
330
1F
100
AcDbEntity
  8
Object
100
AcDbLine
 10
2.980457890809008
 20
8.834402550944545
 30
0.0
 11
3.010457890809009
 21
8.872402550944546
 31
0.0
  0
LINE
  5
988
330
1F
100
AcDbEntity
  8
Object
100
AcDbLine
 10
2.436457890809007
 20
8.026402550944546
 30
0.0
 11
8.062457890809008
 21
8.026402550944546
 31
0.0
  0
LINE
  5
989
330
1F
100
AcDbEntity
  8
Object
100
AcDbLine
 10
2.980457890809008
 20
8.468402550944546
 30
0.0
 11
3.010457890809009
 21
8.430402550944545
 31
0.0
  0
LINE
  5
98A
330
1F
100
AcDbEntity
  8
Object
100
AcDbLine
 10
3.010457890809009
 20
8.430402550944545
 30
0.0
 11
3.046457890809008
 21
8.397402550944544
 31
0.0
  0
LINE
  5
98B
330
1F
100
AcDbEntity
  8
Object
100
AcDbLine
 10
3.046457890809008
 20
8.397402550944544
 30
0.0
 11
3.086457890809008
 21
8.369402550944545
 31
0.0
  0
LINE
  5
98C
330
1F
100
AcDbEntity
  8
Object
100
AcDbLine
 10
3.086457890809008
 20
8.369402550944545
 30
0.0
 11
3.130457890809008
 21
8.348402550944545
 31
0.0
  0
LINE
  5
98D
330
1F
100
AcDbEntity
  8
Object
100
AcDbLine
 10
3.130457890809008
 20
8.348402550944545
 30
0.0
 11
3.176457890809009
 21
8.334402550944545
 31
0.0
  0
LINE
  5
98E
330
1F
100
AcDbEntity
  8
Object
100
AcDbLine
 10
3.176457890809009
 20
8.334402550944545
 30
0.0
 11
3.224457890809008
 21
8.327402550944544
 31
0.0
  0
LINE
  5
98F
330
1F
100
AcDbEntity
  8
Object
100
AcDbLine
 10
3.224457890809008
 20
8.327402550944544
 30
0.0
 11
3.273457890809009
 21
8.327402550944544
 31
0.0
  0
LINE
  5
990
330
1F
100
AcDbEntity
  8
Object
100
AcDbLine
 10
3.273457890809009
 20
8.327402550944544
 30
0.0
 11
3.321457890809009
 21
8.334402550944545
 31
0.0
  0
LINE
  5
991
330
1F
100
AcDbEntity
  8
Object
100
AcDbLine
 10
2.436457890809007
 20
9.276402550944546
 30
0.0
 11
2.249457890809008
 21
9.089402550944544
 31
0.0
  0
LINE
  5
992
330
1F
100
AcDbEntity
  8
Object
100
AcDbLine
 10
2.980457890809008
 20
8.834402550944545
 30
0.0
 11
2.956457890809009
 21
8.792402550944544
 31
0.0
  0
LINE
  5
993
330
1F
100
AcDbEntity
  8
Object
100
AcDbLine
 10
2.956457890809009
 20
8.792402550944544
 30
0.0
 11
2.938457890809008
 21
8.747402550944546
 31
0.0
  0
LINE
  5
994
330
1F
100
AcDbEntity
  8
Object
100
AcDbLine
 10
2.938457890809008
 20
8.747402550944546
 30
0.0
 11
2.927457890809009
 21
8.699402550944544
 31
0.0
  0
LINE
  5
995
330
1F
100
AcDbEntity
  8
Object
100
AcDbLine
 10
2.927457890809009
 20
8.699402550944544
 30
0.0
 11
2.924457890809009
 21
8.651402550944546
 31
0.0
  0
LINE
  5
996
330
1F
100
AcDbEntity
  8
Object
100
AcDbLine
 10
2.924457890809009
 20
8.651402550944546
 30
0.0
 11
2.927457890809009
 21
8.603402550944544
 31
0.0
  0
LINE
  5
997
330
1F
100
AcDbEntity
  8
Object
100
AcDbLine
 10
2.249457890809008
 20
9.089402550944544
 30
0.0
 11
2.249457890809008
 21
8.213402550944543
 31
0.0
  0
LINE
  5
998
330
1F
100
AcDbEntity
  8
Object
100
AcDbLine
 10
2.927457890809009
 20
8.603402550944544
 30
0.0
 11
2.938457890809008
 21
8.555402550944545
 31
0.0
  0
LINE
  5
999
330
1F
100
AcDbEntity
  8
Object
100
AcDbLine
 10
2.938457890809008
 20
8.555402550944545
 30
0.0
 11
2.956457890809009
 21
8.510402550944544
 31
0.0
  0
LINE
  5
99A
330
1F
100
AcDbEntity
  8
Object
100
AcDbLine
 10
2.956457890809009
 20
8.510402550944544
 30
0.0
 11
2.980457890809008
 21
8.468402550944546
 31
0.0
  0
LINE
  5
99B
330
1F
100
AcDbEntity
  8
Object
100
AcDbLine
 10
2.249457890809008
 20
8.213402550944543
 30
0.0
 11
2.436457890809007
 21
8.026402550944546
 31
0.0
  0
LINE
  5
99C
330
1F
100
AcDbEntity
  8
Object
100
AcDbLine
 10
7.044457890809009
 20
9.011402550944545
 30
0.0
 11
7.069457890809008
 21
8.998402550944543
 31
0.0
  0
LINE
  5
99D
330
1F
100
AcDbEntity
  8
Object
100
AcDbLine
 10
7.069457890809008
 20
8.998402550944543
 30
0.0
 11
7.069457890809008
 21
8.978402550944544
 31
0.0
  0
LINE
  5
99E
330
1F
100
AcDbEntity
  8
Object
100
AcDbLine
 10
7.069457890809008
 20
8.978402550944544
 30
0.0
 11
7.044457890809009
 21
8.965402550944546
 31
0.0
  0
LINE
  5
99F
330
1F
100
AcDbEntity
  8
Object
100
AcDbLine
 10
7.044457890809009
 20
9.011402550944545
 30
0.0
 11
7.021457890809008
 21
9.011402550944545
 31
0.0
  0
LINE
  5
9A0
330
1F
100
AcDbEntity
  8
Object
100
AcDbLine
 10
7.044457890809009
 20
8.965402550944546
 30
0.0
 11
7.021457890809008
 21
8.965402550944546
 31
0.0
  0
LINE
  5
9A1
330
1F
100
AcDbEntity
  8
Object
100
AcDbLine
 10
7.021457890809008
 20
8.965402550944546
 30
0.0
 11
6.995457890809008
 21
8.978402550944544
 31
0.0
  0
LINE
  5
9A2
330
1F
100
AcDbEntity
  8
Object
100
AcDbLine
 10
6.995457890809008
 20
8.978402550944544
 30
0.0
 11
6.995457890809008
 21
8.998402550944543
 31
0.0
  0
LINE
  5
9A3
330
1F
100
AcDbEntity
  8
Object
100
AcDbLine
 10
6.995457890809008
 20
8.998402550944543
 30
0.0
 11
7.021457890809008
 21
9.011402550944545
 31
0.0
  0
LINE
  5
9A4
330
1F
100
AcDbEntity
  8
Object
100
AcDbLine
 10
8.062457890809008
 20
9.276402550944546
 30
0.0
 11
2.436457890809007
 21
9.276402550944546
 31
0.0
  0
LINE
  5
9A5
330
1F
100
AcDbEntity
  8
Object
100
AcDbLine
 10
4.355457890809008
 20
8.756402550944544
 30
0.0
 11
5.613457890809009
 21
8.756402550944544
 31
0.0
  0
LINE
  5
9A6
330
1F
100
AcDbEntity
  8
Object
100
AcDbLine
 10
5.179457890809008
 20
9.079402550944545
 30
0.0
 11
5.207457890809008
 21
9.064402550944544
 31
0.0
  0
LINE
  5
9A7
330
1F
100
AcDbEntity
  8
Object
100
AcDbLine
 10
5.393457890809008
 20
8.954402550944545
 30
0.0
 11
5.393457890809008
 21
9.079402550944545
 31
0.0
  0
LINE
  5
9A8
330
1F
100
AcDbEntity
  8
Object
100
AcDbLine
 10
5.483457890809008
 20
8.954402550944545
 30
0.0
 11
5.409457890809008
 21
9.050402550944545
 31
0.0
  0
LINE
  5
9A9
330
1F
100
AcDbEntity
  8
Object
100
AcDbLine
 10
5.538457890809008
 20
8.954402550944545
 30
0.0
 11
5.538457890809008
 21
9.079402550944545
 31
0.0
  0
LINE
  5
9AA
330
1F
100
AcDbEntity
  8
Object
100
AcDbLine
 10
5.698457890809009
 20
8.987402550944544
 30
0.0
 11
5.719457890809009
 21
8.965402550944546
 31
0.0
  0
LINE
  5
9AB
330
1F
100
AcDbEntity
  8
Object
100
AcDbLine
 10
6.506457890809008
 20
9.024402550944543
 30
0.0
 11
6.484457890809008
 21
9.013402550944544
 31
0.0
  0
LINE
  5
9AC
330
1F
100
AcDbEntity
  8
Object
100
AcDbLine
 10
6.401457890809008
 20
9.079402550944545
 30
0.0
 11
6.478457890809008
 21
9.079402550944545
 31
0.0
  0
LINE
  5
9AD
330
1F
100
AcDbEntity
  8
Object
100
AcDbLine
 10
6.690457890809009
 20
8.954402550944545
 30
0.0
 11
6.690457890809009
 21
9.079402550944545
 31
0.0
  0
LINE
  5
9AE
330
1F
100
AcDbEntity
  8
Object
100
AcDbLine
 10
6.850457890809009
 20
8.978402550944544
 30
0.0
 11
6.877457890809008
 21
8.965402550944546
 31
0.0
  0
LINE
  5
9AF
330
1F
100
AcDbEntity
  8
Object
100
AcDbLine
 10
8.062457890809008
 20
8.026402550944546
 30
0.0
 11
8.249457890809008
 21
8.213402550944543
 31
0.0
  0
LINE
  5
9B0
330
1F
100
AcDbEntity
  8
Object
100
AcDbLine
 10
5.179457890809008
 20
9.011402550944545
 30
0.0
 11
5.117457890809008
 21
9.011402550944545
 31
0.0
  0
LINE
  5
9B1
330
1F
100
AcDbEntity
  8
Object
100
AcDbLine
 10
5.409457890809008
 20
8.954402550944545
 30
0.0
 11
5.393457890809008
 21
8.954402550944545
 31
0.0
  0
LINE
  5
9B2
330
1F
100
AcDbEntity
  8
Object
100
AcDbLine
 10
5.772457890809008
 20
9.079402550944545
 30
0.0
 11
5.788457890809008
 21
9.079402550944545
 31
0.0
  0
LINE
  5
9B3
330
1F
100
AcDbEntity
  8
Object
100
AcDbLine
 10
5.879457890809009
 20
9.079402550944545
 30
0.0
 11
5.955457890809008
 21
9.079402550944545
 31
0.0
  0
LINE
  5
9B4
330
1F
100
AcDbEntity
  8
Object
100
AcDbLine
 10
6.154457890809008
 20
9.079402550944545
 30
0.0
 11
6.245457890809008
 21
9.079402550944545
 31
0.0
  0
LINE
  5
9B5
330
1F
100
AcDbEntity
  8
Object
100
AcDbLine
 10
6.489457890809008
 20
8.954402550944545
 30
0.0
 11
6.469457890809009
 21
9.011402550944545
 31
0.0
  0
LINE
  5
9B6
330
1F
100
AcDbEntity
  8
Object
100
AcDbLine
 10
6.706457890809009
 20
9.079402550944545
 30
0.0
 11
6.780457890809008
 21
8.982402550944545
 31
0.0
  0
LINE
  5
9B7
330
1F
100
AcDbEntity
  8
Object
100
AcDbLine
 10
6.835457890809008
 20
9.008402550944545
 30
0.0
 11
6.835457890809008
 21
9.079402550944545
 31
0.0
  0
LINE
  5
9B8
330
1F
100
AcDbEntity
  8
Object
100
AcDbLine
 10
6.924457890809009
 20
8.978402550944544
 30
0.0
 11
6.924457890809009
 21
9.008402550944545
 31
0.0
  0
LINE
  5
9B9
330
1F
100
AcDbEntity
  8
Object
100
AcDbLine
 10
6.573457890809009
 20
8.756402550944544
 30
0.0
 11
7.832457890809008
 21
8.756402550944544
 31
0.0
  0
LINE
  5
9BA
330
1F
100
AcDbEntity
  8
Object
100
AcDbLine
 10
5.246457890809009
 20
8.954402550944545
 30
0.0
 11
5.292457890809008
 21
9.079402550944545
 31
0.0
  0
LINE
  5
9BB
330
1F
100
AcDbEntity
  8
Object
100
AcDbLine
 10
5.788457890809008
 20
9.079402550944545
 30
0.0
 11
5.788457890809008
 21
8.980402550944544
 31
0.0
  0
LINE
  5
9BC
330
1F
100
AcDbEntity
  8
Object
100
AcDbLine
 10
5.752457890809008
 20
8.965402550944546
 30
0.0
 11
5.772457890809008
 21
8.987402550944544
 31
0.0
  0
LINE
  5
9BD
330
1F
100
AcDbEntity
  8
Object
100
AcDbLine
 10
5.683457890809008
 20
8.980402550944544
 30
0.0
 11
5.683457890809008
 21
9.079402550944545
 31
0.0
  0
LINE
  5
9BE
330
1F
100
AcDbEntity
  8
Object
100
AcDbLine
 10
5.828457890809009
 20
9.067402550944544
 30
0.0
 11
5.828457890809009
 21
9.079402550944545
 31
0.0
  0
LINE
  5
9BF
330
1F
100
AcDbEntity
  8
Object
100
AcDbLine
 10
6.285457890809008
 20
9.079402550944545
 30
0.0
 11
6.361457890809008
 21
9.079402550944545
 31
0.0
  0
LINE
  5
9C0
330
1F
100
AcDbEntity
  8
Object
100
AcDbLine
 10
6.316457890809008
 20
8.954402550944545
 30
0.0
 11
6.316457890809008
 21
9.067402550944544
 31
0.0
  0
LINE
  5
9C1
330
1F
100
AcDbEntity
  8
Object
100
AcDbLine
 10
6.401457890809008
 20
8.954402550944545
 30
0.0
 11
6.401457890809008
 21
9.079402550944545
 31
0.0
  0
LINE
  5
9C2
330
1F
100
AcDbEntity
  8
Object
100
AcDbLine
 10
6.637457890809009
 20
9.023402550944545
 30
0.0
 11
6.650457890809009
 21
9.015402550944545
 31
0.0
  0
LINE
  5
9C3
330
1F
100
AcDbEntity
  8
Object
100
AcDbLine
 10
6.861457890809008
 20
8.954402550944545
 30
0.0
 11
6.835457890809008
 21
8.967402550944544
 31
0.0
  0
LINE
  5
9C4
330
1F
100
AcDbEntity
  8
Object
100
AcDbLine
 10
7.937457890809008
 20
8.651402550944546
 30
0.0
 11
7.933457890809008
 21
8.624402550944544
 31
0.0
  0
LINE
  5
9C5
330
1F
100
AcDbEntity
  8
Object
100
AcDbLine
 10
7.933457890809008
 20
8.624402550944544
 30
0.0
 11
7.922457890809008
 21
8.598402550944545
 31
0.0
  0
LINE
  5
9C6
330
1F
100
AcDbEntity
  8
Object
100
AcDbLine
 10
7.922457890809008
 20
8.598402550944545
 30
0.0
 11
7.906457890809008
 21
8.577402550944544
 31
0.0
  0
LINE
  5
9C7
330
1F
100
AcDbEntity
  8
Object
100
AcDbLine
 10
7.906457890809008
 20
8.577402550944544
 30
0.0
 11
7.884457890809009
 21
8.560402550944544
 31
0.0
  0
LINE
  5
9C8
330
1F
100
AcDbEntity
  8
Object
100
AcDbLine
 10
7.884457890809009
 20
8.560402550944544
 30
0.0
 11
7.859457890809008
 21
8.550402550944545
 31
0.0
  0
LINE
  5
9C9
330
1F
100
AcDbEntity
  8
Object
100
AcDbLine
 10
7.859457890809008
 20
8.550402550944545
 30
0.0
 11
7.832457890809008
 21
8.546402550944545
 31
0.0
  0
LINE
  5
9CA
330
1F
100
AcDbEntity
  8
Object
100
AcDbLine
 10
5.263457890809008
 20
8.954402550944545
 30
0.0
 11
5.246457890809009
 21
8.954402550944545
 31
0.0
  0
LINE
  5
9CB
330
1F
100
AcDbEntity
  8
Object
100
AcDbLine
 10
5.498457890809008
 20
8.954402550944545
 30
0.0
 11
5.483457890809008
 21
8.954402550944545
 31
0.0
  0
LINE
  5
9CC
330
1F
100
AcDbEntity
  8
Object
100
AcDbLine
 10
5.615457890809008
 20
8.954402550944545
 30
0.0
 11
5.538457890809008
 21
8.954402550944545
 31
0.0
  0
LINE
  5
9CD
330
1F
100
AcDbEntity
  8
Object
100
AcDbLine
 10
5.719457890809009
 20
8.965402550944546
 30
0.0
 11
5.752457890809008
 21
8.965402550944546
 31
0.0
  0
LINE
  5
9CE
330
1F
100
AcDbEntity
  8
Object
100
AcDbLine
 10
5.837457890809008
 20
8.965402550944546
 30
0.0
 11
5.839457890809009
 21
8.965402550944546
 31
0.0
  0
LINE
  5
9CF
330
1F
100
AcDbEntity
  8
Object
100
AcDbLine
 10
5.924457890809009
 20
9.067402550944544
 30
0.0
 11
5.924457890809009
 21
8.954402550944545
 31
0.0
  0
LINE
  5
9D0
330
1F
100
AcDbEntity
  8
Object
100
AcDbLine
 10
6.224457890809008
 20
9.021402550944545
 30
0.0
 11
6.224457890809008
 21
9.011402550944545
 31
0.0
  0
LINE
  5
9D1
330
1F
100
AcDbEntity
  8
Object
100
AcDbLine
 10
6.245457890809008
 20
9.067402550944544
 30
0.0
 11
6.168457890809008
 21
9.067402550944544
 31
0.0
  0
LINE
  5
9D2
330
1F
100
AcDbEntity
  8
Object
100
AcDbLine
 10
6.506457890809008
 20
8.954402550944545
 30
0.0
 11
6.489457890809008
 21
8.954402550944545
 31
0.0
  0
LINE
  5
9D3
330
1F
100
AcDbEntity
  8
Object
100
AcDbLine
 10
6.506457890809008
 20
9.064402550944544
 30
0.0
 11
6.506457890809008
 21
9.024402550944543
 31
0.0
  0
LINE
  5
9D4
330
1F
100
AcDbEntity
  8
Object
100
AcDbLine
 10
6.780457890809008
 20
9.079402550944545
 30
0.0
 11
6.795457890809008
 21
9.079402550944545
 31
0.0
  0
LINE
  5
9D5
330
1F
100
AcDbEntity
  8
Object
100
AcDbLine
 10
6.706457890809009
 20
8.954402550944545
 30
0.0
 11
6.690457890809009
 21
8.954402550944545
 31
0.0
  0
LINE
  5
9D6
330
1F
100
AcDbEntity
  8
Object
100
AcDbLine
 10
6.780457890809008
 20
8.954402550944545
 30
0.0
 11
6.706457890809009
 21
9.050402550944545
 31
0.0
  0
LINE
  5
9D7
330
1F
100
AcDbEntity
  8
Object
100
AcDbLine
 10
6.940457890809009
 20
9.079402550944545
 30
0.0
 11
6.940457890809009
 21
9.067402550944544
 31
0.0
  0
LINE
  5
9D8
330
1F
100
AcDbEntity
  8
Object
100
AcDbLine
 10
6.899457890809008
 20
8.965402550944546
 30
0.0
 11
6.924457890809009
 21
8.978402550944544
 31
0.0
  0
LINE
  5
9D9
330
1F
100
AcDbEntity
  8
Object
100
AcDbLine
 10
6.850457890809009
 20
8.989402550944545
 30
0.0
 11
6.850457890809009
 21
8.978402550944544
 31
0.0
  0
LINE
  5
9DA
330
1F
100
AcDbEntity
  8
Object
100
AcDbLine
 10
5.337457890809008
 20
8.954402550944545
 30
0.0
 11
5.328457890809009
 21
8.976402550944545
 31
0.0
  0
LINE
  5
9DB
330
1F
100
AcDbEntity
  8
Object
100
AcDbLine
 10
5.698457890809009
 20
9.079402550944545
 30
0.0
 11
5.698457890809009
 21
8.987402550944544
 31
0.0
  0
LINE
  5
9DC
330
1F
100
AcDbEntity
  8
Object
100
AcDbLine
 10
5.764457890809008
 20
8.954402550944545
 30
0.0
 11
5.707457890809008
 21
8.954402550944545
 31
0.0
  0
LINE
  5
9DD
330
1F
100
AcDbEntity
  8
Object
100
AcDbLine
 10
5.879457890809009
 20
9.067402550944544
 30
0.0
 11
5.879457890809009
 21
9.079402550944545
 31
0.0
  0
LINE
  5
9DE
330
1F
100
AcDbEntity
  8
Object
100
AcDbLine
 10
6.650457890809009
 20
8.967402550944544
 30
0.0
 11
6.630457890809008
 21
8.954402550944545
 31
0.0
  0
LINE
  5
9DF
330
1F
100
AcDbEntity
  8
Object
100
AcDbLine
 10
6.850457890809009
 20
9.028402550944544
 30
0.0
 11
6.861457890809008
 21
9.033402550944543
 31
0.0
  0
LINE
  5
9E0
330
1F
100
AcDbEntity
  8
Object
100
AcDbLine
 10
6.850457890809009
 20
9.008402550944545
 30
0.0
 11
6.835457890809008
 21
9.008402550944545
 31
0.0
  0
LINE
  5
9E1
330
1F
100
AcDbEntity
  8
Object
100
AcDbLine
 10
6.899457890809008
 20
9.021402550944545
 30
0.0
 11
6.877457890809008
 21
9.021402550944545
 31
0.0
  0
LINE
  5
9E2
330
1F
100
AcDbEntity
  8
Object
100
AcDbLine
 10
7.937457890809008
 20
8.651402550944546
 30
0.0
 11
7.933457890809008
 21
8.678402550944545
 31
0.0
  0
LINE
  5
9E3
330
1F
100
AcDbEntity
  8
Object
100
AcDbLine
 10
7.933457890809008
 20
8.678402550944545
 30
0.0
 11
7.922457890809008
 21
8.704402550944545
 31
0.0
  0
LINE
  5
9E4
330
1F
100
AcDbEntity
  8
Object
100
AcDbLine
 10
7.922457890809008
 20
8.704402550944545
 30
0.0
 11
7.906457890809008
 21
8.725402550944544
 31
0.0
  0
LINE
  5
9E5
330
1F
100
AcDbEntity
  8
Object
100
AcDbLine
 10
7.906457890809008
 20
8.725402550944544
 30
0.0
 11
7.884457890809009
 21
8.742402550944543
 31
0.0
  0
LINE
  5
9E6
330
1F
100
AcDbEntity
  8
Object
100
AcDbLine
 10
7.884457890809009
 20
8.742402550944543
 30
0.0
 11
7.859457890809008
 21
8.752402550944545
 31
0.0
  0
LINE
  5
9E7
330
1F
100
AcDbEntity
  8
Object
100
AcDbLine
 10
7.859457890809008
 20
8.752402550944545
 30
0.0
 11
7.832457890809008
 21
8.756402550944544
 31
0.0
  0
LINE
  5
9E8
330
1F
100
AcDbEntity
  8
Object
100
AcDbLine
 10
6.546457890809008
 20
8.752402550944545
 30
0.0
 11
6.573457890809009
 21
8.756402550944544
 31
0.0
  0
LINE
  5
9E9
330
1F
100
AcDbEntity
  8
Object
100
AcDbLine
 10
6.573457890809009
 20
8.546402550944545
 30
0.0
 11
6.546457890809008
 21
8.550402550944545
 31
0.0
  0
LINE
  5
9EA
330
1F
100
AcDbEntity
  8
Object
100
AcDbLine
 10
6.546457890809008
 20
8.550402550944545
 30
0.0
 11
6.521457890809008
 21
8.560402550944544
 31
0.0
  0
LINE
  5
9EB
330
1F
100
AcDbEntity
  8
Object
100
AcDbLine
 10
6.546457890809008
 20
8.752402550944545
 30
0.0
 11
6.521457890809008
 21
8.742402550944543
 31
0.0
  0
LINE
  5
9EC
330
1F
100
AcDbEntity
  8
Object
100
AcDbLine
 10
6.521457890809008
 20
8.742402550944543
 30
0.0
 11
6.499457890809008
 21
8.725402550944544
 31
0.0
  0
LINE
  5
9ED
330
1F
100
AcDbEntity
  8
Object
100
AcDbLine
 10
6.521457890809008
 20
8.560402550944544
 30
0.0
 11
6.499457890809008
 21
8.577402550944544
 31
0.0
  0
LINE
  5
9EE
330
1F
100
AcDbEntity
  8
Object
100
AcDbLine
 10
6.499457890809008
 20
8.577402550944544
 30
0.0
 11
6.482457890809008
 21
8.598402550944545
 31
0.0
  0
LINE
  5
9EF
330
1F
100
AcDbEntity
  8
Object
100
AcDbLine
 10
6.482457890809008
 20
8.704402550944545
 30
0.0
 11
6.499457890809008
 21
8.725402550944544
 31
0.0
  0
LINE
  5
9F0
330
1F
100
AcDbEntity
  8
Object
100
AcDbLine
 10
6.482457890809008
 20
8.598402550944545
 30
0.0
 11
6.472457890809009
 21
8.624402550944544
 31
0.0
  0
LINE
  5
9F1
330
1F
100
AcDbEntity
  8
Object
100
AcDbLine
 10
6.472457890809009
 20
8.678402550944545
 30
0.0
 11
6.482457890809008
 21
8.704402550944545
 31
0.0
  0
LINE
  5
9F2
330
1F
100
AcDbEntity
  8
Object
100
AcDbLine
 10
6.472457890809009
 20
8.624402550944544
 30
0.0
 11
6.468457890809008
 21
8.651402550944546
 31
0.0
  0
LINE
  5
9F3
330
1F
100
AcDbEntity
  8
Object
100
AcDbLine
 10
6.468457890809008
 20
8.651402550944546
 30
0.0
 11
6.472457890809009
 21
8.678402550944545
 31
0.0
  0
LINE
  5
9F4
330
1F
100
AcDbEntity
  8
Object
100
AcDbLine
 10
2.249457890809008
 20
8.213402550944543
 30
0.0
 11
2.436457890809007
 21
8.026402550944546
 31
0.0
  0
LINE
  5
9F5
330
1F
100
AcDbEntity
  8
Object
100
AcDbLine
 10
4.327457890809009
 20
8.752402550944545
 30
0.0
 11
4.355457890809008
 21
8.756402550944544
 31
0.0
  0
LINE
  5
9F6
330
1F
100
AcDbEntity
  8
Object
100
AcDbLine
 10
4.355457890809008
 20
8.546402550944545
 30
0.0
 11
4.327457890809009
 21
8.550402550944545
 31
0.0
  0
LINE
  5
9F7
330
1F
100
AcDbEntity
  8
Object
100
AcDbLine
 10
4.327457890809009
 20
8.550402550944545
 30
0.0
 11
4.302457890809009
 21
8.560402550944544
 31
0.0
  0
LINE
  5
9F8
330
1F
100
AcDbEntity
  8
Object
100
AcDbLine
 10
4.327457890809009
 20
8.752402550944545
 30
0.0
 11
4.302457890809009
 21
8.742402550944543
 31
0.0
  0
LINE
  5
9F9
330
1F
100
AcDbEntity
  8
Object
100
AcDbLine
 10
4.302457890809009
 20
8.742402550944543
 30
0.0
 11
4.280457890809008
 21
8.725402550944544
 31
0.0
  0
LINE
  5
9FA
330
1F
100
AcDbEntity
  8
Object
100
AcDbLine
 10
4.302457890809009
 20
8.560402550944544
 30
0.0
 11
4.280457890809008
 21
8.577402550944544
 31
0.0
  0
LINE
  5
9FB
330
1F
100
AcDbEntity
  8
Object
100
AcDbLine
 10
4.280457890809008
 20
8.577402550944544
 30
0.0
 11
4.264457890809008
 21
8.598402550944545
 31
0.0
  0
LINE
  5
9FC
330
1F
100
AcDbEntity
  8
Object
100
AcDbLine
 10
4.264457890809008
 20
8.704402550944545
 30
0.0
 11
4.280457890809008
 21
8.725402550944544
 31
0.0
  0
LINE
  5
9FD
330
1F
100
AcDbEntity
  8
Object
100
AcDbLine
 10
4.264457890809008
 20
8.598402550944545
 30
0.0
 11
4.253457890809007
 21
8.624402550944544
 31
0.0
  0
LINE
  5
9FE
330
1F
100
AcDbEntity
  8
Object
100
AcDbLine
 10
4.253457890809007
 20
8.678402550944545
 30
0.0
 11
4.264457890809008
 21
8.704402550944545
 31
0.0
  0
LINE
  5
9FF
330
1F
100
AcDbEntity
  8
Object
100
AcDbLine
 10
4.253457890809007
 20
8.624402550944544
 30
0.0
 11
4.250457890809007
 21
8.651402550944546
 31
0.0
  0
LINE
  5
A00
330
1F
100
AcDbEntity
  8
Object
100
AcDbLine
 10
4.250457890809007
 20
8.651402550944546
 30
0.0
 11
4.253457890809007
 21
8.678402550944545
 31
0.0
  0
LINE
  5
A01
330
1F
100
AcDbEntity
  8
Object
100
AcDbLine
 10
5.207457890809008
 20
9.024402550944543
 30
0.0
 11
5.179457890809008
 21
9.011402550944545
 31
0.0
  0
LINE
  5
A02
330
1F
100
AcDbEntity
  8
Object
100
AcDbLine
 10
5.328457890809009
 20
8.976402550944545
 30
0.0
 11
5.272457890809008
 21
8.976402550944545
 31
0.0
  0
LINE
  5
A03
330
1F
100
AcDbEntity
  8
Object
100
AcDbLine
 10
5.615457890809008
 20
9.079402550944545
 30
0.0
 11
5.643457890809008
 21
9.047402550944545
 31
0.0
  0
LINE
  5
A04
330
1F
100
AcDbEntity
  8
Object
100
AcDbLine
 10
5.683457890809008
 20
9.079402550944545
 30
0.0
 11
5.698457890809009
 21
9.079402550944545
 31
0.0
  0
LINE
  5
A05
330
1F
100
AcDbEntity
  8
Object
100
AcDbLine
 10
5.839457890809009
 20
9.079402550944545
 30
0.0
 11
5.839457890809009
 21
9.067402550944544
 31
0.0
  0
LINE
  5
A06
330
1F
100
AcDbEntity
  8
Object
100
AcDbLine
 10
5.830457890809008
 20
9.067402550944544
 30
0.0
 11
5.828457890809009
 21
9.067402550944544
 31
0.0
  0
LINE
  5
A07
330
1F
100
AcDbEntity
  8
Object
100
AcDbLine
 10
5.828457890809009
 20
8.954402550944545
 30
0.0
 11
5.828457890809009
 21
8.965402550944546
 31
0.0
  0
LINE
  5
A08
330
1F
100
AcDbEntity
  8
Object
100
AcDbLine
 10
6.168457890809008
 20
9.021402550944545
 30
0.0
 11
6.224457890809008
 21
9.021402550944545
 31
0.0
  0
LINE
  5
A09
330
1F
100
AcDbEntity
  8
Object
100
AcDbLine
 10
6.154457890809008
 20
8.954402550944545
 30
0.0
 11
6.154457890809008
 21
9.079402550944545
 31
0.0
  0
LINE
  5
A0A
330
1F
100
AcDbEntity
  8
Object
100
AcDbLine
 10
6.795457890809008
 20
8.954402550944545
 30
0.0
 11
6.780457890809008
 21
8.954402550944545
 31
0.0
  0
LINE
  5
A0B
330
1F
100
AcDbEntity
  8
Object
100
AcDbLine
 10
6.690457890809009
 20
9.079402550944545
 30
0.0
 11
6.706457890809009
 21
9.079402550944545
 31
0.0
  0
LINE
  5
A0C
330
1F
100
AcDbEntity
  8
Object
100
AcDbLine
 10
2.436457890809007
 20
9.276402550944546
 30
0.0
 11
2.249457890809008
 21
9.089402550944544
 31
0.0
  0
LINE
  5
A0D
330
1F
100
AcDbEntity
  8
Object
100
AcDbLine
 10
5.714457890809009
 20
8.678402550944545
 30
0.0
 11
5.718457890809008
 21
8.651402550944546
 31
0.0
  0
LINE
  5
A0E
330
1F
100
AcDbEntity
  8
Object
100
AcDbLine
 10
5.718457890809008
 20
8.651402550944546
 30
0.0
 11
5.714457890809009
 21
8.624402550944544
 31
0.0
  0
LINE
  5
A0F
330
1F
100
AcDbEntity
  8
Object
100
AcDbLine
 10
5.704457890809008
 20
8.704402550944545
 30
0.0
 11
5.714457890809009
 21
8.678402550944545
 31
0.0
  0
LINE
  5
A10
330
1F
100
AcDbEntity
  8
Object
100
AcDbLine
 10
5.714457890809009
 20
8.624402550944544
 30
0.0
 11
5.704457890809008
 21
8.598402550944545
 31
0.0
  0
LINE
  5
A11
330
1F
100
AcDbEntity
  8
Object
100
AcDbLine
 10
5.704457890809008
 20
8.598402550944545
 30
0.0
 11
5.687457890809008
 21
8.577402550944544
 31
0.0
  0
LINE
  5
A12
330
1F
100
AcDbEntity
  8
Object
100
AcDbLine
 10
5.704457890809008
 20
8.704402550944545
 30
0.0
 11
5.687457890809008
 21
8.725402550944544
 31
0.0
  0
LINE
  5
A13
330
1F
100
AcDbEntity
  8
Object
100
AcDbLine
 10
5.687457890809008
 20
8.725402550944544
 30
0.0
 11
5.666457890809009
 21
8.742402550944543
 31
0.0
  0
LINE
  5
A14
330
1F
100
AcDbEntity
  8
Object
100
AcDbLine
 10
5.687457890809008
 20
8.577402550944544
 30
0.0
 11
5.666457890809009
 21
8.560402550944544
 31
0.0
  0
LINE
  5
A15
330
1F
100
AcDbEntity
  8
Object
100
AcDbLine
 10
5.666457890809009
 20
8.560402550944544
 30
0.0
 11
5.640457890809008
 21
8.550402550944545
 31
0.0
  0
LINE
  5
A16
330
1F
100
AcDbEntity
  8
Object
100
AcDbLine
 10
5.666457890809009
 20
8.742402550944543
 30
0.0
 11
5.640457890809008
 21
8.752402550944545
 31
0.0
  0
LINE
  5
A17
330
1F
100
AcDbEntity
  8
Object
100
AcDbLine
 10
5.640457890809008
 20
8.752402550944545
 30
0.0
 11
5.613457890809009
 21
8.756402550944544
 31
0.0
  0
LINE
  5
A18
330
1F
100
AcDbEntity
  8
Object
100
AcDbLine
 10
5.640457890809008
 20
8.550402550944545
 30
0.0
 11
5.613457890809009
 21
8.546402550944545
 31
0.0
  0
LINE
  5
A19
330
1F
100
AcDbEntity
  8
Object
100
AcDbLine
 10
5.272457890809008
 20
8.976402550944545
 30
0.0
 11
5.263457890809008
 21
8.954402550944545
 31
0.0
  0
LINE
  5
A1A
330
1F
100
AcDbEntity
  8
Object
100
AcDbLine
 10
5.498457890809008
 20
9.079402550944545
 30
0.0
 11
5.498457890809008
 21
8.954402550944545
 31
0.0
  0
LINE
  5
A1B
330
1F
100
AcDbEntity
  8
Object
100
AcDbLine
 10
5.643457890809008
 20
8.985402550944545
 30
0.0
 11
5.615457890809008
 21
8.954402550944545
 31
0.0
  0
LINE
  5
A1C
330
1F
100
AcDbEntity
  8
Object
100
AcDbLine
 10
5.707457890809008
 20
8.954402550944545
 30
0.0
 11
5.683457890809008
 21
8.980402550944544
 31
0.0
  0
LINE
  5
A1D
330
1F
100
AcDbEntity
  8
Object
100
AcDbLine
 10
5.839457890809009
 20
8.965402550944546
 30
0.0
 11
5.839457890809009
 21
8.954402550944545
 31
0.0
  0
LINE
  5
A1E
330
1F
100
AcDbEntity
  8
Object
100
AcDbLine
 10
5.955457890809008
 20
9.067402550944544
 30
0.0
 11
5.924457890809009
 21
9.067402550944544
 31
0.0
  0
LINE
  5
A1F
330
1F
100
AcDbEntity
  8
Object
100
AcDbLine
 10
6.285457890809008
 20
9.067402550944544
 30
0.0
 11
6.285457890809008
 21
9.079402550944545
 31
0.0
  0
LINE
  5
A20
330
1F
100
AcDbEntity
  8
Object
100
AcDbLine
 10
6.361457890809008
 20
9.067402550944544
 30
0.0
 11
6.329457890809008
 21
9.067402550944544
 31
0.0
  0
LINE
  5
A21
330
1F
100
AcDbEntity
  8
Object
100
AcDbLine
 10
6.484457890809008
 20
9.013402550944544
 30
0.0
 11
6.506457890809008
 21
8.954402550944545
 31
0.0
  0
LINE
  5
A22
330
1F
100
AcDbEntity
  8
Object
100
AcDbLine
 10
6.640457890809008
 20
9.027402550944543
 30
0.0
 11
6.637457890809009
 21
9.023402550944545
 31
0.0
  0
LINE
  5
A23
330
1F
100
AcDbEntity
  8
Object
100
AcDbLine
 10
6.850457890809009
 20
9.067402550944544
 30
0.0
 11
6.850457890809009
 21
9.028402550944544
 31
0.0
  0
LINE
  5
A24
330
1F
100
AcDbEntity
  8
Object
100
AcDbLine
 10
6.835457890809008
 20
9.079402550944545
 30
0.0
 11
6.940457890809009
 21
9.079402550944545
 31
0.0
  0
LINE
  5
A25
330
1F
100
AcDbEntity
  8
Object
100
AcDbLine
 10
6.877457890809008
 20
8.965402550944546
 30
0.0
 11
6.899457890809008
 21
8.965402550944546
 31
0.0
  0
LINE
  5
A26
330
1F
100
AcDbEntity
  8
Object
100
AcDbLine
 10
7.832457890809008
 20
8.546402550944545
 30
0.0
 11
6.573457890809009
 21
8.546402550944545
 31
0.0
  0
LINE
  5
A27
330
1F
100
AcDbEntity
  8
Object
100
AcDbLine
 10
8.249457890809008
 20
8.213402550944543
 30
0.0
 11
8.249457890809008
 21
9.089402550944544
 31
0.0
  0
LINE
  5
A28
330
1F
100
AcDbEntity
  8
Object
100
AcDbLine
 10
3.574457890809009
 20
8.651402550944546
 30
0.0
 11
3.570457890809008
 21
8.699402550944544
 31
0.0
  0
LINE
  5
A29
330
1F
100
AcDbEntity
  8
Object
100
AcDbLine
 10
3.570457890809008
 20
8.699402550944544
 30
0.0
 11
3.559457890809008
 21
8.747402550944546
 31
0.0
  0
LINE
  5
A2A
330
1F
100
AcDbEntity
  8
Object
100
AcDbLine
 10
3.559457890809008
 20
8.747402550944546
 30
0.0
 11
3.541457890809008
 21
8.792402550944544
 31
0.0
  0
LINE
  5
A2B
330
1F
100
AcDbEntity
  8
Object
100
AcDbLine
 10
3.541457890809008
 20
8.792402550944544
 30
0.0
 11
3.517457890809009
 21
8.834402550944545
 31
0.0
  0
LINE
  5
A2C
330
1F
100
AcDbEntity
  8
Object
100
AcDbLine
 10
3.517457890809009
 20
8.834402550944545
 30
0.0
 11
3.487457890809009
 21
8.872402550944546
 31
0.0
  0
LINE
  5
A2D
330
1F
100
AcDbEntity
  8
Object
100
AcDbLine
 10
3.487457890809009
 20
8.872402550944546
 30
0.0
 11
3.451457890809008
 21
8.905402550944543
 31
0.0
  0
LINE
  5
A2E
330
1F
100
AcDbEntity
  8
Object
100
AcDbLine
 10
3.451457890809008
 20
8.905402550944543
 30
0.0
 11
3.411457890809009
 21
8.933402550944546
 31
0.0
  0
LINE
  5
A2F
330
1F
100
AcDbEntity
  8
Object
100
AcDbLine
 10
3.411457890809009
 20
8.933402550944546
 30
0.0
 11
3.367457890809008
 21
8.954402550944545
 31
0.0
  0
LINE
  5
A30
330
1F
100
AcDbEntity
  8
Object
100
AcDbLine
 10
3.367457890809008
 20
8.954402550944545
 30
0.0
 11
3.321457890809009
 21
8.968402550944546
 31
0.0
  0
LINE
  5
A31
330
1F
100
AcDbEntity
  8
Object
100
AcDbLine
 10
3.321457890809009
 20
8.968402550944546
 30
0.0
 11
3.273457890809009
 21
8.975402550944544
 31
0.0
  0
LINE
  5
A32
330
1F
100
AcDbEntity
  8
Object
100
AcDbLine
 10
3.273457890809009
 20
8.975402550944544
 30
0.0
 11
3.224457890809008
 21
8.975402550944544
 31
0.0
  0
LINE
  5
A33
330
1F
100
AcDbEntity
  8
Object
100
AcDbLine
 10
3.224457890809008
 20
8.975402550944544
 30
0.0
 11
3.176457890809009
 21
8.968402550944546
 31
0.0
  0
LINE
  5
A34
330
1F
100
AcDbEntity
  8
Object
100
AcDbLine
 10
3.176457890809009
 20
8.968402550944546
 30
0.0
 11
3.130457890809008
 21
8.954402550944545
 31
0.0
  0
LINE
  5
A35
330
1F
100
AcDbEntity
  8
Object
100
AcDbLine
 10
3.130457890809008
 20
8.954402550944545
 30
0.0
 11
3.086457890809008
 21
8.933402550944546
 31
0.0
  0
LINE
  5
A36
330
1F
100
AcDbEntity
  8
Object
100
AcDbLine
 10
3.086457890809008
 20
8.933402550944546
 30
0.0
 11
3.046457890809008
 21
8.905402550944543
 31
0.0
  0
LINE
  5
A37
330
1F
100
AcDbEntity
  8
Object
100
AcDbLine
 10
3.046457890809008
 20
8.905402550944543
 30
0.0
 11
3.010457890809009
 21
8.872402550944546
 31
0.0
  0
LINE
  5
A38
330
1F
100
AcDbEntity
  8
Object
100
AcDbLine
 10
3.010457890809009
 20
8.872402550944546
 30
0.0
 11
2.980457890809008
 21
8.834402550944545
 31
0.0
  0
LINE
  5
A39
330
1F
100
AcDbEntity
  8
Object
100
AcDbLine
 10
2.980457890809008
 20
8.834402550944545
 30
0.0
 11
2.956457890809009
 21
8.792402550944544
 31
0.0
  0
LINE
  5
A3A
330
1F
100
AcDbEntity
  8
Object
100
AcDbLine
 10
2.956457890809009
 20
8.792402550944544
 30
0.0
 11
2.938457890809008
 21
8.747402550944546
 31
0.0
  0
LINE
  5
A3B
330
1F
100
AcDbEntity
  8
Object
100
AcDbLine
 10
2.938457890809008
 20
8.747402550944546
 30
0.0
 11
2.927457890809009
 21
8.699402550944544
 31
0.0
  0
LINE
  5
A3C
330
1F
100
AcDbEntity
  8
Object
100
AcDbLine
 10
2.927457890809009
 20
8.699402550944544
 30
0.0
 11
2.924457890809009
 21
8.651402550944546
 31
0.0
  0
LINE
  5
A3D
330
1F
100
AcDbEntity
  8
Object
100
AcDbLine
 10
5.772457890809008
 20
8.987402550944544
 30
0.0
 11
5.772457890809008
 21
9.079402550944545
 31
0.0
  0
LINE
  5
A3E
330
1F
100
AcDbEntity
  8
Object
100
AcDbLine
 10
5.837457890809008
 20
9.067402550944544
 30
0.0
 11
5.837457890809008
 21
8.965402550944546
 31
0.0
  0
LINE
  5
A3F
330
1F
100
AcDbEntity
  8
Object
100
AcDbLine
 10
6.245457890809008
 20
9.079402550944545
 30
0.0
 11
6.245457890809008
 21
9.067402550944544
 31
0.0
  0
LINE
  5
A40
330
1F
100
AcDbEntity
  8
Object
100
AcDbLine
 10
6.469457890809009
 20
9.011402550944545
 30
0.0
 11
6.416457890809009
 21
9.011402550944545
 31
0.0
  0
LINE
  5
A41
330
1F
100
AcDbEntity
  8
Object
100
AcDbLine
 10
6.914457890809008
 20
9.033402550944543
 30
0.0
 11
6.940457890809009
 21
9.020402550944545
 31
0.0
  0
LINE
  5
A42
330
1F
100
AcDbEntity
  8
Object
100
AcDbLine
 10
6.924457890809009
 20
9.008402550944545
 30
0.0
 11
6.899457890809008
 21
9.021402550944545
 31
0.0
  0
LINE
  5
A43
330
1F
100
AcDbEntity
  8
Object
100
AcDbLine
 10
5.117457890809008
 20
8.954402550944545
 30
0.0
 11
5.102457890809009
 21
8.954402550944545
 31
0.0
  0
LINE
  5
A44
330
1F
100
AcDbEntity
  8
Object
100
AcDbLine
 10
5.292457890809008
 20
9.079402550944545
 30
0.0
 11
5.309457890809008
 21
9.079402550944545
 31
0.0
  0
LINE
  5
A45
330
1F
100
AcDbEntity
  8
Object
100
AcDbLine
 10
5.839457890809009
 20
9.067402550944544
 30
0.0
 11
5.837457890809008
 21
9.067402550944544
 31
0.0
  0
LINE
  5
A46
330
1F
100
AcDbEntity
  8
Object
100
AcDbLine
 10
5.830457890809008
 20
8.965402550944546
 30
0.0
 11
5.830457890809008
 21
9.067402550944544
 31
0.0
  0
LINE
  5
A47
330
1F
100
AcDbEntity
  8
Object
100
AcDbLine
 10
5.955457890809008
 20
9.079402550944545
 30
0.0
 11
5.955457890809008
 21
9.067402550944544
 31
0.0
  0
LINE
  5
A48
330
1F
100
AcDbEntity
  8
Object
100
AcDbLine
 10
6.168457890809008
 20
9.067402550944544
 30
0.0
 11
6.168457890809008
 21
9.021402550944545
 31
0.0
  0
LINE
  5
A49
330
1F
100
AcDbEntity
  8
Object
100
AcDbLine
 10
6.630457890809008
 20
8.954402550944545
 30
0.0
 11
6.545457890809008
 21
8.954402550944545
 31
0.0
  0
LINE
  5
A4A
330
1F
100
AcDbEntity
  8
Object
100
AcDbLine
 10
6.877457890809008
 20
9.021402550944545
 30
0.0
 11
6.850457890809009
 21
9.008402550944545
 31
0.0
  0
LINE
  5
A4B
330
1F
100
AcDbEntity
  8
Object
100
AcDbLine
 10
2.436457890809007
 20
8.026402550944546
 30
0.0
 11
8.062457890809008
 21
8.026402550944546
 31
0.0
  0
LINE
  5
A4C
330
1F
100
AcDbEntity
  8
Object
100
AcDbLine
 10
5.102457890809009
 20
9.079402550944545
 30
0.0
 11
5.179457890809008
 21
9.079402550944545
 31
0.0
  0
LINE
  5
A4D
330
1F
100
AcDbEntity
  8
Object
100
AcDbLine
 10
5.483457890809008
 20
9.079402550944545
 30
0.0
 11
5.498457890809008
 21
9.079402550944545
 31
0.0
  0
LINE
  5
A4E
330
1F
100
AcDbEntity
  8
Object
100
AcDbLine
 10
5.409457890809008
 20
9.079402550944545
 30
0.0
 11
5.483457890809008
 21
8.982402550944545
 31
0.0
  0
LINE
  5
A4F
330
1F
100
AcDbEntity
  8
Object
100
AcDbLine
 10
5.643457890809008
 20
9.047402550944545
 30
0.0
 11
5.643457890809008
 21
8.985402550944545
 31
0.0
  0
LINE
  5
A50
330
1F
100
AcDbEntity
  8
Object
100
AcDbLine
 10
5.828457890809009
 20
9.079402550944545
 30
0.0
 11
5.839457890809009
 21
9.079402550944545
 31
0.0
  0
LINE
  5
A51
330
1F
100
AcDbEntity
  8
Object
100
AcDbLine
 10
5.924457890809009
 20
8.954402550944545
 30
0.0
 11
5.910457890809008
 21
8.954402550944545
 31
0.0
  0
LINE
  5
A52
330
1F
100
AcDbEntity
  8
Object
100
AcDbLine
 10
6.168457890809008
 20
8.954402550944545
 30
0.0
 11
6.154457890809008
 21
8.954402550944545
 31
0.0
  0
LINE
  5
A53
330
1F
100
AcDbEntity
  8
Object
100
AcDbLine
 10
6.416457890809009
 20
9.011402550944545
 30
0.0
 11
6.416457890809009
 21
8.954402550944545
 31
0.0
  0
LINE
  5
A54
330
1F
100
AcDbEntity
  8
Object
100
AcDbLine
 10
6.940457890809009
 20
9.067402550944544
 30
0.0
 11
6.850457890809009
 21
9.067402550944544
 31
0.0
  0
LINE
  5
A55
330
1F
100
AcDbEntity
  8
Object
100
AcDbLine
 10
6.914457890809008
 20
8.954402550944545
 30
0.0
 11
6.861457890809008
 21
8.954402550944545
 31
0.0
  0
LINE
  5
A56
330
1F
100
AcDbEntity
  8
Object
100
AcDbLine
 10
5.409457890809008
 20
9.050402550944545
 30
0.0
 11
5.409457890809008
 21
8.954402550944545
 31
0.0
  0
LINE
  5
A57
330
1F
100
AcDbEntity
  8
Object
100
AcDbLine
 10
6.224457890809008
 20
9.011402550944545
 30
0.0
 11
6.168457890809008
 21
9.011402550944545
 31
0.0
  0
LINE
  5
A58
330
1F
100
AcDbEntity
  8
Object
100
AcDbLine
 10
6.861457890809008
 20
9.033402550944543
 30
0.0
 11
6.914457890809008
 21
9.033402550944543
 31
0.0
  0
LINE
  5
A59
330
1F
100
AcDbEntity
  8
Object
100
AcDbLine
 10
6.940457890809009
 20
8.967402550944544
 30
0.0
 11
6.914457890809008
 21
8.954402550944545
 31
0.0
  0
LINE
  5
A5A
330
1F
100
AcDbEntity
  8
Object
100
AcDbLine
 10
5.393457890809008
 20
9.079402550944545
 30
0.0
 11
5.409457890809008
 21
9.079402550944545
 31
0.0
  0
LINE
  5
A5B
330
1F
100
AcDbEntity
  8
Object
100
AcDbLine
 10
6.545457890809008
 20
9.079402550944545
 30
0.0
 11
6.630457890809008
 21
9.079402550944545
 31
0.0
  0
LINE
  5
A5C
330
1F
100
AcDbEntity
  8
Object
100
AcDbLine
 10
5.483457890809008
 20
8.982402550944545
 30
0.0
 11
5.483457890809008
 21
9.079402550944545
 31
0.0
  0
LINE
  5
A5D
330
1F
100
AcDbEntity
  8
Object
100
AcDbLine
 10
6.168457890809008
 20
9.011402550944545
 30
0.0
 11
6.168457890809008
 21
8.954402550944545
 31
0.0
  0
LINE
  5
A5E
330
1F
100
AcDbEntity
  8
Object
100
AcDbLine
 10
5.102457890809009
 20
8.954402550944545
 30
0.0
 11
5.102457890809009
 21
9.079402550944545
 31
0.0
  0
LINE
  5
A5F
330
1F
100
AcDbEntity
  8
Object
100
AcDbLine
 10
6.329457890809008
 20
8.954402550944545
 30
0.0
 11
6.316457890809008
 21
8.954402550944545
 31
0.0
  0
LINE
  5
A60
330
1F
100
AcDbEntity
  8
Object
100
AcDbLine
 10
6.416457890809009
 20
8.954402550944545
 30
0.0
 11
6.401457890809008
 21
8.954402550944545
 31
0.0
  0
LINE
  5
A61
330
1F
100
AcDbEntity
  8
Object
100
AcDbLine
 10
6.640457890809008
 20
9.067402550944544
 30
0.0
 11
6.640457890809008
 21
9.027402550944543
 31
0.0
  0
LINE
  5
A62
330
1F
100
AcDbEntity
  8
Object
100
AcDbLine
 10
6.706457890809009
 20
9.050402550944545
 30
0.0
 11
6.706457890809009
 21
8.954402550944545
 31
0.0
  0
LINE
  5
A63
330
1F
100
AcDbEntity
  8
Object
100
AcDbLine
 10
6.940457890809009
 20
9.020402550944545
 30
0.0
 11
6.940457890809009
 21
8.967402550944544
 31
0.0
  0
LINE
  5
A64
330
1F
100
AcDbEntity
  8
Object
100
AcDbLine
 10
3.574457890809009
 20
8.651402550944546
 30
0.0
 11
3.570457890809008
 21
8.603402550944544
 31
0.0
  0
LINE
  5
A65
330
1F
100
AcDbEntity
  8
Object
100
AcDbLine
 10
3.570457890809008
 20
8.603402550944544
 30
0.0
 11
3.559457890809008
 21
8.555402550944545
 31
0.0
  0
LINE
  5
A66
330
1F
100
AcDbEntity
  8
Object
100
AcDbLine
 10
3.559457890809008
 20
8.555402550944545
 30
0.0
 11
3.541457890809008
 21
8.510402550944544
 31
0.0
  0
LINE
  5
A67
330
1F
100
AcDbEntity
  8
Object
100
AcDbLine
 10
3.541457890809008
 20
8.510402550944544
 30
0.0
 11
3.517457890809009
 21
8.468402550944546
 31
0.0
  0
LINE
  5
A68
330
1F
100
AcDbEntity
  8
Object
100
AcDbLine
 10
3.517457890809009
 20
8.468402550944546
 30
0.0
 11
3.487457890809009
 21
8.430402550944545
 31
0.0
  0
LINE
  5
A69
330
1F
100
AcDbEntity
  8
Object
100
AcDbLine
 10
3.487457890809009
 20
8.430402550944545
 30
0.0
 11
3.451457890809008
 21
8.397402550944544
 31
0.0
  0
LINE
  5
A6A
330
1F
100
AcDbEntity
  8
Object
100
AcDbLine
 10
3.451457890809008
 20
8.397402550944544
 30
0.0
 11
3.411457890809009
 21
8.369402550944545
 31
0.0
  0
LINE
  5
A6B
330
1F
100
AcDbEntity
  8
Object
100
AcDbLine
 10
3.411457890809009
 20
8.369402550944545
 30
0.0
 11
3.367457890809008
 21
8.348402550944545
 31
0.0
  0
LINE
  5
A6C
330
1F
100
AcDbEntity
  8
Object
100
AcDbLine
 10
3.367457890809008
 20
8.348402550944545
 30
0.0
 11
3.321457890809009
 21
8.334402550944545
 31
0.0
  0
LINE
  5
A6D
330
1F
100
AcDbEntity
  8
Object
100
AcDbLine
 10
3.321457890809009
 20
8.334402550944545
 30
0.0
 11
3.273457890809009
 21
8.327402550944544
 31
0.0
  0
LINE
  5
A6E
330
1F
100
AcDbEntity
  8
Object
100
AcDbLine
 10
3.273457890809009
 20
8.327402550944544
 30
0.0
 11
3.224457890809008
 21
8.327402550944544
 31
0.0
  0
LINE
  5
A6F
330
1F
100
AcDbEntity
  8
Object
100
AcDbLine
 10
3.224457890809008
 20
8.327402550944544
 30
0.0
 11
3.176457890809009
 21
8.334402550944545
 31
0.0
  0
LINE
  5
A70
330
1F
100
AcDbEntity
  8
Object
100
AcDbLine
 10
3.176457890809009
 20
8.334402550944545
 30
0.0
 11
3.130457890809008
 21
8.348402550944545
 31
0.0
  0
LINE
  5
A71
330
1F
100
AcDbEntity
  8
Object
100
AcDbLine
 10
3.130457890809008
 20
8.348402550944545
 30
0.0
 11
3.086457890809008
 21
8.369402550944545
 31
0.0
  0
LINE
  5
A72
330
1F
100
AcDbEntity
  8
Object
100
AcDbLine
 10
3.086457890809008
 20
8.369402550944545
 30
0.0
 11
3.046457890809008
 21
8.397402550944544
 31
0.0
  0
LINE
  5
A73
330
1F
100
AcDbEntity
  8
Object
100
AcDbLine
 10
3.046457890809008
 20
8.397402550944544
 30
0.0
 11
3.010457890809009
 21
8.430402550944545
 31
0.0
  0
LINE
  5
A74
330
1F
100
AcDbEntity
  8
Object
100
AcDbLine
 10
3.010457890809009
 20
8.430402550944545
 30
0.0
 11
2.980457890809008
 21
8.468402550944546
 31
0.0
  0
LINE
  5
A75
330
1F
100
AcDbEntity
  8
Object
100
AcDbLine
 10
2.980457890809008
 20
8.468402550944546
 30
0.0
 11
2.956457890809009
 21
8.510402550944544
 31
0.0
  0
LINE
  5
A76
330
1F
100
AcDbEntity
  8
Object
100
AcDbLine
 10
2.956457890809009
 20
8.510402550944544
 30
0.0
 11
2.938457890809008
 21
8.555402550944545
 31
0.0
  0
LINE
  5
A77
330
1F
100
AcDbEntity
  8
Object
100
AcDbLine
 10
2.938457890809008
 20
8.555402550944545
 30
0.0
 11
2.927457890809009
 21
8.603402550944544
 31
0.0
  0
LINE
  5
A78
330
1F
100
AcDbEntity
  8
Object
100
AcDbLine
 10
2.927457890809009
 20
8.603402550944544
 30
0.0
 11
2.924457890809009
 21
8.651402550944546
 31
0.0
  0
LINE
  5
A79
330
1F
100
AcDbEntity
  8
Object
100
AcDbLine
 10
5.207457890809008
 20
9.064402550944544
 30
0.0
 11
5.207457890809008
 21
9.024402550944543
 31
0.0
  0
LINE
  5
A7A
330
1F
100
AcDbEntity
  8
Object
100
AcDbLine
 10
5.910457890809008
 20
8.954402550944545
 30
0.0
 11
5.910457890809008
 21
9.067402550944544
 31
0.0
  0
LINE
  5
A7B
330
1F
100
AcDbEntity
  8
Object
100
AcDbLine
 10
6.478457890809008
 20
9.079402550944545
 30
0.0
 11
6.506457890809008
 21
9.064402550944544
 31
0.0
  0
LINE
  5
A7C
330
1F
100
AcDbEntity
  8
Object
100
AcDbLine
 10
6.835457890809008
 20
8.989402550944545
 30
0.0
 11
6.850457890809009
 21
8.989402550944545
 31
0.0
  0
LINE
  5
A7D
330
1F
100
AcDbEntity
  8
Object
100
AcDbLine
 10
8.249457890809008
 20
9.089402550944544
 30
0.0
 11
8.062457890809008
 21
9.276402550944546
 31
0.0
  0
LINE
  5
A7E
330
1F
100
AcDbEntity
  8
Object
100
AcDbLine
 10
5.354457890809008
 20
8.954402550944545
 30
0.0
 11
5.337457890809008
 21
8.954402550944545
 31
0.0
  0
LINE
  5
A7F
330
1F
100
AcDbEntity
  8
Object
100
AcDbLine
 10
5.538457890809008
 20
9.079402550944545
 30
0.0
 11
5.615457890809008
 21
9.079402550944545
 31
0.0
  0
LINE
  5
A80
330
1F
100
AcDbEntity
  8
Object
100
AcDbLine
 10
5.788457890809008
 20
8.980402550944544
 30
0.0
 11
5.764457890809008
 21
8.954402550944545
 31
0.0
  0
LINE
  5
A81
330
1F
100
AcDbEntity
  8
Object
100
AcDbLine
 10
5.839457890809009
 20
8.954402550944545
 30
0.0
 11
5.828457890809009
 21
8.954402550944545
 31
0.0
  0
LINE
  5
A82
330
1F
100
AcDbEntity
  8
Object
100
AcDbLine
 10
6.545457890809008
 20
8.954402550944545
 30
0.0
 11
6.545457890809008
 21
9.079402550944545
 31
0.0
  0
LINE
  5
A83
330
1F
100
AcDbEntity
  8
Object
100
AcDbLine
 10
6.780457890809008
 20
8.982402550944545
 30
0.0
 11
6.780457890809008
 21
9.079402550944545
 31
0.0
  0
LINE
  5
A84
330
1F
100
AcDbEntity
  8
Object
100
AcDbLine
 10
2.249457890809008
 20
9.089402550944544
 30
0.0
 11
2.249457890809008
 21
8.213402550944543
 31
0.0
  0
LINE
  5
A85
330
1F
100
AcDbEntity
  8
Object
100
AcDbLine
 10
5.613457890809009
 20
8.546402550944545
 30
0.0
 11
4.355457890809008
 21
8.546402550944545
 31
0.0
  0
LINE
  5
A86
330
1F
100
AcDbEntity
  8
Object
100
AcDbLine
 10
5.117457890809008
 20
9.011402550944545
 30
0.0
 11
5.117457890809008
 21
8.954402550944545
 31
0.0
  0
LINE
  5
A87
330
1F
100
AcDbEntity
  8
Object
100
AcDbLine
 10
5.309457890809008
 20
9.079402550944545
 30
0.0
 11
5.354457890809008
 21
8.954402550944545
 31
0.0
  0
LINE
  5
A88
330
1F
100
AcDbEntity
  8
Object
100
AcDbLine
 10
5.828457890809009
 20
8.965402550944546
 30
0.0
 11
5.830457890809008
 21
8.965402550944546
 31
0.0
  0
LINE
  5
A89
330
1F
100
AcDbEntity
  8
Object
100
AcDbLine
 10
5.910457890809008
 20
9.067402550944544
 30
0.0
 11
5.879457890809009
 21
9.067402550944544
 31
0.0
  0
LINE
  5
A8A
330
1F
100
AcDbEntity
  8
Object
100
AcDbLine
 10
6.361457890809008
 20
9.079402550944545
 30
0.0
 11
6.361457890809008
 21
9.067402550944544
 31
0.0
  0
LINE
  5
A8B
330
1F
100
AcDbEntity
  8
Object
100
AcDbLine
 10
6.316457890809008
 20
9.067402550944544
 30
0.0
 11
6.285457890809008
 21
9.067402550944544
 31
0.0
  0
LINE
  5
A8C
330
1F
100
AcDbEntity
  8
Object
100
AcDbLine
 10
6.329457890809008
 20
9.067402550944544
 30
0.0
 11
6.329457890809008
 21
8.954402550944545
 31
0.0
  0
LINE
  5
A8D
330
1F
100
AcDbEntity
  8
Object
100
AcDbLine
 10
6.650457890809009
 20
9.015402550944545
 30
0.0
 11
6.650457890809009
 21
8.967402550944544
 31
0.0
  0
LINE
  5
A8E
330
1F
100
AcDbEntity
  8
Object
100
AcDbLine
 10
6.630457890809008
 20
9.079402550944545
 30
0.0
 11
6.640457890809008
 21
9.067402550944544
 31
0.0
  0
LINE
  5
A8F
330
1F
100
AcDbEntity
  8
Object
100
AcDbLine
 10
6.795457890809008
 20
9.079402550944545
 30
0.0
 11
6.795457890809008
 21
8.954402550944545
 31
0.0
  0
LINE
  5
A90
330
1F
100
AcDbEntity
  8
Object
100
AcDbLine
 10
6.835457890809008
 20
8.967402550944544
 30
0.0
 11
6.835457890809008
 21
8.989402550944545
 31
0.0
  0
LINE
  5
A91
330
1F
100
AcDbEntity
  8
Object
100
AcDbLine
 10
5.117457890809008
 20
9.067402550944544
 30
0.0
 11
5.117457890809008
 21
9.021402550944545
 31
0.0
  0
LINE
  5
A92
330
1F
100
AcDbEntity
  8
Object
100
AcDbLine
 10
5.191457890809008
 20
9.054402550944544
 30
0.0
 11
5.165457890809008
 21
9.067402550944544
 31
0.0
  0
LINE
  5
A93
330
1F
100
AcDbEntity
  8
Object
100
AcDbLine
 10
5.165457890809008
 20
9.067402550944544
 30
0.0
 11
5.117457890809008
 21
9.067402550944544
 31
0.0
  0
LINE
  5
A94
330
1F
100
AcDbEntity
  8
Object
100
AcDbLine
 10
5.191457890809008
 20
9.036402550944544
 30
0.0
 11
5.191457890809008
 21
9.054402550944544
 31
0.0
  0
LINE
  5
A95
330
1F
100
AcDbEntity
  8
Object
100
AcDbLine
 10
5.117457890809008
 20
9.021402550944545
 30
0.0
 11
5.165457890809008
 21
9.021402550944545
 31
0.0
  0
LINE
  5
A96
330
1F
100
AcDbEntity
  8
Object
100
AcDbLine
 10
5.165457890809008
 20
9.021402550944545
 30
0.0
 11
5.191457890809008
 21
9.036402550944544
 31
0.0
  0
LINE
  5
A97
330
1F
100
AcDbEntity
  8
Object
100
AcDbLine
 10
5.603457890809008
 20
8.965402550944546
 30
0.0
 11
5.554457890809008
 21
8.965402550944546
 31
0.0
  0
LINE
  5
A98
330
1F
100
AcDbEntity
  8
Object
100
AcDbLine
 10
5.554457890809008
 20
8.965402550944546
 30
0.0
 11
5.554457890809008
 21
9.067402550944544
 31
0.0
  0
LINE
  5
A99
330
1F
100
AcDbEntity
  8
Object
100
AcDbLine
 10
5.628457890809008
 20
8.993402550944544
 30
0.0
 11
5.628457890809008
 21
9.040402550944545
 31
0.0
  0
LINE
  5
A9A
330
1F
100
AcDbEntity
  8
Object
100
AcDbLine
 10
5.628457890809008
 20
9.040402550944545
 30
0.0
 11
5.603457890809008
 21
9.067402550944544
 31
0.0
  0
LINE
  5
A9B
330
1F
100
AcDbEntity
  8
Object
100
AcDbLine
 10
5.603457890809008
 20
8.965402550944546
 30
0.0
 11
5.628457890809008
 21
8.993402550944544
 31
0.0
  0
LINE
  5
A9C
330
1F
100
AcDbEntity
  8
Object
100
AcDbLine
 10
5.603457890809008
 20
9.067402550944544
 30
0.0
 11
5.554457890809008
 21
9.067402550944544
 31
0.0
  0
LINE
  5
A9D
330
1F
100
AcDbEntity
  8
Object
100
AcDbLine
 10
6.490457890809008
 20
9.036402550944544
 30
0.0
 11
6.490457890809008
 21
9.054402550944544
 31
0.0
  0
LINE
  5
A9E
330
1F
100
AcDbEntity
  8
Object
100
AcDbLine
 10
6.416457890809009
 20
9.067402550944544
 30
0.0
 11
6.416457890809009
 21
9.021402550944545
 31
0.0
  0
LINE
  5
A9F
330
1F
100
AcDbEntity
  8
Object
100
AcDbLine
 10
6.464457890809009
 20
9.021402550944545
 30
0.0
 11
6.490457890809008
 21
9.036402550944544
 31
0.0
  0
LINE
  5
AA0
330
1F
100
AcDbEntity
  8
Object
100
AcDbLine
 10
6.490457890809008
 20
9.054402550944544
 30
0.0
 11
6.464457890809009
 21
9.067402550944544
 31
0.0
  0
LINE
  5
AA1
330
1F
100
AcDbEntity
  8
Object
100
AcDbLine
 10
6.464457890809009
 20
9.067402550944544
 30
0.0
 11
6.416457890809009
 21
9.067402550944544
 31
0.0
  0
LINE
  5
AA2
330
1F
100
AcDbEntity
  8
Object
100
AcDbLine
 10
6.416457890809009
 20
9.021402550944545
 30
0.0
 11
6.464457890809009
 21
9.021402550944545
 31
0.0
  0
LINE
  5
AA3
330
1F
100
AcDbEntity
  8
Object
100
AcDbLine
 10
5.275457890809009
 20
8.987402550944544
 30
0.0
 11
5.301457890809008
 21
9.055402550944545
 31
0.0
  0
LINE
  5
AA4
330
1F
100
AcDbEntity
  8
Object
100
AcDbLine
 10
5.301457890809008
 20
9.055402550944545
 30
0.0
 11
5.325457890809008
 21
8.987402550944544
 31
0.0
  0
LINE
  5
AA5
330
1F
100
AcDbEntity
  8
Object
100
AcDbLine
 10
5.325457890809008
 20
8.987402550944544
 30
0.0
 11
5.275457890809009
 21
8.987402550944544
 31
0.0
  0
LINE
  5
AA6
330
1F
100
AcDbEntity
  8
Object
100
AcDbLine
 10
6.561457890809008
 20
9.067402550944544
 30
0.0
 11
6.561457890809008
 21
9.027402550944543
 31
0.0
  0
LINE
  5
AA7
330
1F
100
AcDbEntity
  8
Object
100
AcDbLine
 10
6.624457890809008
 20
9.060402550944544
 30
0.0
 11
6.618457890809009
 21
9.067402550944544
 31
0.0
  0
LINE
  5
AA8
330
1F
100
AcDbEntity
  8
Object
100
AcDbLine
 10
6.635457890809008
 20
9.004402550944544
 30
0.0
 11
6.617457890809008
 21
9.016402550944544
 31
0.0
  0
LINE
  5
AA9
330
1F
100
AcDbEntity
  8
Object
100
AcDbLine
 10
6.617457890809008
 20
9.016402550944544
 30
0.0
 11
6.561457890809008
 21
9.016402550944544
 31
0.0
  0
LINE
  5
AAA
330
1F
100
AcDbEntity
  8
Object
100
AcDbLine
 10
6.618457890809009
 20
9.067402550944544
 30
0.0
 11
6.561457890809008
 21
9.067402550944544
 31
0.0
  0
LINE
  5
AAB
330
1F
100
AcDbEntity
  8
Object
100
AcDbLine
 10
6.618457890809009
 20
9.027402550944543
 30
0.0
 11
6.624457890809008
 21
9.034402550944545
 31
0.0
  0
LINE
  5
AAC
330
1F
100
AcDbEntity
  8
Object
100
AcDbLine
 10
6.617457890809008
 20
8.965402550944546
 30
0.0
 11
6.635457890809008
 21
8.976402550944545
 31
0.0
  0
LINE
  5
AAD
330
1F
100
AcDbEntity
  8
Object
100
AcDbLine
 10
6.624457890809008
 20
9.034402550944545
 30
0.0
 11
6.624457890809008
 21
9.060402550944544
 31
0.0
  0
LINE
  5
AAE
330
1F
100
AcDbEntity
  8
Object
100
AcDbLine
 10
6.635457890809008
 20
8.976402550944545
 30
0.0
 11
6.635457890809008
 21
9.004402550944544
 31
0.0
  0
LINE
  5
AAF
330
1F
100
AcDbEntity
  8
Object
100
AcDbLine
 10
6.561457890809008
 20
9.027402550944543
 30
0.0
 11
6.618457890809009
 21
9.027402550944543
 31
0.0
  0
LINE
  5
AB0
330
1F
100
AcDbEntity
  8
Object
100
AcDbLine
 10
6.617457890809008
 20
8.965402550944546
 30
0.0
 11
6.561457890809008
 21
8.965402550944546
 31
0.0
  0
LINE
  5
AB1
330
1F
100
AcDbEntity
  8
Object
100
AcDbLine
 10
6.561457890809008
 20
8.965402550944546
 30
0.0
 11
6.561457890809008
 21
9.016402550944544
 31
0.0
  0
LINE
  5
AB2
330
1F
100
AcDbEntity
  8
Object
100
AcDbLine
 10
5.165457890809008
 20
9.021402550944545
 30
0.0
 11
5.191457890809008
 21
9.036402550944544
 31
0.0
  0
LINE
  5
AB3
330
1F
100
AcDbEntity
  8
Object
100
AcDbLine
 10
5.165457890809008
 20
9.067402550944544
 30
0.0
 11
5.191457890809008
 21
9.054402550944544
 31
0.0
  0
LINE
  5
AB4
330
1F
100
AcDbEntity
  8
Object
100
AcDbLine
 10
5.191457890809008
 20
9.054402550944544
 30
0.0
 11
5.191457890809008
 21
9.036402550944544
 31
0.0
  0
LINE
  5
AB5
330
1F
100
AcDbEntity
  8
Object
100
AcDbLine
 10
5.165457890809008
 20
9.021402550944545
 30
0.0
 11
5.117457890809008
 21
9.021402550944545
 31
0.0
  0
LINE
  5
AB6
330
1F
100
AcDbEntity
  8
Object
100
AcDbLine
 10
5.117457890809008
 20
9.021402550944545
 30
0.0
 11
5.117457890809008
 21
9.067402550944544
 31
0.0
  0
LINE
  5
AB7
330
1F
100
AcDbEntity
  8
Object
100
AcDbLine
 10
5.117457890809008
 20
9.067402550944544
 30
0.0
 11
5.165457890809008
 21
9.067402550944544
 31
0.0
  0
LINE
  5
AB8
330
1F
100
AcDbEntity
  8
Object
100
AcDbLine
 10
5.554457890809008
 20
8.965402550944546
 30
0.0
 11
5.554457890809008
 21
9.067402550944544
 31
0.0
  0
LINE
  5
AB9
330
1F
100
AcDbEntity
  8
Object
100
AcDbLine
 10
5.554457890809008
 20
9.067402550944544
 30
0.0
 11
5.603457890809008
 21
9.067402550944544
 31
0.0
  0
LINE
  5
ABA
330
1F
100
AcDbEntity
  8
Object
100
AcDbLine
 10
5.603457890809008
 20
9.067402550944544
 30
0.0
 11
5.628457890809008
 21
9.040402550944545
 31
0.0
  0
LINE
  5
ABB
330
1F
100
AcDbEntity
  8
Object
100
AcDbLine
 10
5.628457890809008
 20
9.040402550944545
 30
0.0
 11
5.628457890809008
 21
8.993402550944544
 31
0.0
  0
LINE
  5
ABC
330
1F
100
AcDbEntity
  8
Object
100
AcDbLine
 10
5.628457890809008
 20
8.993402550944544
 30
0.0
 11
5.603457890809008
 21
8.965402550944546
 31
0.0
  0
LINE
  5
ABD
330
1F
100
AcDbEntity
  8
Object
100
AcDbLine
 10
5.603457890809008
 20
8.965402550944546
 30
0.0
 11
5.554457890809008
 21
8.965402550944546
 31
0.0
  0
LINE
  5
ABE
330
1F
100
AcDbEntity
  8
Object
100
AcDbLine
 10
6.464457890809009
 20
9.021402550944545
 30
0.0
 11
6.490457890809008
 21
9.036402550944544
 31
0.0
  0
LINE
  5
ABF
330
1F
100
AcDbEntity
  8
Object
100
AcDbLine
 10
6.464457890809009
 20
9.067402550944544
 30
0.0
 11
6.490457890809008
 21
9.054402550944544
 31
0.0
  0
LINE
  5
AC0
330
1F
100
AcDbEntity
  8
Object
100
AcDbLine
 10
6.490457890809008
 20
9.054402550944544
 30
0.0
 11
6.490457890809008
 21
9.036402550944544
 31
0.0
  0
LINE
  5
AC1
330
1F
100
AcDbEntity
  8
Object
100
AcDbLine
 10
6.464457890809009
 20
9.067402550944544
 30
0.0
 11
6.416457890809009
 21
9.067402550944544
 31
0.0
  0
LINE
  5
AC2
330
1F
100
AcDbEntity
  8
Object
100
AcDbLine
 10
6.416457890809009
 20
9.067402550944544
 30
0.0
 11
6.416457890809009
 21
9.021402550944545
 31
0.0
  0
LINE
  5
AC3
330
1F
100
AcDbEntity
  8
Object
100
AcDbLine
 10
6.416457890809009
 20
9.021402550944545
 30
0.0
 11
6.464457890809009
 21
9.021402550944545
 31
0.0
  0
LINE
  5
AC4
330
1F
100
AcDbEntity
  8
Object
100
AcDbLine
 10
5.275457890809009
 20
8.987402550944544
 30
0.0
 11
5.301457890809008
 21
9.055402550944545
 31
0.0
  0
LINE
  5
AC5
330
1F
100
AcDbEntity
  8
Object
100
AcDbLine
 10
5.301457890809008
 20
9.055402550944545
 30
0.0
 11
5.325457890809008
 21
8.987402550944544
 31
0.0
  0
LINE
  5
AC6
330
1F
100
AcDbEntity
  8
Object
100
AcDbLine
 10
5.325457890809008
 20
8.987402550944544
 30
0.0
 11
5.275457890809009
 21
8.987402550944544
 31
0.0
  0
LINE
  5
AC7
330
1F
100
AcDbEntity
  8
Object
100
AcDbLine
 10
6.618457890809009
 20
9.027402550944543
 30
0.0
 11
6.624457890809008
 21
9.034402550944545
 31
0.0
  0
LINE
  5
AC8
330
1F
100
AcDbEntity
  8
Object
100
AcDbLine
 10
6.618457890809009
 20
9.067402550944544
 30
0.0
 11
6.624457890809008
 21
9.060402550944544
 31
0.0
  0
LINE
  5
AC9
330
1F
100
AcDbEntity
  8
Object
100
AcDbLine
 10
6.624457890809008
 20
9.060402550944544
 30
0.0
 11
6.624457890809008
 21
9.034402550944545
 31
0.0
  0
LINE
  5
ACA
330
1F
100
AcDbEntity
  8
Object
100
AcDbLine
 10
6.618457890809009
 20
9.027402550944543
 30
0.0
 11
6.561457890809008
 21
9.027402550944543
 31
0.0
  0
LINE
  5
ACB
330
1F
100
AcDbEntity
  8
Object
100
AcDbLine
 10
6.561457890809008
 20
9.027402550944543
 30
0.0
 11
6.561457890809008
 21
9.067402550944544
 31
0.0
  0
LINE
  5
ACC
330
1F
100
AcDbEntity
  8
Object
100
AcDbLine
 10
6.561457890809008
 20
9.067402550944544
 30
0.0
 11
6.618457890809009
 21
9.067402550944544
 31
0.0
  0
LINE
  5
ACD
330
1F
100
AcDbEntity
  8
Object
100
AcDbLine
 10
6.617457890809008
 20
9.016402550944544
 30
0.0
 11
6.635457890809008
 21
9.004402550944544
 31
0.0
  0
LINE
  5
ACE
330
1F
100
AcDbEntity
  8
Object
100
AcDbLine
 10
6.635457890809008
 20
9.004402550944544
 30
0.0
 11
6.635457890809008
 21
8.976402550944545
 31
0.0
  0
LINE
  5
ACF
330
1F
100
AcDbEntity
  8
Object
100
AcDbLine
 10
6.635457890809008
 20
8.976402550944545
 30
0.0
 11
6.617457890809008
 21
8.965402550944546
 31
0.0
  0
LINE
  5
AD0
330
1F
100
AcDbEntity
  8
Object
100
AcDbLine
 10
6.617457890809008
 20
8.965402550944546
 30
0.0
 11
6.561457890809008
 21
8.965402550944546
 31
0.0
  0
LINE
  5
AD1
330
1F
100
AcDbEntity
  8
Object
100
AcDbLine
 10
6.561457890809008
 20
8.965402550944546
 30
0.0
 11
6.561457890809008
 21
9.016402550944544
 31
0.0
  0
LINE
  5
AD2
330
1F
100
AcDbEntity
  8
Object
100
AcDbLine
 10
6.561457890809008
 20
9.016402550944544
 30
0.0
 11
6.617457890809008
 21
9.016402550944544
 31
0.0
  0
ENDSEC
  0
SECTION
  2
OBJECTS
  0
DICTIONARY
  5
C
330
0
100
AcDbDictionary
281
     1
  3
ACAD_COLOR
350
73
  3
ACAD_GROUP
350
D
  3
ACAD_LAYOUT
350
1A
  3
ACAD_MATERIAL
350
72
  3
ACAD_MLINESTYLE
350
17
  3
ACAD_PLOTSETTINGS
350
19
  3
ACAD_PLOTSTYLENAME
350
E
  3
ACAD_TABLESTYLE
350
86
  3
ACDBHEADERROUNDTRIPXREC
350
AED
  3
AcDbVariableDictionary
350
66
  0
DICTIONARY
  5
148
330
1F
100
AcDbDictionary
280
     1
281
     1
  3
ACAD_SORTENTS
360
149
  0
DICTIONARY
  5
73
102
{ACAD_REACTORS
330
C
102
}
330
C
100
AcDbDictionary
281
     1
  0
DICTIONARY
  5
D
102
{ACAD_REACTORS
330
C
102
}
330
C
100
AcDbDictionary
281
     1
  0
DICTIONARY
  5
1A
102
{ACAD_REACTORS
330
C
102
}
330
C
100
AcDbDictionary
281
     1
  3
Layout1
350
59
  3
Layout2
350
5E
  3
Model
350
22
  0
DICTIONARY
  5
72
102
{ACAD_REACTORS
330
C
102
}
330
C
100
AcDbDictionary
281
     1
  0
DICTIONARY
  5
17
102
{ACAD_REACTORS
330
C
102
}
330
C
100
AcDbDictionary
281
     1
  3
Standard
350
18
  0
DICTIONARY
  5
19
102
{ACAD_REACTORS
330
C
102
}
330
C
100
AcDbDictionary
281
     1
  0
ACDBDICTIONARYWDFLT
  5
E
102
{ACAD_REACTORS
330
C
102
}
330
C
100
AcDbDictionary
281
     1
  3
Normal
350
F
100
AcDbDictionaryWithDefault
340
F
  0
DICTIONARY
  5
86
102
{ACAD_REACTORS
330
C
102
}
330
C
100
AcDbDictionary
281
     1
  3
Standard
350
87
  0
DICTIONARY
  5
AED
102
{ACAD_REACTORS
330
C
102
}
330
C
100
AcDbDictionary
281
     1
  0
DICTIONARY
  5
66
102
{ACAD_REACTORS
330
C
102
}
330
C
100
AcDbDictionary
281
     1
  3
CTABLESTYLE
350
5D5
  3
DIMASSOC
350
67
  3
HIDETEXT
350
6B
  3
PROJECTNAME
350
AEB
  0
SORTENTSTABLE
  5
149
102
{ACAD_REACTORS
330
148
102
}
330
148
100
AcDbSortentsTable
330
1F
331
105
  5
105
331
112
  5
112
331
F9
  5
F9
331
137
  5
137
331
12B
  5
12B
331
11F
  5
11F
331
106
  5
106
331
113
  5
113
331
FA
  5
FA
331
138
  5
138
331
120
  5
120
331
12C
  5
12C
331
107
  5
107
331
114
  5
114
331
FB
  5
FB
331
108
  5
108
331
139
  5
139
331
121
  5
121
331
12D
  5
12D
331
115
  5
115
331
FC
  5
FC
331
109
  5
109
331
13A
  5
13A
331
122
  5
122
331
12E
  5
12E
331
116
  5
116
331
10A
  5
10A
331
FD
  5
FD
331
12F
  5
12F
331
123
  5
123
331
F1
  5
F1
331
117
  5
117
331
FE
  5
FE
331
10B
  5
10B
331
F2
  5
F2
331
124
  5
124
331
130
  5
130
331
118
  5
118
331
FF
  5
FF
331
10C
  5
10C
331
F3
  5
F3
331
131
  5
131
331
125
  5
125
331
119
  5
119
331
100
  5
100
331
10D
  5
10D
331
F4
  5
F4
331
132
  5
132
331
126
  5
126
331
11A
  5
11A
331
101
  5
101
331
10E
  5
10E
331
F5
  5
F5
331
133
  5
133
331
127
  5
127
331
11B
  5
11B
331
102
  5
102
331
10F
  5
10F
331
F6
  5
F6
331
134
  5
134
331
11C
  5
11C
331
128
  5
128
331
103
  5
103
331
110
  5
110
331
F7
  5
F7
331
135
  5
135
331
129
  5
129
331
11D
  5
11D
331
104
  5
104
331
111
  5
111
331
F8
  5
F8
331
136
  5
136
331
11E
  5
11E
331
12A
  5
12A
  0
LAYOUT
  5
59
102
{ACAD_XDICTIONARY
360
AF0
102
}
102
{ACAD_REACTORS
330
1A
102
}
330
1A
100
AcDbPlotSettings
  1

  2
None
  4

  6

 40
0.0
 41
0.0
 42
0.0
 43
0.0
 44
0.0
 45
0.0
 46
0.0
 47
0.0
 48
0.0
 49
0.0
140
0.0
141
0.0
142
1.0
143
1.0
 70
   688
 72
     0
 73
     0
 74
     5
  7

 75
    16
147
1.0
148
0.0
149
0.0
100
AcDbLayout
  1
Layout1
 70
     1
 71
     1
 10
0.0
 20
0.0
 11
12.0
 21
9.0
 12
0.0
 22
0.0
 32
0.0
 14
0.0
 24
0.0
 34
0.0
 15
0.0
 25
0.0
 35
0.0
146
0.0
 13
0.0
 23
0.0
 33
0.0
 16
1.0
 26
0.0
 36
0.0
 17
0.0
 27
1.0
 37
0.0
 76
     0
330
58
  0
LAYOUT
  5
5E
102
{ACAD_XDICTIONARY
360
AF2
102
}
102
{ACAD_REACTORS
330
1A
102
}
330
1A
100
AcDbPlotSettings
  1

  2
None
  4

  6

 40
0.0
 41
0.0
 42
0.0
 43
0.0
 44
0.0
 45
0.0
 46
0.0
 47
0.0
 48
0.0
 49
0.0
140
0.0
141
0.0
142
1.0
143
1.0
 70
   688
 72
     0
 73
     0
 74
     5
  7

 75
    16
147
1.0
148
0.0
149
0.0
100
AcDbLayout
  1
Layout2
 70
     1
 71
     2
 10
0.0
 20
0.0
 11
12.0
 21
9.0
 12
0.0
 22
0.0
 32
0.0
 14
0.0
 24
0.0
 34
0.0
 15
0.0
 25
0.0
 35
0.0
146
0.0
 13
0.0
 23
0.0
 33
0.0
 16
1.0
 26
0.0
 36
0.0
 17
0.0
 27
1.0
 37
0.0
 76
     0
330
5D
  0
LAYOUT
  5
22
102
{ACAD_XDICTIONARY
360
AEE
102
}
102
{ACAD_REACTORS
330
1A
102
}
330
1A
100
AcDbPlotSettings
  1

  2
none_device
  4
ANSI_A_(8.50_x_11.00_Inches)
  6

 40
6.349999904632568
 41
19.04999923706055
 42
6.350006103515625
 43
19.04998779296875
 44
215.8999938964844
 45
279.3999938964844
 46
0.0
 47
0.0
 48
0.0
 49
0.0
140
0.0
141
0.0
142
1.0
143
2.584895464708373
 70
 11952
 72
     0
 73
     1
 74
     0
  7

 75
     0
147
0.3868628397755418
148
0.0
149
0.0
100
AcDbLayout
  1
Model
 70
     1
 71
     0
 10
0.0
 20
0.0
 11
12.0
 21
9.0
 12
0.0
 22
0.0
 32
0.0
 14
0.0
 24
0.0
 34
0.0
 15
0.0
 25
0.0
 35
0.0
146
0.0
 13
0.0
 23
0.0
 33
0.0
 16
1.0
 26
0.0
 36
0.0
 17
0.0
 27
1.0
 37
0.0
 76
     0
330
1F
  0
MLINESTYLE
  5
18
102
{ACAD_REACTORS
330
17
102
}
330
17
100
AcDbMlineStyle
  2
STANDARD
 70
     0
  3

 62
   256
 51
90.0
 52
90.0
 71
     2
 49
0.5
 62
   256
  6
BYLAYER
 49
-0.5
 62
   256
  6
BYLAYER
  0
ACDBPLACEHOLDER
  5
F
102
{ACAD_REACTORS
330
E
102
}
330
E
  0
TABLESTYLE
  5
87
102
{ACAD_REACTORS
330
86
102
}
330
86
100
AcDbTableStyle
  3
Standard
 70
     0
 71
     0
 40
0.06
 41
0.06
280
     0
281
     0
  7
Standard
140
0.18
170
     2
 62
     0
 63
     7
283
     0
274
    -2
284
     1
 64
     0
275
    -2
285
     1
 65
     0
276
    -2
286
     1
 66
     0
277
    -2
287
     1
 67
     0
278
    -2
288
     1
 68
     0
279
    -2
289
     1
 69
     0
  7
Standard
140
0.25
170
     5
 62
     0
 63
     7
283
     0
274
    -2
284
     1
 64
     0
275
    -2
285
     1
 65
     0
276
    -2
286
     1
 66
     0
277
    -2
287
     1
 67
     0
278
    -2
288
     1
 68
     0
279
    -2
289
     1
 69
     0
  7
Standard
140
0.18
170
     5
 62
     0
 63
     7
283
     0
274
    -2
284
     1
 64
     0
275
    -2
285
     1
 65
     0
276
    -2
286
     1
 66
     0
277
    -2
287
     1
 67
     0
278
    -2
288
     1
 68
     0
279
    -2
289
     1
 69
     0
  0
DICTIONARYVAR
  5
5D5
102
{ACAD_REACTORS
330
66
102
}
330
66
100
DictionaryVariables
280
     0
  1
STANDARD
  0
DICTIONARYVAR
  5
67
102
{ACAD_REACTORS
330
66
102
}
330
66
100
DictionaryVariables
280
     0
  1
2
  0
DICTIONARYVAR
  5
6B
102
{ACAD_REACTORS
330
66
102
}
330
66
100
DictionaryVariables
280
     0
  1
1
  0
DICTIONARYVAR
  5
AEB
102
{ACAD_REACTORS
330
66
102
}
330
66
100
DictionaryVariables
280
     0
  1

  0
DICTIONARY
  5
AF0
330
59
100
AcDbDictionary
280
     1
281
     1
  3
ACAD_XREC_ROUNDTRIP
360
AF1
  0
DICTIONARY
  5
AF2
330
5E
100
AcDbDictionary
280
     1
281
     1
  3
ACAD_XREC_ROUNDTRIP
360
AF3
  0
DICTIONARY
  5
AEE
330
22
100
AcDbDictionary
280
     1
281
     1
  3
ACAD_XREC_ROUNDTRIP
360
AEF
  0
XRECORD
  5
AF1
102
{ACAD_REACTORS
330
AF0
102
}
330
AF0
100
AcDbXrecord
280
     1
102
SHADEPLOT
 70
     0
102
SHADEPLOTRESLEVEL
 70
     2
102
SHADEPLOTCUSTOMDPI
 70
   300
  0
XRECORD
  5
AF3
102
{ACAD_REACTORS
330
AF2
102
}
330
AF2
100
AcDbXrecord
280
     1
102
SHADEPLOT
 70
     0
102
SHADEPLOTRESLEVEL
 70
     2
102
SHADEPLOTCUSTOMDPI
 70
   300
  0
XRECORD
  5
AEF
102
{ACAD_REACTORS
330
AEE
102
}
330
AEE
100
AcDbXrecord
280
     1
102
SHADEPLOT
 70
     0
102
SHADEPLOTRESLEVEL
 70
     2
102
SHADEPLOTCUSTOMDPI
 70
   300
  0
ENDSEC
  0
EOF
