  0
SECTION
  2
HEADER
  9
$ACADVER
  1
AC1015
  9
$ACADMAINTVER
 70
    20
  9
$DWGCODEPAGE
  3
ANSI_1252
  9
$INSBASE
 10
0.0
 20
0.0
 30
0.0
  9
$EXTMIN
 10
-0.075
 20
-0.075
 30
0.0
  9
$EXTMAX
 10
11.075
 20
8.575000000000001
 30
0.0
  9
$LIMMIN
 10
0.0
 20
0.0
  9
$LIMMAX
 10
12.0
 20
9.0
  9
$ORTHOMODE
 70
     0
  9
$REGENMODE
 70
     1
  9
$FILLMODE
 70
     1
  9
$QTEXTMODE
 70
     0
  9
$MIRRTEXT
 70
     0
  9
$LTSCALE
 40
1.0
  9
$ATTMODE
 70
     1
  9
$TEXTSIZE
 40
0.2
  9
$TRACEWID
 40
0.05
  9
$TEXTSTYLE
  7
Standard
  9
$CLAYER
  8
0
  9
$CELTYPE
  6
ByLayer
  9
$CECOLOR
 62
   256
  9
$CELTSCALE
 40
1.0
  9
$DISPSILH
 70
     0
  9
$DIMSCALE
 40
1.0
  9
$DIMASZ
 40
0.125
  9
$DIMEXO
 40
0.0625
  9
$DIMDLI
 40
0.38
  9
$DIMRND
 40
0.0
  9
$DIMDLE
 40
0.0
  9
$DIMEXE
 40
0.125
  9
$DIMTP
 40
0.0
  9
$DIMTM
 40
0.0
  9
$DIMTXT
 40
0.09
  9
$DIMCEN
 40
0.09
  9
$DIMTSZ
 40
0.0
  9
$DIMTOL
 70
     0
  9
$DIMLIM
 70
     0
  9
$DIMTIH
 70
     1
  9
$DIMTOH
 70
     1
  9
$DIMSE1
 70
     0
  9
$DIMSE2
 70
     0
  9
$DIMTAD
 70
     0
  9
$DIMZIN
 70
     0
  9
$DIMBLK
  1

  9
$DIMASO
 70
     1
  9
$DIMSHO
 70
     1
  9
$DIMPOST
  1

  9
$DIMAPOST
  1
mm
  9
$DIMALT
 70
     1
  9
$DIMALTD
 70
     1
  9
$DIMALTF
 40
25.4
  9
$DIMLFAC
 40
1.0
  9
$DIMTOFL
 70
     0
  9
$DIMTVP
 40
0.0
  9
$DIMTIX
 70
     0
  9
$DIMSOXD
 70
     0
  9
$DIMSAH
 70
     0
  9
$DIMBLK1
  1

  9
$DIMBLK2
  1

  9
$DIMSTYLE
  2
Standard
  9
$DIMCLRD
 70
     0
  9
$DIMCLRE
 70
     0
  9
$DIMCLRT
 70
     0
  9
$DIMTFAC
 40
1.0
  9
$DIMGAP
 40
0.09
  9
$DIMJUST
 70
     0
  9
$DIMSD1
 70
     0
  9
$DIMSD2
 70
     0
  9
$DIMTOLJ
 70
     1
  9
$DIMTZIN
 70
     0
  9
$DIMALTZ
 70
     0
  9
$DIMALTTZ
 70
     0
  9
$DIMUPT
 70
     0
  9
$DIMDEC
 70
     2
  9
$DIMTDEC
 70
     2
  9
$DIMALTU
 70
     2
  9
$DIMALTTD
 70
     1
  9
$DIMTXSTY
  7
Standard
  9
$DIMAUNIT
 70
     0
  9
$DIMADEC
 70
     0
  9
$DIMALTRND
 40
0.0
  9
$DIMAZIN
 70
     0
  9
$DIMDSEP
 70
    46
  9
$DIMATFIT
 70
     3
  9
$DIMFRAC
 70
     0
  9
$DIMLDRBLK
  1

  9
$DIMLUNIT
 70
     2
  9
$DIMLWD
 70
    -2
  9
$DIMLWE
 70
    -2
  9
$DIMTMOVE
 70
     0
  9
$LUNITS
 70
     2
  9
$LUPREC
 70
     4
  9
$SKETCHINC
 40
0.1
  9
$FILLETRAD
 40
0.0
  9
$AUNITS
 70
     0
  9
$AUPREC
 70
     0
  9
$MENU
  1
.
  9
$ELEVATION
 40
0.0
  9
$PELEVATION
 40
0.0
  9
$THICKNESS
 40
0.0
  9
$LIMCHECK
 70
     0
  9
$CHAMFERA
 40
0.0
  9
$CHAMFERB
 40
0.0
  9
$CHAMFERC
 40
0.0
  9
$CHAMFERD
 40
0.0
  9
$SKPOLY
 70
     0
  9
$TDCREATE
 40
2454117.706263669
  9
$TDUCREATE
 40
2454117.914597003
  9
$TDUPDATE
 40
2454294.663112685
  9
$TDUUPDATE
 40
2454294.871446019
  9
$TDINDWG
 40
0.0153833449
  9
$TDUSRTIMER
 40
0.0153833449
  9
$USRTIMER
 70
     1
  9
$ANGBASE
 50
0.0
  9
$ANGDIR
 70
     0
  9
$PDMODE
 70
     2
  9
$PDSIZE
 40
0.075
  9
$PLINEWID
 40
0.0
  9
$SPLFRAME
 70
     0
  9
$SPLINETYPE
 70
     6
  9
$SPLINESEGS
 70
     8
  9
$HANDSEED
  5
69A
  9
$SURFTAB1
 70
     6
  9
$SURFTAB2
 70
     6
  9
$SURFTYPE
 70
     6
  9
$SURFU
 70
     6
  9
$SURFV
 70
     6
  9
$UCSBASE
  2

  9
$UCSNAME
  2

  9
$UCSORG
 10
0.0
 20
0.0
 30
0.0
  9
$UCSXDIR
 10
1.0
 20
0.0
 30
0.0
  9
$UCSYDIR
 10
0.0
 20
1.0
 30
0.0
  9
$UCSORTHOREF
  2

  9
$UCSORTHOVIEW
 70
     0
  9
$UCSORGTOP
 10
0.0
 20
0.0
 30
0.0
  9
$UCSORGBOTTOM
 10
0.0
 20
0.0
 30
0.0
  9
$UCSORGLEFT
 10
0.0
 20
0.0
 30
0.0
  9
$UCSORGRIGHT
 10
0.0
 20
0.0
 30
0.0
  9
$UCSORGFRONT
 10
0.0
 20
0.0
 30
0.0
  9
$UCSORGBACK
 10
0.0
 20
0.0
 30
0.0
  9
$PUCSBASE
  2

  9
$PUCSNAME
  2

  9
$PUCSORG
 10
0.0
 20
0.0
 30
0.0
  9
$PUCSXDIR
 10
1.0
 20
0.0
 30
0.0
  9
$PUCSYDIR
 10
0.0
 20
1.0
 30
0.0
  9
$PUCSORTHOREF
  2

  9
$PUCSORTHOVIEW
 70
     0
  9
$PUCSORGTOP
 10
0.0
 20
0.0
 30
0.0
  9
$PUCSORGBOTTOM
 10
0.0
 20
0.0
 30
0.0
  9
$PUCSORGLEFT
 10
0.0
 20
0.0
 30
0.0
  9
$PUCSORGRIGHT
 10
0.0
 20
0.0
 30
0.0
  9
$PUCSORGFRONT
 10
0.0
 20
0.0
 30
0.0
  9
$PUCSORGBACK
 10
0.0
 20
0.0
 30
0.0
  9
$USERI1
 70
     0
  9
$USERI2
 70
     0
  9
$USERI3
 70
     0
  9
$USERI4
 70
     0
  9
$USERI5
 70
     0
  9
$USERR1
 40
0.0
  9
$USERR2
 40
0.0
  9
$USERR3
 40
0.0
  9
$USERR4
 40
0.0
  9
$USERR5
 40
0.0
  9
$WORLDVIEW
 70
     1
  9
$SHADEDGE
 70
     3
  9
$SHADEDIF
 70
    70
  9
$TILEMODE
 70
     1
  9
$MAXACTVP
 70
    64
  9
$PINSBASE
 10
0.0
 20
0.0
 30
0.0
  9
$PLIMCHECK
 70
     0
  9
$PEXTMIN
 10
0.0
 20
0.0
 30
0.0
  9
$PEXTMAX
 10
0.0
 20
0.0
 30
0.0
  9
$PLIMMIN
 10
0.0
 20
0.0
  9
$PLIMMAX
 10
12.0
 20
9.0
  9
$UNITMODE
 70
     0
  9
$VISRETAIN
 70
     1
  9
$PLINEGEN
 70
     0
  9
$PSLTSCALE
 70
     1
  9
$TREEDEPTH
 70
  3020
  9
$CMLSTYLE
  2
Standard
  9
$CMLJUST
 70
     0
  9
$CMLSCALE
 40
1.0
  9
$PROXYGRAPHICS
 70
     1
  9
$MEASUREMENT
 70
     0
  9
$CELWEIGHT
370
    -1
  9
$ENDCAPS
280
     0
  9
$JOINSTYLE
280
     0
  9
$LWDISPLAY
290
     0
  9
$INSUNITS
 70
     1
  9
$HYPERLINKBASE
  1

  9
$STYLESHEET
  1

  9
$XEDIT
290
     1
  9
$CEPSNTYPE
380
     0
  9
$PSTYLEMODE
290
     1
  9
$FINGERPRINTGUID
  2
{EF1102B6-69E5-437B-AE24-C24BB4785592}
  9
$VERSIONGUID
  2
{0E220F14-8139-4883-A44B-E8D45FB93E88}
  9
$EXTNAMES
290
     1
  9
$PSVPSCALE
 40
0.0
  9
$OLESTARTUP
290
     0
  0
ENDSEC
  0
SECTION
  2
CLASSES
  0
CLASS
  1
ACDBDICTIONARYWDFLT
  2
AcDbDictionaryWithDefault
  3
ObjectDBX Classes
 90
        0
280
     0
281
     0
  0
CLASS
  1
ACDBPLACEHOLDER
  2
AcDbPlaceHolder
  3
ObjectDBX Classes
 90
        0
280
     0
281
     0
  0
CLASS
  1
LAYOUT
  2
AcDbLayout
  3
ObjectDBX Classes
 90
        0
280
     0
281
     0
  0
CLASS
  1
DICTIONARYVAR
  2
AcDbDictionaryVar
  3
ObjectDBX Classes
 90
        0
280
     0
281
     0
  0
CLASS
  1
TABLESTYLE
  2
AcDbTableStyle
  3
ObjectDBX Classes
 90
     2047
280
     0
281
     0
  0
CLASS
  1
SORTENTSTABLE
  2
AcDbSortentsTable
  3
ObjectDBX Classes
 90
        0
280
     0
281
     0
  0
CLASS
  1
DIMASSOC
  2
AcDbDimAssoc
  3
"AcDbDimAssoc|Product Desc:     AcDim ARX App For Dimension|Company:          Autodesk, Inc.|WEB Address:      www.autodesk.com"
 90
        0
280
     0
281
     0
  0
ENDSEC
  0
SECTION
  2
TABLES
  0
TABLE
  2
VPORT
  5
8
330
0
100
AcDbSymbolTable
 70
     2
  0
VPORT
  5
690
330
8
100
AcDbSymbolTableRecord
100
AcDbViewportTableRecord
  2
*Active
 70
     0
 10
0.0
 20
0.0
 11
1.0
 21
1.0
 12
5.499821892848676
 22
4.554624046512415
 13
0.0
 23
0.0
 14
0.5
 24
0.5
 15
0.5
 25
0.5
 16
0.0
 26
0.0
 36
1.0
 17
0.0
 27
0.0
 37
0.0
 40
9.316058555254024
 41
1.499364675984752
 42
50.0
 43
0.0
 44
0.0
 50
0.0
 51
0.0
 71
     0
 72
  1000
 73
     1
 74
     3
 75
     0
 76
     0
 77
     0
 78
     0
281
     0
 65
     1
110
0.0
120
0.0
130
0.0
111
1.0
121
0.0
131
0.0
112
0.0
122
1.0
132
0.0
 79
     0
146
0.0
  0
ENDTAB
  0
TABLE
  2
LTYPE
  5
5
330
0
100
AcDbSymbolTable
 70
     1
  0
LTYPE
  5
14
330
5
100
AcDbSymbolTableRecord
100
AcDbLinetypeTableRecord
  2
ByBlock
 70
     0
  3

 72
    65
 73
     0
 40
0.0
  0
LTYPE
  5
15
330
5
100
AcDbSymbolTableRecord
100
AcDbLinetypeTableRecord
  2
ByLayer
 70
     0
  3

 72
    65
 73
     0
 40
0.0
  0
LTYPE
  5
16
330
5
100
AcDbSymbolTableRecord
100
AcDbLinetypeTableRecord
  2
Continuous
 70
     0
  3
Solid line
 72
    65
 73
     0
 40
0.0
  0
ENDTAB
  0
TABLE
  2
LAYER
  5
2
330
0
100
AcDbSymbolTable
 70
     6
  0
LAYER
  5
10
330
2
100
AcDbSymbolTableRecord
100
AcDbLayerTableRecord
  2
0
 70
     0
 62
     7
  6
Continuous
370
    -3
390
F
  0
LAYER
  5
98
330
2
100
AcDbSymbolTableRecord
100
AcDbLayerTableRecord
  2
Title Block
 70
     0
 62
     3
  6
Continuous
370
    -3
390
F
  0
LAYER
  5
99
330
2
100
AcDbSymbolTableRecord
100
AcDbLayerTableRecord
  2
Dimension
 70
     0
 62
     6
  6
Continuous
370
    -3
390
F
  0
LAYER
  5
9A
330
2
100
AcDbSymbolTableRecord
100
AcDbLayerTableRecord
  2
Text
 70
     0
 62
     1
  6
Continuous
370
    -3
390
F
  0
LAYER
  5
9B
330
2
100
AcDbSymbolTableRecord
100
AcDbLayerTableRecord
  2
Defpoints
 70
     0
 62
     7
  6
Continuous
290
     0
370
    -3
390
F
  0
LAYER
  5
9C
330
2
100
AcDbSymbolTableRecord
100
AcDbLayerTableRecord
  2
Object
 70
     0
 62
     5
  6
Continuous
370
    -3
390
F
1001
AcAecLayerStandard
1000

1000

  0
ENDTAB
  0
TABLE
  2
STYLE
  5
3
330
0
100
AcDbSymbolTable
 70
     1
  0
STYLE
  5
11
330
3
100
AcDbSymbolTableRecord
100
AcDbTextStyleTableRecord
  2
Standard
 70
     0
 40
0.0
 41
1.0
 50
0.0
 71
     0
 42
0.2
  3
technic_.ttf
  4

1001
ACAD
1000
Technic
1071
      514
  0
ENDTAB
  0
TABLE
  2
VIEW
  5
6
330
0
100
AcDbSymbolTable
 70
     0
  0
ENDTAB
  0
TABLE
  2
UCS
  5
7
330
0
100
AcDbSymbolTable
 70
     0
  0
ENDTAB
  0
TABLE
  2
APPID
  5
9
330
0
100
AcDbSymbolTable
 70
     4
  0
APPID
  5
12
330
9
100
AcDbSymbolTableRecord
100
AcDbRegAppTableRecord
  2
ACAD
 70
     0
  0
APPID
  5
9E
330
9
100
AcDbSymbolTableRecord
100
AcDbRegAppTableRecord
  2
DCO15
 70
     0
  0
APPID
  5
9F
330
9
100
AcDbSymbolTableRecord
100
AcDbRegAppTableRecord
  2
AcAecLayerStandard
 70
     0
  0
APPID
  5
A0
330
9
100
AcDbSymbolTableRecord
100
AcDbRegAppTableRecord
  2
ACAD_DSTYLE_DIMTEXT_FILL
 70
     0
  0
ENDTAB
  0
TABLE
  2
DIMSTYLE
  5
A
330
0
100
AcDbSymbolTable
 70
     1
100
AcDbDimStyleTable
 71
     1
340
27
  0
DIMSTYLE
105
27
102
{ACAD_REACTORS
330
134
330
613
330
637
102
}
330
A
100
AcDbSymbolTableRecord
100
AcDbDimStyleTableRecord
  2
Standard
 70
     0
  4
mm
 41
0.125
 44
0.125
140
0.09
170
     1
171
     1
271
     2
272
     2
274
     1
340
11
  0
ENDTAB
  0
TABLE
  2
BLOCK_RECORD
  5
1
330
0
100
AcDbSymbolTable
 70
     4
  0
BLOCK_RECORD
  5
1F
102
{ACAD_XDICTIONARY
360
147
102
}
330
1
100
AcDbSymbolTableRecord
100
AcDbBlockTableRecord
  2
*Model_Space
340
22
  0
BLOCK_RECORD
  5
58
330
1
100
AcDbSymbolTableRecord
100
AcDbBlockTableRecord
  2
*Paper_Space
340
59
  0
BLOCK_RECORD
  5
5D
330
1
100
AcDbSymbolTableRecord
100
AcDbBlockTableRecord
  2
*Paper_Space0
340
5E
  0
BLOCK_RECORD
  5
13A
330
1
100
AcDbSymbolTableRecord
100
AcDbBlockTableRecord
  2
*D1
340
0
  0
BLOCK_RECORD
  5
614
330
1
100
AcDbSymbolTableRecord
100
AcDbBlockTableRecord
  2
*D2
340
0
  0
BLOCK_RECORD
  5
638
330
1
100
AcDbSymbolTableRecord
100
AcDbBlockTableRecord
  2
*D3
340
0
  0
ENDTAB
  0
ENDSEC
  0
SECTION
  2
BLOCKS
  0
BLOCK
  5
20
330
1F
100
AcDbEntity
  8
0
100
AcDbBlockBegin
  2
*Model_Space
 70
     0
 10
0.0
 20
0.0
 30
0.0
  3
*Model_Space
  1

  0
ENDBLK
  5
21
330
1F
100
AcDbEntity
  8
0
100
AcDbBlockEnd
  0
BLOCK
  5
5A
330
58
100
AcDbEntity
 67
     1
  8
0
100
AcDbBlockBegin
  2
*Paper_Space
 70
     0
 10
0.0
 20
0.0
 30
0.0
  3
*Paper_Space
  1

  0
ENDBLK
  5
5B
330
58
100
AcDbEntity
 67
     1
  8
0
100
AcDbBlockEnd
  0
BLOCK
  5
5F
330
5D
100
AcDbEntity
  8
0
100
AcDbBlockBegin
  2
*Paper_Space0
 70
     0
 10
0.0
 20
0.0
 30
0.0
  3
*Paper_Space0
  1

  0
ENDBLK
  5
60
330
5D
100
AcDbEntity
  8
0
100
AcDbBlockEnd
  0
BLOCK
  5
145
330
13A
100
AcDbEntity
  8
0
100
AcDbBlockBegin
  2
*D1
 70
     1
 10
0.0
 20
0.0
 30
0.0
  3
*D1
  1

  0
LINE
  5
607
330
13A
100
AcDbEntity
  8
Dimension
 62
     0
370
    -2
100
AcDbLine
 10
3.994455269373018
 20
6.435808559706345
 30
0.0
 11
5.242501189888345
 21
6.435808559706345
 31
0.0
  0
LINE
  5
608
330
13A
100
AcDbEntity
  8
Dimension
 62
     0
370
    -2
100
AcDbLine
 10
4.170455269373017
 20
7.810808559706345
 30
0.0
 11
5.242501189888345
 21
7.810808559706345
 31
0.0
  0
LINE
  5
609
330
13A
100
AcDbEntity
  8
Dimension
 62
     0
370
    -2
100
AcDbLine
 10
5.117501189888345
 20
6.560808559706345
 30
0.0
 11
5.117501189888345
 21
6.970282243916871
 31
0.0
  0
LINE
  5
60A
330
13A
100
AcDbEntity
  8
Dimension
 62
     0
370
    -2
100
AcDbLine
 10
5.117501189888345
 20
7.685808559706345
 30
0.0
 11
5.117501189888345
 21
7.276334875495818
 31
0.0
  0
SOLID
  5
60B
330
13A
100
AcDbEntity
  8
Dimension
 62
     0
100
AcDbTrace
 10
5.096667856555012
 20
6.560808559706345
 30
0.0
 11
5.138334523221678
 21
6.560808559706345
 31
0.0
 12
5.117501189888345
 22
6.435808559706345
 32
0.0
 13
5.117501189888345
 23
6.435808559706345
 33
0.0
  0
SOLID
  5
60C
330
13A
100
AcDbEntity
  8
Dimension
 62
     0
100
AcDbTrace
 10
5.096667856555012
 20
7.685808559706345
 30
0.0
 11
5.138334523221678
 21
7.685808559706345
 31
0.0
 12
5.117501189888345
 22
7.810808559706345
 32
0.0
 13
5.117501189888345
 23
7.810808559706345
 33
0.0
  0
MTEXT
  5
60D
330
13A
100
AcDbEntity
  8
Dimension
 62
     0
100
AcDbMText
 10
5.117501189888344
 20
7.123308559706345
 30
0.0
 40
0.09
 41
0.0
 71
     5
 72
     1
  1
\A1;1.38 [34.9mm]
 73
     1
 44
1.0
1001
ACAD
1000
MTEXTBEGIN
1070
    73
1070
     1
1070
    44
1040
1.0
1070
    74
1070
     0
1000
MTEXTEND
  0
POINT
  5
60E
330
13A
100
AcDbEntity
  8
Defpoints
 62
     0
100
AcDbPoint
 10
3.931955269373018
 20
6.435808559706345
 30
0.0
  0
POINT
  5
60F
330
13A
100
AcDbEntity
  8
Defpoints
 62
     0
100
AcDbPoint
 10
4.107955269373017
 20
7.810808559706345
 30
0.0
  0
POINT
  5
610
330
13A
100
AcDbEntity
  8
Defpoints
 62
     0
100
AcDbPoint
 10
5.117501189888345
 20
7.810808559706345
 30
0.0
  0
ENDBLK
  5
146
330
13A
100
AcDbEntity
  8
0
100
AcDbBlockEnd
  0
BLOCK
  5
61F
330
614
100
AcDbEntity
  8
0
100
AcDbBlockBegin
  2
*D2
 70
     1
 10
0.0
 20
0.0
 30
0.0
  3
*D2
  1

  0
LINE
  5
668
330
614
100
AcDbEntity
  8
Dimension
 62
     0
370
    -2
100
AcDbLine
 10
1.986955269373018
 20
5.162308559706344
 30
0.0
 11
1.986955269373018
 21
5.73237056515564
 31
0.0
  0
LINE
  5
669
330
614
100
AcDbEntity
  8
Dimension
 62
     0
370
    -2
100
AcDbLine
 10
3.826955269373017
 20
5.162308559706344
 30
0.0
 11
3.826955269373017
 21
5.73237056515564
 31
0.0
  0
LINE
  5
66A
330
614
100
AcDbEntity
  8
Dimension
 62
     0
370
    -2
100
AcDbLine
 10
2.111955269373018
 20
5.60737056515564
 30
0.0
 11
2.423994743057228
 21
5.60737056515564
 31
0.0
  0
LINE
  5
66B
330
614
100
AcDbEntity
  8
Dimension
 62
     0
370
    -2
100
AcDbLine
 10
3.701955269373017
 20
5.60737056515564
 30
0.0
 11
3.389915795688807
 21
5.60737056515564
 31
0.0
  0
SOLID
  5
66C
330
614
100
AcDbEntity
  8
Dimension
 62
     0
100
AcDbTrace
 10
2.111955269373018
 20
5.628203898488973
 30
0.0
 11
2.111955269373018
 21
5.586537231822307
 31
0.0
 12
1.986955269373018
 22
5.60737056515564
 32
0.0
 13
1.986955269373018
 23
5.60737056515564
 33
0.0
  0
SOLID
  5
66D
330
614
100
AcDbEntity
  8
Dimension
 62
     0
100
AcDbTrace
 10
3.701955269373017
 20
5.628203898488973
 30
0.0
 11
3.701955269373017
 21
5.586537231822307
 31
0.0
 12
3.826955269373017
 22
5.60737056515564
 32
0.0
 13
3.826955269373017
 23
5.60737056515564
 33
0.0
  0
MTEXT
  5
66E
330
614
100
AcDbEntity
  8
Dimension
 62
     0
100
AcDbMText
 10
2.906955269373018
 20
5.60737056515564
 30
0.0
 40
0.09
 41
0.0
 71
     5
 72
     1
  1
\A1;1.84 [46.7mm]
 73
     1
 44
1.0
1001
ACAD
1000
MTEXTBEGIN
1070
    73
1070
     1
1070
    44
1040
1.0
1070
    74
1070
     0
1000
MTEXTEND
  0
POINT
  5
66F
330
614
100
AcDbEntity
  8
Defpoints
 62
     0
100
AcDbPoint
 10
1.986955269373018
 20
5.099808559706344
 30
0.0
  0
POINT
  5
670
330
614
100
AcDbEntity
  8
Defpoints
 62
     0
100
AcDbPoint
 10
3.826955269373017
 20
5.099808559706344
 30
0.0
  0
POINT
  5
671
330
614
100
AcDbEntity
  8
Defpoints
 62
     0
100
AcDbPoint
 10
3.826955269373017
 20
5.60737056515564
 30
0.0
  0
ENDBLK
  5
620
330
614
100
AcDbEntity
  8
0
100
AcDbBlockEnd
  0
BLOCK
  5
643
330
638
100
AcDbEntity
  8
0
100
AcDbBlockBegin
  2
*D3
 70
     1
 10
0.0
 20
0.0
 30
0.0
  3
*D3
  1

  0
LINE
  5
673
330
638
100
AcDbEntity
  8
Dimension
 62
     0
370
    -2
100
AcDbLine
 10
7.406455269373018
 20
3.649808559706344
 30
0.0
 11
6.354928997418873
 21
3.649808559706344
 31
0.0
  0
LINE
  5
674
330
638
100
AcDbEntity
  8
Dimension
 62
     0
370
    -2
100
AcDbLine
 10
7.446455269373018
 20
4.739808559706345
 30
0.0
 11
6.354928997418873
 21
4.739808559706345
 31
0.0
  0
LINE
  5
675
330
638
100
AcDbEntity
  8
Dimension
 62
     0
370
    -2
100
AcDbLine
 10
6.479928997418873
 20
3.774808559706344
 30
0.0
 11
6.479928997418873
 21
4.041782243916872
 31
0.0
  0
LINE
  5
676
330
638
100
AcDbEntity
  8
Dimension
 62
     0
370
    -2
100
AcDbLine
 10
6.479928997418873
 20
4.614808559706345
 30
0.0
 11
6.479928997418873
 21
4.347834875495818
 31
0.0
  0
SOLID
  5
677
330
638
100
AcDbEntity
  8
Dimension
 62
     0
100
AcDbTrace
 10
6.45909566408554
 20
3.774808559706344
 30
0.0
 11
6.500762330752206
 21
3.774808559706344
 31
0.0
 12
6.479928997418873
 22
3.649808559706344
 32
0.0
 13
6.479928997418873
 23
3.649808559706344
 33
0.0
  0
SOLID
  5
678
330
638
100
AcDbEntity
  8
Dimension
 62
     0
100
AcDbTrace
 10
6.45909566408554
 20
4.614808559706345
 30
0.0
 11
6.500762330752206
 21
4.614808559706345
 31
0.0
 12
6.479928997418873
 22
4.739808559706345
 32
0.0
 13
6.479928997418873
 23
4.739808559706345
 33
0.0
  0
MTEXT
  5
679
330
638
100
AcDbEntity
  8
Dimension
 62
     0
100
AcDbMText
 10
6.479928997418872
 20
4.194808559706347
 30
0.0
 40
0.09
 41
0.0
 71
     5
 72
     1
  1
\A1;1.09 [27.7mm]
 73
     1
 44
1.0
1001
ACAD
1000
MTEXTBEGIN
1070
    73
1070
     1
1070
    44
1040
1.0
1070
    74
1070
     0
1000
MTEXTEND
  0
POINT
  5
67A
330
638
100
AcDbEntity
  8
Defpoints
 62
     0
100
AcDbPoint
 10
7.468955269373018
 20
3.649808559706344
 30
0.0
  0
POINT
  5
67B
330
638
100
AcDbEntity
  8
Defpoints
 62
     0
100
AcDbPoint
 10
7.508955269373018
 20
4.739808559706345
 30
0.0
  0
POINT
  5
67C
330
638
100
AcDbEntity
  8
Defpoints
 62
     0
100
AcDbPoint
 10
6.479928997418873
 20
4.739808559706345
 30
0.0
  0
ENDBLK
  5
644
330
638
100
AcDbEntity
  8
0
100
AcDbBlockEnd
  0
ENDSEC
  0
SECTION
  2
ENTITIES
  0
TEXT
  5
F0
330
1F
100
AcDbEntity
  8
Title Block
100
AcDbText
 10
6.776695012655547
 20
2.672489851525508
 30
0.0
 40
0.05
  1
FILENAME:
100
AcDbText
  0
TEXT
  5
F1
330
1F
100
AcDbEntity
  8
Title Block
100
AcDbText
 10
6.769285028728251
 20
2.076224967549325
 30
0.0
 40
0.35
  1
PANDUIT
100
AcDbText
  0
TEXT
  5
F2
330
1F
100
AcDbEntity
  8
Title Block
100
AcDbText
 10
8.721820398821382
 20
2.061410940562986
 30
0.0
 40
0.125
  1
CORP. TINLEY PARK, IL
100
AcDbText
  0
TEXT
  5
F3
330
1F
100
AcDbEntity
  8
Title Block
100
AcDbText
 10
6.780399976708615
 20
1.91697409709392
 30
0.0
 40
0.05
  1
TITLE:
100
AcDbText
  0
MTEXT
  5
F4
330
1F
100
AcDbEntity
  8
Title Block
100
AcDbMText
 10
8.0
 20
1.372215793536348
 30
0.0
 40
0.075
 41
2.5
 71
     5
 72
     5
  1
UNLESS OTHERWISE SPECIFIED,\PDIMENSIONAL TOLERANCES ARE:       
 73
     1
 44
1.0
1001
ACAD
1000
MTEXTBEGIN
1070
    73
1070
     1
1070
    44
1040
1.0
1070
    74
1070
     0
1000
MTEXTEND
  0
MTEXT
  5
F5
330
1F
100
AcDbEntity
  8
Title Block
100
AcDbMText
 10
7.392379866610014
 20
1.131487708483632
 30
0.0
 40
0.075
 41
2.5
 71
     5
 72
     5
  1
(.X)\P(.XX)
 73
     1
 44
1.0
1001
ACAD
1000
MTEXTBEGIN
1070
    73
1070
     1
1070
    44
1040
1.0
1070
    74
1070
     0
1000
MTEXTEND
  0
MTEXT
  5
F6
330
1F
100
AcDbEntity
  8
Title Block
100
AcDbMText
 10
8.400140053124118
 20
1.131487708483632
 30
0.0
 40
0.075
 41
2.5
 71
     5
 72
     5
  1
(.XXX)\PANGLES:
 73
     1
 44
1.0
1001
ACAD
1000
MTEXTBEGIN
1070
    73
1070
     1
1070
    44
1040
1.0
1070
    74
1070
     0
1000
MTEXTEND
  0
MTEXT
  5
F7
330
1F
100
AcDbEntity
  8
Title Block
100
AcDbMText
 10
10.0
 20
1.25
 30
0.0
 40
0.06
 41
1.5
 71
     5
 72
     5
  1
UNLESS OTHERWISE SPECIFIED,\PALL DIMENSIONS ARE GIVEN IN INCHES, THIRD ANGLE PROJECTION
 73
     1
 44
1.0
1001
ACAD
1000
MTEXTBEGIN
1070
    73
1070
     1
1070
    44
1040
1.0
1070
    74
1070
     0
1000
MTEXTEND
  0
TEXT
  5
F8
330
1F
100
AcDbEntity
  8
Title Block
100
AcDbText
 10
6.760764454306187
 20
0.9281373372752312
 30
0.0
 40
0.05
  1
DRAWN BY:
100
AcDbText
  0
TEXT
  5
F9
330
1F
100
AcDbEntity
  8
Title Block
100
AcDbText
 10
6.764469474180437
 20
0.6811431865635028
 30
0.0
 40
0.05
  1
DATE:
100
AcDbText
  0
TEXT
  5
FA
330
1F
100
AcDbEntity
  8
Title Block
100
AcDbText
 10
6.768174438233497
 20
0.4304455338317968
 30
0.0
 40
0.05
  1
CHECKED BY:
100
AcDbText
  0
TEXT
  5
FB
330
1F
100
AcDbEntity
  8
Title Block
100
AcDbText
 10
7.520289593133067
 20
0.9281373372752312
 30
0.0
 40
0.05
  1
MATERIAL:
100
AcDbText
  0
TEXT
  5
FC
330
1F
100
AcDbEntity
  8
Title Block
100
AcDbText
 10
9.265344938781542
 20
0.9281373372752312
 30
0.0
 40
0.05
  1
SCALE:
100
AcDbText
  0
TEXT
  5
FD
330
1F
100
AcDbEntity
  8
Title Block
100
AcDbText
 10
9.265344938781542
 20
0.6725952630490007
 30
0.0
 40
0.05
  1
DRAWING NUMBER:
100
AcDbText
  0
TEXT
  5
FE
330
1F
100
AcDbEntity
  8
Title Block
100
AcDbText
 10
10.34942622928998
 20
0.6762987650689816
 30
0.0
 40
0.05
  1
DRAWING
100
AcDbText
  0
TEXT
  5
FF
330
1F
100
AcDbEntity
  8
Title Block
100
AcDbText
 10
10.42723125590085
 20
0.2811642688682026
 30
0.0
 40
0.05
  1
SIZE
100
AcDbText
  0
TEXT
  5
100
330
1F
100
AcDbEntity
  8
Title Block
100
AcDbText
 10
10.38647626056889
 20
0.3911285990572359
 30
0.0
 40
0.25
  1
A
100
AcDbText
  0
MTEXT
  5
101
330
1F
100
AcDbEntity
  8
Title Block
100
AcDbMText
 10
0.375
 20
0.375
 30
0.0
 40
0.05
 41
0.25
 71
     5
 72
     5
  1
REV
 73
     1
 44
1.0
1001
ACAD
1000
MTEXTBEGIN
1070
    73
1070
     1
1070
    44
1040
1.0
1070
    74
1070
     0
1000
MTEXTEND
  0
MTEXT
  5
102
330
1F
100
AcDbEntity
  8
Title Block
100
AcDbMText
 10
0.75
 20
0.375
 30
0.0
 40
0.05
 41
0.5
 71
     5
 72
     5
  1
DATE
 73
     1
 44
1.0
1001
ACAD
1000
MTEXTBEGIN
1070
    73
1070
     1
1070
    44
1040
1.0
1070
    74
1070
     0
1000
MTEXTEND
  0
MTEXT
  5
103
330
1F
100
AcDbEntity
  8
Title Block
100
AcDbMText
 10
1.189999999999999
 20
0.375
 30
0.0
 40
0.05
 41
0.38
 71
     5
 72
     5
  1
BY
 73
     1
 44
1.0
1001
ACAD
1000
MTEXTBEGIN
1070
    73
1070
     1
1070
    44
1040
1.0
1070
    74
1070
     0
1000
MTEXTEND
  0
MTEXT
  5
104
330
1F
100
AcDbEntity
  8
Title Block
100
AcDbMText
 10
1.564999999999999
 20
0.375
 30
0.0
 40
0.05
 41
0.38
 71
     5
 72
     5
  1
CHK
 73
     1
 44
1.0
1001
ACAD
1000
MTEXTBEGIN
1070
    73
1070
     1
1070
    44
1040
1.0
1070
    74
1070
     0
1000
MTEXTEND
  0
MTEXT
  5
105
330
1F
100
AcDbEntity
  8
Title Block
100
AcDbMText
 10
3.125
 20
0.375
 30
0.0
 40
0.05
 41
2.75
 71
     5
 72
     5
  1
DESCRIPTION
 73
     1
 44
1.0
1001
ACAD
1000
MTEXTBEGIN
1070
    73
1070
     1
1070
    44
1040
1.0
1070
    74
1070
     0
1000
MTEXTEND
  0
MTEXT
  5
106
330
1F
100
AcDbEntity
  8
Title Block
100
AcDbMText
 10
5.064999999999999
 20
0.375
 30
0.0
 40
0.05
 41
1.129999999999999
 71
     5
 72
     5
  1
ECN   -   R
 73
     1
 44
1.0
1001
ACAD
1000
MTEXTBEGIN
1070
    73
1070
     1
1070
    44
1040
1.0
1070
    74
1070
     0
1000
MTEXTEND
  0
MTEXT
  5
107
330
1F
100
AcDbEntity
  8
Title Block
100
AcDbMText
 10
5.815
 20
0.375
 30
0.0
 40
0.05
 41
0.38
 71
     5
 72
     5
  1
CUST
 73
     1
 44
1.0
1001
ACAD
1000
MTEXTBEGIN
1070
    73
1070
     1
1070
    44
1040
1.0
1070
    74
1070
     0
1000
MTEXTEND
  0
MTEXT
  5
108
330
1F
100
AcDbEntity
  8
Title Block
100
AcDbMText
 10
6.19
 20
0.375
 30
0.0
 40
0.05
 41
0.38
 71
     5
 72
     5
  1
SUP
 73
     1
 44
1.0
1001
ACAD
1000
MTEXTBEGIN
1070
    73
1070
     1
1070
    44
1040
1.0
1070
    74
1070
     0
1000
MTEXTEND
  0
LWPOLYLINE
  5
109
330
1F
100
AcDbEntity
  8
Title Block
100
AcDbPolyline
 90
        4
 70
     1
 43
0.01
 10
0.25
 20
8.250000000000001
 10
0.25
 20
0.25
 10
10.75
 20
0.25
 10
10.75
 20
8.25
  0
LINE
  5
10A
330
1F
100
AcDbEntity
  8
Title Block
100
AcDbLine
 10
10.75
 20
2.749999999999999
 30
0.0
 11
0.25
 21
2.75
 31
0.0
  0
LINE
  5
10B
330
1F
100
AcDbEntity
  8
Title Block
100
AcDbLine
 10
6.75
 20
2.75
 30
0.0
 11
6.75
 21
0.25
 31
0.0
  0
LINE
  5
10C
330
1F
100
AcDbEntity
  8
Title Block
100
AcDbLine
 10
10.75
 20
2.499999999999999
 30
0.0
 11
0.25
 21
2.5
 31
0.0
  0
LINE
  5
10D
330
1F
100
AcDbEntity
  8
Title Block
100
AcDbLine
 10
6.75
 20
2.25
 30
0.0
 11
0.25
 21
2.25
 31
0.0
  0
LINE
  5
10E
330
1F
100
AcDbEntity
  8
Title Block
100
AcDbLine
 10
10.75
 20
1.999999999999999
 30
0.0
 11
0.25
 21
2.0
 31
0.0
  0
LINE
  5
10F
330
1F
100
AcDbEntity
  8
Title Block
100
AcDbLine
 10
6.75
 20
1.75
 30
0.0
 11
0.25
 21
1.75
 31
0.0
  0
LINE
  5
110
330
1F
100
AcDbEntity
  8
Title Block
100
AcDbLine
 10
10.75
 20
1.499999999999999
 30
0.0
 11
0.25
 21
1.5
 31
0.0
  0
LINE
  5
111
330
1F
100
AcDbEntity
  8
Title Block
100
AcDbLine
 10
6.75
 20
1.25
 30
0.0
 11
0.25
 21
1.25
 31
0.0
  0
LINE
  5
112
330
1F
100
AcDbEntity
  8
Title Block
100
AcDbLine
 10
10.75
 20
0.9999999999999996
 30
0.0
 11
0.25
 21
1.0
 31
0.0
  0
LINE
  5
113
330
1F
100
AcDbEntity
  8
Title Block
100
AcDbLine
 10
7.5
 20
0.75
 30
0.0
 11
0.25
 21
0.7500000000000009
 31
0.0
  0
LINE
  5
114
330
1F
100
AcDbEntity
  8
Title Block
100
AcDbLine
 10
7.5
 20
0.5
 30
0.0
 11
0.25
 21
0.5000000000000009
 31
0.0
  0
LINE
  5
115
330
1F
100
AcDbEntity
  8
Title Block
100
AcDbLine
 10
0.25
 20
0.25
 30
0.0
 11
0.25
 21
2.75
 31
0.0
  0
LINE
  5
116
330
1F
100
AcDbEntity
  8
Title Block
100
AcDbLine
 10
0.5
 20
0.25
 30
0.0
 11
0.5
 21
2.750000000000001
 31
0.0
  0
LINE
  5
117
330
1F
100
AcDbEntity
  8
Title Block
100
AcDbLine
 10
1.0
 20
0.25
 30
0.0
 11
1.0
 21
2.750000000000001
 31
0.0
  0
LINE
  5
118
330
1F
100
AcDbEntity
  8
Title Block
100
AcDbLine
 10
1.375
 20
0.25
 30
0.0
 11
1.375
 21
2.750000000000001
 31
0.0
  0
LINE
  5
119
330
1F
100
AcDbEntity
  8
Title Block
100
AcDbLine
 10
1.75
 20
0.25
 30
0.0
 11
1.75
 21
2.750000000000001
 31
0.0
  0
LINE
  5
11A
330
1F
100
AcDbEntity
  8
Title Block
100
AcDbLine
 10
6.375
 20
2.75
 30
0.0
 11
6.375
 21
0.25
 31
0.0
  0
LINE
  5
11B
330
1F
100
AcDbEntity
  8
Title Block
100
AcDbLine
 10
6.0
 20
2.75
 30
0.0
 11
6.0
 21
0.25
 31
0.0
  0
LINE
  5
11C
330
1F
100
AcDbEntity
  8
Title Block
100
AcDbLine
 10
5.625
 20
2.75
 30
0.0
 11
5.625
 21
0.25
 31
0.0
  0
LINE
  5
11D
330
1F
100
AcDbEntity
  8
Title Block
100
AcDbLine
 10
5.25
 20
2.75
 30
0.0
 11
5.25
 21
0.5000000000000002
 31
0.0
  0
LINE
  5
11E
330
1F
100
AcDbEntity
  8
Title Block
100
AcDbLine
 10
4.5
 20
2.75
 30
0.0
 11
4.5
 21
0.25
 31
0.0
  0
LINE
  5
11F
330
1F
100
AcDbEntity
  8
Title Block
100
AcDbLine
 10
9.25
 20
0.75
 30
0.0
 11
9.25
 21
1.499999999999999
 31
0.0
  0
LINE
  5
120
330
1F
100
AcDbEntity
  8
Title Block
100
AcDbLine
 10
9.25
 20
0.75
 30
0.0
 11
9.25
 21
0.25
 31
0.0
  0
LINE
  5
121
330
1F
100
AcDbEntity
  8
Title Block
100
AcDbLine
 10
9.25
 20
0.75
 30
0.0
 11
10.75
 21
0.75
 31
0.0
  0
LINE
  5
122
330
1F
100
AcDbEntity
  8
Title Block
100
AcDbLine
 10
7.5
 20
0.5
 30
0.0
 11
7.5
 21
0.25
 31
0.0
  0
LINE
  5
123
330
1F
100
AcDbEntity
  8
Title Block
100
AcDbLine
 10
7.5
 20
0.5
 30
0.0
 11
7.5
 21
1.0
 31
0.0
  0
LINE
  5
124
330
1F
100
AcDbEntity
  8
Title Block
100
AcDbLine
 10
10.25
 20
0.75
 30
0.0
 11
10.25
 21
0.25
 31
0.0
  0
POINT
  5
125
330
1F
100
AcDbEntity
  8
Title Block
100
AcDbPoint
 10
11.0
 20
8.5
 30
0.0
  0
POINT
  5
126
330
1F
100
AcDbEntity
  8
Title Block
100
AcDbPoint
 10
11.0
 20
0.0
 30
0.0
  0
POINT
  5
127
330
1F
100
AcDbEntity
  8
Title Block
100
AcDbPoint
 10
0.0
 20
0.0
 30
0.0
  0
POINT
  5
128
330
1F
100
AcDbEntity
  8
Title Block
100
AcDbPoint
 10
0.0
 20
8.500000000000001
 30
0.0
  0
MTEXT
  5
129
330
1F
100
AcDbEntity
  8
Text
100
AcDbMText
 10
0.375
 20
0.6250000000000009
 30
0.0
 40
0.09
 41
0.25
 71
     5
 72
     5
  1
R
 73
     1
 44
1.0
1001
ACAD
1000
MTEXTBEGIN
1070
    73
1070
     1
1070
    44
1040
1.0
1070
    74
1070
     0
1000
MTEXTEND
  0
MTEXT
  5
12A
330
1F
100
AcDbEntity
  8
Text
100
AcDbMText
 10
0.75
 20
0.6250000000000009
 30
0.0
 40
0.07
 41
0.5
 71
     5
 72
     5
  1
1-16-07
 73
     1
 44
1.0
1001
ACAD
1000
MTEXTBEGIN
1070
    73
1070
     1
1070
    44
1040
1.0
1070
    74
1070
     0
1000
MTEXTEND
  0
MTEXT
  5
12B
330
1F
100
AcDbEntity
  8
Text
100
AcDbMText
 10
1.1875
 20
0.6250000000000009
 30
0.0
 40
0.09
 41
0.375
 71
     5
 72
     5
  1
MSO
 73
     1
 44
1.0
1001
ACAD
1000
MTEXTBEGIN
1070
    73
1070
     1
1070
    44
1040
1.0
1070
    74
1070
     0
1000
MTEXTEND
  0
MTEXT
  5
12C
330
1F
100
AcDbEntity
  8
Text
100
AcDbMText
 10
3.125
 20
0.6250000000000005
 30
0.0
 40
0.09
 41
2.75
 71
     5
 72
     5
  1
DRAWING RELEASED
 73
     1
 44
1.0
1001
ACAD
1000
MTEXTBEGIN
1070
    73
1070
     1
1070
    44
1040
1.0
1070
    74
1070
     0
1000
MTEXTEND
  0
MTEXT
  5
12D
330
1F
100
AcDbEntity
  8
Text
100
AcDbMText
 10
7.474999999999999
 20
0.85
 30
0.0
 40
0.09
 41
0.75
 71
     6
 72
     5
  1
MSO
 73
     1
 44
1.0
1001
ACAD
1000
MTEXTBEGIN
1070
    73
1070
     1
1070
    44
1040
1.0
1070
    74
1070
     0
1000
MTEXTEND
  0
MTEXT
  5
12E
330
1F
100
AcDbEntity
  8
Text
100
AcDbMText
 10
7.474999999999999
 20
0.5999999999999999
 30
0.0
 40
0.09
 41
0.75
 71
     6
 72
     5
  1
1-16-07
 73
     1
 44
1.0
1001
ACAD
1000
MTEXTBEGIN
1070
    73
1070
     1
1070
    44
1040
1.0
1070
    74
1070
     0
1000
MTEXTEND
  0
MTEXT
  5
12F
330
1F
100
AcDbEntity
  8
Text
100
AcDbMText
 10
7.474999999999999
 20
0.3500000000000001
 30
0.0
 40
0.09
 41
0.75
 71
     6
 72
     5
  1
DJWA
 73
     1
 44
1.0
1001
ACAD
1000
MTEXTBEGIN
1070
    73
1070
     1
1070
    44
1040
1.0
1070
    74
1070
     0
1000
MTEXTEND
  0
MTEXT
  5
130
330
1F
100
AcDbEntity
  8
Text
100
AcDbMText
 10
8.75
 20
2.625
 30
0.0
 40
0.09
 41
4.0
 71
     5
 72
     5
  1
FRAFC58.dwg
 73
     1
 44
1.0
1001
ACAD
1000
MTEXTBEGIN
1070
    73
1070
     1
1070
    44
1040
1.0
1070
    74
1070
     0
1000
MTEXTEND
  0
MTEXT
  5
131
330
1F
100
AcDbEntity
  8
Text
100
AcDbMText
 10
8.75
 20
1.727621587927441
 30
0.0
 40
0.09
 41
4.0
 71
     5
 72
     5
  1
FIBER ROUTING AUXILIARY FRAMING CLIP - {\H0.7x;\S5#8;}" THREADED ROD\P(FRAFC58)\PMARKETING DRAWING
 73
     1
 44
1.0
1001
ACAD
1000
MTEXTBEGIN
1070
    73
1070
     1
1070
    44
1040
1.0
1070
    74
1070
     1
1000
MTEXTEND
  0
MTEXT
  5
132
330
1F
100
AcDbEntity
  8
Text
100
AcDbMText
 10
10.0
 20
0.8749999999999998
 30
0.0
 40
0.12
 41
1.5
 71
     5
 72
     5
  1
FULL
 73
     1
 44
1.0
1001
ACAD
1000
MTEXTBEGIN
1070
    73
1070
     1
1070
    44
1040
1.0
1070
    74
1070
     0
1000
MTEXTEND
  0
MTEXT
  5
133
330
1F
100
AcDbEntity
  8
Text
100
AcDbMText
 10
9.75
 20
0.5
 30
0.0
 40
0.12
 41
1.0
 71
     5
 72
     5
  1
36897-1129
 73
     1
 44
1.0
1001
ACAD
1000
MTEXTBEGIN
1070
    73
1070
     1
1070
    44
1040
1.0
1070
    74
1070
     0
1000
MTEXTEND
  0
DIMENSION
  5
134
330
1F
100
AcDbEntity
  8
Dimension
100
AcDbDimension
  2
*D1
 10
5.117501189888345
 20
7.810808559706345
 30
0.0
 11
5.117501189888344
 21
7.123308559706345
 31
0.0
 70
   160
 71
     5
 42
1.375
  3
Standard
100
AcDbAlignedDimension
 13
3.931955269373018
 23
6.435808559706345
 33
0.0
 14
4.107955269373017
 24
7.810808559706345
 34
0.0
 50
90.0
100
AcDbRotatedDimension
  0
MTEXT
  5
135
102
{ACAD_XDICTIONARY
360
698
102
}
330
1F
100
AcDbEntity
  8
Text
100
AcDbMText
 10
7.481980470335663
 20
7.978118889549502
 30
0.0
 40
0.09
 41
3.015114469603425
 71
     1
 72
     5
  1
{\LNOTES:}\P\P1. THE FIBER ROUTING AUXILIARY FRAMING CLIP\P   - {\H0.7x;\S5#8;} " THREADED ROD INCLUDES:\P\P   TWO (2) CLIPS,\P   TWO (2) {\H0.7x;\S5#8;}" HELICAL SPRING LOCKWASHERS,\P   TWO (2) {\H0.7x;\S5#8;}-11 HEAVY HEX NUTS
 73
     1
 44
1.0
1001
ACAD
1000
MTEXTBEGIN
1070
    73
1070
     1
1070
    44
1040
1.0
1070
    74
1070
     1
1000
MTEXTEND
  0
TEXT
  5
136
330
1F
100
AcDbEntity
  8
Text
100
AcDbText
 10
2.488266603871096
 20
5.999820717918918
 30
0.0
 40
0.125
  1
TOP VIEW
100
AcDbText
  0
TEXT
  5
137
330
1F
100
AcDbEntity
  8
Text
100
AcDbText
 10
2.378540862319901
 20
3.258023559497855
 30
0.0
 40
0.125
  1
FRONT VIEW
100
AcDbText
  0
TEXT
  5
138
330
1F
100
AcDbEntity
  8
Text
100
AcDbText
 10
7.480787344238862
 20
3.258265809649418
 30
0.0
 40
0.125
  1
RIGHT SIDE VIEW
100
AcDbText
  0
MTEXT
  5
139
330
1F
100
AcDbEntity
  8
Text
100
AcDbMText
 10
1.560400281422708
 20
0.626249074032665
 30
0.0
 40
0.07
 41
0.375
 71
     5
 72
     5
  1
DJWA
 73
     1
 44
1.0
1001
ACAD
1000
MTEXTBEGIN
1070
    73
1070
     1
1070
    44
1040
1.0
1070
    74
1070
     0
1000
MTEXTEND
  0
LINE
  5
257
330
1F
100
AcDbEntity
  8
Object
100
AcDbLine
 10
7.468955269373018
 20
3.649808559706344
 30
0.0
 11
8.843955269373019
 21
3.649808559706344
 31
0.0
  0
LINE
  5
258
330
1F
100
AcDbEntity
  8
Object
100
AcDbLine
 10
7.468955269373018
 20
3.761808559706344
 30
0.0
 11
7.468955269373018
 21
3.794808559706344
 31
0.0
  0
LINE
  5
259
330
1F
100
AcDbEntity
  8
Object
100
AcDbLine
 10
7.468955269373018
 20
3.794808559706344
 30
0.0
 11
8.843955269373019
 21
3.794808559706344
 31
0.0
  0
LINE
  5
25A
330
1F
100
AcDbEntity
  8
Object
100
AcDbLine
 10
8.843955269373019
 20
3.794808559706344
 30
0.0
 11
8.843955269373019
 21
3.761808559706344
 31
0.0
  0
LINE
  5
25B
330
1F
100
AcDbEntity
  8
Object
100
AcDbLine
 10
8.843955269373019
 20
3.761808559706344
 30
0.0
 11
8.843955269373019
 21
3.731808559706344
 31
0.0
  0
LINE
  5
25C
330
1F
100
AcDbEntity
  8
Object
100
AcDbLine
 10
7.468955269373018
 20
3.761808559706344
 30
0.0
 11
7.468955269373018
 21
3.731808559706344
 31
0.0
  0
LINE
  5
25D
330
1F
100
AcDbEntity
  8
Object
100
AcDbLine
 10
7.468955269373018
 20
3.731808559706344
 30
0.0
 11
7.468955269373018
 21
3.703808559706344
 31
0.0
  0
LINE
  5
25E
330
1F
100
AcDbEntity
  8
Object
100
AcDbLine
 10
8.843955269373019
 20
3.731808559706344
 30
0.0
 11
8.843955269373019
 21
3.703808559706344
 31
0.0
  0
LINE
  5
25F
330
1F
100
AcDbEntity
  8
Object
100
AcDbLine
 10
8.843955269373019
 20
3.703808559706344
 30
0.0
 11
8.843955269373019
 21
3.680808559706344
 31
0.0
  0
LINE
  5
260
330
1F
100
AcDbEntity
  8
Object
100
AcDbLine
 10
7.468955269373018
 20
3.703808559706344
 30
0.0
 11
7.468955269373018
 21
3.680808559706345
 31
0.0
  0
LINE
  5
261
330
1F
100
AcDbEntity
  8
Object
100
AcDbLine
 10
7.468955269373018
 20
3.680808559706345
 30
0.0
 11
7.468955269373018
 21
3.663808559706344
 31
0.0
  0
LINE
  5
262
330
1F
100
AcDbEntity
  8
Object
100
AcDbLine
 10
8.843955269373019
 20
3.680808559706344
 30
0.0
 11
8.843955269373019
 21
3.663808559706344
 31
0.0
  0
LINE
  5
263
330
1F
100
AcDbEntity
  8
Object
100
AcDbLine
 10
8.843955269373019
 20
3.663808559706344
 30
0.0
 11
8.843955269373019
 21
3.652808559706344
 31
0.0
  0
LINE
  5
264
330
1F
100
AcDbEntity
  8
Object
100
AcDbLine
 10
7.468955269373018
 20
3.663808559706344
 30
0.0
 11
7.468955269373018
 21
3.652808559706344
 31
0.0
  0
LINE
  5
265
330
1F
100
AcDbEntity
  8
Object
100
AcDbLine
 10
7.468955269373018
 20
3.652808559706344
 30
0.0
 11
7.468955269373018
 21
3.649808559706344
 31
0.0
  0
LINE
  5
266
330
1F
100
AcDbEntity
  8
Object
100
AcDbLine
 10
8.843955269373019
 20
3.652808559706344
 30
0.0
 11
8.843955269373019
 21
3.649808559706344
 31
0.0
  0
LINE
  5
267
330
1F
100
AcDbEntity
  8
Object
100
AcDbLine
 10
8.843955269373019
 20
3.649808559706344
 30
0.0
 11
7.468955269373018
 21
3.649808559706344
 31
0.0
  0
LINE
  5
268
330
1F
100
AcDbEntity
  8
Object
100
AcDbLine
 10
8.843955269373019
 20
3.794808559706344
 30
0.0
 11
8.843955269373019
 21
3.761808559706344
 31
0.0
  0
LINE
  5
269
330
1F
100
AcDbEntity
  8
Object
100
AcDbLine
 10
8.843955269373019
 20
3.761808559706344
 30
0.0
 11
8.843955269373019
 21
3.731808559706344
 31
0.0
  0
LINE
  5
26A
330
1F
100
AcDbEntity
  8
Object
100
AcDbLine
 10
8.843955269373019
 20
3.731808559706344
 30
0.0
 11
8.843955269373019
 21
3.703808559706344
 31
0.0
  0
LINE
  5
26B
330
1F
100
AcDbEntity
  8
Object
100
AcDbLine
 10
8.843955269373019
 20
3.703808559706344
 30
0.0
 11
8.843955269373019
 21
3.680808559706344
 31
0.0
  0
LINE
  5
26C
330
1F
100
AcDbEntity
  8
Object
100
AcDbLine
 10
8.843955269373019
 20
3.680808559706344
 30
0.0
 11
8.843955269373019
 21
3.663808559706344
 31
0.0
  0
LINE
  5
26D
330
1F
100
AcDbEntity
  8
Object
100
AcDbLine
 10
8.843955269373019
 20
3.663808559706344
 30
0.0
 11
8.843955269373019
 21
3.652808559706344
 31
0.0
  0
LINE
  5
26E
330
1F
100
AcDbEntity
  8
Object
100
AcDbLine
 10
8.843955269373019
 20
3.652808559706344
 30
0.0
 11
8.843955269373019
 21
3.649808559706344
 31
0.0
  0
LINE
  5
26F
330
1F
100
AcDbEntity
  8
Object
100
AcDbLine
 10
7.468955269373018
 20
3.794808559706344
 30
0.0
 11
7.468955269373018
 21
3.761808559706344
 31
0.0
  0
LINE
  5
270
330
1F
100
AcDbEntity
  8
Object
100
AcDbLine
 10
7.468955269373018
 20
3.761808559706344
 30
0.0
 11
7.468955269373018
 21
3.731808559706344
 31
0.0
  0
LINE
  5
271
330
1F
100
AcDbEntity
  8
Object
100
AcDbLine
 10
7.468955269373018
 20
3.731808559706344
 30
0.0
 11
7.468955269373018
 21
3.703808559706344
 31
0.0
  0
LINE
  5
272
330
1F
100
AcDbEntity
  8
Object
100
AcDbLine
 10
7.468955269373018
 20
3.703808559706344
 30
0.0
 11
7.468955269373018
 21
3.680808559706345
 31
0.0
  0
LINE
  5
273
330
1F
100
AcDbEntity
  8
Object
100
AcDbLine
 10
7.468955269373018
 20
3.680808559706345
 30
0.0
 11
7.468955269373018
 21
3.663808559706344
 31
0.0
  0
LINE
  5
274
330
1F
100
AcDbEntity
  8
Object
100
AcDbLine
 10
7.468955269373018
 20
3.663808559706344
 30
0.0
 11
7.468955269373018
 21
3.652808559706344
 31
0.0
  0
LINE
  5
275
102
{ACAD_REACTORS
330
650
102
}
330
1F
100
AcDbEntity
  8
Object
100
AcDbLine
 10
7.468955269373018
 20
3.652808559706344
 30
0.0
 11
7.468955269373018
 21
3.649808559706344
 31
0.0
  0
LINE
  5
276
330
1F
100
AcDbEntity
  8
Object
100
AcDbLine
 10
7.480955269373017
 20
4.727808559706344
 30
0.0
 11
7.493955269373017
 21
4.735808559706344
 31
0.0
  0
LINE
  5
277
330
1F
100
AcDbEntity
  8
Object
100
AcDbLine
 10
7.493955269373017
 20
4.735808559706344
 30
0.0
 11
7.508955269373018
 21
4.739808559706345
 31
0.0
  0
LINE
  5
278
330
1F
100
AcDbEntity
  8
Object
100
AcDbLine
 10
8.493955269373017
 20
4.739808559706345
 30
0.0
 11
8.509955269373019
 21
4.735808559706344
 31
0.0
  0
LINE
  5
279
330
1F
100
AcDbEntity
  8
Object
100
AcDbLine
 10
8.509955269373019
 20
4.735808559706344
 30
0.0
 11
8.522955269373017
 21
4.727808559706344
 31
0.0
  0
LINE
  5
27A
330
1F
100
AcDbEntity
  8
Object
100
AcDbLine
 10
7.480955269373017
 20
4.727808559706344
 30
0.0
 11
7.471955269373017
 21
4.714808559706344
 31
0.0
  0
LINE
  5
27B
330
1F
100
AcDbEntity
  8
Object
100
AcDbLine
 10
8.530955269373018
 20
4.714808559706344
 30
0.0
 11
8.522955269373017
 21
4.727808559706344
 31
0.0
  0
LINE
  5
27C
330
1F
100
AcDbEntity
  8
Object
100
AcDbLine
 10
7.471955269373017
 20
4.714808559706344
 30
0.0
 11
7.468955269373018
 21
4.699808559706344
 31
0.0
  0
LINE
  5
27D
330
1F
100
AcDbEntity
  8
Object
100
AcDbLine
 10
8.533955269373018
 20
4.699808559706344
 30
0.0
 11
8.530955269373018
 21
4.714808559706344
 31
0.0
  0
LINE
  5
27E
330
1F
100
AcDbEntity
  8
Object
100
AcDbLine
 10
7.468955269373018
 20
4.699808559706344
 30
0.0
 11
7.468955269373018
 21
4.604808559706344
 31
0.0
  0
LINE
  5
27F
330
1F
100
AcDbEntity
  8
Object
100
AcDbLine
 10
7.471955269373017
 20
4.588808559706344
 30
0.0
 11
7.480955269373017
 21
4.575808559706344
 31
0.0
  0
LINE
  5
280
330
1F
100
AcDbEntity
  8
Object
100
AcDbLine
 10
7.508955269373018
 20
4.564808559706344
 30
0.0
 11
7.493955269373017
 21
4.567808559706344
 31
0.0
  0
LINE
  5
281
330
1F
100
AcDbEntity
  8
Object
100
AcDbLine
 10
7.493955269373017
 20
4.567808559706344
 30
0.0
 11
7.480955269373017
 21
4.575808559706344
 31
0.0
  0
LINE
  5
282
330
1F
100
AcDbEntity
  8
Object
100
AcDbLine
 10
7.468955269373018
 20
4.604808559706344
 30
0.0
 11
7.471955269373017
 21
4.588808559706344
 31
0.0
  0
LINE
  5
283
330
1F
100
AcDbEntity
  8
Object
100
AcDbLine
 10
7.508955269373018
 20
4.564808559706344
 30
0.0
 11
7.748955269373018
 21
4.564808559706344
 31
0.0
  0
LINE
  5
284
330
1F
100
AcDbEntity
  8
Object
100
AcDbLine
 10
8.493955269373017
 20
4.739808559706345
 30
0.0
 11
7.508955269373018
 21
4.739808559706345
 31
0.0
  0
LINE
  5
285
330
1F
100
AcDbEntity
  8
Object
100
AcDbLine
 10
8.533955269373018
 20
4.554808559706344
 30
0.0
 11
8.533955269373018
 21
4.699808559706344
 31
0.0
  0
LINE
  5
286
330
1F
100
AcDbEntity
  8
Object
100
AcDbLine
 10
8.593955269373019
 20
4.554808559706344
 30
0.0
 11
8.593955269373019
 21
4.614808559706345
 31
0.0
  0
LINE
  5
287
330
1F
100
AcDbEntity
  8
Object
100
AcDbLine
 10
8.593955269373019
 20
4.614808559706345
 30
0.0
 11
8.843955269373019
 21
4.614808559706345
 31
0.0
  0
LINE
  5
288
330
1F
100
AcDbEntity
  8
Object
100
AcDbLine
 10
7.748955269373018
 20
4.564808559706344
 30
0.0
 11
7.748955269373018
 21
4.409808559706345
 31
0.0
  0
LINE
  5
289
330
1F
100
AcDbEntity
  8
Object
100
AcDbLine
 10
7.480955269373017
 20
4.397808559706344
 30
0.0
 11
7.493955269373017
 21
4.406808559706345
 31
0.0
  0
LINE
  5
28A
330
1F
100
AcDbEntity
  8
Object
100
AcDbLine
 10
7.493955269373017
 20
4.406808559706345
 30
0.0
 11
7.508955269373018
 21
4.409808559706345
 31
0.0
  0
LINE
  5
28B
330
1F
100
AcDbEntity
  8
Object
100
AcDbLine
 10
7.480955269373017
 20
4.397808559706344
 30
0.0
 11
7.471955269373017
 21
4.384808559706344
 31
0.0
  0
LINE
  5
28C
330
1F
100
AcDbEntity
  8
Object
100
AcDbLine
 10
7.471955269373017
 20
4.384808559706344
 30
0.0
 11
7.468955269373018
 21
4.369808559706344
 31
0.0
  0
LINE
  5
28D
330
1F
100
AcDbEntity
  8
Object
100
AcDbLine
 10
7.748955269373018
 20
4.409808559706345
 30
0.0
 11
7.508955269373018
 21
4.409808559706345
 31
0.0
  0
LINE
  5
28E
330
1F
100
AcDbEntity
  8
Object
100
AcDbLine
 10
7.468955269373018
 20
4.369808559706344
 30
0.0
 11
7.468955269373018
 21
3.794808559706344
 31
0.0
  0
LINE
  5
28F
330
1F
100
AcDbEntity
  8
Object
100
AcDbLine
 10
8.593955269373019
 20
4.554808559706344
 30
0.0
 11
8.533955269373018
 21
4.554808559706344
 31
0.0
  0
LINE
  5
290
330
1F
100
AcDbEntity
  8
Object
100
AcDbLine
 10
8.843955269373019
 20
3.794808559706344
 30
0.0
 11
8.843955269373019
 21
4.614808559706345
 31
0.0
  0
LINE
  5
291
330
1F
100
AcDbEntity
  8
Object
100
AcDbLine
 10
8.843955269373019
 20
4.614808559706345
 30
0.0
 11
8.843955269373019
 21
3.794808559706344
 31
0.0
  0
LINE
  5
292
330
1F
100
AcDbEntity
  8
Object
100
AcDbLine
 10
7.468955269373018
 20
4.369808559706344
 30
0.0
 11
7.468955269373018
 21
3.794808559706344
 31
0.0
  0
LINE
  5
293
330
1F
100
AcDbEntity
  8
Object
100
AcDbLine
 10
7.748955269373018
 20
4.409808559706345
 30
0.0
 11
7.508955269373018
 21
4.409808559706345
 31
0.0
  0
LINE
  5
294
330
1F
100
AcDbEntity
  8
Object
100
AcDbLine
 10
8.593955269373019
 20
4.554808559706344
 30
0.0
 11
8.533955269373018
 21
4.554808559706344
 31
0.0
  0
LINE
  5
295
330
1F
100
AcDbEntity
  8
Object
100
AcDbLine
 10
7.748955269373018
 20
4.564808559706344
 30
0.0
 11
7.748955269373018
 21
4.409808559706345
 31
0.0
  0
LINE
  5
296
330
1F
100
AcDbEntity
  8
Object
100
AcDbLine
 10
8.493955269373017
 20
4.739808559706345
 30
0.0
 11
8.509955269373019
 21
4.735808559706344
 31
0.0
  0
LINE
  5
297
330
1F
100
AcDbEntity
  8
Object
100
AcDbLine
 10
8.509955269373019
 20
4.735808559706344
 30
0.0
 11
8.522955269373017
 21
4.727808559706344
 31
0.0
  0
LINE
  5
298
330
1F
100
AcDbEntity
  8
Object
100
AcDbLine
 10
8.522955269373017
 20
4.727808559706344
 30
0.0
 11
8.530955269373018
 21
4.714808559706344
 31
0.0
  0
LINE
  5
299
330
1F
100
AcDbEntity
  8
Object
100
AcDbLine
 10
8.530955269373018
 20
4.714808559706344
 30
0.0
 11
8.533955269373018
 21
4.699808559706344
 31
0.0
  0
LINE
  5
29A
330
1F
100
AcDbEntity
  8
Object
100
AcDbLine
 10
7.508955269373018
 20
4.564808559706344
 30
0.0
 11
7.748955269373018
 21
4.564808559706344
 31
0.0
  0
LINE
  5
29B
330
1F
100
AcDbEntity
  8
Object
100
AcDbLine
 10
8.493955269373017
 20
4.739808559706345
 30
0.0
 11
7.508955269373018
 21
4.739808559706345
 31
0.0
  0
LINE
  5
29C
330
1F
100
AcDbEntity
  8
Object
100
AcDbLine
 10
7.508955269373018
 20
4.739808559706345
 30
0.0
 11
7.493955269373017
 21
4.735808559706344
 31
0.0
  0
LINE
  5
29D
330
1F
100
AcDbEntity
  8
Object
100
AcDbLine
 10
7.493955269373017
 20
4.735808559706344
 30
0.0
 11
7.480955269373017
 21
4.727808559706344
 31
0.0
  0
LINE
  5
29E
330
1F
100
AcDbEntity
  8
Object
100
AcDbLine
 10
7.480955269373017
 20
4.727808559706344
 30
0.0
 11
7.471955269373017
 21
4.714808559706344
 31
0.0
  0
LINE
  5
29F
330
1F
100
AcDbEntity
  8
Object
100
AcDbLine
 10
7.471955269373017
 20
4.714808559706344
 30
0.0
 11
7.468955269373018
 21
4.699808559706344
 31
0.0
  0
LINE
  5
2A0
330
1F
100
AcDbEntity
  8
Object
100
AcDbLine
 10
7.468955269373018
 20
4.699808559706344
 30
0.0
 11
7.468955269373018
 21
4.604808559706344
 31
0.0
  0
LINE
  5
2A1
330
1F
100
AcDbEntity
  8
Object
100
AcDbLine
 10
8.593955269373019
 20
4.654808559706344
 30
0.0
 11
8.593955269373019
 21
4.650808559706344
 31
0.0
  0
LINE
  5
2A2
330
1F
100
AcDbEntity
  8
Object
100
AcDbLine
 10
8.843955269373019
 20
4.650808559706344
 30
0.0
 11
8.843955269373019
 21
4.654808559706344
 31
0.0
  0
LINE
  5
2A3
330
1F
100
AcDbEntity
  8
Object
100
AcDbLine
 10
8.593955269373019
 20
4.650808559706344
 30
0.0
 11
8.593955269373019
 21
4.642808559706344
 31
0.0
  0
LINE
  5
2A4
330
1F
100
AcDbEntity
  8
Object
100
AcDbLine
 10
8.843955269373019
 20
4.650808559706344
 30
0.0
 11
8.843955269373019
 21
4.642808559706344
 31
0.0
  0
LINE
  5
2A5
330
1F
100
AcDbEntity
  8
Object
100
AcDbLine
 10
8.843955269373019
 20
4.642808559706344
 30
0.0
 11
8.843955269373019
 21
4.629808559706344
 31
0.0
  0
LINE
  5
2A6
330
1F
100
AcDbEntity
  8
Object
100
AcDbLine
 10
8.593955269373019
 20
4.642808559706344
 30
0.0
 11
8.593955269373019
 21
4.629808559706344
 31
0.0
  0
LINE
  5
2A7
330
1F
100
AcDbEntity
  8
Object
100
AcDbLine
 10
8.593955269373019
 20
4.629808559706344
 30
0.0
 11
8.593955269373019
 21
4.614808559706345
 31
0.0
  0
LINE
  5
2A8
330
1F
100
AcDbEntity
  8
Object
100
AcDbLine
 10
8.843955269373019
 20
4.614808559706345
 30
0.0
 11
8.843955269373019
 21
4.629808559706344
 31
0.0
  0
LINE
  5
2A9
330
1F
100
AcDbEntity
  8
Object
100
AcDbLine
 10
8.593955269373019
 20
4.614808559706345
 30
0.0
 11
8.593955269373019
 21
4.554808559706344
 31
0.0
  0
LINE
  5
2AA
330
1F
100
AcDbEntity
  8
Object
100
AcDbLine
 10
7.508955269373018
 20
4.409808559706345
 30
0.0
 11
7.493955269373017
 21
4.406808559706345
 31
0.0
  0
LINE
  5
2AB
330
1F
100
AcDbEntity
  8
Object
100
AcDbLine
 10
7.493955269373017
 20
4.406808559706345
 30
0.0
 11
7.480955269373017
 21
4.397808559706344
 31
0.0
  0
LINE
  5
2AC
330
1F
100
AcDbEntity
  8
Object
100
AcDbLine
 10
7.480955269373017
 20
4.397808559706344
 30
0.0
 11
7.471955269373017
 21
4.384808559706344
 31
0.0
  0
LINE
  5
2AD
330
1F
100
AcDbEntity
  8
Object
100
AcDbLine
 10
7.471955269373017
 20
4.384808559706344
 30
0.0
 11
7.468955269373018
 21
4.369808559706344
 31
0.0
  0
LINE
  5
2AE
330
1F
100
AcDbEntity
  8
Object
100
AcDbLine
 10
7.468955269373018
 20
4.604808559706344
 30
0.0
 11
7.471955269373017
 21
4.588808559706344
 31
0.0
  0
LINE
  5
2AF
330
1F
100
AcDbEntity
  8
Object
100
AcDbLine
 10
7.471955269373017
 20
4.588808559706344
 30
0.0
 11
7.480955269373017
 21
4.575808559706344
 31
0.0
  0
LINE
  5
2B0
330
1F
100
AcDbEntity
  8
Object
100
AcDbLine
 10
7.480955269373017
 20
4.575808559706344
 30
0.0
 11
7.493955269373017
 21
4.567808559706344
 31
0.0
  0
LINE
  5
2B1
330
1F
100
AcDbEntity
  8
Object
100
AcDbLine
 10
7.493955269373017
 20
4.567808559706344
 30
0.0
 11
7.508955269373018
 21
4.564808559706344
 31
0.0
  0
LINE
  5
2B2
330
1F
100
AcDbEntity
  8
Object
100
AcDbLine
 10
8.533955269373018
 20
4.554808559706344
 30
0.0
 11
8.533955269373018
 21
4.699808559706344
 31
0.0
  0
LINE
  5
2B3
330
1F
100
AcDbEntity
  8
Object
100
AcDbLine
 10
8.843955269373019
 20
4.654808559706344
 30
0.0
 11
8.843955269373019
 21
4.650808559706344
 31
0.0
  0
LINE
  5
2B4
330
1F
100
AcDbEntity
  8
Object
100
AcDbLine
 10
8.843955269373019
 20
4.650808559706344
 30
0.0
 11
8.843955269373019
 21
4.642808559706344
 31
0.0
  0
LINE
  5
2B5
330
1F
100
AcDbEntity
  8
Object
100
AcDbLine
 10
8.843955269373019
 20
4.642808559706344
 30
0.0
 11
8.843955269373019
 21
4.629808559706344
 31
0.0
  0
LINE
  5
2B6
330
1F
100
AcDbEntity
  8
Object
100
AcDbLine
 10
8.843955269373019
 20
4.629808559706344
 30
0.0
 11
8.843955269373019
 21
4.614808559706345
 31
0.0
  0
LINE
  5
2B7
330
1F
100
AcDbEntity
  8
Object
100
AcDbLine
 10
8.593955269373019
 20
4.654808559706344
 30
0.0
 11
8.593955269373019
 21
4.650808559706344
 31
0.0
  0
LINE
  5
2B8
330
1F
100
AcDbEntity
  8
Object
100
AcDbLine
 10
8.593955269373019
 20
4.650808559706344
 30
0.0
 11
8.593955269373019
 21
4.642808559706344
 31
0.0
  0
LINE
  5
2B9
330
1F
100
AcDbEntity
  8
Object
100
AcDbLine
 10
8.593955269373019
 20
4.642808559706344
 30
0.0
 11
8.593955269373019
 21
4.629808559706344
 31
0.0
  0
LINE
  5
2BA
330
1F
100
AcDbEntity
  8
Object
100
AcDbLine
 10
8.593955269373019
 20
4.629808559706344
 30
0.0
 11
8.593955269373019
 21
4.614808559706345
 31
0.0
  0
LINE
  5
2BB
330
1F
100
AcDbEntity
  8
Object
100
AcDbLine
 10
8.593955269373019
 20
4.654808559706344
 30
0.0
 11
8.843955269373019
 21
4.654808559706344
 31
0.0
  0
LINE
  5
2BC
330
1F
100
AcDbEntity
  8
Object
100
AcDbLine
 10
8.593955269373019
 20
4.766808559706344
 30
0.0
 11
8.593955269373019
 21
4.799808559706344
 31
0.0
  0
LINE
  5
2BD
330
1F
100
AcDbEntity
  8
Object
100
AcDbLine
 10
8.593955269373019
 20
4.799808559706344
 30
0.0
 11
8.843955269373019
 21
4.799808559706344
 31
0.0
  0
LINE
  5
2BE
330
1F
100
AcDbEntity
  8
Object
100
AcDbLine
 10
8.843955269373019
 20
4.799808559706344
 30
0.0
 11
8.843955269373019
 21
4.766808559706344
 31
0.0
  0
LINE
  5
2BF
330
1F
100
AcDbEntity
  8
Object
100
AcDbLine
 10
8.843955269373019
 20
4.766808559706344
 30
0.0
 11
8.843955269373019
 21
4.736808559706345
 31
0.0
  0
LINE
  5
2C0
330
1F
100
AcDbEntity
  8
Object
100
AcDbLine
 10
8.593955269373019
 20
4.766808559706344
 30
0.0
 11
8.593955269373019
 21
4.736808559706345
 31
0.0
  0
LINE
  5
2C1
330
1F
100
AcDbEntity
  8
Object
100
AcDbLine
 10
8.593955269373019
 20
4.736808559706345
 30
0.0
 11
8.593955269373019
 21
4.708808559706344
 31
0.0
  0
LINE
  5
2C2
330
1F
100
AcDbEntity
  8
Object
100
AcDbLine
 10
8.843955269373019
 20
4.736808559706345
 30
0.0
 11
8.843955269373019
 21
4.708808559706344
 31
0.0
  0
LINE
  5
2C3
330
1F
100
AcDbEntity
  8
Object
100
AcDbLine
 10
8.843955269373019
 20
4.708808559706344
 30
0.0
 11
8.843955269373019
 21
4.685808559706345
 31
0.0
  0
LINE
  5
2C4
330
1F
100
AcDbEntity
  8
Object
100
AcDbLine
 10
8.593955269373019
 20
4.708808559706344
 30
0.0
 11
8.593955269373019
 21
4.685808559706345
 31
0.0
  0
LINE
  5
2C5
330
1F
100
AcDbEntity
  8
Object
100
AcDbLine
 10
8.593955269373019
 20
4.685808559706345
 30
0.0
 11
8.593955269373019
 21
4.668808559706344
 31
0.0
  0
LINE
  5
2C6
330
1F
100
AcDbEntity
  8
Object
100
AcDbLine
 10
8.843955269373019
 20
4.685808559706345
 30
0.0
 11
8.843955269373019
 21
4.668808559706344
 31
0.0
  0
LINE
  5
2C7
330
1F
100
AcDbEntity
  8
Object
100
AcDbLine
 10
8.843955269373019
 20
4.668808559706344
 30
0.0
 11
8.843955269373019
 21
4.657808559706344
 31
0.0
  0
LINE
  5
2C8
330
1F
100
AcDbEntity
  8
Object
100
AcDbLine
 10
8.593955269373019
 20
4.668808559706344
 30
0.0
 11
8.593955269373019
 21
4.657808559706344
 31
0.0
  0
LINE
  5
2C9
330
1F
100
AcDbEntity
  8
Object
100
AcDbLine
 10
8.593955269373019
 20
4.657808559706344
 30
0.0
 11
8.593955269373019
 21
4.654808559706344
 31
0.0
  0
LINE
  5
2CA
330
1F
100
AcDbEntity
  8
Object
100
AcDbLine
 10
8.843955269373019
 20
4.657808559706344
 30
0.0
 11
8.843955269373019
 21
4.654808559706344
 31
0.0
  0
LINE
  5
2CB
330
1F
100
AcDbEntity
  8
Object
100
AcDbLine
 10
8.843955269373019
 20
4.654808559706344
 30
0.0
 11
8.593955269373019
 21
4.654808559706344
 31
0.0
  0
LINE
  5
2CC
330
1F
100
AcDbEntity
  8
Object
100
AcDbLine
 10
8.843955269373019
 20
4.799808559706344
 30
0.0
 11
8.843955269373019
 21
4.766808559706344
 31
0.0
  0
LINE
  5
2CD
330
1F
100
AcDbEntity
  8
Object
100
AcDbLine
 10
8.843955269373019
 20
4.766808559706344
 30
0.0
 11
8.843955269373019
 21
4.736808559706345
 31
0.0
  0
LINE
  5
2CE
330
1F
100
AcDbEntity
  8
Object
100
AcDbLine
 10
8.843955269373019
 20
4.736808559706345
 30
0.0
 11
8.843955269373019
 21
4.708808559706344
 31
0.0
  0
LINE
  5
2CF
330
1F
100
AcDbEntity
  8
Object
100
AcDbLine
 10
8.843955269373019
 20
4.708808559706344
 30
0.0
 11
8.843955269373019
 21
4.685808559706345
 31
0.0
  0
LINE
  5
2D0
330
1F
100
AcDbEntity
  8
Object
100
AcDbLine
 10
8.843955269373019
 20
4.685808559706345
 30
0.0
 11
8.843955269373019
 21
4.668808559706344
 31
0.0
  0
LINE
  5
2D1
330
1F
100
AcDbEntity
  8
Object
100
AcDbLine
 10
8.843955269373019
 20
4.668808559706344
 30
0.0
 11
8.843955269373019
 21
4.657808559706344
 31
0.0
  0
LINE
  5
2D2
330
1F
100
AcDbEntity
  8
Object
100
AcDbLine
 10
8.843955269373019
 20
4.657808559706344
 30
0.0
 11
8.843955269373019
 21
4.654808559706344
 31
0.0
  0
LINE
  5
2D3
330
1F
100
AcDbEntity
  8
Object
100
AcDbLine
 10
8.593955269373019
 20
4.799808559706344
 30
0.0
 11
8.593955269373019
 21
4.766808559706344
 31
0.0
  0
LINE
  5
2D4
330
1F
100
AcDbEntity
  8
Object
100
AcDbLine
 10
8.593955269373019
 20
4.766808559706344
 30
0.0
 11
8.593955269373019
 21
4.736808559706345
 31
0.0
  0
LINE
  5
2D5
330
1F
100
AcDbEntity
  8
Object
100
AcDbLine
 10
8.593955269373019
 20
4.736808559706345
 30
0.0
 11
8.593955269373019
 21
4.708808559706344
 31
0.0
  0
LINE
  5
2D6
330
1F
100
AcDbEntity
  8
Object
100
AcDbLine
 10
8.593955269373019
 20
4.708808559706344
 30
0.0
 11
8.593955269373019
 21
4.685808559706345
 31
0.0
  0
LINE
  5
2D7
330
1F
100
AcDbEntity
  8
Object
100
AcDbLine
 10
8.593955269373019
 20
4.685808559706345
 30
0.0
 11
8.593955269373019
 21
4.668808559706344
 31
0.0
  0
LINE
  5
2D8
330
1F
100
AcDbEntity
  8
Object
100
AcDbLine
 10
8.593955269373019
 20
4.668808559706344
 30
0.0
 11
8.593955269373019
 21
4.657808559706344
 31
0.0
  0
LINE
  5
2D9
330
1F
100
AcDbEntity
  8
Object
100
AcDbLine
 10
8.593955269373019
 20
4.657808559706344
 30
0.0
 11
8.593955269373019
 21
4.654808559706344
 31
0.0
  0
LINE
  5
2DA
330
1F
100
AcDbEntity
  8
Object
100
AcDbLine
 10
8.593955269373019
 20
4.799808559706344
 30
0.0
 11
8.593955269373019
 21
4.954808559706345
 31
0.0
  0
LINE
  5
2DB
330
1F
100
AcDbEntity
  8
Object
100
AcDbLine
 10
8.593955269373019
 20
4.954808559706345
 30
0.0
 11
8.843955269373019
 21
4.954808559706345
 31
0.0
  0
LINE
  5
2DC
330
1F
100
AcDbEntity
  8
Object
100
AcDbLine
 10
8.843955269373019
 20
4.954808559706345
 30
0.0
 11
8.843955269373019
 21
4.799808559706344
 31
0.0
  0
LINE
  5
2DD
330
1F
100
AcDbEntity
  8
Object
100
AcDbLine
 10
8.843955269373019
 20
4.799808559706344
 30
0.0
 11
8.843955269373019
 21
4.954808559706345
 31
0.0
  0
LINE
  5
2DE
330
1F
100
AcDbEntity
  8
Object
100
AcDbLine
 10
8.593955269373019
 20
4.954808559706345
 30
0.0
 11
8.593955269373019
 21
4.799808559706344
 31
0.0
  0
LINE
  5
2DF
330
1F
100
AcDbEntity
  8
Object
100
AcDbLine
 10
8.593955269373019
 20
5.095808559706345
 30
0.0
 11
8.593955269373019
 21
5.099808559706344
 31
0.0
  0
LINE
  5
2E0
330
1F
100
AcDbEntity
  8
Object
100
AcDbLine
 10
8.593955269373019
 20
5.099808559706344
 30
0.0
 11
8.843955269373019
 21
5.099808559706344
 31
0.0
  0
LINE
  5
2E1
330
1F
100
AcDbEntity
  8
Object
100
AcDbLine
 10
8.843955269373019
 20
5.099808559706344
 30
0.0
 11
8.843955269373019
 21
5.095808559706345
 31
0.0
  0
LINE
  5
2E2
330
1F
100
AcDbEntity
  8
Object
100
AcDbLine
 10
8.843955269373019
 20
5.095808559706345
 30
0.0
 11
8.843955269373019
 21
5.084808559706344
 31
0.0
  0
LINE
  5
2E3
330
1F
100
AcDbEntity
  8
Object
100
AcDbLine
 10
8.593955269373019
 20
5.095808559706345
 30
0.0
 11
8.593955269373019
 21
5.084808559706344
 31
0.0
  0
LINE
  5
2E4
330
1F
100
AcDbEntity
  8
Object
100
AcDbLine
 10
8.593955269373019
 20
5.084808559706344
 30
0.0
 11
8.593955269373019
 21
5.067808559706344
 31
0.0
  0
LINE
  5
2E5
330
1F
100
AcDbEntity
  8
Object
100
AcDbLine
 10
8.843955269373019
 20
5.084808559706344
 30
0.0
 11
8.843955269373019
 21
5.067808559706344
 31
0.0
  0
LINE
  5
2E6
330
1F
100
AcDbEntity
  8
Object
100
AcDbLine
 10
8.843955269373019
 20
5.067808559706344
 30
0.0
 11
8.843955269373019
 21
5.044808559706345
 31
0.0
  0
LINE
  5
2E7
330
1F
100
AcDbEntity
  8
Object
100
AcDbLine
 10
8.593955269373019
 20
5.067808559706344
 30
0.0
 11
8.593955269373019
 21
5.044808559706345
 31
0.0
  0
LINE
  5
2E8
330
1F
100
AcDbEntity
  8
Object
100
AcDbLine
 10
8.593955269373019
 20
5.044808559706345
 30
0.0
 11
8.593955269373019
 21
5.016808559706344
 31
0.0
  0
LINE
  5
2E9
330
1F
100
AcDbEntity
  8
Object
100
AcDbLine
 10
8.843955269373019
 20
5.044808559706345
 30
0.0
 11
8.843955269373019
 21
5.016808559706344
 31
0.0
  0
LINE
  5
2EA
330
1F
100
AcDbEntity
  8
Object
100
AcDbLine
 10
8.843955269373019
 20
5.016808559706344
 30
0.0
 11
8.843955269373019
 21
4.986808559706345
 31
0.0
  0
LINE
  5
2EB
330
1F
100
AcDbEntity
  8
Object
100
AcDbLine
 10
8.593955269373019
 20
5.016808559706344
 30
0.0
 11
8.593955269373019
 21
4.986808559706345
 31
0.0
  0
LINE
  5
2EC
330
1F
100
AcDbEntity
  8
Object
100
AcDbLine
 10
8.593955269373019
 20
4.986808559706345
 30
0.0
 11
8.593955269373019
 21
4.954808559706345
 31
0.0
  0
LINE
  5
2ED
330
1F
100
AcDbEntity
  8
Object
100
AcDbLine
 10
8.843955269373019
 20
4.954808559706345
 30
0.0
 11
8.843955269373019
 21
4.986808559706345
 31
0.0
  0
LINE
  5
2EE
330
1F
100
AcDbEntity
  8
Object
100
AcDbLine
 10
8.843955269373019
 20
5.099808559706344
 30
0.0
 11
8.843955269373019
 21
5.095808559706345
 31
0.0
  0
LINE
  5
2EF
330
1F
100
AcDbEntity
  8
Object
100
AcDbLine
 10
8.843955269373019
 20
5.095808559706345
 30
0.0
 11
8.843955269373019
 21
5.084808559706344
 31
0.0
  0
LINE
  5
2F0
330
1F
100
AcDbEntity
  8
Object
100
AcDbLine
 10
8.843955269373019
 20
5.084808559706344
 30
0.0
 11
8.843955269373019
 21
5.067808559706344
 31
0.0
  0
LINE
  5
2F1
330
1F
100
AcDbEntity
  8
Object
100
AcDbLine
 10
8.843955269373019
 20
5.067808559706344
 30
0.0
 11
8.843955269373019
 21
5.044808559706345
 31
0.0
  0
LINE
  5
2F2
330
1F
100
AcDbEntity
  8
Object
100
AcDbLine
 10
8.843955269373019
 20
5.044808559706345
 30
0.0
 11
8.843955269373019
 21
5.016808559706344
 31
0.0
  0
LINE
  5
2F3
330
1F
100
AcDbEntity
  8
Object
100
AcDbLine
 10
8.843955269373019
 20
5.016808559706344
 30
0.0
 11
8.843955269373019
 21
4.986808559706345
 31
0.0
  0
LINE
  5
2F4
330
1F
100
AcDbEntity
  8
Object
100
AcDbLine
 10
8.843955269373019
 20
4.986808559706345
 30
0.0
 11
8.843955269373019
 21
4.954808559706345
 31
0.0
  0
LINE
  5
2F5
330
1F
100
AcDbEntity
  8
Object
100
AcDbLine
 10
8.593955269373019
 20
5.099808559706344
 30
0.0
 11
8.593955269373019
 21
5.095808559706345
 31
0.0
  0
LINE
  5
2F6
330
1F
100
AcDbEntity
  8
Object
100
AcDbLine
 10
8.593955269373019
 20
5.095808559706345
 30
0.0
 11
8.593955269373019
 21
5.084808559706344
 31
0.0
  0
LINE
  5
2F7
330
1F
100
AcDbEntity
  8
Object
100
AcDbLine
 10
8.593955269373019
 20
5.084808559706344
 30
0.0
 11
8.593955269373019
 21
5.067808559706344
 31
0.0
  0
LINE
  5
2F8
330
1F
100
AcDbEntity
  8
Object
100
AcDbLine
 10
8.593955269373019
 20
5.067808559706344
 30
0.0
 11
8.593955269373019
 21
5.044808559706345
 31
0.0
  0
LINE
  5
2F9
330
1F
100
AcDbEntity
  8
Object
100
AcDbLine
 10
8.593955269373019
 20
5.044808559706345
 30
0.0
 11
8.593955269373019
 21
5.016808559706344
 31
0.0
  0
LINE
  5
2FA
330
1F
100
AcDbEntity
  8
Object
100
AcDbLine
 10
8.593955269373019
 20
5.016808559706344
 30
0.0
 11
8.593955269373019
 21
4.986808559706345
 31
0.0
  0
LINE
  5
2FB
330
1F
100
AcDbEntity
  8
Object
100
AcDbLine
 10
8.593955269373019
 20
4.986808559706345
 30
0.0
 11
8.593955269373019
 21
4.954808559706345
 31
0.0
  0
LINE
  5
2FC
330
1F
100
AcDbEntity
  8
Object
100
AcDbLine
 10
8.843955269373019
 20
5.099808559706344
 30
0.0
 11
8.593955269373019
 21
5.099808559706344
 31
0.0
  0
LINE
  5
2FD
330
1F
100
AcDbEntity
  8
Object
100
AcDbLine
 10
3.786955269373017
 20
3.649808559706344
 30
0.0
 11
2.026955269373017
 21
3.649808559706344
 31
0.0
  0
LINE
  5
2FE
330
1F
100
AcDbEntity
  8
Object
100
AcDbLine
 10
2.026955269373017
 20
3.649808559706344
 30
0.0
 11
2.026955269373017
 21
3.754808559706344
 31
0.0
  0
LINE
  5
2FF
330
1F
100
AcDbEntity
  8
Object
100
AcDbLine
 10
2.026955269373017
 20
3.754808559706344
 30
0.0
 11
3.786955269373017
 21
3.754808559706344
 31
0.0
  0
LINE
  5
300
330
1F
100
AcDbEntity
  8
Object
100
AcDbLine
 10
3.786955269373017
 20
3.754808559706344
 30
0.0
 11
3.786955269373017
 21
3.649808559706344
 31
0.0
  0
LINE
  5
301
330
1F
100
AcDbEntity
  8
Object
100
AcDbLine
 10
3.786955269373017
 20
3.649808559706344
 30
0.0
 11
2.026955269373017
 21
3.649808559706344
 31
0.0
  0
LINE
  5
302
330
1F
100
AcDbEntity
  8
Object
100
AcDbLine
 10
1.881955269373017
 20
3.794808559706345
 30
0.0
 11
1.885955269373017
 21
3.761808559706345
 31
0.0
  0
LINE
  5
303
330
1F
100
AcDbEntity
  8
Object
100
AcDbLine
 10
1.885955269373017
 20
3.761808559706345
 30
0.0
 11
1.896955269373018
 21
3.731808559706345
 31
0.0
  0
LINE
  5
304
330
1F
100
AcDbEntity
  8
Object
100
AcDbLine
 10
1.896955269373018
 20
3.731808559706345
 30
0.0
 11
1.913955269373017
 21
3.703808559706344
 31
0.0
  0
LINE
  5
305
330
1F
100
AcDbEntity
  8
Object
100
AcDbLine
 10
1.913955269373017
 20
3.703808559706344
 30
0.0
 11
1.936955269373017
 21
3.680808559706345
 31
0.0
  0
LINE
  5
306
330
1F
100
AcDbEntity
  8
Object
100
AcDbLine
 10
1.936955269373017
 20
3.680808559706345
 30
0.0
 11
1.963955269373018
 21
3.663808559706344
 31
0.0
  0
LINE
  5
307
330
1F
100
AcDbEntity
  8
Object
100
AcDbLine
 10
1.963955269373018
 20
3.663808559706344
 30
0.0
 11
1.994955269373017
 21
3.652808559706345
 31
0.0
  0
LINE
  5
308
330
1F
100
AcDbEntity
  8
Object
100
AcDbLine
 10
1.994955269373017
 20
3.652808559706345
 30
0.0
 11
2.026955269373017
 21
3.649808559706344
 31
0.0
  0
LINE
  5
309
330
1F
100
AcDbEntity
  8
Object
100
AcDbLine
 10
3.931955269373018
 20
3.794808559706345
 30
0.0
 11
3.928955269373018
 21
3.761808559706345
 31
0.0
  0
LINE
  5
30A
330
1F
100
AcDbEntity
  8
Object
100
AcDbLine
 10
3.928955269373018
 20
3.761808559706345
 30
0.0
 11
3.917955269373018
 21
3.731808559706345
 31
0.0
  0
LINE
  5
30B
330
1F
100
AcDbEntity
  8
Object
100
AcDbLine
 10
3.917955269373018
 20
3.731808559706345
 30
0.0
 11
3.900955269373017
 21
3.703808559706344
 31
0.0
  0
LINE
  5
30C
330
1F
100
AcDbEntity
  8
Object
100
AcDbLine
 10
3.900955269373017
 20
3.703808559706344
 30
0.0
 11
3.877955269373018
 21
3.680808559706345
 31
0.0
  0
LINE
  5
30D
330
1F
100
AcDbEntity
  8
Object
100
AcDbLine
 10
3.877955269373018
 20
3.680808559706345
 30
0.0
 11
3.849955269373017
 21
3.663808559706344
 31
0.0
  0
LINE
  5
30E
330
1F
100
AcDbEntity
  8
Object
100
AcDbLine
 10
3.849955269373017
 20
3.663808559706344
 30
0.0
 11
3.819955269373018
 21
3.652808559706345
 31
0.0
  0
LINE
  5
30F
330
1F
100
AcDbEntity
  8
Object
100
AcDbLine
 10
3.819955269373018
 20
3.652808559706345
 30
0.0
 11
3.786955269373017
 21
3.649808559706344
 31
0.0
  0
LINE
  5
310
330
1F
100
AcDbEntity
  8
Object
100
AcDbLine
 10
3.786955269373017
 20
3.754808559706344
 30
0.0
 11
2.026955269373017
 21
3.754808559706344
 31
0.0
  0
LINE
  5
311
330
1F
100
AcDbEntity
  8
Object
100
AcDbLine
 10
1.885955269373017
 20
3.761808559706345
 30
0.0
 11
1.881955269373017
 21
3.794808559706345
 31
0.0
  0
LINE
  5
312
330
1F
100
AcDbEntity
  8
Object
100
AcDbLine
 10
1.881955269373017
 20
3.794808559706345
 30
0.0
 11
1.986955269373018
 21
3.794808559706345
 31
0.0
  0
LINE
  5
313
330
1F
100
AcDbEntity
  8
Object
100
AcDbLine
 10
1.986955269373018
 20
3.794808559706345
 30
0.0
 11
1.989955269373018
 21
3.778808559706344
 31
0.0
  0
LINE
  5
314
330
1F
100
AcDbEntity
  8
Object
100
AcDbLine
 10
1.885955269373017
 20
3.761808559706345
 30
0.0
 11
1.896955269373018
 21
3.731808559706345
 31
0.0
  0
LINE
  5
315
330
1F
100
AcDbEntity
  8
Object
100
AcDbLine
 10
1.998955269373018
 20
3.765808559706345
 30
0.0
 11
1.989955269373018
 21
3.778808559706344
 31
0.0
  0
LINE
  5
316
330
1F
100
AcDbEntity
  8
Object
100
AcDbLine
 10
1.896955269373018
 20
3.731808559706345
 30
0.0
 11
1.913955269373017
 21
3.703808559706344
 31
0.0
  0
LINE
  5
317
330
1F
100
AcDbEntity
  8
Object
100
AcDbLine
 10
1.913955269373017
 20
3.703808559706344
 30
0.0
 11
1.936955269373017
 21
3.680808559706345
 31
0.0
  0
LINE
  5
318
330
1F
100
AcDbEntity
  8
Object
100
AcDbLine
 10
2.011955269373018
 20
3.757808559706345
 30
0.0
 11
1.998955269373018
 21
3.765808559706345
 31
0.0
  0
LINE
  5
319
330
1F
100
AcDbEntity
  8
Object
100
AcDbLine
 10
1.936955269373017
 20
3.680808559706345
 30
0.0
 11
1.963955269373018
 21
3.663808559706344
 31
0.0
  0
LINE
  5
31A
330
1F
100
AcDbEntity
  8
Object
100
AcDbLine
 10
1.963955269373018
 20
3.663808559706344
 30
0.0
 11
1.994955269373017
 21
3.652808559706345
 31
0.0
  0
LINE
  5
31B
330
1F
100
AcDbEntity
  8
Object
100
AcDbLine
 10
2.026955269373017
 20
3.754808559706344
 30
0.0
 11
2.011955269373018
 21
3.757808559706345
 31
0.0
  0
LINE
  5
31C
330
1F
100
AcDbEntity
  8
Object
100
AcDbLine
 10
1.994955269373017
 20
3.652808559706345
 30
0.0
 11
2.026955269373017
 21
3.649808559706344
 31
0.0
  0
LINE
  5
31D
330
1F
100
AcDbEntity
  8
Object
100
AcDbLine
 10
3.823955269373017
 20
3.778808559706344
 30
0.0
 11
3.826955269373017
 21
3.794808559706345
 31
0.0
  0
LINE
  5
31E
330
1F
100
AcDbEntity
  8
Object
100
AcDbLine
 10
3.826955269373017
 20
3.794808559706345
 30
0.0
 11
3.931955269373018
 21
3.794808559706345
 31
0.0
  0
LINE
  5
31F
330
1F
100
AcDbEntity
  8
Object
100
AcDbLine
 10
3.931955269373018
 20
3.794808559706345
 30
0.0
 11
3.928955269373018
 21
3.761808559706345
 31
0.0
  0
LINE
  5
320
330
1F
100
AcDbEntity
  8
Object
100
AcDbLine
 10
3.928955269373018
 20
3.761808559706345
 30
0.0
 11
3.917955269373018
 21
3.731808559706345
 31
0.0
  0
LINE
  5
321
330
1F
100
AcDbEntity
  8
Object
100
AcDbLine
 10
3.917955269373018
 20
3.731808559706345
 30
0.0
 11
3.900955269373017
 21
3.703808559706344
 31
0.0
  0
LINE
  5
322
330
1F
100
AcDbEntity
  8
Object
100
AcDbLine
 10
3.823955269373017
 20
3.778808559706344
 30
0.0
 11
3.815955269373017
 21
3.765808559706345
 31
0.0
  0
LINE
  5
323
330
1F
100
AcDbEntity
  8
Object
100
AcDbLine
 10
3.815955269373017
 20
3.765808559706345
 30
0.0
 11
3.802955269373017
 21
3.757808559706345
 31
0.0
  0
LINE
  5
324
330
1F
100
AcDbEntity
  8
Object
100
AcDbLine
 10
3.900955269373017
 20
3.703808559706344
 30
0.0
 11
3.877955269373018
 21
3.680808559706345
 31
0.0
  0
LINE
  5
325
330
1F
100
AcDbEntity
  8
Object
100
AcDbLine
 10
3.877955269373018
 20
3.680808559706345
 30
0.0
 11
3.849955269373017
 21
3.663808559706344
 31
0.0
  0
LINE
  5
326
330
1F
100
AcDbEntity
  8
Object
100
AcDbLine
 10
3.849955269373017
 20
3.663808559706344
 30
0.0
 11
3.819955269373018
 21
3.652808559706345
 31
0.0
  0
LINE
  5
327
330
1F
100
AcDbEntity
  8
Object
100
AcDbLine
 10
3.802955269373017
 20
3.757808559706345
 30
0.0
 11
3.786955269373017
 21
3.754808559706344
 31
0.0
  0
LINE
  5
328
330
1F
100
AcDbEntity
  8
Object
100
AcDbLine
 10
3.786955269373017
 20
3.649808559706344
 30
0.0
 11
3.819955269373018
 21
3.652808559706345
 31
0.0
  0
LINE
  5
329
330
1F
100
AcDbEntity
  8
Object
100
AcDbLine
 10
1.881955269373017
 20
4.739808559706345
 30
0.0
 11
1.881955269373017
 21
4.735808559706345
 31
0.0
  0
LINE
  5
32A
330
1F
100
AcDbEntity
  8
Object
100
AcDbLine
 10
1.881955269373017
 20
4.735808559706345
 30
0.0
 11
1.881955269373017
 21
4.727808559706344
 31
0.0
  0
LINE
  5
32B
330
1F
100
AcDbEntity
  8
Object
100
AcDbLine
 10
1.881955269373017
 20
4.727808559706344
 30
0.0
 11
1.881955269373017
 21
4.714808559706344
 31
0.0
  0
LINE
  5
32C
330
1F
100
AcDbEntity
  8
Object
100
AcDbLine
 10
1.881955269373017
 20
4.714808559706344
 30
0.0
 11
1.881955269373017
 21
4.699808559706345
 31
0.0
  0
LINE
  5
32D
330
1F
100
AcDbEntity
  8
Object
100
AcDbLine
 10
1.881955269373017
 20
4.699808559706345
 30
0.0
 11
1.881955269373017
 21
4.604808559706345
 31
0.0
  0
LINE
  5
32E
330
1F
100
AcDbEntity
  8
Object
100
AcDbLine
 10
1.881955269373017
 20
4.604808559706345
 30
0.0
 11
1.881955269373017
 21
4.588808559706345
 31
0.0
  0
LINE
  5
32F
330
1F
100
AcDbEntity
  8
Object
100
AcDbLine
 10
1.881955269373017
 20
4.588808559706345
 30
0.0
 11
1.881955269373017
 21
4.575808559706345
 31
0.0
  0
LINE
  5
330
330
1F
100
AcDbEntity
  8
Object
100
AcDbLine
 10
1.881955269373017
 20
4.575808559706345
 30
0.0
 11
1.881955269373017
 21
4.567808559706344
 31
0.0
  0
LINE
  5
331
330
1F
100
AcDbEntity
  8
Object
100
AcDbLine
 10
1.881955269373017
 20
4.567808559706344
 30
0.0
 11
1.881955269373017
 21
4.564808559706344
 31
0.0
  0
LINE
  5
332
330
1F
100
AcDbEntity
  8
Object
100
AcDbLine
 10
1.881955269373017
 20
4.564808559706344
 30
0.0
 11
1.881955269373017
 21
4.409808559706345
 31
0.0
  0
LINE
  5
333
330
1F
100
AcDbEntity
  8
Object
100
AcDbLine
 10
1.881955269373017
 20
4.409808559706345
 30
0.0
 11
1.881955269373017
 21
4.406808559706345
 31
0.0
  0
LINE
  5
334
330
1F
100
AcDbEntity
  8
Object
100
AcDbLine
 10
1.881955269373017
 20
4.406808559706345
 30
0.0
 11
1.881955269373017
 21
4.397808559706344
 31
0.0
  0
LINE
  5
335
330
1F
100
AcDbEntity
  8
Object
100
AcDbLine
 10
1.881955269373017
 20
4.397808559706344
 30
0.0
 11
1.881955269373017
 21
4.384808559706344
 31
0.0
  0
LINE
  5
336
330
1F
100
AcDbEntity
  8
Object
100
AcDbLine
 10
1.881955269373017
 20
4.384808559706344
 30
0.0
 11
1.881955269373017
 21
4.369808559706345
 31
0.0
  0
LINE
  5
337
330
1F
100
AcDbEntity
  8
Object
100
AcDbLine
 10
1.881955269373017
 20
4.369808559706345
 30
0.0
 11
1.881955269373017
 21
3.794808559706345
 31
0.0
  0
LINE
  5
338
330
1F
100
AcDbEntity
  8
Object
100
AcDbLine
 10
3.931955269373018
 20
4.739808559706345
 30
0.0
 11
3.931955269373018
 21
4.735808559706345
 31
0.0
  0
LINE
  5
339
330
1F
100
AcDbEntity
  8
Object
100
AcDbLine
 10
3.931955269373018
 20
4.735808559706345
 30
0.0
 11
3.931955269373018
 21
4.727808559706344
 31
0.0
  0
LINE
  5
33A
330
1F
100
AcDbEntity
  8
Object
100
AcDbLine
 10
3.931955269373018
 20
4.727808559706344
 30
0.0
 11
3.931955269373018
 21
4.714808559706344
 31
0.0
  0
LINE
  5
33B
330
1F
100
AcDbEntity
  8
Object
100
AcDbLine
 10
3.931955269373018
 20
4.714808559706344
 30
0.0
 11
3.931955269373018
 21
4.699808559706345
 31
0.0
  0
LINE
  5
33C
330
1F
100
AcDbEntity
  8
Object
100
AcDbLine
 10
3.931955269373018
 20
4.699808559706345
 30
0.0
 11
3.931955269373018
 21
4.604808559706345
 31
0.0
  0
LINE
  5
33D
330
1F
100
AcDbEntity
  8
Object
100
AcDbLine
 10
3.931955269373018
 20
4.604808559706345
 30
0.0
 11
3.931955269373018
 21
4.588808559706345
 31
0.0
  0
LINE
  5
33E
330
1F
100
AcDbEntity
  8
Object
100
AcDbLine
 10
3.931955269373018
 20
4.588808559706345
 30
0.0
 11
3.931955269373018
 21
4.575808559706345
 31
0.0
  0
LINE
  5
33F
330
1F
100
AcDbEntity
  8
Object
100
AcDbLine
 10
3.931955269373018
 20
4.575808559706345
 30
0.0
 11
3.931955269373018
 21
4.567808559706344
 31
0.0
  0
LINE
  5
340
330
1F
100
AcDbEntity
  8
Object
100
AcDbLine
 10
3.931955269373018
 20
4.567808559706344
 30
0.0
 11
3.931955269373018
 21
4.564808559706344
 31
0.0
  0
LINE
  5
341
330
1F
100
AcDbEntity
  8
Object
100
AcDbLine
 10
3.931955269373018
 20
4.564808559706344
 30
0.0
 11
3.931955269373018
 21
4.409808559706345
 31
0.0
  0
LINE
  5
342
330
1F
100
AcDbEntity
  8
Object
100
AcDbLine
 10
3.931955269373018
 20
4.409808559706345
 30
0.0
 11
3.931955269373018
 21
4.406808559706345
 31
0.0
  0
LINE
  5
343
330
1F
100
AcDbEntity
  8
Object
100
AcDbLine
 10
3.931955269373018
 20
4.406808559706345
 30
0.0
 11
3.931955269373018
 21
4.397808559706344
 31
0.0
  0
LINE
  5
344
330
1F
100
AcDbEntity
  8
Object
100
AcDbLine
 10
3.931955269373018
 20
4.397808559706344
 30
0.0
 11
3.931955269373018
 21
4.384808559706344
 31
0.0
  0
LINE
  5
345
330
1F
100
AcDbEntity
  8
Object
100
AcDbLine
 10
3.931955269373018
 20
4.384808559706344
 30
0.0
 11
3.931955269373018
 21
4.369808559706345
 31
0.0
  0
LINE
  5
346
330
1F
100
AcDbEntity
  8
Object
100
AcDbLine
 10
3.931955269373018
 20
4.369808559706345
 30
0.0
 11
3.931955269373018
 21
3.794808559706345
 31
0.0
  0
LINE
  5
347
330
1F
100
AcDbEntity
  8
Object
100
AcDbLine
 10
3.826955269373017
 20
3.794808559706345
 30
0.0
 11
3.823955269373017
 21
3.778808559706344
 31
0.0
  0
LINE
  5
348
330
1F
100
AcDbEntity
  8
Object
100
AcDbLine
 10
3.823955269373017
 20
3.778808559706344
 30
0.0
 11
3.815955269373017
 21
3.765808559706345
 31
0.0
  0
LINE
  5
349
330
1F
100
AcDbEntity
  8
Object
100
AcDbLine
 10
3.815955269373017
 20
3.765808559706345
 30
0.0
 11
3.802955269373017
 21
3.757808559706345
 31
0.0
  0
LINE
  5
34A
330
1F
100
AcDbEntity
  8
Object
100
AcDbLine
 10
3.802955269373017
 20
3.757808559706345
 30
0.0
 11
3.786955269373017
 21
3.754808559706344
 31
0.0
  0
LINE
  5
34B
330
1F
100
AcDbEntity
  8
Object
100
AcDbLine
 10
1.986955269373018
 20
3.794808559706345
 30
0.0
 11
1.989955269373018
 21
3.778808559706344
 31
0.0
  0
LINE
  5
34C
330
1F
100
AcDbEntity
  8
Object
100
AcDbLine
 10
1.989955269373018
 20
3.778808559706344
 30
0.0
 11
1.998955269373018
 21
3.765808559706345
 31
0.0
  0
LINE
  5
34D
330
1F
100
AcDbEntity
  8
Object
100
AcDbLine
 10
1.998955269373018
 20
3.765808559706345
 30
0.0
 11
2.011955269373018
 21
3.757808559706345
 31
0.0
  0
LINE
  5
34E
330
1F
100
AcDbEntity
  8
Object
100
AcDbLine
 10
2.011955269373018
 20
3.757808559706345
 30
0.0
 11
2.026955269373017
 21
3.754808559706344
 31
0.0
  0
LINE
  5
34F
330
1F
100
AcDbEntity
  8
Object
100
AcDbLine
 10
1.881955269373017
 20
3.794808559706345
 30
0.0
 11
1.881955269373017
 21
4.369808559706345
 31
0.0
  0
LINE
  5
350
330
1F
100
AcDbEntity
  8
Object
100
AcDbLine
 10
1.881955269373017
 20
4.369808559706345
 30
0.0
 11
1.986955269373018
 21
4.369808559706345
 31
0.0
  0
LINE
  5
351
330
1F
100
AcDbEntity
  8
Object
100
AcDbLine
 10
1.986955269373018
 20
4.369808559706345
 30
0.0
 11
1.986955269373018
 21
3.794808559706345
 31
0.0
  0
LINE
  5
352
330
1F
100
AcDbEntity
  8
Object
100
AcDbLine
 10
3.826955269373017
 20
4.369808559706345
 30
0.0
 11
3.931955269373018
 21
4.369808559706345
 31
0.0
  0
LINE
  5
353
330
1F
100
AcDbEntity
  8
Object
100
AcDbLine
 10
3.931955269373018
 20
4.369808559706345
 30
0.0
 11
3.931955269373018
 21
3.794808559706345
 31
0.0
  0
LINE
  5
354
330
1F
100
AcDbEntity
  8
Object
100
AcDbLine
 10
3.826955269373017
 20
4.369808559706345
 30
0.0
 11
3.826955269373017
 21
3.794808559706345
 31
0.0
  0
LINE
  5
355
330
1F
100
AcDbEntity
  8
Object
100
AcDbLine
 10
1.986955269373018
 20
4.739808559706345
 30
0.0
 11
1.881955269373017
 21
4.739808559706345
 31
0.0
  0
LINE
  5
356
330
1F
100
AcDbEntity
  8
Object
100
AcDbLine
 10
1.881955269373017
 20
4.699808559706345
 30
0.0
 11
1.986955269373018
 21
4.699808559706345
 31
0.0
  0
LINE
  5
357
330
1F
100
AcDbEntity
  8
Object
100
AcDbLine
 10
1.986955269373018
 20
4.699808559706345
 30
0.0
 11
1.986955269373018
 21
4.604808559706345
 31
0.0
  0
LINE
  5
358
330
1F
100
AcDbEntity
  8
Object
100
AcDbLine
 10
1.881955269373017
 20
4.699808559706345
 30
0.0
 11
1.881955269373017
 21
4.604808559706345
 31
0.0
  0
LINE
  5
359
330
1F
100
AcDbEntity
  8
Object
100
AcDbLine
 10
1.881955269373017
 20
4.564808559706344
 30
0.0
 11
1.881955269373017
 21
4.409808559706345
 31
0.0
  0
LINE
  5
35A
330
1F
100
AcDbEntity
  8
Object
100
AcDbLine
 10
1.986955269373018
 20
4.409808559706345
 30
0.0
 11
1.986955269373018
 21
4.564808559706344
 31
0.0
  0
LINE
  5
35B
330
1F
100
AcDbEntity
  8
Object
100
AcDbLine
 10
1.881955269373017
 20
4.735808559706345
 30
0.0
 11
1.881955269373017
 21
4.739808559706345
 31
0.0
  0
LINE
  5
35C
330
1F
100
AcDbEntity
  8
Object
100
AcDbLine
 10
1.881955269373017
 20
4.739808559706345
 30
0.0
 11
1.986955269373018
 21
4.739808559706345
 31
0.0
  0
LINE
  5
35D
330
1F
100
AcDbEntity
  8
Object
100
AcDbLine
 10
1.986955269373018
 20
4.739808559706345
 30
0.0
 11
1.986955269373018
 21
4.735808559706345
 31
0.0
  0
LINE
  5
35E
330
1F
100
AcDbEntity
  8
Object
100
AcDbLine
 10
1.881955269373017
 20
4.735808559706345
 30
0.0
 11
1.881955269373017
 21
4.727808559706344
 31
0.0
  0
LINE
  5
35F
330
1F
100
AcDbEntity
  8
Object
100
AcDbLine
 10
1.986955269373018
 20
4.727808559706344
 30
0.0
 11
1.986955269373018
 21
4.735808559706345
 31
0.0
  0
LINE
  5
360
330
1F
100
AcDbEntity
  8
Object
100
AcDbLine
 10
1.881955269373017
 20
4.727808559706344
 30
0.0
 11
1.881955269373017
 21
4.714808559706344
 31
0.0
  0
LINE
  5
361
330
1F
100
AcDbEntity
  8
Object
100
AcDbLine
 10
1.986955269373018
 20
4.727808559706344
 30
0.0
 11
1.986955269373018
 21
4.714808559706344
 31
0.0
  0
LINE
  5
362
330
1F
100
AcDbEntity
  8
Object
100
AcDbLine
 10
1.986955269373018
 20
4.714808559706344
 30
0.0
 11
1.986955269373018
 21
4.699808559706345
 31
0.0
  0
LINE
  5
363
330
1F
100
AcDbEntity
  8
Object
100
AcDbLine
 10
1.881955269373017
 20
4.714808559706344
 30
0.0
 11
1.881955269373017
 21
4.699808559706345
 31
0.0
  0
LINE
  5
364
330
1F
100
AcDbEntity
  8
Object
100
AcDbLine
 10
1.986955269373018
 20
4.409808559706345
 30
0.0
 11
1.881955269373017
 21
4.409808559706345
 31
0.0
  0
LINE
  5
365
330
1F
100
AcDbEntity
  8
Object
100
AcDbLine
 10
1.881955269373017
 20
4.588808559706345
 30
0.0
 11
1.881955269373017
 21
4.604808559706345
 31
0.0
  0
LINE
  5
366
330
1F
100
AcDbEntity
  8
Object
100
AcDbLine
 10
1.881955269373017
 20
4.604808559706345
 30
0.0
 11
1.986955269373018
 21
4.604808559706345
 31
0.0
  0
LINE
  5
367
330
1F
100
AcDbEntity
  8
Object
100
AcDbLine
 10
1.986955269373018
 20
4.604808559706345
 30
0.0
 11
1.986955269373018
 21
4.588808559706345
 31
0.0
  0
LINE
  5
368
330
1F
100
AcDbEntity
  8
Object
100
AcDbLine
 10
1.881955269373017
 20
4.588808559706345
 30
0.0
 11
1.881955269373017
 21
4.575808559706345
 31
0.0
  0
LINE
  5
369
330
1F
100
AcDbEntity
  8
Object
100
AcDbLine
 10
1.986955269373018
 20
4.588808559706345
 30
0.0
 11
1.986955269373018
 21
4.575808559706345
 31
0.0
  0
LINE
  5
36A
330
1F
100
AcDbEntity
  8
Object
100
AcDbLine
 10
1.986955269373018
 20
4.575808559706345
 30
0.0
 11
1.986955269373018
 21
4.567808559706344
 31
0.0
  0
LINE
  5
36B
330
1F
100
AcDbEntity
  8
Object
100
AcDbLine
 10
1.881955269373017
 20
4.575808559706345
 30
0.0
 11
1.881955269373017
 21
4.567808559706344
 31
0.0
  0
LINE
  5
36C
330
1F
100
AcDbEntity
  8
Object
100
AcDbLine
 10
1.986955269373018
 20
4.567808559706344
 30
0.0
 11
1.986955269373018
 21
4.564808559706344
 31
0.0
  0
LINE
  5
36D
330
1F
100
AcDbEntity
  8
Object
100
AcDbLine
 10
1.986955269373018
 20
4.564808559706344
 30
0.0
 11
1.881955269373017
 21
4.564808559706344
 31
0.0
  0
LINE
  5
36E
330
1F
100
AcDbEntity
  8
Object
100
AcDbLine
 10
1.881955269373017
 20
4.564808559706344
 30
0.0
 11
1.881955269373017
 21
4.567808559706344
 31
0.0
  0
LINE
  5
36F
330
1F
100
AcDbEntity
  8
Object
100
AcDbLine
 10
1.881955269373017
 20
4.406808559706345
 30
0.0
 11
1.881955269373017
 21
4.409808559706345
 31
0.0
  0
LINE
  5
370
330
1F
100
AcDbEntity
  8
Object
100
AcDbLine
 10
1.881955269373017
 20
4.409808559706345
 30
0.0
 11
1.986955269373018
 21
4.409808559706345
 31
0.0
  0
LINE
  5
371
330
1F
100
AcDbEntity
  8
Object
100
AcDbLine
 10
1.986955269373018
 20
4.409808559706345
 30
0.0
 11
1.986955269373018
 21
4.406808559706345
 31
0.0
  0
LINE
  5
372
330
1F
100
AcDbEntity
  8
Object
100
AcDbLine
 10
1.881955269373017
 20
4.406808559706345
 30
0.0
 11
1.881955269373017
 21
4.397808559706344
 31
0.0
  0
LINE
  5
373
330
1F
100
AcDbEntity
  8
Object
100
AcDbLine
 10
1.986955269373018
 20
4.406808559706345
 30
0.0
 11
1.986955269373018
 21
4.397808559706344
 31
0.0
  0
LINE
  5
374
330
1F
100
AcDbEntity
  8
Object
100
AcDbLine
 10
1.986955269373018
 20
4.397808559706344
 30
0.0
 11
1.986955269373018
 21
4.384808559706344
 31
0.0
  0
LINE
  5
375
330
1F
100
AcDbEntity
  8
Object
100
AcDbLine
 10
1.881955269373017
 20
4.397808559706344
 30
0.0
 11
1.881955269373017
 21
4.384808559706344
 31
0.0
  0
LINE
  5
376
330
1F
100
AcDbEntity
  8
Object
100
AcDbLine
 10
1.986955269373018
 20
4.369808559706345
 30
0.0
 11
1.986955269373018
 21
4.384808559706344
 31
0.0
  0
LINE
  5
377
330
1F
100
AcDbEntity
  8
Object
100
AcDbLine
 10
1.881955269373017
 20
4.384808559706344
 30
0.0
 11
1.881955269373017
 21
4.369808559706345
 31
0.0
  0
LINE
  5
378
330
1F
100
AcDbEntity
  8
Object
100
AcDbLine
 10
1.841955269373018
 20
4.654808559706344
 30
0.0
 11
1.857955269373018
 21
4.650808559706344
 31
0.0
  0
LINE
  5
379
330
1F
100
AcDbEntity
  8
Object
100
AcDbLine
 10
1.857955269373018
 20
4.650808559706344
 30
0.0
 11
1.870955269373018
 21
4.642808559706345
 31
0.0
  0
LINE
  5
37A
330
1F
100
AcDbEntity
  8
Object
100
AcDbLine
 10
1.870955269373018
 20
4.642808559706345
 30
0.0
 11
1.878955269373017
 21
4.629808559706344
 31
0.0
  0
LINE
  5
37B
330
1F
100
AcDbEntity
  8
Object
100
AcDbLine
 10
1.878955269373017
 20
4.629808559706344
 30
0.0
 11
1.881955269373017
 21
4.614808559706345
 31
0.0
  0
LINE
  5
37C
330
1F
100
AcDbEntity
  8
Object
100
AcDbLine
 10
1.881955269373017
 20
4.564808559706344
 30
0.0
 11
1.986955269373018
 21
4.564808559706344
 31
0.0
  0
LINE
  5
37D
330
1F
100
AcDbEntity
  8
Object
100
AcDbLine
 10
3.826955269373017
 20
4.409808559706345
 30
0.0
 11
3.931955269373018
 21
4.409808559706345
 31
0.0
  0
LINE
  5
37E
330
1F
100
AcDbEntity
  8
Object
100
AcDbLine
 10
3.931955269373018
 20
4.409808559706345
 30
0.0
 11
3.931955269373018
 21
4.564808559706344
 31
0.0
  0
LINE
  5
37F
330
1F
100
AcDbEntity
  8
Object
100
AcDbLine
 10
3.826955269373017
 20
4.409808559706345
 30
0.0
 11
3.826955269373017
 21
4.564808559706344
 31
0.0
  0
LINE
  5
380
330
1F
100
AcDbEntity
  8
Object
100
AcDbLine
 10
3.826955269373017
 20
4.564808559706344
 30
0.0
 11
3.931955269373018
 21
4.564808559706344
 31
0.0
  0
LINE
  5
381
330
1F
100
AcDbEntity
  8
Object
100
AcDbLine
 10
3.931955269373018
 20
4.739808559706345
 30
0.0
 11
3.826955269373017
 21
4.739808559706345
 31
0.0
  0
LINE
  5
382
330
1F
100
AcDbEntity
  8
Object
100
AcDbLine
 10
3.826955269373017
 20
4.739808559706345
 30
0.0
 11
3.826955269373017
 21
4.735808559706345
 31
0.0
  0
LINE
  5
383
330
1F
100
AcDbEntity
  8
Object
100
AcDbLine
 10
3.826955269373017
 20
4.739808559706345
 30
0.0
 11
3.931955269373018
 21
4.739808559706345
 31
0.0
  0
LINE
  5
384
330
1F
100
AcDbEntity
  8
Object
100
AcDbLine
 10
3.931955269373018
 20
4.739808559706345
 30
0.0
 11
3.931955269373018
 21
4.735808559706345
 31
0.0
  0
LINE
  5
385
330
1F
100
AcDbEntity
  8
Object
100
AcDbLine
 10
3.826955269373017
 20
4.735808559706345
 30
0.0
 11
3.826955269373017
 21
4.727808559706344
 31
0.0
  0
LINE
  5
386
330
1F
100
AcDbEntity
  8
Object
100
AcDbLine
 10
3.931955269373018
 20
4.735808559706345
 30
0.0
 11
3.931955269373018
 21
4.727808559706344
 31
0.0
  0
LINE
  5
387
330
1F
100
AcDbEntity
  8
Object
100
AcDbLine
 10
3.931955269373018
 20
4.727808559706344
 30
0.0
 11
3.931955269373018
 21
4.714808559706344
 31
0.0
  0
LINE
  5
388
330
1F
100
AcDbEntity
  8
Object
100
AcDbLine
 10
3.826955269373017
 20
4.727808559706344
 30
0.0
 11
3.826955269373017
 21
4.714808559706344
 31
0.0
  0
LINE
  5
389
330
1F
100
AcDbEntity
  8
Object
100
AcDbLine
 10
3.826955269373017
 20
4.714808559706344
 30
0.0
 11
3.826955269373017
 21
4.699808559706345
 31
0.0
  0
LINE
  5
38A
330
1F
100
AcDbEntity
  8
Object
100
AcDbLine
 10
3.931955269373018
 20
4.699808559706345
 30
0.0
 11
3.931955269373018
 21
4.714808559706344
 31
0.0
  0
LINE
  5
38B
330
1F
100
AcDbEntity
  8
Object
100
AcDbLine
 10
3.826955269373017
 20
4.604808559706345
 30
0.0
 11
3.826955269373017
 21
4.699808559706345
 31
0.0
  0
LINE
  5
38C
330
1F
100
AcDbEntity
  8
Object
100
AcDbLine
 10
3.826955269373017
 20
4.699808559706345
 30
0.0
 11
3.931955269373018
 21
4.699808559706345
 31
0.0
  0
LINE
  5
38D
330
1F
100
AcDbEntity
  8
Object
100
AcDbLine
 10
3.931955269373018
 20
4.699808559706345
 30
0.0
 11
3.931955269373018
 21
4.604808559706345
 31
0.0
  0
LINE
  5
38E
330
1F
100
AcDbEntity
  8
Object
100
AcDbLine
 10
3.971955269373018
 20
4.654808559706344
 30
0.0
 11
3.956955269373017
 21
4.650808559706344
 31
0.0
  0
LINE
  5
38F
330
1F
100
AcDbEntity
  8
Object
100
AcDbLine
 10
3.956955269373017
 20
4.650808559706344
 30
0.0
 11
3.943955269373017
 21
4.642808559706345
 31
0.0
  0
LINE
  5
390
330
1F
100
AcDbEntity
  8
Object
100
AcDbLine
 10
3.943955269373017
 20
4.642808559706345
 30
0.0
 11
3.934955269373017
 21
4.629808559706344
 31
0.0
  0
LINE
  5
391
330
1F
100
AcDbEntity
  8
Object
100
AcDbLine
 10
3.934955269373017
 20
4.629808559706344
 30
0.0
 11
3.931955269373018
 21
4.614808559706345
 31
0.0
  0
LINE
  5
392
330
1F
100
AcDbEntity
  8
Object
100
AcDbLine
 10
3.931955269373018
 20
4.406808559706345
 30
0.0
 11
3.931955269373018
 21
4.409808559706345
 31
0.0
  0
LINE
  5
393
330
1F
100
AcDbEntity
  8
Object
100
AcDbLine
 10
3.826955269373017
 20
4.406808559706345
 30
0.0
 11
3.826955269373017
 21
4.409808559706345
 31
0.0
  0
LINE
  5
394
330
1F
100
AcDbEntity
  8
Object
100
AcDbLine
 10
3.826955269373017
 20
4.409808559706345
 30
0.0
 11
3.931955269373018
 21
4.409808559706345
 31
0.0
  0
LINE
  5
395
330
1F
100
AcDbEntity
  8
Object
100
AcDbLine
 10
3.826955269373017
 20
4.406808559706345
 30
0.0
 11
3.826955269373017
 21
4.397808559706344
 31
0.0
  0
LINE
  5
396
330
1F
100
AcDbEntity
  8
Object
100
AcDbLine
 10
3.931955269373018
 20
4.406808559706345
 30
0.0
 11
3.931955269373018
 21
4.397808559706344
 31
0.0
  0
LINE
  5
397
330
1F
100
AcDbEntity
  8
Object
100
AcDbLine
 10
3.931955269373018
 20
4.397808559706344
 30
0.0
 11
3.931955269373018
 21
4.384808559706344
 31
0.0
  0
LINE
  5
398
330
1F
100
AcDbEntity
  8
Object
100
AcDbLine
 10
3.826955269373017
 20
4.397808559706344
 30
0.0
 11
3.826955269373017
 21
4.384808559706344
 31
0.0
  0
LINE
  5
399
330
1F
100
AcDbEntity
  8
Object
100
AcDbLine
 10
3.826955269373017
 20
4.384808559706344
 30
0.0
 11
3.826955269373017
 21
4.369808559706345
 31
0.0
  0
LINE
  5
39A
330
1F
100
AcDbEntity
  8
Object
100
AcDbLine
 10
3.931955269373018
 20
4.369808559706345
 30
0.0
 11
3.931955269373018
 21
4.384808559706344
 31
0.0
  0
LINE
  5
39B
330
1F
100
AcDbEntity
  8
Object
100
AcDbLine
 10
3.931955269373018
 20
4.588808559706345
 30
0.0
 11
3.931955269373018
 21
4.604808559706345
 31
0.0
  0
LINE
  5
39C
330
1F
100
AcDbEntity
  8
Object
100
AcDbLine
 10
3.826955269373017
 20
4.588808559706345
 30
0.0
 11
3.826955269373017
 21
4.604808559706345
 31
0.0
  0
LINE
  5
39D
330
1F
100
AcDbEntity
  8
Object
100
AcDbLine
 10
3.826955269373017
 20
4.604808559706345
 30
0.0
 11
3.931955269373018
 21
4.604808559706345
 31
0.0
  0
LINE
  5
39E
330
1F
100
AcDbEntity
  8
Object
100
AcDbLine
 10
3.826955269373017
 20
4.588808559706345
 30
0.0
 11
3.826955269373017
 21
4.575808559706345
 31
0.0
  0
LINE
  5
39F
330
1F
100
AcDbEntity
  8
Object
100
AcDbLine
 10
3.931955269373018
 20
4.588808559706345
 30
0.0
 11
3.931955269373018
 21
4.575808559706345
 31
0.0
  0
LINE
  5
3A0
330
1F
100
AcDbEntity
  8
Object
100
AcDbLine
 10
3.931955269373018
 20
4.575808559706345
 30
0.0
 11
3.931955269373018
 21
4.567808559706344
 31
0.0
  0
LINE
  5
3A1
330
1F
100
AcDbEntity
  8
Object
100
AcDbLine
 10
3.826955269373017
 20
4.575808559706345
 30
0.0
 11
3.826955269373017
 21
4.567808559706344
 31
0.0
  0
LINE
  5
3A2
330
1F
100
AcDbEntity
  8
Object
100
AcDbLine
 10
3.931955269373018
 20
4.567808559706344
 30
0.0
 11
3.931955269373018
 21
4.564808559706344
 31
0.0
  0
LINE
  5
3A3
330
1F
100
AcDbEntity
  8
Object
100
AcDbLine
 10
3.931955269373018
 20
4.564808559706344
 30
0.0
 11
3.826955269373017
 21
4.564808559706344
 31
0.0
  0
LINE
  5
3A4
330
1F
100
AcDbEntity
  8
Object
100
AcDbLine
 10
3.826955269373017
 20
4.564808559706344
 30
0.0
 11
3.826955269373017
 21
4.567808559706344
 31
0.0
  0
LINE
  5
3A5
330
1F
100
AcDbEntity
  8
Object
100
AcDbLine
 10
3.826955269373017
 20
4.739808559706345
 30
0.0
 11
3.826955269373017
 21
4.735808559706345
 31
0.0
  0
LINE
  5
3A6
330
1F
100
AcDbEntity
  8
Object
100
AcDbLine
 10
3.826955269373017
 20
4.735808559706345
 30
0.0
 11
3.826955269373017
 21
4.727808559706344
 31
0.0
  0
LINE
  5
3A7
330
1F
100
AcDbEntity
  8
Object
100
AcDbLine
 10
3.826955269373017
 20
4.727808559706344
 30
0.0
 11
3.826955269373017
 21
4.714808559706344
 31
0.0
  0
LINE
  5
3A8
330
1F
100
AcDbEntity
  8
Object
100
AcDbLine
 10
3.826955269373017
 20
4.714808559706344
 30
0.0
 11
3.826955269373017
 21
4.699808559706345
 31
0.0
  0
LINE
  5
3A9
330
1F
100
AcDbEntity
  8
Object
100
AcDbLine
 10
3.826955269373017
 20
4.699808559706345
 30
0.0
 11
3.826955269373017
 21
4.604808559706345
 31
0.0
  0
LINE
  5
3AA
330
1F
100
AcDbEntity
  8
Object
100
AcDbLine
 10
3.826955269373017
 20
4.604808559706345
 30
0.0
 11
3.826955269373017
 21
4.588808559706345
 31
0.0
  0
LINE
  5
3AB
330
1F
100
AcDbEntity
  8
Object
100
AcDbLine
 10
3.826955269373017
 20
4.588808559706345
 30
0.0
 11
3.826955269373017
 21
4.575808559706345
 31
0.0
  0
LINE
  5
3AC
330
1F
100
AcDbEntity
  8
Object
100
AcDbLine
 10
3.826955269373017
 20
4.575808559706345
 30
0.0
 11
3.826955269373017
 21
4.567808559706344
 31
0.0
  0
LINE
  5
3AD
330
1F
100
AcDbEntity
  8
Object
100
AcDbLine
 10
3.826955269373017
 20
4.567808559706344
 30
0.0
 11
3.826955269373017
 21
4.564808559706344
 31
0.0
  0
LINE
  5
3AE
330
1F
100
AcDbEntity
  8
Object
100
AcDbLine
 10
3.826955269373017
 20
4.564808559706344
 30
0.0
 11
3.826955269373017
 21
4.409808559706345
 31
0.0
  0
LINE
  5
3AF
330
1F
100
AcDbEntity
  8
Object
100
AcDbLine
 10
3.826955269373017
 20
4.409808559706345
 30
0.0
 11
3.826955269373017
 21
4.406808559706345
 31
0.0
  0
LINE
  5
3B0
330
1F
100
AcDbEntity
  8
Object
100
AcDbLine
 10
3.826955269373017
 20
4.406808559706345
 30
0.0
 11
3.826955269373017
 21
4.397808559706344
 31
0.0
  0
LINE
  5
3B1
330
1F
100
AcDbEntity
  8
Object
100
AcDbLine
 10
3.826955269373017
 20
4.397808559706344
 30
0.0
 11
3.826955269373017
 21
4.384808559706344
 31
0.0
  0
LINE
  5
3B2
330
1F
100
AcDbEntity
  8
Object
100
AcDbLine
 10
3.826955269373017
 20
4.384808559706344
 30
0.0
 11
3.826955269373017
 21
4.369808559706345
 31
0.0
  0
LINE
  5
3B3
330
1F
100
AcDbEntity
  8
Object
100
AcDbLine
 10
3.826955269373017
 20
4.369808559706345
 30
0.0
 11
3.826955269373017
 21
3.794808559706345
 31
0.0
  0
LINE
  5
3B4
330
1F
100
AcDbEntity
  8
Object
100
AcDbLine
 10
1.986955269373018
 20
4.739808559706345
 30
0.0
 11
1.986955269373018
 21
4.735808559706345
 31
0.0
  0
LINE
  5
3B5
330
1F
100
AcDbEntity
  8
Object
100
AcDbLine
 10
1.986955269373018
 20
4.735808559706345
 30
0.0
 11
1.986955269373018
 21
4.727808559706344
 31
0.0
  0
LINE
  5
3B6
330
1F
100
AcDbEntity
  8
Object
100
AcDbLine
 10
1.986955269373018
 20
4.727808559706344
 30
0.0
 11
1.986955269373018
 21
4.714808559706344
 31
0.0
  0
LINE
  5
3B7
330
1F
100
AcDbEntity
  8
Object
100
AcDbLine
 10
1.986955269373018
 20
4.714808559706344
 30
0.0
 11
1.986955269373018
 21
4.699808559706345
 31
0.0
  0
LINE
  5
3B8
330
1F
100
AcDbEntity
  8
Object
100
AcDbLine
 10
1.986955269373018
 20
4.699808559706345
 30
0.0
 11
1.986955269373018
 21
4.604808559706345
 31
0.0
  0
LINE
  5
3B9
330
1F
100
AcDbEntity
  8
Object
100
AcDbLine
 10
1.986955269373018
 20
4.604808559706345
 30
0.0
 11
1.986955269373018
 21
4.588808559706345
 31
0.0
  0
LINE
  5
3BA
330
1F
100
AcDbEntity
  8
Object
100
AcDbLine
 10
1.986955269373018
 20
4.588808559706345
 30
0.0
 11
1.986955269373018
 21
4.575808559706345
 31
0.0
  0
LINE
  5
3BB
330
1F
100
AcDbEntity
  8
Object
100
AcDbLine
 10
1.986955269373018
 20
4.575808559706345
 30
0.0
 11
1.986955269373018
 21
4.567808559706344
 31
0.0
  0
LINE
  5
3BC
330
1F
100
AcDbEntity
  8
Object
100
AcDbLine
 10
1.986955269373018
 20
4.567808559706344
 30
0.0
 11
1.986955269373018
 21
4.564808559706344
 31
0.0
  0
LINE
  5
3BD
330
1F
100
AcDbEntity
  8
Object
100
AcDbLine
 10
1.986955269373018
 20
4.564808559706344
 30
0.0
 11
1.986955269373018
 21
4.409808559706345
 31
0.0
  0
LINE
  5
3BE
330
1F
100
AcDbEntity
  8
Object
100
AcDbLine
 10
1.986955269373018
 20
4.409808559706345
 30
0.0
 11
1.986955269373018
 21
4.406808559706345
 31
0.0
  0
LINE
  5
3BF
330
1F
100
AcDbEntity
  8
Object
100
AcDbLine
 10
1.986955269373018
 20
4.406808559706345
 30
0.0
 11
1.986955269373018
 21
4.397808559706344
 31
0.0
  0
LINE
  5
3C0
330
1F
100
AcDbEntity
  8
Object
100
AcDbLine
 10
1.986955269373018
 20
4.397808559706344
 30
0.0
 11
1.986955269373018
 21
4.384808559706344
 31
0.0
  0
LINE
  5
3C1
330
1F
100
AcDbEntity
  8
Object
100
AcDbLine
 10
1.986955269373018
 20
4.384808559706344
 30
0.0
 11
1.986955269373018
 21
4.369808559706345
 31
0.0
  0
LINE
  5
3C2
330
1F
100
AcDbEntity
  8
Object
100
AcDbLine
 10
1.986955269373018
 20
4.369808559706345
 30
0.0
 11
1.986955269373018
 21
3.794808559706345
 31
0.0
  0
LINE
  5
3C3
330
1F
100
AcDbEntity
  8
Object
100
AcDbLine
 10
1.841955269373018
 20
4.654808559706344
 30
0.0
 11
1.841955269373018
 21
4.759808559706344
 31
0.0
  0
LINE
  5
3C4
330
1F
100
AcDbEntity
  8
Object
100
AcDbLine
 10
1.841955269373018
 20
4.759808559706344
 30
0.0
 11
1.874955269373018
 21
4.755808559706345
 31
0.0
  0
LINE
  5
3C5
330
1F
100
AcDbEntity
  8
Object
100
AcDbLine
 10
1.874955269373018
 20
4.755808559706345
 30
0.0
 11
1.904955269373017
 21
4.744808559706345
 31
0.0
  0
LINE
  5
3C6
330
1F
100
AcDbEntity
  8
Object
100
AcDbLine
 10
1.841955269373018
 20
4.654808559706344
 30
0.0
 11
1.857955269373018
 21
4.650808559706344
 31
0.0
  0
LINE
  5
3C7
330
1F
100
AcDbEntity
  8
Object
100
AcDbLine
 10
1.913955269373017
 20
4.739808559706345
 30
0.0
 11
1.904955269373017
 21
4.744808559706345
 31
0.0
  0
LINE
  5
3C8
330
1F
100
AcDbEntity
  8
Object
100
AcDbLine
 10
1.857955269373018
 20
4.650808559706344
 30
0.0
 11
1.870955269373018
 21
4.642808559706345
 31
0.0
  0
LINE
  5
3C9
330
1F
100
AcDbEntity
  8
Object
100
AcDbLine
 10
1.870955269373018
 20
4.642808559706345
 30
0.0
 11
1.878955269373017
 21
4.629808559706344
 31
0.0
  0
LINE
  5
3CA
330
1F
100
AcDbEntity
  8
Object
100
AcDbLine
 10
1.878955269373017
 20
4.629808559706344
 30
0.0
 11
1.881955269373017
 21
4.614808559706345
 31
0.0
  0
LINE
  5
3CB
330
1F
100
AcDbEntity
  8
Object
100
AcDbLine
 10
1.836955269373017
 20
4.654808559706344
 30
0.0
 11
1.841955269373018
 21
4.654808559706344
 31
0.0
  0
LINE
  5
3CC
330
1F
100
AcDbEntity
  8
Object
100
AcDbLine
 10
3.939955269373018
 20
4.755808559706345
 30
0.0
 11
3.971955269373018
 21
4.759808559706344
 31
0.0
  0
LINE
  5
3CD
330
1F
100
AcDbEntity
  8
Object
100
AcDbLine
 10
3.971955269373018
 20
4.759808559706344
 30
0.0
 11
3.971955269373018
 21
4.654808559706344
 31
0.0
  0
LINE
  5
3CE
330
1F
100
AcDbEntity
  8
Object
100
AcDbLine
 10
3.900955269373017
 20
4.739808559706345
 30
0.0
 11
3.909955269373018
 21
4.744808559706345
 31
0.0
  0
LINE
  5
3CF
330
1F
100
AcDbEntity
  8
Object
100
AcDbLine
 10
3.909955269373018
 20
4.744808559706345
 30
0.0
 11
3.939955269373018
 21
4.755808559706345
 31
0.0
  0
LINE
  5
3D0
330
1F
100
AcDbEntity
  8
Object
100
AcDbLine
 10
3.971955269373018
 20
4.654808559706344
 30
0.0
 11
3.956955269373017
 21
4.650808559706344
 31
0.0
  0
LINE
  5
3D1
330
1F
100
AcDbEntity
  8
Object
100
AcDbLine
 10
3.956955269373017
 20
4.650808559706344
 30
0.0
 11
3.943955269373017
 21
4.642808559706345
 31
0.0
  0
LINE
  5
3D2
330
1F
100
AcDbEntity
  8
Object
100
AcDbLine
 10
3.943955269373017
 20
4.642808559706345
 30
0.0
 11
3.934955269373017
 21
4.629808559706344
 31
0.0
  0
LINE
  5
3D3
330
1F
100
AcDbEntity
  8
Object
100
AcDbLine
 10
3.934955269373017
 20
4.629808559706344
 30
0.0
 11
3.931955269373018
 21
4.614808559706345
 31
0.0
  0
LINE
  5
3D4
330
1F
100
AcDbEntity
  8
Object
100
AcDbLine
 10
3.971955269373018
 20
4.654808559706344
 30
0.0
 11
3.976955269373018
 21
4.654808559706344
 31
0.0
  0
LINE
  5
3D5
330
1F
100
AcDbEntity
  8
Object
100
AcDbLine
 10
3.971955269373018
 20
4.759808559706344
 30
0.0
 11
3.939955269373018
 21
4.755808559706345
 31
0.0
  0
LINE
  5
3D6
330
1F
100
AcDbEntity
  8
Object
100
AcDbLine
 10
3.939955269373018
 20
4.755808559706345
 30
0.0
 11
3.909955269373018
 21
4.744808559706345
 31
0.0
  0
LINE
  5
3D7
330
1F
100
AcDbEntity
  8
Object
100
AcDbLine
 10
3.909955269373018
 20
4.744808559706345
 30
0.0
 11
3.900955269373017
 21
4.739808559706345
 31
0.0
  0
LINE
  5
3D8
330
1F
100
AcDbEntity
  8
Object
100
AcDbLine
 10
1.841955269373018
 20
4.759808559706344
 30
0.0
 11
1.874955269373018
 21
4.755808559706345
 31
0.0
  0
LINE
  5
3D9
330
1F
100
AcDbEntity
  8
Object
100
AcDbLine
 10
1.874955269373018
 20
4.755808559706345
 30
0.0
 11
1.904955269373017
 21
4.744808559706345
 31
0.0
  0
LINE
  5
3DA
330
1F
100
AcDbEntity
  8
Object
100
AcDbLine
 10
1.904955269373017
 20
4.744808559706345
 30
0.0
 11
1.913955269373017
 21
4.739808559706345
 31
0.0
  0
LINE
  5
3DB
330
1F
100
AcDbEntity
  8
Object
100
AcDbLine
 10
1.836955269373017
 20
4.654808559706344
 30
0.0
 11
1.836955269373017
 21
4.759808559706344
 31
0.0
  0
LINE
  5
3DC
330
1F
100
AcDbEntity
  8
Object
100
AcDbLine
 10
1.836955269373017
 20
4.759808559706344
 30
0.0
 11
1.841955269373018
 21
4.759808559706344
 31
0.0
  0
LINE
  5
3DD
330
1F
100
AcDbEntity
  8
Object
100
AcDbLine
 10
1.836955269373017
 20
4.654808559706344
 30
0.0
 11
1.841955269373018
 21
4.654808559706344
 31
0.0
  0
LINE
  5
3DE
330
1F
100
AcDbEntity
  8
Object
100
AcDbLine
 10
1.691955269373018
 20
4.799808559706344
 30
0.0
 11
1.695955269373017
 21
4.766808559706344
 31
0.0
  0
LINE
  5
3DF
330
1F
100
AcDbEntity
  8
Object
100
AcDbLine
 10
1.695955269373017
 20
4.766808559706344
 30
0.0
 11
1.706955269373018
 21
4.736808559706345
 31
0.0
  0
LINE
  5
3E0
330
1F
100
AcDbEntity
  8
Object
100
AcDbLine
 10
1.706955269373018
 20
4.736808559706345
 30
0.0
 11
1.723955269373018
 21
4.708808559706344
 31
0.0
  0
LINE
  5
3E1
330
1F
100
AcDbEntity
  8
Object
100
AcDbLine
 10
1.723955269373018
 20
4.708808559706344
 30
0.0
 11
1.746955269373017
 21
4.685808559706345
 31
0.0
  0
LINE
  5
3E2
330
1F
100
AcDbEntity
  8
Object
100
AcDbLine
 10
1.746955269373017
 20
4.685808559706345
 30
0.0
 11
1.773955269373017
 21
4.668808559706345
 31
0.0
  0
LINE
  5
3E3
330
1F
100
AcDbEntity
  8
Object
100
AcDbLine
 10
1.773955269373017
 20
4.668808559706345
 30
0.0
 11
1.804955269373017
 21
4.657808559706344
 31
0.0
  0
LINE
  5
3E4
330
1F
100
AcDbEntity
  8
Object
100
AcDbLine
 10
1.804955269373017
 20
4.657808559706344
 30
0.0
 11
1.836955269373017
 21
4.654808559706344
 31
0.0
  0
LINE
  5
3E5
330
1F
100
AcDbEntity
  8
Object
100
AcDbLine
 10
3.976955269373018
 20
4.759808559706344
 30
0.0
 11
3.976955269373018
 21
4.654808559706344
 31
0.0
  0
LINE
  5
3E6
330
1F
100
AcDbEntity
  8
Object
100
AcDbLine
 10
3.976955269373018
 20
4.654808559706344
 30
0.0
 11
3.971955269373018
 21
4.654808559706344
 31
0.0
  0
LINE
  5
3E7
330
1F
100
AcDbEntity
  8
Object
100
AcDbLine
 10
3.976955269373018
 20
4.759808559706344
 30
0.0
 11
3.971955269373018
 21
4.759808559706344
 31
0.0
  0
LINE
  5
3E8
330
1F
100
AcDbEntity
  8
Object
100
AcDbLine
 10
4.121955269373017
 20
4.799808559706344
 30
0.0
 11
4.118955269373017
 21
4.766808559706344
 31
0.0
  0
LINE
  5
3E9
330
1F
100
AcDbEntity
  8
Object
100
AcDbLine
 10
4.118955269373017
 20
4.766808559706344
 30
0.0
 11
4.107955269373017
 21
4.736808559706345
 31
0.0
  0
LINE
  5
3EA
330
1F
100
AcDbEntity
  8
Object
100
AcDbLine
 10
4.107955269373017
 20
4.736808559706345
 30
0.0
 11
4.090955269373018
 21
4.708808559706344
 31
0.0
  0
LINE
  5
3EB
330
1F
100
AcDbEntity
  8
Object
100
AcDbLine
 10
4.090955269373018
 20
4.708808559706344
 30
0.0
 11
4.067955269373017
 21
4.685808559706345
 31
0.0
  0
LINE
  5
3EC
330
1F
100
AcDbEntity
  8
Object
100
AcDbLine
 10
4.067955269373017
 20
4.685808559706345
 30
0.0
 11
4.039955269373018
 21
4.668808559706345
 31
0.0
  0
LINE
  5
3ED
330
1F
100
AcDbEntity
  8
Object
100
AcDbLine
 10
4.039955269373018
 20
4.668808559706345
 30
0.0
 11
4.009955269373017
 21
4.657808559706344
 31
0.0
  0
LINE
  5
3EE
330
1F
100
AcDbEntity
  8
Object
100
AcDbLine
 10
4.009955269373017
 20
4.657808559706344
 30
0.0
 11
3.976955269373018
 21
4.654808559706344
 31
0.0
  0
LINE
  5
3EF
330
1F
100
AcDbEntity
  8
Object
100
AcDbLine
 10
3.976955269373018
 20
4.759808559706344
 30
0.0
 11
3.971955269373018
 21
4.759808559706344
 31
0.0
  0
LINE
  5
3F0
330
1F
100
AcDbEntity
  8
Object
100
AcDbLine
 10
1.841955269373018
 20
4.759808559706344
 30
0.0
 11
1.836955269373017
 21
4.759808559706344
 31
0.0
  0
LINE
  5
3F1
330
1F
100
AcDbEntity
  8
Object
100
AcDbLine
 10
1.695955269373017
 20
4.766808559706344
 30
0.0
 11
1.691955269373018
 21
4.799808559706344
 31
0.0
  0
LINE
  5
3F2
330
1F
100
AcDbEntity
  8
Object
100
AcDbLine
 10
1.691955269373018
 20
4.799808559706344
 30
0.0
 11
1.796955269373018
 21
4.799808559706344
 31
0.0
  0
LINE
  5
3F3
330
1F
100
AcDbEntity
  8
Object
100
AcDbLine
 10
1.796955269373018
 20
4.799808559706344
 30
0.0
 11
1.799955269373018
 21
4.783808559706344
 31
0.0
  0
LINE
  5
3F4
330
1F
100
AcDbEntity
  8
Object
100
AcDbLine
 10
1.695955269373017
 20
4.766808559706344
 30
0.0
 11
1.706955269373018
 21
4.736808559706345
 31
0.0
  0
LINE
  5
3F5
330
1F
100
AcDbEntity
  8
Object
100
AcDbLine
 10
1.808955269373017
 20
4.770808559706344
 30
0.0
 11
1.799955269373018
 21
4.783808559706344
 31
0.0
  0
LINE
  5
3F6
330
1F
100
AcDbEntity
  8
Object
100
AcDbLine
 10
1.706955269373018
 20
4.736808559706345
 30
0.0
 11
1.723955269373018
 21
4.708808559706344
 31
0.0
  0
LINE
  5
3F7
330
1F
100
AcDbEntity
  8
Object
100
AcDbLine
 10
1.723955269373018
 20
4.708808559706344
 30
0.0
 11
1.746955269373017
 21
4.685808559706345
 31
0.0
  0
LINE
  5
3F8
330
1F
100
AcDbEntity
  8
Object
100
AcDbLine
 10
1.821955269373017
 20
4.762808559706344
 30
0.0
 11
1.808955269373017
 21
4.770808559706344
 31
0.0
  0
LINE
  5
3F9
330
1F
100
AcDbEntity
  8
Object
100
AcDbLine
 10
1.746955269373017
 20
4.685808559706345
 30
0.0
 11
1.773955269373017
 21
4.668808559706345
 31
0.0
  0
LINE
  5
3FA
330
1F
100
AcDbEntity
  8
Object
100
AcDbLine
 10
1.773955269373017
 20
4.668808559706345
 30
0.0
 11
1.804955269373017
 21
4.657808559706344
 31
0.0
  0
LINE
  5
3FB
330
1F
100
AcDbEntity
  8
Object
100
AcDbLine
 10
1.836955269373017
 20
4.759808559706344
 30
0.0
 11
1.821955269373017
 21
4.762808559706344
 31
0.0
  0
LINE
  5
3FC
330
1F
100
AcDbEntity
  8
Object
100
AcDbLine
 10
1.804955269373017
 20
4.657808559706344
 30
0.0
 11
1.836955269373017
 21
4.654808559706344
 31
0.0
  0
LINE
  5
3FD
330
1F
100
AcDbEntity
  8
Object
100
AcDbLine
 10
1.691955269373018
 20
4.954808559706345
 30
0.0
 11
1.691955269373018
 21
4.799808559706344
 31
0.0
  0
LINE
  5
3FE
330
1F
100
AcDbEntity
  8
Object
100
AcDbLine
 10
4.013955269373018
 20
4.783808559706344
 30
0.0
 11
4.016955269373018
 21
4.799808559706344
 31
0.0
  0
LINE
  5
3FF
330
1F
100
AcDbEntity
  8
Object
100
AcDbLine
 10
4.016955269373018
 20
4.799808559706344
 30
0.0
 11
4.121955269373017
 21
4.799808559706344
 31
0.0
  0
LINE
  5
400
330
1F
100
AcDbEntity
  8
Object
100
AcDbLine
 10
4.121955269373017
 20
4.799808559706344
 30
0.0
 11
4.118955269373017
 21
4.766808559706344
 31
0.0
  0
LINE
  5
401
330
1F
100
AcDbEntity
  8
Object
100
AcDbLine
 10
4.118955269373017
 20
4.766808559706344
 30
0.0
 11
4.107955269373017
 21
4.736808559706345
 31
0.0
  0
LINE
  5
402
330
1F
100
AcDbEntity
  8
Object
100
AcDbLine
 10
4.107955269373017
 20
4.736808559706345
 30
0.0
 11
4.090955269373018
 21
4.708808559706344
 31
0.0
  0
LINE
  5
403
330
1F
100
AcDbEntity
  8
Object
100
AcDbLine
 10
4.013955269373018
 20
4.783808559706344
 30
0.0
 11
4.005955269373018
 21
4.770808559706344
 31
0.0
  0
LINE
  5
404
330
1F
100
AcDbEntity
  8
Object
100
AcDbLine
 10
4.005955269373018
 20
4.770808559706344
 30
0.0
 11
3.992955269373018
 21
4.762808559706344
 31
0.0
  0
LINE
  5
405
330
1F
100
AcDbEntity
  8
Object
100
AcDbLine
 10
4.090955269373018
 20
4.708808559706344
 30
0.0
 11
4.067955269373017
 21
4.685808559706345
 31
0.0
  0
LINE
  5
406
330
1F
100
AcDbEntity
  8
Object
100
AcDbLine
 10
4.067955269373017
 20
4.685808559706345
 30
0.0
 11
4.039955269373018
 21
4.668808559706345
 31
0.0
  0
LINE
  5
407
330
1F
100
AcDbEntity
  8
Object
100
AcDbLine
 10
4.039955269373018
 20
4.668808559706345
 30
0.0
 11
4.009955269373017
 21
4.657808559706344
 31
0.0
  0
LINE
  5
408
330
1F
100
AcDbEntity
  8
Object
100
AcDbLine
 10
3.992955269373018
 20
4.762808559706344
 30
0.0
 11
3.976955269373018
 21
4.759808559706344
 31
0.0
  0
LINE
  5
409
330
1F
100
AcDbEntity
  8
Object
100
AcDbLine
 10
3.976955269373018
 20
4.654808559706344
 30
0.0
 11
4.009955269373017
 21
4.657808559706344
 31
0.0
  0
LINE
  5
40A
330
1F
100
AcDbEntity
  8
Object
100
AcDbLine
 10
4.121955269373017
 20
4.799808559706344
 30
0.0
 11
4.121955269373017
 21
4.954808559706345
 31
0.0
  0
LINE
  5
40B
330
1F
100
AcDbEntity
  8
Object
100
AcDbLine
 10
4.016955269373018
 20
4.799808559706344
 30
0.0
 11
4.013955269373018
 21
4.783808559706344
 31
0.0
  0
LINE
  5
40C
330
1F
100
AcDbEntity
  8
Object
100
AcDbLine
 10
4.013955269373018
 20
4.783808559706344
 30
0.0
 11
4.005955269373018
 21
4.770808559706344
 31
0.0
  0
LINE
  5
40D
330
1F
100
AcDbEntity
  8
Object
100
AcDbLine
 10
4.005955269373018
 20
4.770808559706344
 30
0.0
 11
3.992955269373018
 21
4.762808559706344
 31
0.0
  0
LINE
  5
40E
330
1F
100
AcDbEntity
  8
Object
100
AcDbLine
 10
3.992955269373018
 20
4.762808559706344
 30
0.0
 11
3.976955269373018
 21
4.759808559706344
 31
0.0
  0
LINE
  5
40F
330
1F
100
AcDbEntity
  8
Object
100
AcDbLine
 10
1.796955269373018
 20
4.799808559706344
 30
0.0
 11
1.799955269373018
 21
4.783808559706344
 31
0.0
  0
LINE
  5
410
330
1F
100
AcDbEntity
  8
Object
100
AcDbLine
 10
1.799955269373018
 20
4.783808559706344
 30
0.0
 11
1.808955269373017
 21
4.770808559706344
 31
0.0
  0
LINE
  5
411
330
1F
100
AcDbEntity
  8
Object
100
AcDbLine
 10
1.808955269373017
 20
4.770808559706344
 30
0.0
 11
1.821955269373017
 21
4.762808559706344
 31
0.0
  0
LINE
  5
412
330
1F
100
AcDbEntity
  8
Object
100
AcDbLine
 10
1.821955269373017
 20
4.762808559706344
 30
0.0
 11
1.836955269373017
 21
4.759808559706344
 31
0.0
  0
LINE
  5
413
330
1F
100
AcDbEntity
  8
Object
100
AcDbLine
 10
1.691955269373018
 20
4.954808559706345
 30
0.0
 11
1.796955269373018
 21
4.954808559706345
 31
0.0
  0
LINE
  5
414
330
1F
100
AcDbEntity
  8
Object
100
AcDbLine
 10
1.796955269373018
 20
4.954808559706345
 30
0.0
 11
1.796955269373018
 21
4.799808559706344
 31
0.0
  0
LINE
  5
415
330
1F
100
AcDbEntity
  8
Object
100
AcDbLine
 10
1.691955269373018
 20
4.954808559706345
 30
0.0
 11
1.691955269373018
 21
4.799808559706344
 31
0.0
  0
LINE
  5
416
330
1F
100
AcDbEntity
  8
Object
100
AcDbLine
 10
1.836955269373017
 20
5.099808559706344
 30
0.0
 11
1.804955269373017
 21
5.095808559706345
 31
0.0
  0
LINE
  5
417
330
1F
100
AcDbEntity
  8
Object
100
AcDbLine
 10
1.804955269373017
 20
5.095808559706345
 30
0.0
 11
1.773955269373017
 21
5.084808559706345
 31
0.0
  0
LINE
  5
418
330
1F
100
AcDbEntity
  8
Object
100
AcDbLine
 10
1.773955269373017
 20
5.084808559706345
 30
0.0
 11
1.746955269373017
 21
5.067808559706344
 31
0.0
  0
LINE
  5
419
330
1F
100
AcDbEntity
  8
Object
100
AcDbLine
 10
1.746955269373017
 20
5.067808559706344
 30
0.0
 11
1.723955269373018
 21
5.044808559706345
 31
0.0
  0
LINE
  5
41A
330
1F
100
AcDbEntity
  8
Object
100
AcDbLine
 10
1.723955269373018
 20
5.044808559706345
 30
0.0
 11
1.706955269373018
 21
5.016808559706344
 31
0.0
  0
LINE
  5
41B
330
1F
100
AcDbEntity
  8
Object
100
AcDbLine
 10
1.706955269373018
 20
5.016808559706344
 30
0.0
 11
1.695955269373017
 21
4.986808559706345
 31
0.0
  0
LINE
  5
41C
330
1F
100
AcDbEntity
  8
Object
100
AcDbLine
 10
1.695955269373017
 20
4.986808559706345
 30
0.0
 11
1.691955269373018
 21
4.954808559706345
 31
0.0
  0
LINE
  5
41D
330
1F
100
AcDbEntity
  8
Object
100
AcDbLine
 10
4.016955269373018
 20
4.799808559706344
 30
0.0
 11
4.016955269373018
 21
4.954808559706345
 31
0.0
  0
LINE
  5
41E
330
1F
100
AcDbEntity
  8
Object
100
AcDbLine
 10
4.016955269373018
 20
4.954808559706345
 30
0.0
 11
4.121955269373017
 21
4.954808559706345
 31
0.0
  0
LINE
  5
41F
330
1F
100
AcDbEntity
  8
Object
100
AcDbLine
 10
4.121955269373017
 20
4.954808559706345
 30
0.0
 11
4.121955269373017
 21
4.799808559706344
 31
0.0
  0
LINE
  5
420
330
1F
100
AcDbEntity
  8
Object
100
AcDbLine
 10
3.976955269373018
 20
5.099808559706344
 30
0.0
 11
4.009955269373017
 21
5.095808559706345
 31
0.0
  0
LINE
  5
421
330
1F
100
AcDbEntity
  8
Object
100
AcDbLine
 10
4.009955269373017
 20
5.095808559706345
 30
0.0
 11
4.039955269373018
 21
5.084808559706345
 31
0.0
  0
LINE
  5
422
330
1F
100
AcDbEntity
  8
Object
100
AcDbLine
 10
4.039955269373018
 20
5.084808559706345
 30
0.0
 11
4.067955269373017
 21
5.067808559706344
 31
0.0
  0
LINE
  5
423
330
1F
100
AcDbEntity
  8
Object
100
AcDbLine
 10
4.067955269373017
 20
5.067808559706344
 30
0.0
 11
4.090955269373018
 21
5.044808559706345
 31
0.0
  0
LINE
  5
424
330
1F
100
AcDbEntity
  8
Object
100
AcDbLine
 10
4.090955269373018
 20
5.044808559706345
 30
0.0
 11
4.107955269373017
 21
5.016808559706344
 31
0.0
  0
LINE
  5
425
330
1F
100
AcDbEntity
  8
Object
100
AcDbLine
 10
4.107955269373017
 20
5.016808559706344
 30
0.0
 11
4.118955269373017
 21
4.986808559706345
 31
0.0
  0
LINE
  5
426
330
1F
100
AcDbEntity
  8
Object
100
AcDbLine
 10
4.118955269373017
 20
4.986808559706345
 30
0.0
 11
4.121955269373017
 21
4.954808559706345
 31
0.0
  0
LINE
  5
427
330
1F
100
AcDbEntity
  8
Object
100
AcDbLine
 10
4.016955269373018
 20
4.954808559706345
 30
0.0
 11
4.016955269373018
 21
4.799808559706344
 31
0.0
  0
LINE
  5
428
330
1F
100
AcDbEntity
  8
Object
100
AcDbLine
 10
1.796955269373018
 20
4.799808559706344
 30
0.0
 11
1.796955269373018
 21
4.954808559706345
 31
0.0
  0
LINE
  5
429
330
1F
100
AcDbEntity
  8
Object
100
AcDbLine
 10
1.836955269373017
 20
5.099808559706344
 30
0.0
 11
1.804955269373017
 21
5.095808559706345
 31
0.0
  0
LINE
  5
42A
330
1F
100
AcDbEntity
  8
Object
100
AcDbLine
 10
1.746955269373017
 20
5.067808559706344
 30
0.0
 11
1.773955269373017
 21
5.084808559706345
 31
0.0
  0
LINE
  5
42B
330
1F
100
AcDbEntity
  8
Object
100
AcDbLine
 10
1.773955269373017
 20
5.084808559706345
 30
0.0
 11
1.804955269373017
 21
5.095808559706345
 31
0.0
  0
LINE
  5
42C
330
1F
100
AcDbEntity
  8
Object
100
AcDbLine
 10
1.836955269373017
 20
4.994808559706345
 30
0.0
 11
1.821955269373017
 21
4.990808559706344
 31
0.0
  0
LINE
  5
42D
330
1F
100
AcDbEntity
  8
Object
100
AcDbLine
 10
1.821955269373017
 20
4.990808559706344
 30
0.0
 11
1.808955269373017
 21
4.982808559706345
 31
0.0
  0
LINE
  5
42E
330
1F
100
AcDbEntity
  8
Object
100
AcDbLine
 10
1.746955269373017
 20
5.067808559706344
 30
0.0
 11
1.723955269373018
 21
5.044808559706345
 31
0.0
  0
LINE
  5
42F
330
1F
100
AcDbEntity
  8
Object
100
AcDbLine
 10
1.695955269373017
 20
4.986808559706345
 30
0.0
 11
1.706955269373018
 21
5.016808559706344
 31
0.0
  0
LINE
  5
430
330
1F
100
AcDbEntity
  8
Object
100
AcDbLine
 10
1.706955269373018
 20
5.016808559706344
 30
0.0
 11
1.723955269373018
 21
5.044808559706345
 31
0.0
  0
LINE
  5
431
330
1F
100
AcDbEntity
  8
Object
100
AcDbLine
 10
1.808955269373017
 20
4.982808559706345
 30
0.0
 11
1.799955269373018
 21
4.969808559706345
 31
0.0
  0
LINE
  5
432
330
1F
100
AcDbEntity
  8
Object
100
AcDbLine
 10
1.799955269373018
 20
4.969808559706345
 30
0.0
 11
1.796955269373018
 21
4.954808559706345
 31
0.0
  0
LINE
  5
433
330
1F
100
AcDbEntity
  8
Object
100
AcDbLine
 10
1.695955269373017
 20
4.986808559706345
 30
0.0
 11
1.691955269373018
 21
4.954808559706345
 31
0.0
  0
LINE
  5
434
330
1F
100
AcDbEntity
  8
Object
100
AcDbLine
 10
1.975955269373018
 20
5.099808559706344
 30
0.0
 11
1.983955269373018
 21
5.099808559706344
 31
0.0
  0
LINE
  5
435
330
1F
100
AcDbEntity
  8
Object
100
AcDbLine
 10
1.983955269373018
 20
5.099808559706344
 30
0.0
 11
1.986955269373018
 21
5.099808559706344
 31
0.0
  0
LINE
  5
436
330
1F
100
AcDbEntity
  8
Object
100
AcDbLine
 10
1.975955269373018
 20
5.099808559706344
 30
0.0
 11
1.962955269373017
 21
5.099808559706344
 31
0.0
  0
LINE
  5
437
330
1F
100
AcDbEntity
  8
Object
100
AcDbLine
 10
1.962955269373017
 20
5.099808559706344
 30
0.0
 11
1.946955269373017
 21
5.099808559706344
 31
0.0
  0
LINE
  5
438
330
1F
100
AcDbEntity
  8
Object
100
AcDbLine
 10
1.946955269373017
 20
5.099808559706344
 30
0.0
 11
1.836955269373017
 21
5.099808559706344
 31
0.0
  0
LINE
  5
439
330
1F
100
AcDbEntity
  8
Object
100
AcDbLine
 10
3.976955269373018
 20
4.994808559706345
 30
0.0
 11
3.976955269373018
 21
5.099808559706344
 31
0.0
  0
LINE
  5
43A
330
1F
100
AcDbEntity
  8
Object
100
AcDbLine
 10
3.976955269373018
 20
5.099808559706344
 30
0.0
 11
4.009955269373017
 21
5.095808559706345
 31
0.0
  0
LINE
  5
43B
330
1F
100
AcDbEntity
  8
Object
100
AcDbLine
 10
4.009955269373017
 20
5.095808559706345
 30
0.0
 11
4.039955269373018
 21
5.084808559706345
 31
0.0
  0
LINE
  5
43C
330
1F
100
AcDbEntity
  8
Object
100
AcDbLine
 10
3.976955269373018
 20
4.994808559706345
 30
0.0
 11
3.992955269373018
 21
4.990808559706344
 31
0.0
  0
LINE
  5
43D
330
1F
100
AcDbEntity
  8
Object
100
AcDbLine
 10
4.067955269373017
 20
5.067808559706344
 30
0.0
 11
4.039955269373018
 21
5.084808559706345
 31
0.0
  0
LINE
  5
43E
330
1F
100
AcDbEntity
  8
Object
100
AcDbLine
 10
3.992955269373018
 20
4.990808559706344
 30
0.0
 11
4.005955269373018
 21
4.982808559706345
 31
0.0
  0
LINE
  5
43F
330
1F
100
AcDbEntity
  8
Object
100
AcDbLine
 10
4.067955269373017
 20
5.067808559706344
 30
0.0
 11
4.090955269373018
 21
5.044808559706345
 31
0.0
  0
LINE
  5
440
330
1F
100
AcDbEntity
  8
Object
100
AcDbLine
 10
4.090955269373018
 20
5.044808559706345
 30
0.0
 11
4.107955269373017
 21
5.016808559706344
 31
0.0
  0
LINE
  5
441
330
1F
100
AcDbEntity
  8
Object
100
AcDbLine
 10
4.005955269373018
 20
4.982808559706345
 30
0.0
 11
4.013955269373018
 21
4.969808559706345
 31
0.0
  0
LINE
  5
442
330
1F
100
AcDbEntity
  8
Object
100
AcDbLine
 10
4.118955269373017
 20
4.986808559706345
 30
0.0
 11
4.107955269373017
 21
5.016808559706344
 31
0.0
  0
LINE
  5
443
330
1F
100
AcDbEntity
  8
Object
100
AcDbLine
 10
4.013955269373018
 20
4.969808559706345
 30
0.0
 11
4.016955269373018
 21
4.954808559706345
 31
0.0
  0
LINE
  5
444
330
1F
100
AcDbEntity
  8
Object
100
AcDbLine
 10
4.121955269373017
 20
4.954808559706345
 30
0.0
 11
4.118955269373017
 21
4.986808559706345
 31
0.0
  0
LINE
  5
445
330
1F
100
AcDbEntity
  8
Object
100
AcDbLine
 10
3.976955269373018
 20
5.099808559706344
 30
0.0
 11
3.866955269373018
 21
5.099808559706344
 31
0.0
  0
LINE
  5
446
330
1F
100
AcDbEntity
  8
Object
100
AcDbLine
 10
3.826955269373017
 20
5.099808559706344
 30
0.0
 11
3.829955269373018
 21
5.099808559706344
 31
0.0
  0
LINE
  5
447
330
1F
100
AcDbEntity
  8
Object
100
AcDbLine
 10
3.829955269373018
 20
5.099808559706344
 30
0.0
 11
3.838955269373018
 21
5.099808559706344
 31
0.0
  0
LINE
  5
448
330
1F
100
AcDbEntity
  8
Object
100
AcDbLine
 10
3.838955269373018
 20
5.099808559706344
 30
0.0
 11
3.851955269373018
 21
5.099808559706344
 31
0.0
  0
LINE
  5
449
330
1F
100
AcDbEntity
  8
Object
100
AcDbLine
 10
3.851955269373018
 20
5.099808559706344
 30
0.0
 11
3.866955269373018
 21
5.099808559706344
 31
0.0
  0
LINE
  5
44A
330
1F
100
AcDbEntity
  8
Object
100
AcDbLine
 10
3.976955269373018
 20
4.994808559706345
 30
0.0
 11
3.992955269373018
 21
4.990808559706344
 31
0.0
  0
LINE
  5
44B
330
1F
100
AcDbEntity
  8
Object
100
AcDbLine
 10
3.992955269373018
 20
4.990808559706344
 30
0.0
 11
4.005955269373018
 21
4.982808559706345
 31
0.0
  0
LINE
  5
44C
330
1F
100
AcDbEntity
  8
Object
100
AcDbLine
 10
4.005955269373018
 20
4.982808559706345
 30
0.0
 11
4.013955269373018
 21
4.969808559706345
 31
0.0
  0
LINE
  5
44D
330
1F
100
AcDbEntity
  8
Object
100
AcDbLine
 10
4.013955269373018
 20
4.969808559706345
 30
0.0
 11
4.016955269373018
 21
4.954808559706345
 31
0.0
  0
LINE
  5
44E
330
1F
100
AcDbEntity
  8
Object
100
AcDbLine
 10
1.836955269373017
 20
4.994808559706345
 30
0.0
 11
1.821955269373017
 21
4.990808559706344
 31
0.0
  0
LINE
  5
44F
330
1F
100
AcDbEntity
  8
Object
100
AcDbLine
 10
1.821955269373017
 20
4.990808559706344
 30
0.0
 11
1.808955269373017
 21
4.982808559706345
 31
0.0
  0
LINE
  5
450
330
1F
100
AcDbEntity
  8
Object
100
AcDbLine
 10
1.808955269373017
 20
4.982808559706345
 30
0.0
 11
1.799955269373018
 21
4.969808559706345
 31
0.0
  0
LINE
  5
451
330
1F
100
AcDbEntity
  8
Object
100
AcDbLine
 10
1.799955269373018
 20
4.969808559706345
 30
0.0
 11
1.796955269373018
 21
4.954808559706345
 31
0.0
  0
LINE
  5
452
330
1F
100
AcDbEntity
  8
Object
100
AcDbLine
 10
1.836955269373017
 20
4.994808559706345
 30
0.0
 11
1.836955269373017
 21
5.099808559706344
 31
0.0
  0
LINE
  5
453
330
1F
100
AcDbEntity
  8
Object
100
AcDbLine
 10
1.836955269373017
 20
5.099808559706344
 30
0.0
 11
1.946955269373017
 21
5.099808559706344
 31
0.0
  0
LINE
  5
454
330
1F
100
AcDbEntity
  8
Object
100
AcDbLine
 10
1.946955269373017
 20
5.099808559706344
 30
0.0
 11
1.946955269373017
 21
4.994808559706345
 31
0.0
  0
LINE
  5
455
330
1F
100
AcDbEntity
  8
Object
100
AcDbLine
 10
1.946955269373017
 20
4.994808559706345
 30
0.0
 11
1.836955269373017
 21
4.994808559706345
 31
0.0
  0
LINE
  5
456
330
1F
100
AcDbEntity
  8
Object
100
AcDbLine
 10
1.946955269373017
 20
5.099808559706344
 30
0.0
 11
1.962955269373017
 21
5.099808559706344
 31
0.0
  0
LINE
  5
457
330
1F
100
AcDbEntity
  8
Object
100
AcDbLine
 10
1.962955269373017
 20
5.099808559706344
 30
0.0
 11
1.975955269373018
 21
5.099808559706344
 31
0.0
  0
LINE
  5
458
330
1F
100
AcDbEntity
  8
Object
100
AcDbLine
 10
1.975955269373018
 20
5.099808559706344
 30
0.0
 11
1.983955269373018
 21
5.099808559706344
 31
0.0
  0
LINE
  5
459
330
1F
100
AcDbEntity
  8
Object
100
AcDbLine
 10
1.983955269373018
 20
5.099808559706344
 30
0.0
 11
1.986955269373018
 21
5.099808559706344
 31
0.0
  0
LINE
  5
45A
330
1F
100
AcDbEntity
  8
Object
100
AcDbLine
 10
1.986955269373018
 20
5.099808559706344
 30
0.0
 11
1.986955269373018
 21
4.994808559706345
 31
0.0
  0
LINE
  5
45B
330
1F
100
AcDbEntity
  8
Object
100
AcDbLine
 10
1.986955269373018
 20
4.994808559706345
 30
0.0
 11
1.983955269373018
 21
4.994808559706345
 31
0.0
  0
LINE
  5
45C
330
1F
100
AcDbEntity
  8
Object
100
AcDbLine
 10
1.983955269373018
 20
4.994808559706345
 30
0.0
 11
1.975955269373018
 21
4.994808559706345
 31
0.0
  0
LINE
  5
45D
330
1F
100
AcDbEntity
  8
Object
100
AcDbLine
 10
1.975955269373018
 20
4.994808559706345
 30
0.0
 11
1.962955269373017
 21
4.994808559706345
 31
0.0
  0
LINE
  5
45E
330
1F
100
AcDbEntity
  8
Object
100
AcDbLine
 10
1.962955269373017
 20
4.994808559706345
 30
0.0
 11
1.946955269373017
 21
4.994808559706345
 31
0.0
  0
LINE
  5
45F
330
1F
100
AcDbEntity
  8
Object
100
AcDbLine
 10
1.986955269373018
 20
4.994808559706345
 30
0.0
 11
1.986955269373018
 21
5.099808559706344
 31
0.0
  0
LINE
  5
460
330
1F
100
AcDbEntity
  8
Object
100
AcDbLine
 10
3.866955269373018
 20
4.994808559706345
 30
0.0
 11
3.866955269373018
 21
5.099808559706344
 31
0.0
  0
LINE
  5
461
330
1F
100
AcDbEntity
  8
Object
100
AcDbLine
 10
3.866955269373018
 20
5.099808559706344
 30
0.0
 11
3.976955269373018
 21
5.099808559706344
 31
0.0
  0
LINE
  5
462
330
1F
100
AcDbEntity
  8
Object
100
AcDbLine
 10
3.866955269373018
 20
4.994808559706345
 30
0.0
 11
3.976955269373018
 21
4.994808559706345
 31
0.0
  0
LINE
  5
463
330
1F
100
AcDbEntity
  8
Object
100
AcDbLine
 10
3.829955269373018
 20
4.994808559706345
 30
0.0
 11
3.838955269373018
 21
4.994808559706345
 31
0.0
  0
LINE
  5
464
330
1F
100
AcDbEntity
  8
Object
100
AcDbLine
 10
3.838955269373018
 20
5.099808559706344
 30
0.0
 11
3.829955269373018
 21
5.099808559706344
 31
0.0
  0
LINE
  5
465
330
1F
100
AcDbEntity
  8
Object
100
AcDbLine
 10
3.851955269373018
 20
4.994808559706345
 30
0.0
 11
3.866955269373018
 21
4.994808559706345
 31
0.0
  0
LINE
  5
466
330
1F
100
AcDbEntity
  8
Object
100
AcDbLine
 10
3.866955269373018
 20
5.099808559706344
 30
0.0
 11
3.851955269373018
 21
5.099808559706344
 31
0.0
  0
LINE
  5
467
330
1F
100
AcDbEntity
  8
Object
100
AcDbLine
 10
3.851955269373018
 20
5.099808559706344
 30
0.0
 11
3.838955269373018
 21
5.099808559706344
 31
0.0
  0
LINE
  5
468
330
1F
100
AcDbEntity
  8
Object
100
AcDbLine
 10
3.838955269373018
 20
4.994808559706345
 30
0.0
 11
3.851955269373018
 21
4.994808559706345
 31
0.0
  0
LINE
  5
469
330
1F
100
AcDbEntity
  8
Object
100
AcDbLine
 10
3.829955269373018
 20
5.099808559706344
 30
0.0
 11
3.826955269373017
 21
5.099808559706344
 31
0.0
  0
LINE
  5
46A
330
1F
100
AcDbEntity
  8
Object
100
AcDbLine
 10
3.829955269373018
 20
4.994808559706345
 30
0.0
 11
3.826955269373017
 21
4.994808559706345
 31
0.0
  0
LINE
  5
46B
330
1F
100
AcDbEntity
  8
Object
100
AcDbLine
 10
3.826955269373017
 20
4.994808559706345
 30
0.0
 11
3.826955269373017
 21
5.099808559706344
 31
0.0
  0
LINE
  5
46C
330
1F
100
AcDbEntity
  8
Object
100
AcDbLine
 10
3.826955269373017
 20
5.099808559706344
 30
0.0
 11
3.826955269373017
 21
4.994808559706345
 31
0.0
  0
LINE
  5
46D
330
1F
100
AcDbEntity
  8
Object
100
AcDbLine
 10
3.826955269373017
 20
4.994808559706345
 30
0.0
 11
3.829955269373018
 21
4.994808559706345
 31
0.0
  0
LINE
  5
46E
330
1F
100
AcDbEntity
  8
Object
100
AcDbLine
 10
3.829955269373018
 20
4.994808559706345
 30
0.0
 11
3.838955269373018
 21
4.994808559706345
 31
0.0
  0
LINE
  5
46F
330
1F
100
AcDbEntity
  8
Object
100
AcDbLine
 10
3.838955269373018
 20
4.994808559706345
 30
0.0
 11
3.851955269373018
 21
4.994808559706345
 31
0.0
  0
LINE
  5
470
330
1F
100
AcDbEntity
  8
Object
100
AcDbLine
 10
3.851955269373018
 20
4.994808559706345
 30
0.0
 11
3.866955269373018
 21
4.994808559706345
 31
0.0
  0
LINE
  5
471
330
1F
100
AcDbEntity
  8
Object
100
AcDbLine
 10
3.866955269373018
 20
4.994808559706345
 30
0.0
 11
3.976955269373018
 21
4.994808559706345
 31
0.0
  0
LINE
  5
472
330
1F
100
AcDbEntity
  8
Object
100
AcDbLine
 10
1.836955269373017
 20
4.994808559706345
 30
0.0
 11
1.946955269373017
 21
4.994808559706345
 31
0.0
  0
LINE
  5
473
330
1F
100
AcDbEntity
  8
Object
100
AcDbLine
 10
1.946955269373017
 20
4.994808559706345
 30
0.0
 11
1.962955269373017
 21
4.994808559706345
 31
0.0
  0
LINE
  5
474
330
1F
100
AcDbEntity
  8
Object
100
AcDbLine
 10
1.962955269373017
 20
4.994808559706345
 30
0.0
 11
1.975955269373018
 21
4.994808559706345
 31
0.0
  0
LINE
  5
475
330
1F
100
AcDbEntity
  8
Object
100
AcDbLine
 10
1.975955269373018
 20
4.994808559706345
 30
0.0
 11
1.983955269373018
 21
4.994808559706345
 31
0.0
  0
LINE
  5
476
330
1F
100
AcDbEntity
  8
Object
100
AcDbLine
 10
1.983955269373018
 20
4.994808559706345
 30
0.0
 11
1.986955269373018
 21
4.994808559706345
 31
0.0
  0
LINE
  5
477
330
1F
100
AcDbEntity
  8
Object
100
AcDbLine
 10
2.906955269373018
 20
7.448808559706344
 30
0.0
 11
2.955955269373018
 21
7.444808559706344
 31
0.0
  0
LINE
  5
478
330
1F
100
AcDbEntity
  8
Object
100
AcDbLine
 10
2.955955269373018
 20
7.444808559706344
 30
0.0
 11
3.002955269373018
 21
7.433808559706344
 31
0.0
  0
LINE
  5
479
330
1F
100
AcDbEntity
  8
Object
100
AcDbLine
 10
3.002955269373018
 20
7.433808559706344
 30
0.0
 11
3.047955269373018
 21
7.416808559706344
 31
0.0
  0
LINE
  5
47A
330
1F
100
AcDbEntity
  8
Object
100
AcDbLine
 10
3.047955269373018
 20
7.416808559706344
 30
0.0
 11
3.090955269373018
 21
7.391808559706344
 31
0.0
  0
LINE
  5
47B
330
1F
100
AcDbEntity
  8
Object
100
AcDbLine
 10
3.090955269373018
 20
7.391808559706344
 30
0.0
 11
3.127955269373018
 21
7.361808559706344
 31
0.0
  0
LINE
  5
47C
330
1F
100
AcDbEntity
  8
Object
100
AcDbLine
 10
3.127955269373018
 20
7.361808559706344
 30
0.0
 11
3.161955269373017
 21
7.325808559706344
 31
0.0
  0
LINE
  5
47D
330
1F
100
AcDbEntity
  8
Object
100
AcDbLine
 10
3.161955269373017
 20
7.325808559706344
 30
0.0
 11
3.188955269373018
 21
7.285808559706344
 31
0.0
  0
LINE
  5
47E
330
1F
100
AcDbEntity
  8
Object
100
AcDbLine
 10
3.188955269373018
 20
7.285808559706344
 30
0.0
 11
3.209955269373018
 21
7.241808559706345
 31
0.0
  0
LINE
  5
47F
330
1F
100
AcDbEntity
  8
Object
100
AcDbLine
 10
3.209955269373018
 20
7.241808559706345
 30
0.0
 11
3.223955269373018
 21
7.195808559706344
 31
0.0
  0
LINE
  5
480
330
1F
100
AcDbEntity
  8
Object
100
AcDbLine
 10
3.223955269373018
 20
7.195808559706344
 30
0.0
 11
3.231955269373018
 21
7.147808559706344
 31
0.0
  0
LINE
  5
481
330
1F
100
AcDbEntity
  8
Object
100
AcDbLine
 10
3.231955269373018
 20
7.147808559706344
 30
0.0
 11
3.231955269373018
 21
7.098808559706344
 31
0.0
  0
LINE
  5
482
330
1F
100
AcDbEntity
  8
Object
100
AcDbLine
 10
3.231955269373018
 20
7.098808559706344
 30
0.0
 11
3.223955269373018
 21
7.050808559706344
 31
0.0
  0
LINE
  5
483
330
1F
100
AcDbEntity
  8
Object
100
AcDbLine
 10
3.223955269373018
 20
7.050808559706344
 30
0.0
 11
3.209955269373018
 21
7.004808559706344
 31
0.0
  0
LINE
  5
484
330
1F
100
AcDbEntity
  8
Object
100
AcDbLine
 10
3.209955269373018
 20
7.004808559706344
 30
0.0
 11
3.188955269373018
 21
6.960808559706344
 31
0.0
  0
LINE
  5
485
330
1F
100
AcDbEntity
  8
Object
100
AcDbLine
 10
3.188955269373018
 20
6.960808559706344
 30
0.0
 11
3.161955269373017
 21
6.920808559706344
 31
0.0
  0
LINE
  5
486
330
1F
100
AcDbEntity
  8
Object
100
AcDbLine
 10
3.161955269373017
 20
6.920808559706344
 30
0.0
 11
3.127955269373018
 21
6.884808559706344
 31
0.0
  0
LINE
  5
487
330
1F
100
AcDbEntity
  8
Object
100
AcDbLine
 10
3.127955269373018
 20
6.884808559706344
 30
0.0
 11
3.090955269373018
 21
6.854808559706344
 31
0.0
  0
LINE
  5
488
330
1F
100
AcDbEntity
  8
Object
100
AcDbLine
 10
3.090955269373018
 20
6.854808559706344
 30
0.0
 11
3.047955269373018
 21
6.830808559706344
 31
0.0
  0
LINE
  5
489
330
1F
100
AcDbEntity
  8
Object
100
AcDbLine
 10
3.047955269373018
 20
6.830808559706344
 30
0.0
 11
3.002955269373018
 21
6.812808559706344
 31
0.0
  0
LINE
  5
48A
330
1F
100
AcDbEntity
  8
Object
100
AcDbLine
 10
3.002955269373018
 20
6.812808559706344
 30
0.0
 11
2.955955269373018
 21
6.801808559706344
 31
0.0
  0
LINE
  5
48B
330
1F
100
AcDbEntity
  8
Object
100
AcDbLine
 10
2.955955269373018
 20
6.801808559706344
 30
0.0
 11
2.906955269373018
 21
6.798808559706344
 31
0.0
  0
LINE
  5
48C
330
1F
100
AcDbEntity
  8
Object
100
AcDbLine
 10
3.786955269373017
 20
7.810808559706345
 30
0.0
 11
2.026955269373017
 21
7.810808559706345
 31
0.0
  0
LINE
  5
48D
330
1F
100
AcDbEntity
  8
Object
100
AcDbLine
 10
2.026955269373017
 20
6.435808559706345
 30
0.0
 11
3.786955269373017
 21
6.435808559706345
 31
0.0
  0
LINE
  5
48E
330
1F
100
AcDbEntity
  8
Object
100
AcDbLine
 10
2.906955269373018
 20
7.448808559706344
 30
0.0
 11
2.858955269373018
 21
7.444808559706344
 31
0.0
  0
LINE
  5
48F
330
1F
100
AcDbEntity
  8
Object
100
AcDbLine
 10
2.858955269373018
 20
7.444808559706344
 30
0.0
 11
2.811955269373018
 21
7.433808559706345
 31
0.0
  0
LINE
  5
490
330
1F
100
AcDbEntity
  8
Object
100
AcDbLine
 10
2.811955269373018
 20
7.433808559706345
 30
0.0
 11
2.765955269373018
 21
7.416808559706345
 31
0.0
  0
LINE
  5
491
330
1F
100
AcDbEntity
  8
Object
100
AcDbLine
 10
2.765955269373018
 20
7.416808559706345
 30
0.0
 11
2.723955269373018
 21
7.391808559706345
 31
0.0
  0
LINE
  5
492
330
1F
100
AcDbEntity
  8
Object
100
AcDbLine
 10
2.723955269373018
 20
7.391808559706345
 30
0.0
 11
2.685955269373017
 21
7.361808559706345
 31
0.0
  0
LINE
  5
493
330
1F
100
AcDbEntity
  8
Object
100
AcDbLine
 10
2.685955269373017
 20
7.361808559706345
 30
0.0
 11
2.652955269373017
 21
7.325808559706345
 31
0.0
  0
LINE
  5
494
330
1F
100
AcDbEntity
  8
Object
100
AcDbLine
 10
2.652955269373017
 20
7.325808559706345
 30
0.0
 11
2.625955269373018
 21
7.285808559706345
 31
0.0
  0
LINE
  5
495
330
1F
100
AcDbEntity
  8
Object
100
AcDbLine
 10
2.625955269373018
 20
7.285808559706345
 30
0.0
 11
2.604955269373018
 21
7.241808559706345
 31
0.0
  0
LINE
  5
496
330
1F
100
AcDbEntity
  8
Object
100
AcDbLine
 10
2.604955269373018
 20
7.241808559706345
 30
0.0
 11
2.590955269373018
 21
7.195808559706345
 31
0.0
  0
LINE
  5
497
330
1F
100
AcDbEntity
  8
Object
100
AcDbLine
 10
2.590955269373018
 20
7.195808559706345
 30
0.0
 11
2.582955269373018
 21
7.147808559706345
 31
0.0
  0
LINE
  5
498
330
1F
100
AcDbEntity
  8
Object
100
AcDbLine
 10
2.582955269373018
 20
7.147808559706345
 30
0.0
 11
2.582955269373018
 21
7.098808559706345
 31
0.0
  0
LINE
  5
499
330
1F
100
AcDbEntity
  8
Object
100
AcDbLine
 10
2.582955269373018
 20
7.098808559706345
 30
0.0
 11
2.590955269373018
 21
7.050808559706345
 31
0.0
  0
LINE
  5
49A
330
1F
100
AcDbEntity
  8
Object
100
AcDbLine
 10
2.590955269373018
 20
7.050808559706345
 30
0.0
 11
2.604955269373018
 21
7.004808559706345
 31
0.0
  0
LINE
  5
49B
330
1F
100
AcDbEntity
  8
Object
100
AcDbLine
 10
2.604955269373018
 20
7.004808559706345
 30
0.0
 11
2.625955269373018
 21
6.960808559706345
 31
0.0
  0
LINE
  5
49C
330
1F
100
AcDbEntity
  8
Object
100
AcDbLine
 10
2.625955269373018
 20
6.960808559706345
 30
0.0
 11
2.652955269373017
 21
6.920808559706345
 31
0.0
  0
LINE
  5
49D
330
1F
100
AcDbEntity
  8
Object
100
AcDbLine
 10
2.652955269373017
 20
6.920808559706345
 30
0.0
 11
2.685955269373017
 21
6.884808559706345
 31
0.0
  0
LINE
  5
49E
330
1F
100
AcDbEntity
  8
Object
100
AcDbLine
 10
2.685955269373017
 20
6.884808559706345
 30
0.0
 11
2.723955269373018
 21
6.854808559706345
 31
0.0
  0
LINE
  5
49F
330
1F
100
AcDbEntity
  8
Object
100
AcDbLine
 10
2.723955269373018
 20
6.854808559706345
 30
0.0
 11
2.765955269373018
 21
6.830808559706345
 31
0.0
  0
LINE
  5
4A0
330
1F
100
AcDbEntity
  8
Object
100
AcDbLine
 10
2.765955269373018
 20
6.830808559706345
 30
0.0
 11
2.811955269373018
 21
6.812808559706345
 31
0.0
  0
LINE
  5
4A1
330
1F
100
AcDbEntity
  8
Object
100
AcDbLine
 10
2.811955269373018
 20
6.812808559706345
 30
0.0
 11
2.858955269373018
 21
6.801808559706344
 31
0.0
  0
LINE
  5
4A2
330
1F
100
AcDbEntity
  8
Object
100
AcDbLine
 10
2.858955269373018
 20
6.801808559706344
 30
0.0
 11
2.906955269373018
 21
6.798808559706344
 31
0.0
  0
LINE
  5
4A3
330
1F
100
AcDbEntity
  8
Object
100
AcDbLine
 10
3.786955269373017
 20
7.810808559706345
 30
0.0
 11
2.026955269373017
 21
7.810808559706345
 31
0.0
  0
LINE
  5
4A4
330
1F
100
AcDbEntity
  8
Object
100
AcDbLine
 10
2.858955269373018
 20
7.444808559706344
 30
0.0
 11
2.906955269373018
 21
7.448808559706344
 31
0.0
  0
LINE
  5
4A5
330
1F
100
AcDbEntity
  8
Object
100
AcDbLine
 10
2.906955269373018
 20
7.448808559706344
 30
0.0
 11
2.955955269373018
 21
7.444808559706344
 31
0.0
  0
LINE
  5
4A6
330
1F
100
AcDbEntity
  8
Object
100
AcDbLine
 10
2.811955269373018
 20
7.433808559706345
 30
0.0
 11
2.858955269373018
 21
7.444808559706344
 31
0.0
  0
LINE
  5
4A7
330
1F
100
AcDbEntity
  8
Object
100
AcDbLine
 10
2.955955269373018
 20
7.444808559706344
 30
0.0
 11
3.002955269373018
 21
7.433808559706344
 31
0.0
  0
LINE
  5
4A8
330
1F
100
AcDbEntity
  8
Object
100
AcDbLine
 10
2.765955269373018
 20
7.416808559706345
 30
0.0
 11
2.811955269373018
 21
7.433808559706345
 31
0.0
  0
LINE
  5
4A9
330
1F
100
AcDbEntity
  8
Object
100
AcDbLine
 10
3.002955269373018
 20
7.433808559706344
 30
0.0
 11
3.047955269373018
 21
7.416808559706344
 31
0.0
  0
LINE
  5
4AA
330
1F
100
AcDbEntity
  8
Object
100
AcDbLine
 10
2.723955269373018
 20
7.391808559706345
 30
0.0
 11
2.765955269373018
 21
7.416808559706345
 31
0.0
  0
LINE
  5
4AB
330
1F
100
AcDbEntity
  8
Object
100
AcDbLine
 10
3.047955269373018
 20
7.416808559706344
 30
0.0
 11
3.090955269373018
 21
7.391808559706344
 31
0.0
  0
LINE
  5
4AC
330
1F
100
AcDbEntity
  8
Object
100
AcDbLine
 10
2.685955269373017
 20
7.361808559706345
 30
0.0
 11
2.723955269373018
 21
7.391808559706345
 31
0.0
  0
LINE
  5
4AD
330
1F
100
AcDbEntity
  8
Object
100
AcDbLine
 10
3.090955269373018
 20
7.391808559706344
 30
0.0
 11
3.127955269373018
 21
7.361808559706344
 31
0.0
  0
LINE
  5
4AE
330
1F
100
AcDbEntity
  8
Object
100
AcDbLine
 10
2.652955269373017
 20
7.325808559706345
 30
0.0
 11
2.685955269373017
 21
7.361808559706345
 31
0.0
  0
LINE
  5
4AF
330
1F
100
AcDbEntity
  8
Object
100
AcDbLine
 10
3.127955269373018
 20
7.361808559706344
 30
0.0
 11
3.161955269373017
 21
7.325808559706344
 31
0.0
  0
LINE
  5
4B0
330
1F
100
AcDbEntity
  8
Object
100
AcDbLine
 10
2.625955269373018
 20
7.285808559706345
 30
0.0
 11
2.652955269373017
 21
7.325808559706345
 31
0.0
  0
LINE
  5
4B1
330
1F
100
AcDbEntity
  8
Object
100
AcDbLine
 10
3.161955269373017
 20
7.325808559706344
 30
0.0
 11
3.188955269373018
 21
7.285808559706344
 31
0.0
  0
LINE
  5
4B2
330
1F
100
AcDbEntity
  8
Object
100
AcDbLine
 10
2.604955269373018
 20
7.241808559706345
 30
0.0
 11
2.625955269373018
 21
7.285808559706345
 31
0.0
  0
LINE
  5
4B3
330
1F
100
AcDbEntity
  8
Object
100
AcDbLine
 10
3.188955269373018
 20
7.285808559706344
 30
0.0
 11
3.209955269373018
 21
7.241808559706345
 31
0.0
  0
LINE
  5
4B4
330
1F
100
AcDbEntity
  8
Object
100
AcDbLine
 10
2.590955269373018
 20
7.195808559706345
 30
0.0
 11
2.604955269373018
 21
7.241808559706345
 31
0.0
  0
LINE
  5
4B5
330
1F
100
AcDbEntity
  8
Object
100
AcDbLine
 10
3.209955269373018
 20
7.241808559706345
 30
0.0
 11
3.223955269373018
 21
7.195808559706344
 31
0.0
  0
LINE
  5
4B6
330
1F
100
AcDbEntity
  8
Object
100
AcDbLine
 10
2.582955269373018
 20
7.147808559706345
 30
0.0
 11
2.590955269373018
 21
7.195808559706345
 31
0.0
  0
LINE
  5
4B7
330
1F
100
AcDbEntity
  8
Object
100
AcDbLine
 10
3.223955269373018
 20
7.195808559706344
 30
0.0
 11
3.231955269373018
 21
7.147808559706344
 31
0.0
  0
LINE
  5
4B8
330
1F
100
AcDbEntity
  8
Object
100
AcDbLine
 10
2.582955269373018
 20
7.147808559706345
 30
0.0
 11
2.582955269373018
 21
7.098808559706345
 31
0.0
  0
LINE
  5
4B9
330
1F
100
AcDbEntity
  8
Object
100
AcDbLine
 10
2.582955269373018
 20
7.098808559706345
 30
0.0
 11
2.590955269373018
 21
7.050808559706345
 31
0.0
  0
LINE
  5
4BA
330
1F
100
AcDbEntity
  8
Object
100
AcDbLine
 10
2.590955269373018
 20
7.050808559706345
 30
0.0
 11
2.604955269373018
 21
7.004808559706345
 31
0.0
  0
LINE
  5
4BB
330
1F
100
AcDbEntity
  8
Object
100
AcDbLine
 10
2.604955269373018
 20
7.004808559706345
 30
0.0
 11
2.625955269373018
 21
6.960808559706345
 31
0.0
  0
LINE
  5
4BC
330
1F
100
AcDbEntity
  8
Object
100
AcDbLine
 10
2.625955269373018
 20
6.960808559706345
 30
0.0
 11
2.652955269373017
 21
6.920808559706345
 31
0.0
  0
LINE
  5
4BD
330
1F
100
AcDbEntity
  8
Object
100
AcDbLine
 10
2.652955269373017
 20
6.920808559706345
 30
0.0
 11
2.685955269373017
 21
6.884808559706345
 31
0.0
  0
LINE
  5
4BE
330
1F
100
AcDbEntity
  8
Object
100
AcDbLine
 10
2.685955269373017
 20
6.884808559706345
 30
0.0
 11
2.723955269373018
 21
6.854808559706345
 31
0.0
  0
LINE
  5
4BF
330
1F
100
AcDbEntity
  8
Object
100
AcDbLine
 10
2.723955269373018
 20
6.854808559706345
 30
0.0
 11
2.765955269373018
 21
6.830808559706345
 31
0.0
  0
LINE
  5
4C0
330
1F
100
AcDbEntity
  8
Object
100
AcDbLine
 10
2.765955269373018
 20
6.830808559706345
 30
0.0
 11
2.811955269373018
 21
6.812808559706345
 31
0.0
  0
LINE
  5
4C1
330
1F
100
AcDbEntity
  8
Object
100
AcDbLine
 10
2.811955269373018
 20
6.812808559706345
 30
0.0
 11
2.858955269373018
 21
6.801808559706344
 31
0.0
  0
LINE
  5
4C2
330
1F
100
AcDbEntity
  8
Object
100
AcDbLine
 10
2.858955269373018
 20
6.801808559706344
 30
0.0
 11
2.906955269373018
 21
6.798808559706344
 31
0.0
  0
LINE
  5
4C3
330
1F
100
AcDbEntity
  8
Object
100
AcDbLine
 10
2.026955269373017
 20
7.810808559706345
 30
0.0
 11
2.026955269373017
 21
6.435808559706345
 31
0.0
  0
LINE
  5
4C4
330
1F
100
AcDbEntity
  8
Object
100
AcDbLine
 10
2.906955269373018
 20
6.798808559706344
 30
0.0
 11
2.955955269373018
 21
6.801808559706344
 31
0.0
  0
LINE
  5
4C5
330
1F
100
AcDbEntity
  8
Object
100
AcDbLine
 10
2.955955269373018
 20
6.801808559706344
 30
0.0
 11
3.002955269373018
 21
6.812808559706344
 31
0.0
  0
LINE
  5
4C6
330
1F
100
AcDbEntity
  8
Object
100
AcDbLine
 10
3.002955269373018
 20
6.812808559706344
 30
0.0
 11
3.047955269373018
 21
6.830808559706344
 31
0.0
  0
LINE
  5
4C7
330
1F
100
AcDbEntity
  8
Object
100
AcDbLine
 10
3.047955269373018
 20
6.830808559706344
 30
0.0
 11
3.090955269373018
 21
6.854808559706344
 31
0.0
  0
LINE
  5
4C8
102
{ACAD_REACTORS
330
681
102
}
330
1F
100
AcDbEntity
  8
Object
100
AcDbLine
 10
3.090955269373018
 20
6.854808559706344
 30
0.0
 11
3.127955269373018
 21
6.884808559706344
 31
0.0
  0
LINE
  5
4C9
330
1F
100
AcDbEntity
  8
Object
100
AcDbLine
 10
3.127955269373018
 20
6.884808559706344
 30
0.0
 11
3.161955269373017
 21
6.920808559706344
 31
0.0
  0
LINE
  5
4CA
330
1F
100
AcDbEntity
  8
Object
100
AcDbLine
 10
3.161955269373017
 20
6.920808559706344
 30
0.0
 11
3.188955269373018
 21
6.960808559706344
 31
0.0
  0
LINE
  5
4CB
330
1F
100
AcDbEntity
  8
Object
100
AcDbLine
 10
3.188955269373018
 20
6.960808559706344
 30
0.0
 11
3.209955269373018
 21
7.004808559706344
 31
0.0
  0
LINE
  5
4CC
330
1F
100
AcDbEntity
  8
Object
100
AcDbLine
 10
3.209955269373018
 20
7.004808559706344
 30
0.0
 11
3.223955269373018
 21
7.050808559706344
 31
0.0
  0
LINE
  5
4CD
330
1F
100
AcDbEntity
  8
Object
100
AcDbLine
 10
3.223955269373018
 20
7.050808559706344
 30
0.0
 11
3.231955269373018
 21
7.098808559706344
 31
0.0
  0
LINE
  5
4CE
330
1F
100
AcDbEntity
  8
Object
100
AcDbLine
 10
3.231955269373018
 20
7.098808559706344
 30
0.0
 11
3.231955269373018
 21
7.147808559706344
 31
0.0
  0
LINE
  5
4CF
330
1F
100
AcDbEntity
  8
Object
100
AcDbLine
 10
3.786955269373017
 20
7.810808559706345
 30
0.0
 11
3.786955269373017
 21
6.435808559706345
 31
0.0
  0
LINE
  5
4D0
330
1F
100
AcDbEntity
  8
Object
100
AcDbLine
 10
3.786955269373017
 20
6.435808559706345
 30
0.0
 11
2.026955269373017
 21
6.435808559706345
 31
0.0
  0
LINE
  5
4D1
330
1F
100
AcDbEntity
  8
Object
100
AcDbLine
 10
3.815955269373017
 20
7.810808559706345
 30
0.0
 11
3.823955269373017
 21
7.810808559706345
 31
0.0
  0
LINE
  5
4D2
330
1F
100
AcDbEntity
  8
Object
100
AcDbLine
 10
3.823955269373017
 20
7.810808559706345
 30
0.0
 11
3.826955269373017
 21
7.810808559706345
 31
0.0
  0
LINE
  5
4D3
330
1F
100
AcDbEntity
  8
Object
100
AcDbLine
 10
3.815955269373017
 20
7.810808559706345
 30
0.0
 11
3.802955269373017
 21
7.810808559706345
 31
0.0
  0
LINE
  5
4D4
330
1F
100
AcDbEntity
  8
Object
100
AcDbLine
 10
3.802955269373017
 20
7.810808559706345
 30
0.0
 11
3.786955269373017
 21
7.810808559706345
 31
0.0
  0
LINE
  5
4D5
330
1F
100
AcDbEntity
  8
Object
100
AcDbLine
 10
2.011955269373018
 20
7.810808559706345
 30
0.0
 11
1.998955269373018
 21
7.810808559706345
 31
0.0
  0
LINE
  5
4D6
330
1F
100
AcDbEntity
  8
Object
100
AcDbLine
 10
1.986955269373018
 20
7.810808559706345
 30
0.0
 11
1.989955269373018
 21
7.810808559706345
 31
0.0
  0
LINE
  5
4D7
330
1F
100
AcDbEntity
  8
Object
100
AcDbLine
 10
1.989955269373018
 20
7.810808559706345
 30
0.0
 11
1.998955269373018
 21
7.810808559706345
 31
0.0
  0
LINE
  5
4D8
330
1F
100
AcDbEntity
  8
Object
100
AcDbLine
 10
2.026955269373017
 20
7.810808559706345
 30
0.0
 11
2.011955269373018
 21
7.810808559706345
 31
0.0
  0
LINE
  5
4D9
330
1F
100
AcDbEntity
  8
Object
100
AcDbLine
 10
1.998955269373018
 20
6.435808559706345
 30
0.0
 11
1.989955269373018
 21
6.435808559706345
 31
0.0
  0
LINE
  5
4DA
330
1F
100
AcDbEntity
  8
Object
100
AcDbLine
 10
1.989955269373018
 20
6.435808559706345
 30
0.0
 11
1.986955269373018
 21
6.435808559706345
 31
0.0
  0
LINE
  5
4DB
330
1F
100
AcDbEntity
  8
Object
100
AcDbLine
 10
1.998955269373018
 20
6.435808559706345
 30
0.0
 11
2.011955269373018
 21
6.435808559706345
 31
0.0
  0
LINE
  5
4DC
330
1F
100
AcDbEntity
  8
Object
100
AcDbLine
 10
2.011955269373018
 20
6.435808559706345
 30
0.0
 11
2.026955269373017
 21
6.435808559706345
 31
0.0
  0
LINE
  5
4DD
330
1F
100
AcDbEntity
  8
Object
100
AcDbLine
 10
3.802955269373017
 20
6.435808559706345
 30
0.0
 11
3.815955269373017
 21
6.435808559706345
 31
0.0
  0
LINE
  5
4DE
330
1F
100
AcDbEntity
  8
Object
100
AcDbLine
 10
3.826955269373017
 20
6.435808559706345
 30
0.0
 11
3.823955269373017
 21
6.435808559706345
 31
0.0
  0
LINE
  5
4DF
330
1F
100
AcDbEntity
  8
Object
100
AcDbLine
 10
3.823955269373017
 20
6.435808559706345
 30
0.0
 11
3.815955269373017
 21
6.435808559706345
 31
0.0
  0
LINE
  5
4E0
330
1F
100
AcDbEntity
  8
Object
100
AcDbLine
 10
3.786955269373017
 20
6.435808559706345
 30
0.0
 11
3.802955269373017
 21
6.435808559706345
 31
0.0
  0
LINE
  5
4E1
330
1F
100
AcDbEntity
  8
Object
100
AcDbLine
 10
1.881955269373017
 20
7.560808559706345
 30
0.0
 11
1.881955269373017
 21
7.500808559706345
 31
0.0
  0
LINE
  5
4E2
330
1F
100
AcDbEntity
  8
Object
100
AcDbLine
 10
1.881955269373017
 20
7.500808559706345
 30
0.0
 11
1.881955269373017
 21
7.497808559706345
 31
0.0
  0
LINE
  5
4E3
330
1F
100
AcDbEntity
  8
Object
100
AcDbLine
 10
1.881955269373017
 20
7.497808559706345
 30
0.0
 11
1.881955269373017
 21
7.488808559706345
 31
0.0
  0
LINE
  5
4E4
330
1F
100
AcDbEntity
  8
Object
100
AcDbLine
 10
1.881955269373017
 20
7.488808559706345
 30
0.0
 11
1.881955269373017
 21
7.475808559706345
 31
0.0
  0
LINE
  5
4E5
330
1F
100
AcDbEntity
  8
Object
100
AcDbLine
 10
1.881955269373017
 20
7.475808559706345
 30
0.0
 11
1.881955269373017
 21
7.460808559706345
 31
0.0
  0
LINE
  5
4E6
330
1F
100
AcDbEntity
  8
Object
100
AcDbLine
 10
1.881955269373017
 20
7.460808559706345
 30
0.0
 11
1.881955269373017
 21
6.475808559706345
 31
0.0
  0
LINE
  5
4E7
330
1F
100
AcDbEntity
  8
Object
100
AcDbLine
 10
1.881955269373017
 20
6.475808559706345
 30
0.0
 11
1.881955269373017
 21
6.460808559706345
 31
0.0
  0
LINE
  5
4E8
330
1F
100
AcDbEntity
  8
Object
100
AcDbLine
 10
1.881955269373017
 20
6.460808559706345
 30
0.0
 11
1.881955269373017
 21
6.447808559706345
 31
0.0
  0
LINE
  5
4E9
330
1F
100
AcDbEntity
  8
Object
100
AcDbLine
 10
1.881955269373017
 20
6.447808559706345
 30
0.0
 11
1.881955269373017
 21
6.438808559706346
 31
0.0
  0
LINE
  5
4EA
330
1F
100
AcDbEntity
  8
Object
100
AcDbLine
 10
1.881955269373017
 20
6.438808559706346
 30
0.0
 11
1.881955269373017
 21
6.435808559706345
 31
0.0
  0
LINE
  5
4EB
330
1F
100
AcDbEntity
  8
Object
100
AcDbLine
 10
3.931955269373018
 20
7.560808559706345
 30
0.0
 11
3.931955269373018
 21
7.500808559706344
 31
0.0
  0
LINE
  5
4EC
330
1F
100
AcDbEntity
  8
Object
100
AcDbLine
 10
3.931955269373018
 20
7.500808559706344
 30
0.0
 11
3.931955269373018
 21
7.497808559706344
 31
0.0
  0
LINE
  5
4ED
330
1F
100
AcDbEntity
  8
Object
100
AcDbLine
 10
3.931955269373018
 20
7.497808559706344
 30
0.0
 11
3.931955269373018
 21
7.488808559706344
 31
0.0
  0
LINE
  5
4EE
330
1F
100
AcDbEntity
  8
Object
100
AcDbLine
 10
3.931955269373018
 20
7.488808559706344
 30
0.0
 11
3.931955269373018
 21
7.475808559706345
 31
0.0
  0
LINE
  5
4EF
330
1F
100
AcDbEntity
  8
Object
100
AcDbLine
 10
3.931955269373018
 20
7.475808559706345
 30
0.0
 11
3.931955269373018
 21
7.460808559706344
 31
0.0
  0
LINE
  5
4F0
330
1F
100
AcDbEntity
  8
Object
100
AcDbLine
 10
3.931955269373018
 20
7.460808559706344
 30
0.0
 11
3.931955269373018
 21
6.475808559706345
 31
0.0
  0
LINE
  5
4F1
330
1F
100
AcDbEntity
  8
Object
100
AcDbLine
 10
3.931955269373018
 20
6.475808559706345
 30
0.0
 11
3.931955269373018
 21
6.460808559706344
 31
0.0
  0
LINE
  5
4F2
330
1F
100
AcDbEntity
  8
Object
100
AcDbLine
 10
3.931955269373018
 20
6.460808559706344
 30
0.0
 11
3.931955269373018
 21
6.447808559706344
 31
0.0
  0
LINE
  5
4F3
330
1F
100
AcDbEntity
  8
Object
100
AcDbLine
 10
3.931955269373018
 20
6.447808559706344
 30
0.0
 11
3.931955269373018
 21
6.438808559706345
 31
0.0
  0
LINE
  5
4F4
330
1F
100
AcDbEntity
  8
Object
100
AcDbLine
 10
3.931955269373018
 20
6.438808559706345
 30
0.0
 11
3.931955269373018
 21
6.435808559706345
 31
0.0
  0
LINE
  5
4F5
330
1F
100
AcDbEntity
  8
Object
100
AcDbLine
 10
3.802955269373017
 20
6.435808559706345
 30
0.0
 11
3.815955269373017
 21
6.435808559706345
 31
0.0
  0
LINE
  5
4F6
330
1F
100
AcDbEntity
  8
Object
100
AcDbLine
 10
3.802955269373017
 20
7.810808559706345
 30
0.0
 11
3.815955269373017
 21
7.810808559706345
 31
0.0
  0
LINE
  5
4F7
330
1F
100
AcDbEntity
  8
Object
100
AcDbLine
 10
3.815955269373017
 20
7.810808559706345
 30
0.0
 11
3.823955269373017
 21
7.810808559706345
 31
0.0
  0
LINE
  5
4F8
330
1F
100
AcDbEntity
  8
Object
100
AcDbLine
 10
3.823955269373017
 20
7.810808559706345
 30
0.0
 11
3.826955269373017
 21
7.810808559706345
 31
0.0
  0
LINE
  5
4F9
330
1F
100
AcDbEntity
  8
Object
100
AcDbLine
 10
3.826955269373017
 20
6.435808559706345
 30
0.0
 11
3.823955269373017
 21
6.435808559706345
 31
0.0
  0
LINE
  5
4FA
330
1F
100
AcDbEntity
  8
Object
100
AcDbLine
 10
3.823955269373017
 20
6.435808559706345
 30
0.0
 11
3.815955269373017
 21
6.435808559706345
 31
0.0
  0
LINE
  5
4FB
330
1F
100
AcDbEntity
  8
Object
100
AcDbLine
 10
3.802955269373017
 20
7.810808559706345
 30
0.0
 11
3.786955269373017
 21
7.810808559706345
 31
0.0
  0
LINE
  5
4FC
330
1F
100
AcDbEntity
  8
Object
100
AcDbLine
 10
3.786955269373017
 20
6.435808559706345
 30
0.0
 11
3.802955269373017
 21
6.435808559706345
 31
0.0
  0
LINE
  5
4FD
330
1F
100
AcDbEntity
  8
Object
100
AcDbLine
 10
2.011955269373018
 20
7.810808559706345
 30
0.0
 11
1.998955269373018
 21
7.810808559706345
 31
0.0
  0
LINE
  5
4FE
330
1F
100
AcDbEntity
  8
Object
100
AcDbLine
 10
2.011955269373018
 20
6.435808559706345
 30
0.0
 11
1.998955269373018
 21
6.435808559706345
 31
0.0
  0
LINE
  5
4FF
330
1F
100
AcDbEntity
  8
Object
100
AcDbLine
 10
1.998955269373018
 20
6.435808559706345
 30
0.0
 11
1.989955269373018
 21
6.435808559706345
 31
0.0
  0
LINE
  5
500
330
1F
100
AcDbEntity
  8
Object
100
AcDbLine
 10
1.989955269373018
 20
6.435808559706345
 30
0.0
 11
1.986955269373018
 21
6.435808559706345
 31
0.0
  0
LINE
  5
501
330
1F
100
AcDbEntity
  8
Object
100
AcDbLine
 10
1.986955269373018
 20
7.810808559706345
 30
0.0
 11
1.989955269373018
 21
7.810808559706345
 31
0.0
  0
LINE
  5
502
330
1F
100
AcDbEntity
  8
Object
100
AcDbLine
 10
1.989955269373018
 20
7.810808559706345
 30
0.0
 11
1.998955269373018
 21
7.810808559706345
 31
0.0
  0
LINE
  5
503
330
1F
100
AcDbEntity
  8
Object
100
AcDbLine
 10
2.011955269373018
 20
6.435808559706345
 30
0.0
 11
2.026955269373017
 21
6.435808559706345
 31
0.0
  0
LINE
  5
504
330
1F
100
AcDbEntity
  8
Object
100
AcDbLine
 10
2.026955269373017
 20
7.810808559706345
 30
0.0
 11
2.011955269373018
 21
7.810808559706345
 31
0.0
  0
LINE
  5
505
330
1F
100
AcDbEntity
  8
Object
100
AcDbLine
 10
1.986955269373018
 20
7.497808559706345
 30
0.0
 11
1.986955269373018
 21
7.500808559706345
 31
0.0
  0
LINE
  5
506
330
1F
100
AcDbEntity
  8
Object
100
AcDbLine
 10
1.881955269373017
 20
7.497808559706345
 30
0.0
 11
1.881955269373017
 21
7.500808559706345
 31
0.0
  0
LINE
  5
507
330
1F
100
AcDbEntity
  8
Object
100
AcDbLine
 10
1.881955269373017
 20
7.500808559706345
 30
0.0
 11
1.986955269373018
 21
7.500808559706345
 31
0.0
  0
LINE
  5
508
330
1F
100
AcDbEntity
  8
Object
100
AcDbLine
 10
1.881955269373017
 20
7.497808559706345
 30
0.0
 11
1.881955269373017
 21
7.488808559706345
 31
0.0
  0
LINE
  5
509
330
1F
100
AcDbEntity
  8
Object
100
AcDbLine
 10
1.986955269373018
 20
7.497808559706345
 30
0.0
 11
1.986955269373018
 21
7.488808559706345
 31
0.0
  0
LINE
  5
50A
330
1F
100
AcDbEntity
  8
Object
100
AcDbLine
 10
1.986955269373018
 20
7.488808559706345
 30
0.0
 11
1.986955269373018
 21
7.475808559706345
 31
0.0
  0
LINE
  5
50B
330
1F
100
AcDbEntity
  8
Object
100
AcDbLine
 10
1.881955269373017
 20
7.488808559706345
 30
0.0
 11
1.881955269373017
 21
7.475808559706345
 31
0.0
  0
LINE
  5
50C
330
1F
100
AcDbEntity
  8
Object
100
AcDbLine
 10
1.986955269373018
 20
7.460808559706345
 30
0.0
 11
1.986955269373018
 21
7.475808559706345
 31
0.0
  0
LINE
  5
50D
330
1F
100
AcDbEntity
  8
Object
100
AcDbLine
 10
1.881955269373017
 20
7.475808559706345
 30
0.0
 11
1.881955269373017
 21
7.460808559706345
 31
0.0
  0
LINE
  5
50E
330
1F
100
AcDbEntity
  8
Object
100
AcDbLine
 10
1.881955269373017
 20
7.460808559706345
 30
0.0
 11
1.986955269373018
 21
7.460808559706345
 31
0.0
  0
LINE
  5
50F
330
1F
100
AcDbEntity
  8
Object
100
AcDbLine
 10
1.986955269373018
 20
7.460808559706345
 30
0.0
 11
1.986955269373018
 21
6.475808559706345
 31
0.0
  0
LINE
  5
510
330
1F
100
AcDbEntity
  8
Object
100
AcDbLine
 10
1.881955269373017
 20
7.460808559706345
 30
0.0
 11
1.881955269373017
 21
6.475808559706345
 31
0.0
  0
LINE
  5
511
330
1F
100
AcDbEntity
  8
Object
100
AcDbLine
 10
1.881955269373017
 20
6.435808559706345
 30
0.0
 11
1.986955269373018
 21
6.435808559706345
 31
0.0
  0
LINE
  5
512
330
1F
100
AcDbEntity
  8
Object
100
AcDbLine
 10
1.986955269373018
 20
7.500808559706345
 30
0.0
 11
1.881955269373017
 21
7.500808559706345
 31
0.0
  0
LINE
  5
513
330
1F
100
AcDbEntity
  8
Object
100
AcDbLine
 10
1.881955269373017
 20
6.460808559706345
 30
0.0
 11
1.881955269373017
 21
6.475808559706345
 31
0.0
  0
LINE
  5
514
330
1F
100
AcDbEntity
  8
Object
100
AcDbLine
 10
1.881955269373017
 20
6.475808559706345
 30
0.0
 11
1.986955269373018
 21
6.475808559706345
 31
0.0
  0
LINE
  5
515
330
1F
100
AcDbEntity
  8
Object
100
AcDbLine
 10
1.986955269373018
 20
6.475808559706345
 30
0.0
 11
1.986955269373018
 21
6.460808559706345
 31
0.0
  0
LINE
  5
516
330
1F
100
AcDbEntity
  8
Object
100
AcDbLine
 10
1.881955269373017
 20
6.460808559706345
 30
0.0
 11
1.881955269373017
 21
6.447808559706345
 31
0.0
  0
LINE
  5
517
330
1F
100
AcDbEntity
  8
Object
100
AcDbLine
 10
1.986955269373018
 20
6.447808559706345
 30
0.0
 11
1.986955269373018
 21
6.460808559706345
 31
0.0
  0
LINE
  5
518
330
1F
100
AcDbEntity
  8
Object
100
AcDbLine
 10
1.881955269373017
 20
6.447808559706345
 30
0.0
 11
1.881955269373017
 21
6.438808559706346
 31
0.0
  0
LINE
  5
519
330
1F
100
AcDbEntity
  8
Object
100
AcDbLine
 10
1.986955269373018
 20
6.447808559706345
 30
0.0
 11
1.986955269373018
 21
6.438808559706346
 31
0.0
  0
LINE
  5
51A
330
1F
100
AcDbEntity
  8
Object
100
AcDbLine
 10
1.986955269373018
 20
6.438808559706346
 30
0.0
 11
1.986955269373018
 21
6.435808559706345
 31
0.0
  0
LINE
  5
51B
330
1F
100
AcDbEntity
  8
Object
100
AcDbLine
 10
1.986955269373018
 20
6.435808559706345
 30
0.0
 11
1.881955269373017
 21
6.435808559706345
 31
0.0
  0
LINE
  5
51C
330
1F
100
AcDbEntity
  8
Object
100
AcDbLine
 10
1.881955269373017
 20
6.435808559706345
 30
0.0
 11
1.881955269373017
 21
6.438808559706346
 31
0.0
  0
LINE
  5
51D
330
1F
100
AcDbEntity
  8
Object
100
AcDbLine
 10
1.881955269373017
 20
7.560808559706345
 30
0.0
 11
1.881955269373017
 21
7.500808559706345
 31
0.0
  0
LINE
  5
51E
330
1F
100
AcDbEntity
  8
Object
100
AcDbLine
 10
1.986955269373018
 20
7.500808559706345
 30
0.0
 11
1.986955269373018
 21
7.560808559706345
 31
0.0
  0
LINE
  5
51F
330
1F
100
AcDbEntity
  8
Object
100
AcDbLine
 10
3.931955269373018
 20
7.500808559706344
 30
0.0
 11
3.931955269373018
 21
7.560808559706345
 31
0.0
  0
LINE
  5
520
330
1F
100
AcDbEntity
  8
Object
100
AcDbLine
 10
3.826955269373017
 20
7.560808559706345
 30
0.0
 11
3.826955269373017
 21
7.500808559706344
 31
0.0
  0
LINE
  5
521
330
1F
100
AcDbEntity
  8
Object
100
AcDbLine
 10
3.826955269373017
 20
7.500808559706344
 30
0.0
 11
3.826955269373017
 21
7.497808559706344
 31
0.0
  0
LINE
  5
522
330
1F
100
AcDbEntity
  8
Object
100
AcDbLine
 10
3.826955269373017
 20
7.500808559706344
 30
0.0
 11
3.931955269373018
 21
7.500808559706344
 31
0.0
  0
LINE
  5
523
330
1F
100
AcDbEntity
  8
Object
100
AcDbLine
 10
3.931955269373018
 20
7.500808559706344
 30
0.0
 11
3.931955269373018
 21
7.497808559706344
 31
0.0
  0
LINE
  5
524
330
1F
100
AcDbEntity
  8
Object
100
AcDbLine
 10
3.826955269373017
 20
7.497808559706344
 30
0.0
 11
3.826955269373017
 21
7.488808559706344
 31
0.0
  0
LINE
  5
525
330
1F
100
AcDbEntity
  8
Object
100
AcDbLine
 10
3.931955269373018
 20
7.497808559706344
 30
0.0
 11
3.931955269373018
 21
7.488808559706344
 31
0.0
  0
LINE
  5
526
330
1F
100
AcDbEntity
  8
Object
100
AcDbLine
 10
3.931955269373018
 20
7.488808559706344
 30
0.0
 11
3.931955269373018
 21
7.475808559706345
 31
0.0
  0
LINE
  5
527
330
1F
100
AcDbEntity
  8
Object
100
AcDbLine
 10
3.826955269373017
 20
7.488808559706344
 30
0.0
 11
3.826955269373017
 21
7.475808559706345
 31
0.0
  0
LINE
  5
528
330
1F
100
AcDbEntity
  8
Object
100
AcDbLine
 10
3.931955269373018
 20
7.460808559706344
 30
0.0
 11
3.931955269373018
 21
7.475808559706345
 31
0.0
  0
LINE
  5
529
330
1F
100
AcDbEntity
  8
Object
100
AcDbLine
 10
3.826955269373017
 20
7.475808559706345
 30
0.0
 11
3.826955269373017
 21
7.460808559706344
 31
0.0
  0
LINE
  5
52A
330
1F
100
AcDbEntity
  8
Object
100
AcDbLine
 10
3.826955269373017
 20
7.460808559706344
 30
0.0
 11
3.826955269373017
 21
6.475808559706345
 31
0.0
  0
LINE
  5
52B
330
1F
100
AcDbEntity
  8
Object
100
AcDbLine
 10
3.826955269373017
 20
7.460808559706344
 30
0.0
 11
3.931955269373018
 21
7.460808559706344
 31
0.0
  0
LINE
  5
52C
330
1F
100
AcDbEntity
  8
Object
100
AcDbLine
 10
3.931955269373018
 20
7.460808559706344
 30
0.0
 11
3.931955269373018
 21
6.475808559706345
 31
0.0
  0
LINE
  5
52D
330
1F
100
AcDbEntity
  8
Object
100
AcDbLine
 10
3.826955269373017
 20
6.460808559706344
 30
0.0
 11
3.826955269373017
 21
6.475808559706345
 31
0.0
  0
LINE
  5
52E
330
1F
100
AcDbEntity
  8
Object
100
AcDbLine
 10
3.826955269373017
 20
6.475808559706345
 30
0.0
 11
3.931955269373018
 21
6.475808559706345
 31
0.0
  0
LINE
  5
52F
330
1F
100
AcDbEntity
  8
Object
100
AcDbLine
 10
3.931955269373018
 20
6.475808559706345
 30
0.0
 11
3.931955269373018
 21
6.460808559706344
 31
0.0
  0
LINE
  5
530
330
1F
100
AcDbEntity
  8
Object
100
AcDbLine
 10
3.826955269373017
 20
6.460808559706344
 30
0.0
 11
3.826955269373017
 21
6.447808559706344
 31
0.0
  0
LINE
  5
531
330
1F
100
AcDbEntity
  8
Object
100
AcDbLine
 10
3.931955269373018
 20
6.460808559706344
 30
0.0
 11
3.931955269373018
 21
6.447808559706344
 31
0.0
  0
LINE
  5
532
330
1F
100
AcDbEntity
  8
Object
100
AcDbLine
 10
3.931955269373018
 20
6.447808559706344
 30
0.0
 11
3.931955269373018
 21
6.438808559706345
 31
0.0
  0
LINE
  5
533
330
1F
100
AcDbEntity
  8
Object
100
AcDbLine
 10
3.826955269373017
 20
6.447808559706344
 30
0.0
 11
3.826955269373017
 21
6.438808559706345
 31
0.0
  0
LINE
  5
534
330
1F
100
AcDbEntity
  8
Object
100
AcDbLine
 10
3.826955269373017
 20
6.438808559706345
 30
0.0
 11
3.826955269373017
 21
6.435808559706345
 31
0.0
  0
LINE
  5
535
330
1F
100
AcDbEntity
  8
Object
100
AcDbLine
 10
3.931955269373018
 20
6.438808559706345
 30
0.0
 11
3.931955269373018
 21
6.435808559706345
 31
0.0
  0
LINE
  5
536
330
1F
100
AcDbEntity
  8
Object
100
AcDbLine
 10
3.931955269373018
 20
6.435808559706345
 30
0.0
 11
3.826955269373017
 21
6.435808559706345
 31
0.0
  0
LINE
  5
537
330
1F
100
AcDbEntity
  8
Object
100
AcDbLine
 10
3.826955269373017
 20
6.435808559706345
 30
0.0
 11
3.931955269373018
 21
6.435808559706345
 31
0.0
  0
LINE
  5
538
330
1F
100
AcDbEntity
  8
Object
100
AcDbLine
 10
3.931955269373018
 20
7.500808559706344
 30
0.0
 11
3.826955269373017
 21
7.500808559706344
 31
0.0
  0
LINE
  5
539
330
1F
100
AcDbEntity
  8
Object
100
AcDbLine
 10
3.826955269373017
 20
7.600808559706345
 30
0.0
 11
3.826955269373017
 21
7.560808559706345
 31
0.0
  0
LINE
  5
53A
330
1F
100
AcDbEntity
  8
Object
100
AcDbLine
 10
3.826955269373017
 20
7.810808559706345
 30
0.0
 11
3.826955269373017
 21
7.770808559706344
 31
0.0
  0
LINE
  5
53B
330
1F
100
AcDbEntity
  8
Object
100
AcDbLine
 10
3.826955269373017
 20
7.560808559706345
 30
0.0
 11
3.826955269373017
 21
7.500808559706344
 31
0.0
  0
LINE
  5
53C
330
1F
100
AcDbEntity
  8
Object
100
AcDbLine
 10
3.826955269373017
 20
7.500808559706344
 30
0.0
 11
3.826955269373017
 21
7.497808559706344
 31
0.0
  0
LINE
  5
53D
330
1F
100
AcDbEntity
  8
Object
100
AcDbLine
 10
3.826955269373017
 20
7.497808559706344
 30
0.0
 11
3.826955269373017
 21
7.488808559706344
 31
0.0
  0
LINE
  5
53E
330
1F
100
AcDbEntity
  8
Object
100
AcDbLine
 10
3.826955269373017
 20
7.488808559706344
 30
0.0
 11
3.826955269373017
 21
7.475808559706345
 31
0.0
  0
LINE
  5
53F
330
1F
100
AcDbEntity
  8
Object
100
AcDbLine
 10
3.826955269373017
 20
7.475808559706345
 30
0.0
 11
3.826955269373017
 21
7.460808559706344
 31
0.0
  0
LINE
  5
540
330
1F
100
AcDbEntity
  8
Object
100
AcDbLine
 10
3.826955269373017
 20
7.460808559706344
 30
0.0
 11
3.826955269373017
 21
6.475808559706345
 31
0.0
  0
LINE
  5
541
330
1F
100
AcDbEntity
  8
Object
100
AcDbLine
 10
3.826955269373017
 20
6.475808559706345
 30
0.0
 11
3.826955269373017
 21
6.460808559706344
 31
0.0
  0
LINE
  5
542
330
1F
100
AcDbEntity
  8
Object
100
AcDbLine
 10
3.826955269373017
 20
6.460808559706344
 30
0.0
 11
3.826955269373017
 21
6.447808559706344
 31
0.0
  0
LINE
  5
543
330
1F
100
AcDbEntity
  8
Object
100
AcDbLine
 10
3.826955269373017
 20
6.447808559706344
 30
0.0
 11
3.826955269373017
 21
6.438808559706345
 31
0.0
  0
LINE
  5
544
330
1F
100
AcDbEntity
  8
Object
100
AcDbLine
 10
3.826955269373017
 20
6.438808559706345
 30
0.0
 11
3.826955269373017
 21
6.435808559706345
 31
0.0
  0
LINE
  5
545
330
1F
100
AcDbEntity
  8
Object
100
AcDbLine
 10
1.986955269373018
 20
7.770808559706345
 30
0.0
 11
1.986955269373018
 21
7.810808559706345
 31
0.0
  0
LINE
  5
546
330
1F
100
AcDbEntity
  8
Object
100
AcDbLine
 10
1.986955269373018
 20
7.600808559706345
 30
0.0
 11
1.986955269373018
 21
7.560808559706345
 31
0.0
  0
LINE
  5
547
330
1F
100
AcDbEntity
  8
Object
100
AcDbLine
 10
1.986955269373018
 20
7.560808559706345
 30
0.0
 11
1.986955269373018
 21
7.500808559706345
 31
0.0
  0
LINE
  5
548
330
1F
100
AcDbEntity
  8
Object
100
AcDbLine
 10
1.986955269373018
 20
7.500808559706345
 30
0.0
 11
1.986955269373018
 21
7.497808559706345
 31
0.0
  0
LINE
  5
549
330
1F
100
AcDbEntity
  8
Object
100
AcDbLine
 10
1.986955269373018
 20
7.497808559706345
 30
0.0
 11
1.986955269373018
 21
7.488808559706345
 31
0.0
  0
LINE
  5
54A
330
1F
100
AcDbEntity
  8
Object
100
AcDbLine
 10
1.986955269373018
 20
7.488808559706345
 30
0.0
 11
1.986955269373018
 21
7.475808559706345
 31
0.0
  0
LINE
  5
54B
330
1F
100
AcDbEntity
  8
Object
100
AcDbLine
 10
1.986955269373018
 20
7.475808559706345
 30
0.0
 11
1.986955269373018
 21
7.460808559706345
 31
0.0
  0
LINE
  5
54C
330
1F
100
AcDbEntity
  8
Object
100
AcDbLine
 10
1.986955269373018
 20
7.460808559706345
 30
0.0
 11
1.986955269373018
 21
6.475808559706345
 31
0.0
  0
LINE
  5
54D
330
1F
100
AcDbEntity
  8
Object
100
AcDbLine
 10
1.986955269373018
 20
6.475808559706345
 30
0.0
 11
1.986955269373018
 21
6.460808559706345
 31
0.0
  0
LINE
  5
54E
330
1F
100
AcDbEntity
  8
Object
100
AcDbLine
 10
1.986955269373018
 20
6.460808559706345
 30
0.0
 11
1.986955269373018
 21
6.447808559706345
 31
0.0
  0
LINE
  5
54F
330
1F
100
AcDbEntity
  8
Object
100
AcDbLine
 10
1.986955269373018
 20
6.447808559706345
 30
0.0
 11
1.986955269373018
 21
6.438808559706346
 31
0.0
  0
LINE
  5
550
330
1F
100
AcDbEntity
  8
Object
100
AcDbLine
 10
1.986955269373018
 20
6.438808559706346
 30
0.0
 11
1.986955269373018
 21
6.435808559706345
 31
0.0
  0
LINE
  5
551
330
1F
100
AcDbEntity
  8
Object
100
AcDbLine
 10
3.841955269373017
 20
7.810808559706345
 30
0.0
 11
3.858955269373018
 21
7.810808559706345
 31
0.0
  0
LINE
  5
552
330
1F
100
AcDbEntity
  8
Object
100
AcDbLine
 10
3.858955269373018
 20
7.810808559706345
 30
0.0
 11
3.866955269373018
 21
7.810808559706345
 31
0.0
  0
LINE
  5
553
330
1F
100
AcDbEntity
  8
Object
100
AcDbLine
 10
3.841955269373017
 20
7.810808559706345
 30
0.0
 11
3.830955269373018
 21
7.810808559706345
 31
0.0
  0
LINE
  5
554
330
1F
100
AcDbEntity
  8
Object
100
AcDbLine
 10
3.830955269373018
 20
7.810808559706345
 30
0.0
 11
3.826955269373017
 21
7.810808559706345
 31
0.0
  0
LINE
  5
555
330
1F
100
AcDbEntity
  8
Object
100
AcDbLine
 10
1.983955269373018
 20
7.810808559706345
 30
0.0
 11
1.972955269373018
 21
7.810808559706345
 31
0.0
  0
LINE
  5
556
330
1F
100
AcDbEntity
  8
Object
100
AcDbLine
 10
1.972955269373018
 20
7.810808559706345
 30
0.0
 11
1.955955269373017
 21
7.810808559706345
 31
0.0
  0
LINE
  5
557
330
1F
100
AcDbEntity
  8
Object
100
AcDbLine
 10
1.955955269373017
 20
7.810808559706345
 30
0.0
 11
1.946955269373017
 21
7.810808559706345
 31
0.0
  0
LINE
  5
558
330
1F
100
AcDbEntity
  8
Object
100
AcDbLine
 10
1.986955269373018
 20
7.810808559706345
 30
0.0
 11
1.983955269373018
 21
7.810808559706345
 31
0.0
  0
LINE
  5
559
330
1F
100
AcDbEntity
  8
Object
100
AcDbLine
 10
1.972955269373018
 20
7.560808559706345
 30
0.0
 11
1.955955269373017
 21
7.560808559706345
 31
0.0
  0
LINE
  5
55A
330
1F
100
AcDbEntity
  8
Object
100
AcDbLine
 10
1.955955269373017
 20
7.560808559706345
 30
0.0
 11
1.946955269373017
 21
7.560808559706345
 31
0.0
  0
LINE
  5
55B
330
1F
100
AcDbEntity
  8
Object
100
AcDbLine
 10
1.972955269373018
 20
7.560808559706345
 30
0.0
 11
1.983955269373018
 21
7.560808559706345
 31
0.0
  0
LINE
  5
55C
330
1F
100
AcDbEntity
  8
Object
100
AcDbLine
 10
1.983955269373018
 20
7.560808559706345
 30
0.0
 11
1.986955269373018
 21
7.560808559706345
 31
0.0
  0
LINE
  5
55D
330
1F
100
AcDbEntity
  8
Object
100
AcDbLine
 10
3.830955269373018
 20
7.560808559706345
 30
0.0
 11
3.841955269373017
 21
7.560808559706345
 31
0.0
  0
LINE
  5
55E
330
1F
100
AcDbEntity
  8
Object
100
AcDbLine
 10
3.841955269373017
 20
7.560808559706345
 30
0.0
 11
3.858955269373018
 21
7.560808559706345
 31
0.0
  0
LINE
  5
55F
330
1F
100
AcDbEntity
  8
Object
100
AcDbLine
 10
3.858955269373018
 20
7.560808559706345
 30
0.0
 11
3.866955269373018
 21
7.560808559706345
 31
0.0
  0
LINE
  5
560
330
1F
100
AcDbEntity
  8
Object
100
AcDbLine
 10
3.826955269373017
 20
7.560808559706345
 30
0.0
 11
3.830955269373018
 21
7.560808559706345
 31
0.0
  0
LINE
  5
561
330
1F
100
AcDbEntity
  8
Object
100
AcDbLine
 10
3.830955269373018
 20
7.560808559706345
 30
0.0
 11
3.841955269373017
 21
7.560808559706345
 31
0.0
  0
LINE
  5
562
330
1F
100
AcDbEntity
  8
Object
100
AcDbLine
 10
3.841955269373017
 20
7.810808559706345
 30
0.0
 11
3.830955269373018
 21
7.810808559706345
 31
0.0
  0
LINE
  5
563
330
1F
100
AcDbEntity
  8
Object
100
AcDbLine
 10
3.858955269373018
 20
7.560808559706345
 30
0.0
 11
3.866955269373018
 21
7.560808559706345
 31
0.0
  0
LINE
  5
564
330
1F
100
AcDbEntity
  8
Object
100
AcDbLine
 10
3.866955269373018
 20
7.810808559706345
 30
0.0
 11
3.858955269373018
 21
7.810808559706345
 31
0.0
  0
LINE
  5
565
330
1F
100
AcDbEntity
  8
Object
100
AcDbLine
 10
3.858955269373018
 20
7.810808559706345
 30
0.0
 11
3.841955269373017
 21
7.810808559706345
 31
0.0
  0
LINE
  5
566
330
1F
100
AcDbEntity
  8
Object
100
AcDbLine
 10
3.841955269373017
 20
7.560808559706345
 30
0.0
 11
3.858955269373018
 21
7.560808559706345
 31
0.0
  0
LINE
  5
567
330
1F
100
AcDbEntity
  8
Object
100
AcDbLine
 10
3.830955269373018
 20
7.810808559706345
 30
0.0
 11
3.826955269373017
 21
7.810808559706345
 31
0.0
  0
LINE
  5
568
330
1F
100
AcDbEntity
  8
Object
100
AcDbLine
 10
3.830955269373018
 20
7.560808559706345
 30
0.0
 11
3.826955269373017
 21
7.560808559706345
 31
0.0
  0
LINE
  5
569
330
1F
100
AcDbEntity
  8
Object
100
AcDbLine
 10
3.826955269373017
 20
7.560808559706345
 30
0.0
 11
3.826955269373017
 21
7.600808559706345
 31
0.0
  0
LINE
  5
56A
330
1F
100
AcDbEntity
  8
Object
100
AcDbLine
 10
3.826955269373017
 20
7.810808559706345
 30
0.0
 11
3.826955269373017
 21
7.770808559706344
 31
0.0
  0
LINE
  5
56B
330
1F
100
AcDbEntity
  8
Object
100
AcDbLine
 10
1.983955269373018
 20
7.810808559706345
 30
0.0
 11
1.972955269373018
 21
7.810808559706345
 31
0.0
  0
LINE
  5
56C
330
1F
100
AcDbEntity
  8
Object
100
AcDbLine
 10
1.972955269373018
 20
7.560808559706345
 30
0.0
 11
1.983955269373018
 21
7.560808559706345
 31
0.0
  0
LINE
  5
56D
330
1F
100
AcDbEntity
  8
Object
100
AcDbLine
 10
1.955955269373017
 20
7.810808559706345
 30
0.0
 11
1.946955269373017
 21
7.810808559706345
 31
0.0
  0
LINE
  5
56E
330
1F
100
AcDbEntity
  8
Object
100
AcDbLine
 10
1.946955269373017
 20
7.560808559706345
 30
0.0
 11
1.955955269373017
 21
7.560808559706345
 31
0.0
  0
LINE
  5
56F
330
1F
100
AcDbEntity
  8
Object
100
AcDbLine
 10
1.955955269373017
 20
7.560808559706345
 30
0.0
 11
1.972955269373018
 21
7.560808559706345
 31
0.0
  0
LINE
  5
570
330
1F
100
AcDbEntity
  8
Object
100
AcDbLine
 10
1.972955269373018
 20
7.810808559706345
 30
0.0
 11
1.955955269373017
 21
7.810808559706345
 31
0.0
  0
LINE
  5
571
330
1F
100
AcDbEntity
  8
Object
100
AcDbLine
 10
1.983955269373018
 20
7.560808559706345
 30
0.0
 11
1.986955269373018
 21
7.560808559706345
 31
0.0
  0
LINE
  5
572
330
1F
100
AcDbEntity
  8
Object
100
AcDbLine
 10
1.983955269373018
 20
7.810808559706345
 30
0.0
 11
1.986955269373018
 21
7.810808559706345
 31
0.0
  0
LINE
  5
573
330
1F
100
AcDbEntity
  8
Object
100
AcDbLine
 10
1.986955269373018
 20
7.810808559706345
 30
0.0
 11
1.986955269373018
 21
7.770808559706345
 31
0.0
  0
LINE
  5
574
330
1F
100
AcDbEntity
  8
Object
100
AcDbLine
 10
1.986955269373018
 20
7.560808559706345
 30
0.0
 11
1.986955269373018
 21
7.600808559706345
 31
0.0
  0
LINE
  5
575
330
1F
100
AcDbEntity
  8
Object
100
AcDbLine
 10
1.691955269373018
 20
7.810808559706345
 30
0.0
 11
1.691955269373018
 21
7.560808559706345
 31
0.0
  0
LINE
  5
576
330
1F
100
AcDbEntity
  8
Object
100
AcDbLine
 10
4.121955269373017
 20
7.560808559706345
 30
0.0
 11
4.121955269373017
 21
7.810808559706345
 31
0.0
  0
LINE
  5
577
330
1F
100
AcDbEntity
  8
Object
100
AcDbLine
 10
1.695955269373017
 20
7.560808559706345
 30
0.0
 11
1.706955269373018
 21
7.560808559706345
 31
0.0
  0
LINE
  5
578
330
1F
100
AcDbEntity
  8
Object
100
AcDbLine
 10
1.706955269373018
 20
7.810808559706345
 30
0.0
 11
1.695955269373017
 21
7.810808559706345
 31
0.0
  0
LINE
  5
579
330
1F
100
AcDbEntity
  8
Object
100
AcDbLine
 10
1.723955269373018
 20
7.560808559706345
 30
0.0
 11
1.746955269373017
 21
7.560808559706345
 31
0.0
  0
LINE
  5
57A
330
1F
100
AcDbEntity
  8
Object
100
AcDbLine
 10
1.746955269373017
 20
7.810808559706345
 30
0.0
 11
1.723955269373018
 21
7.810808559706345
 31
0.0
  0
LINE
  5
57B
330
1F
100
AcDbEntity
  8
Object
100
AcDbLine
 10
1.773955269373017
 20
7.560808559706345
 30
0.0
 11
1.804955269373017
 21
7.560808559706345
 31
0.0
  0
LINE
  5
57C
330
1F
100
AcDbEntity
  8
Object
100
AcDbLine
 10
1.804955269373017
 20
7.810808559706345
 30
0.0
 11
1.773955269373017
 21
7.810808559706345
 31
0.0
  0
LINE
  5
57D
330
1F
100
AcDbEntity
  8
Object
100
AcDbLine
 10
1.773955269373017
 20
7.810808559706345
 30
0.0
 11
1.746955269373017
 21
7.810808559706345
 31
0.0
  0
LINE
  5
57E
330
1F
100
AcDbEntity
  8
Object
100
AcDbLine
 10
1.746955269373017
 20
7.560808559706345
 30
0.0
 11
1.773955269373017
 21
7.560808559706345
 31
0.0
  0
LINE
  5
57F
330
1F
100
AcDbEntity
  8
Object
100
AcDbLine
 10
1.723955269373018
 20
7.810808559706345
 30
0.0
 11
1.706955269373018
 21
7.810808559706345
 31
0.0
  0
LINE
  5
580
330
1F
100
AcDbEntity
  8
Object
100
AcDbLine
 10
1.706955269373018
 20
7.560808559706345
 30
0.0
 11
1.723955269373018
 21
7.560808559706345
 31
0.0
  0
LINE
  5
581
330
1F
100
AcDbEntity
  8
Object
100
AcDbLine
 10
1.695955269373017
 20
7.810808559706345
 30
0.0
 11
1.691955269373018
 21
7.810808559706345
 31
0.0
  0
LINE
  5
582
330
1F
100
AcDbEntity
  8
Object
100
AcDbLine
 10
1.695955269373017
 20
7.560808559706345
 30
0.0
 11
1.691955269373018
 21
7.560808559706345
 31
0.0
  0
LINE
  5
583
330
1F
100
AcDbEntity
  8
Object
100
AcDbLine
 10
1.691955269373018
 20
7.560808559706345
 30
0.0
 11
1.691955269373018
 21
7.810808559706345
 31
0.0
  0
LINE
  5
584
330
1F
100
AcDbEntity
  8
Object
100
AcDbLine
 10
1.804955269373017
 20
7.810808559706345
 30
0.0
 11
1.836955269373017
 21
7.810808559706345
 31
0.0
  0
LINE
  5
585
330
1F
100
AcDbEntity
  8
Object
100
AcDbLine
 10
1.836955269373017
 20
7.810808559706345
 30
0.0
 11
1.836955269373017
 21
7.560808559706345
 31
0.0
  0
LINE
  5
586
330
1F
100
AcDbEntity
  8
Object
100
AcDbLine
 10
1.836955269373017
 20
7.560808559706345
 30
0.0
 11
1.804955269373017
 21
7.560808559706345
 31
0.0
  0
LINE
  5
587
330
1F
100
AcDbEntity
  8
Object
100
AcDbLine
 10
4.039955269373018
 20
7.810808559706345
 30
0.0
 11
4.009955269373017
 21
7.810808559706345
 31
0.0
  0
LINE
  5
588
330
1F
100
AcDbEntity
  8
Object
100
AcDbLine
 10
4.039955269373018
 20
7.560808559706345
 30
0.0
 11
4.009955269373017
 21
7.560808559706345
 31
0.0
  0
LINE
  5
589
330
1F
100
AcDbEntity
  8
Object
100
AcDbLine
 10
4.009955269373017
 20
7.560808559706345
 30
0.0
 11
3.976955269373018
 21
7.560808559706345
 31
0.0
  0
LINE
  5
58A
330
1F
100
AcDbEntity
  8
Object
100
AcDbLine
 10
3.976955269373018
 20
7.560808559706345
 30
0.0
 11
3.976955269373018
 21
7.810808559706345
 31
0.0
  0
LINE
  5
58B
330
1F
100
AcDbEntity
  8
Object
100
AcDbLine
 10
3.976955269373018
 20
7.810808559706345
 30
0.0
 11
4.009955269373017
 21
7.810808559706345
 31
0.0
  0
LINE
  5
58C
330
1F
100
AcDbEntity
  8
Object
100
AcDbLine
 10
4.118955269373017
 20
7.810808559706345
 30
0.0
 11
4.107955269373017
 21
7.810808559706345
 31
0.0
  0
LINE
  5
58D
330
1F
100
AcDbEntity
  8
Object
100
AcDbLine
 10
4.107955269373017
 20
7.560808559706345
 30
0.0
 11
4.118955269373017
 21
7.560808559706345
 31
0.0
  0
LINE
  5
58E
330
1F
100
AcDbEntity
  8
Object
100
AcDbLine
 10
4.090955269373018
 20
7.810808559706345
 30
0.0
 11
4.067955269373017
 21
7.810808559706345
 31
0.0
  0
LINE
  5
58F
330
1F
100
AcDbEntity
  8
Object
100
AcDbLine
 10
4.090955269373018
 20
7.560808559706345
 30
0.0
 11
4.067955269373017
 21
7.560808559706345
 31
0.0
  0
LINE
  5
590
330
1F
100
AcDbEntity
  8
Object
100
AcDbLine
 10
4.067955269373017
 20
7.560808559706345
 30
0.0
 11
4.039955269373018
 21
7.560808559706345
 31
0.0
  0
LINE
  5
591
330
1F
100
AcDbEntity
  8
Object
100
AcDbLine
 10
4.067955269373017
 20
7.810808559706345
 30
0.0
 11
4.039955269373018
 21
7.810808559706345
 31
0.0
  0
LINE
  5
592
330
1F
100
AcDbEntity
  8
Object
100
AcDbLine
 10
4.090955269373018
 20
7.560808559706345
 30
0.0
 11
4.107955269373017
 21
7.560808559706345
 31
0.0
  0
LINE
  5
593
330
1F
100
AcDbEntity
  8
Object
100
AcDbLine
 10
4.107955269373017
 20
7.810808559706345
 30
0.0
 11
4.090955269373018
 21
7.810808559706345
 31
0.0
  0
LINE
  5
594
330
1F
100
AcDbEntity
  8
Object
100
AcDbLine
 10
4.118955269373017
 20
7.560808559706345
 30
0.0
 11
4.121955269373017
 21
7.560808559706345
 31
0.0
  0
LINE
  5
595
330
1F
100
AcDbEntity
  8
Object
100
AcDbLine
 10
4.118955269373017
 20
7.810808559706345
 30
0.0
 11
4.121955269373017
 21
7.810808559706345
 31
0.0
  0
LINE
  5
596
330
1F
100
AcDbEntity
  8
Object
100
AcDbLine
 10
4.121955269373017
 20
7.810808559706345
 30
0.0
 11
4.121955269373017
 21
7.560808559706345
 31
0.0
  0
LINE
  5
597
330
1F
100
AcDbEntity
  8
Object
100
AcDbLine
 10
4.118955269373017
 20
7.810808559706345
 30
0.0
 11
4.107955269373017
 21
7.810808559706345
 31
0.0
  0
LINE
  5
598
330
1F
100
AcDbEntity
  8
Object
100
AcDbLine
 10
4.107955269373017
 20
7.810808559706345
 30
0.0
 11
4.090955269373018
 21
7.810808559706345
 31
0.0
  0
LINE
  5
599
330
1F
100
AcDbEntity
  8
Object
100
AcDbLine
 10
4.067955269373017
 20
7.810808559706345
 30
0.0
 11
4.039955269373018
 21
7.810808559706345
 31
0.0
  0
LINE
  5
59A
330
1F
100
AcDbEntity
  8
Object
100
AcDbLine
 10
4.039955269373018
 20
7.810808559706345
 30
0.0
 11
4.009955269373017
 21
7.810808559706345
 31
0.0
  0
LINE
  5
59B
330
1F
100
AcDbEntity
  8
Object
100
AcDbLine
 10
4.009955269373017
 20
7.810808559706345
 30
0.0
 11
3.976955269373018
 21
7.810808559706345
 31
0.0
  0
LINE
  5
59C
330
1F
100
AcDbEntity
  8
Object
100
AcDbLine
 10
4.090955269373018
 20
7.810808559706345
 30
0.0
 11
4.067955269373017
 21
7.810808559706345
 31
0.0
  0
LINE
  5
59D
330
1F
100
AcDbEntity
  8
Object
100
AcDbLine
 10
4.121955269373017
 20
7.810808559706345
 30
0.0
 11
4.118955269373017
 21
7.810808559706345
 31
0.0
  0
LINE
  5
59E
330
1F
100
AcDbEntity
  8
Object
100
AcDbLine
 10
1.723955269373018
 20
7.810808559706345
 30
0.0
 11
1.706955269373018
 21
7.810808559706345
 31
0.0
  0
LINE
  5
59F
330
1F
100
AcDbEntity
  8
Object
100
AcDbLine
 10
1.773955269373017
 20
7.810808559706345
 30
0.0
 11
1.804955269373017
 21
7.810808559706345
 31
0.0
  0
LINE
  5
5A0
330
1F
100
AcDbEntity
  8
Object
100
AcDbLine
 10
1.804955269373017
 20
7.810808559706345
 30
0.0
 11
1.836955269373017
 21
7.810808559706345
 31
0.0
  0
LINE
  5
5A1
330
1F
100
AcDbEntity
  8
Object
100
AcDbLine
 10
1.773955269373017
 20
7.810808559706345
 30
0.0
 11
1.746955269373017
 21
7.810808559706345
 31
0.0
  0
LINE
  5
5A2
330
1F
100
AcDbEntity
  8
Object
100
AcDbLine
 10
1.746955269373017
 20
7.810808559706345
 30
0.0
 11
1.723955269373018
 21
7.810808559706345
 31
0.0
  0
LINE
  5
5A3
330
1F
100
AcDbEntity
  8
Object
100
AcDbLine
 10
1.706955269373018
 20
7.810808559706345
 30
0.0
 11
1.695955269373017
 21
7.810808559706345
 31
0.0
  0
LINE
  5
5A4
330
1F
100
AcDbEntity
  8
Object
100
AcDbLine
 10
1.695955269373017
 20
7.810808559706345
 30
0.0
 11
1.691955269373018
 21
7.810808559706345
 31
0.0
  0
LINE
  5
5A5
330
1F
100
AcDbEntity
  8
Object
100
AcDbLine
 10
1.695955269373017
 20
7.560808559706345
 30
0.0
 11
1.706955269373018
 21
7.560808559706345
 31
0.0
  0
LINE
  5
5A6
330
1F
100
AcDbEntity
  8
Object
100
AcDbLine
 10
1.706955269373018
 20
7.560808559706345
 30
0.0
 11
1.723955269373018
 21
7.560808559706345
 31
0.0
  0
LINE
  5
5A7
330
1F
100
AcDbEntity
  8
Object
100
AcDbLine
 10
1.746955269373017
 20
7.560808559706345
 30
0.0
 11
1.773955269373017
 21
7.560808559706345
 31
0.0
  0
LINE
  5
5A8
330
1F
100
AcDbEntity
  8
Object
100
AcDbLine
 10
1.773955269373017
 20
7.560808559706345
 30
0.0
 11
1.804955269373017
 21
7.560808559706345
 31
0.0
  0
LINE
  5
5A9
330
1F
100
AcDbEntity
  8
Object
100
AcDbLine
 10
1.804955269373017
 20
7.560808559706345
 30
0.0
 11
1.836955269373017
 21
7.560808559706345
 31
0.0
  0
LINE
  5
5AA
330
1F
100
AcDbEntity
  8
Object
100
AcDbLine
 10
1.723955269373018
 20
7.560808559706345
 30
0.0
 11
1.746955269373017
 21
7.560808559706345
 31
0.0
  0
LINE
  5
5AB
330
1F
100
AcDbEntity
  8
Object
100
AcDbLine
 10
1.691955269373018
 20
7.560808559706345
 30
0.0
 11
1.695955269373017
 21
7.560808559706345
 31
0.0
  0
LINE
  5
5AC
330
1F
100
AcDbEntity
  8
Object
100
AcDbLine
 10
1.836955269373017
 20
7.810808559706345
 30
0.0
 11
1.946955269373017
 21
7.810808559706345
 31
0.0
  0
LINE
  5
5AD
330
1F
100
AcDbEntity
  8
Object
100
AcDbLine
 10
1.946955269373017
 20
7.810808559706345
 30
0.0
 11
1.962955269373017
 21
7.807808559706345
 31
0.0
  0
LINE
  5
5AE
330
1F
100
AcDbEntity
  8
Object
100
AcDbLine
 10
1.962955269373017
 20
7.807808559706345
 30
0.0
 11
1.975955269373018
 21
7.799808559706345
 31
0.0
  0
LINE
  5
5AF
330
1F
100
AcDbEntity
  8
Object
100
AcDbLine
 10
1.975955269373018
 20
7.799808559706345
 30
0.0
 11
1.983955269373018
 21
7.786808559706345
 31
0.0
  0
LINE
  5
5B0
330
1F
100
AcDbEntity
  8
Object
100
AcDbLine
 10
1.983955269373018
 20
7.786808559706345
 30
0.0
 11
1.986955269373018
 21
7.770808559706345
 31
0.0
  0
LINE
  5
5B1
330
1F
100
AcDbEntity
  8
Object
100
AcDbLine
 10
1.986955269373018
 20
7.600808559706345
 30
0.0
 11
1.983955269373018
 21
7.585808559706345
 31
0.0
  0
LINE
  5
5B2
330
1F
100
AcDbEntity
  8
Object
100
AcDbLine
 10
1.983955269373018
 20
7.585808559706345
 30
0.0
 11
1.975955269373018
 21
7.572808559706345
 31
0.0
  0
LINE
  5
5B3
330
1F
100
AcDbEntity
  8
Object
100
AcDbLine
 10
1.975955269373018
 20
7.572808559706345
 30
0.0
 11
1.962955269373017
 21
7.563808559706346
 31
0.0
  0
LINE
  5
5B4
330
1F
100
AcDbEntity
  8
Object
100
AcDbLine
 10
1.986955269373018
 20
7.600808559706345
 30
0.0
 11
1.986955269373018
 21
7.770808559706345
 31
0.0
  0
LINE
  5
5B5
330
1F
100
AcDbEntity
  8
Object
100
AcDbLine
 10
1.962955269373017
 20
7.563808559706346
 30
0.0
 11
1.946955269373017
 21
7.560808559706345
 31
0.0
  0
LINE
  5
5B6
330
1F
100
AcDbEntity
  8
Object
100
AcDbLine
 10
1.946955269373017
 20
7.560808559706345
 30
0.0
 11
1.836955269373017
 21
7.560808559706345
 31
0.0
  0
LINE
  5
5B7
330
1F
100
AcDbEntity
  8
Object
100
AcDbLine
 10
4.009955269373017
 20
7.560808559706345
 30
0.0
 11
4.039955269373018
 21
7.560808559706345
 31
0.0
  0
LINE
  5
5B8
330
1F
100
AcDbEntity
  8
Object
100
AcDbLine
 10
4.090955269373018
 20
7.560808559706345
 30
0.0
 11
4.107955269373017
 21
7.560808559706345
 31
0.0
  0
LINE
  5
5B9
330
1F
100
AcDbEntity
  8
Object
100
AcDbLine
 10
3.976955269373018
 20
7.560808559706345
 30
0.0
 11
4.009955269373017
 21
7.560808559706345
 31
0.0
  0
LINE
  5
5BA
330
1F
100
AcDbEntity
  8
Object
100
AcDbLine
 10
4.039955269373018
 20
7.560808559706345
 30
0.0
 11
4.067955269373017
 21
7.560808559706345
 31
0.0
  0
LINE
  5
5BB
330
1F
100
AcDbEntity
  8
Object
100
AcDbLine
 10
4.067955269373017
 20
7.560808559706345
 30
0.0
 11
4.090955269373018
 21
7.560808559706345
 31
0.0
  0
LINE
  5
5BC
330
1F
100
AcDbEntity
  8
Object
100
AcDbLine
 10
4.107955269373017
 20
7.560808559706345
 30
0.0
 11
4.118955269373017
 21
7.560808559706345
 31
0.0
  0
LINE
  5
5BD
330
1F
100
AcDbEntity
  8
Object
100
AcDbLine
 10
4.118955269373017
 20
7.560808559706345
 30
0.0
 11
4.121955269373017
 21
7.560808559706345
 31
0.0
  0
LINE
  5
5BE
330
1F
100
AcDbEntity
  8
Object
100
AcDbLine
 10
3.826955269373017
 20
7.770808559706344
 30
0.0
 11
3.829955269373018
 21
7.786808559706345
 31
0.0
  0
LINE
  5
5BF
330
1F
100
AcDbEntity
  8
Object
100
AcDbLine
 10
3.829955269373018
 20
7.786808559706345
 30
0.0
 11
3.838955269373018
 21
7.799808559706344
 31
0.0
  0
LINE
  5
5C0
330
1F
100
AcDbEntity
  8
Object
100
AcDbLine
 10
3.838955269373018
 20
7.799808559706344
 30
0.0
 11
3.851955269373018
 21
7.807808559706344
 31
0.0
  0
LINE
  5
5C1
330
1F
100
AcDbEntity
  8
Object
100
AcDbLine
 10
3.851955269373018
 20
7.807808559706344
 30
0.0
 11
3.866955269373018
 21
7.810808559706345
 31
0.0
  0
LINE
  5
5C2
330
1F
100
AcDbEntity
  8
Object
100
AcDbLine
 10
3.866955269373018
 20
7.810808559706345
 30
0.0
 11
3.976955269373018
 21
7.810808559706345
 31
0.0
  0
LINE
  5
5C3
330
1F
100
AcDbEntity
  8
Object
100
AcDbLine
 10
3.838955269373018
 20
7.572808559706344
 30
0.0
 11
3.829955269373018
 21
7.585808559706344
 31
0.0
  0
LINE
  5
5C4
330
1F
100
AcDbEntity
  8
Object
100
AcDbLine
 10
3.829955269373018
 20
7.585808559706344
 30
0.0
 11
3.826955269373017
 21
7.600808559706345
 31
0.0
  0
LINE
  5
5C5
330
1F
100
AcDbEntity
  8
Object
100
AcDbLine
 10
3.838955269373018
 20
7.572808559706344
 30
0.0
 11
3.851955269373018
 21
7.563808559706345
 31
0.0
  0
LINE
  5
5C6
330
1F
100
AcDbEntity
  8
Object
100
AcDbLine
 10
3.866955269373018
 20
7.560808559706345
 30
0.0
 11
3.976955269373018
 21
7.560808559706345
 31
0.0
  0
LINE
  5
5C7
330
1F
100
AcDbEntity
  8
Object
100
AcDbLine
 10
3.826955269373017
 20
7.770808559706344
 30
0.0
 11
3.826955269373017
 21
7.600808559706345
 31
0.0
  0
LINE
  5
5C8
330
1F
100
AcDbEntity
  8
Object
100
AcDbLine
 10
3.851955269373018
 20
7.563808559706345
 30
0.0
 11
3.866955269373018
 21
7.560808559706345
 31
0.0
  0
LINE
  5
5C9
330
1F
100
AcDbEntity
  8
Object
100
AcDbLine
 10
3.976955269373018
 20
7.810808559706345
 30
0.0
 11
3.866955269373018
 21
7.810808559706345
 31
0.0
  0
LINE
  5
5CA
330
1F
100
AcDbEntity
  8
Object
100
AcDbLine
 10
1.946955269373017
 20
7.810808559706345
 30
0.0
 11
1.836955269373017
 21
7.810808559706345
 31
0.0
  0
LINE
  5
5CB
330
1F
100
AcDbEntity
  8
Object
100
AcDbLine
 10
1.836955269373017
 20
7.560808559706345
 30
0.0
 11
1.946955269373017
 21
7.560808559706345
 31
0.0
  0
LINE
  5
5CC
330
1F
100
AcDbEntity
  8
Object
100
AcDbLine
 10
1.986955269373018
 20
7.600808559706345
 30
0.0
 11
1.983955269373018
 21
7.585808559706345
 31
0.0
  0
LINE
  5
5CD
330
1F
100
AcDbEntity
  8
Object
100
AcDbLine
 10
1.983955269373018
 20
7.585808559706345
 30
0.0
 11
1.975955269373018
 21
7.572808559706345
 31
0.0
  0
LINE
  5
5CE
330
1F
100
AcDbEntity
  8
Object
100
AcDbLine
 10
1.975955269373018
 20
7.572808559706345
 30
0.0
 11
1.962955269373017
 21
7.563808559706346
 31
0.0
  0
LINE
  5
5CF
330
1F
100
AcDbEntity
  8
Object
100
AcDbLine
 10
1.962955269373017
 20
7.563808559706346
 30
0.0
 11
1.946955269373017
 21
7.560808559706345
 31
0.0
  0
LINE
  5
5D0
330
1F
100
AcDbEntity
  8
Object
100
AcDbLine
 10
1.986955269373018
 20
7.600808559706345
 30
0.0
 11
1.986955269373018
 21
7.770808559706345
 31
0.0
  0
LINE
  5
5D1
330
1F
100
AcDbEntity
  8
Object
100
AcDbLine
 10
1.946955269373017
 20
7.810808559706345
 30
0.0
 11
1.962955269373017
 21
7.807808559706345
 31
0.0
  0
LINE
  5
5D2
330
1F
100
AcDbEntity
  8
Object
100
AcDbLine
 10
1.962955269373017
 20
7.807808559706345
 30
0.0
 11
1.975955269373018
 21
7.799808559706345
 31
0.0
  0
LINE
  5
5D3
330
1F
100
AcDbEntity
  8
Object
100
AcDbLine
 10
1.975955269373018
 20
7.799808559706345
 30
0.0
 11
1.983955269373018
 21
7.786808559706345
 31
0.0
  0
LINE
  5
5D4
330
1F
100
AcDbEntity
  8
Object
100
AcDbLine
 10
1.983955269373018
 20
7.786808559706345
 30
0.0
 11
1.986955269373018
 21
7.770808559706345
 31
0.0
  0
LINE
  5
5D5
330
1F
100
AcDbEntity
  8
Object
100
AcDbLine
 10
3.866955269373018
 20
7.560808559706345
 30
0.0
 11
3.976955269373018
 21
7.560808559706345
 31
0.0
  0
LINE
  5
5D6
330
1F
100
AcDbEntity
  8
Object
100
AcDbLine
 10
3.826955269373017
 20
7.600808559706345
 30
0.0
 11
3.829955269373018
 21
7.585808559706344
 31
0.0
  0
LINE
  5
5D7
330
1F
100
AcDbEntity
  8
Object
100
AcDbLine
 10
3.829955269373018
 20
7.585808559706344
 30
0.0
 11
3.838955269373018
 21
7.572808559706344
 31
0.0
  0
LINE
  5
5D8
330
1F
100
AcDbEntity
  8
Object
100
AcDbLine
 10
3.838955269373018
 20
7.572808559706344
 30
0.0
 11
3.851955269373018
 21
7.563808559706345
 31
0.0
  0
LINE
  5
5D9
330
1F
100
AcDbEntity
  8
Object
100
AcDbLine
 10
3.851955269373018
 20
7.563808559706345
 30
0.0
 11
3.866955269373018
 21
7.560808559706345
 31
0.0
  0
LINE
  5
5DA
330
1F
100
AcDbEntity
  8
Object
100
AcDbLine
 10
3.826955269373017
 20
7.770808559706344
 30
0.0
 11
3.826955269373017
 21
7.600808559706345
 31
0.0
  0
LINE
  5
5DB
330
1F
100
AcDbEntity
  8
Object
100
AcDbLine
 10
3.866955269373018
 20
7.810808559706345
 30
0.0
 11
3.851955269373018
 21
7.807808559706344
 31
0.0
  0
LINE
  5
5DC
330
1F
100
AcDbEntity
  8
Object
100
AcDbLine
 10
3.851955269373018
 20
7.807808559706344
 30
0.0
 11
3.838955269373018
 21
7.799808559706344
 31
0.0
  0
LINE
  5
5DD
330
1F
100
AcDbEntity
  8
Object
100
AcDbLine
 10
3.838955269373018
 20
7.799808559706344
 30
0.0
 11
3.829955269373018
 21
7.786808559706345
 31
0.0
  0
LINE
  5
5DE
330
1F
100
AcDbEntity
  8
Object
100
AcDbLine
 10
3.829955269373018
 20
7.786808559706345
 30
0.0
 11
3.826955269373017
 21
7.770808559706344
 31
0.0
  0
DIMENSION
  5
613
330
1F
100
AcDbEntity
  8
Dimension
100
AcDbDimension
  2
*D2
 10
3.826955269373017
 20
5.60737056515564
 30
0.0
 11
2.906955269373018
 21
5.60737056515564
 31
0.0
 70
    32
 71
     5
 42
1.839999999999999
  3
Standard
100
AcDbAlignedDimension
 13
1.986955269373018
 23
5.099808559706344
 33
0.0
 14
3.826955269373017
 24
5.099808559706344
 34
0.0
100
AcDbRotatedDimension
  0
DIMENSION
  5
637
102
{ACAD_XDICTIONARY
360
645
102
}
102
{ACAD_REACTORS
330
650
102
}
330
1F
100
AcDbEntity
  8
Dimension
100
AcDbDimension
  2
*D3
 10
6.479928997418873
 20
4.739808559706345
 30
0.0
 11
6.479928997418872
 21
4.194808559706347
 31
0.0
 70
    32
 71
     5
 42
1.09
  3
Standard
100
AcDbAlignedDimension
 13
7.468955269373018
 23
3.649808559706344
 33
0.0
 14
7.508955269373018
 24
4.739808559706345
 34
0.0
 50
90.0
100
AcDbRotatedDimension
  0
LEADER
  5
67E
102
{ACAD_XDICTIONARY
360
680
102
}
102
{ACAD_REACTORS
330
681
102
}
330
1F
100
AcDbEntity
  8
Dimension
100
AcDbLeader
  3
Standard
 73
     0
 40
0.1260526315789474
 41
1.053684210526315
 76
     3
 10
3.090955269373018
 20
6.854808559706344
 30
0.0
 10
3.768922864879257
 20
6.096487017849142
 30
0.0
 10
4.038794208963885
 20
6.096487017849142
 30
0.0
340
67F
213
0.0
223
-0.045
233
0.0
1001
ACAD
1000
DSTYLE
1002
{
1070
   147
1040
0.09
1070
    77
1070
     0
1002
}
  0
MTEXT
  5
67F
102
{ACAD_REACTORS
330
67E
102
}
330
1F
100
AcDbEntity
  8
Dimension
100
AcDbMText
 10
4.128794208963885
 20
6.141487017849142
 30
0.0
 40
0.09
 41
0.0
 71
     1
 72
     1
  1
\A1;0.65 [16.5mm] DIA
 73
     1
 44
1.0
1001
ACAD
1000
MTEXTBEGIN
1070
    73
1070
     1
1070
    44
1040
1.0
1070
    74
1070
     0
1000
MTEXTEND
  0
ENDSEC
  0
SECTION
  2
OBJECTS
  0
DICTIONARY
  5
C
330
0
100
AcDbDictionary
281
     1
  3
ACAD_COLOR
350
73
  3
ACAD_GROUP
350
D
  3
ACAD_LAYOUT
350
1A
  3
ACAD_MATERIAL
350
72
  3
ACAD_MLINESTYLE
350
17
  3
ACAD_PLOTSETTINGS
350
19
  3
ACAD_PLOTSTYLENAME
350
E
  3
ACAD_TABLESTYLE
350
86
  3
ACDBHEADERROUNDTRIPXREC
350
691
  3
AcDbVariableDictionary
350
66
  0
DICTIONARY
  5
147
330
1F
100
AcDbDictionary
280
     1
281
     1
  3
ACAD_SORTENTS
360
148
  0
DICTIONARY
  5
698
330
135
100
AcDbDictionary
280
     1
281
     1
  3
ACAD_MTEXT_RT
360
699
  0
DICTIONARY
  5
645
330
637
100
AcDbDictionary
280
     1
281
     1
  3
ACAD_DIMASSOC
360
650
  0
DICTIONARY
  5
680
330
67E
100
AcDbDictionary
280
     1
281
     1
  3
ACAD_DIMASSOC
360
681
  0
DICTIONARY
  5
73
102
{ACAD_REACTORS
330
C
102
}
330
C
100
AcDbDictionary
281
     1
  0
DICTIONARY
  5
D
102
{ACAD_REACTORS
330
C
102
}
330
C
100
AcDbDictionary
281
     1
  0
DICTIONARY
  5
1A
102
{ACAD_REACTORS
330
C
102
}
330
C
100
AcDbDictionary
281
     1
  3
Layout1
350
59
  3
Layout2
350
5E
  3
Model
350
22
  0
DICTIONARY
  5
72
102
{ACAD_REACTORS
330
C
102
}
330
C
100
AcDbDictionary
281
     1
  0
DICTIONARY
  5
17
102
{ACAD_REACTORS
330
C
102
}
330
C
100
AcDbDictionary
281
     1
  3
Standard
350
18
  0
DICTIONARY
  5
19
102
{ACAD_REACTORS
330
C
102
}
330
C
100
AcDbDictionary
281
     1
  0
ACDBDICTIONARYWDFLT
  5
E
102
{ACAD_REACTORS
330
C
102
}
330
C
100
AcDbDictionary
281
     1
  3
Normal
350
F
100
AcDbDictionaryWithDefault
340
F
  0
DICTIONARY
  5
86
102
{ACAD_REACTORS
330
C
102
}
330
C
100
AcDbDictionary
281
     1
  3
Standard
350
87
  0
DICTIONARY
  5
691
102
{ACAD_REACTORS
330
C
102
}
330
C
100
AcDbDictionary
281
     1
  0
DICTIONARY
  5
66
102
{ACAD_REACTORS
330
C
102
}
330
C
100
AcDbDictionary
281
     1
  3
CTABLESTYLE
350
612
  3
DIMASSOC
350
67
  3
HIDETEXT
350
6B
  3
PROJECTNAME
350
68F
  0
SORTENTSTABLE
  5
148
102
{ACAD_REACTORS
330
147
102
}
330
147
100
AcDbSortentsTable
330
1F
331
12E
  5
12E
331
122
  5
122
331
116
  5
116
331
104
  5
104
331
F8
  5
F8
331
10A
  5
10A
331
12F
  5
12F
331
123
  5
123
331
105
  5
105
331
117
  5
117
331
10B
  5
10B
331
F9
  5
F9
331
130
  5
130
331
124
  5
124
331
118
  5
118
331
106
  5
106
331
FA
  5
FA
331
10C
  5
10C
331
125
  5
125
331
131
  5
131
331
107
  5
107
331
119
  5
119
331
10D
  5
10D
331
FB
  5
FB
331
132
  5
132
331
126
  5
126
331
11A
  5
11A
331
FC
  5
FC
331
10E
  5
10E
331
127
  5
127
331
133
  5
133
331
F0
  5
F0
331
11B
  5
11B
331
10F
  5
10F
331
FD
  5
FD
331
134
  5
134
331
F1
  5
F1
331
11C
  5
11C
331
128
  5
128
331
FE
  5
FE
331
110
  5
110
331
F2
  5
F2
331
135
  5
135
331
129
  5
129
331
11D
  5
11D
331
111
  5
111
331
FF
  5
FF
331
136
  5
136
331
F3
  5
F3
331
11E
  5
11E
331
12A
  5
12A
331
100
  5
100
331
112
  5
112
331
F4
  5
F4
331
137
  5
137
331
12B
  5
12B
331
11F
  5
11F
331
113
  5
113
331
101
  5
101
331
138
  5
138
331
F5
  5
F5
331
120
  5
120
331
12C
  5
12C
331
114
  5
114
331
102
  5
102
331
F6
  5
F6
331
108
  5
108
331
139
  5
139
331
12D
  5
12D
331
121
  5
121
331
103
  5
103
331
115
  5
115
331
109
  5
109
331
F7
  5
F7
  0
XRECORD
  5
699
102
{ACAD_REACTORS
330
698
102
}
330
698
100
AcDbXrecord
280
     1
 40
1728639.0
  1
{\LNOTES:}\P\P\pi-0.18,l0.18;1. THE FIBER ROUTING AUXILIARY FRAMING CLIP - {\H0.7x;\S5#8;} " THREADED ROD INCLUDES:\P\pi0,l0;\P   TWO (2) CLIPS,\P   TWO (2) {\H0.7x;\S5#8;}" HELICAL SPRING LOCKWASHERS,\P   TWO (2) {\H0.7x;\S5#8;}-11 HEAVY HEX NUTS
  0
DIMASSOC
  5
650
102
{ACAD_REACTORS
330
645
102
}
330
645
100
AcDbDimAssoc
330
637
 90
        1
 70
     0
 71
     0
  1
AcDbOsnapPointRef
 72
     1
331
275
 73
     2
 91
        0
 40
1.0
 10
0.0
 20
0.0
 30
2.000000000000000E+50
 75
     0
  0
DIMASSOC
  5
681
102
{ACAD_REACTORS
330
680
102
}
330
680
100
AcDbDimAssoc
330
67E
 90
        1
 70
     0
 71
     0
  1
AcDbOsnapPointRef
 72
    13
331
4C8
 73
     2
 91
        0
 40
0.0
 10
0.0
 20
0.0
 30
2.000000000000000E+50
 75
     0
  0
LAYOUT
  5
59
102
{ACAD_XDICTIONARY
360
694
102
}
102
{ACAD_REACTORS
330
1A
102
}
330
1A
100
AcDbPlotSettings
  1

  2
None
  4

  6

 40
0.0
 41
0.0
 42
0.0
 43
0.0
 44
0.0
 45
0.0
 46
0.0
 47
0.0
 48
0.0
 49
0.0
140
0.0
141
0.0
142
1.0
143
1.0
 70
   688
 72
     0
 73
     0
 74
     5
  7

 75
    16
147
1.0
148
0.0
149
0.0
100
AcDbLayout
  1
Layout1
 70
     1
 71
     1
 10
0.0
 20
0.0
 11
12.0
 21
9.0
 12
0.0
 22
0.0
 32
0.0
 14
0.0
 24
0.0
 34
0.0
 15
0.0
 25
0.0
 35
0.0
146
0.0
 13
0.0
 23
0.0
 33
0.0
 16
1.0
 26
0.0
 36
0.0
 17
0.0
 27
1.0
 37
0.0
 76
     0
330
58
  0
LAYOUT
  5
5E
102
{ACAD_XDICTIONARY
360
696
102
}
102
{ACAD_REACTORS
330
1A
102
}
330
1A
100
AcDbPlotSettings
  1

  2
None
  4

  6

 40
0.0
 41
0.0
 42
0.0
 43
0.0
 44
0.0
 45
0.0
 46
0.0
 47
0.0
 48
0.0
 49
0.0
140
0.0
141
0.0
142
1.0
143
1.0
 70
   688
 72
     0
 73
     0
 74
     5
  7

 75
    16
147
1.0
148
0.0
149
0.0
100
AcDbLayout
  1
Layout2
 70
     1
 71
     2
 10
0.0
 20
0.0
 11
12.0
 21
9.0
 12
0.0
 22
0.0
 32
0.0
 14
0.0
 24
0.0
 34
0.0
 15
0.0
 25
0.0
 35
0.0
146
0.0
 13
0.0
 23
0.0
 33
0.0
 16
1.0
 26
0.0
 36
0.0
 17
0.0
 27
1.0
 37
0.0
 76
     0
330
5D
  0
LAYOUT
  5
22
102
{ACAD_XDICTIONARY
360
692
102
}
102
{ACAD_REACTORS
330
1A
102
}
330
1A
100
AcDbPlotSettings
  1

  2
none_device
  4
ANSI_A_(8.50_x_11.00_Inches)
  6

 40
6.349999904632568
 41
19.04999923706055
 42
6.350006103515625
 43
19.04998779296875
 44
215.8999938964844
 45
279.3999938964844
 46
0.0
 47
0.0
 48
0.0
 49
0.0
140
0.0
141
0.0
142
1.0
143
2.584895464708373
 70
 11952
 72
     0
 73
     1
 74
     0
  7

 75
     0
147
0.3868628397755418
148
0.0
149
0.0
100
AcDbLayout
  1
Model
 70
     1
 71
     0
 10
0.0
 20
0.0
 11
12.0
 21
9.0
 12
0.0
 22
0.0
 32
0.0
 14
0.0
 24
0.0
 34
0.0
 15
0.0
 25
0.0
 35
0.0
146
0.0
 13
0.0
 23
0.0
 33
0.0
 16
1.0
 26
0.0
 36
0.0
 17
0.0
 27
1.0
 37
0.0
 76
     0
330
1F
  0
MLINESTYLE
  5
18
102
{ACAD_REACTORS
330
17
102
}
330
17
100
AcDbMlineStyle
  2
STANDARD
 70
     0
  3

 62
   256
 51
90.0
 52
90.0
 71
     2
 49
0.5
 62
   256
  6
BYLAYER
 49
-0.5
 62
   256
  6
BYLAYER
  0
ACDBPLACEHOLDER
  5
F
102
{ACAD_REACTORS
330
E
102
}
330
E
  0
TABLESTYLE
  5
87
102
{ACAD_REACTORS
330
86
102
}
330
86
100
AcDbTableStyle
  3
Standard
 70
     0
 71
     0
 40
0.06
 41
0.06
280
     0
281
     0
  7
Standard
140
0.18
170
     2
 62
     0
 63
     7
283
     0
274
    -2
284
     1
 64
     0
275
    -2
285
     1
 65
     0
276
    -2
286
     1
 66
     0
277
    -2
287
     1
 67
     0
278
    -2
288
     1
 68
     0
279
    -2
289
     1
 69
     0
  7
Standard
140
0.25
170
     5
 62
     0
 63
     7
283
     0
274
    -2
284
     1
 64
     0
275
    -2
285
     1
 65
     0
276
    -2
286
     1
 66
     0
277
    -2
287
     1
 67
     0
278
    -2
288
     1
 68
     0
279
    -2
289
     1
 69
     0
  7
Standard
140
0.18
170
     5
 62
     0
 63
     7
283
     0
274
    -2
284
     1
 64
     0
275
    -2
285
     1
 65
     0
276
    -2
286
     1
 66
     0
277
    -2
287
     1
 67
     0
278
    -2
288
     1
 68
     0
279
    -2
289
     1
 69
     0
  0
DICTIONARYVAR
  5
612
102
{ACAD_REACTORS
330
66
102
}
330
66
100
DictionaryVariables
280
     0
  1
STANDARD
  0
DICTIONARYVAR
  5
67
102
{ACAD_REACTORS
330
66
102
}
330
66
100
DictionaryVariables
280
     0
  1
2
  0
DICTIONARYVAR
  5
6B
102
{ACAD_REACTORS
330
66
102
}
330
66
100
DictionaryVariables
280
     0
  1
1
  0
DICTIONARYVAR
  5
68F
102
{ACAD_REACTORS
330
66
102
}
330
66
100
DictionaryVariables
280
     0
  1

  0
DICTIONARY
  5
694
330
59
100
AcDbDictionary
280
     1
281
     1
  3
ACAD_XREC_ROUNDTRIP
360
695
  0
DICTIONARY
  5
696
330
5E
100
AcDbDictionary
280
     1
281
     1
  3
ACAD_XREC_ROUNDTRIP
360
697
  0
DICTIONARY
  5
692
330
22
100
AcDbDictionary
280
     1
281
     1
  3
ACAD_XREC_ROUNDTRIP
360
693
  0
XRECORD
  5
695
102
{ACAD_REACTORS
330
694
102
}
330
694
100
AcDbXrecord
280
     1
102
SHADEPLOT
 70
     0
102
SHADEPLOTRESLEVEL
 70
     2
102
SHADEPLOTCUSTOMDPI
 70
   300
  0
XRECORD
  5
697
102
{ACAD_REACTORS
330
696
102
}
330
696
100
AcDbXrecord
280
     1
102
SHADEPLOT
 70
     0
102
SHADEPLOTRESLEVEL
 70
     2
102
SHADEPLOTCUSTOMDPI
 70
   300
  0
XRECORD
  5
693
102
{ACAD_REACTORS
330
692
102
}
330
692
100
AcDbXrecord
280
     1
102
SHADEPLOT
 70
     0
102
SHADEPLOTRESLEVEL
 70
     2
102
SHADEPLOTCUSTOMDPI
 70
   300
  0
ENDSEC
  0
EOF
